  0
SECTION
  2
HEADER
  9
$ACADVER
  1
AC1014
  9
$ACADMAINTVER
 70
     9
  9
$DWGCODEPAGE
  3
ANSI_932
  9
$INSBASE
 10
0.0
 20
0.0
 30
0.0
  9
$EXTMIN
 10
-104.8328591193947
 20
-106.5001664429652
 30
-0.00000001
  9
$EXTMAX
 10
35.00016644296529
 20
50.20253860631648
 30
0.00000001
  9
$LIMMIN
 10
-141.7667783794812
 20
-124.885471245945
  9
$LIMMAX
 10
44.98735384098631
 20
65.87954790428454
  9
$ORTHOMODE
 70
     0
  9
$REGENMODE
 70
     1
  9
$FILLMODE
 70
     1
  9
$QTEXTMODE
 70
     0
  9
$MIRRTEXT
 70
     0
  9
$DRAGMODE
 70
     2
  9
$LTSCALE
 40
1.0
  9
$OSMODE
 70
    55
  9
$ATTMODE
 70
     1
  9
$TEXTSIZE
 40
2.5
  9
$TRACEWID
 40
1.0
  9
$TEXTSTYLE
  7
STANDARD
  9
$CLAYER
  8
AM_0
  9
$CELTYPE
  6
BYLAYER
  9
$CECOLOR
 62
   256
  9
$CELTSCALE
 40
1.0
  9
$DELOBJ
 70
     1
  9
$DISPSILH
 70
     0
  9
$DIMSCALE
 40
1.0
  9
$DIMASZ
 40
2.5
  9
$DIMEXO
 40
1.0
  9
$DIMDLI
 40
12.0
  9
$DIMRND
 40
0.0
  9
$DIMDLE
 40
0.0
  9
$DIMEXE
 40
1.0
  9
$DIMTP
 40
0.1
  9
$DIMTM
 40
0.1
  9
$DIMTXT
 40
3.2
  9
$DIMCEN
 40
0.0
  9
$DIMTSZ
 40
0.0
  9
$DIMTOL
 70
     0
  9
$DIMLIM
 70
     0
  9
$DIMTIH
 70
     0
  9
$DIMTOH
 70
     0
  9
$DIMSE1
 70
     0
  9
$DIMSE2
 70
     0
  9
$DIMTAD
 70
     3
  9
$DIMZIN
 70
     8
  9
$DIMBLK
  1
OPEN30
  9
$DIMASO
 70
     1
  9
$DIMSHO
 70
     1
  9
$DIMPOST
  1

  9
$DIMAPOST
  1
"
  9
$DIMALT
 70
     0
  9
$DIMALTD
 70
     2
  9
$DIMALTF
 40
0.0393701
  9
$DIMLFAC
 40
1.0
  9
$DIMTOFL
 70
     1
  9
$DIMTVP
 40
0.0
  9
$DIMTIX
 70
     0
  9
$DIMSOXD
 70
     0
  9
$DIMSAH
 70
     0
  9
$DIMBLK1
  1

  9
$DIMBLK2
  1

  9
$DIMSTYLE
  2
AM_JIS
  9
$DIMCLRD
 70
   256
  9
$DIMCLRE
 70
   256
  9
$DIMCLRT
 70
     2
  9
$DIMTFAC
 40
0.71
  9
$DIMGAP
 40
1.5
  9
$DIMJUST
 70
     0
  9
$DIMSD1
 70
     0
  9
$DIMSD2
 70
     0
  9
$DIMTOLJ
 70
     0
  9
$DIMTZIN
 70
     0
  9
$DIMALTZ
 70
     0
  9
$DIMALTTZ
 70
     0
  9
$DIMFIT
 70
     3
  9
$DIMUPT
 70
     0
  9
$DIMUNIT
 70
     2
  9
$DIMDEC
 70
     3
  9
$DIMTDEC
 70
     3
  9
$DIMALTU
 70
     2
  9
$DIMALTTD
 70
     2
  9
$DIMTXSTY
  7
ASAMI
  9
$DIMAUNIT
 70
     0
  9
$LUNITS
 70
     2
  9
$LUPREC
 70
     2
  9
$SKETCHINC
 40
1.0
  9
$FILLETRAD
 40
2.0
  9
$AUNITS
 70
     0
  9
$AUPREC
 70
     0
  9
$MENU
  1
.
  9
$ELEVATION
 40
0.0
  9
$PELEVATION
 40
0.0
  9
$THICKNESS
 40
0.0
  9
$LIMCHECK
 70
     0
  9
$BLIPMODE
 70
     0
  9
$CHAMFERA
 40
1.3
  9
$CHAMFERB
 40
1.3
  9
$CHAMFERC
 40
20.0
  9
$CHAMFERD
 40
0.0
  9
$SKPOLY
 70
     0
  9
$TDCREATE
 40
2452836.771637361
  9
$TDUPDATE
 40
2453152.371115138
  9
$TDINDWG
 40
0.0923220602
  9
$TDUSRTIMER
 40
0.0923220602
  9
$USRTIMER
 70
     1
  9
$ANGBASE
 50
0.0
  9
$ANGDIR
 70
     0
  9
$PDMODE
 70
     0
  9
$PDSIZE
 40
0.0
  9
$PLINEWID
 40
0.0
  9
$COORDS
 70
     1
  9
$SPLFRAME
 70
     0
  9
$SPLINETYPE
 70
     6
  9
$SPLINESEGS
 70
     8
  9
$ATTDIA
 70
     1
  9
$ATTREQ
 70
     1
  9
$HANDLING
 70
 12289
  9
$HANDSEED
  5
4953
  9
$SURFTAB1
 70
     6
  9
$SURFTAB2
 70
     6
  9
$SURFTYPE
 70
     6
  9
$SURFU
 70
     6
  9
$SURFV
 70
     6
  9
$UCSNAME
  2

  9
$UCSORG
 10
0.0
 20
0.0
 30
0.0
  9
$UCSXDIR
 10
1.0
 20
0.0
 30
0.0
  9
$UCSYDIR
 10
0.0
 20
1.0
 30
0.0
  9
$PUCSNAME
  2

  9
$PUCSORG
 10
0.0
 20
0.0
 30
0.0
  9
$PUCSXDIR
 10
1.0
 20
0.0
 30
0.0
  9
$PUCSYDIR
 10
0.0
 20
1.0
 30
0.0
  9
$USERI1
 70
     0
  9
$USERI2
 70
     0
  9
$USERI3
 70
     0
  9
$USERI4
 70
     0
  9
$USERI5
 70
     0
  9
$USERR1
 40
0.0
  9
$USERR2
 40
0.0
  9
$USERR3
 40
0.0
  9
$USERR4
 40
0.0
  9
$USERR5
 40
0.0
  9
$WORLDVIEW
 70
     1
  9
$SHADEDGE
 70
     3
  9
$SHADEDIF
 70
    70
  9
$TILEMODE
 70
     1
  9
$MAXACTVP
 70
    64
  9
$PINSBASE
 10
0.0
 20
0.0
 30
0.0
  9
$PLIMCHECK
 70
     0
  9
$PEXTMIN
 10
1.000000000000000E+20
 20
1.000000000000000E+20
 30
1.000000000000000E+20
  9
$PEXTMAX
 10
-1.000000000000000E+20
 20
-1.000000000000000E+20
 30
-1.000000000000000E+20
  9
$PLIMMIN
 10
0.0
 20
0.0
  9
$PLIMMAX
 10
841.0
 20
594.0
  9
$UNITMODE
 70
     0
  9
$VISRETAIN
 70
     1
  9
$PLINEGEN
 70
     0
  9
$PSLTSCALE
 70
     0
  9
$TREEDEPTH
 70
  3020
  9
$PICKSTYLE
 70
     0
  9
$CMLSTYLE
  2
STANDARD
  9
$CMLJUST
 70
     0
  9
$CMLSCALE
 40
20.0
  9
$PROXYGRAPHICS
 70
     1
  9
$MEASUREMENT
 70
     1
  0
ENDSEC
  0
SECTION
  2
CLASSES
  0
CLASS
  1
ACDBDICTIONARYWDFLT
  2
AcDbDictionaryWithDefault
  3
AutoCAD 2000
 90
        0
280
     0
281
     0
  0
CLASS
  1
ACDBPLACEHOLDER
  2
AcDbPlaceHolder
  3
AutoCAD 2000
 90
        0
280
     0
281
     0
  0
CLASS
  1
LAYOUT
  2
AcDbLayout
  3
AutoCAD 2000
 90
        0
280
     0
281
     0
  0
CLASS
  1
AMGSETTINGSOBJ
  2
AmgSettingsObj
  3
"AcadM|Product Description: AutoCAD Mechanical 2000|Company: Autodesk"
 90
        0
280
     0
281
     0
  0
CLASS
  1
ACME_DOCUMENT
  2
AcMeDbDoc
  3
AcMeServices
 90
        0
280
     0
281
     0
  0
CLASS
  1
ACMESCOPE
  2
AcMeScope
  3
AcMeServices
 90
        0
280
     0
281
     0
  0
CLASS
  1
ACMECOMMANDHISTORY
  2
AcMeCommandHistory
  3
AcMeServices
 90
        0
280
     0
281
     0
  0
CLASS
  1
DICTIONARYVAR
  2
AcDbDictionaryVar
  3
AutoCAD 2000
 90
        0
280
     0
281
     0
  0
CLASS
  1
ACIMSYSVARMAN
  2
AcImSysVarManager
  3
AcMeServices
 90
        0
280
     0
281
     0
  0
CLASS
  1
ACIMREALSYSVAR
  2
AcImRealSysVar
  3
AcMeServices
 90
        0
280
     0
281
     0
  0
CLASS
  1
ACIMINTSYSVAR
  2
AcImIntSysVar
  3
AcMeServices
 90
        0
280
     0
281
     0
  0
CLASS
  1
ACMEDRAWINGMAN
  2
AcMeDrawingMan
  3
AcMeServices
 90
        0
280
     0
281
     0
  0
CLASS
  1
ACMEVIEW
  2
AcMeView
  3
AcMeServices
 90
        0
280
     0
281
     0
  0
CLASS
  1
ACDBENTITYCACHE
  2
AcMeEntityCache
  3
AcMeServices
 90
        0
280
     0
281
     0
  0
CLASS
  1
GSMANAGER
  2
AcMeGSManager
  3
AcMeServices
 90
        0
280
     0
281
     0
  0
CLASS
  1
AmdtInternalReactor
  2
AmdtInternalReactor
  3
AcMeServices
 90
        0
280
     0
281
     0
  0
CLASS
  1
ACMESTATEMGR
  2
AcMeStateMgr
  3
AcMeServices
 90
        0
280
     0
281
     0
  0
CLASS
  1
ACME_DATABASE
  2
AcMeDbDatabase
  3
AcMeServices
 90
        0
280
     0
281
     0
  0
CLASS
  1
ACRFINSADJUSTERMGR
  2
AcRfInsAdjusterMgr
  3
AcMeServices
 90
        0
280
     0
281
     0
  0
CLASS
  1
ACMDATADICTIONARY
  2
AcmDataDictionary
  3
"AcmSymBB|Product Description: AutoCAD Mechanical 2000|Company: Autodesk"
 90
        0
280
     0
281
     0
  0
CLASS
  1
ACMDATAENTRYBLOCK
  2
AcmDataEntryBlock
  3
"AcmSymBB|Product Description: AutoCAD Mechanical 2000|Company: Autodesk"
 90
        0
280
     0
281
     0
  0
CLASS
  1
AMGOBJPROPCFG
  2
AmgObjPropCfg
  3
"AmgLay|Product Description: AutoCAD Mechanical 2000|Company: Autodesk"
 90
        1
280
     0
281
     0
  0
CLASS
  1
ACAMGFILTERDAT
  2
AcAmgFilterDat
  3
"AcadM|Product Description: AutoCAD Mechanical 2000|Company: Autodesk"
 90
        0
280
     0
281
     0
  0
CLASS
  1
LAYER_INDEX
  2
AcDbLayerIndex
  3
AutoCAD 2000
 90
        0
280
     0
281
     0
  0
CLASS
  1
IDBUFFER
  2
AcDbIdBuffer
  3
AutoCAD 2000
 90
        0
280
     0
281
     0
  0
CLASS
  1
ACIMSTRSYSVAR
  2
AcImStrSysVar
  3
AcMeServices
 90
        0
280
     0
281
     0
  0
CLASS
  1
ACMSTANDARDJIS
  2
AcmStandardJIS
  3
"AcmSymBB|Product Description: AutoCAD Mechanical 2000|Company: Autodesk"
 90
        0
280
     0
281
     0
  0
CLASS
  1
ACMSURFSTANDARDJIS
  2
AcmSurfTextStdJIS
  3
"AcmSymBB|Product Description: AutoCAD Mechanical 2000|Company: Autodesk"
 90
        0
280
     0
281
     0
  0
CLASS
  1
ACMFCFSTANDARDJIS
  2
AcmFCFStdJIS
  3
"AcmSymBB|Product Description: AutoCAD Mechanical 2000|Company: Autodesk"
 90
        0
280
     0
281
     0
  0
CLASS
  1
ACMWELDSTANDARDJIS
  2
AcmWeldingStdJIS
  3
"AcmSymBB|Product Description: AutoCAD Mechanical 2000|Company: Autodesk"
 90
        0
280
     0
281
     0
  0
CLASS
  1
ACMIDSTANDARDJIS
  2
AcmIdStdJIS
  3
"AcmSymBB|Product Description: AutoCAD Mechanical 2000|Company: Autodesk"
 90
        0
280
     0
281
     0
  0
CLASS
  1
ACMDATUMSTANDARDJIS
  2
AcmDatumStdJIS
  3
"AcmSymBB|Product Description: AutoCAD Mechanical 2000|Company: Autodesk"
 90
        0
280
     0
281
     0
  0
CLASS
  1
ACMBOMSTANDARDJIS
  2
AcmBOMStdJIS
  3
"AcmSymBB|Product Description: AutoCAD Mechanical 2000|Company: Autodesk"
 90
        0
280
     0
281
     0
  0
CLASS
  1
ACMSTANDARDANSI
  2
AcmStandardANSI
  3
"AcmSymBB|Product Description: AutoCAD Mechanical 2000|Company: Autodesk"
 90
        0
280
     0
281
     0
  0
CLASS
  1
ACMSURFSTANDARDANSI
  2
AcmSurfTextStdANSI
  3
"AcmSymBB|Product Description: AutoCAD Mechanical 2000|Company: Autodesk"
 90
        0
280
     0
281
     0
  0
CLASS
  1
ACMFCFSTANDARDANSI
  2
AcmFCFStdANSI
  3
"AcmSymBB|Product Description: AutoCAD Mechanical 2000|Company: Autodesk"
 90
        0
280
     0
281
     0
  0
CLASS
  1
ACMWELDSTANDARDANSI
  2
AcmWeldingStdANSI
  3
"AcmSymBB|Product Description: AutoCAD Mechanical 2000|Company: Autodesk"
 90
        0
280
     0
281
     0
  0
CLASS
  1
ACMIDSTANDARDANSI
  2
AcmIdStdANSI
  3
"AcmSymBB|Product Description: AutoCAD Mechanical 2000|Company: Autodesk"
 90
        0
280
     0
281
     0
  0
CLASS
  1
ACMDATUMSTANDARDANSI
  2
AcmDatumStdANSI
  3
"AcmSymBB|Product Description: AutoCAD Mechanical 2000|Company: Autodesk"
 90
        0
280
     0
281
     0
  0
CLASS
  1
ACMBOMSTANDARDANSI
  2
AcmBOMStdANSI
  3
"AcmSymBB|Product Description: AutoCAD Mechanical 2000|Company: Autodesk"
 90
        0
280
     0
281
     0
  0
CLASS
  1
ACMSTANDARDBSI
  2
AcmStandardBSI
  3
"AcmSymBB|Product Description: AutoCAD Mechanical 2000|Company: Autodesk"
 90
        0
280
     0
281
     0
  0
CLASS
  1
ACMSURFSTANDARDBSI
  2
AcmSurfTextStdBSI
  3
"AcmSymBB|Product Description: AutoCAD Mechanical 2000|Company: Autodesk"
 90
        0
280
     0
281
     0
  0
CLASS
  1
ACMFCFSTANDARDBSI
  2
AcmFCFStdBSI
  3
"AcmSymBB|Product Description: AutoCAD Mechanical 2000|Company: Autodesk"
 90
        0
280
     0
281
     0
  0
CLASS
  1
ACMWELDSTANDARDBSI
  2
AcmWeldingStdBSI
  3
"AcmSymBB|Product Description: AutoCAD Mechanical 2000|Company: Autodesk"
 90
        0
280
     0
281
     0
  0
CLASS
  1
ACMIDSTANDARDBSI
  2
AcmIdStdBSI
  3
"AcmSymBB|Product Description: AutoCAD Mechanical 2000|Company: Autodesk"
 90
        0
280
     0
281
     0
  0
CLASS
  1
ACMDATUMSTANDARDBSI
  2
AcmDatumStdBSI
  3
"AcmSymBB|Product Description: AutoCAD Mechanical 2000|Company: Autodesk"
 90
        0
280
     0
281
     0
  0
CLASS
  1
ACMBOMSTANDARDBSI
  2
AcmBOMStdBSI
  3
"AcmSymBB|Product Description: AutoCAD Mechanical 2000|Company: Autodesk"
 90
        0
280
     0
281
     0
  0
CLASS
  1
LONG_TRANSACTION
  2
AcDbLongTransaction
  3
AutoCAD 2000
 90
        0
280
     0
281
     0
  0
CLASS
  1
LWPOLYLINE
  2
AcDbPolyline
  3
AutoCAD 2000
 90
        0
280
     0
281
     1
  0
CLASS
  1
HATCH
  2
AcDbHatch
  3
AutoCAD 2000
 90
        0
280
     0
281
     1
  0
CLASS
  1
XRECORD
  2
AcDbXrecord
  3
AutoCAD 2000
 90
        0
280
     0
281
     0
  0
ENDSEC
  0
SECTION
  2
TABLES
  0
TABLE
  2
VPORT
  5
8
330
0
100
AcDbSymbolTable
 70
     3
  0
VPORT
  5
4928
330
8
100
AcDbSymbolTableRecord
100
AcDbViewportTableRecord
  2
*ACTIVE
 70
     0
 10
0.0
 20
0.0
 11
1.0
 21
1.0
 12
-32.5457027958127
 22
-28.14941914280666
 13
0.0
 23
0.0
 14
2.5
 24
2.5
 15
10.0
 25
10.0
 16
0.0
 26
0.0
 36
1.0
 17
0.0
 27
0.0
 37
0.0
 40
157.6842267082073
 41
1.56570841889117
 42
50.0
 43
0.0
 44
0.0
 50
0.0
 51
0.0
 71
     0
 72
   100
 73
     1
 74
     3
 75
     0
 76
     0
 77
     0
 78
     0
  0
ENDTAB
  0
TABLE
  2
LTYPE
  5
5
330
0
100
AcDbSymbolTable
 70
    10
  0
LTYPE
  5
14
330
5
100
AcDbSymbolTableRecord
100
AcDbLinetypeTableRecord
  2
BYBLOCK
 70
     0
  3

 72
    65
 73
     0
 40
0.0
  0
LTYPE
  5
15
330
5
100
AcDbSymbolTableRecord
100
AcDbLinetypeTableRecord
  2
BYLAYER
 70
     0
  3

 72
    65
 73
     0
 40
0.0
  0
LTYPE
  5
16
330
5
100
AcDbSymbolTableRecord
100
AcDbLinetypeTableRecord
  2
CONTINUOUS
 70
     0
  3
Solid line
 72
    65
 73
     0
 40
0.0
  0
LTYPE
  5
4B
330
5
100
AcDbSymbolTableRecord
100
AcDbLinetypeTableRecord
  2
AM_ISO02W050
 70
     0
  3
__ __ __ __ __ __ __ __ __ __ __ __ __ __ __
 72
    65
 73
     2
 40
7.5
 49
6.0
 74
     0
 49
-1.5
 74
     0
  0
LTYPE
  5
4C
330
5
100
AcDbSymbolTableRecord
100
AcDbLinetypeTableRecord
  2
AM_ISO08W050
 70
     0
  3
____ . ____ . ____ . ____ . ____ . ____ . ____
 72
    65
 73
     4
 40
18.0
 49
12.0
 74
     0
 49
-1.5
 74
     0
 49
3.0
 74
     0
 49
-1.5
 74
     0
  0
LTYPE
  5
4D
330
5
100
AcDbSymbolTableRecord
100
AcDbLinetypeTableRecord
  2
AM_ISO09W050
 70
     0
  3
_____ . . _____ . . _____ . . ____ .. ____
 72
    65
 73
     6
 40
22.5
 49
12.0
 74
     0
 49
-1.5
 74
     0
 49
3.0
 74
     0
 49
-1.5
 74
     0
 49
3.0
 74
     0
 49
-1.5
 74
     0
  0
LTYPE
  5
4E
330
5
100
AcDbSymbolTableRecord
100
AcDbLinetypeTableRecord
  2
AMCONSTR
 70
     0
  3
_______________________
 72
    65
 73
     2
 40
9999.0
 49
9999.0
 74
     0
 49
0.0
 74
     0
  0
LTYPE
  5
4F
330
5
100
AcDbSymbolTableRecord
100
AcDbLinetypeTableRecord
  2
AM_ISO02W050X2
 70
     0
  3
 _ _ _ _ _ _ _ _ _ _ _ _
 72
    65
 73
     2
 40
3.75
 49
3.0
 74
     0
 49
-0.75
 74
     0
  0
LTYPE
  5
50
330
5
100
AcDbSymbolTableRecord
100
AcDbLinetypeTableRecord
  2
AM_ISO08W050X2
 70
     0
  3
__ . __ . __ . __ . __ . __
 72
    65
 73
     4
 40
9.0
 49
6.0
 74
     0
 49
-0.75
 74
     0
 49
1.5
 74
     0
 49
-0.75
 74
     0
  0
LTYPE
  5
53
330
5
100
AcDbSymbolTableRecord
100
AcDbLinetypeTableRecord
  2
AMZIGZAG
 70
     0
  3
/\/-/\/-/\/-/\/-/\/-/\/
 72
    65
 73
     2
 40
11.00009999999999
 49
0.0001
 74
     4
 75
   135
340
52
 46
0.04
 50
0.0
 44
0.0
 45
0.0
 49
-11.0
 74
     0
  0
LTYPE
  5
166
330
5
100
AcDbSymbolTableRecord
100
AcDbLinetypeTableRecord
  2
ACJISTGL
 70
     0
  3
_ _ _ _ _
 72
    65
 73
     2
 40
3.0
 49
2.0
 74
     0
 49
-1.0
 74
     0
  0
LTYPE
  5
26A
330
5
100
AcDbSymbolTableRecord
100
AcDbLinetypeTableRecord
  2
ACJISTGB
 70
     0
  3
__ . . __ . .
 72
    65
 73
     6
 40
9.0
 49
4.0
 74
     0
 49
-1.0
 74
     0
 49
1.0
 74
     0
 49
-1.0
 74
     0
 49
1.0
 74
     0
 49
-1.0
 74
     0
  0
ENDTAB
  0
TABLE
  2
LAYER
  5
2
330
0
100
AcDbSymbolTable
 70
     8
  0
LAYER
  5
10
330
2
100
AcDbSymbolTableRecord
100
AcDbLayerTableRecord
  2
0
 70
     0
 62
     7
  6
CONTINUOUS
  0
LAYER
  5
3F9
330
2
100
AcDbSymbolTableRecord
100
AcDbLayerTableRecord
  2
AM_0
 70
     0
 62
     7
  6
CONTINUOUS
  0
LAYER
  5
BD5
330
2
100
AcDbSymbolTableRecord
100
AcDbLayerTableRecord
  2
AM_7
 70
     0
 62
     4
  6
AM_ISO08W050
  0
LAYER
  5
BD6
330
2
100
AcDbSymbolTableRecord
100
AcDbLayerTableRecord
  2
AM_5
 70
     0
 62
     3
  6
CONTINUOUS
  0
LAYER
  5
BD7
330
2
100
AcDbSymbolTableRecord
100
AcDbLayerTableRecord
  2
DEFPOINTS
 70
     0
 62
     7
  6
CONTINUOUS
  0
LAYER
  5
E59
330
2
100
AcDbSymbolTableRecord
100
AcDbLayerTableRecord
  2
AM_6
 70
     0
 62
     2
  6
CONTINUOUS
  0
LAYER
  5
1E31
330
2
100
AcDbSymbolTableRecord
100
AcDbLayerTableRecord
  2
AM_11
 70
     0
 62
     3
  6
AM_ISO09W050
  0
LAYER
  5
1E41
330
2
100
AcDbSymbolTableRecord
100
AcDbLayerTableRecord
  2
AM_3
 70
     0
 62
     6
  6
ACJISTGL
  0
ENDTAB
  0
TABLE
  2
STYLE
  5
3
330
0
100
AcDbSymbolTable
 70
     5
  0
STYLE
  5
11
330
3
100
AcDbSymbolTableRecord
100
AcDbTextStyleTableRecord
  2
STANDARD
 70
     0
 40
0.0
 41
1.0
 50
0.0
 71
     0
 42
2.5
  3
simplex.shx
  4
EXTFONT.SHX
  0
STYLE
  5
52
330
3
100
AcDbSymbolTableRecord
100
AcDbTextStyleTableRecord
  2

 70
     1
 40
0.0
 41
1.0
 50
0.0
 71
     0
 42
2.5
  3
ltypeshp.shx
  4

  0
STYLE
  5
6B
330
3
100
AcDbSymbolTableRecord
100
AcDbTextStyleTableRecord
  2
ASAMI
 70
     0
 40
0.0
 41
1.0
 50
0.0
 71
     0
 42
2.5
  3
simplex.shx
  4
EXTFONT.SHX
  0
STYLE
  5
262
330
3
100
AcDbSymbolTableRecord
100
AcDbTextStyleTableRecord
  2
ACJISTS
 70
     0
 40
1.0
 41
1.0
 50
0.0
 71
     0
 42
2.5
  3
simplex.shx
  4
bigfont.shx
  0
STYLE
  5
269
330
3
100
AcDbSymbolTableRecord
100
AcDbTextStyleTableRecord
  2
ACJISGDT
 70
     0
 40
0.0
 41
1.0
 50
0.0
 71
     0
 42
2.5
  3
amgdtans.shx
  4

  0
ENDTAB
  0
TABLE
  2
VIEW
  5
6
330
0
100
AcDbSymbolTable
 70
     0
  0
ENDTAB
  0
TABLE
  2
UCS
  5
7
330
0
100
AcDbSymbolTable
 70
     0
  0
ENDTAB
  0
TABLE
  2
APPID
  5
9
330
0
100
AcDbSymbolTable
 70
    13
  0
APPID
  5
12
330
9
100
AcDbSymbolTableRecord
100
AcDbRegAppTableRecord
  2
ACAD
 70
     0
  0
APPID
  5
30
330
9
100
AcDbSymbolTableRecord
100
AcDbRegAppTableRecord
  2
MCAD_NO_VIS
 70
     0
  0
APPID
  5
31
330
9
100
AcDbSymbolTableRecord
100
AcDbRegAppTableRecord
  2
ACAD_TEMP_GRAPHIC
 70
     0
  0
APPID
  5
2C2
330
9
100
AcDbSymbolTableRecord
100
AcDbRegAppTableRecord
  2
GENIUS_GENDTOL_13
 70
     0
  0
APPID
  5
339
330
9
100
AcDbSymbolTableRecord
100
AcDbRegAppTableRecord
  2
GENIUS_GENODEF_13
 70
     0
  0
APPID
  5
33A
330
9
100
AcDbSymbolTableRecord
100
AcDbRegAppTableRecord
  2
GENIUS_GENOBJ-N-RSBK_13
 70
     0
  0
APPID
  5
33B
330
9
100
AcDbSymbolTableRecord
100
AcDbRegAppTableRecord
  2
GENIUS_GENOBJ-N-LIB_13
 70
     0
  0
APPID
  5
33C
330
9
100
AcDbSymbolTableRecord
100
AcDbRegAppTableRecord
  2
GENIUS_GENSCALE_13
 70
     0
  0
APPID
  5
378
330
9
100
AcDbSymbolTableRecord
100
AcDbRegAppTableRecord
  2
GENIUS_GENDIMSH_14
 70
     0
  0
APPID
  5
BD8
330
9
100
AcDbSymbolTableRecord
100
AcDbRegAppTableRecord
  2
GENIUS_GENOBJ-N-CEN_13
 70
     0
  0
APPID
  5
BD9
330
9
100
AcDbSymbolTableRecord
100
AcDbRegAppTableRecord
  2
GENIUS_GENFIL_13
 70
     0
  0
APPID
  5
BDA
330
9
100
AcDbSymbolTableRecord
100
AcDbRegAppTableRecord
  2
GENIUS_GENOBJ-N-CHA_13
 70
     0
  0
APPID
  5
2BC1
330
9
100
AcDbSymbolTableRecord
100
AcDbRegAppTableRecord
  2
GENIUS_GENOBJ-N-FIL_13
 70
     0
  0
ENDTAB
  0
TABLE
  2
DIMSTYLE
  5
A
330
0
100
AcDbSymbolTable
 70
     9
  0
DIMSTYLE
105
58
102
{ACAD_REACTORS
330
3FCA
330
3FCB
330
3FCC
330
406B
330
406D
330
406C
330
40E8
330
40E7
102
}
330
A
100
AcDbSymbolTableRecord
100
AcDbDimStyleTableRecord
  2
AM_JIS
 70
     0
  3

  4
"
  5
OPEN30
  6

  7

 40
1.0
 41
2.5
 42
1.0
 43
12.0
 44
1.0
 45
0.0
 46
0.0
 47
0.1
 48
0.1
140
3.2
141
0.0
142
0.0
143
0.0393701
144
1.0
145
0.0
146
0.71
147
1.5
 71
     0
 72
     0
 73
     0
 74
     0
 75
     0
 76
     0
 77
     3
 78
     8
170
     0
171
     2
172
     1
173
     0
174
     0
175
     0
176
   256
177
   256
178
     2
270
     2
271
     3
272
     3
273
     2
274
     2
340
6B
275
     0
280
     0
281
     0
282
     0
283
     0
284
     0
285
     0
286
     0
287
     3
288
     0
  0
DIMSTYLE
105
5F
330
A
100
AcDbSymbolTableRecord
100
AcDbDimStyleTableRecord
  2
AM_JIS$3
 70
     0
  3

  4
"
  5
OPEN30
  6

  7

 40
1.0
 41
2.5
 42
1.0
 43
10.0
 44
1.0
 45
0.0
 46
0.0
 47
0.1
 48
0.1
140
3.2
141
0.0
142
0.0
143
0.0393701
144
1.0
145
0.0
146
0.71
147
1.5
 71
     0
 72
     0
 73
     0
 74
     1
 75
     0
 76
     0
 77
     3
 78
     8
170
     0
171
     2
172
     0
173
     0
174
     0
175
     0
176
   256
177
   256
178
     2
270
     2
271
     2
272
     3
273
     2
274
     2
340
6B
275
     0
280
     0
281
     0
282
     0
283
     0
284
     0
285
     0
286
     0
287
     0
288
     1
  0
DIMSTYLE
105
60
330
A
100
AcDbSymbolTableRecord
100
AcDbDimStyleTableRecord
  2
AM_JIS$4
 70
     0
  3

  4
"
  5
OPEN30
  6

  7

 40
1.0
 41
2.5
 42
1.0
 43
10.0
 44
1.0
 45
0.0
 46
0.0
 47
0.1
 48
0.1
140
3.2
141
0.0
142
0.0
143
0.0393701
144
1.0
145
0.0
146
0.71
147
1.5
 71
     0
 72
     0
 73
     0
 74
     1
 75
     0
 76
     0
 77
     3
 78
     8
170
     0
171
     2
172
     0
173
     0
174
     0
175
     0
176
   256
177
   256
178
     2
270
     2
271
     2
272
     3
273
     2
274
     2
340
6B
275
     0
280
     0
281
     0
282
     0
283
     0
284
     0
285
     0
286
     0
287
     0
288
     1
  0
DIMSTYLE
105
61
330
A
100
AcDbSymbolTableRecord
100
AcDbDimStyleTableRecord
  2
AM_JIS$6
 70
     0
  3

  4
"
  5
OPEN30
  6

  7

 40
1.0
 41
2.5
 42
1.0
 43
10.0
 44
1.0
 45
0.0
 46
0.0
 47
0.1
 48
0.1
140
3.2
141
0.0
142
0.0
143
0.0393701
144
1.0
145
0.0
146
0.71
147
1.5
 71
     0
 72
     0
 73
     0
 74
     0
 75
     0
 76
     0
 77
     0
 78
     8
170
     0
171
     2
172
     1
173
     0
174
     0
175
     0
176
   256
177
   256
178
     2
270
     2
271
     2
272
     2
273
     2
274
     2
340
6B
275
     0
280
     0
281
     0
282
     0
283
     0
284
     0
285
     0
286
     0
287
     3
288
     0
  0
DIMSTYLE
105
62
330
A
100
AcDbSymbolTableRecord
100
AcDbDimStyleTableRecord
  2
AM_JIS$7
 70
     0
  3

  4
"
  5
OPEN30
  6

  7

 40
1.0
 41
2.5
 42
1.0
 43
10.0
 44
1.0
 45
0.0
 46
0.0
 47
0.1
 48
0.1
140
3.2
141
0.0
142
0.0
143
0.0393701
144
1.0
145
0.0
146
0.71
147
1.5
 71
     0
 72
     0
 73
     0
 74
     0
 75
     0
 76
     0
 77
     3
 78
     8
170
     0
171
     2
172
     1
173
     0
174
     0
175
     0
176
   256
177
   256
178
     2
270
     2
271
     2
272
     3
273
     2
274
     2
340
6B
275
     0
280
     0
281
     0
282
     0
283
     0
284
     0
285
     0
286
     0
287
     3
288
     0
  0
DIMSTYLE
105
63
330
A
100
AcDbSymbolTableRecord
100
AcDbDimStyleTableRecord
  2
AM_JIS$SF
 70
     0
  3

  4
"
  5
OPEN30
  6

  7

 40
1.0
 41
2.5
 42
1.0
 43
10.0
 44
1.0
 45
0.0
 46
0.0
 47
0.1
 48
0.1
140
3.2
141
0.0
142
0.0
143
0.0393701
144
1.0
145
0.0
146
0.71
147
1.5
 71
     0
 72
     0
 73
     0
 74
     0
 75
     1
 76
     1
 77
     3
 78
     8
170
     0
171
     2
172
     1
173
     0
174
     0
175
     0
176
   256
177
   256
178
     2
270
     2
271
     2
272
     2
273
     2
274
     2
340
6B
275
     0
280
     0
281
     0
282
     0
283
     0
284
     0
285
     0
286
     0
287
     3
288
     0
  0
DIMSTYLE
105
68
330
A
100
AcDbSymbolTableRecord
100
AcDbDimStyleTableRecord
  2
AM_JIS$SH
 70
     0
  3

  4
"
  5

  6
GENAXEH
  7
OPEN30
 40
1.0
 41
2.5
 42
1.0
 43
10.0
 44
1.0
 45
0.0
 46
0.0
 47
0.1
 48
0.1
140
3.2
141
0.0
142
0.0
143
0.0393701
144
2.0
145
0.0
146
0.71
147
1.5
 71
     0
 72
     0
 73
     0
 74
     0
 75
     1
 76
     1
 77
     3
 78
     8
170
     0
171
     2
172
     1
173
     1
174
     0
175
     0
176
   256
177
   256
178
     2
270
     2
271
     2
272
     2
273
     2
274
     2
340
6B
275
     0
280
     0
281
     0
282
     0
283
     0
284
     0
285
     0
286
     0
287
     3
288
     0
  0
DIMSTYLE
105
B34
102
{ACAD_REACTORS
330
436D
102
}
330
A
100
AcDbSymbolTableRecord
100
AcDbDimStyleTableRecord
  2
AM_JIS$2
 70
     0
  3

  4
"
  5
OPEN30
  6

  7

 40
1.0
 41
2.5
 42
1.0
 43
12.0
 44
1.0
 45
0.0
 46
0.0
 47
0.1
 48
0.1
140
3.2
141
0.0
142
0.0
143
0.0393701
144
1.0
145
0.0
146
0.71
147
1.5
 71
     0
 72
     0
 73
     0
 74
     0
 75
     0
 76
     0
 77
     3
 78
     8
170
     0
171
     2
172
     1
173
     0
174
     0
175
     0
176
   256
177
   256
178
     2
270
     2
271
     3
272
     3
273
     2
274
     2
340
6B
275
     0
280
     0
281
     0
282
     0
283
     0
284
     0
285
     0
286
     0
287
     3
288
     0
  0
DIMSTYLE
105
1E42
330
A
100
AcDbSymbolTableRecord
100
AcDbDimStyleTableRecord
  2
AM_JIS$0
 70
     0
  3

  4
"
  5
OPEN30
  6

  7

 40
2.0
 41
2.5
 42
1.0
 43
10.0
 44
1.0
 45
0.0
 46
0.0
 47
0.1
 48
0.1
140
2.5
141
0.0
142
0.0
143
0.0393701
144
1.0
145
0.0
146
0.71
147
1.0
 71
     0
 72
     0
 73
     0
 74
     0
 75
     0
 76
     0
 77
     3
 78
     8
170
     0
171
     2
172
     1
173
     0
174
     0
175
     0
176
   256
177
   256
178
     4
270
     2
271
     3
272
     3
273
     2
274
     2
340
6B
275
     0
280
     0
281
     0
282
     0
283
     0
284
     0
285
     0
286
     0
287
     3
288
     0
  0
ENDTAB
  0
TABLE
  2
BLOCK_RECORD
  5
1
330
0
100
AcDbSymbolTable
 70
    14
  0
BLOCK_RECORD
  5
1F
102
{ACAD_XDICTIONARY
360
74
102
}
330
1
100
AcDbSymbolTableRecord
100
AcDbBlockTableRecord
  2
*MODEL_SPACE
  0
BLOCK_RECORD
  5
101
102
{ACAD_XDICTIONARY
360
4951
102
}
330
1
100
AcDbSymbolTableRecord
100
AcDbBlockTableRecord
  2
*PAPER_SPACE
  0
BLOCK_RECORD
  5
59
330
1
100
AcDbSymbolTableRecord
100
AcDbBlockTableRecord
  2
_OPEN30
  0
BLOCK_RECORD
  5
64
330
1
100
AcDbSymbolTableRecord
100
AcDbBlockTableRecord
  2
GENAXEH
  0
BLOCK_RECORD
  5
3FCD
330
1
100
AcDbSymbolTableRecord
100
AcDbBlockTableRecord
  2
*D5
  0
BLOCK_RECORD
  5
3FD9
330
1
100
AcDbSymbolTableRecord
100
AcDbBlockTableRecord
  2
*D6
  0
BLOCK_RECORD
  5
3FE5
330
1
100
AcDbSymbolTableRecord
100
AcDbBlockTableRecord
  2
*D7
  0
BLOCK_RECORD
  5
407B
330
1
100
AcDbSymbolTableRecord
100
AcDbBlockTableRecord
  2
*D8
  0
BLOCK_RECORD
  5
4087
330
1
100
AcDbSymbolTableRecord
100
AcDbBlockTableRecord
  2
*D9
  0
BLOCK_RECORD
  5
4093
330
1
100
AcDbSymbolTableRecord
100
AcDbBlockTableRecord
  2
*D10
  0
BLOCK_RECORD
  5
40E9
330
1
100
AcDbSymbolTableRecord
100
AcDbBlockTableRecord
  2
*D11
  0
BLOCK_RECORD
  5
40F5
330
1
100
AcDbSymbolTableRecord
100
AcDbBlockTableRecord
  2
*D12
  0
BLOCK_RECORD
  5
436E
330
1
100
AcDbSymbolTableRecord
100
AcDbBlockTableRecord
  2
*D13
  0
ENDTAB
  0
ENDSEC
  0
SECTION
  2
BLOCKS
  0
BLOCK
  5
20
330
1F
100
AcDbEntity
  8
0
100
AcDbBlockBegin
  2
*MODEL_SPACE
 70
     0
 10
0.0
 20
0.0
 30
0.0
  3
*MODEL_SPACE
  1

  0
ENDBLK
  5
21
330
1F
100
AcDbEntity
  8
0
100
AcDbBlockEnd
  0
BLOCK
  5
103
330
101
100
AcDbEntity
 67
     1
  8
0
100
AcDbBlockBegin
  2
*PAPER_SPACE
 70
     0
 10
0.0
 20
0.0
 30
0.0
  3
*PAPER_SPACE
  1

  0
ENDBLK
  5
104
330
101
100
AcDbEntity
 67
     1
  8
0
100
AcDbBlockEnd
  0
BLOCK
  5
5D
330
59
100
AcDbEntity
  8
0
100
AcDbBlockBegin
  2
_OPEN30
 70
     0
 10
0.0
 20
0.0
 30
0.0
  3
_OPEN30
  1

  0
LINE
  5
5A
330
59
100
AcDbEntity
  8
0
 62
     0
100
AcDbLine
 10
-1.0
 20
0.26794919
 30
0.0
 11
0.0
 21
0.0
 31
0.0
  0
LINE
  5
5B
330
59
100
AcDbEntity
  8
0
 62
     0
100
AcDbLine
 10
0.0
 20
0.0
 30
0.0
 11
-1.0
 21
-0.26794919
 31
0.0
  0
LINE
  5
5C
330
59
100
AcDbEntity
  8
0
 62
     0
100
AcDbLine
 10
0.0
 20
0.0
 30
0.0
 11
-1.0
 21
0.0
 31
0.0
  0
ENDBLK
  5
5E
330
59
100
AcDbEntity
  8
0
100
AcDbBlockEnd
  0
BLOCK
  5
66
330
64
100
AcDbEntity
  8
0
100
AcDbBlockBegin
  2
GENAXEH
 70
     0
 10
0.0
 20
0.0
 30
0.0
  3
GENAXEH
  1

  0
LINE
  5
65
330
64
100
AcDbEntity
  8
0
100
AcDbLine
 10
-1.0
 20
0.0
 30
0.0
 11
1.0
 21
0.0
 31
0.0
  0
ENDBLK
  5
67
330
64
100
AcDbEntity
  8
0
100
AcDbBlockEnd
  0
BLOCK
  5
3FD7
330
3FCD
100
AcDbEntity
  8
0
100
AcDbBlockBegin
  2
*D5
 70
     1
 10
0.0
 20
0.0
 30
0.0
  3
*D5
  1

  0
LINE
  5
4325
330
3FCD
100
AcDbEntity
  8
AM_5
100
AcDbLine
 10
-61.70000000000001
 20
35.00000000000003
 30
0.0
 11
-101.1328591193947
 21
35.00000000000003
 31
0.0
  0
LINE
  5
4326
330
3FCD
100
AcDbEntity
  8
AM_5
100
AcDbLine
 10
-61.70000000000001
 20
-35.00000000000003
 30
0.0
 11
-101.1328591193947
 21
-35.00000000000002
 31
0.0
  0
LINE
  5
4327
330
3FCD
100
AcDbEntity
  8
AM_5
100
AcDbLine
 10
-100.1328591193947
 20
32.50000000000003
 30
0.0
 11
-100.1328591193947
 21
-32.50000000000002
 31
0.0
  0
INSERT
  5
4328
330
3FCD
100
AcDbEntity
  8
AM_5
100
AcDbBlockReference
  2
_OPEN30
 10
-100.1328591193947
 20
35.00000000000003
 30
0.0
 41
2.5
 42
2.5
 43
2.5
 50
90.0
  0
INSERT
  5
4329
330
3FCD
100
AcDbEntity
  8
AM_5
100
AcDbBlockReference
  2
_OPEN30
 10
-100.1328591193947
 20
-35.00000000000002
 30
0.0
 41
2.5
 42
2.5
 43
2.5
 50
270.0
  0
MTEXT
  5
432A
330
3FCD
100
AcDbEntity
  8
AM_5
 62
     2
100
AcDbMText
 10
-103.2328591193947
 20
-0.0000000000000077
 30
0.0
 40
3.2
 41
0.0
 71
     5
 72
     1
  1
%%c70
  7
ASAMI
 11
0.0000000000000001
 21
1.0
 31
0.0
1001
ACAD
1000
MTEXTBEGIN
1070
    73
1070
     1
1070
    44
1040
1.0
1070
    74
1070
     0
1000
MTEXTEND
  0
POINT
  5
432B
330
3FCD
100
AcDbEntity
  8
DEFPOINTS
 62
     0
100
AcDbPoint
 10
-60.70000000000002
 20
35.00000000000003
 30
0.0
  0
POINT
  5
432C
330
3FCD
100
AcDbEntity
  8
DEFPOINTS
 62
     0
100
AcDbPoint
 10
-60.70000000000002
 20
-35.00000000000003
 30
0.0
  0
POINT
  5
432D
330
3FCD
100
AcDbEntity
  8
DEFPOINTS
 62
     0
100
AcDbPoint
 10
-100.1328591193947
 20
-35.00000000000002
 30
0.0
  0
ENDBLK
  5
3FD8
330
3FCD
100
AcDbEntity
  8
0
100
AcDbBlockEnd
  0
BLOCK
  5
3FE3
330
3FD9
100
AcDbEntity
  8
0
100
AcDbBlockBegin
  2
*D6
 70
     1
 10
0.0
 20
0.0
 30
0.0
  3
*D6
  1

  0
LINE
  5
4356
330
3FD9
100
AcDbEntity
  8
AM_5
100
AcDbLine
 10
-61.2000000000001
 20
15.87503270956088
 30
0.0
 11
-91.13285911939476
 21
15.87503270956089
 31
0.0
  0
LINE
  5
4357
330
3FD9
100
AcDbEntity
  8
AM_5
100
AcDbLine
 10
-61.20000000000008
 20
-15.87503270956087
 30
0.0
 11
-91.13285911939476
 21
-15.87503270956086
 31
0.0
  0
LINE
  5
4358
330
3FD9
100
AcDbEntity
  8
AM_5
100
AcDbLine
 10
-90.13285911939476
 20
13.37503270956089
 30
0.0
 11
-90.13285911939476
 21
-13.37503270956087
 31
0.0
  0
INSERT
  5
4359
330
3FD9
100
AcDbEntity
  8
AM_5
100
AcDbBlockReference
  2
_OPEN30
 10
-90.13285911939476
 20
15.87503270956089
 30
0.0
 41
2.5
 42
2.5
 43
2.5
 50
90.0
  0
INSERT
  5
435A
330
3FD9
100
AcDbEntity
  8
AM_5
100
AcDbBlockReference
  2
_OPEN30
 10
-90.13285911939476
 20
-15.87503270956086
 30
0.0
 41
2.5
 42
2.5
 43
2.5
 50
270.0
  0
MTEXT
  5
435B
330
3FD9
100
AcDbEntity
  8
AM_5
 62
     2
100
AcDbMText
 10
-93.23285911939477
 20
-0.000000000000003
 30
0.0
 40
3.2
 41
0.0
 71
     5
 72
     1
  1
%%c31.75
  7
ASAMI
 11
0.0000000000000001
 21
1.0
 31
0.0
1001
ACAD
1000
MTEXTBEGIN
1070
    73
1070
     1
1070
    44
1040
1.0
1070
    74
1070
     0
1000
MTEXTEND
  0
POINT
  5
435C
330
3FD9
100
AcDbEntity
  8
DEFPOINTS
 62
     0
100
AcDbPoint
 10
-60.2000000000001
 20
15.87503270956088
 30
0.0
  0
POINT
  5
435D
330
3FD9
100
AcDbEntity
  8
DEFPOINTS
 62
     0
100
AcDbPoint
 10
-60.20000000000007
 20
-15.87503270956087
 30
0.0
  0
POINT
  5
435E
330
3FD9
100
AcDbEntity
  8
DEFPOINTS
 62
     0
100
AcDbPoint
 10
-90.13285911939476
 20
-15.87503270956086
 30
0.0
  0
ENDBLK
  5
3FE4
330
3FD9
100
AcDbEntity
  8
0
100
AcDbBlockEnd
  0
BLOCK
  5
3FEF
330
3FE5
100
AcDbEntity
  8
0
100
AcDbBlockBegin
  2
*D7
 70
     1
 10
0.0
 20
0.0
 30
0.0
  3
*D7
  1

  0
LINE
  5
434B
330
3FE5
100
AcDbEntity
  8
AM_5
100
AcDbLine
 10
-62.70000000000016
 20
6.349999999999966
 30
0.0
 11
-81.13285911939476
 21
6.349999999999971
 31
0.0
  0
LINE
  5
434C
330
3FE5
100
AcDbEntity
  8
AM_5
100
AcDbLine
 10
-62.70000000000016
 20
-6.349999999999965
 30
0.0
 11
-81.13285911939476
 21
-6.34999999999996
 31
0.0
  0
LINE
  5
434D
330
3FE5
100
AcDbEntity
  8
AM_5
100
AcDbLine
 10
-80.13285911939476
 20
8.849999999999971
 30
0.0
 11
-80.13285911939476
 21
11.34999999999997
 31
0.0
  0
LINE
  5
434E
330
3FE5
100
AcDbEntity
  8
AM_5
100
AcDbLine
 10
-80.13285911939476
 20
-8.84999999999996
 30
0.0
 11
-80.13285911939476
 21
-11.34999999999996
 31
0.0
  0
LINE
  5
434F
330
3FE5
100
AcDbEntity
  8
AM_5
100
AcDbLine
 10
-80.13285911939476
 20
6.349999999999971
 30
0.0
 11
-80.13285911939476
 21
-6.34999999999996
 31
0.0
  0
INSERT
  5
4350
330
3FE5
100
AcDbEntity
  8
AM_5
100
AcDbBlockReference
  2
_OPEN30
 10
-80.13285911939476
 20
6.349999999999971
 30
0.0
 41
2.5
 42
2.5
 43
2.5
 50
270.0
  0
INSERT
  5
4351
330
3FE5
100
AcDbEntity
  8
AM_5
100
AcDbBlockReference
  2
_OPEN30
 10
-80.13285911939476
 20
-6.34999999999996
 30
0.0
 41
2.5
 42
2.5
 43
2.5
 50
90.0
  0
MTEXT
  5
4352
330
3FE5
100
AcDbEntity
  8
AM_5
 62
     2
100
AcDbMText
 10
-83.23285911939477
 20
-0.000000000000028
 30
0.0
 40
3.2
 41
0.0
 71
     5
 72
     1
  1
12.7
  7
ASAMI
 11
0.0000000000000001
 21
1.0
 31
0.0
1001
ACAD
1000
MTEXTBEGIN
1070
    73
1070
     1
1070
    44
1040
1.0
1070
    74
1070
     0
1000
MTEXTEND
  0
POINT
  5
4353
330
3FE5
100
AcDbEntity
  8
DEFPOINTS
 62
     0
100
AcDbPoint
 10
-61.70000000000015
 20
6.349999999999965
 30
0.0
  0
POINT
  5
4354
330
3FE5
100
AcDbEntity
  8
DEFPOINTS
 62
     0
100
AcDbPoint
 10
-61.70000000000015
 20
-6.349999999999965
 30
0.0
  0
POINT
  5
4355
330
3FE5
100
AcDbEntity
  8
DEFPOINTS
 62
     0
100
AcDbPoint
 10
-80.13285911939476
 20
-6.34999999999996
 30
0.0
  0
ENDBLK
  5
3FF0
330
3FE5
100
AcDbEntity
  8
0
100
AcDbBlockEnd
  0
BLOCK
  5
4085
330
407B
100
AcDbEntity
  8
0
100
AcDbBlockBegin
  2
*D8
 70
     1
 10
0.0
 20
0.0
 30
0.0
  3
*D8
  1

  0
LINE
  5
4342
330
407B
100
AcDbEntity
  8
AM_5
100
AcDbLine
 10
-63.00000000000006
 20
-33.70000000000001
 30
0.0
 11
-63.00000000000006
 21
-85.00016644296527
 31
0.0
  0
LINE
  5
4343
330
407B
100
AcDbEntity
  8
AM_5
100
AcDbLine
 10
-0.0000000000000001
 20
-51.0
 30
0.0
 11
-0.0000000000000021
 21
-85.00016644296527
 31
0.0
  0
LINE
  5
4344
330
407B
100
AcDbEntity
  8
AM_5
100
AcDbLine
 10
-60.50000000000006
 20
-84.00016644296528
 30
0.0
 11
-2.500000000000002
 21
-84.00016644296528
 31
0.0
  0
INSERT
  5
4345
330
407B
100
AcDbEntity
  8
AM_5
100
AcDbBlockReference
  2
_OPEN30
 10
-63.00000000000006
 20
-84.00016644296528
 30
0.0
 41
2.5
 42
2.5
 43
2.5
 50
180.0
  0
INSERT
  5
4346
330
407B
100
AcDbEntity
  8
AM_5
100
AcDbBlockReference
  2
_OPEN30
 10
-0.0000000000000021
 20
-84.00016644296528
 30
0.0
 41
2.5
 42
2.5
 43
2.5
  0
MTEXT
  5
4347
330
407B
100
AcDbEntity
  8
AM_5
 62
     2
100
AcDbMText
 10
-31.50000000000003
 20
-80.90016644296529
 30
0.0
 40
3.2
 41
0.0
 71
     5
 72
     1
  1
63
  7
ASAMI
1001
ACAD
1000
MTEXTBEGIN
1070
    73
1070
     1
1070
    44
1040
1.0
1070
    74
1070
     0
1000
MTEXTEND
  0
POINT
  5
4348
330
407B
100
AcDbEntity
  8
DEFPOINTS
 62
     0
100
AcDbPoint
 10
-63.00000000000006
 20
-32.70000000000001
 30
0.0
  0
POINT
  5
4349
330
407B
100
AcDbEntity
  8
DEFPOINTS
 62
     0
100
AcDbPoint
 10
0.0
 20
-50.0
 30
0.0
  0
POINT
  5
434A
330
407B
100
AcDbEntity
  8
DEFPOINTS
 62
     0
100
AcDbPoint
 10
-0.0000000000000021
 20
-84.00016644296528
 30
0.0
  0
ENDBLK
  5
4086
330
407B
100
AcDbEntity
  8
0
100
AcDbBlockEnd
  0
BLOCK
  5
4091
330
4087
100
AcDbEntity
  8
0
100
AcDbBlockBegin
  2
*D9
 70
     1
 10
0.0
 20
0.0
 30
0.0
  3
*D9
  1

  0
LINE
  5
4339
330
4087
100
AcDbEntity
  8
AM_5
100
AcDbLine
 10
-63.00000000000006
 20
-33.70000000000001
 30
0.0
 11
-63.00000000000006
 21
-75.00016644296528
 31
0.0
  0
LINE
  5
433A
330
4087
100
AcDbEntity
  8
AM_5
100
AcDbLine
 10
-31.00000000000011
 20
-21.20000000000001
 30
0.0
 11
-31.00000000000012
 21
-75.00016644296528
 31
0.0
  0
LINE
  5
433B
330
4087
100
AcDbEntity
  8
AM_5
100
AcDbLine
 10
-60.50000000000006
 20
-74.00016644296528
 30
0.0
 11
-33.50000000000011
 21
-74.00016644296528
 31
0.0
  0
INSERT
  5
433C
330
4087
100
AcDbEntity
  8
AM_5
100
AcDbBlockReference
  2
_OPEN30
 10
-63.00000000000006
 20
-74.00016644296528
 30
0.0
 41
2.5
 42
2.5
 43
2.5
 50
180.0
  0
INSERT
  5
433D
330
4087
100
AcDbEntity
  8
AM_5
100
AcDbBlockReference
  2
_OPEN30
 10
-31.00000000000012
 20
-74.00016644296528
 30
0.0
 41
2.5
 42
2.5
 43
2.5
  0
MTEXT
  5
433E
330
4087
100
AcDbEntity
  8
AM_5
 62
     2
100
AcDbMText
 10
-47.00000000000009
 20
-70.90016644296529
 30
0.0
 40
3.2
 41
0.0
 71
     5
 72
     1
  1
32
  7
ASAMI
1001
ACAD
1000
MTEXTBEGIN
1070
    73
1070
     1
1070
    44
1040
1.0
1070
    74
1070
     0
1000
MTEXTEND
  0
POINT
  5
433F
330
4087
100
AcDbEntity
  8
DEFPOINTS
 62
     0
100
AcDbPoint
 10
-63.00000000000006
 20
-32.70000000000001
 30
0.0
  0
POINT
  5
4340
330
4087
100
AcDbEntity
  8
DEFPOINTS
 62
     0
100
AcDbPoint
 10
-31.00000000000011
 20
-20.20000000000001
 30
0.0
  0
POINT
  5
4341
330
4087
100
AcDbEntity
  8
DEFPOINTS
 62
     0
100
AcDbPoint
 10
-31.00000000000012
 20
-74.00016644296528
 30
0.0
  0
ENDBLK
  5
4092
330
4087
100
AcDbEntity
  8
0
100
AcDbBlockEnd
  0
BLOCK
  5
409F
330
4093
100
AcDbEntity
  8
0
100
AcDbBlockBegin
  2
*D10
 70
     1
 10
0.0
 20
0.0
 30
0.0
  3
*D10
  1

  0
LINE
  5
432E
330
4093
100
AcDbEntity
  8
AM_5
100
AcDbLine
 10
-63.00000000000006
 20
-33.70000000000001
 30
0.0
 11
-63.00000000000006
 21
-65.00016644296528
 31
0.0
  0
LINE
  5
432F
330
4093
100
AcDbEntity
  8
AM_5
100
AcDbLine
 10
-55.00000000000006
 20
-6.766283142591646
 30
0.0
 11
-55.00000000000007
 21
-65.00016644296528
 31
0.0
  0
LINE
  5
4330
330
4093
100
AcDbEntity
  8
AM_5
100
AcDbLine
 10
-65.50000000000006
 20
-64.00016644296528
 30
0.0
 11
-68.00000000000006
 21
-64.00016644296528
 31
0.0
  0
LINE
  5
4331
330
4093
100
AcDbEntity
  8
AM_5
100
AcDbLine
 10
-52.50000000000007
 20
-64.00016644296528
 30
0.0
 11
-50.00000000000007
 21
-64.00016644296528
 31
0.0
  0
LINE
  5
4332
330
4093
100
AcDbEntity
  8
AM_5
100
AcDbLine
 10
-63.00000000000006
 20
-64.00016644296528
 30
0.0
 11
-55.00000000000007
 21
-64.00016644296528
 31
0.0
  0
INSERT
  5
4333
330
4093
100
AcDbEntity
  8
AM_5
100
AcDbBlockReference
  2
_OPEN30
 10
-63.00000000000006
 20
-64.00016644296528
 30
0.0
 41
2.5
 42
2.5
 43
2.5
  0
INSERT
  5
4334
330
4093
100
AcDbEntity
  8
AM_5
100
AcDbBlockReference
  2
_OPEN30
 10
-55.00000000000007
 20
-64.00016644296528
 30
0.0
 41
2.5
 42
2.5
 43
2.5
 50
180.0
  0
MTEXT
  5
4335
330
4093
100
AcDbEntity
  8
AM_5
 62
     2
100
AcDbMText
 10
-59.00000000000005
 20
-60.90016644296528
 30
0.0
 40
3.2
 41
0.0
 71
     5
 72
     1
  1
8
  7
ASAMI
1001
ACAD
1000
MTEXTBEGIN
1070
    73
1070
     1
1070
    44
1040
1.0
1070
    74
1070
     0
1000
MTEXTEND
  0
POINT
  5
4336
330
4093
100
AcDbEntity
  8
DEFPOINTS
 62
     0
100
AcDbPoint
 10
-63.00000000000006
 20
-32.70000000000001
 30
0.0
  0
POINT
  5
4337
330
4093
100
AcDbEntity
  8
DEFPOINTS
 62
     0
100
AcDbPoint
 10
-55.00000000000006
 20
-5.766283142591646
 30
0.0
  0
POINT
  5
4338
330
4093
100
AcDbEntity
  8
DEFPOINTS
 62
     0
100
AcDbPoint
 10
-55.00000000000007
 20
-64.00016644296528
 30
0.0
  0
ENDBLK
  5
40A0
330
4093
100
AcDbEntity
  8
0
100
AcDbBlockEnd
  0
BLOCK
  5
40F3
330
40E9
100
AcDbEntity
  8
0
100
AcDbBlockBegin
  2
*D11
 70
     1
 10
0.0
 20
0.0
 30
0.0
  3
*D11
  1

  0
LINE
  5
445B
330
40E9
100
AcDbEntity
  8
AM_5
100
AcDbLine
 10
1.0
 20
50.0
 30
0.0
 11
35.00016644296529
 21
50.0
 31
0.0
  0
LINE
  5
445C
330
40E9
100
AcDbEntity
  8
AM_5
100
AcDbLine
 10
1.0
 20
-50.0
 30
0.0
 11
35.00016644296526
 21
-50.0
 31
0.0
  0
LINE
  5
445D
330
40E9
100
AcDbEntity
  8
AM_5
100
AcDbLine
 10
34.00016644296528
 20
47.49999999999999
 30
0.0
 11
34.00016644296527
 21
-47.5
 31
0.0
  0
INSERT
  5
445E
330
40E9
100
AcDbEntity
  8
AM_5
100
AcDbBlockReference
  2
_OPEN30
 10
34.00016644296529
 20
50.0
 30
0.0
 41
2.5
 42
2.5
 43
2.5
 50
90.0
  0
INSERT
  5
445F
330
40E9
100
AcDbEntity
  8
AM_5
100
AcDbBlockReference
  2
_OPEN30
 10
34.00016644296526
 20
-50.0
 30
0.0
 41
2.5
 42
2.5
 43
2.5
 50
270.0
  0
MTEXT
  5
4460
330
40E9
100
AcDbEntity
  8
AM_5
 62
     2
100
AcDbMText
 10
30.90016644296528
 20
-0.0000000000000017
 30
0.0
 40
3.2
 41
0.0
 71
     5
 72
     1
  1
%%c100
  7
ASAMI
 11
0.0000000000000001
 21
1.0
 31
0.0
1001
ACAD
1000
MTEXTBEGIN
1070
    73
1070
     1
1070
    44
1040
1.0
1070
    74
1070
     0
1000
MTEXTEND
  0
POINT
  5
4461
330
40E9
100
AcDbEntity
  8
DEFPOINTS
 62
     0
100
AcDbPoint
 10
0.0
 20
50.0
 30
0.0
  0
POINT
  5
4462
330
40E9
100
AcDbEntity
  8
DEFPOINTS
 62
     0
100
AcDbPoint
 10
0.0
 20
-50.0
 30
0.0
  0
POINT
  5
4463
330
40E9
100
AcDbEntity
  8
DEFPOINTS
 62
     0
100
AcDbPoint
 10
34.00016644296526
 20
-50.0
 30
0.0
  0
ENDBLK
  5
40F4
330
40E9
100
AcDbEntity
  8
0
100
AcDbBlockEnd
  0
BLOCK
  5
40FF
330
40F5
100
AcDbEntity
  8
0
100
AcDbBlockBegin
  2
*D12
 70
     1
 10
0.0
 20
0.0
 30
0.0
  3
*D12
  1

  0
LINE
  5
4313
330
40F5
100
AcDbEntity
  8
AM_5
100
AcDbLine
 10
-4.00000000000017
 20
21.00000000000005
 30
0.0
 11
16.94040701469425
 21
21.00000000000005
 31
0.0
  0
LINE
  5
4314
330
40F5
100
AcDbEntity
  8
AM_5
100
AcDbLine
 10
-4.00000000000017
 20
-21.0
 30
0.0
 11
16.94040701469424
 21
-21.0
 31
0.0
  0
LINE
  5
4315
330
40F5
100
AcDbEntity
  8
AM_5
100
AcDbLine
 10
15.94040701469425
 20
18.50000000000005
 30
0.0
 11
15.94040701469424
 21
-18.5
 31
0.0
  0
INSERT
  5
4316
330
40F5
100
AcDbEntity
  8
AM_5
100
AcDbBlockReference
  2
_OPEN30
 10
15.94040701469425
 20
21.00000000000005
 30
0.0
 41
2.5
 42
2.5
 43
2.5
 50
90.0
  0
INSERT
  5
4317
330
40F5
100
AcDbEntity
  8
AM_5
100
AcDbBlockReference
  2
_OPEN30
 10
15.94040701469424
 20
-21.0
 30
0.0
 41
2.5
 42
2.5
 43
2.5
 50
270.0
  0
MTEXT
  5
4318
330
40F5
100
AcDbEntity
  8
AM_5
 62
     2
100
AcDbMText
 10
12.84040701469425
 20
0.0000000000000278
 30
0.0
 40
3.2
 41
0.0
 71
     5
 72
     1
  1
%%c42
  7
ASAMI
 11
0.0000000000000001
 21
1.0
 31
0.0
1001
ACAD
1000
MTEXTBEGIN
1070
    73
1070
     1
1070
    44
1040
1.0
1070
    74
1070
     0
1000
MTEXTEND
  0
POINT
  5
4319
330
40F5
100
AcDbEntity
  8
DEFPOINTS
 62
     0
100
AcDbPoint
 10
-5.00000000000017
 20
21.00000000000005
 30
0.0
  0
POINT
  5
431A
330
40F5
100
AcDbEntity
  8
DEFPOINTS
 62
     0
100
AcDbPoint
 10
-5.00000000000017
 20
-21.0
 30
0.0
  0
POINT
  5
431B
330
40F5
100
AcDbEntity
  8
DEFPOINTS
 62
     0
100
AcDbPoint
 10
15.94040701469424
 20
-21.0
 30
0.0
  0
ENDBLK
  5
4100
330
40F5
100
AcDbEntity
  8
0
100
AcDbBlockEnd
  0
BLOCK
  5
437E
330
436E
100
AcDbEntity
  8
0
100
AcDbBlockBegin
  2
*D13
 70
     1
 10
0.0
 20
0.0
 30
0.0
  3
*D13
  1

  0
LINE
  5
4450
330
436E
100
AcDbEntity
  8
AM_5
100
AcDbLine
 10
0.0
 20
-50.99999999999999
 30
0.0
 11
0.0
 21
-85.00016644296527
 31
0.0
  0
LINE
  5
4451
330
436E
100
AcDbEntity
  8
AM_5
100
AcDbLine
 10
1.0
 20
-50.0
 30
0.0
 11
35.00016644296526
 21
-49.99999999999978
 31
0.0
  0
ARC
  5
4452
330
436E
100
AcDbEntity
  8
AM_5
100
AcDbCircle
 10
-0.0000000000000071
 20
-50.0
 30
0.0
 40
34.00016644296527
100
AcDbArc
 50
274.2138539663705
 51
355.7861460336298
  0
INSERT
  5
4453
330
436E
100
AcDbEntity
  8
AM_5
100
AcDbBlockReference
  2
_OPEN30
 10
0.0
 20
-84.00016644296526
 30
0.0
 41
2.5
 42
2.5
 43
2.5
 50
182.1069269831852
  0
INSERT
  5
4454
330
436E
100
AcDbEntity
  8
AM_5
100
AcDbBlockReference
  2
_OPEN30
 10
34.00016644296526
 20
-49.99999999999978
 30
0.0
 41
2.5
 42
2.5
 43
2.5
 50
87.89307301681509
  0
MTEXT
  5
4455
330
436E
100
AcDbEntity
  8
AM_5
 62
     2
100
AcDbMText
 10
21.8497172316138
 20
-71.84971723161365
 30
0.0
 40
3.2
 41
0.0
 71
     5
 72
     1
  1
90°
  7
ASAMI
 11
0.7071067811865476
 21
0.7071067811865475
 31
0.0
1001
ACAD
1000
MTEXTBEGIN
1070
    73
1070
     1
1070
    44
1040
1.0
1070
    74
1070
     0
1000
MTEXTEND
  0
POINT
  5
4456
330
436E
100
AcDbEntity
  8
DEFPOINTS
 62
     0
100
AcDbPoint
 10
17.00008322148268
 20
-79.44500787250707
 30
0.0
  0
POINT
  5
4457
330
436E
100
AcDbEntity
  8
DEFPOINTS
 62
     0
100
AcDbPoint
 10
-0.0000000000000036
 20
49.18846823328651
 30
0.0
  0
POINT
  5
4458
330
436E
100
AcDbEntity
  8
DEFPOINTS
 62
     0
100
AcDbPoint
 10
-0.7727379999997801
 20
-50.0
 30
0.0
  0
POINT
  5
4459
330
436E
100
AcDbEntity
  8
DEFPOINTS
 62
     0
100
AcDbPoint
 10
-0.0000000000000036
 20
-50.0
 30
0.0
  0
POINT
  5
445A
330
436E
100
AcDbEntity
  8
DEFPOINTS
 62
     0
100
AcDbPoint
 10
-0.0000000000000036
 20
-50.0
 30
0.0
  0
ENDBLK
  5
437F
330
436E
100
AcDbEntity
  8
0
100
AcDbBlockEnd
  0
ENDSEC
  0
SECTION
  2
ENTITIES
  0
TEXT
  5
E5A
330
1F
100
AcDbEntity
  8
AM_6
100
AcDbText
 10
-49.83333333333334
 20
-106.5001664429652
 30
0.0
 40
5.0
  1
CHG4100R
 72
     4
 11
-31.50000000000001
 21
-104.0001664429652
 31
0.0
100
AcDbText
  0
LINE
  5
2F35
330
1F
100
AcDbEntity
  8
AM_0
100
AcDbLine
 10
-30.20000000000015
 20
-21.00000000000002
 30
0.0
 11
-5.00000000000017
 21
-21.0
 31
0.0
  0
LINE
  5
2F36
330
1F
100
AcDbEntity
  8
AM_0
100
AcDbLine
 10
-30.20000000000015
 20
21.00000000000002
 30
0.0
 11
-5.00000000000017
 21
21.0
 31
0.0
  0
LINE
  5
2F38
330
1F
100
AcDbEntity
  8
AM_7
  6
AM_ISO08W050X2
100
AcDbLine
 10
-66.13285811939476
 20
0.0
 30
0.0
 11
1.940406014694247
 21
0.0
 31
0.0
  0
LINE
  5
2F39
330
1F
100
AcDbEntity
  8
AM_3
100
AcDbLine
 10
-22.80000000000015
 20
-37.9
 30
0.0
 11
-22.80000000000001
 21
-46.0931724100154
 31
0.0
  0
LINE
  5
2F3A
330
1F
100
AcDbEntity
  8
AM_3
100
AcDbLine
 10
-27.80000000000018
 20
-37.9
 30
0.0
 11
-27.8000000000001
 21
-44.32004668804016
 31
0.0
  0
LINE
  5
2F3C
330
1F
100
AcDbEntity
  8
AM_0
100
AcDbLine
 10
-38.46534602404217
 20
-46.0
 30
0.0
 11
-28.80000000000009
 21
-45.99999999999996
 31
0.0
  0
LINE
  5
2F40
330
1F
100
AcDbEntity
  8
AM_0
100
AcDbLine
 10
-32.00000000000017
 20
0.0
 30
0.0
 11
-32.00000000000008
 21
15.62500000000005
 31
0.0
  0
LINE
  5
2F41
330
1F
100
AcDbEntity
  8
AM_0
100
AcDbLine
 10
-31.00000000000017
 20
0.0
 30
0.0
 11
-31.00000000000015
 21
20.20000000000002
 31
0.0
  0
LINE
  5
2F42
330
1F
100
AcDbEntity
  8
AM_0
100
AcDbLine
 10
-55.00000000000008
 20
0.0
 30
0.0
 11
-55.00000000000007
 21
5.849999999999963
 31
0.0
  0
LINE
  5
2F43
330
1F
100
AcDbEntity
  8
AM_0
100
AcDbLine
 10
-49.74000000000009
 20
-15.62499999999999
 30
0.0
 11
-32.00000000000008
 21
-15.62500000000005
 31
0.0
  0
LINE
  5
2F45
330
1F
100
AcDbEntity
  8
AM_0
100
AcDbLine
 10
-63.00000000000011
 20
-7.649999999999977
 30
0.0
 11
-63.0
 21
-32.70000000000001
 31
0.0
  0
LINE
  5
2F46
330
1F
100
AcDbEntity
  8
AM_0
100
AcDbLine
 10
-60.70000000000002
 20
-35.00000000000003
 30
0.0
 11
-44.48209509270046
 21
-34.99999999999995
 31
0.0
  0
LINE
  5
2F48
330
1F
100
AcDbEntity
  8
AM_0
100
AcDbLine
 10
-49.74000000000012
 20
-15.62499999999999
 30
0.0
 11
-56.90000000000015
 21
-15.87503270956087
 31
0.0
  0
LINE
  5
2F4A
330
1F
100
AcDbEntity
  8
AM_0
100
AcDbLine
 10
-56.89999999999939
 20
-6.349999999999966
 30
0.0
 11
-56.89999999999932
 21
-15.87503270956087
 31
0.0
  0
LINE
  5
2F4B
330
1F
100
AcDbEntity
  8
AM_0
100
AcDbLine
 10
-60.20000000000013
 20
-6.349999999999966
 30
0.0
 11
-60.20000000000007
 21
-15.87503270956087
 31
0.0
  0
LINE
  5
2F4D
330
1F
100
AcDbEntity
  8
AM_0
100
AcDbLine
 10
-56.90000000000015
 20
-15.87503270956087
 30
0.0
 11
-60.2000000000001
 21
-15.87503270956087
 31
0.0
  0
LINE
  5
2F4F
330
1F
100
AcDbEntity
  8
AM_0
100
AcDbLine
 10
-61.70000000000015
 20
-6.349999999999965
 30
0.0
 11
-55.50000000000006
 21
-6.349999999999965
 31
0.0
  0
LINE
  5
2F50
330
1F
100
AcDbEntity
  8
AM_0
100
AcDbLine
 10
-49.74000000000022
 20
0.0
 30
0.0
 11
-49.74000000000012
 21
-15.62499999999999
 31
0.0
  0
LINE
  5
2F51
330
1F
100
AcDbEntity
  8
AM_0
100
AcDbLine
 10
-55.00000000000008
 20
0.0
 30
0.0
 11
-55.00000000000006
 21
-5.849999999999965
 31
0.0
  0
LINE
  5
2F52
330
1F
100
AcDbEntity
  8
AM_0
100
AcDbLine
 10
-31.00000000000017
 20
0.0
 30
0.0
 11
-31.00000000000015
 21
-20.20000000000002
 31
0.0
  0
LINE
  5
2F53
330
1F
100
AcDbEntity
  8
AM_0
100
AcDbLine
 10
-27.40000000000017
 20
-37.5
 30
0.0
 11
-23.20000000000015
 21
-37.5
 31
0.0
  0
LINE
  5
2F57
330
1F
100
AcDbEntity
  8
AM_0
100
AcDbLine
 10
-32.00000000000017
 20
0.0
 30
0.0
 11
-32.00000000000008
 21
-15.62500000000005
 31
0.0
  0
LINE
  5
2F58
330
1F
100
AcDbEntity
  8
AM_0
100
AcDbLine
 10
-32.00000000000011
 20
-15.62500000000002
 30
0.0
 11
-31.00000000000011
 21
-16.62500000000002
 31
0.0
  0
LINE
  5
2F59
330
1F
100
AcDbEntity
  8
AM_0
100
AcDbLine
 10
-49.74000000000009
 20
15.625
 30
0.0
 11
-32.00000000000008
 21
15.62500000000005
 31
0.0
  0
LINE
  5
2F5B
330
1F
100
AcDbEntity
  8
AM_0
100
AcDbLine
 10
-63.00000000000009
 20
7.649999999999964
 30
0.0
 11
-63.0
 21
32.70000000000004
 31
0.0
  0
LINE
  5
2F5C
330
1F
100
AcDbEntity
  8
AM_0
100
AcDbLine
 10
-49.74000000000012
 20
15.625
 30
0.0
 11
-56.90000000000015
 21
15.87503270956088
 31
0.0
  0
LINE
  5
2F5E
330
1F
100
AcDbEntity
  8
AM_0
100
AcDbLine
 10
-56.89999999999939
 20
6.349999999999965
 30
0.0
 11
-56.89999999999932
 21
15.87503270956088
 31
0.0
  0
LINE
  5
2F5F
330
1F
100
AcDbEntity
  8
AM_0
100
AcDbLine
 10
-60.20000000000014
 20
6.349999999999965
 30
0.0
 11
-60.20000000000007
 21
15.87503270956088
 31
0.0
  0
LINE
  5
2F61
330
1F
100
AcDbEntity
  8
AM_0
100
AcDbLine
 10
-61.7000000000001
 20
6.349999999999965
 30
0.0
 11
-55.50000000000006
 21
6.349999999999965
 31
0.0
  0
LINE
  5
2F63
330
1F
100
AcDbEntity
  8
AM_0
100
AcDbLine
 10
-56.90000000000015
 20
15.87503270956088
 30
0.0
 11
-60.20000000000006
 21
15.87503270956088
 31
0.0
  0
LINE
  5
2F64
330
1F
100
AcDbEntity
  8
AM_0
100
AcDbLine
 10
-49.74000000000023
 20
0.0
 30
0.0
 11
-49.74000000000012
 21
15.625
 31
0.0
  0
LINE
  5
2F65
330
1F
100
AcDbEntity
  8
AM_0
100
AcDbLine
 10
-60.7
 20
35.00000000000003
 30
0.0
 11
-44.48209509270046
 21
34.99999999999996
 31
0.0
  0
LINE
  5
2F68
330
1F
100
AcDbEntity
  8
AM_0
100
AcDbLine
 10
-32.00000000000011
 20
15.62500000000002
 30
0.0
 11
-31.00000000000011
 21
16.62500000000003
 31
0.0
  0
LINE
  5
2F69
330
1F
100
AcDbEntity
  8
AM_0
100
AcDbLine
 10
-27.40000000000017
 20
37.5
 30
0.0
 11
-23.20000000000015
 21
37.5
 31
0.0
  0
LINE
  5
2F6A
330
1F
100
AcDbEntity
  8
AM_3
100
AcDbLine
 10
-27.80000000000018
 20
37.9
 30
0.0
 11
-27.8000000000001
 21
44.32004668804016
 31
0.0
  0
ARC
  5
2F6C
330
1F
100
AcDbEntity
  8
AM_3
100
AcDbCircle
 10
-27.40000000000017
 20
37.9
 30
0.0
 40
0.4
100
AcDbArc
 50
179.9999999999991
 51
223.7204842478994
  0
LINE
  5
2F6D
330
1F
100
AcDbEntity
  8
AM_0
100
AcDbLine
 10
-38.46534602404217
 20
46.00000000000001
 30
0.0
 11
-28.80000000000009
 21
45.99999999999997
 31
0.0
  0
LINE
  5
2F70
330
1F
100
AcDbEntity
  8
AM_3
100
AcDbLine
 10
-22.80000000000015
 20
37.9
 30
0.0
 11
-22.79999999999998
 21
46.09317241001541
 31
0.0
  0
ARC
  5
2F71
330
1F
100
AcDbEntity
  8
AM_3
100
AcDbCircle
 10
-23.20000000000015
 20
37.9
 30
0.0
 40
0.4
100
AcDbArc
 50
290.8432456813884
 51
359.9999999999992
  0
LINE
  5
2F73
330
1F
100
AcDbEntity
  8
AM_3
100
AcDbLine
 10
-2.000000000000056
 20
-33.0
 30
0.0
 11
-2.0
 21
-45.50202334025818
 31
0.0
  0
LINE
  5
2F75
330
1F
100
AcDbEntity
  8
AM_0
100
AcDbLine
 10
-5.00000000000017
 20
-0.0000000000000284
 30
0.0
 11
-5.00000000000017
 21
21.0
 31
0.0
  0
LINE
  5
2F76
330
1F
100
AcDbEntity
  8
AM_0
100
AcDbLine
 10
-3.700000000000159
 20
-0.0000000000000284
 30
0.0
 11
-3.700000000000159
 21
26.0
 31
0.0
  0
LINE
  5
2F77
330
1F
100
AcDbEntity
  8
AM_0
100
AcDbLine
 10
-5.00000000000017
 20
0.0000000000000284
 30
0.0
 11
-5.00000000000017
 21
-21.0
 31
0.0
  0
LINE
  5
2F78
330
1F
100
AcDbEntity
  8
AM_0
100
AcDbLine
 10
-3.700000000000159
 20
0.0000000000000284
 30
0.0
 11
-3.700000000000159
 21
-26.0
 31
0.0
  0
LINE
  5
2F79
330
1F
100
AcDbEntity
  8
AM_3
100
AcDbLine
 10
-2.000000000000056
 20
-33.0
 30
0.0
 11
-2.394031906644897
 21
-28.49619469809175
 31
0.0
  0
LINE
  5
2F7A
330
1F
100
AcDbEntity
  8
AM_0
100
AcDbLine
 10
-4.50000000000017
 20
-26.0
 30
0.0
 11
-3.700000000000159
 21
-26.00000000000003
 31
0.0
  0
LINE
  5
2F7B
330
1F
100
AcDbEntity
  8
AM_0
100
AcDbLine
 10
-4.50000000000017
 20
-27.49999999999997
 30
0.0
 11
-3.481187649392552
 21
-27.5
 31
0.0
  0
LINE
  5
2F7C
330
1F
100
AcDbEntity
  8
AM_0
100
AcDbLine
 10
-5.00000000000017
 20
-21.0
 30
0.0
 11
-3.700000000000159
 21
-22.30000000000001
 31
0.0
  0
LINE
  5
2F7D
330
1F
100
AcDbEntity
  8
AM_0
100
AcDbLine
 10
-4.50000000000017
 20
-26.0
 30
0.0
 11
-4.50000000000017
 21
-27.49999999999997
 31
0.0
  0
LINE
  5
2F7E
330
1F
100
AcDbEntity
  8
AM_0
100
AcDbLine
 10
-3.481187649392552
 20
-27.5
 30
0.0
 11
-2.795893297806088
 21
-28.12795657773674
 31
0.0
  0
LINE
  5
2F7F
330
1F
100
AcDbEntity
  8
AM_0
100
AcDbLine
 10
-4.50000000000017
 20
26.0
 30
0.0
 11
-4.50000000000017
 21
27.49999999999997
 31
0.0
  0
LINE
  5
2F80
330
1F
100
AcDbEntity
  8
AM_0
100
AcDbLine
 10
-4.50000000000017
 20
26.0
 30
0.0
 11
-3.700000000000159
 21
26.00000000000003
 31
0.0
  0
LINE
  5
2F81
330
1F
100
AcDbEntity
  8
AM_0
100
AcDbLine
 10
-5.00000000000017
 20
21.0
 30
0.0
 11
-3.700000000000159
 21
22.30000000000001
 31
0.0
  0
LINE
  5
2F82
330
1F
100
AcDbEntity
  8
AM_3
100
AcDbLine
 10
-2.000000000000056
 20
33.0
 30
0.0
 11
-1.999999999999999
 21
45.50202334025819
 31
0.0
  0
LINE
  5
2F83
330
1F
100
AcDbEntity
  8
AM_0
100
AcDbLine
 10
-4.50000000000017
 20
27.49999999999997
 30
0.0
 11
-3.481187649392552
 21
27.5
 31
0.0
  0
LINE
  5
2F84
330
1F
100
AcDbEntity
  8
AM_3
100
AcDbLine
 10
-2.795893297806088
 20
28.12795657773674
 30
0.0
 11
-2.394031906644897
 21
28.49619469809175
 31
0.0
  0
LINE
  5
2F85
330
1F
100
AcDbEntity
  8
AM_3
100
AcDbLine
 10
-2.000000000000056
 20
33.0
 30
0.0
 11
-2.394031906644897
 21
28.49619469809175
 31
0.0
  0
LINE
  5
2F88
330
1F
100
AcDbEntity
  8
AM_0
100
AcDbLine
 10
-2.000000000000056
 20
28.11122447329364
 30
0.0
 11
-2.000000000000028
 21
0.0
 31
0.0
  0
LINE
  5
2F89
330
1F
100
AcDbEntity
  8
AM_0
100
AcDbLine
 10
-1.999999999999118
 20
-28.11122447329362
 30
0.0
 11
-2.000000000000028
 21
0.0
 31
0.0
  0
LINE
  5
3A1C
330
1F
100
AcDbEntity
  8
AM_3
100
AcDbLine
 10
-18.97463013837412
 20
47.8876502397773
 30
0.0
 11
-2.996684888139166
 21
46.58338201376635
 31
0.0
  0
LINE
  5
3A24
330
1F
100
AcDbEntity
  8
AM_3
100
AcDbLine
 10
-18.96588300000002
 20
-47.86129909648457
 30
0.0
 11
-2.996684888139157
 21
-46.58338201376636
 31
0.0
  0
LINE
  5
3F0E
330
1F
100
AcDbEntity
  8
AM_0
100
AcDbLine
 10
-40.39719767662031
 20
44.51763809020507
 30
0.0
 11
-42.55024344012233
 21
36.48236190979491
 31
0.0
  0
DIMENSION
  5
3FCA
330
1F
100
AcDbEntity
  8
AM_5
100
AcDbDimension
  2
*D5
 10
-100.1328591193947
 20
-35.00000000000002
 30
0.0
 11
-103.2328591193947
 21
-0.0000000000000077
 31
0.0
 70
    32
  1
%%c<>
  3
AM_JIS
100
AcDbAlignedDimension
 13
-60.70000000000002
 23
35.00000000000003
 33
0.0
 14
-60.70000000000002
 24
-35.00000000000003
 34
0.0
 50
90.0
100
AcDbRotatedDimension
1001
GENIUS_GENDTOL_13
1000

1000
h7
1000

1040
0.0
  0
DIMENSION
  5
3FCB
330
1F
100
AcDbEntity
  8
AM_5
100
AcDbDimension
  2
*D6
 10
-90.13285911939476
 20
-15.87503270956086
 30
0.0
 11
-93.23285911939477
 21
-0.000000000000003
 31
0.0
 70
    32
  1
%%c<>
  3
AM_JIS
100
AcDbAlignedDimension
 13
-60.2000000000001
 23
15.87503270956088
 33
0.0
 14
-60.20000000000007
 24
-15.87503270956087
 34
0.0
 50
90.0
100
AcDbRotatedDimension
1001
GENIUS_GENDTOL_13
1000

1000
h7
1000

1040
0.0
  0
DIMENSION
  5
3FCC
330
1F
100
AcDbEntity
  8
AM_5
100
AcDbDimension
  2
*D7
 10
-80.13285911939476
 20
-6.34999999999996
 30
0.0
 11
-80.13285911939476
 21
-0.0000000000000284
 31
0.0
 70
   160
  3
AM_JIS
100
AcDbAlignedDimension
 13
-61.70000000000015
 23
6.349999999999965
 33
0.0
 14
-61.70000000000015
 24
-6.349999999999965
 34
0.0
 50
90.0
100
AcDbRotatedDimension
  0
DIMENSION
  5
406B
330
1F
100
AcDbEntity
  8
AM_5
100
AcDbDimension
  2
*D8
 10
-0.0000000000000021
 20
-84.00016644296528
 30
0.0
 11
-31.50000000000003
 21
-80.90016644296529
 31
0.0
 70
    32
  3
AM_JIS
100
AcDbAlignedDimension
 13
-63.00000000000006
 23
-32.70000000000001
 33
0.0
 14
0.0
 24
-50.0
 34
0.0
100
AcDbRotatedDimension
  0
DIMENSION
  5
406C
330
1F
100
AcDbEntity
  8
AM_5
100
AcDbDimension
  2
*D10
 10
-55.00000000000007
 20
-64.00016644296528
 30
0.0
 11
-59.00000000000005
 21
-60.90016644296528
 31
0.0
 70
    32
  3
AM_JIS
100
AcDbAlignedDimension
 13
-63.00000000000006
 23
-32.70000000000001
 33
0.0
 14
-55.00000000000006
 24
-5.766283142591646
 34
0.0
100
AcDbRotatedDimension
  0
DIMENSION
  5
406D
330
1F
100
AcDbEntity
  8
AM_5
100
AcDbDimension
  2
*D9
 10
-31.00000000000012
 20
-74.00016644296528
 30
0.0
 11
-47.00000000000009
 21
-70.90016644296529
 31
0.0
 70
    32
  3
AM_JIS
100
AcDbAlignedDimension
 13
-63.00000000000006
 23
-32.70000000000001
 33
0.0
 14
-31.00000000000011
 24
-20.20000000000001
 34
0.0
100
AcDbRotatedDimension
  0
DIMENSION
  5
40E7
330
1F
100
AcDbEntity
  8
AM_5
100
AcDbDimension
  2
*D12
 10
15.94040701469424
 20
-21.0
 30
0.0
 11
12.84040701469425
 21
0.0000000000000278
 31
0.0
 70
    32
  1
%%c<>
  3
AM_JIS
100
AcDbAlignedDimension
 13
-5.00000000000017
 23
21.00000000000005
 33
0.0
 14
-5.00000000000017
 24
-21.0
 34
0.0
 50
90.0
100
AcDbRotatedDimension
1001
GENIUS_GENDTOL_13
1000

1000
h7
1000

1040
0.0
  0
DIMENSION
  5
40E8
330
1F
100
AcDbEntity
  8
AM_5
100
AcDbDimension
  2
*D11
 10
34.00016644296526
 20
-50.0
 30
0.0
 11
30.90016644296528
 21
-0.0000000000000017
 31
0.0
 70
    32
  1
%%c<>
  3
AM_JIS
100
AcDbAlignedDimension
 13
0.0
 23
50.0
 33
0.0
 14
0.0
 24
-50.0
 34
0.0
 50
90.0
100
AcDbRotatedDimension
1001
GENIUS_GENDTOL_13
1000

1000
h7
1000

1040
0.0
  0
ELLIPSE
  5
4228
330
1F
100
AcDbEntity
  8
0
100
AcDbEllipse
 10
-0.772738000000004
 20
49.20246609648462
 30
0.0
 11
-0.22481131597
 21
0.7677629010390001
 31
0.0
210
0.0
220
0.0
230
1.0
 40
0.9629487499999999
 41
4.414283443712509
 42
6.179975573459709
  0
LINE
  5
4229
330
1F
100
AcDbEntity
  8
AM_11
100
AcDbLine
 10
-0.7727379999997766
 20
50.0
 30
0.0
 11
0.0
 21
50.0
 31
0.0
  0
LINE
  5
422A
330
1F
100
AcDbEntity
  8
AM_11
100
AcDbLine
 10
0.0
 20
49.18846823328651
 30
0.0
 11
0.0
 21
-50.0
 31
0.0
  0
LINE
  5
422B
330
1F
100
AcDbEntity
  8
0
100
AcDbLine
 10
-1.994531000000051
 20
43.96680009648457
 30
0.0
 11
-0.0039319999999634
 21
47.78884209648459
 31
0.0
  0
LINE
  5
422C
330
1F
100
AcDbEntity
  8
0
100
AcDbLine
 10
-17.58720800000003
 20
49.74796409648456
 30
0.0
 11
-0.9220209999999724
 21
49.99824409648454
 31
0.0
  0
LINE
  5
422D
330
1F
100
AcDbEntity
  8
0
100
AcDbLine
 10
-17.58720800000003
 20
49.74796409648456
 30
0.0
 11
-18.75983999999999
 21
49.07856009648458
 31
0.0
  0
LINE
  5
422E
330
1F
100
AcDbEntity
  8
0
100
AcDbLine
 10
-28.00295400000004
 20
44.24807409648463
 30
0.0
 11
-18.76440999999999
 21
47.52429409648459
 31
0.0
  0
LINE
  5
422F
330
1F
100
AcDbEntity
  8
0
100
AcDbLine
 10
-18.96588300000002
 20
47.86129909648457
 30
0.0
 11
-16.88989300000002
 21
44.38878109648453
 31
0.0
  0
LINE
  5
4230
330
1F
100
AcDbEntity
  8
0
100
AcDbLine
 10
-28.00295400000004
 20
44.24807409648463
 30
0.0
 11
-28.00295400000004
 21
37.63014209648463
 31
0.0
  0
LINE
  5
4231
330
1F
100
AcDbEntity
  8
0
100
AcDbLine
 10
-22.50295400000004
 20
37.51451509648461
 30
0.0
 11
-28.00295400000004
 21
37.63014209648463
 31
0.0
  0
LINE
  5
4232
330
1F
100
AcDbEntity
  8
0
100
AcDbLine
 10
-22.50295400000004
 20
37.51451509648461
 30
0.0
 11
-22.50295400000004
 21
28.5422590964846
 31
0.0
  0
SPLINE
  5
4233
330
1F
100
AcDbEntity
  8
0
100
AcDbSpline
210
0.0
220
0.0
230
1.0
 70
     8
 71
     3
 72
    11
 73
     7
 74
     5
 42
0.0000000001
 43
0.0000000001
 44
0.0000000001
 40
0.0
 40
0.0
 40
0.0
 40
0.0
 40
0.0027392708884189
 40
0.0070204853189581
 40
0.0136303210203603
 40
0.0226678924862084
 40
0.0226678924862084
 40
0.0226678924862084
 40
0.0226678924862084
 10
-19.329248
 20
40.55593209648463
 30
0.0
 10
-19.32883810404592
 20
40.55508030255516
 30
0.0
 10
-19.32778758051424
 20
40.55289723741841
 30
0.0
 10
-19.32304042184414
 20
40.55154578771717
 30
0.0
 10
-19.31663929169212
 20
40.5505222311361
 30
0.0
 10
-19.311388647577
 20
40.55034719386384
 30
0.0
 10
-19.308356
 20
40.55024609648455
 30
0.0
 11
-19.329248
 21
40.55593209648463
 31
0.0
 11
-19.327806
 21
40.5536030964846
 31
0.0
 11
-19.32389699999998
 21
40.55185709648458
 31
0.0
 11
-19.31737900000001
 21
40.55075909648462
 31
0.0
 11
-19.308356
 21
40.55024609648455
 31
0.0
  0
SPLINE
  5
4234
330
1F
100
AcDbEntity
  8
0
100
AcDbSpline
210
0.0
220
0.0
230
1.0
 70
     8
 71
     3
 72
    11
 73
     7
 74
     5
 42
0.0000000001
 43
0.0000000001
 44
0.0000000001
 40
0.0
 40
0.0
 40
0.0
 40
0.0
 40
0.0044537438184263
 40
0.0089089521188611
 40
0.0133631916723689
 40
0.0178179278037547
 40
0.0178179278037547
 40
0.0178179278037547
 40
0.0178179278037547
 10
-14.602193
 20
45.32163909648454
 30
0.0
 10
-14.60256051509954
 20
45.32307746859627
 30
0.0
 10
-14.6032956661451
 20
45.32595468578589
 30
0.0
 10
-14.6044011022545
 20
45.33026973696065
 30
0.0
 10
-14.60550552633792
 20
45.33458538875821
 30
0.0
 10
-14.60624382839524
 20
45.33746180713287
 30
0.0
 10
-14.60661300000003
 20
45.33890009648462
 30
0.0
 11
-14.602193
 21
45.32163909648454
 31
0.0
 11
-14.603296
 21
45.32595409648457
 31
0.0
 11
-14.60440100000005
 21
45.33027009648458
 31
0.0
 11
-14.60550599999999
 21
45.3345850964846
 31
0.0
 11
-14.60661300000003
 21
45.33890009648462
 31
0.0
  0
SPLINE
  5
4235
330
1F
100
AcDbEntity
  8
0
100
AcDbSpline
210
0.0
220
0.0
230
1.0
 70
     8
 71
     3
 72
    11
 73
     7
 74
     5
 42
0.0000000001
 43
0.0000000001
 44
0.0000000001
 40
0.0
 40
0.0
 40
0.0
 40
0.0
 40
0.0663061719072799
 40
0.1143280214863856
 40
0.1441303157773307
 40
0.1567561104056881
 40
0.1567561104056881
 40
0.1567561104056881
 40
0.1567561104056881
 10
-19.18789000000003
 20
40.62083509648459
 30
0.0
 10
-19.20877008682271
 20
40.61337534491994
 30
0.0
 10
-19.24477245200583
 20
40.60051291277171
 30
0.0
 10
-19.28814602778834
 20
40.58110149109753
 30
0.0
 10
-19.3173742218741
 20
40.57015415162767
 30
0.0
 10
-19.32652492445256
 20
40.5591937146641
 30
0.0
 10
-19.329248
 20
40.55593209648463
 30
0.0
 11
-19.18789000000003
 21
40.62083509648459
 31
0.0
 11
-19.24999300000001
 21
40.59760309648459
 31
0.0
 11
-19.29428699999999
 21
40.57905209648459
 31
0.0
 11
-19.32067500000005
 21
40.56520109648454
 31
0.0
 11
-19.329248
 21
40.55593209648463
 31
0.0
  0
SPLINE
  5
4236
330
1F
100
AcDbEntity
  8
0
100
AcDbSpline
210
0.0
220
0.0
230
1.0
 70
     8
 71
     3
 72
    11
 73
     7
 74
     5
 42
0.0000000001
 43
0.0000000001
 44
0.0000000001
 40
0.0
 40
0.0
 40
0.0
 40
0.0
 40
0.1301237046583035
 40
0.3760882034828366
 40
0.731080503671149
 40
1.186841671526647
 40
1.186841671526647
 40
1.186841671526647
 40
1.186841671526647
 10
-19.308356
 20
40.55024609648455
 30
0.0
 10
-19.26510635200395
 20
40.55365378936721
 30
0.0
 10
-19.14010466642474
 20
40.56350282569477
 30
0.0
 10
-18.89896327384136
 20
40.59960000388488
 30
0.0
 10
-18.54932879024682
 20
40.64238461304496
 30
0.0
 10
-18.28026238649258
 20
40.6678582268428
 30
0.0
 10
-18.12900799999999
 20
40.68217809648456
 30
0.0
 11
-19.308356
 21
40.55024609648455
 31
0.0
 11
-19.17872099999999
 21
40.56151309648453
 31
0.0
 11
-18.93482199999999
 21
40.59332209648459
 31
0.0
 11
-18.582514
 21
40.63689509648452
 31
0.0
 11
-18.12900799999999
 21
40.68217809648456
 31
0.0
  0
ELLIPSE
  5
4237
330
1F
100
AcDbEntity
  8
0
100
AcDbEllipse
 10
-19.25571200000001
 20
55.55245409648455
 30
0.0
 11
0.31528168264
 21
14.99668621598099
 31
0.0
210
0.0
220
0.0
230
1.0
 40
0.2580212
 41
3.240362518333309
 42
3.97090545680866
  0
ELLIPSE
  5
4238
330
1F
100
AcDbEntity
  8
0
100
AcDbEllipse
 10
-15.38300600000002
 20
41.80727109648455
 30
0.0
 11
3.990881754126005
 21
0.2863286995530003
 31
0.0
210
0.0
220
0.0
230
1.0
 40
0.32607056988758
 41
3.930434247791799
 42
4.43481113636778
  0
LINE
  5
4239
330
1F
100
AcDbEntity
  8
0
100
AcDbLine
 10
-1.994531000000051
 20
40.34298209648454
 30
0.0
 11
-18.12900799999999
 21
40.68217809648456
 31
0.0
  0
LINE
  5
423A
330
1F
100
AcDbEntity
  8
0
100
AcDbLine
 10
-16.38682600000004
 20
40.47731209648463
 30
0.0
 11
-1.994531000000051
 21
40.17474209648457
 31
0.0
  0
LINE
  5
423B
330
1F
100
AcDbEntity
  8
0
100
AcDbLine
 10
-14.55378200000001
 20
45.50603009648455
 30
0.0
 11
-3.928598000000079
 21
45.28265609648451
 31
0.0
  0
LINE
  5
423C
330
1F
100
AcDbEntity
  8
0
100
AcDbLine
 10
-14.60661300000003
 20
45.33890009648462
 30
0.0
 11
-4.125765999999998
 21
45.11856109648454
 31
0.0
  0
LINE
  5
423D
330
1F
100
AcDbEntity
  8
0
100
AcDbLine
 10
-19.329249
 20
40.55595709648457
 30
0.0
 11
-18.855861
 21
30.35359009648459
 31
0.0
  0
LINE
  5
423E
330
1F
100
AcDbEntity
  8
0
100
AcDbLine
 10
-16.38682600000004
 20
40.47731209648463
 30
0.0
 11
-15.90297199999997
 21
30.04938209648457
 31
0.0
  0
LINE
  5
423F
330
1F
100
AcDbEntity
  8
0
100
AcDbLine
 10
-16.61504300000001
 20
45.36395509648457
 30
0.0
 11
-14.602193
 21
45.32163909648454
 31
0.0
  0
LINE
  5
4240
330
1F
100
AcDbEntity
  8
0
100
AcDbLine
 10
-14.55378200000001
 20
45.50603009648455
 30
0.0
 11
-14.60661300000003
 21
45.33890009648462
 31
0.0
  0
ELLIPSE
  5
4241
330
1F
100
AcDbEntity
  8
0
100
AcDbEllipse
 10
-18.37541899999996
 20
48.37863709648456
 30
0.0
 11
-0.22481131597
 21
0.7677629010390001
 31
0.0
210
0.0
220
0.0
230
1.0
 40
0.9629487499999999
 41
0.225493268330497
 42
1.99118549412694
  0
ELLIPSE
  5
4242
330
1F
100
AcDbEntity
  8
0
100
AcDbEllipse
 10
-14.85172499999998
 20
30.35720109648457
 30
0.0
 11
4.004163250131999
 21
0.002450548215
 31
0.0
210
0.0
220
0.0
230
1.0
 40
0.07950373661019
 41
3.145232044052919
 42
4.446688810665579
  0
LINE
  5
4243
330
1F
100
AcDbEntity
  8
0
100
AcDbLine
 10
-22.50295400000004
 20
28.5422590964846
 30
0.0
 11
-1.867556000000035
 21
28.10844009648462
 31
0.0
  0
LINE
  5
4244
330
1F
100
AcDbEntity
  8
0
100
AcDbLine
 10
-15.90297199999997
 20
30.04938209648457
 30
0.0
 11
-1.994531000000051
 21
29.75698409648453
 31
0.0
  0
LINE
  5
4245
330
1F
100
AcDbEntity
  8
0
100
AcDbLine
 10
-1.994531000000051
 20
40.17474209648457
 30
0.0
 11
-1.994531000000051
 21
29.75698409648453
 31
0.0
  0
LINE
  5
4246
330
1F
100
AcDbEntity
  8
0
100
AcDbLine
 10
-0.9494980000000623
 20
28.46278309648459
 30
0.0
 11
-0.9494980000000623
 21
45.97331209648451
 31
0.0
  0
LINE
  5
4247
330
1F
100
AcDbEntity
  8
0
100
AcDbLine
 10
-1.091098999999985
 20
28.33579709648461
 30
0.0
 11
-1.091098999999985
 21
43.2895570964846
 31
0.0
  0
LINE
  5
4248
330
1F
100
AcDbEntity
  8
0
100
AcDbLine
 10
-1.867556000000035
 20
43.06220009648462
 30
0.0
 11
-1.867556000000035
 21
28.10844009648462
 31
0.0
  0
LINE
  5
4249
330
1F
100
AcDbEntity
  8
0
100
AcDbLine
 10
-0.9494980000000623
 20
28.46278309648459
 30
0.0
 11
-1.091098999999985
 21
28.33579709648461
 31
0.0
  0
LINE
  5
424A
330
1F
100
AcDbEntity
  8
0
100
AcDbLine
 10
-1.867556000000035
 20
28.10844009648462
 30
0.0
 11
-1.091098999999985
 21
28.33579709648461
 31
0.0
  0
LINE
  5
424B
330
1F
100
AcDbEntity
  8
0
100
AcDbLine
 10
-1.994531000000051
 20
40.34298209648454
 30
0.0
 11
-1.994531000000051
 21
40.17474209648457
 31
0.0
  0
LINE
  5
424C
330
1F
100
AcDbEntity
  8
0
100
AcDbLine
 10
-1.994531000000051
 20
43.43039109648453
 30
0.0
 11
-0.9583480000000008
 21
43.4086070964845
 31
0.0
  0
LINE
  5
424D
330
1F
100
AcDbEntity
  8
0
100
AcDbLine
 10
-1.091098999999985
 20
43.2895570964846
 30
0.0
 11
-0.9583480000000008
 21
43.4086070964845
 31
0.0
  0
LINE
  5
424E
330
1F
100
AcDbEntity
  8
0
100
AcDbLine
 10
-1.091098999999985
 20
43.2895570964846
 30
0.0
 11
-1.867556000000035
 21
43.06220009648462
 31
0.0
  0
LINE
  5
424F
330
1F
100
AcDbEntity
  8
0
100
AcDbLine
 10
-1.994531000000051
 20
43.06487009648458
 30
0.0
 11
-1.867556000000035
 21
43.06220009648462
 31
0.0
  0
SPLINE
  5
4250
330
1F
100
AcDbEntity
  8
0
100
AcDbSpline
210
0.0
220
0.0
230
1.0
 70
     8
 71
     3
 72
    11
 73
     7
 74
     5
 42
0.0000000001
 43
0.0000000001
 44
0.0000000001
 40
0.0
 40
0.0
 40
0.0
 40
0.0
 40
0.0053654454614532
 40
0.0107302738837421
 40
0.0160952724856879
 40
0.0214608879210855
 40
0.0214608879210855
 40
0.0214608879210855
 40
0.0214608879210855
 10
-4.139005999999994
 20
45.10167109648455
 30
0.0
 10
-4.137902308036142
 20
45.10307840997194
 30
0.0
 10
-4.135695051035675
 20
45.10589287510228
 30
0.0
 10
-4.132384649285428
 20
45.11011489369528
 30
0.0
 10
-4.129076106995223
 20
45.11433844156589
 30
0.0
 10
-4.126869411281285
 20
45.11715349090535
 30
0.0
 10
-4.125765999999998
 20
45.11856109648454
 30
0.0
 11
-4.139005999999994
 21
45.10167109648455
 31
0.0
 11
-4.135695000000055
 21
45.10589309648458
 31
0.0
 11
-4.132384999999999
 21
45.11011509648461
 31
0.0
 11
-4.129076000000054
 21
45.11433809648451
 31
0.0
 11
-4.125765999999998
 21
45.11856109648454
 31
0.0
  0
LINE
  5
4251
330
1F
100
AcDbEntity
  8
0
100
AcDbLine
 10
-0.9583480000000008
 20
43.4086070964845
 30
0.0
 11
-0.9583480000000008
 21
45.95632009648454
 31
0.0
  0
LINE
  5
4252
330
1F
100
AcDbEntity
  8
0
100
AcDbLine
 10
-1.994531000000051
 20
45.05658709648457
 30
0.0
 11
-1.994531000000051
 21
40.34298209648454
 31
0.0
  0
LINE
  5
4253
330
1F
100
AcDbEntity
  8
0
100
AcDbLine
 10
-4.139005999999994
 20
45.10167109648455
 30
0.0
 11
-1.994531000000051
 21
45.05658709648457
 31
0.0
  0
LINE
  5
4254
330
1F
100
AcDbEntity
  8
0
100
AcDbLine
 10
-3.928598000000079
 20
45.28265609648451
 30
0.0
 11
-4.125765999999998
 21
45.11856109648454
 31
0.0
  0
LINE
  5
4255
330
1F
100
AcDbEntity
  8
0
100
AcDbLine
 10
-4.032315000000039
 20
45.09942809648452
 30
0.0
 11
-3.928598000000079
 21
45.28265609648451
 31
0.0
  0
SPLINE
  5
4256
330
1F
100
AcDbEntity
  8
0
100
AcDbSpline
210
0.0
220
0.0
230
1.0
 70
     8
 71
     3
 72
    11
 73
     7
 74
     5
 42
0.0000000001
 43
0.0000000001
 44
0.0000000001
 40
0.0
 40
0.0
 40
0.0
 40
0.0
 40
0.6064687981957514
 40
1.081292507016174
 40
1.40022470973334
 40
1.595249199769803
 40
1.595249199769803
 40
1.595249199769803
 40
1.595249199769803
 10
-11.75576699999999
 20
40.5481110964846
 30
0.0
 10
-11.95927019120321
 20
40.55990511447902
 30
0.0
 10
-12.32210250253821
 20
40.58093304423059
 30
0.0
 10
-12.76726509646689
 20
40.66289961855875
 30
0.0
 10
-13.1200505681557
 20
40.74636001963464
 30
0.0
 10
-13.19375596688851
 20
40.90864203992928
 30
0.0
 10
-13.22172399999999
 20
40.97022109648458
 30
0.0
 11
-11.75576699999999
 21
40.5481110964846
 31
0.0
 11
-12.36027899999999
 21
40.59679009648459
 31
0.0
 11
-12.82786599999997
 21
40.67937309648459
 31
0.0
 11
-13.12202899999999
 21
40.80260409648462
 31
0.0
 11
-13.22172399999999
 21
40.97022109648458
 31
0.0
  0
SPLINE
  5
4257
330
1F
100
AcDbEntity
  8
0
100
AcDbSpline
210
0.0
220
0.0
230
1.0
 70
     8
 71
     3
 72
    11
 73
     7
 74
     5
 42
0.0000000001
 43
0.0000000001
 44
0.0000000001
 40
0.0
 40
0.0
 40
0.0
 40
0.0
 40
0.3997836009454979
 40
1.053196590930431
 40
1.975231531727146
 40
3.039655097374337
 40
3.039655097374337
 40
3.039655097374337
 40
3.039655097374337
 10
-8.021724000000062
 20
41.29280509648459
 30
0.0
 10
-8.080736267096991
 20
41.16746895228206
 30
0.0
 10
-8.236199168483073
 20
40.83728132206845
 30
0.0
 10
-8.942287235000051
 20
40.67534929904765
 30
0.0
 10
-9.786958785103315
 20
40.54602336299207
 30
0.0
 10
-10.4542192653435
 20
40.53441976586415
 30
0.0
 10
-10.81176400000003
 20
40.52820209648461
 30
0.0
 11
-8.021724000000062
 21
41.29280509648459
 31
0.0
 11
-8.230607999999961
 21
40.95193209648459
 31
0.0
 11
-8.83609899999999
 21
40.70631209648456
 31
0.0
 11
-9.748220000000003
 21
40.57146509648464
 31
0.0
 11
-10.81176400000003
 21
40.52820209648461
 31
0.0
  0
SPLINE
  5
4258
330
1F
100
AcDbEntity
  8
0
100
AcDbSpline
210
0.0
220
0.0
230
1.0
 70
     8
 71
     3
 72
    11
 73
     7
 74
     5
 42
0.0000000001
 43
0.0000000001
 44
0.0000000001
 40
0.0
 40
0.0
 40
0.0
 40
0.0
 40
0.2030563352077505
 40
0.5163420215006367
 40
0.9442551238765579
 40
1.469714311317453
 40
1.469714311317453
 40
1.469714311317453
 40
1.469714311317453
 10
-13.22172399999999
 20
40.97022109648458
 30
0.0
 10
-13.19972972990526
 20
41.03554066270423
 30
0.0
 10
-13.14380157641759
 20
41.20163859228077
 30
0.0
 10
-12.87839821214056
 20
41.39623731288378
 30
0.0
 10
-12.52313479316923
 20
41.61606088902465
 30
0.0
 10
-12.22803741285098
 20
41.73801697174376
 30
0.0
 10
-12.06539199999997
 20
41.80523409648458
 30
0.0
 11
-13.22172399999999
 21
40.97022109648458
 31
0.0
 11
-13.14194600000001
 21
41.1569490964846
 31
0.0
 11
-12.91069600000003
 21
41.36830509648461
 31
0.0
 11
-12.544913
 21
41.59036909648455
 31
0.0
 11
-12.06539199999997
 21
41.80523409648458
 31
0.0
  0
SPLINE
  5
4259
330
1F
100
AcDbEntity
  8
0
100
AcDbSpline
210
0.0
220
0.0
230
1.0
 70
     8
 71
     3
 72
    11
 73
     7
 74
     5
 42
0.0000000001
 43
0.0000000001
 44
0.0000000001
 40
0.0
 40
0.0
 40
0.0
 40
0.0
 40
1.356101042259355
 40
2.732987623933346
 40
3.790043265195948
 40
4.401853662986773
 40
4.401853662986773
 40
4.401853662986773
 40
4.401853662986773
 10
-12.06539199999997
 20
41.80523409648458
 30
0.0
 10
-11.62944496155218
 20
41.94201545423722
 30
0.0
 10
-10.75086893835027
 20
42.21767467598664
 30
0.0
 10
-9.502752826407775
 20
42.19651053055004
 30
0.0
 10
-8.413560204774032
 20
41.97279919864484
 30
0.0
 10
-8.126837316575262
 20
41.47521916251217
 30
0.0
 10
-8.021724000000062
 20
41.29280509648459
 30
0.0
 11
-12.06539199999997
 21
41.80523409648458
 31
0.0
 11
-10.752273
 21
42.14395009648455
 31
0.0
 11
-9.375388000000043
 21
42.1418630964846
 31
0.0
 11
-8.378737999999998
 21
41.78964809648459
 31
0.0
 11
-8.021724000000062
 21
41.29280509648459
 31
0.0
  0
LINE
  5
425A
330
1F
100
AcDbEntity
  8
AM_11
100
AcDbLine
 10
0.0
 20
50.0
 30
0.0
 11
0.0
 21
49.18397383380088
 31
0.0
  0
LINE
  5
4260
330
1F
100
AcDbEntity
  8
AM_11
100
AcDbLine
 10
-0.7727379999997766
 20
-50.0
 30
0.0
 11
0.0
 21
-50.0
 31
0.0
  0
ELLIPSE
  5
4261
330
1F
100
AcDbEntity
  8
0
100
AcDbEllipse
 10
-0.772738000000004
 20
-49.20246609648462
 30
0.0
 11
-0.22481131597
 21
-0.7677629010390001
 31
0.0
210
0.0
220
0.0
230
-1.0
 40
0.9629487499999999
 41
4.414283443712509
 42
6.179975573459709
  0
ELLIPSE
  5
4262
330
1F
100
AcDbEntity
  8
0
100
AcDbEllipse
 10
-18.37541899999996
 20
-48.37863709648456
 30
0.0
 11
-0.22481131597
 21
-0.7677629010390001
 31
0.0
210
0.0
220
0.0
230
-1.0
 40
0.9629487499999999
 41
0.225493268330497
 42
1.99118549412694
  0
LINE
  5
4263
330
1F
100
AcDbEntity
  8
0
100
AcDbLine
 10
-17.58720800000003
 20
-49.74796409648456
 30
0.0
 11
-0.9220209999999724
 21
-49.99824409648454
 31
0.0
  0
LINE
  5
4264
330
1F
100
AcDbEntity
  8
0
100
AcDbLine
 10
-17.58720800000003
 20
-49.74796409648456
 30
0.0
 11
-18.75983999999999
 21
-49.07856009648458
 31
0.0
  0
LINE
  5
4265
330
1F
100
AcDbEntity
  8
0
100
AcDbLine
 10
-28.00295400000004
 20
-44.24807409648463
 30
0.0
 11
-18.76440999999999
 21
-47.52429409648459
 31
0.0
  0
LINE
  5
4266
330
1F
100
AcDbEntity
  8
0
100
AcDbLine
 10
-18.96588300000002
 20
-47.86129909648457
 30
0.0
 11
-16.88989300000002
 21
-44.38878109648453
 31
0.0
  0
LINE
  5
4267
330
1F
100
AcDbEntity
  8
0
100
AcDbLine
 10
-22.50295400000004
 20
-37.51451509648461
 30
0.0
 11
-22.50295400000004
 21
-28.5422590964846
 31
0.0
  0
LINE
  5
4268
330
1F
100
AcDbEntity
  8
0
100
AcDbLine
 10
-22.50295400000004
 20
-37.51451509648461
 30
0.0
 11
-28.00295400000004
 21
-37.63014209648463
 31
0.0
  0
LINE
  5
4269
330
1F
100
AcDbEntity
  8
0
100
AcDbLine
 10
-28.00295400000004
 20
-44.24807409648463
 30
0.0
 11
-28.00295400000004
 21
-37.63014209648463
 31
0.0
  0
ELLIPSE
  5
426A
330
1F
100
AcDbEntity
  8
0
100
AcDbEllipse
 10
-14.85172499999998
 20
-30.35720109648457
 30
0.0
 11
4.004163250131999
 21
-0.002450548215
 31
0.0
210
0.0
220
0.0
230
-1.0
 40
0.07950373661019
 41
3.145232044052919
 42
4.446688810665579
  0
LINE
  5
426B
330
1F
100
AcDbEntity
  8
0
100
AcDbLine
 10
-15.90297199999997
 20
-30.04938209648457
 30
0.0
 11
-1.994531000000051
 21
-29.75698409648453
 31
0.0
  0
LINE
  5
426C
330
1F
100
AcDbEntity
  8
0
100
AcDbLine
 10
-22.50295400000004
 20
-28.5422590964846
 30
0.0
 11
-1.867556000000035
 21
-28.10844009648462
 31
0.0
  0
LINE
  5
426D
330
1F
100
AcDbEntity
  8
0
100
AcDbLine
 10
-16.38682600000004
 20
-40.47731209648463
 30
0.0
 11
-15.90297199999997
 21
-30.04938209648457
 31
0.0
  0
LINE
  5
426E
330
1F
100
AcDbEntity
  8
0
100
AcDbLine
 10
-19.329249
 20
-40.55595709648457
 30
0.0
 11
-18.855861
 21
-30.35359009648459
 31
0.0
  0
SPLINE
  5
426F
330
1F
100
AcDbEntity
  8
0
100
AcDbSpline
210
0.0
220
0.0
230
1.0
 70
     8
 71
     3
 72
    11
 73
     7
 74
     5
 42
0.0000000001
 43
0.0000000001
 44
0.0000000001
 40
0.0
 40
0.0
 40
0.0
 40
0.0
 40
1.356101042259355
 40
2.732987623933346
 40
3.790043265195948
 40
4.401853662986773
 40
4.401853662986773
 40
4.401853662986773
 40
4.401853662986773
 10
-12.06539199999997
 20
-41.80523409648458
 30
0.0
 10
-11.62944496155218
 20
-41.94201545423722
 30
0.0
 10
-10.75086893835027
 20
-42.21767467598664
 30
0.0
 10
-9.502752826407775
 20
-42.19651053055004
 30
0.0
 10
-8.413560204774032
 20
-41.97279919864484
 30
0.0
 10
-8.126837316575262
 20
-41.47521916251217
 30
0.0
 10
-8.021724000000062
 20
-41.29280509648459
 30
0.0
 11
-12.06539199999997
 21
-41.80523409648458
 31
0.0
 11
-10.752273
 21
-42.14395009648455
 31
0.0
 11
-9.375388000000043
 21
-42.1418630964846
 31
0.0
 11
-8.378737999999998
 21
-41.78964809648459
 31
0.0
 11
-8.021724000000062
 21
-41.29280509648459
 31
0.0
  0
SPLINE
  5
4270
330
1F
100
AcDbEntity
  8
0
100
AcDbSpline
210
0.0
220
0.0
230
1.0
 70
     8
 71
     3
 72
    11
 73
     7
 74
     5
 42
0.0000000001
 43
0.0000000001
 44
0.0000000001
 40
0.0
 40
0.0
 40
0.0
 40
0.0
 40
0.2030563352077505
 40
0.5163420215006367
 40
0.9442551238765579
 40
1.469714311317453
 40
1.469714311317453
 40
1.469714311317453
 40
1.469714311317453
 10
-13.22172399999999
 20
-40.97022109648458
 30
0.0
 10
-13.19972972990526
 20
-41.03554066270423
 30
0.0
 10
-13.14380157641759
 20
-41.20163859228077
 30
0.0
 10
-12.87839821214056
 20
-41.39623731288378
 30
0.0
 10
-12.52313479316923
 20
-41.61606088902465
 30
0.0
 10
-12.22803741285098
 20
-41.73801697174376
 30
0.0
 10
-12.06539199999997
 20
-41.80523409648458
 30
0.0
 11
-13.22172399999999
 21
-40.97022109648458
 31
0.0
 11
-13.14194600000001
 21
-41.1569490964846
 31
0.0
 11
-12.91069600000003
 21
-41.36830509648461
 31
0.0
 11
-12.544913
 21
-41.59036909648455
 31
0.0
 11
-12.06539199999997
 21
-41.80523409648458
 31
0.0
  0
SPLINE
  5
4271
330
1F
100
AcDbEntity
  8
0
100
AcDbSpline
210
0.0
220
0.0
230
1.0
 70
     8
 71
     3
 72
    11
 73
     7
 74
     5
 42
0.0000000001
 43
0.0000000001
 44
0.0000000001
 40
0.0
 40
0.0
 40
0.0
 40
0.0
 40
0.3997836009454979
 40
1.053196590930431
 40
1.975231531727146
 40
3.039655097374337
 40
3.039655097374337
 40
3.039655097374337
 40
3.039655097374337
 10
-8.021724000000062
 20
-41.29280509648459
 30
0.0
 10
-8.080736267096991
 20
-41.16746895228206
 30
0.0
 10
-8.236199168483073
 20
-40.83728132206845
 30
0.0
 10
-8.942287235000051
 20
-40.67534929904765
 30
0.0
 10
-9.786958785103315
 20
-40.54602336299207
 30
0.0
 10
-10.4542192653435
 20
-40.53441976586415
 30
0.0
 10
-10.81176400000003
 20
-40.52820209648461
 30
0.0
 11
-8.021724000000062
 21
-41.29280509648459
 31
0.0
 11
-8.230607999999961
 21
-40.95193209648459
 31
0.0
 11
-8.83609899999999
 21
-40.70631209648456
 31
0.0
 11
-9.748220000000003
 21
-40.57146509648464
 31
0.0
 11
-10.81176400000003
 21
-40.52820209648461
 31
0.0
  0
SPLINE
  5
4272
330
1F
100
AcDbEntity
  8
0
100
AcDbSpline
210
0.0
220
0.0
230
1.0
 70
     8
 71
     3
 72
    11
 73
     7
 74
     5
 42
0.0000000001
 43
0.0000000001
 44
0.0000000001
 40
0.0
 40
0.0
 40
0.0
 40
0.0
 40
0.6064687981957514
 40
1.081292507016174
 40
1.40022470973334
 40
1.595249199769803
 40
1.595249199769803
 40
1.595249199769803
 40
1.595249199769803
 10
-11.75576699999999
 20
-40.5481110964846
 30
0.0
 10
-11.95927019120321
 20
-40.55990511447902
 30
0.0
 10
-12.32210250253821
 20
-40.58093304423059
 30
0.0
 10
-12.76726509646689
 20
-40.66289961855875
 30
0.0
 10
-13.1200505681557
 20
-40.74636001963464
 30
0.0
 10
-13.19375596688851
 20
-40.90864203992928
 30
0.0
 10
-13.22172399999999
 20
-40.97022109648458
 30
0.0
 11
-11.75576699999999
 21
-40.5481110964846
 31
0.0
 11
-12.36027899999999
 21
-40.59679009648459
 31
0.0
 11
-12.82786599999997
 21
-40.67937309648459
 31
0.0
 11
-13.12202899999999
 21
-40.80260409648462
 31
0.0
 11
-13.22172399999999
 21
-40.97022109648458
 31
0.0
  0
SPLINE
  5
4273
330
1F
100
AcDbEntity
  8
0
100
AcDbSpline
210
0.0
220
0.0
230
1.0
 70
     8
 71
     3
 72
    11
 73
     7
 74
     5
 42
0.0000000001
 43
0.0000000001
 44
0.0000000001
 40
0.0
 40
0.0
 40
0.0
 40
0.0
 40
0.0053654454614532
 40
0.0107302738837421
 40
0.0160952724856879
 40
0.0214608879210855
 40
0.0214608879210855
 40
0.0214608879210855
 40
0.0214608879210855
 10
-4.139005999999994
 20
-45.10167109648455
 30
0.0
 10
-4.137902308036142
 20
-45.10307840997194
 30
0.0
 10
-4.135695051035675
 20
-45.10589287510228
 30
0.0
 10
-4.132384649285428
 20
-45.11011489369528
 30
0.0
 10
-4.129076106995223
 20
-45.11433844156589
 30
0.0
 10
-4.126869411281285
 20
-45.11715349090535
 30
0.0
 10
-4.125765999999998
 20
-45.11856109648454
 30
0.0
 11
-4.139005999999994
 21
-45.10167109648455
 31
0.0
 11
-4.135695000000055
 21
-45.10589309648458
 31
0.0
 11
-4.132384999999999
 21
-45.11011509648461
 31
0.0
 11
-4.129076000000054
 21
-45.11433809648451
 31
0.0
 11
-4.125765999999998
 21
-45.11856109648454
 31
0.0
  0
ELLIPSE
  5
4274
330
1F
100
AcDbEntity
  8
0
100
AcDbEllipse
 10
-15.38300600000002
 20
-41.80727109648455
 30
0.0
 11
3.990881754126006
 21
-0.2863286995530003
 31
0.0
210
0.0
220
0.0
230
-1.0
 40
0.32607056988758
 41
3.930434247791799
 42
4.43481113636778
  0
ELLIPSE
  5
4275
330
1F
100
AcDbEntity
  8
0
100
AcDbEllipse
 10
-19.25571200000001
 20
-55.55245409648455
 30
0.0
 11
0.31528168264
 21
-14.99668621598099
 31
0.0
210
0.0
220
0.0
230
-1.0
 40
0.2580212
 41
3.240362518333309
 42
3.97090545680866
  0
SPLINE
  5
4276
330
1F
100
AcDbEntity
  8
0
100
AcDbSpline
210
0.0
220
0.0
230
1.0
 70
     8
 71
     3
 72
    11
 73
     7
 74
     5
 42
0.0000000001
 43
0.0000000001
 44
0.0000000001
 40
0.0
 40
0.0
 40
0.0
 40
0.0
 40
0.1301237046583035
 40
0.3760882034828366
 40
0.731080503671149
 40
1.186841671526647
 40
1.186841671526647
 40
1.186841671526647
 40
1.186841671526647
 10
-19.308356
 20
-40.55024609648455
 30
0.0
 10
-19.26510635200395
 20
-40.55365378936721
 30
0.0
 10
-19.14010466642474
 20
-40.56350282569477
 30
0.0
 10
-18.89896327384136
 20
-40.59960000388488
 30
0.0
 10
-18.54932879024682
 20
-40.64238461304496
 30
0.0
 10
-18.28026238649258
 20
-40.6678582268428
 30
0.0
 10
-18.12900799999999
 20
-40.68217809648456
 30
0.0
 11
-19.308356
 21
-40.55024609648455
 31
0.0
 11
-19.17872099999999
 21
-40.56151309648453
 31
0.0
 11
-18.93482199999999
 21
-40.59332209648459
 31
0.0
 11
-18.582514
 21
-40.63689509648452
 31
0.0
 11
-18.12900799999999
 21
-40.68217809648456
 31
0.0
  0
SPLINE
  5
4277
330
1F
100
AcDbEntity
  8
0
100
AcDbSpline
210
0.0
220
0.0
230
1.0
 70
     8
 71
     3
 72
    11
 73
     7
 74
     5
 42
0.0000000001
 43
0.0000000001
 44
0.0000000001
 40
0.0
 40
0.0
 40
0.0
 40
0.0
 40
0.0663061719072799
 40
0.1143280214863856
 40
0.1441303157773307
 40
0.1567561104056881
 40
0.1567561104056881
 40
0.1567561104056881
 40
0.1567561104056881
 10
-19.18789000000003
 20
-40.62083509648459
 30
0.0
 10
-19.20877008682271
 20
-40.61337534491994
 30
0.0
 10
-19.24477245200583
 20
-40.60051291277171
 30
0.0
 10
-19.28814602778834
 20
-40.58110149109753
 30
0.0
 10
-19.3173742218741
 20
-40.57015415162767
 30
0.0
 10
-19.32652492445256
 20
-40.5591937146641
 30
0.0
 10
-19.329248
 20
-40.55593209648463
 30
0.0
 11
-19.18789000000003
 21
-40.62083509648459
 31
0.0
 11
-19.24999300000001
 21
-40.59760309648459
 31
0.0
 11
-19.29428699999999
 21
-40.57905209648459
 31
0.0
 11
-19.32067500000005
 21
-40.56520109648454
 31
0.0
 11
-19.329248
 21
-40.55593209648463
 31
0.0
  0
SPLINE
  5
4278
330
1F
100
AcDbEntity
  8
0
100
AcDbSpline
210
0.0
220
0.0
230
1.0
 70
     8
 71
     3
 72
    11
 73
     7
 74
     5
 42
0.0000000001
 43
0.0000000001
 44
0.0000000001
 40
0.0
 40
0.0
 40
0.0
 40
0.0
 40
0.0044537438184263
 40
0.0089089521188611
 40
0.0133631916723689
 40
0.0178179278037547
 40
0.0178179278037547
 40
0.0178179278037547
 40
0.0178179278037547
 10
-14.602193
 20
-45.32163909648454
 30
0.0
 10
-14.60256051509954
 20
-45.32307746859627
 30
0.0
 10
-14.6032956661451
 20
-45.32595468578589
 30
0.0
 10
-14.6044011022545
 20
-45.33026973696065
 30
0.0
 10
-14.60550552633792
 20
-45.33458538875821
 30
0.0
 10
-14.60624382839524
 20
-45.33746180713287
 30
0.0
 10
-14.60661300000003
 20
-45.33890009648462
 30
0.0
 11
-14.602193
 21
-45.32163909648454
 31
0.0
 11
-14.603296
 21
-45.32595409648457
 31
0.0
 11
-14.60440100000005
 21
-45.33027009648458
 31
0.0
 11
-14.60550599999999
 21
-45.3345850964846
 31
0.0
 11
-14.60661300000003
 21
-45.33890009648462
 31
0.0
  0
SPLINE
  5
4279
330
1F
100
AcDbEntity
  8
0
100
AcDbSpline
210
0.0
220
0.0
230
1.0
 70
     8
 71
     3
 72
    11
 73
     7
 74
     5
 42
0.0000000001
 43
0.0000000001
 44
0.0000000001
 40
0.0
 40
0.0
 40
0.0
 40
0.0
 40
0.0027392708884189
 40
0.0070204853189581
 40
0.0136303210203603
 40
0.0226678924862084
 40
0.0226678924862084
 40
0.0226678924862084
 40
0.0226678924862084
 10
-19.329248
 20
-40.55593209648463
 30
0.0
 10
-19.32883810404592
 20
-40.55508030255516
 30
0.0
 10
-19.32778758051424
 20
-40.55289723741841
 30
0.0
 10
-19.32304042184414
 20
-40.55154578771717
 30
0.0
 10
-19.31663929169212
 20
-40.5505222311361
 30
0.0
 10
-19.311388647577
 20
-40.55034719386384
 30
0.0
 10
-19.308356
 20
-40.55024609648455
 30
0.0
 11
-19.329248
 21
-40.55593209648463
 31
0.0
 11
-19.327806
 21
-40.5536030964846
 31
0.0
 11
-19.32389699999998
 21
-40.55185709648458
 31
0.0
 11
-19.31737900000001
 21
-40.55075909648462
 31
0.0
 11
-19.308356
 21
-40.55024609648455
 31
0.0
  0
LINE
  5
427A
330
1F
100
AcDbEntity
  8
0
100
AcDbLine
 10
-16.38682600000004
 20
-40.47731209648463
 30
0.0
 11
-1.994531000000051
 21
-40.17474209648457
 31
0.0
  0
LINE
  5
427B
330
1F
100
AcDbEntity
  8
0
100
AcDbLine
 10
-1.994531000000051
 20
-40.34298209648454
 30
0.0
 11
-18.12900799999999
 21
-40.68217809648456
 31
0.0
  0
LINE
  5
427C
330
1F
100
AcDbEntity
  8
0
100
AcDbLine
 10
-14.60661300000003
 20
-45.33890009648462
 30
0.0
 11
-4.125765999999998
 21
-45.11856109648454
 31
0.0
  0
LINE
  5
427D
330
1F
100
AcDbEntity
  8
0
100
AcDbLine
 10
-14.55378200000001
 20
-45.50603009648455
 30
0.0
 11
-3.928598000000079
 21
-45.28265609648451
 31
0.0
  0
LINE
  5
427E
330
1F
100
AcDbEntity
  8
0
100
AcDbLine
 10
-16.61504300000001
 20
-45.36395509648457
 30
0.0
 11
-14.602193
 21
-45.32163909648454
 31
0.0
  0
LINE
  5
427F
330
1F
100
AcDbEntity
  8
0
100
AcDbLine
 10
-14.55378200000001
 20
-45.50603009648455
 30
0.0
 11
-14.60661300000003
 21
-45.33890009648462
 31
0.0
  0
LINE
  5
4280
330
1F
100
AcDbEntity
  8
0
100
AcDbLine
 10
-4.139005999999994
 20
-45.10167109648455
 30
0.0
 11
-1.994531000000051
 21
-45.05658709648457
 31
0.0
  0
LINE
  5
4281
330
1F
100
AcDbEntity
  8
0
100
AcDbLine
 10
-4.032315000000039
 20
-45.09942809648452
 30
0.0
 11
-3.928598000000079
 21
-45.28265609648451
 31
0.0
  0
LINE
  5
4282
330
1F
100
AcDbEntity
  8
0
100
AcDbLine
 10
-3.928598000000079
 20
-45.28265609648451
 30
0.0
 11
-4.125765999999998
 21
-45.11856109648454
 31
0.0
  0
LINE
  5
4283
330
1F
100
AcDbEntity
  8
0
100
AcDbLine
 10
-1.091098999999985
 20
-28.33579709648461
 30
0.0
 11
-1.091098999999985
 21
-43.2895570964846
 31
0.0
  0
LINE
  5
4284
330
1F
100
AcDbEntity
  8
0
100
AcDbLine
 10
-0.9494980000000623
 20
-28.46278309648459
 30
0.0
 11
-0.9494980000000623
 21
-45.97331209648451
 31
0.0
  0
LINE
  5
4285
330
1F
100
AcDbEntity
  8
0
100
AcDbLine
 10
-1.867556000000035
 20
-28.10844009648462
 30
0.0
 11
-1.091098999999985
 21
-28.33579709648461
 31
0.0
  0
LINE
  5
4286
330
1F
100
AcDbEntity
  8
0
100
AcDbLine
 10
-0.9494980000000623
 20
-28.46278309648459
 30
0.0
 11
-1.091098999999985
 21
-28.33579709648461
 31
0.0
  0
LINE
  5
4287
330
1F
100
AcDbEntity
  8
0
100
AcDbLine
 10
-1.867556000000035
 20
-43.06220009648462
 30
0.0
 11
-1.867556000000035
 21
-28.10844009648462
 31
0.0
  0
LINE
  5
4288
330
1F
100
AcDbEntity
  8
0
100
AcDbLine
 10
-1.994531000000051
 20
-40.17474209648457
 30
0.0
 11
-1.994531000000051
 21
-29.75698409648453
 31
0.0
  0
LINE
  5
4289
330
1F
100
AcDbEntity
  8
0
100
AcDbLine
 10
-0.9583480000000008
 20
-43.4086070964845
 30
0.0
 11
-0.9583480000000008
 21
-45.95632009648454
 31
0.0
  0
LINE
  5
428A
330
1F
100
AcDbEntity
  8
0
100
AcDbLine
 10
-1.994531000000051
 20
-43.06487009648458
 30
0.0
 11
-1.867556000000035
 21
-43.06220009648462
 31
0.0
  0
LINE
  5
428B
330
1F
100
AcDbEntity
  8
0
100
AcDbLine
 10
-1.091098999999985
 20
-43.2895570964846
 30
0.0
 11
-1.867556000000035
 21
-43.06220009648462
 31
0.0
  0
LINE
  5
428C
330
1F
100
AcDbEntity
  8
0
100
AcDbLine
 10
-1.091098999999985
 20
-43.2895570964846
 30
0.0
 11
-0.9583480000000008
 21
-43.4086070964845
 31
0.0
  0
LINE
  5
428D
330
1F
100
AcDbEntity
  8
0
100
AcDbLine
 10
-1.994531000000051
 20
-43.43039109648453
 30
0.0
 11
-0.9583480000000008
 21
-43.4086070964845
 31
0.0
  0
LINE
  5
428E
330
1F
100
AcDbEntity
  8
0
100
AcDbLine
 10
-1.994531000000051
 20
-43.96680009648457
 30
0.0
 11
-0.0039319999999634
 21
-47.78884209648459
 31
0.0
  0
LINE
  5
428F
330
1F
100
AcDbEntity
  8
0
100
AcDbLine
 10
-1.994531000000051
 20
-45.05658709648457
 30
0.0
 11
-1.994531000000051
 21
-40.34298209648454
 31
0.0
  0
LINE
  5
4290
330
1F
100
AcDbEntity
  8
0
100
AcDbLine
 10
-0.0039319999999634
 20
47.78884209648459
 30
0.0
 11
0.0
 21
49.18390009648465
 31
0.0
  0
LINE
  5
4291
330
1F
100
AcDbEntity
  8
0
100
AcDbLine
 10
-0.0039319999999634
 20
-47.78884209648459
 30
0.0
 11
0.0
 21
-49.18390009648465
 31
0.0
  0
LINE
  5
42AE
330
1F
100
AcDbEntity
  8
AM_0
100
AcDbLine
 10
-21.30497266779133
 20
48.07787443126374
 30
0.0
 11
-18.97463013837412
 21
47.8876502397773
 31
0.0
  0
LINE
  5
42AF
330
1F
100
AcDbEntity
  8
AM_0
100
AcDbLine
 10
-27.8000000000001
 20
44.32004668804016
 30
0.0
 11
-27.8000000000001
 21
44.99999999999997
 31
0.0
  0
LINE
  5
42B0
330
1F
100
AcDbEntity
  8
AM_0
100
AcDbLine
 10
-22.79999999999998
 20
46.09317241001541
 30
0.0
 11
-22.80000000000001
 21
46.69991244152598
 31
0.0
  0
ARC
  5
42B1
330
1F
100
AcDbEntity
  8
AM_0
100
AcDbCircle
 10
-27.40000000000017
 20
37.9
 30
0.0
 40
0.4
100
AcDbArc
 50
223.7204842478994
 51
270.0
  0
ARC
  5
42B3
330
1F
100
AcDbEntity
  8
AM_0
100
AcDbCircle
 10
-23.20000000000015
 20
37.9
 30
0.0
 40
0.4
100
AcDbArc
 50
270.0
 51
290.8432456813884
  0
LINE
  5
42B4
330
1F
100
AcDbEntity
  8
AM_0
100
AcDbLine
 10
-3.481187649392552
 20
27.5
 30
0.0
 11
-2.795893297806088
 21
28.12795657773674
 31
0.0
  0
ARC
  5
42B5
330
1F
100
AcDbEntity
  8
AM_3
100
AcDbCircle
 10
-27.40000000000017
 20
-37.9
 30
0.0
 40
0.4
100
AcDbArc
 50
136.2795157521005
 51
180.0000000000007
  0
ARC
  5
42B6
330
1F
100
AcDbEntity
  8
AM_0
100
AcDbCircle
 10
-27.40000000000017
 20
-37.9
 30
0.0
 40
0.4
100
AcDbArc
 50
90.00000000000003
 51
136.2795157521005
  0
ARC
  5
42B7
330
1F
100
AcDbEntity
  8
AM_3
100
AcDbCircle
 10
-23.20000000000015
 20
-37.9
 30
0.0
 40
0.4
100
AcDbArc
 50
0.0000000000008283
 51
69.15675431861156
  0
ARC
  5
42B8
330
1F
100
AcDbEntity
  8
AM_0
100
AcDbCircle
 10
-23.20000000000015
 20
-37.9
 30
0.0
 40
0.4
100
AcDbArc
 50
69.15675431861156
 51
90.00000000000003
  0
LINE
  5
42BC
330
1F
100
AcDbEntity
  8
AM_0
100
AcDbLine
 10
-27.8000000000001
 20
-44.99999999999997
 30
0.0
 11
-27.8000000000001
 21
-44.32004668804016
 31
0.0
  0
LINE
  5
42BD
330
1F
100
AcDbEntity
  8
AM_0
100
AcDbLine
 10
-22.80000000000001
 20
-46.69999999999999
 30
0.0
 11
-22.80000000000001
 21
-46.0931724100154
 31
0.0
  0
LINE
  5
42BE
330
1F
100
AcDbEntity
  8
AM_3
100
AcDbLine
 10
-2.795893297806088
 20
-28.12795657773674
 30
0.0
 11
-2.394031906644897
 21
-28.49619469809175
 31
0.0
  0
LINE
  5
42BF
330
1F
100
AcDbEntity
  8
AM_0
100
AcDbLine
 10
-21.30497977034704
 20
-48.07787501104027
 30
0.0
 11
-18.9586141469378
 21
-47.86766820424245
 31
0.0
  0
LINE
  5
42C0
330
1F
100
AcDbEntity
  8
AM_3
100
AcDbLine
 10
-2.000000000000056
 20
-33.0
 30
0.0
 11
-2.000000000000056
 21
-28.11122447329364
 31
0.0
  0
LINE
  5
42C1
330
1F
100
AcDbEntity
  8
AM_3
100
AcDbLine
 10
-2.000000000000056
 20
28.11122447329364
 30
0.0
 11
-2.000000000000056
 21
33.0
 31
0.0
  0
DIMENSION
  5
436D
330
1F
100
AcDbEntity
  8
AM_5
100
AcDbDimension
  2
*D13
 10
0.0
 20
-50.0
 30
0.0
 11
21.84971723161382
 21
-71.84971723161365
 31
0.0
 70
    34
  1
<>
  3
AM_JIS$2
100
AcDb2LineAngularDimension
 13
-0.7727379999997766
 23
-50.0
 33
0.0
 14
0.0
 24
-50.0
 34
0.0
 15
0.0
 25
49.18846823328651
 35
0.0
 16
17.00008322148268
 26
-79.44500787250707
 36
0.0
1001
ACAD
1000
DSTYLE
1002
{
1070
   179
1070
     3
1002
}
1001
GENIUS_GENDTOL_13
1000

1000
h7
1000

1040
0.0
  0
LINE
  5
4498
330
1F
100
AcDbEntity
  8
AM_0
100
AcDbLine
 10
-28.80000000000009
 20
45.99999999999997
 30
0.0
 11
-27.8000000000001
 21
44.99999999999997
 31
0.0
1001
GENIUS_GENFIL_13
1070
     0
1040
1.0
1040
1.0
1040
20.0
1040
0.0
1002
{
1002
}
1001
GENIUS_GENODEF_13
1002
{
1000
HIER
1070
     0
1002
}
1002
{
1000
MANEDIT
1070
     0
1002
}
1002
{
1000
NOSEL
1070
     0
1002
}
1002
{
1000
BEHIND
1070
     0
1002
}
1002
{
1000
REACTOR
1002
}
1001
GENIUS_GENOBJ-N-CHA_13
1002
{
1000
OWNER
1000
GEN
1002
}
  0
LINE
  5
449A
330
1F
100
AcDbEntity
  8
AM_3
100
AcDbLine
 10
-2.996684888139166
 20
46.58338201376635
 30
0.0
 11
-1.999999999999999
 21
45.50202334025819
 31
0.0
1001
GENIUS_GENFIL_13
1070
     0
1040
1.0
1040
1.0
1040
20.0
1040
0.0
1002
{
1002
}
1001
GENIUS_GENODEF_13
1002
{
1000
HIER
1070
     0
1002
}
1002
{
1000
MANEDIT
1070
     0
1002
}
1002
{
1000
NOSEL
1070
     0
1002
}
1002
{
1000
BEHIND
1070
     0
1002
}
1002
{
1000
REACTOR
1002
}
1001
GENIUS_GENOBJ-N-CHA_13
1002
{
1000
OWNER
1000
GEN
1002
}
  0
LINE
  5
449D
330
1F
100
AcDbEntity
  8
AM_0
100
AcDbLine
 10
-22.80000000000001
 20
46.69991244152598
 30
0.0
 11
-21.30497266779133
 21
48.07787443126374
 31
0.0
1001
GENIUS_GENFIL_13
1070
     0
1040
1.5
1040
1.5
1040
20.0
1040
0.0
1002
{
1002
}
1001
GENIUS_GENODEF_13
1002
{
1000
HIER
1070
     0
1002
}
1002
{
1000
MANEDIT
1070
     0
1002
}
1002
{
1000
NOSEL
1070
     0
1002
}
1002
{
1000
BEHIND
1070
     0
1002
}
1002
{
1000
REACTOR
1002
}
1001
GENIUS_GENOBJ-N-CHA_13
1002
{
1000
OWNER
1000
GEN
1002
}
  0
ARC
  5
44A2
330
1F
100
AcDbEntity
  8
AM_0
100
AcDbCircle
 10
-44.48209509270045
 20
36.99999999999996
 30
0.0
 40
2.0
100
AcDbArc
 50
269.9999999999997
 51
344.9999999999996
1001
GENIUS_GENODEF_13
1002
{
1000
HIER
1070
     0
1002
}
1002
{
1000
MANEDIT
1070
     0
1002
}
1002
{
1000
NOSEL
1070
     0
1002
}
1002
{
1000
BEHIND
1070
     0
1002
}
1002
{
1000
REACTOR
1002
}
1001
GENIUS_GENOBJ-N-FIL_13
1002
{
1000
OWNER
1000
GEN
1002
}
  0
LINE
  5
44A5
330
1F
100
AcDbEntity
  8
AM_0
100
AcDbLine
 10
-60.7
 20
35.00000000000003
 30
0.0
 11
-63.0
 21
32.70000000000004
 31
0.0
1001
GENIUS_GENFIL_13
1070
     0
1040
2.299999999999999
1040
2.299999999999999
1040
20.0
1040
0.0
1002
{
1002
}
1001
GENIUS_GENODEF_13
1002
{
1000
HIER
1070
     0
1002
}
1002
{
1000
MANEDIT
1070
     0
1002
}
1002
{
1000
NOSEL
1070
     0
1002
}
1002
{
1000
BEHIND
1070
     0
1002
}
1002
{
1000
REACTOR
1002
}
1001
GENIUS_GENOBJ-N-CHA_13
1002
{
1000
OWNER
1000
GEN
1002
}
  0
LINE
  5
44A8
330
1F
100
AcDbEntity
  8
AM_0
100
AcDbLine
 10
-63.00000000000005
 20
18.67503270956088
 30
0.0
 11
-60.20000000000006
 21
15.87503270956088
 31
0.0
1001
GENIUS_GENFIL_13
1070
     0
1040
2.799999999999999
1040
2.799999999999999
1040
20.0
1040
0.0
1002
{
1002
}
1001
GENIUS_GENODEF_13
1002
{
1000
HIER
1070
     0
1002
}
1002
{
1000
MANEDIT
1070
     0
1002
}
1002
{
1000
NOSEL
1070
     0
1002
}
1002
{
1000
BEHIND
1070
     0
1002
}
1002
{
1000
REACTOR
1002
}
1001
GENIUS_GENOBJ-N-CHA_13
1002
{
1000
OWNER
1000
GEN
1002
}
  0
LINE
  5
44AB
330
1F
100
AcDbEntity
  8
AM_0
100
AcDbLine
 10
-61.7000000000001
 20
6.349999999999965
 30
0.0
 11
-63.00000000000009
 21
7.649999999999964
 31
0.0
1001
GENIUS_GENFIL_13
1070
     0
1040
1.3
1040
1.3
1040
20.0
1040
0.0
1002
{
1002
}
1001
GENIUS_GENODEF_13
1002
{
1000
HIER
1070
     0
1002
}
1002
{
1000
MANEDIT
1070
     0
1002
}
1002
{
1000
NOSEL
1070
     0
1002
}
1002
{
1000
BEHIND
1070
     0
1002
}
1002
{
1000
REACTOR
1002
}
1001
GENIUS_GENOBJ-N-CHA_13
1002
{
1000
OWNER
1000
GEN
1002
}
  0
ARC
  5
44B2
330
1F
100
AcDbEntity
  8
AM_0
100
AcDbCircle
 10
-55.50000000000006
 20
5.849999999999965
 30
0.0
 40
0.5
100
AcDbArc
 50
359.9999999999997
 51
90.0
1001
GENIUS_GENODEF_13
1002
{
1000
HIER
1070
     0
1002
}
1002
{
1000
MANEDIT
1070
     0
1002
}
1002
{
1000
NOSEL
1070
     0
1002
}
1002
{
1000
BEHIND
1070
     0
1002
}
1002
{
1000
REACTOR
1002
}
1001
GENIUS_GENOBJ-N-FIL_13
1002
{
1000
OWNER
1000
GEN
1002
}
  0
LINE
  5
44B4
330
1F
100
AcDbEntity
  8
AM_0
100
AcDbLine
 10
-60.7
 20
-35.00000000000003
 30
0.0
 11
-63.0
 21
-32.70000000000004
 31
0.0
1001
GENIUS_GENFIL_13
1070
     0
1040
2.299999999999999
1040
2.299999999999999
1040
20.0
1040
0.0
1002
{
1002
}
1001
GENIUS_GENODEF_13
1002
{
1000
HIER
1070
     0
1002
}
1002
{
1000
MANEDIT
1070
     0
1002
}
1002
{
1000
NOSEL
1070
     0
1002
}
1002
{
1000
BEHIND
1070
     0
1002
}
1002
{
1000
REACTOR
1002
}
1001
GENIUS_GENOBJ-N-CHA_13
1002
{
1000
OWNER
1000
GEN
1002
}
  0
LINE
  5
44B5
330
1F
100
AcDbEntity
  8
AM_0
100
AcDbLine
 10
-63.00000000000005
 20
-18.67503270956088
 30
0.0
 11
-60.20000000000006
 21
-15.87503270956088
 31
0.0
1001
GENIUS_GENFIL_13
1070
     0
1040
2.799999999999999
1040
2.799999999999999
1040
20.0
1040
0.0
1002
{
1002
}
1001
GENIUS_GENODEF_13
1002
{
1000
HIER
1070
     0
1002
}
1002
{
1000
MANEDIT
1070
     0
1002
}
1002
{
1000
NOSEL
1070
     0
1002
}
1002
{
1000
BEHIND
1070
     0
1002
}
1002
{
1000
REACTOR
1002
}
1001
GENIUS_GENOBJ-N-CHA_13
1002
{
1000
OWNER
1000
GEN
1002
}
  0
LINE
  5
44B6
330
1F
100
AcDbEntity
  8
AM_0
100
AcDbLine
 10
-61.7000000000001
 20
-6.349999999999965
 30
0.0
 11
-63.00000000000009
 21
-7.649999999999964
 31
0.0
1001
GENIUS_GENFIL_13
1070
     0
1040
1.3
1040
1.3
1040
20.0
1040
0.0
1002
{
1002
}
1001
GENIUS_GENODEF_13
1002
{
1000
HIER
1070
     0
1002
}
1002
{
1000
MANEDIT
1070
     0
1002
}
1002
{
1000
NOSEL
1070
     0
1002
}
1002
{
1000
BEHIND
1070
     0
1002
}
1002
{
1000
REACTOR
1002
}
1001
GENIUS_GENOBJ-N-CHA_13
1002
{
1000
OWNER
1000
GEN
1002
}
  0
ARC
  5
44B7
330
1F
100
AcDbEntity
  8
AM_0
100
AcDbCircle
 10
-55.50000000000006
 20
-5.849999999999965
 30
0.0
 40
0.5
100
AcDbArc
 50
270.0
 51
0.0000000000003194
1001
GENIUS_GENODEF_13
1002
{
1000
HIER
1070
     0
1002
}
1002
{
1000
MANEDIT
1070
     0
1002
}
1002
{
1000
NOSEL
1070
     0
1002
}
1002
{
1000
BEHIND
1070
     0
1002
}
1002
{
1000
REACTOR
1002
}
1001
GENIUS_GENOBJ-N-FIL_13
1002
{
1000
OWNER
1000
GEN
1002
}
  0
LINE
  5
44BA
330
1F
100
AcDbEntity
  8
AM_0
100
AcDbLine
 10
-28.80000000000009
 20
-45.99999999999997
 30
0.0
 11
-27.8000000000001
 21
-44.99999999999997
 31
0.0
1001
GENIUS_GENFIL_13
1070
     0
1040
1.0
1040
1.0
1040
20.0
1040
0.0
1002
{
1002
}
1001
GENIUS_GENODEF_13
1002
{
1000
HIER
1070
     0
1002
}
1002
{
1000
MANEDIT
1070
     0
1002
}
1002
{
1000
NOSEL
1070
     0
1002
}
1002
{
1000
BEHIND
1070
     0
1002
}
1002
{
1000
REACTOR
1002
}
1001
GENIUS_GENOBJ-N-CHA_13
1002
{
1000
OWNER
1000
GEN
1002
}
  0
LINE
  5
44BB
330
1F
100
AcDbEntity
  8
AM_0
100
AcDbLine
 10
-22.80000000000001
 20
-46.69991244152598
 30
0.0
 11
-21.30497266779133
 21
-48.07787443126374
 31
0.0
1001
GENIUS_GENFIL_13
1070
     0
1040
1.5
1040
1.5
1040
20.0
1040
0.0
1002
{
1002
}
1001
GENIUS_GENODEF_13
1002
{
1000
HIER
1070
     0
1002
}
1002
{
1000
MANEDIT
1070
     0
1002
}
1002
{
1000
NOSEL
1070
     0
1002
}
1002
{
1000
BEHIND
1070
     0
1002
}
1002
{
1000
REACTOR
1002
}
1001
GENIUS_GENOBJ-N-CHA_13
1002
{
1000
OWNER
1000
GEN
1002
}
  0
LINE
  5
44BC
330
1F
100
AcDbEntity
  8
AM_3
100
AcDbLine
 10
-2.996684888139166
 20
-46.58338201376635
 30
0.0
 11
-1.999999999999999
 21
-45.50202334025819
 31
0.0
1001
GENIUS_GENFIL_13
1070
     0
1040
1.0
1040
1.0
1040
20.0
1040
0.0
1002
{
1002
}
1001
GENIUS_GENODEF_13
1002
{
1000
HIER
1070
     0
1002
}
1002
{
1000
MANEDIT
1070
     0
1002
}
1002
{
1000
NOSEL
1070
     0
1002
}
1002
{
1000
BEHIND
1070
     0
1002
}
1002
{
1000
REACTOR
1002
}
1001
GENIUS_GENOBJ-N-CHA_13
1002
{
1000
OWNER
1000
GEN
1002
}
  0
ARC
  5
464E
330
1F
100
AcDbEntity
  8
AM_0
100
AcDbCircle
 10
-30.20000000000015
 20
20.20000000000002
 30
0.0
 40
0.8
100
AcDbArc
 50
89.99999999999992
 51
179.9999999999999
1001
GENIUS_GENODEF_13
1002
{
1000
HIER
1070
     0
1002
}
1002
{
1000
MANEDIT
1070
     0
1002
}
1002
{
1000
NOSEL
1070
     0
1002
}
1002
{
1000
BEHIND
1070
     0
1002
}
1002
{
1000
REACTOR
1002
}
1001
GENIUS_GENOBJ-N-FIL_13
1002
{
1000
OWNER
1000
GEN
1002
}
  0
ARC
  5
4650
330
1F
100
AcDbEntity
  8
AM_0
100
AcDbCircle
 10
-30.20000000000015
 20
-20.20000000000002
 30
0.0
 40
0.8
100
AcDbArc
 50
180.0
 51
270.0
1001
GENIUS_GENODEF_13
1002
{
1000
HIER
1070
     0
1002
}
1002
{
1000
MANEDIT
1070
     0
1002
}
1002
{
1000
NOSEL
1070
     0
1002
}
1002
{
1000
BEHIND
1070
     0
1002
}
1002
{
1000
REACTOR
1002
}
1001
GENIUS_GENOBJ-N-FIL_13
1002
{
1000
OWNER
1000
GEN
1002
}
  0
ARC
  5
48E8
330
1F
100
AcDbEntity
  8
AM_0
100
AcDbCircle
 10
-38.46534602404218
 20
44.00000000000001
 30
0.0
 40
2.0
100
AcDbArc
 50
89.99999999999978
 51
164.9999999999995
1001
GENIUS_GENODEF_13
1002
{
1000
HIER
1070
     0
1002
}
1002
{
1000
MANEDIT
1070
     0
1002
}
1002
{
1000
NOSEL
1070
     0
1002
}
1002
{
1000
BEHIND
1070
     0
1002
}
1002
{
1000
REACTOR
1002
}
1001
GENIUS_GENOBJ-N-FIL_13
1002
{
1000
OWNER
1000
GEN
1002
}
  0
ARC
  5
48EA
330
1F
100
AcDbEntity
  8
AM_0
100
AcDbCircle
 10
-38.46534602404218
 20
-44.00000000000001
 30
0.0
 40
2.0
100
AcDbArc
 50
195.0000000000004
 51
270.0000000000002
1001
GENIUS_GENODEF_13
1002
{
1000
HIER
1070
     0
1002
}
1002
{
1000
MANEDIT
1070
     0
1002
}
1002
{
1000
NOSEL
1070
     0
1002
}
1002
{
1000
BEHIND
1070
     0
1002
}
1002
{
1000
REACTOR
1002
}
1001
GENIUS_GENOBJ-N-FIL_13
1002
{
1000
OWNER
1000
GEN
1002
}
  0
LINE
  5
48EB
330
1F
100
AcDbEntity
  8
AM_0
100
AcDbLine
 10
-40.39719767662031
 20
-44.51763809020507
 30
0.0
 11
-42.55024344012233
 21
-36.48236190979491
 31
0.0
  0
ARC
  5
48EC
330
1F
100
AcDbEntity
  8
AM_0
100
AcDbCircle
 10
-44.48209509270045
 20
-36.99999999999996
 30
0.0
 40
2.0
100
AcDbArc
 50
15.0000000000004
 51
90.00000000000026
1001
GENIUS_GENODEF_13
1002
{
1000
HIER
1070
     0
1002
}
1002
{
1000
MANEDIT
1070
     0
1002
}
1002
{
1000
NOSEL
1070
     0
1002
}
1002
{
1000
BEHIND
1070
     0
1002
}
1002
{
1000
REACTOR
1002
}
1001
GENIUS_GENOBJ-N-FIL_13
1002
{
1000
OWNER
1000
GEN
1002
}
  0
VIEWPORT
  5
110
330
101
100
AcDbEntity
 67
     1
  8
0
100
AcDbViewport
 10
420.5
 20
297.0
 30
0.0
 40
948.9782706766916
 41
628.452
 68
     1
 69
     1
1001
ACAD
1000
MVIEW
1002
{
1070
    16
1010
0.0
1020
0.0
1030
0.0
1010
0.0
1020
0.0
1030
1.0
1040
0.0
1040
628.452
1040
420.5
1040
297.0
1040
50.0
1040
0.0
1040
0.0
1070
     0
1070
   100
1070
     1
1070
     1
1070
     0
1070
     0
1070
     0
1070
     0
1040
0.0
1040
0.0
1040
0.0
1040
10.0
1040
10.0
1040
10.0
1040
10.0
1070
     0
1002
{
1002
}
1002
}
  0
ENDSEC
  0
SECTION
  2
OBJECTS
  0
DICTIONARY
  5
C
330
0
100
AcDbDictionary
  3
ACAD_GROUP
350
D
  3
ACAD_LAYOUT
350
1A
  3
ACAD_MLINESTYLE
350
17
  3
ACAD_PLOTSETTINGS
350
19
  3
ACAD_PLOTSTYLENAME
350
E
  3
ACDBVARIABLEDICTIONARY
350
34
  3
ACMDICTIONARY
350
43
  3
AMG
350
2B
  3
AMGSNAPSETTINGS
350
6E
  3
DWGPROPS
350
491C
  3
ACDBHEADERROUNDTRIPXREC
350
4929
  0
DICTIONARY
  5
74
330
1F
100
AcDbDictionary
280
     1
  3
ACAD_INDEX
360
491E
  3
ACAD_LAYOUTSELFREF
360
494C
  0
DICTIONARY
  5
4951
330
101
100
AcDbDictionary
280
     1
  3
ACAD_LAYOUTSELFREF
360
4952
  0
DICTIONARY
  5
D
102
{ACAD_REACTORS
330
C
102
}
330
C
100
AcDbDictionary
  0
DICTIONARY
  5
1A
102
{ACAD_REACTORS
330
C
102
}
330
C
100
AcDbDictionary
  0
DICTIONARY
  5
17
102
{ACAD_REACTORS
330
C
102
}
330
C
100
AcDbDictionary
  3
STANDARD
350
18
  0
DICTIONARY
  5
19
102
{ACAD_REACTORS
330
C
102
}
330
C
100
AcDbDictionary
  0
ACDBDICTIONARYWDFLT
  5
E
102
{ACAD_REACTORS
330
C
102
}
330
C
100
AcDbDictionary
281
     1
  3
Normal
350
F
100
AcDbDictionaryWithDefault
340
F
  0
DICTIONARY
  5
34
102
{ACAD_REACTORS
330
C
102
}
330
C
100
AcDbDictionary
  3
INDEXCTL
350
35
  3
SORTENTS
350
B5E
  0
DICTIONARY
  5
43
102
{ACAD_REACTORS
330
C
102
}
330
C
100
AcDbDictionary
  3
ACMSTDDICTIONARY
350
260
  0
DICTIONARY
  5
2B
102
{ACAD_REACTORS
330
C
102
}
330
C
100
AcDbDictionary
  3
ACMGSETTINGS
350
2C
  0
DICTIONARY
  5
6E
102
{ACAD_REACTORS
330
C
102
}
330
C
100
AcDbDictionary
  0
XRECORD
  5
491C
102
{ACAD_REACTORS
330
C
102
}
330
C
100
AcDbXrecord
  1
DWGPROPS COOKIE
  2

  3

  4

  6

  7

  8

  9

300
AmdtFileType=82
301
=
302
=
303
=
304
=
305
=
306
=
307
=
308
=
309
=
 40
0.0922611226851852
 41
2452836.771637361
 42
2452908.391477951
  1

 90
        1
  0
DICTIONARY
  5
4929
102
{ACAD_REACTORS
330
C
102
}
330
C
100
AcDbDictionary
  3
TSTACKALIGN
350
492A
  3
TSTACKSIZE
350
492B
  3
HYPERLINKBASE
350
492C
  3
STYLESHEET
350
492D
  3
LAYOUTDICT
350
492E
  3
PLOTSETDICT
350
492F
  3
PLOTSTYLNAMDICT
350
4930
  3
LWETCUNION
350
4931
  3
INSUNITS
350
4932
  3
CEPSNTYPE
350
4933
  3
FINGERPRINTGUID
350
4934
  3
VERSIONGUID
350
4935
  3
PSVPSCALE
350
4936
  3
DIMSTYLEDATA
350
4937
  3
PUCSORTHOREF
350
4938
  3
PUCSORTHOVIEW
350
4939
  3
PUCSBASE
350
493A
  3
PUCSORGTOP
350
493B
  3
PUCSORGBOTTOM
350
493C
  3
PUCSORGLEFT
350
493D
  3
PUCSORGRIGHT
350
493E
  3
PUCSORGFRONT
350
493F
  3
PUCSORGBACK
350
4940
  3
UCSORTHOREF
350
4941
  3
UCSORTHOVIEW
350
4942
  3
UCSBASE
350
4943
  3
UCSORGTOP
350
4944
  3
UCSORGBOTTOM
350
4945
  3
UCSORGLEFT
350
4946
  3
UCSORGRIGHT
350
4947
  3
UCSORGFRONT
350
4948
  3
UCSORGBACK
350
4949
  0
DICTIONARY
  5
491E
102
{ACAD_REACTORS
330
74
102
}
330
74
100
AcDbDictionary
  3
*A1
350
491F
  0
XRECORD
  5
494C
102
{ACAD_REACTORS
330
74
102
}
330
74
100
AcDbXrecord
340
1F
  0
XRECORD
  5
4952
102
{ACAD_REACTORS
330
4951
102
}
330
4951
100
AcDbXrecord
340
101
  0
MLINESTYLE
  5
18
102
{ACAD_REACTORS
330
17
102
}
330
17
100
AcDbMlineStyle
  2
STANDARD
 70
     0
  3

 62
   256
 51
90.0
 52
90.0
 71
     2
 49
0.5
 62
   256
  6
BYLAYER
 49
-0.5
 62
   256
  6
BYLAYER
  0
ACDBPLACEHOLDER
  5
F
102
{ACAD_REACTORS
330
E
102
}
330
E
100
AcDbPlaceHolder
280
     0
  0
DICTIONARYVAR
  5
35
102
{ACAD_REACTORS
330
34
102
}
330
34
100
DictionaryVariables
280
     0
  1
1
  0
DICTIONARYVAR
  5
B5E
102
{ACAD_REACTORS
330
34
102
}
330
34
100
DictionaryVariables
280
     0
  1
96
  0
DICTIONARY
  5
260
102
{ACAD_REACTORS
330
43
102
}
330
43
100
AcDbDictionary
  0
DICTIONARY
  5
2C
102
{ACAD_REACTORS
330
2B
102
}
330
2B
100
AcDbDictionary
  3
DWGSETTINGS
350
2D
  0
XRECORD
  5
492A
102
{ACAD_REACTORS
330
4929
102
}
330
4929
100
AcDbXrecord
 90
        1
  0
XRECORD
  5
492B
102
{ACAD_REACTORS
330
4929
102
}
330
4929
100
AcDbXrecord
 90
       70
  0
XRECORD
  5
492C
102
{ACAD_REACTORS
330
4929
102
}
330
4929
100
AcDbXrecord
  1

  0
XRECORD
  5
492D
102
{ACAD_REACTORS
330
4929
102
}
330
4929
100
AcDbXrecord
  1
ASAMI.ctb
  0
XRECORD
  5
492E
102
{ACAD_REACTORS
330
4929
102
}
330
4929
100
AcDbXrecord
340
1A
  0
XRECORD
  5
492F
102
{ACAD_REACTORS
330
4929
102
}
330
4929
100
AcDbXrecord
340
19
  0
XRECORD
  5
4930
102
{ACAD_REACTORS
330
4929
102
}
330
4929
100
AcDbXrecord
340
E
  0
XRECORD
  5
4931
102
{ACAD_REACTORS
330
4929
102
}
330
4929
100
AcDbXrecord
 90
    10781
  0
XRECORD
  5
4932
102
{ACAD_REACTORS
330
4929
102
}
330
4929
100
AcDbXrecord
 90
        4
  0
XRECORD
  5
4933
102
{ACAD_REACTORS
330
4929
102
}
330
4929
100
AcDbXrecord
 90
        0
  0
XRECORD
  5
4934
102
{ACAD_REACTORS
330
4929
102
}
330
4929
100
AcDbXrecord
  1
{AFB28963-8C59-40AE-9337-C84526B81ACE}
  0
XRECORD
  5
4935
102
{ACAD_REACTORS
330
4929
102
}
330
4929
100
AcDbXrecord
  1
{2CA6D871-9234-4175-B063-64B2CDAAE0CE}
  0
XRECORD
  5
4936
102
{ACAD_REACTORS
330
4929
102
}
330
4929
100
AcDbXrecord
 40
0.0
  0
XRECORD
  5
4937
102
{ACAD_REACTORS
330
4929
102
}
330
4929
100
AcDbXrecord
1000
DSTYLE
1002
{
1070
    79
 70
     2
1070
   341
340
59
1070
   342
340
59
1070
   371
 70
    -1
1070
   372
 70
    -1
1002
}
  0
XRECORD
  5
4938
102
{ACAD_REACTORS
330
4929
102
}
330
4929
100
AcDbXrecord
340
0
  0
XRECORD
  5
4939
102
{ACAD_REACTORS
330
4929
102
}
330
4929
100
AcDbXrecord
 70
     0
  0
XRECORD
  5
493A
102
{ACAD_REACTORS
330
4929
102
}
330
4929
100
AcDbXrecord
340
0
  0
XRECORD
  5
493B
102
{ACAD_REACTORS
330
4929
102
}
330
4929
100
AcDbXrecord
 10
0.0
 20
0.0
 30
0.0
  0
XRECORD
  5
493C
102
{ACAD_REACTORS
330
4929
102
}
330
4929
100
AcDbXrecord
 10
0.0
 20
0.0
 30
0.0
  0
XRECORD
  5
493D
102
{ACAD_REACTORS
330
4929
102
}
330
4929
100
AcDbXrecord
 10
0.0
 20
0.0
 30
0.0
  0
XRECORD
  5
493E
102
{ACAD_REACTORS
330
4929
102
}
330
4929
100
AcDbXrecord
 10
0.0
 20
0.0
 30
0.0
  0
XRECORD
  5
493F
102
{ACAD_REACTORS
330
4929
102
}
330
4929
100
AcDbXrecord
 10
0.0
 20
0.0
 30
0.0
  0
XRECORD
  5
4940
102
{ACAD_REACTORS
330
4929
102
}
330
4929
100
AcDbXrecord
 10
0.0
 20
0.0
 30
0.0
  0
XRECORD
  5
4941
102
{ACAD_REACTORS
330
4929
102
}
330
4929
100
AcDbXrecord
340
0
  0
XRECORD
  5
4942
102
{ACAD_REACTORS
330
4929
102
}
330
4929
100
AcDbXrecord
 70
     0
  0
XRECORD
  5
4943
102
{ACAD_REACTORS
330
4929
102
}
330
4929
100
AcDbXrecord
340
0
  0
XRECORD
  5
4944
102
{ACAD_REACTORS
330
4929
102
}
330
4929
100
AcDbXrecord
 10
0.0
 20
0.0
 30
0.0
  0
XRECORD
  5
4945
102
{ACAD_REACTORS
330
4929
102
}
330
4929
100
AcDbXrecord
 10
0.0
 20
0.0
 30
0.0
  0
XRECORD
  5
4946
102
{ACAD_REACTORS
330
4929
102
}
330
4929
100
AcDbXrecord
 10
0.0
 20
0.0
 30
0.0
  0
XRECORD
  5
4947
102
{ACAD_REACTORS
330
4929
102
}
330
4929
100
AcDbXrecord
 10
0.0
 20
0.0
 30
0.0
  0
XRECORD
  5
4948
102
{ACAD_REACTORS
330
4929
102
}
330
4929
100
AcDbXrecord
 10
0.0
 20
0.0
 30
0.0
  0
XRECORD
  5
4949
102
{ACAD_REACTORS
330
4929
102
}
330
4929
100
AcDbXrecord
 10
0.0
 20
0.0
 30
0.0
  0
LAYER_INDEX
  5
491F
102
{ACAD_REACTORS
330
491E
102
}
330
491E
100
AcDbIndex
 40
2453152.371115138
100
AcDbLayerIndex
  8
0
360
4920
 90
       97
  8
AM_0
360
4921
 90
       78
  8
AM_7
360
4922
 90
        1
  8
AM_5
360
4923
 90
        9
  8
Defpoints
360
4924
 90
        0
  8
AM_6
360
4925
 90
        1
  8
AM_11
360
4926
 90
        4
  8
AM_3
360
4927
 90
       20
  0
XRECORD
  5
2D
102
{ACAD_REACTORS
330
2C
102
}
330
2C
100
AcDbXrecord
  1
VERSION
140
15.0
  1
PRODUCT
  2
AutoCAD Mechanical 2000
  0
IDBUFFER
  5
4920
330
0
100
AcDbIdBuffer
330
4261
330
4262
330
4263
330
4264
330
4265
330
4266
330
4267
330
4268
330
4269
330
426A
330
426B
330
426C
330
426D
330
426E
330
426F
330
4270
330
4271
330
4272
330
4273
330
4274
330
4275
330
4276
330
4277
330
4278
330
4279
330
427A
330
427B
330
427C
330
427D
330
427E
330
427F
330
4280
330
4281
330
4282
330
4283
330
4284
330
4285
330
4286
330
4287
330
4288
330
4289
330
428A
330
428B
330
428C
330
428D
330
428E
330
428F
330
4290
330
4291
330
4228
330
422B
330
422C
330
422D
330
422E
330
422F
330
4230
330
4231
330
4232
330
4233
330
4234
330
4235
330
4236
330
4237
330
4238
330
4239
330
423A
330
423B
330
423C
330
423D
330
423E
330
423F
330
4240
330
4241
330
4242
330
4243
330
4244
330
4245
330
4246
330
4247
330
4248
330
4249
330
424A
330
424B
330
424C
330
424D
330
424E
330
424F
330
4250
330
4251
330
4252
330
4253
330
4254
330
4255
330
4256
330
4257
330
4258
330
4259
  0
IDBUFFER
  5
4921
330
0
100
AcDbIdBuffer
330
42AE
330
42AF
330
42B0
330
42B1
330
42B3
330
42B4
330
42B6
330
42B8
330
42BC
330
42BD
330
42BF
330
4498
330
449D
330
44A2
330
44A5
330
44A8
330
44AB
330
44B2
330
44B4
330
44B5
330
44B6
330
44B7
330
44BA
330
44BB
330
464E
330
4650
330
48E8
330
48EA
330
48EB
330
48EC
330
2F35
330
2F36
330
2F3C
330
2F40
330
2F41
330
2F42
330
2F43
330
2F45
330
2F46
330
2F48
330
2F4A
330
2F4B
330
2F4D
330
2F4F
330
2F50
330
2F51
330
2F52
330
2F53
330
2F57
330
2F58
330
2F59
330
2F5B
330
2F5C
330
2F5E
330
2F5F
330
2F61
330
2F63
330
2F64
330
2F65
330
2F68
330
2F69
330
2F6D
330
2F75
330
2F76
330
2F77
330
2F78
330
2F7A
330
2F7B
330
2F7C
330
2F7D
330
2F7E
330
2F7F
330
2F80
330
2F81
330
2F83
330
2F88
330
2F89
330
3F0E
  0
IDBUFFER
  5
4922
330
0
100
AcDbIdBuffer
330
2F38
  0
IDBUFFER
  5
4923
330
0
100
AcDbIdBuffer
330
3FCA
330
3FCB
330
3FCC
330
406B
330
406C
330
406D
330
40E7
330
40E8
330
436D
  0
IDBUFFER
  5
4924
330
0
100
AcDbIdBuffer
  0
IDBUFFER
  5
4925
330
0
100
AcDbIdBuffer
330
E5A
  0
IDBUFFER
  5
4926
330
0
100
AcDbIdBuffer
330
4229
330
422A
330
425A
330
4260
  0
IDBUFFER
  5
4927
330
0
100
AcDbIdBuffer
330
42C0
330
42C1
330
449A
330
44BC
330
2F39
330
2F3A
330
2F6A
330
2F6C
330
2F70
330
2F71
330
2F73
330
2F79
330
2F82
330
2F84
330
2F85
330
3A1C
330
3A24
330
42B5
330
42B7
330
42BE
  0
ENDSEC
  0
EOF
