  0
SECTION
  2
HEADER
  9
$ACADVER
  1
AC1014
  9
$ACADMAINTVER
 70
     9
  9
$DWGCODEPAGE
  3
ANSI_932
  9
$INSBASE
 10
0.0
 20
0.0
 30
0.0
  9
$EXTMIN
 10
-107.3380258397571
 20
-119.0001664429652
 30
-0.00000001
  9
$EXTMAX
 10
35.02325662344206
 20
62.70253860631648
 30
0.00000001
  9
$LIMMIN
 10
-140.4214252832904
 20
-132.8034702110057
  9
$LIMMAX
 10
47.08725253552143
 20
79.35021666937894
  9
$ORTHOMODE
 70
     0
  9
$REGENMODE
 70
     1
  9
$FILLMODE
 70
     1
  9
$QTEXTMODE
 70
     0
  9
$MIRRTEXT
 70
     0
  9
$DRAGMODE
 70
     2
  9
$LTSCALE
 40
1.0
  9
$OSMODE
 70
    55
  9
$ATTMODE
 70
     1
  9
$TEXTSIZE
 40
2.5
  9
$TRACEWID
 40
1.0
  9
$TEXTSTYLE
  7
STANDARD
  9
$CLAYER
  8
AM_0
  9
$CELTYPE
  6
BYLAYER
  9
$CECOLOR
 62
   256
  9
$CELTSCALE
 40
1.0
  9
$DELOBJ
 70
     1
  9
$DISPSILH
 70
     0
  9
$DIMSCALE
 40
1.0
  9
$DIMASZ
 40
2.5
  9
$DIMEXO
 40
1.0
  9
$DIMDLI
 40
12.0
  9
$DIMRND
 40
0.0
  9
$DIMDLE
 40
0.0
  9
$DIMEXE
 40
1.0
  9
$DIMTP
 40
0.1
  9
$DIMTM
 40
0.1
  9
$DIMTXT
 40
3.2
  9
$DIMCEN
 40
0.0
  9
$DIMTSZ
 40
0.0
  9
$DIMTOL
 70
     0
  9
$DIMLIM
 70
     0
  9
$DIMTIH
 70
     0
  9
$DIMTOH
 70
     0
  9
$DIMSE1
 70
     0
  9
$DIMSE2
 70
     0
  9
$DIMTAD
 70
     3
  9
$DIMZIN
 70
     8
  9
$DIMBLK
  1
OPEN30
  9
$DIMASO
 70
     1
  9
$DIMSHO
 70
     1
  9
$DIMPOST
  1

  9
$DIMAPOST
  1
"
  9
$DIMALT
 70
     0
  9
$DIMALTD
 70
     2
  9
$DIMALTF
 40
0.0393701
  9
$DIMLFAC
 40
1.0
  9
$DIMTOFL
 70
     1
  9
$DIMTVP
 40
0.0
  9
$DIMTIX
 70
     0
  9
$DIMSOXD
 70
     0
  9
$DIMSAH
 70
     0
  9
$DIMBLK1
  1

  9
$DIMBLK2
  1

  9
$DIMSTYLE
  2
AM_JIS
  9
$DIMCLRD
 70
   256
  9
$DIMCLRE
 70
   256
  9
$DIMCLRT
 70
     2
  9
$DIMTFAC
 40
0.71
  9
$DIMGAP
 40
1.5
  9
$DIMJUST
 70
     0
  9
$DIMSD1
 70
     0
  9
$DIMSD2
 70
     0
  9
$DIMTOLJ
 70
     0
  9
$DIMTZIN
 70
     0
  9
$DIMALTZ
 70
     0
  9
$DIMALTTZ
 70
     0
  9
$DIMFIT
 70
     3
  9
$DIMUPT
 70
     0
  9
$DIMUNIT
 70
     2
  9
$DIMDEC
 70
     3
  9
$DIMTDEC
 70
     3
  9
$DIMALTU
 70
     2
  9
$DIMALTTD
 70
     2
  9
$DIMTXSTY
  7
ASAMI
  9
$DIMAUNIT
 70
     0
  9
$LUNITS
 70
     2
  9
$LUPREC
 70
     2
  9
$SKETCHINC
 40
1.0
  9
$FILLETRAD
 40
0.5
  9
$AUNITS
 70
     0
  9
$AUPREC
 70
     0
  9
$MENU
  1
.
  9
$ELEVATION
 40
0.0
  9
$PELEVATION
 40
0.0
  9
$THICKNESS
 40
0.0
  9
$LIMCHECK
 70
     0
  9
$BLIPMODE
 70
     0
  9
$CHAMFERA
 40
1.0
  9
$CHAMFERB
 40
1.0
  9
$CHAMFERC
 40
20.0
  9
$CHAMFERD
 40
0.0
  9
$SKPOLY
 70
     0
  9
$TDCREATE
 40
2452836.771637361
  9
$TDUPDATE
 40
2453152.371205752
  9
$TDINDWG
 40
0.1046675926
  9
$TDUSRTIMER
 40
0.1046675926
  9
$USRTIMER
 70
     1
  9
$ANGBASE
 50
0.0
  9
$ANGDIR
 70
     0
  9
$PDMODE
 70
     0
  9
$PDSIZE
 40
0.0
  9
$PLINEWID
 40
0.0
  9
$COORDS
 70
     1
  9
$SPLFRAME
 70
     0
  9
$SPLINETYPE
 70
     6
  9
$SPLINESEGS
 70
     8
  9
$ATTDIA
 70
     1
  9
$ATTREQ
 70
     1
  9
$HANDLING
 70
 12289
  9
$HANDSEED
  5
5802
  9
$SURFTAB1
 70
     6
  9
$SURFTAB2
 70
     6
  9
$SURFTYPE
 70
     6
  9
$SURFU
 70
     6
  9
$SURFV
 70
     6
  9
$UCSNAME
  2

  9
$UCSORG
 10
0.0
 20
0.0
 30
0.0
  9
$UCSXDIR
 10
1.0
 20
0.0
 30
0.0
  9
$UCSYDIR
 10
0.0
 20
1.0
 30
0.0
  9
$PUCSNAME
  2

  9
$PUCSORG
 10
0.0
 20
0.0
 30
0.0
  9
$PUCSXDIR
 10
1.0
 20
0.0
 30
0.0
  9
$PUCSYDIR
 10
0.0
 20
1.0
 30
0.0
  9
$USERI1
 70
     0
  9
$USERI2
 70
     0
  9
$USERI3
 70
     0
  9
$USERI4
 70
     0
  9
$USERI5
 70
     0
  9
$USERR1
 40
0.0
  9
$USERR2
 40
0.0
  9
$USERR3
 40
0.0
  9
$USERR4
 40
0.0
  9
$USERR5
 40
0.0
  9
$WORLDVIEW
 70
     1
  9
$SHADEDGE
 70
     3
  9
$SHADEDIF
 70
    70
  9
$TILEMODE
 70
     1
  9
$MAXACTVP
 70
    64
  9
$PINSBASE
 10
0.0
 20
0.0
 30
0.0
  9
$PLIMCHECK
 70
     0
  9
$PEXTMIN
 10
1.000000000000000E+20
 20
1.000000000000000E+20
 30
1.000000000000000E+20
  9
$PEXTMAX
 10
-1.000000000000000E+20
 20
-1.000000000000000E+20
 30
-1.000000000000000E+20
  9
$PLIMMIN
 10
0.0
 20
0.0
  9
$PLIMMAX
 10
841.0
 20
594.0
  9
$UNITMODE
 70
     0
  9
$VISRETAIN
 70
     1
  9
$PLINEGEN
 70
     0
  9
$PSLTSCALE
 70
     0
  9
$TREEDEPTH
 70
  3020
  9
$PICKSTYLE
 70
     0
  9
$CMLSTYLE
  2
STANDARD
  9
$CMLJUST
 70
     0
  9
$CMLSCALE
 40
20.0
  9
$PROXYGRAPHICS
 70
     1
  9
$MEASUREMENT
 70
     1
  0
ENDSEC
  0
SECTION
  2
CLASSES
  0
CLASS
  1
ACDBDICTIONARYWDFLT
  2
AcDbDictionaryWithDefault
  3
AutoCAD 2000
 90
        0
280
     0
281
     0
  0
CLASS
  1
ACDBPLACEHOLDER
  2
AcDbPlaceHolder
  3
AutoCAD 2000
 90
        0
280
     0
281
     0
  0
CLASS
  1
LAYOUT
  2
AcDbLayout
  3
AutoCAD 2000
 90
        0
280
     0
281
     0
  0
CLASS
  1
AMGSETTINGSOBJ
  2
AmgSettingsObj
  3
"AcadM|Product Description: AutoCAD Mechanical 2000|Company: Autodesk"
 90
        0
280
     0
281
     0
  0
CLASS
  1
ACME_DOCUMENT
  2
AcMeDbDoc
  3
AcMeServices
 90
        0
280
     0
281
     0
  0
CLASS
  1
ACMESCOPE
  2
AcMeScope
  3
AcMeServices
 90
        0
280
     0
281
     0
  0
CLASS
  1
ACMECOMMANDHISTORY
  2
AcMeCommandHistory
  3
AcMeServices
 90
        0
280
     0
281
     0
  0
CLASS
  1
DICTIONARYVAR
  2
AcDbDictionaryVar
  3
AutoCAD 2000
 90
        0
280
     0
281
     0
  0
CLASS
  1
ACIMSYSVARMAN
  2
AcImSysVarManager
  3
AcMeServices
 90
        0
280
     0
281
     0
  0
CLASS
  1
ACIMREALSYSVAR
  2
AcImRealSysVar
  3
AcMeServices
 90
        0
280
     0
281
     0
  0
CLASS
  1
ACIMINTSYSVAR
  2
AcImIntSysVar
  3
AcMeServices
 90
        0
280
     0
281
     0
  0
CLASS
  1
ACMEDRAWINGMAN
  2
AcMeDrawingMan
  3
AcMeServices
 90
        0
280
     0
281
     0
  0
CLASS
  1
ACMEVIEW
  2
AcMeView
  3
AcMeServices
 90
        0
280
     0
281
     0
  0
CLASS
  1
ACDBENTITYCACHE
  2
AcMeEntityCache
  3
AcMeServices
 90
        0
280
     0
281
     0
  0
CLASS
  1
GSMANAGER
  2
AcMeGSManager
  3
AcMeServices
 90
        0
280
     0
281
     0
  0
CLASS
  1
AmdtInternalReactor
  2
AmdtInternalReactor
  3
AcMeServices
 90
        0
280
     0
281
     0
  0
CLASS
  1
ACMESTATEMGR
  2
AcMeStateMgr
  3
AcMeServices
 90
        0
280
     0
281
     0
  0
CLASS
  1
ACME_DATABASE
  2
AcMeDbDatabase
  3
AcMeServices
 90
        0
280
     0
281
     0
  0
CLASS
  1
ACRFINSADJUSTERMGR
  2
AcRfInsAdjusterMgr
  3
AcMeServices
 90
        0
280
     0
281
     0
  0
CLASS
  1
ACMDATADICTIONARY
  2
AcmDataDictionary
  3
"AcmSymBB|Product Description: AutoCAD Mechanical 2000|Company: Autodesk"
 90
        0
280
     0
281
     0
  0
CLASS
  1
ACMDATAENTRYBLOCK
  2
AcmDataEntryBlock
  3
"AcmSymBB|Product Description: AutoCAD Mechanical 2000|Company: Autodesk"
 90
        0
280
     0
281
     0
  0
CLASS
  1
AMGOBJPROPCFG
  2
AmgObjPropCfg
  3
"AmgLay|Product Description: AutoCAD Mechanical 2000|Company: Autodesk"
 90
        1
280
     0
281
     0
  0
CLASS
  1
ACAMGFILTERDAT
  2
AcAmgFilterDat
  3
"AcadM|Product Description: AutoCAD Mechanical 2000|Company: Autodesk"
 90
        0
280
     0
281
     0
  0
CLASS
  1
LAYER_INDEX
  2
AcDbLayerIndex
  3
AutoCAD 2000
 90
        0
280
     0
281
     0
  0
CLASS
  1
IDBUFFER
  2
AcDbIdBuffer
  3
AutoCAD 2000
 90
        0
280
     0
281
     0
  0
CLASS
  1
ACIMSTRSYSVAR
  2
AcImStrSysVar
  3
AcMeServices
 90
        0
280
     0
281
     0
  0
CLASS
  1
ACMSTANDARDJIS
  2
AcmStandardJIS
  3
"AcmSymBB|Product Description: AutoCAD Mechanical 2000|Company: Autodesk"
 90
        0
280
     0
281
     0
  0
CLASS
  1
ACMSURFSTANDARDJIS
  2
AcmSurfTextStdJIS
  3
"AcmSymBB|Product Description: AutoCAD Mechanical 2000|Company: Autodesk"
 90
        0
280
     0
281
     0
  0
CLASS
  1
ACMFCFSTANDARDJIS
  2
AcmFCFStdJIS
  3
"AcmSymBB|Product Description: AutoCAD Mechanical 2000|Company: Autodesk"
 90
        0
280
     0
281
     0
  0
CLASS
  1
ACMWELDSTANDARDJIS
  2
AcmWeldingStdJIS
  3
"AcmSymBB|Product Description: AutoCAD Mechanical 2000|Company: Autodesk"
 90
        0
280
     0
281
     0
  0
CLASS
  1
ACMIDSTANDARDJIS
  2
AcmIdStdJIS
  3
"AcmSymBB|Product Description: AutoCAD Mechanical 2000|Company: Autodesk"
 90
        0
280
     0
281
     0
  0
CLASS
  1
ACMDATUMSTANDARDJIS
  2
AcmDatumStdJIS
  3
"AcmSymBB|Product Description: AutoCAD Mechanical 2000|Company: Autodesk"
 90
        0
280
     0
281
     0
  0
CLASS
  1
ACMBOMSTANDARDJIS
  2
AcmBOMStdJIS
  3
"AcmSymBB|Product Description: AutoCAD Mechanical 2000|Company: Autodesk"
 90
        0
280
     0
281
     0
  0
CLASS
  1
ACMSTANDARDANSI
  2
AcmStandardANSI
  3
"AcmSymBB|Product Description: AutoCAD Mechanical 2000|Company: Autodesk"
 90
        0
280
     0
281
     0
  0
CLASS
  1
ACMSURFSTANDARDANSI
  2
AcmSurfTextStdANSI
  3
"AcmSymBB|Product Description: AutoCAD Mechanical 2000|Company: Autodesk"
 90
        0
280
     0
281
     0
  0
CLASS
  1
ACMFCFSTANDARDANSI
  2
AcmFCFStdANSI
  3
"AcmSymBB|Product Description: AutoCAD Mechanical 2000|Company: Autodesk"
 90
        0
280
     0
281
     0
  0
CLASS
  1
ACMWELDSTANDARDANSI
  2
AcmWeldingStdANSI
  3
"AcmSymBB|Product Description: AutoCAD Mechanical 2000|Company: Autodesk"
 90
        0
280
     0
281
     0
  0
CLASS
  1
ACMIDSTANDARDANSI
  2
AcmIdStdANSI
  3
"AcmSymBB|Product Description: AutoCAD Mechanical 2000|Company: Autodesk"
 90
        0
280
     0
281
     0
  0
CLASS
  1
ACMDATUMSTANDARDANSI
  2
AcmDatumStdANSI
  3
"AcmSymBB|Product Description: AutoCAD Mechanical 2000|Company: Autodesk"
 90
        0
280
     0
281
     0
  0
CLASS
  1
ACMBOMSTANDARDANSI
  2
AcmBOMStdANSI
  3
"AcmSymBB|Product Description: AutoCAD Mechanical 2000|Company: Autodesk"
 90
        0
280
     0
281
     0
  0
CLASS
  1
ACMSTANDARDBSI
  2
AcmStandardBSI
  3
"AcmSymBB|Product Description: AutoCAD Mechanical 2000|Company: Autodesk"
 90
        0
280
     0
281
     0
  0
CLASS
  1
ACMSURFSTANDARDBSI
  2
AcmSurfTextStdBSI
  3
"AcmSymBB|Product Description: AutoCAD Mechanical 2000|Company: Autodesk"
 90
        0
280
     0
281
     0
  0
CLASS
  1
ACMFCFSTANDARDBSI
  2
AcmFCFStdBSI
  3
"AcmSymBB|Product Description: AutoCAD Mechanical 2000|Company: Autodesk"
 90
        0
280
     0
281
     0
  0
CLASS
  1
ACMWELDSTANDARDBSI
  2
AcmWeldingStdBSI
  3
"AcmSymBB|Product Description: AutoCAD Mechanical 2000|Company: Autodesk"
 90
        0
280
     0
281
     0
  0
CLASS
  1
ACMIDSTANDARDBSI
  2
AcmIdStdBSI
  3
"AcmSymBB|Product Description: AutoCAD Mechanical 2000|Company: Autodesk"
 90
        0
280
     0
281
     0
  0
CLASS
  1
ACMDATUMSTANDARDBSI
  2
AcmDatumStdBSI
  3
"AcmSymBB|Product Description: AutoCAD Mechanical 2000|Company: Autodesk"
 90
        0
280
     0
281
     0
  0
CLASS
  1
ACMBOMSTANDARDBSI
  2
AcmBOMStdBSI
  3
"AcmSymBB|Product Description: AutoCAD Mechanical 2000|Company: Autodesk"
 90
        0
280
     0
281
     0
  0
CLASS
  1
LONG_TRANSACTION
  2
AcDbLongTransaction
  3
AutoCAD 2000
 90
        0
280
     0
281
     0
  0
CLASS
  1
LWPOLYLINE
  2
AcDbPolyline
  3
AutoCAD 2000
 90
        0
280
     0
281
     1
  0
CLASS
  1
HATCH
  2
AcDbHatch
  3
AutoCAD 2000
 90
        0
280
     0
281
     1
  0
CLASS
  1
XRECORD
  2
AcDbXrecord
  3
AutoCAD 2000
 90
        0
280
     0
281
     0
  0
ENDSEC
  0
SECTION
  2
TABLES
  0
TABLE
  2
VPORT
  5
8
330
0
100
AcDbSymbolTable
 70
     3
  0
VPORT
  5
57D7
330
8
100
AcDbSymbolTableRecord
100
AcDbViewportTableRecord
  2
*ACTIVE
 70
     0
 10
0.0
 20
0.0
 11
1.0
 21
1.0
 12
-33.7847339038893
 22
-28.14290493466444
 13
0.0
 23
0.0
 14
2.5
 24
2.5
 15
10.0
 25
10.0
 16
0.0
 26
0.0
 36
1.0
 17
0.0
 27
0.0
 37
0.0
 40
182.8389722572534
 41
1.56570841889117
 42
50.0
 43
0.0
 44
0.0
 50
0.0
 51
0.0
 71
     0
 72
   100
 73
     1
 74
     3
 75
     0
 76
     0
 77
     0
 78
     0
  0
ENDTAB
  0
TABLE
  2
LTYPE
  5
5
330
0
100
AcDbSymbolTable
 70
    10
  0
LTYPE
  5
14
330
5
100
AcDbSymbolTableRecord
100
AcDbLinetypeTableRecord
  2
BYBLOCK
 70
     0
  3

 72
    65
 73
     0
 40
0.0
  0
LTYPE
  5
15
330
5
100
AcDbSymbolTableRecord
100
AcDbLinetypeTableRecord
  2
BYLAYER
 70
     0
  3

 72
    65
 73
     0
 40
0.0
  0
LTYPE
  5
16
330
5
100
AcDbSymbolTableRecord
100
AcDbLinetypeTableRecord
  2
CONTINUOUS
 70
     0
  3
Solid line
 72
    65
 73
     0
 40
0.0
  0
LTYPE
  5
4B
330
5
100
AcDbSymbolTableRecord
100
AcDbLinetypeTableRecord
  2
AM_ISO02W050
 70
     0
  3
__ __ __ __ __ __ __ __ __ __ __ __ __ __ __
 72
    65
 73
     2
 40
7.5
 49
6.0
 74
     0
 49
-1.5
 74
     0
  0
LTYPE
  5
4C
330
5
100
AcDbSymbolTableRecord
100
AcDbLinetypeTableRecord
  2
AM_ISO08W050
 70
     0
  3
____ . ____ . ____ . ____ . ____ . ____ . ____
 72
    65
 73
     4
 40
18.0
 49
12.0
 74
     0
 49
-1.5
 74
     0
 49
3.0
 74
     0
 49
-1.5
 74
     0
  0
LTYPE
  5
4D
330
5
100
AcDbSymbolTableRecord
100
AcDbLinetypeTableRecord
  2
AM_ISO09W050
 70
     0
  3
_____ . . _____ . . _____ . . ____ .. ____
 72
    65
 73
     6
 40
22.5
 49
12.0
 74
     0
 49
-1.5
 74
     0
 49
3.0
 74
     0
 49
-1.5
 74
     0
 49
3.0
 74
     0
 49
-1.5
 74
     0
  0
LTYPE
  5
4E
330
5
100
AcDbSymbolTableRecord
100
AcDbLinetypeTableRecord
  2
AMCONSTR
 70
     0
  3
_______________________
 72
    65
 73
     2
 40
9999.0
 49
9999.0
 74
     0
 49
0.0
 74
     0
  0
LTYPE
  5
4F
330
5
100
AcDbSymbolTableRecord
100
AcDbLinetypeTableRecord
  2
AM_ISO02W050X2
 70
     0
  3
 _ _ _ _ _ _ _ _ _ _ _ _
 72
    65
 73
     2
 40
3.75
 49
3.0
 74
     0
 49
-0.75
 74
     0
  0
LTYPE
  5
50
330
5
100
AcDbSymbolTableRecord
100
AcDbLinetypeTableRecord
  2
AM_ISO08W050X2
 70
     0
  3
__ . __ . __ . __ . __ . __
 72
    65
 73
     4
 40
9.0
 49
6.0
 74
     0
 49
-0.75
 74
     0
 49
1.5
 74
     0
 49
-0.75
 74
     0
  0
LTYPE
  5
53
330
5
100
AcDbSymbolTableRecord
100
AcDbLinetypeTableRecord
  2
AMZIGZAG
 70
     0
  3
/\/-/\/-/\/-/\/-/\/-/\/
 72
    65
 73
     2
 40
11.00009999999999
 49
0.0001
 74
     4
 75
   135
340
52
 46
0.04
 50
0.0
 44
0.0
 45
0.0
 49
-11.0
 74
     0
  0
LTYPE
  5
166
330
5
100
AcDbSymbolTableRecord
100
AcDbLinetypeTableRecord
  2
ACJISTGL
 70
     0
  3
_ _ _ _ _
 72
    65
 73
     2
 40
3.0
 49
2.0
 74
     0
 49
-1.0
 74
     0
  0
LTYPE
  5
26A
330
5
100
AcDbSymbolTableRecord
100
AcDbLinetypeTableRecord
  2
ACJISTGB
 70
     0
  3
__ . . __ . .
 72
    65
 73
     6
 40
9.0
 49
4.0
 74
     0
 49
-1.0
 74
     0
 49
1.0
 74
     0
 49
-1.0
 74
     0
 49
1.0
 74
     0
 49
-1.0
 74
     0
  0
ENDTAB
  0
TABLE
  2
LAYER
  5
2
330
0
100
AcDbSymbolTable
 70
     8
  0
LAYER
  5
10
330
2
100
AcDbSymbolTableRecord
100
AcDbLayerTableRecord
  2
0
 70
     0
 62
     7
  6
CONTINUOUS
  0
LAYER
  5
3F9
330
2
100
AcDbSymbolTableRecord
100
AcDbLayerTableRecord
  2
AM_0
 70
     0
 62
     7
  6
CONTINUOUS
  0
LAYER
  5
BD5
330
2
100
AcDbSymbolTableRecord
100
AcDbLayerTableRecord
  2
AM_7
 70
     0
 62
     4
  6
AM_ISO08W050
  0
LAYER
  5
BD6
330
2
100
AcDbSymbolTableRecord
100
AcDbLayerTableRecord
  2
AM_5
 70
     0
 62
     3
  6
CONTINUOUS
  0
LAYER
  5
BD7
330
2
100
AcDbSymbolTableRecord
100
AcDbLayerTableRecord
  2
DEFPOINTS
 70
     0
 62
     7
  6
CONTINUOUS
  0
LAYER
  5
E59
330
2
100
AcDbSymbolTableRecord
100
AcDbLayerTableRecord
  2
AM_6
 70
     0
 62
     2
  6
CONTINUOUS
  0
LAYER
  5
1E31
330
2
100
AcDbSymbolTableRecord
100
AcDbLayerTableRecord
  2
AM_11
 70
     0
 62
     3
  6
AM_ISO09W050
  0
LAYER
  5
1E41
330
2
100
AcDbSymbolTableRecord
100
AcDbLayerTableRecord
  2
AM_3
 70
     0
 62
     6
  6
ACJISTGL
  0
ENDTAB
  0
TABLE
  2
STYLE
  5
3
330
0
100
AcDbSymbolTable
 70
     5
  0
STYLE
  5
11
330
3
100
AcDbSymbolTableRecord
100
AcDbTextStyleTableRecord
  2
STANDARD
 70
     0
 40
0.0
 41
1.0
 50
0.0
 71
     0
 42
2.5
  3
simplex.shx
  4
EXTFONT.SHX
  0
STYLE
  5
52
330
3
100
AcDbSymbolTableRecord
100
AcDbTextStyleTableRecord
  2

 70
     1
 40
0.0
 41
1.0
 50
0.0
 71
     0
 42
2.5
  3
ltypeshp.shx
  4

  0
STYLE
  5
6B
330
3
100
AcDbSymbolTableRecord
100
AcDbTextStyleTableRecord
  2
ASAMI
 70
     0
 40
0.0
 41
1.0
 50
0.0
 71
     0
 42
2.5
  3
simplex.shx
  4
EXTFONT.SHX
  0
STYLE
  5
262
330
3
100
AcDbSymbolTableRecord
100
AcDbTextStyleTableRecord
  2
ACJISTS
 70
     0
 40
1.0
 41
1.0
 50
0.0
 71
     0
 42
2.5
  3
simplex.shx
  4
bigfont.shx
  0
STYLE
  5
269
330
3
100
AcDbSymbolTableRecord
100
AcDbTextStyleTableRecord
  2
ACJISGDT
 70
     0
 40
0.0
 41
1.0
 50
0.0
 71
     0
 42
2.5
  3
amgdtans.shx
  4

  0
ENDTAB
  0
TABLE
  2
VIEW
  5
6
330
0
100
AcDbSymbolTable
 70
     0
  0
ENDTAB
  0
TABLE
  2
UCS
  5
7
330
0
100
AcDbSymbolTable
 70
     0
  0
ENDTAB
  0
TABLE
  2
APPID
  5
9
330
0
100
AcDbSymbolTable
 70
    13
  0
APPID
  5
12
330
9
100
AcDbSymbolTableRecord
100
AcDbRegAppTableRecord
  2
ACAD
 70
     0
  0
APPID
  5
30
330
9
100
AcDbSymbolTableRecord
100
AcDbRegAppTableRecord
  2
MCAD_NO_VIS
 70
     0
  0
APPID
  5
31
330
9
100
AcDbSymbolTableRecord
100
AcDbRegAppTableRecord
  2
ACAD_TEMP_GRAPHIC
 70
     0
  0
APPID
  5
2C2
330
9
100
AcDbSymbolTableRecord
100
AcDbRegAppTableRecord
  2
GENIUS_GENDTOL_13
 70
     0
  0
APPID
  5
339
330
9
100
AcDbSymbolTableRecord
100
AcDbRegAppTableRecord
  2
GENIUS_GENODEF_13
 70
     0
  0
APPID
  5
33A
330
9
100
AcDbSymbolTableRecord
100
AcDbRegAppTableRecord
  2
GENIUS_GENOBJ-N-RSBK_13
 70
     0
  0
APPID
  5
33B
330
9
100
AcDbSymbolTableRecord
100
AcDbRegAppTableRecord
  2
GENIUS_GENOBJ-N-LIB_13
 70
     0
  0
APPID
  5
33C
330
9
100
AcDbSymbolTableRecord
100
AcDbRegAppTableRecord
  2
GENIUS_GENSCALE_13
 70
     0
  0
APPID
  5
378
330
9
100
AcDbSymbolTableRecord
100
AcDbRegAppTableRecord
  2
GENIUS_GENDIMSH_14
 70
     0
  0
APPID
  5
BD8
330
9
100
AcDbSymbolTableRecord
100
AcDbRegAppTableRecord
  2
GENIUS_GENOBJ-N-CEN_13
 70
     0
  0
APPID
  5
BD9
330
9
100
AcDbSymbolTableRecord
100
AcDbRegAppTableRecord
  2
GENIUS_GENFIL_13
 70
     0
  0
APPID
  5
BDA
330
9
100
AcDbSymbolTableRecord
100
AcDbRegAppTableRecord
  2
GENIUS_GENOBJ-N-CHA_13
 70
     0
  0
APPID
  5
2BC1
330
9
100
AcDbSymbolTableRecord
100
AcDbRegAppTableRecord
  2
GENIUS_GENOBJ-N-FIL_13
 70
     0
  0
ENDTAB
  0
TABLE
  2
DIMSTYLE
  5
A
330
0
100
AcDbSymbolTable
 70
     9
  0
DIMSTYLE
105
58
102
{ACAD_REACTORS
330
5348
330
534A
330
5349
330
53E7
330
53E6
330
53E5
330
5449
330
5448
102
}
330
A
100
AcDbSymbolTableRecord
100
AcDbDimStyleTableRecord
  2
AM_JIS
 70
     0
  3

  4
"
  5
OPEN30
  6

  7

 40
1.0
 41
2.5
 42
1.0
 43
12.0
 44
1.0
 45
0.0
 46
0.0
 47
0.1
 48
0.1
140
3.2
141
0.0
142
0.0
143
0.0393701
144
1.0
145
0.0
146
0.71
147
1.5
 71
     0
 72
     0
 73
     0
 74
     0
 75
     0
 76
     0
 77
     3
 78
     8
170
     0
171
     2
172
     1
173
     0
174
     0
175
     0
176
   256
177
   256
178
     2
270
     2
271
     3
272
     3
273
     2
274
     2
340
6B
275
     0
280
     0
281
     0
282
     0
283
     0
284
     0
285
     0
286
     0
287
     3
288
     0
  0
DIMSTYLE
105
5F
330
A
100
AcDbSymbolTableRecord
100
AcDbDimStyleTableRecord
  2
AM_JIS$3
 70
     0
  3

  4
"
  5
OPEN30
  6

  7

 40
1.0
 41
2.5
 42
1.0
 43
10.0
 44
1.0
 45
0.0
 46
0.0
 47
0.1
 48
0.1
140
3.2
141
0.0
142
0.0
143
0.0393701
144
1.0
145
0.0
146
0.71
147
1.5
 71
     0
 72
     0
 73
     0
 74
     1
 75
     0
 76
     0
 77
     3
 78
     8
170
     0
171
     2
172
     0
173
     0
174
     0
175
     0
176
   256
177
   256
178
     2
270
     2
271
     2
272
     3
273
     2
274
     2
340
6B
275
     0
280
     0
281
     0
282
     0
283
     0
284
     0
285
     0
286
     0
287
     0
288
     1
  0
DIMSTYLE
105
60
330
A
100
AcDbSymbolTableRecord
100
AcDbDimStyleTableRecord
  2
AM_JIS$4
 70
     0
  3

  4
"
  5
OPEN30
  6

  7

 40
1.0
 41
2.5
 42
1.0
 43
10.0
 44
1.0
 45
0.0
 46
0.0
 47
0.1
 48
0.1
140
3.2
141
0.0
142
0.0
143
0.0393701
144
1.0
145
0.0
146
0.71
147
1.5
 71
     0
 72
     0
 73
     0
 74
     1
 75
     0
 76
     0
 77
     3
 78
     8
170
     0
171
     2
172
     0
173
     0
174
     0
175
     0
176
   256
177
   256
178
     2
270
     2
271
     2
272
     3
273
     2
274
     2
340
6B
275
     0
280
     0
281
     0
282
     0
283
     0
284
     0
285
     0
286
     0
287
     0
288
     1
  0
DIMSTYLE
105
61
330
A
100
AcDbSymbolTableRecord
100
AcDbDimStyleTableRecord
  2
AM_JIS$6
 70
     0
  3

  4
"
  5
OPEN30
  6

  7

 40
1.0
 41
2.5
 42
1.0
 43
10.0
 44
1.0
 45
0.0
 46
0.0
 47
0.1
 48
0.1
140
3.2
141
0.0
142
0.0
143
0.0393701
144
1.0
145
0.0
146
0.71
147
1.5
 71
     0
 72
     0
 73
     0
 74
     0
 75
     0
 76
     0
 77
     0
 78
     8
170
     0
171
     2
172
     1
173
     0
174
     0
175
     0
176
   256
177
   256
178
     2
270
     2
271
     2
272
     2
273
     2
274
     2
340
6B
275
     0
280
     0
281
     0
282
     0
283
     0
284
     0
285
     0
286
     0
287
     3
288
     0
  0
DIMSTYLE
105
62
330
A
100
AcDbSymbolTableRecord
100
AcDbDimStyleTableRecord
  2
AM_JIS$7
 70
     0
  3

  4
"
  5
OPEN30
  6

  7

 40
1.0
 41
2.5
 42
1.0
 43
10.0
 44
1.0
 45
0.0
 46
0.0
 47
0.1
 48
0.1
140
3.2
141
0.0
142
0.0
143
0.0393701
144
1.0
145
0.0
146
0.71
147
1.5
 71
     0
 72
     0
 73
     0
 74
     0
 75
     0
 76
     0
 77
     3
 78
     8
170
     0
171
     2
172
     1
173
     0
174
     0
175
     0
176
   256
177
   256
178
     2
270
     2
271
     2
272
     3
273
     2
274
     2
340
6B
275
     0
280
     0
281
     0
282
     0
283
     0
284
     0
285
     0
286
     0
287
     3
288
     0
  0
DIMSTYLE
105
63
330
A
100
AcDbSymbolTableRecord
100
AcDbDimStyleTableRecord
  2
AM_JIS$SF
 70
     0
  3

  4
"
  5
OPEN30
  6

  7

 40
1.0
 41
2.5
 42
1.0
 43
10.0
 44
1.0
 45
0.0
 46
0.0
 47
0.1
 48
0.1
140
3.2
141
0.0
142
0.0
143
0.0393701
144
1.0
145
0.0
146
0.71
147
1.5
 71
     0
 72
     0
 73
     0
 74
     0
 75
     1
 76
     1
 77
     3
 78
     8
170
     0
171
     2
172
     1
173
     0
174
     0
175
     0
176
   256
177
   256
178
     2
270
     2
271
     2
272
     2
273
     2
274
     2
340
6B
275
     0
280
     0
281
     0
282
     0
283
     0
284
     0
285
     0
286
     0
287
     3
288
     0
  0
DIMSTYLE
105
68
330
A
100
AcDbSymbolTableRecord
100
AcDbDimStyleTableRecord
  2
AM_JIS$SH
 70
     0
  3

  4
"
  5

  6
GENAXEH
  7
OPEN30
 40
1.0
 41
2.5
 42
1.0
 43
10.0
 44
1.0
 45
0.0
 46
0.0
 47
0.1
 48
0.1
140
3.2
141
0.0
142
0.0
143
0.0393701
144
2.0
145
0.0
146
0.71
147
1.5
 71
     0
 72
     0
 73
     0
 74
     0
 75
     1
 76
     1
 77
     3
 78
     8
170
     0
171
     2
172
     1
173
     1
174
     0
175
     0
176
   256
177
   256
178
     2
270
     2
271
     2
272
     2
273
     2
274
     2
340
6B
275
     0
280
     0
281
     0
282
     0
283
     0
284
     0
285
     0
286
     0
287
     3
288
     0
  0
DIMSTYLE
105
B34
102
{ACAD_REACTORS
330
5652
102
}
330
A
100
AcDbSymbolTableRecord
100
AcDbDimStyleTableRecord
  2
AM_JIS$2
 70
     0
  3

  4
"
  5
OPEN30
  6

  7

 40
1.0
 41
2.5
 42
1.0
 43
12.0
 44
1.0
 45
0.0
 46
0.0
 47
0.1
 48
0.1
140
3.2
141
0.0
142
0.0
143
0.0393701
144
1.0
145
0.0
146
0.71
147
1.5
 71
     0
 72
     0
 73
     0
 74
     0
 75
     0
 76
     0
 77
     3
 78
     8
170
     0
171
     2
172
     1
173
     0
174
     0
175
     0
176
   256
177
   256
178
     2
270
     2
271
     3
272
     3
273
     2
274
     2
340
6B
275
     0
280
     0
281
     0
282
     0
283
     0
284
     0
285
     0
286
     0
287
     3
288
     0
  0
DIMSTYLE
105
1E42
330
A
100
AcDbSymbolTableRecord
100
AcDbDimStyleTableRecord
  2
AM_JIS$0
 70
     0
  3

  4
"
  5
OPEN30
  6

  7

 40
2.0
 41
2.5
 42
1.0
 43
10.0
 44
1.0
 45
0.0
 46
0.0
 47
0.1
 48
0.1
140
2.5
141
0.0
142
0.0
143
0.0393701
144
1.0
145
0.0
146
0.71
147
1.0
 71
     0
 72
     0
 73
     0
 74
     0
 75
     0
 76
     0
 77
     3
 78
     8
170
     0
171
     2
172
     1
173
     0
174
     0
175
     0
176
   256
177
   256
178
     4
270
     2
271
     3
272
     3
273
     2
274
     2
340
6B
275
     0
280
     0
281
     0
282
     0
283
     0
284
     0
285
     0
286
     0
287
     3
288
     0
  0
ENDTAB
  0
TABLE
  2
BLOCK_RECORD
  5
1
330
0
100
AcDbSymbolTable
 70
    14
  0
BLOCK_RECORD
  5
1F
102
{ACAD_XDICTIONARY
360
74
102
}
330
1
100
AcDbSymbolTableRecord
100
AcDbBlockTableRecord
  2
*MODEL_SPACE
  0
BLOCK_RECORD
  5
101
102
{ACAD_XDICTIONARY
360
5800
102
}
330
1
100
AcDbSymbolTableRecord
100
AcDbBlockTableRecord
  2
*PAPER_SPACE
  0
BLOCK_RECORD
  5
59
330
1
100
AcDbSymbolTableRecord
100
AcDbBlockTableRecord
  2
_OPEN30
  0
BLOCK_RECORD
  5
64
330
1
100
AcDbSymbolTableRecord
100
AcDbBlockTableRecord
  2
GENAXEH
  0
BLOCK_RECORD
  5
534B
330
1
100
AcDbSymbolTableRecord
100
AcDbBlockTableRecord
  2
*D5
  0
BLOCK_RECORD
  5
5357
330
1
100
AcDbSymbolTableRecord
100
AcDbBlockTableRecord
  2
*D6
  0
BLOCK_RECORD
  5
5363
330
1
100
AcDbSymbolTableRecord
100
AcDbBlockTableRecord
  2
*D7
  0
BLOCK_RECORD
  5
53E8
330
1
100
AcDbSymbolTableRecord
100
AcDbBlockTableRecord
  2
*D8
  0
BLOCK_RECORD
  5
53F4
330
1
100
AcDbSymbolTableRecord
100
AcDbBlockTableRecord
  2
*D9
  0
BLOCK_RECORD
  5
5402
330
1
100
AcDbSymbolTableRecord
100
AcDbBlockTableRecord
  2
*D10
  0
BLOCK_RECORD
  5
544A
330
1
100
AcDbSymbolTableRecord
100
AcDbBlockTableRecord
  2
*D11
  0
BLOCK_RECORD
  5
5456
330
1
100
AcDbSymbolTableRecord
100
AcDbBlockTableRecord
  2
*D12
  0
BLOCK_RECORD
  5
5653
330
1
100
AcDbSymbolTableRecord
100
AcDbBlockTableRecord
  2
*D13
  0
ENDTAB
  0
ENDSEC
  0
SECTION
  2
BLOCKS
  0
BLOCK
  5
20
330
1F
100
AcDbEntity
  8
0
100
AcDbBlockBegin
  2
*MODEL_SPACE
 70
     0
 10
0.0
 20
0.0
 30
0.0
  3
*MODEL_SPACE
  1

  0
ENDBLK
  5
21
330
1F
100
AcDbEntity
  8
0
100
AcDbBlockEnd
  0
BLOCK
  5
103
330
101
100
AcDbEntity
 67
     1
  8
0
100
AcDbBlockBegin
  2
*PAPER_SPACE
 70
     0
 10
0.0
 20
0.0
 30
0.0
  3
*PAPER_SPACE
  1

  0
ENDBLK
  5
104
330
101
100
AcDbEntity
 67
     1
  8
0
100
AcDbBlockEnd
  0
BLOCK
  5
5D
330
59
100
AcDbEntity
  8
0
100
AcDbBlockBegin
  2
_OPEN30
 70
     0
 10
0.0
 20
0.0
 30
0.0
  3
_OPEN30
  1

  0
LINE
  5
5A
330
59
100
AcDbEntity
  8
0
 62
     0
100
AcDbLine
 10
-1.0
 20
0.26794919
 30
0.0
 11
0.0
 21
0.0
 31
0.0
  0
LINE
  5
5B
330
59
100
AcDbEntity
  8
0
 62
     0
100
AcDbLine
 10
0.0
 20
0.0
 30
0.0
 11
-1.0
 21
-0.26794919
 31
0.0
  0
LINE
  5
5C
330
59
100
AcDbEntity
  8
0
 62
     0
100
AcDbLine
 10
0.0
 20
0.0
 30
0.0
 11
-1.0
 21
0.0
 31
0.0
  0
ENDBLK
  5
5E
330
59
100
AcDbEntity
  8
0
100
AcDbBlockEnd
  0
BLOCK
  5
66
330
64
100
AcDbEntity
  8
0
100
AcDbBlockBegin
  2
GENAXEH
 70
     0
 10
0.0
 20
0.0
 30
0.0
  3
GENAXEH
  1

  0
LINE
  5
65
330
64
100
AcDbEntity
  8
0
100
AcDbLine
 10
-1.0
 20
0.0
 30
0.0
 11
1.0
 21
0.0
 31
0.0
  0
ENDBLK
  5
67
330
64
100
AcDbEntity
  8
0
100
AcDbBlockEnd
  0
BLOCK
  5
5355
330
534B
100
AcDbEntity
  8
0
100
AcDbBlockBegin
  2
*D5
 70
     1
 10
0.0
 20
0.0
 30
0.0
  3
*D5
  1

  0
LINE
  5
5606
330
534B
100
AcDbEntity
  8
AM_5
100
AcDbLine
 10
-61.69999999999999
 20
40.00000000000002
 30
0.0
 11
-103.638025839757
 21
40.00000000000003
 31
0.0
  0
LINE
  5
5607
330
534B
100
AcDbEntity
  8
AM_5
100
AcDbLine
 10
-61.69999999999999
 20
-40.00000000000002
 30
0.0
 11
-103.6380258397571
 21
-40.00000000000002
 31
0.0
  0
LINE
  5
5608
330
534B
100
AcDbEntity
  8
AM_5
100
AcDbLine
 10
-102.638025839757
 20
37.50000000000003
 30
0.0
 11
-102.6380258397571
 21
-37.50000000000002
 31
0.0
  0
INSERT
  5
5609
330
534B
100
AcDbEntity
  8
AM_5
100
AcDbBlockReference
  2
_OPEN30
 10
-102.638025839757
 20
40.00000000000003
 30
0.0
 41
2.5
 42
2.5
 43
2.5
 50
90.0
  0
INSERT
  5
560A
330
534B
100
AcDbEntity
  8
AM_5
100
AcDbBlockReference
  2
_OPEN30
 10
-102.6380258397571
 20
-40.00000000000002
 30
0.0
 41
2.5
 42
2.5
 43
2.5
 50
270.0
  0
MTEXT
  5
560B
330
534B
100
AcDbEntity
  8
AM_5
 62
     2
100
AcDbMText
 10
-105.7380258397571
 20
-0.0000000000000075
 30
0.0
 40
3.2
 41
0.0
 71
     5
 72
     1
  1
%%c80
  7
ASAMI
 11
0.0000000000000001
 21
1.0
 31
0.0
1001
ACAD
1000
MTEXTBEGIN
1070
    73
1070
     1
1070
    44
1040
1.0
1070
    74
1070
     0
1000
MTEXTEND
  0
POINT
  5
560C
330
534B
100
AcDbEntity
  8
DEFPOINTS
 62
     0
100
AcDbPoint
 10
-60.69999999999999
 20
40.00000000000002
 30
0.0
  0
POINT
  5
560D
330
534B
100
AcDbEntity
  8
DEFPOINTS
 62
     0
100
AcDbPoint
 10
-60.69999999999999
 20
-40.00000000000002
 30
0.0
  0
POINT
  5
560E
330
534B
100
AcDbEntity
  8
DEFPOINTS
 62
     0
100
AcDbPoint
 10
-102.6380258397571
 20
-40.00000000000002
 30
0.0
  0
ENDBLK
  5
5356
330
534B
100
AcDbEntity
  8
0
100
AcDbBlockEnd
  0
BLOCK
  5
5361
330
5357
100
AcDbEntity
  8
0
100
AcDbBlockBegin
  2
*D6
 70
     1
 10
0.0
 20
0.0
 30
0.0
  3
*D6
  1

  0
LINE
  5
562C
330
5357
100
AcDbEntity
  8
AM_5
100
AcDbLine
 10
-61.2000000000001
 20
19.05003270956092
 30
0.0
 11
-93.63802583975711
 21
19.05003270956093
 31
0.0
  0
LINE
  5
562D
330
5357
100
AcDbEntity
  8
AM_5
100
AcDbLine
 10
-61.2000000000001
 20
-19.05003270956091
 30
0.0
 11
-93.63802583975711
 21
-19.0500327095609
 31
0.0
  0
LINE
  5
562E
330
5357
100
AcDbEntity
  8
AM_5
100
AcDbLine
 10
-92.63802583975712
 20
16.55003270956093
 30
0.0
 11
-92.63802583975712
 21
-16.5500327095609
 31
0.0
  0
INSERT
  5
562F
330
5357
100
AcDbEntity
  8
AM_5
100
AcDbBlockReference
  2
_OPEN30
 10
-92.63802583975712
 20
19.05003270956093
 30
0.0
 41
2.5
 42
2.5
 43
2.5
 50
90.0
  0
INSERT
  5
5630
330
5357
100
AcDbEntity
  8
AM_5
100
AcDbBlockReference
  2
_OPEN30
 10
-92.63802583975712
 20
-19.0500327095609
 30
0.0
 41
2.5
 42
2.5
 43
2.5
 50
270.0
  0
MTEXT
  5
5631
330
5357
100
AcDbEntity
  8
AM_5
 62
     2
100
AcDbMText
 10
-95.73802583975711
 20
-0.0000000000000011
 30
0.0
 40
3.2
 41
0.0
 71
     5
 72
     1
  1
%%c38.1
  7
ASAMI
 11
0.0000000000000001
 21
1.0
 31
0.0
1001
ACAD
1000
MTEXTBEGIN
1070
    73
1070
     1
1070
    44
1040
1.0
1070
    74
1070
     0
1000
MTEXTEND
  0
POINT
  5
5632
330
5357
100
AcDbEntity
  8
DEFPOINTS
 62
     0
100
AcDbPoint
 10
-60.2000000000001
 20
19.05003270956092
 30
0.0
  0
POINT
  5
5633
330
5357
100
AcDbEntity
  8
DEFPOINTS
 62
     0
100
AcDbPoint
 10
-60.2000000000001
 20
-19.05003270956091
 30
0.0
  0
POINT
  5
5634
330
5357
100
AcDbEntity
  8
DEFPOINTS
 62
     0
100
AcDbPoint
 10
-92.63802583975712
 20
-19.0500327095609
 30
0.0
  0
ENDBLK
  5
5362
330
5357
100
AcDbEntity
  8
0
100
AcDbBlockEnd
  0
BLOCK
  5
536F
330
5363
100
AcDbEntity
  8
0
100
AcDbBlockBegin
  2
*D7
 70
     1
 10
0.0
 20
0.0
 30
0.0
  3
*D7
  1

  0
LINE
  5
5621
330
5363
100
AcDbEntity
  8
AM_5
100
AcDbLine
 10
-62.70000000000004
 20
7.950000000000017
 30
0.0
 11
-83.63802583975711
 21
7.950000000000024
 31
0.0
  0
LINE
  5
5622
330
5363
100
AcDbEntity
  8
AM_5
100
AcDbLine
 10
-62.70000000000004
 20
-7.950000000000016
 30
0.0
 11
-83.63802583975711
 21
-7.950000000000009
 31
0.0
  0
LINE
  5
5623
330
5363
100
AcDbEntity
  8
AM_5
100
AcDbLine
 10
-82.63802583975712
 20
10.45000000000002
 30
0.0
 11
-82.63802583975712
 21
12.95000000000002
 31
0.0
  0
LINE
  5
5624
330
5363
100
AcDbEntity
  8
AM_5
100
AcDbLine
 10
-82.63802583975712
 20
-10.45000000000001
 30
0.0
 11
-82.63802583975712
 21
-12.95000000000001
 31
0.0
  0
LINE
  5
5625
330
5363
100
AcDbEntity
  8
AM_5
100
AcDbLine
 10
-82.63802583975712
 20
7.950000000000023
 30
0.0
 11
-82.63802583975712
 21
-7.95000000000001
 31
0.0
  0
INSERT
  5
5626
330
5363
100
AcDbEntity
  8
AM_5
100
AcDbBlockReference
  2
_OPEN30
 10
-82.63802583975712
 20
7.950000000000023
 30
0.0
 41
2.5
 42
2.5
 43
2.5
 50
270.0
  0
INSERT
  5
5627
330
5363
100
AcDbEntity
  8
AM_5
100
AcDbBlockReference
  2
_OPEN30
 10
-82.63802583975712
 20
-7.95000000000001
 30
0.0
 41
2.5
 42
2.5
 43
2.5
 50
90.0
  0
MTEXT
  5
5628
330
5363
100
AcDbEntity
  8
AM_5
 62
     2
100
AcDbMText
 10
-85.73802583975711
 20
-0.000000000000028
 30
0.0
 40
3.2
 41
0.0
 71
     5
 72
     1
  1
15.9
  7
ASAMI
 11
0.0000000000000001
 21
1.0
 31
0.0
1001
ACAD
1000
MTEXTBEGIN
1070
    73
1070
     1
1070
    44
1040
1.0
1070
    74
1070
     0
1000
MTEXTEND
  0
POINT
  5
5629
330
5363
100
AcDbEntity
  8
DEFPOINTS
 62
     0
100
AcDbPoint
 10
-61.70000000000005
 20
7.950000000000017
 30
0.0
  0
POINT
  5
562A
330
5363
100
AcDbEntity
  8
DEFPOINTS
 62
     0
100
AcDbPoint
 10
-61.70000000000005
 20
-7.950000000000017
 30
0.0
  0
POINT
  5
562B
330
5363
100
AcDbEntity
  8
DEFPOINTS
 62
     0
100
AcDbPoint
 10
-82.63802583975712
 20
-7.95000000000001
 30
0.0
  0
ENDBLK
  5
5370
330
5363
100
AcDbEntity
  8
0
100
AcDbBlockEnd
  0
BLOCK
  5
53F2
330
53E8
100
AcDbEntity
  8
0
100
AcDbBlockBegin
  2
*D8
 70
     1
 10
0.0
 20
0.0
 30
0.0
  3
*D8
  1

  0
LINE
  5
560F
330
53E8
100
AcDbEntity
  8
AM_5
100
AcDbLine
 10
-63.00000000000006
 20
-38.70000000000001
 30
0.0
 11
-63.00000000000006
 21
-97.50016644296529
 31
0.0
  0
LINE
  5
5610
330
53E8
100
AcDbEntity
  8
AM_5
100
AcDbLine
 10
-0.0000000000000001
 20
-63.5
 30
0.0
 11
-0.0000000000000021
 21
-97.50016644296529
 31
0.0
  0
LINE
  5
5611
330
53E8
100
AcDbEntity
  8
AM_5
100
AcDbLine
 10
-60.50000000000006
 20
-96.50016644296528
 30
0.0
 11
-2.500000000000002
 21
-96.50016644296528
 31
0.0
  0
INSERT
  5
5612
330
53E8
100
AcDbEntity
  8
AM_5
100
AcDbBlockReference
  2
_OPEN30
 10
-63.00000000000006
 20
-96.50016644296528
 30
0.0
 41
2.5
 42
2.5
 43
2.5
 50
180.0
  0
INSERT
  5
5613
330
53E8
100
AcDbEntity
  8
AM_5
100
AcDbBlockReference
  2
_OPEN30
 10
-0.0000000000000021
 20
-96.50016644296528
 30
0.0
 41
2.5
 42
2.5
 43
2.5
  0
MTEXT
  5
5614
330
53E8
100
AcDbEntity
  8
AM_5
 62
     2
100
AcDbMText
 10
-31.50000000000003
 20
-93.40016644296529
 30
0.0
 40
3.2
 41
0.0
 71
     5
 72
     1
  1
63
  7
ASAMI
1001
ACAD
1000
MTEXTBEGIN
1070
    73
1070
     1
1070
    44
1040
1.0
1070
    74
1070
     0
1000
MTEXTEND
  0
POINT
  5
5615
330
53E8
100
AcDbEntity
  8
DEFPOINTS
 62
     0
100
AcDbPoint
 10
-63.00000000000006
 20
-37.70000000000001
 30
0.0
  0
POINT
  5
5616
330
53E8
100
AcDbEntity
  8
DEFPOINTS
 62
     0
100
AcDbPoint
 10
0.0
 20
-62.5
 30
0.0
  0
POINT
  5
5617
330
53E8
100
AcDbEntity
  8
DEFPOINTS
 62
     0
100
AcDbPoint
 10
-0.0000000000000021
 20
-96.50016644296528
 30
0.0
  0
ENDBLK
  5
53F3
330
53E8
100
AcDbEntity
  8
0
100
AcDbBlockEnd
  0
BLOCK
  5
5400
330
53F4
100
AcDbEntity
  8
0
100
AcDbBlockBegin
  2
*D9
 70
     1
 10
0.0
 20
0.0
 30
0.0
  3
*D9
  1

  0
LINE
  5
55FD
330
53F4
100
AcDbEntity
  8
AM_5
100
AcDbLine
 10
-63.00000000000006
 20
-38.70000000000001
 30
0.0
 11
-63.00000000000006
 21
-77.50016644296528
 31
0.0
  0
LINE
  5
55FE
330
53F4
100
AcDbEntity
  8
AM_5
100
AcDbLine
 10
-53.00000000000011
 20
-8.449999999999988
 30
0.0
 11
-53.00000000000012
 21
-77.50016644296528
 31
0.0
  0
LINE
  5
55FF
330
53F4
100
AcDbEntity
  8
AM_5
100
AcDbLine
 10
-60.50000000000006
 20
-76.50016644296528
 30
0.0
 11
-55.50000000000012
 21
-76.50016644296528
 31
0.0
  0
INSERT
  5
5600
330
53F4
100
AcDbEntity
  8
AM_5
100
AcDbBlockReference
  2
_OPEN30
 10
-63.00000000000006
 20
-76.50016644296528
 30
0.0
 41
2.5
 42
2.5
 43
2.5
 50
180.0
  0
INSERT
  5
5601
330
53F4
100
AcDbEntity
  8
AM_5
100
AcDbBlockReference
  2
_OPEN30
 10
-53.00000000000012
 20
-76.50016644296528
 30
0.0
 41
2.5
 42
2.5
 43
2.5
  0
MTEXT
  5
5602
330
53F4
100
AcDbEntity
  8
AM_5
 62
     2
100
AcDbMText
 10
-58.00000000000008
 20
-73.40016644296529
 30
0.0
 40
3.2
 41
0.0
 71
     5
 72
     1
  1
10
  7
ASAMI
1001
ACAD
1000
MTEXTBEGIN
1070
    73
1070
     1
1070
    44
1040
1.0
1070
    74
1070
     0
1000
MTEXTEND
  0
POINT
  5
5603
330
53F4
100
AcDbEntity
  8
DEFPOINTS
 62
     0
100
AcDbPoint
 10
-63.00000000000006
 20
-37.70000000000001
 30
0.0
  0
POINT
  5
5604
330
53F4
100
AcDbEntity
  8
DEFPOINTS
 62
     0
100
AcDbPoint
 10
-53.00000000000011
 20
-7.449999999999988
 30
0.0
  0
POINT
  5
5605
330
53F4
100
AcDbEntity
  8
DEFPOINTS
 62
     0
100
AcDbPoint
 10
-53.00000000000012
 20
-76.50016644296528
 30
0.0
  0
ENDBLK
  5
5401
330
53F4
100
AcDbEntity
  8
0
100
AcDbBlockEnd
  0
BLOCK
  5
540C
330
5402
100
AcDbEntity
  8
0
100
AcDbBlockBegin
  2
*D10
 70
     1
 10
0.0
 20
0.0
 30
0.0
  3
*D10
  1

  0
LINE
  5
5618
330
5402
100
AcDbEntity
  8
AM_5
100
AcDbLine
 10
-63.00000000000006
 20
-38.70000000000001
 30
0.0
 11
-63.00000000000006
 21
-87.50016644296527
 31
0.0
  0
LINE
  5
5619
330
5402
100
AcDbEntity
  8
AM_5
100
AcDbLine
 10
-24.99999999999994
 20
-29.19999999999999
 30
0.0
 11
-24.99999999999994
 21
-87.50016644296527
 31
0.0
  0
LINE
  5
561A
330
5402
100
AcDbEntity
  8
AM_5
100
AcDbLine
 10
-60.50000000000006
 20
-86.50016644296528
 30
0.0
 11
-27.49999999999994
 21
-86.50016644296528
 31
0.0
  0
INSERT
  5
561B
330
5402
100
AcDbEntity
  8
AM_5
100
AcDbBlockReference
  2
_OPEN30
 10
-63.00000000000006
 20
-86.50016644296528
 30
0.0
 41
2.5
 42
2.5
 43
2.5
 50
180.0
  0
INSERT
  5
561C
330
5402
100
AcDbEntity
  8
AM_5
100
AcDbBlockReference
  2
_OPEN30
 10
-24.99999999999994
 20
-86.50016644296528
 30
0.0
 41
2.5
 42
2.5
 43
2.5
  0
MTEXT
  5
561D
330
5402
100
AcDbEntity
  8
AM_5
 62
     2
100
AcDbMText
 10
-44.0
 20
-83.40016644296529
 30
0.0
 40
3.2
 41
0.0
 71
     5
 72
     1
  1
38
  7
ASAMI
1001
ACAD
1000
MTEXTBEGIN
1070
    73
1070
     1
1070
    44
1040
1.0
1070
    74
1070
     0
1000
MTEXTEND
  0
POINT
  5
561E
330
5402
100
AcDbEntity
  8
DEFPOINTS
 62
     0
100
AcDbPoint
 10
-63.00000000000006
 20
-37.70000000000001
 30
0.0
  0
POINT
  5
561F
330
5402
100
AcDbEntity
  8
DEFPOINTS
 62
     0
100
AcDbPoint
 10
-24.99999999999994
 20
-28.19999999999998
 30
0.0
  0
POINT
  5
5620
330
5402
100
AcDbEntity
  8
DEFPOINTS
 62
     0
100
AcDbPoint
 10
-24.99999999999994
 20
-86.50016644296528
 30
0.0
  0
ENDBLK
  5
540D
330
5402
100
AcDbEntity
  8
0
100
AcDbBlockEnd
  0
BLOCK
  5
5454
330
544A
100
AcDbEntity
  8
0
100
AcDbBlockBegin
  2
*D11
 70
     1
 10
0.0
 20
0.0
 30
0.0
  3
*D11
  1

  0
LINE
  5
55EB
330
544A
100
AcDbEntity
  8
AM_5
100
AcDbLine
 10
-4.000000000000198
 20
28.99999999999974
 30
0.0
 11
23.32879458430825
 21
28.99999999999974
 31
0.0
  0
LINE
  5
55EC
330
544A
100
AcDbEntity
  8
AM_5
100
AcDbLine
 10
-4.000000000000198
 20
-28.99999999999974
 30
0.0
 11
23.32879458430824
 21
-28.99999999999975
 31
0.0
  0
LINE
  5
55ED
330
544A
100
AcDbEntity
  8
AM_5
100
AcDbLine
 10
22.32879458430825
 20
26.49999999999974
 30
0.0
 11
22.32879458430824
 21
-26.49999999999975
 31
0.0
  0
INSERT
  5
55EE
330
544A
100
AcDbEntity
  8
AM_5
100
AcDbBlockReference
  2
_OPEN30
 10
22.32879458430825
 20
28.99999999999974
 30
0.0
 41
2.5
 42
2.5
 43
2.5
 50
90.0
  0
INSERT
  5
55EF
330
544A
100
AcDbEntity
  8
AM_5
100
AcDbBlockReference
  2
_OPEN30
 10
22.32879458430824
 20
-28.99999999999975
 30
0.0
 41
2.5
 42
2.5
 43
2.5
 50
270.0
  0
MTEXT
  5
55F0
330
544A
100
AcDbEntity
  8
AM_5
 62
     2
100
AcDbMText
 10
19.22879458430824
 20
-0.000000000000001
 30
0.0
 40
3.2
 41
0.0
 71
     5
 72
     1
  1
%%c58
  7
ASAMI
 11
0.0000000000000001
 21
1.0
 31
0.0
1001
ACAD
1000
MTEXTBEGIN
1070
    73
1070
     1
1070
    44
1040
1.0
1070
    74
1070
     0
1000
MTEXTEND
  0
POINT
  5
55F1
330
544A
100
AcDbEntity
  8
DEFPOINTS
 62
     0
100
AcDbPoint
 10
-5.000000000000198
 20
28.99999999999974
 30
0.0
  0
POINT
  5
55F2
330
544A
100
AcDbEntity
  8
DEFPOINTS
 62
     0
100
AcDbPoint
 10
-5.000000000000198
 20
-28.99999999999974
 30
0.0
  0
POINT
  5
55F3
330
544A
100
AcDbEntity
  8
DEFPOINTS
 62
     0
100
AcDbPoint
 10
22.32879458430824
 20
-28.99999999999975
 30
0.0
  0
ENDBLK
  5
5455
330
544A
100
AcDbEntity
  8
0
100
AcDbBlockEnd
  0
BLOCK
  5
5460
330
5456
100
AcDbEntity
  8
0
100
AcDbBlockBegin
  2
*D12
 70
     1
 10
0.0
 20
0.0
 30
0.0
  3
*D12
  1

  0
LINE
  5
572B
330
5456
100
AcDbEntity
  8
AM_5
100
AcDbLine
 10
0.9999999999999715
 20
62.5
 30
0.0
 11
35.02325662344206
 21
62.5
 31
0.0
  0
LINE
  5
572C
330
5456
100
AcDbEntity
  8
AM_5
100
AcDbLine
 10
1.000000000000028
 20
-62.5
 30
0.0
 11
35.02325662344203
 21
-62.5
 31
0.0
  0
LINE
  5
572D
330
5456
100
AcDbEntity
  8
AM_5
100
AcDbLine
 10
34.02325662344205
 20
60.0
 30
0.0
 11
34.02325662344203
 21
-60.0
 31
0.0
  0
INSERT
  5
572E
330
5456
100
AcDbEntity
  8
AM_5
100
AcDbBlockReference
  2
_OPEN30
 10
34.02325662344205
 20
62.5
 30
0.0
 41
2.5
 42
2.5
 43
2.5
 50
90.0
  0
INSERT
  5
572F
330
5456
100
AcDbEntity
  8
AM_5
100
AcDbBlockReference
  2
_OPEN30
 10
34.02325662344203
 20
-62.5
 30
0.0
 41
2.5
 42
2.5
 43
2.5
 50
270.0
  0
MTEXT
  5
5730
330
5456
100
AcDbEntity
  8
AM_5
 62
     2
100
AcDbMText
 10
30.92325662344204
 20
-0.0000000000000017
 30
0.0
 40
3.2
 41
0.0
 71
     5
 72
     1
  1
%%c125
  7
ASAMI
 11
0.0000000000000001
 21
1.0
 31
0.0
1001
ACAD
1000
MTEXTBEGIN
1070
    73
1070
     1
1070
    44
1040
1.0
1070
    74
1070
     0
1000
MTEXTEND
  0
POINT
  5
5731
330
5456
100
AcDbEntity
  8
DEFPOINTS
 62
     0
100
AcDbPoint
 10
-0.0000000000000284
 20
62.5
 30
0.0
  0
POINT
  5
5732
330
5456
100
AcDbEntity
  8
DEFPOINTS
 62
     0
100
AcDbPoint
 10
0.0000000000000284
 20
-62.5
 30
0.0
  0
POINT
  5
5733
330
5456
100
AcDbEntity
  8
DEFPOINTS
 62
     0
100
AcDbPoint
 10
34.02325662344203
 20
-62.5
 30
0.0
  0
ENDBLK
  5
5461
330
5456
100
AcDbEntity
  8
0
100
AcDbBlockEnd
  0
BLOCK
  5
5663
330
5653
100
AcDbEntity
  8
0
100
AcDbBlockBegin
  2
*D13
 70
     1
 10
0.0
 20
0.0
 30
0.0
  3
*D13
  1

  0
LINE
  5
571C
330
5653
100
AcDbEntity
  8
AM_5
100
AcDbLine
 10
0.000000000000032
 20
-63.5
 30
0.0
 11
0.0000000000000284
 21
-97.52325662344201
 31
0.0
  0
LINE
  5
571D
330
5653
100
AcDbEntity
  8
AM_5
100
AcDbLine
 10
1.000000000000035
 20
-62.50000000000002
 30
0.0
 11
35.02325662344203
 21
-62.50000000000048
 31
0.0
  0
ARC
  5
571E
330
5653
100
AcDbEntity
  8
AM_5
100
AcDbCircle
 10
0.0000000000000284
 20
-62.5
 30
0.0
 40
34.023256623442
100
AcDbArc
 50
274.2109929091314
 51
355.7890070908677
  0
INSERT
  5
571F
330
5653
100
AcDbEntity
  8
AM_5
100
AcDbBlockReference
  2
_OPEN30
 10
0.0000000000000284
 20
-96.523256623442
 30
0.0
 41
2.5
 42
2.5
 43
2.5
 50
182.1054964545657
  0
INSERT
  5
5720
330
5653
100
AcDbEntity
  8
AM_5
100
AcDbBlockReference
  2
_OPEN30
 10
34.02325662344203
 20
-62.50000000000047
 30
0.0
 41
2.5
 42
2.5
 43
2.5
 50
87.89450354543353
  0
MTEXT
  5
5721
330
5653
100
AcDbEntity
  8
AM_5
 62
     2
100
AcDbMText
 10
21.8660444548075
 20
-84.36604445480785
 30
0.0
 40
3.2
 41
0.0
 71
     5
 72
     1
  1
90°
  7
ASAMI
 11
0.7071067811865476
 21
0.7071067811865475
 31
0.0
1001
ACAD
1000
MTEXTBEGIN
1070
    73
1070
     1
1070
    44
1040
1.0
1070
    74
1070
     0
1000
MTEXTEND
  0
POINT
  5
5722
330
5653
100
AcDbEntity
  8
DEFPOINTS
 62
     0
100
AcDbPoint
 10
17.0116283117209
 20
-91.96500455537801
 30
0.0
  0
POINT
  5
5723
330
5653
100
AcDbEntity
  8
DEFPOINTS
 62
     0
100
AcDbPoint
 10
0.0
 20
61.68846823328653
 30
0.0
  0
POINT
  5
5724
330
5653
100
AcDbEntity
  8
DEFPOINTS
 62
     0
100
AcDbPoint
 10
-0.7727379999997801
 20
-62.5
 30
0.0
  0
POINT
  5
5725
330
5653
100
AcDbEntity
  8
DEFPOINTS
 62
     0
100
AcDbPoint
 10
0.0
 20
-62.5
 30
0.0
  0
POINT
  5
5726
330
5653
100
AcDbEntity
  8
DEFPOINTS
 62
     0
100
AcDbPoint
 10
0.000000000000032
 20
-62.5
 30
0.0
  0
ENDBLK
  5
5664
330
5653
100
AcDbEntity
  8
0
100
AcDbBlockEnd
  0
ENDSEC
  0
SECTION
  2
ENTITIES
  0
TEXT
  5
E5A
330
1F
100
AcDbEntity
  8
AM_6
100
AcDbText
 10
-49.83333333333335
 20
-119.0001664429652
 30
0.0
 40
5.0
  1
CHG4125R
 72
     4
 11
-31.50000000000002
 21
-116.5001664429652
 31
0.0
100
AcDbText
  0
LINE
  5
44C4
330
1F
100
AcDbEntity
  8
AM_0
100
AcDbLine
 10
-51.74000000000018
 20
-18.8
 30
0.0
 11
-26.0
 21
-18.8
 31
0.0
  0
LINE
  5
44C6
330
1F
100
AcDbEntity
  8
AM_0
100
AcDbLine
 10
-51.74000000000018
 20
18.80000000000001
 30
0.0
 11
-26.0
 21
18.80000000000001
 31
0.0
  0
LINE
  5
44C8
330
1F
100
AcDbEntity
  8
AM_7
  6
AM_ISO08W050X2
100
AcDbLine
 10
-68.63802483975712
 20
0.0
 30
0.0
 11
8.328793584308243
 21
0.0
 31
0.0
  0
LINE
  5
44C9
330
1F
100
AcDbEntity
  8
AM_0
100
AcDbLine
 10
-44.53306746411231
 20
41.48236190979497
 30
0.0
 11
-40.39719767662017
 21
56.91763809020502
 31
0.0
  0
LINE
  5
44CA
330
1F
100
AcDbEntity
  8
AM_0
100
AcDbLine
 10
-44.53306746411231
 20
-41.48236190979497
 30
0.0
 11
-40.39719767662018
 21
-56.917638090205
 31
0.0
  0
LINE
  5
44CB
330
1F
100
AcDbEntity
  8
AM_0
100
AcDbLine
 10
-53.00000000000011
 20
0.0
 30
0.0
 11
-53.00000000000011
 21
7.449999999999988
 31
0.0
  0
LINE
  5
44CD
330
1F
100
AcDbEntity
  8
AM_0
100
AcDbLine
 10
-63.00000000000006
 20
-9.250000000000028
 30
0.0
 11
-63.0
 21
-37.70000000000001
 31
0.0
  0
LINE
  5
44CE
330
1F
100
AcDbEntity
  8
AM_0
100
AcDbLine
 10
-60.69999999999999
 20
-40.00000000000002
 30
0.0
 11
-46.46491911669045
 21
-40.00000000000002
 31
0.0
  0
LINE
  5
44D1
330
1F
100
AcDbEntity
  8
AM_0
100
AcDbLine
 10
-51.74000000000006
 20
-18.8
 30
0.0
 11
-58.90000000000009
 21
-19.05003270956085
 31
0.0
  0
LINE
  5
44D4
330
1F
100
AcDbEntity
  8
AM_0
100
AcDbLine
 10
-58.90000000000009
 20
-19.05003270956085
 30
0.0
 11
-60.20000000000004
 21
-19.05003270956085
 31
0.0
  0
LINE
  5
44D5
330
1F
100
AcDbEntity
  8
AM_0
100
AcDbLine
 10
-60.20000000000003
 20
-7.950000000000013
 30
0.0
 11
-60.2000000000001
 21
-19.05003270956088
 31
0.0
  0
LINE
  5
44D6
330
1F
100
AcDbEntity
  8
AM_0
100
AcDbLine
 10
-58.90000000000003
 20
-7.950000000000009
 30
0.0
 11
-58.90000000000009
 21
-19.05003270956088
 31
0.0
  0
LINE
  5
44D7
330
1F
100
AcDbEntity
  8
AM_0
100
AcDbLine
 10
-61.70000000000005
 20
-7.950000000000017
 30
0.0
 11
-53.50000000000012
 21
-7.949999999999988
 31
0.0
  0
LINE
  5
44D8
330
1F
100
AcDbEntity
  8
AM_0
100
AcDbLine
 10
-51.74000000000008
 20
0.0
 30
0.0
 11
-51.74000000000018
 21
-18.80000000000003
 31
0.0
  0
LINE
  5
44D9
330
1F
100
AcDbEntity
  8
AM_0
100
AcDbLine
 10
-53.00000000000011
 20
0.0
 30
0.0
 11
-53.00000000000011
 21
-7.449999999999988
 31
0.0
  0
LINE
  5
44DA
330
1F
100
AcDbEntity
  8
AM_0
100
AcDbLine
 10
-63.00000000000003
 20
9.250000000000021
 30
0.0
 11
-62.99999999999998
 21
37.70000000000003
 31
0.0
  0
LINE
  5
44DB
330
1F
100
AcDbEntity
  8
AM_0
100
AcDbLine
 10
-51.74000000000006
 20
18.80000000000001
 30
0.0
 11
-58.90000000000009
 21
19.05003270956086
 31
0.0
  0
LINE
  5
44DD
330
1F
100
AcDbEntity
  8
AM_0
100
AcDbLine
 10
-58.90000000000004
 20
7.950000000000008
 30
0.0
 11
-58.90000000000009
 21
19.05003270956086
 31
0.0
  0
LINE
  5
44DE
330
1F
100
AcDbEntity
  8
AM_0
100
AcDbLine
 10
-60.20000000000004
 20
7.950000000000012
 30
0.0
 11
-60.2000000000001
 21
19.05003270956086
 31
0.0
  0
LINE
  5
44DF
330
1F
100
AcDbEntity
  8
AM_0
100
AcDbLine
 10
-61.70000000000003
 20
7.950000000000017
 30
0.0
 11
-53.50000000000012
 21
7.949999999999988
 31
0.0
  0
LINE
  5
44E2
330
1F
100
AcDbEntity
  8
AM_0
100
AcDbLine
 10
-58.90000000000009
 20
19.05003270956086
 30
0.0
 11
-60.20000000000003
 21
19.05003270956086
 31
0.0
  0
LINE
  5
44E3
330
1F
100
AcDbEntity
  8
AM_0
100
AcDbLine
 10
-51.74000000000008
 20
0.0
 30
0.0
 11
-51.74000000000018
 21
18.90000000000003
 31
0.0
  0
LINE
  5
44E4
330
1F
100
AcDbEntity
  8
AM_0
100
AcDbLine
 10
-60.69999999999998
 20
40.00000000000002
 30
0.0
 11
-46.46491911669046
 21
40.00000000000003
 31
0.0
  0
LINE
  5
44E7
330
1F
100
AcDbEntity
  8
AM_3
100
AcDbLine
 10
-2.000000000000056
 20
44.59999999999999
 30
0.0
 11
-2.0
 21
57.60636902737555
 31
0.0
  0
LINE
  5
44E8
330
1F
100
AcDbEntity
  8
AM_3
100
AcDbLine
 10
-2.000000000000056
 20
-44.59999999999999
 30
0.0
 11
-2.000000000000056
 21
-40.61122447329364
 31
0.0
  0
LINE
  5
44E9
330
1F
100
AcDbEntity
  8
AM_3
100
AcDbLine
 10
-2.000000000000056
 20
-44.59999999999999
 30
0.0
 11
-2.348331960439927
 21
-40.61854747344833
 31
0.0
  0
LINE
  5
44EB
330
1F
100
AcDbEntity
  8
AM_0
100
AcDbLine
 10
-27.40000000000009
 20
-50.0
 30
0.0
 11
-23.19999999999993
 21
-50.0
 31
0.0
  0
LINE
  5
44EC
330
1F
100
AcDbEntity
  8
AM_3
100
AcDbLine
 10
-27.80000000000006
 20
-50.4
 30
0.0
 11
-27.79999999999995
 21
-57.39999999999992
 31
0.0
  0
LINE
  5
44ED
330
1F
100
AcDbEntity
  8
AM_0
100
AcDbLine
 10
-38.46534602404204
 20
-58.39999999999995
 30
0.0
 11
-28.79999999999995
 21
-58.39999999999992
 31
0.0
  0
ARC
  5
44EF
330
1F
100
AcDbEntity
  8
AM_3
100
AcDbCircle
 10
-27.40000000000009
 20
-50.4
 30
0.0
 40
0.4
100
AcDbArc
 50
136.2795157521037
 51
180.0000000000007
  0
LINE
  5
44F0
330
1F
100
AcDbEntity
  8
AM_3
100
AcDbLine
 10
-22.79999999999995
 20
-50.4
 30
0.0
 11
-22.7999999999999
 21
-58.5000583080836
 31
0.0
  0
ARC
  5
44F2
330
1F
100
AcDbEntity
  8
AM_3
100
AcDbCircle
 10
-23.19999999999993
 20
-50.4
 30
0.0
 40
0.4
100
AcDbArc
 50
0.0000000000008142
 51
69.1567543186125
  0
LINE
  5
44F3
330
1F
100
AcDbEntity
  8
AM_3
100
AcDbLine
 10
-2.000000000000056
 20
-44.59999999999999
 30
0.0
 11
-2.000000000005769
 21
-57.60636902737556
 31
0.0
  0
LINE
  5
44F5
330
1F
100
AcDbEntity
  8
AM_3
100
AcDbLine
 10
-2.000000000000056
 20
44.59999999999999
 30
0.0
 11
-2.000000000000056
 21
40.61122447329364
 31
0.0
  0
LINE
  5
44F6
330
1F
100
AcDbEntity
  8
AM_0
100
AcDbLine
 10
-5.000000000000056
 20
-0.0000000000000853
 30
0.0
 11
-5.0
 21
29.0
 31
0.0
  0
LINE
  5
44F7
330
1F
100
AcDbEntity
  8
AM_0
100
AcDbLine
 10
-3.700000000000045
 20
-0.0000000000000853
 30
0.0
 11
-3.699999999999988
 21
34.00000000000003
 31
0.0
  0
LINE
  5
44F8
330
1F
100
AcDbEntity
  8
AM_0
100
AcDbLine
 10
-26.00000000000005
 20
0.0
 30
0.0
 11
-26.0
 21
18.80000000000001
 31
0.0
  0
LINE
  5
44F9
330
1F
100
AcDbEntity
  8
AM_0
100
AcDbLine
 10
-25.00000000000005
 20
0.0
 30
0.0
 11
-24.99999999999994
 21
28.2
 31
0.0
  0
LINE
  5
44FA
330
1F
100
AcDbEntity
  8
AM_0
100
AcDbLine
 10
-24.19999999999993
 20
-29.0
 30
0.0
 11
-4.999999999999943
 21
-29.0
 31
0.0
  0
LINE
  5
44FB
330
1F
100
AcDbEntity
  8
AM_0
100
AcDbLine
 10
-26.0
 20
-18.8
 30
0.0
 11
-25.0
 21
-19.8
 31
0.0
  0
LINE
  5
44FC
330
1F
100
AcDbEntity
  8
AM_0
100
AcDbLine
 10
-25.00000000000005
 20
0.0
 30
0.0
 11
-24.99999999999994
 21
-28.19999999999998
 31
0.0
  0
LINE
  5
44FE
330
1F
100
AcDbEntity
  8
AM_0
100
AcDbLine
 10
-26.00000000000005
 20
0.0
 30
0.0
 11
-26.0
 21
-18.8
 31
0.0
  0
LINE
  5
44FF
330
1F
100
AcDbEntity
  8
AM_0
100
AcDbLine
 10
-5.000000000000056
 20
0.0000000000000853
 30
0.0
 11
-5.0
 21
-29.0
 31
0.0
  0
LINE
  5
4500
330
1F
100
AcDbEntity
  8
AM_0
100
AcDbLine
 10
-3.700000000000045
 20
0.0000000000000853
 30
0.0
 11
-3.699999999999988
 21
-34.00000000000003
 31
0.0
  0
LINE
  5
4502
330
1F
100
AcDbEntity
  8
AM_0
100
AcDbLine
 10
-4.499999999999943
 20
-35.5
 30
0.0
 11
-3.79614683808586
 21
-35.50000000000002
 31
0.0
  0
LINE
  5
4503
330
1F
100
AcDbEntity
  8
AM_0
100
AcDbLine
 10
-4.499999999999943
 20
-34.0
 30
0.0
 11
-3.699999999999988
 21
-34.0
 31
0.0
  0
LINE
  5
4504
330
1F
100
AcDbEntity
  8
AM_0
100
AcDbLine
 10
-4.499999999999943
 20
-34.0
 30
0.0
 11
-4.499999999999943
 21
-35.49999999999997
 31
0.0
  0
LINE
  5
4505
330
1F
100
AcDbEntity
  8
AM_0
100
AcDbLine
 10
-4.999999999999943
 20
-29.0
 30
0.0
 11
-3.699999999999931
 21
-30.30000000000001
 31
0.0
  0
LINE
  5
4506
330
1F
100
AcDbEntity
  8
AM_0
100
AcDbLine
 10
-24.19999999999994
 20
29.0
 30
0.0
 11
-4.999999999999943
 21
29.0
 31
0.0
  0
LINE
  5
4507
330
1F
100
AcDbEntity
  8
AM_0
100
AcDbLine
 10
-26.0
 20
18.80000000000001
 30
0.0
 11
-25.0
 21
19.80000000000001
 31
0.0
  0
LINE
  5
4509
330
1F
100
AcDbEntity
  8
AM_3
100
AcDbLine
 10
-2.000000000000056
 20
44.59999999999999
 30
0.0
 11
-2.348331960439927
 21
40.61854747344833
 31
0.0
  0
LINE
  5
450B
330
1F
100
AcDbEntity
  8
AM_0
100
AcDbLine
 10
-4.499999999999943
 20
34.0
 30
0.0
 11
-3.699999999999988
 21
34.0
 31
0.0
  0
LINE
  5
450C
330
1F
100
AcDbEntity
  8
AM_0
100
AcDbLine
 10
-4.499999999999943
 20
34.0
 30
0.0
 11
-4.499999999999943
 21
35.49999999999997
 31
0.0
  0
LINE
  5
450D
330
1F
100
AcDbEntity
  8
AM_0
100
AcDbLine
 10
-4.999999999999943
 20
29.0
 30
0.0
 11
-3.699999999999931
 21
30.30000000000001
 31
0.0
  0
LINE
  5
450E
330
1F
100
AcDbEntity
  8
AM_0
100
AcDbLine
 10
-4.499999999999943
 20
35.5
 30
0.0
 11
-3.796146838085849
 21
35.50000000000002
 31
0.0
  0
LINE
  5
4510
330
1F
100
AcDbEntity
  8
AM_0
100
AcDbLine
 10
-27.40000000000009
 20
50.0
 30
0.0
 11
-23.19999999999993
 21
50.0
 31
0.0
  0
LINE
  5
4511
330
1F
100
AcDbEntity
  8
AM_0
100
AcDbLine
 10
-38.46534602404202
 20
58.39999999999999
 30
0.0
 11
-28.79999999999995
 21
58.39999999999992
 31
0.0
  0
ARC
  5
4512
330
1F
100
AcDbEntity
  8
AM_3
100
AcDbCircle
 10
-27.40000000000009
 20
50.4
 30
0.0
 40
0.4
100
AcDbArc
 50
179.9999999999991
 51
223.7204842478961
  0
LINE
  5
4514
330
1F
100
AcDbEntity
  8
AM_3
100
AcDbLine
 10
-27.80000000000006
 20
50.4
 30
0.0
 11
-27.79999999999995
 21
56.82004668804021
 31
0.0
  0
ARC
  5
4515
330
1F
100
AcDbEntity
  8
AM_3
100
AcDbCircle
 10
-23.19999999999993
 20
50.4
 30
0.0
 40
0.4
100
AcDbArc
 50
290.8432456813875
 51
359.9999999999992
  0
LINE
  5
4517
330
1F
100
AcDbEntity
  8
AM_3
100
AcDbLine
 10
-22.79999999999995
 20
50.4
 30
0.0
 11
-22.79999999999995
 21
58.50005830808607
 31
0.0
  0
LINE
  5
4FD9
330
1F
100
AcDbEntity
  8
AM_3
100
AcDbLine
 10
-19.46321709186909
 20
-59.77647953062624
 30
0.0
 11
-2.997762742848323
 21
-58.6732234138847
 31
0.0
  0
LINE
  5
5208
330
1F
100
AcDbEntity
  8
AM_3
100
AcDbLine
 10
-19.46321709186405
 20
59.77647953062803
 30
0.0
 11
-2.997762742842438
 21
58.67322341388478
 31
0.0
  0
LINE
  5
52EC
330
1F
100
AcDbEntity
  8
AM_3
100
AcDbLine
 10
-22.63962789659225
 20
58.65004439034332
 30
0.0
 11
-22.79999999999995
 21
58.50005830808607
 31
0.0
1001
GENIUS_GENFIL_13
1070
     0
1040
1.5
1040
1.5
1040
20.0
1040
0.0
1002
{
1002
}
1001
GENIUS_GENODEF_13
1002
{
1000
HIER
1070
     0
1002
}
1002
{
1000
MANEDIT
1070
     0
1002
}
1002
{
1000
NOSEL
1070
     0
1002
}
1002
{
1000
BEHIND
1070
     0
1002
}
1002
{
1000
REACTOR
1002
}
1001
GENIUS_GENOBJ-N-CHA_13
1002
{
1000
OWNER
1000
GEN
1002
}
  0
LINE
  5
52F0
330
1F
100
AcDbEntity
  8
AM_3
100
AcDbLine
 10
-22.7999999999999
 20
-58.5000583080836
 30
0.0
 11
-22.63962789658793
 21
-58.65004439034485
 31
0.0
1001
GENIUS_GENFIL_13
1070
     0
1040
1.5
1040
1.5
1040
20.0
1040
0.0
1002
{
1002
}
1001
GENIUS_GENODEF_13
1002
{
1000
HIER
1070
     0
1002
}
1002
{
1000
MANEDIT
1070
     0
1002
}
1002
{
1000
NOSEL
1070
     0
1002
}
1002
{
1000
BEHIND
1070
     0
1002
}
1002
{
1000
REACTOR
1002
}
1001
GENIUS_GENOBJ-N-CHA_13
1002
{
1000
OWNER
1000
GEN
1002
}
  0
DIMENSION
  5
5348
330
1F
100
AcDbEntity
  8
AM_5
100
AcDbDimension
  2
*D5
 10
-102.6380258397571
 20
-40.00000000000002
 30
0.0
 11
-105.7380258397571
 21
-0.0000000000000075
 31
0.0
 70
    32
  1
%%c<>
  3
AM_JIS
100
AcDbAlignedDimension
 13
-60.69999999999999
 23
40.00000000000002
 33
0.0
 14
-60.69999999999999
 24
-40.00000000000002
 34
0.0
 50
90.0
100
AcDbRotatedDimension
1001
GENIUS_GENDTOL_13
1000

1000
h7
1000

1040
0.0
  0
DIMENSION
  5
5349
330
1F
100
AcDbEntity
  8
AM_5
100
AcDbDimension
  2
*D7
 10
-82.63802583975712
 20
-7.95000000000001
 30
0.0
 11
-82.63802583975712
 21
-0.0000000000000284
 31
0.0
 70
   160
  3
AM_JIS
100
AcDbAlignedDimension
 13
-61.70000000000005
 23
7.950000000000017
 33
0.0
 14
-61.70000000000005
 24
-7.950000000000017
 34
0.0
 50
90.0
100
AcDbRotatedDimension
  0
DIMENSION
  5
534A
330
1F
100
AcDbEntity
  8
AM_5
100
AcDbDimension
  2
*D6
 10
-92.63802583975712
 20
-19.0500327095609
 30
0.0
 11
-95.73802583975711
 21
-0.0000000000000011
 31
0.0
 70
    32
  1
%%c<>
  3
AM_JIS
100
AcDbAlignedDimension
 13
-60.2000000000001
 23
19.05003270956092
 33
0.0
 14
-60.2000000000001
 24
-19.05003270956091
 34
0.0
 50
90.0
100
AcDbRotatedDimension
1001
GENIUS_GENDTOL_13
1000

1000
h7
1000

1040
0.0
  0
DIMENSION
  5
53E5
330
1F
100
AcDbEntity
  8
AM_5
100
AcDbDimension
  2
*D10
 10
-24.99999999999994
 20
-86.50016644296528
 30
0.0
 11
-44.0
 21
-83.40016644296529
 31
0.0
 70
    32
  3
AM_JIS
100
AcDbAlignedDimension
 13
-63.00000000000006
 23
-37.70000000000001
 33
0.0
 14
-24.99999999999994
 24
-28.19999999999998
 34
0.0
100
AcDbRotatedDimension
  0
DIMENSION
  5
53E6
330
1F
100
AcDbEntity
  8
AM_5
100
AcDbDimension
  2
*D9
 10
-53.00000000000012
 20
-76.50016644296528
 30
0.0
 11
-58.00000000000008
 21
-73.40016644296529
 31
0.0
 70
    32
  3
AM_JIS
100
AcDbAlignedDimension
 13
-63.00000000000006
 23
-37.70000000000001
 33
0.0
 14
-53.00000000000011
 24
-7.449999999999988
 34
0.0
100
AcDbRotatedDimension
  0
DIMENSION
  5
53E7
330
1F
100
AcDbEntity
  8
AM_5
100
AcDbDimension
  2
*D8
 10
-0.0000000000000021
 20
-96.50016644296528
 30
0.0
 11
-31.50000000000003
 21
-93.40016644296529
 31
0.0
 70
    32
  3
AM_JIS
100
AcDbAlignedDimension
 13
-63.00000000000006
 23
-37.70000000000001
 33
0.0
 14
0.0
 24
-62.5
 34
0.0
100
AcDbRotatedDimension
  0
DIMENSION
  5
5448
330
1F
100
AcDbEntity
  8
AM_5
100
AcDbDimension
  2
*D12
 10
34.02325662344203
 20
-62.5
 30
0.0
 11
30.92325662344204
 21
-0.0000000000000017
 31
0.0
 70
    32
  1
%%c<>
  3
AM_JIS
100
AcDbAlignedDimension
 13
-0.0000000000000284
 23
62.5
 33
0.0
 14
0.0000000000000284
 24
-62.5
 34
0.0
 50
90.0
100
AcDbRotatedDimension
1001
GENIUS_GENDTOL_13
1000

1000
h7
1000

1040
0.0
  0
DIMENSION
  5
5449
330
1F
100
AcDbEntity
  8
AM_5
100
AcDbDimension
  2
*D11
 10
22.32879458430824
 20
-28.99999999999975
 30
0.0
 11
19.22879458430824
 21
-0.000000000000001
 31
0.0
 70
    32
  1
%%c<>
  3
AM_JIS
100
AcDbAlignedDimension
 13
-5.000000000000198
 23
28.99999999999974
 33
0.0
 14
-5.000000000000198
 24
-28.99999999999974
 34
0.0
 50
90.0
100
AcDbRotatedDimension
1001
GENIUS_GENDTOL_13
1000

1000
h7
1000

1040
0.0
  0
ELLIPSE
  5
54F4
330
1F
100
AcDbEntity
  8
0
100
AcDbEllipse
 10
-0.772738000000004
 20
61.70246609648462
 30
0.0
 11
-0.22481131597
 21
0.7677629010390001
 31
0.0
210
0.0
220
0.0
230
1.0
 40
0.9629487499999999
 41
4.414283443712509
 42
6.179975573459709
  0
LINE
  5
54F5
330
1F
100
AcDbEntity
  8
AM_11
100
AcDbLine
 10
-0.7727379999997766
 20
62.5
 30
0.0
 11
0.0
 21
62.5
 31
0.0
  0
LINE
  5
54F7
330
1F
100
AcDbEntity
  8
AM_11
100
AcDbLine
 10
0.0
 20
61.68846823328653
 30
0.0
 11
0.0000000000000284
 21
-62.5
 31
0.0
  0
LINE
  5
54F8
330
1F
100
AcDbEntity
  8
0
100
AcDbLine
 10
-0.0039319999999634
 20
60.28884209648459
 30
0.0
 11
0.0
 21
61.68390009648465
 31
0.0
  0
LINE
  5
54F9
330
1F
100
AcDbEntity
  8
AM_11
100
AcDbLine
 10
0.0
 20
62.5
 30
0.0
 11
0.0
 21
61.68397383380088
 31
0.0
  0
LINE
  5
54FA
330
1F
100
AcDbEntity
  8
0
100
AcDbLine
 10
-17.58720800000003
 20
62.24796409648456
 30
0.0
 11
-0.9220209999999724
 21
62.49824409648454
 31
0.0
  0
ELLIPSE
  5
54FB
330
1F
100
AcDbEntity
  8
0
100
AcDbEllipse
 10
-18.37541899999996
 20
60.87863709648456
 30
0.0
 11
-0.22481131597
 21
0.7677629010390001
 31
0.0
210
0.0
220
0.0
230
1.0
 40
0.9629487499999999
 41
0.225493268330497
 42
1.99118549412694
  0
LINE
  5
54FC
330
1F
100
AcDbEntity
  8
0
100
AcDbLine
 10
-17.58720800000003
 20
62.24796409648456
 30
0.0
 11
-18.75983999999999
 21
61.57856009648458
 31
0.0
  0
LINE
  5
54FD
330
1F
100
AcDbEntity
  8
0
100
AcDbLine
 10
-18.96588300000002
 20
60.36129909648457
 30
0.0
 11
-16.88989300000002
 21
56.88878109648453
 31
0.0
  0
LINE
  5
54FE
330
1F
100
AcDbEntity
  8
0
100
AcDbLine
 10
-28.00295400000004
 20
56.74807409648463
 30
0.0
 11
-18.76440999999999
 21
60.0242940964846
 31
0.0
  0
LINE
  5
54FF
330
1F
100
AcDbEntity
  8
0
100
AcDbLine
 10
-28.00295400000004
 20
56.74807409648463
 30
0.0
 11
-28.00295400000004
 21
50.13014209648464
 31
0.0
  0
LINE
  5
5500
330
1F
100
AcDbEntity
  8
0
100
AcDbLine
 10
-22.50295400000004
 20
50.01451509648461
 30
0.0
 11
-28.00295400000004
 21
50.13014209648464
 31
0.0
  0
LINE
  5
5501
330
1F
100
AcDbEntity
  8
0
100
AcDbLine
 10
-22.50295400000004
 20
50.01451509648461
 30
0.0
 11
-22.50295400000004
 21
41.0422590964846
 31
0.0
  0
ELLIPSE
  5
5502
330
1F
100
AcDbEntity
  8
0
100
AcDbEllipse
 10
-15.38300600000002
 20
54.30727109648455
 30
0.0
 11
3.990881754126006
 21
0.2863286995530003
 31
0.0
210
0.0
220
0.0
230
1.0
 40
0.32607056988758
 41
3.930434247791799
 42
4.43481113636778
  0
ELLIPSE
  5
5503
330
1F
100
AcDbEntity
  8
0
100
AcDbEllipse
 10
-19.25571200000001
 20
68.05245409648455
 30
0.0
 11
0.31528168264
 21
14.99668621598099
 31
0.0
210
0.0
220
0.0
230
1.0
 40
0.2580212
 41
3.240362518333309
 42
3.97090545680866
  0
SPLINE
  5
5504
330
1F
100
AcDbEntity
  8
0
100
AcDbSpline
210
0.0
220
0.0
230
1.0
 70
     8
 71
     3
 72
    11
 73
     7
 74
     5
 42
0.0000000001
 43
0.0000000001
 44
0.0000000001
 40
0.0
 40
0.0
 40
0.0
 40
0.0
 40
0.0027392708884189
 40
0.0070204853189581
 40
0.0136303210203603
 40
0.0226678924862084
 40
0.0226678924862084
 40
0.0226678924862084
 40
0.0226678924862084
 10
-19.329248
 20
53.05593209648463
 30
0.0
 10
-19.32883810404592
 20
53.05508030255516
 30
0.0
 10
-19.32778758051424
 20
53.05289723741842
 30
0.0
 10
-19.32304042184414
 20
53.05154578771715
 30
0.0
 10
-19.31663929169212
 20
53.05052223113611
 30
0.0
 10
-19.311388647577
 20
53.05034719386384
 30
0.0
 10
-19.308356
 20
53.05024609648455
 30
0.0
 11
-19.329248
 21
53.05593209648463
 31
0.0
 11
-19.327806
 21
53.0536030964846
 31
0.0
 11
-19.32389699999998
 21
53.05185709648458
 31
0.0
 11
-19.31737900000001
 21
53.05075909648462
 31
0.0
 11
-19.308356
 21
53.05024609648455
 31
0.0
  0
SPLINE
  5
5505
330
1F
100
AcDbEntity
  8
0
100
AcDbSpline
210
0.0
220
0.0
230
1.0
 70
     8
 71
     3
 72
    11
 73
     7
 74
     5
 42
0.0000000001
 43
0.0000000001
 44
0.0000000001
 40
0.0
 40
0.0
 40
0.0
 40
0.0
 40
0.0663061719072799
 40
0.1143280214863856
 40
0.1441303157773307
 40
0.1567561104056881
 40
0.1567561104056881
 40
0.1567561104056881
 40
0.1567561104056881
 10
-19.18789000000003
 20
53.12083509648459
 30
0.0
 10
-19.20877008682271
 20
53.11337534491994
 30
0.0
 10
-19.24477245200583
 20
53.10051291277172
 30
0.0
 10
-19.28814602778834
 20
53.08110149109754
 30
0.0
 10
-19.3173742218741
 20
53.07015415162767
 30
0.0
 10
-19.32652492445256
 20
53.0591937146641
 30
0.0
 10
-19.329248
 20
53.05593209648463
 30
0.0
 11
-19.18789000000003
 21
53.12083509648459
 31
0.0
 11
-19.24999300000001
 21
53.09760309648459
 31
0.0
 11
-19.29428699999999
 21
53.07905209648459
 31
0.0
 11
-19.32067500000005
 21
53.06520109648454
 31
0.0
 11
-19.329248
 21
53.05593209648463
 31
0.0
  0
SPLINE
  5
5506
330
1F
100
AcDbEntity
  8
0
100
AcDbSpline
210
0.0
220
0.0
230
1.0
 70
     8
 71
     3
 72
    11
 73
     7
 74
     5
 42
0.0000000001
 43
0.0000000001
 44
0.0000000001
 40
0.0
 40
0.0
 40
0.0
 40
0.0
 40
0.1301237046583035
 40
0.3760882034828366
 40
0.731080503671149
 40
1.186841671526647
 40
1.186841671526647
 40
1.186841671526647
 40
1.186841671526647
 10
-19.308356
 20
53.05024609648455
 30
0.0
 10
-19.26510635200395
 20
53.05365378936721
 30
0.0
 10
-19.14010466642474
 20
53.06350282569477
 30
0.0
 10
-18.89896327384136
 20
53.0996000038849
 30
0.0
 10
-18.54932879024682
 20
53.14238461304495
 30
0.0
 10
-18.28026238649258
 20
53.1678582268428
 30
0.0
 10
-18.12900799999999
 20
53.18217809648456
 30
0.0
 11
-19.308356
 21
53.05024609648455
 31
0.0
 11
-19.17872099999999
 21
53.06151309648453
 31
0.0
 11
-18.93482199999999
 21
53.09332209648459
 31
0.0
 11
-18.582514
 21
53.13689509648452
 31
0.0
 11
-18.12900799999999
 21
53.18217809648456
 31
0.0
  0
LINE
  5
5507
330
1F
100
AcDbEntity
  8
0
100
AcDbLine
 10
-1.994531000000051
 20
52.84298209648454
 30
0.0
 11
-18.12900799999999
 21
53.18217809648456
 31
0.0
  0
LINE
  5
5508
330
1F
100
AcDbEntity
  8
0
100
AcDbLine
 10
-16.38682600000004
 20
52.97731209648464
 30
0.0
 11
-1.994531000000051
 21
52.67474209648458
 31
0.0
  0
LINE
  5
5509
330
1F
100
AcDbEntity
  8
0
100
AcDbLine
 10
-19.329249
 20
53.05595709648457
 30
0.0
 11
-18.855861
 21
42.85359009648459
 31
0.0
  0
LINE
  5
550A
330
1F
100
AcDbEntity
  8
0
100
AcDbLine
 10
-16.38682600000004
 20
52.97731209648464
 30
0.0
 11
-15.90297199999997
 21
42.54938209648457
 31
0.0
  0
SPLINE
  5
550B
330
1F
100
AcDbEntity
  8
0
100
AcDbSpline
210
0.0
220
0.0
230
1.0
 70
     8
 71
     3
 72
    11
 73
     7
 74
     5
 42
0.0000000001
 43
0.0000000001
 44
0.0000000001
 40
0.0
 40
0.0
 40
0.0
 40
0.0
 40
0.0044537438184263
 40
0.0089089521188611
 40
0.0133631916723689
 40
0.0178179278037547
 40
0.0178179278037547
 40
0.0178179278037547
 40
0.0178179278037547
 10
-14.602193
 20
57.82163909648454
 30
0.0
 10
-14.60256051509954
 20
57.82307746859628
 30
0.0
 10
-14.6032956661451
 20
57.82595468578589
 30
0.0
 10
-14.6044011022545
 20
57.83026973696065
 30
0.0
 10
-14.60550552633792
 20
57.83458538875823
 30
0.0
 10
-14.60624382839524
 20
57.83746180713286
 30
0.0
 10
-14.60661300000003
 20
57.83890009648462
 30
0.0
 11
-14.602193
 21
57.82163909648454
 31
0.0
 11
-14.603296
 21
57.82595409648457
 31
0.0
 11
-14.60440100000005
 21
57.83027009648458
 31
0.0
 11
-14.60550599999999
 21
57.8345850964846
 31
0.0
 11
-14.60661300000003
 21
57.83890009648462
 31
0.0
  0
LINE
  5
550C
330
1F
100
AcDbEntity
  8
0
100
AcDbLine
 10
-14.55378200000001
 20
58.00603009648455
 30
0.0
 11
-3.928598000000079
 21
57.78265609648451
 31
0.0
  0
LINE
  5
550D
330
1F
100
AcDbEntity
  8
0
100
AcDbLine
 10
-14.60661300000003
 20
57.83890009648462
 30
0.0
 11
-4.125765999999998
 21
57.61856109648454
 31
0.0
  0
LINE
  5
550E
330
1F
100
AcDbEntity
  8
0
100
AcDbLine
 10
-16.61504300000001
 20
57.86395509648457
 30
0.0
 11
-14.602193
 21
57.82163909648454
 31
0.0
  0
LINE
  5
550F
330
1F
100
AcDbEntity
  8
0
100
AcDbLine
 10
-14.55378200000001
 20
58.00603009648455
 30
0.0
 11
-14.60661300000003
 21
57.83890009648462
 31
0.0
  0
SPLINE
  5
5510
330
1F
100
AcDbEntity
  8
0
100
AcDbSpline
210
0.0
220
0.0
230
1.0
 70
     8
 71
     3
 72
    11
 73
     7
 74
     5
 42
0.0000000001
 43
0.0000000001
 44
0.0000000001
 40
0.0
 40
0.0
 40
0.0
 40
0.0
 40
0.6064687981957514
 40
1.081292507016174
 40
1.40022470973334
 40
1.595249199769803
 40
1.595249199769803
 40
1.595249199769803
 40
1.595249199769803
 10
-11.75576699999999
 20
53.0481110964846
 30
0.0
 10
-11.95927019120321
 20
53.05990511447902
 30
0.0
 10
-12.32210250253821
 20
53.08093304423059
 30
0.0
 10
-12.76726509646689
 20
53.16289961855876
 30
0.0
 10
-13.1200505681557
 20
53.24636001963465
 30
0.0
 10
-13.19375596688851
 20
53.40864203992929
 30
0.0
 10
-13.22172399999999
 20
53.47022109648458
 30
0.0
 11
-11.75576699999999
 21
53.0481110964846
 31
0.0
 11
-12.36027899999999
 21
53.09679009648459
 31
0.0
 11
-12.82786599999997
 21
53.1793730964846
 31
0.0
 11
-13.12202899999999
 21
53.30260409648463
 31
0.0
 11
-13.22172399999999
 21
53.47022109648458
 31
0.0
  0
SPLINE
  5
5511
330
1F
100
AcDbEntity
  8
0
100
AcDbSpline
210
0.0
220
0.0
230
1.0
 70
     8
 71
     3
 72
    11
 73
     7
 74
     5
 42
0.0000000001
 43
0.0000000001
 44
0.0000000001
 40
0.0
 40
0.0
 40
0.0
 40
0.0
 40
0.3997836009454979
 40
1.053196590930431
 40
1.975231531727146
 40
3.039655097374337
 40
3.039655097374337
 40
3.039655097374337
 40
3.039655097374337
 10
-8.021724000000062
 20
53.79280509648459
 30
0.0
 10
-8.080736267096991
 20
53.66746895228207
 30
0.0
 10
-8.236199168483073
 20
53.33728132206847
 30
0.0
 10
-8.942287235000051
 20
53.17534929904764
 30
0.0
 10
-9.786958785103315
 20
53.04602336299207
 30
0.0
 10
-10.4542192653435
 20
53.03441976586416
 30
0.0
 10
-10.81176400000003
 20
53.02820209648462
 30
0.0
 11
-8.021724000000062
 21
53.79280509648459
 31
0.0
 11
-8.230607999999961
 21
53.4519320964846
 31
0.0
 11
-8.83609899999999
 21
53.20631209648457
 31
0.0
 11
-9.748220000000003
 21
53.07146509648465
 31
0.0
 11
-10.81176400000003
 21
53.02820209648462
 31
0.0
  0
SPLINE
  5
5512
330
1F
100
AcDbEntity
  8
0
100
AcDbSpline
210
0.0
220
0.0
230
1.0
 70
     8
 71
     3
 72
    11
 73
     7
 74
     5
 42
0.0000000001
 43
0.0000000001
 44
0.0000000001
 40
0.0
 40
0.0
 40
0.0
 40
0.0
 40
0.2030563352077505
 40
0.5163420215006367
 40
0.9442551238765579
 40
1.469714311317453
 40
1.469714311317453
 40
1.469714311317453
 40
1.469714311317453
 10
-13.22172399999999
 20
53.47022109648458
 30
0.0
 10
-13.19972972990526
 20
53.53554066270423
 30
0.0
 10
-13.14380157641759
 20
53.70163859228078
 30
0.0
 10
-12.87839821214056
 20
53.89623731288377
 30
0.0
 10
-12.52313479316923
 20
54.11606088902466
 30
0.0
 10
-12.22803741285098
 20
54.23801697174376
 30
0.0
 10
-12.06539199999997
 20
54.30523409648458
 30
0.0
 11
-13.22172399999999
 21
53.47022109648458
 31
0.0
 11
-13.14194600000001
 21
53.6569490964846
 31
0.0
 11
-12.91069600000003
 21
53.86830509648461
 31
0.0
 11
-12.544913
 21
54.09036909648455
 31
0.0
 11
-12.06539199999997
 21
54.30523409648458
 31
0.0
  0
SPLINE
  5
5513
330
1F
100
AcDbEntity
  8
0
100
AcDbSpline
210
0.0
220
0.0
230
1.0
 70
     8
 71
     3
 72
    11
 73
     7
 74
     5
 42
0.0000000001
 43
0.0000000001
 44
0.0000000001
 40
0.0
 40
0.0
 40
0.0
 40
0.0
 40
1.356101042259355
 40
2.732987623933346
 40
3.790043265195948
 40
4.401853662986773
 40
4.401853662986773
 40
4.401853662986773
 40
4.401853662986773
 10
-12.06539199999997
 20
54.30523409648458
 30
0.0
 10
-11.62944496155218
 20
54.44201545423723
 30
0.0
 10
-10.75086893835027
 20
54.71767467598665
 30
0.0
 10
-9.502752826407775
 20
54.69651053055005
 30
0.0
 10
-8.413560204774032
 20
54.47279919864483
 30
0.0
 10
-8.126837316575262
 20
53.97521916251218
 30
0.0
 10
-8.021724000000062
 20
53.79280509648459
 30
0.0
 11
-12.06539199999997
 21
54.30523409648458
 31
0.0
 11
-10.752273
 21
54.64395009648455
 31
0.0
 11
-9.375388000000043
 21
54.6418630964846
 31
0.0
 11
-8.378737999999998
 21
54.28964809648459
 31
0.0
 11
-8.021724000000062
 21
53.79280509648459
 31
0.0
  0
ELLIPSE
  5
5514
330
1F
100
AcDbEntity
  8
0
100
AcDbEllipse
 10
-14.85172499999998
 20
42.85720109648457
 30
0.0
 11
4.004163250131999
 21
0.002450548215
 31
0.0
210
0.0
220
0.0
230
1.0
 40
0.07950373661019
 41
3.145232044052919
 42
4.446688810665579
  0
LINE
  5
5515
330
1F
100
AcDbEntity
  8
0
100
AcDbLine
 10
-22.50295400000004
 20
41.0422590964846
 30
0.0
 11
-1.867556000000035
 21
40.60844009648462
 31
0.0
  0
LINE
  5
5516
330
1F
100
AcDbEntity
  8
0
100
AcDbLine
 10
-15.90297199999997
 20
42.54938209648457
 30
0.0
 11
-1.994531000000051
 21
42.25698409648453
 31
0.0
  0
LINE
  5
5517
330
1F
100
AcDbEntity
  8
0
100
AcDbLine
 10
-0.9494980000000623
 20
40.9627830964846
 30
0.0
 11
-0.9494980000000623
 21
58.47331209648451
 31
0.0
  0
LINE
  5
5518
330
1F
100
AcDbEntity
  8
0
100
AcDbLine
 10
-1.091098999999985
 20
40.83579709648461
 30
0.0
 11
-1.091098999999985
 21
55.7895570964846
 31
0.0
  0
LINE
  5
5519
330
1F
100
AcDbEntity
  8
0
100
AcDbLine
 10
-1.867556000000035
 20
55.56220009648462
 30
0.0
 11
-1.867556000000035
 21
40.60844009648462
 31
0.0
  0
LINE
  5
551A
330
1F
100
AcDbEntity
  8
0
100
AcDbLine
 10
-0.9494980000000623
 20
40.9627830964846
 30
0.0
 11
-1.091098999999985
 21
40.83579709648461
 31
0.0
  0
LINE
  5
551B
330
1F
100
AcDbEntity
  8
0
100
AcDbLine
 10
-1.867556000000035
 20
40.60844009648462
 30
0.0
 11
-1.091098999999985
 21
40.83579709648461
 31
0.0
  0
LINE
  5
551C
330
1F
100
AcDbEntity
  8
0
100
AcDbLine
 10
-1.994531000000051
 20
57.55658709648457
 30
0.0
 11
-1.994531000000051
 21
52.84298209648454
 31
0.0
  0
LINE
  5
551D
330
1F
100
AcDbEntity
  8
0
100
AcDbLine
 10
-1.994531000000051
 20
52.84298209648454
 30
0.0
 11
-1.994531000000051
 21
52.67474209648458
 31
0.0
  0
LINE
  5
551E
330
1F
100
AcDbEntity
  8
0
100
AcDbLine
 10
-1.994531000000051
 20
52.67474209648458
 30
0.0
 11
-1.994531000000051
 21
42.25698409648453
 31
0.0
  0
LINE
  5
551F
330
1F
100
AcDbEntity
  8
0
100
AcDbLine
 10
-0.9583480000000008
 20
55.9086070964845
 30
0.0
 11
-0.9583480000000008
 21
58.45632009648454
 31
0.0
  0
LINE
  5
5520
330
1F
100
AcDbEntity
  8
0
100
AcDbLine
 10
-1.994531000000051
 20
56.46680009648457
 30
0.0
 11
-0.0039319999999634
 21
60.28884209648459
 31
0.0
  0
LINE
  5
5521
330
1F
100
AcDbEntity
  8
0
100
AcDbLine
 10
-1.994531000000051
 20
55.93039109648453
 30
0.0
 11
-0.9583480000000008
 21
55.9086070964845
 31
0.0
  0
LINE
  5
5522
330
1F
100
AcDbEntity
  8
0
100
AcDbLine
 10
-1.091098999999985
 20
55.7895570964846
 30
0.0
 11
-0.9583480000000008
 21
55.9086070964845
 31
0.0
  0
LINE
  5
5523
330
1F
100
AcDbEntity
  8
0
100
AcDbLine
 10
-1.091098999999985
 20
55.7895570964846
 30
0.0
 11
-1.867556000000035
 21
55.56220009648462
 31
0.0
  0
LINE
  5
5524
330
1F
100
AcDbEntity
  8
0
100
AcDbLine
 10
-1.994531000000051
 20
55.56487009648458
 30
0.0
 11
-1.867556000000035
 21
55.56220009648462
 31
0.0
  0
SPLINE
  5
5525
330
1F
100
AcDbEntity
  8
0
100
AcDbSpline
210
0.0
220
0.0
230
1.0
 70
     8
 71
     3
 72
    11
 73
     7
 74
     5
 42
0.0000000001
 43
0.0000000001
 44
0.0000000001
 40
0.0
 40
0.0
 40
0.0
 40
0.0
 40
0.0053654454614532
 40
0.0107302738837421
 40
0.0160952724856879
 40
0.0214608879210855
 40
0.0214608879210855
 40
0.0214608879210855
 40
0.0214608879210855
 10
-4.139005999999994
 20
57.60167109648455
 30
0.0
 10
-4.137902308036142
 20
57.60307840997194
 30
0.0
 10
-4.135695051035675
 20
57.60589287510227
 30
0.0
 10
-4.132384649285428
 20
57.61011489369528
 30
0.0
 10
-4.129076106995223
 20
57.61433844156589
 30
0.0
 10
-4.126869411281285
 20
57.61715349090536
 30
0.0
 10
-4.125765999999998
 20
57.61856109648454
 30
0.0
 11
-4.139005999999994
 21
57.60167109648455
 31
0.0
 11
-4.135695000000055
 21
57.60589309648458
 31
0.0
 11
-4.132384999999999
 21
57.61011509648461
 31
0.0
 11
-4.129076000000054
 21
57.61433809648451
 31
0.0
 11
-4.125765999999998
 21
57.61856109648454
 31
0.0
  0
LINE
  5
5526
330
1F
100
AcDbEntity
  8
0
100
AcDbLine
 10
-4.139005999999994
 20
57.60167109648455
 30
0.0
 11
-1.994531000000051
 21
57.55658709648457
 31
0.0
  0
LINE
  5
5527
330
1F
100
AcDbEntity
  8
0
100
AcDbLine
 10
-3.928598000000079
 20
57.78265609648451
 30
0.0
 11
-4.125765999999998
 21
57.61856109648454
 31
0.0
  0
LINE
  5
5528
330
1F
100
AcDbEntity
  8
0
100
AcDbLine
 10
-4.032315000000039
 20
57.59942809648453
 30
0.0
 11
-3.928598000000079
 21
57.78265609648451
 31
0.0
  0
ELLIPSE
  5
555B
330
1F
100
AcDbEntity
  8
0
100
AcDbEllipse
 10
-0.772738000000004
 20
-61.70246609648462
 30
0.0
 11
-0.22481131597
 21
-0.7677629010390001
 31
0.0
210
0.0
220
0.0
230
-1.0
 40
0.9629487499999999
 41
4.414283443712509
 42
6.179975573459709
  0
LINE
  5
555C
330
1F
100
AcDbEntity
  8
0
100
AcDbLine
 10
-17.58720800000003
 20
-62.24796409648456
 30
0.0
 11
-0.9220209999999724
 21
-62.49824409648454
 31
0.0
  0
LINE
  5
555D
330
1F
100
AcDbEntity
  8
AM_11
100
AcDbLine
 10
-0.7727379999997766
 20
-62.5
 30
0.0
 11
0.0
 21
-62.5
 31
0.0
  0
ELLIPSE
  5
555E
330
1F
100
AcDbEntity
  8
0
100
AcDbEllipse
 10
-18.37541899999996
 20
-60.87863709648456
 30
0.0
 11
-0.22481131597
 21
-0.7677629010390001
 31
0.0
210
0.0
220
0.0
230
-1.0
 40
0.9629487499999999
 41
0.225493268330497
 42
1.99118549412694
  0
LINE
  5
555F
330
1F
100
AcDbEntity
  8
0
100
AcDbLine
 10
-17.58720800000003
 20
-62.24796409648456
 30
0.0
 11
-18.75983999999999
 21
-61.57856009648458
 31
0.0
  0
LINE
  5
5560
330
1F
100
AcDbEntity
  8
0
100
AcDbLine
 10
-28.00295400000004
 20
-56.74807409648463
 30
0.0
 11
-18.76440999999999
 21
-60.0242940964846
 31
0.0
  0
LINE
  5
5561
330
1F
100
AcDbEntity
  8
0
100
AcDbLine
 10
-18.96588300000002
 20
-60.36129909648457
 30
0.0
 11
-16.88989300000002
 21
-56.88878109648453
 31
0.0
  0
LINE
  5
5562
330
1F
100
AcDbEntity
  8
0
100
AcDbLine
 10
-28.00295400000004
 20
-56.74807409648463
 30
0.0
 11
-28.00295400000004
 21
-50.13014209648464
 31
0.0
  0
LINE
  5
5563
330
1F
100
AcDbEntity
  8
0
100
AcDbLine
 10
-22.50295400000004
 20
-50.01451509648461
 30
0.0
 11
-28.00295400000004
 21
-50.13014209648464
 31
0.0
  0
LINE
  5
5564
330
1F
100
AcDbEntity
  8
0
100
AcDbLine
 10
-22.50295400000004
 20
-50.01451509648461
 30
0.0
 11
-22.50295400000004
 21
-41.0422590964846
 31
0.0
  0
ELLIPSE
  5
5565
330
1F
100
AcDbEntity
  8
0
100
AcDbEllipse
 10
-14.85172499999998
 20
-42.85720109648457
 30
0.0
 11
4.004163250131999
 21
-0.002450548215
 31
0.0
210
0.0
220
0.0
230
-1.0
 40
0.07950373661019
 41
3.145232044052919
 42
4.446688810665579
  0
LINE
  5
5566
330
1F
100
AcDbEntity
  8
0
100
AcDbLine
 10
-15.90297199999997
 20
-42.54938209648457
 30
0.0
 11
-1.994531000000051
 21
-42.25698409648453
 31
0.0
  0
LINE
  5
5567
330
1F
100
AcDbEntity
  8
0
100
AcDbLine
 10
-22.50295400000004
 20
-41.0422590964846
 30
0.0
 11
-1.867556000000035
 21
-40.60844009648462
 31
0.0
  0
LINE
  5
5568
330
1F
100
AcDbEntity
  8
0
100
AcDbLine
 10
-16.38682600000004
 20
-52.97731209648464
 30
0.0
 11
-15.90297199999997
 21
-42.54938209648457
 31
0.0
  0
LINE
  5
5569
330
1F
100
AcDbEntity
  8
0
100
AcDbLine
 10
-19.329249
 20
-53.05595709648457
 30
0.0
 11
-18.855861
 21
-42.85359009648459
 31
0.0
  0
LINE
  5
556A
330
1F
100
AcDbEntity
  8
0
100
AcDbLine
 10
-0.9494980000000623
 20
-40.9627830964846
 30
0.0
 11
-0.9494980000000623
 21
-58.47331209648451
 31
0.0
  0
LINE
  5
556B
330
1F
100
AcDbEntity
  8
0
100
AcDbLine
 10
-1.867556000000035
 20
-55.56220009648462
 30
0.0
 11
-1.867556000000035
 21
-40.60844009648462
 31
0.0
  0
LINE
  5
556C
330
1F
100
AcDbEntity
  8
0
100
AcDbLine
 10
-1.091098999999985
 20
-40.83579709648461
 30
0.0
 11
-1.091098999999985
 21
-55.7895570964846
 31
0.0
  0
LINE
  5
556D
330
1F
100
AcDbEntity
  8
0
100
AcDbLine
 10
-1.867556000000035
 20
-40.60844009648462
 30
0.0
 11
-1.091098999999985
 21
-40.83579709648461
 31
0.0
  0
LINE
  5
556E
330
1F
100
AcDbEntity
  8
0
100
AcDbLine
 10
-0.9494980000000623
 20
-40.9627830964846
 30
0.0
 11
-1.091098999999985
 21
-40.83579709648461
 31
0.0
  0
LINE
  5
556F
330
1F
100
AcDbEntity
  8
0
100
AcDbLine
 10
-1.994531000000051
 20
-52.67474209648458
 30
0.0
 11
-1.994531000000051
 21
-42.25698409648453
 31
0.0
  0
LINE
  5
5570
330
1F
100
AcDbEntity
  8
0
100
AcDbLine
 10
-1.994531000000051
 20
-56.46680009648457
 30
0.0
 11
-0.0039319999999634
 21
-60.28884209648459
 31
0.0
  0
LINE
  5
5571
330
1F
100
AcDbEntity
  8
0
100
AcDbLine
 10
-0.9583480000000008
 20
-55.9086070964845
 30
0.0
 11
-0.9583480000000008
 21
-58.45632009648454
 31
0.0
  0
LINE
  5
5572
330
1F
100
AcDbEntity
  8
0
100
AcDbLine
 10
-1.091098999999985
 20
-55.7895570964846
 30
0.0
 11
-1.867556000000035
 21
-55.56220009648462
 31
0.0
  0
LINE
  5
5573
330
1F
100
AcDbEntity
  8
0
100
AcDbLine
 10
-1.091098999999985
 20
-55.7895570964846
 30
0.0
 11
-0.9583480000000008
 21
-55.9086070964845
 31
0.0
  0
LINE
  5
5574
330
1F
100
AcDbEntity
  8
0
100
AcDbLine
 10
-1.994531000000051
 20
-55.93039109648453
 30
0.0
 11
-0.9583480000000008
 21
-55.9086070964845
 31
0.0
  0
LINE
  5
5575
330
1F
100
AcDbEntity
  8
0
100
AcDbLine
 10
-1.994531000000051
 20
-55.56487009648458
 30
0.0
 11
-1.867556000000035
 21
-55.56220009648462
 31
0.0
  0
LINE
  5
5576
330
1F
100
AcDbEntity
  8
0
100
AcDbLine
 10
-1.994531000000051
 20
-57.55658709648457
 30
0.0
 11
-1.994531000000051
 21
-52.84298209648454
 31
0.0
  0
LINE
  5
5577
330
1F
100
AcDbEntity
  8
0
100
AcDbLine
 10
-4.139005999999994
 20
-57.60167109648455
 30
0.0
 11
-1.994531000000051
 21
-57.55658709648457
 31
0.0
  0
SPLINE
  5
5578
330
1F
100
AcDbEntity
  8
0
100
AcDbSpline
210
0.0
220
0.0
230
1.0
 70
     8
 71
     3
 72
    11
 73
     7
 74
     5
 42
0.0000000001
 43
0.0000000001
 44
0.0000000001
 40
0.0
 40
0.0
 40
0.0
 40
0.0
 40
0.0053654454614532
 40
0.0107302738837421
 40
0.0160952724856879
 40
0.0214608879210855
 40
0.0214608879210855
 40
0.0214608879210855
 40
0.0214608879210855
 10
-4.139005999999994
 20
-57.60167109648455
 30
0.0
 10
-4.137902308036142
 20
-57.60307840997194
 30
0.0
 10
-4.135695051035675
 20
-57.60589287510227
 30
0.0
 10
-4.132384649285428
 20
-57.61011489369528
 30
0.0
 10
-4.129076106995223
 20
-57.61433844156589
 30
0.0
 10
-4.126869411281285
 20
-57.61715349090536
 30
0.0
 10
-4.125765999999998
 20
-57.61856109648454
 30
0.0
 11
-4.139005999999994
 21
-57.60167109648455
 31
0.0
 11
-4.135695000000055
 21
-57.60589309648458
 31
0.0
 11
-4.132384999999999
 21
-57.61011509648461
 31
0.0
 11
-4.129076000000054
 21
-57.61433809648451
 31
0.0
 11
-4.125765999999998
 21
-57.61856109648454
 31
0.0
  0
SPLINE
  5
5579
330
1F
100
AcDbEntity
  8
0
100
AcDbSpline
210
0.0
220
0.0
230
1.0
 70
     8
 71
     3
 72
    11
 73
     7
 74
     5
 42
0.0000000001
 43
0.0000000001
 44
0.0000000001
 40
0.0
 40
0.0
 40
0.0
 40
0.0
 40
1.356101042259355
 40
2.732987623933346
 40
3.790043265195948
 40
4.401853662986773
 40
4.401853662986773
 40
4.401853662986773
 40
4.401853662986773
 10
-12.06539199999997
 20
-54.30523409648458
 30
0.0
 10
-11.62944496155218
 20
-54.44201545423723
 30
0.0
 10
-10.75086893835027
 20
-54.71767467598665
 30
0.0
 10
-9.502752826407775
 20
-54.69651053055005
 30
0.0
 10
-8.413560204774032
 20
-54.47279919864483
 30
0.0
 10
-8.126837316575262
 20
-53.97521916251218
 30
0.0
 10
-8.021724000000062
 20
-53.79280509648459
 30
0.0
 11
-12.06539199999997
 21
-54.30523409648458
 31
0.0
 11
-10.752273
 21
-54.64395009648455
 31
0.0
 11
-9.375388000000043
 21
-54.6418630964846
 31
0.0
 11
-8.378737999999998
 21
-54.28964809648459
 31
0.0
 11
-8.021724000000062
 21
-53.79280509648459
 31
0.0
  0
SPLINE
  5
557A
330
1F
100
AcDbEntity
  8
0
100
AcDbSpline
210
0.0
220
0.0
230
1.0
 70
     8
 71
     3
 72
    11
 73
     7
 74
     5
 42
0.0000000001
 43
0.0000000001
 44
0.0000000001
 40
0.0
 40
0.0
 40
0.0
 40
0.0
 40
0.2030563352077505
 40
0.5163420215006367
 40
0.9442551238765579
 40
1.469714311317453
 40
1.469714311317453
 40
1.469714311317453
 40
1.469714311317453
 10
-13.22172399999999
 20
-53.47022109648458
 30
0.0
 10
-13.19972972990526
 20
-53.53554066270423
 30
0.0
 10
-13.14380157641759
 20
-53.70163859228078
 30
0.0
 10
-12.87839821214056
 20
-53.89623731288377
 30
0.0
 10
-12.52313479316923
 20
-54.11606088902466
 30
0.0
 10
-12.22803741285098
 20
-54.23801697174376
 30
0.0
 10
-12.06539199999997
 20
-54.30523409648458
 30
0.0
 11
-13.22172399999999
 21
-53.47022109648458
 31
0.0
 11
-13.14194600000001
 21
-53.6569490964846
 31
0.0
 11
-12.91069600000003
 21
-53.86830509648461
 31
0.0
 11
-12.544913
 21
-54.09036909648455
 31
0.0
 11
-12.06539199999997
 21
-54.30523409648458
 31
0.0
  0
SPLINE
  5
557B
330
1F
100
AcDbEntity
  8
0
100
AcDbSpline
210
0.0
220
0.0
230
1.0
 70
     8
 71
     3
 72
    11
 73
     7
 74
     5
 42
0.0000000001
 43
0.0000000001
 44
0.0000000001
 40
0.0
 40
0.0
 40
0.0
 40
0.0
 40
0.3997836009454979
 40
1.053196590930431
 40
1.975231531727146
 40
3.039655097374337
 40
3.039655097374337
 40
3.039655097374337
 40
3.039655097374337
 10
-8.021724000000062
 20
-53.79280509648459
 30
0.0
 10
-8.080736267096991
 20
-53.66746895228207
 30
0.0
 10
-8.236199168483073
 20
-53.33728132206847
 30
0.0
 10
-8.942287235000051
 20
-53.17534929904764
 30
0.0
 10
-9.786958785103315
 20
-53.04602336299207
 30
0.0
 10
-10.4542192653435
 20
-53.03441976586416
 30
0.0
 10
-10.81176400000003
 20
-53.02820209648462
 30
0.0
 11
-8.021724000000062
 21
-53.79280509648459
 31
0.0
 11
-8.230607999999961
 21
-53.4519320964846
 31
0.0
 11
-8.83609899999999
 21
-53.20631209648457
 31
0.0
 11
-9.748220000000003
 21
-53.07146509648465
 31
0.0
 11
-10.81176400000003
 21
-53.02820209648462
 31
0.0
  0
SPLINE
  5
557C
330
1F
100
AcDbEntity
  8
0
100
AcDbSpline
210
0.0
220
0.0
230
1.0
 70
     8
 71
     3
 72
    11
 73
     7
 74
     5
 42
0.0000000001
 43
0.0000000001
 44
0.0000000001
 40
0.0
 40
0.0
 40
0.0
 40
0.0
 40
0.6064687981957514
 40
1.081292507016174
 40
1.40022470973334
 40
1.595249199769803
 40
1.595249199769803
 40
1.595249199769803
 40
1.595249199769803
 10
-11.75576699999999
 20
-53.0481110964846
 30
0.0
 10
-11.95927019120321
 20
-53.05990511447902
 30
0.0
 10
-12.32210250253821
 20
-53.08093304423059
 30
0.0
 10
-12.76726509646689
 20
-53.16289961855876
 30
0.0
 10
-13.1200505681557
 20
-53.24636001963465
 30
0.0
 10
-13.19375596688851
 20
-53.40864203992929
 30
0.0
 10
-13.22172399999999
 20
-53.47022109648458
 30
0.0
 11
-11.75576699999999
 21
-53.0481110964846
 31
0.0
 11
-12.36027899999999
 21
-53.09679009648459
 31
0.0
 11
-12.82786599999997
 21
-53.1793730964846
 31
0.0
 11
-13.12202899999999
 21
-53.30260409648463
 31
0.0
 11
-13.22172399999999
 21
-53.47022109648458
 31
0.0
  0
SPLINE
  5
557D
330
1F
100
AcDbEntity
  8
0
100
AcDbSpline
210
0.0
220
0.0
230
1.0
 70
     8
 71
     3
 72
    11
 73
     7
 74
     5
 42
0.0000000001
 43
0.0000000001
 44
0.0000000001
 40
0.0
 40
0.0
 40
0.0
 40
0.0
 40
0.0044537438184263
 40
0.0089089521188611
 40
0.0133631916723689
 40
0.0178179278037547
 40
0.0178179278037547
 40
0.0178179278037547
 40
0.0178179278037547
 10
-14.602193
 20
-57.82163909648454
 30
0.0
 10
-14.60256051509954
 20
-57.82307746859628
 30
0.0
 10
-14.6032956661451
 20
-57.82595468578589
 30
0.0
 10
-14.6044011022545
 20
-57.83026973696065
 30
0.0
 10
-14.60550552633792
 20
-57.83458538875823
 30
0.0
 10
-14.60624382839524
 20
-57.83746180713286
 30
0.0
 10
-14.60661300000003
 20
-57.83890009648462
 30
0.0
 11
-14.602193
 21
-57.82163909648454
 31
0.0
 11
-14.603296
 21
-57.82595409648457
 31
0.0
 11
-14.60440100000005
 21
-57.83027009648458
 31
0.0
 11
-14.60550599999999
 21
-57.8345850964846
 31
0.0
 11
-14.60661300000003
 21
-57.83890009648462
 31
0.0
  0
SPLINE
  5
557E
330
1F
100
AcDbEntity
  8
0
100
AcDbSpline
210
0.0
220
0.0
230
1.0
 70
     8
 71
     3
 72
    11
 73
     7
 74
     5
 42
0.0000000001
 43
0.0000000001
 44
0.0000000001
 40
0.0
 40
0.0
 40
0.0
 40
0.0
 40
0.1301237046583035
 40
0.3760882034828366
 40
0.731080503671149
 40
1.186841671526647
 40
1.186841671526647
 40
1.186841671526647
 40
1.186841671526647
 10
-19.308356
 20
-53.05024609648455
 30
0.0
 10
-19.26510635200395
 20
-53.05365378936721
 30
0.0
 10
-19.14010466642474
 20
-53.06350282569477
 30
0.0
 10
-18.89896327384136
 20
-53.0996000038849
 30
0.0
 10
-18.54932879024682
 20
-53.14238461304495
 30
0.0
 10
-18.28026238649258
 20
-53.1678582268428
 30
0.0
 10
-18.12900799999999
 20
-53.18217809648456
 30
0.0
 11
-19.308356
 21
-53.05024609648455
 31
0.0
 11
-19.17872099999999
 21
-53.06151309648453
 31
0.0
 11
-18.93482199999999
 21
-53.09332209648459
 31
0.0
 11
-18.582514
 21
-53.13689509648452
 31
0.0
 11
-18.12900799999999
 21
-53.18217809648456
 31
0.0
  0
ELLIPSE
  5
557F
330
1F
100
AcDbEntity
  8
0
100
AcDbEllipse
 10
-19.25571200000001
 20
-68.05245409648455
 30
0.0
 11
0.31528168264
 21
-14.99668621598099
 31
0.0
210
0.0
220
0.0
230
-1.0
 40
0.2580212
 41
3.240362518333309
 42
3.97090545680866
  0
ELLIPSE
  5
5580
330
1F
100
AcDbEntity
  8
0
100
AcDbEllipse
 10
-15.38300600000002
 20
-54.30727109648455
 30
0.0
 11
3.990881754126006
 21
-0.2863286995530003
 31
0.0
210
0.0
220
0.0
230
-1.0
 40
0.32607056988758
 41
3.930434247791799
 42
4.43481113636778
  0
LINE
  5
5581
330
1F
100
AcDbEntity
  8
0
100
AcDbLine
 10
-14.60661300000003
 20
-57.83890009648462
 30
0.0
 11
-4.125765999999998
 21
-57.61856109648454
 31
0.0
  0
LINE
  5
5582
330
1F
100
AcDbEntity
  8
0
100
AcDbLine
 10
-14.55378200000001
 20
-58.00603009648455
 30
0.0
 11
-3.928598000000079
 21
-57.78265609648451
 31
0.0
  0
LINE
  5
5583
330
1F
100
AcDbEntity
  8
0
100
AcDbLine
 10
-16.38682600000004
 20
-52.97731209648464
 30
0.0
 11
-1.994531000000051
 21
-52.67474209648458
 31
0.0
  0
LINE
  5
5584
330
1F
100
AcDbEntity
  8
0
100
AcDbLine
 10
-1.994531000000051
 20
-52.84298209648454
 30
0.0
 11
-18.12900799999999
 21
-53.18217809648456
 31
0.0
  0
LINE
  5
5585
330
1F
100
AcDbEntity
  8
0
100
AcDbLine
 10
-16.61504300000001
 20
-57.86395509648457
 30
0.0
 11
-14.602193
 21
-57.82163909648454
 31
0.0
  0
LINE
  5
5586
330
1F
100
AcDbEntity
  8
0
100
AcDbLine
 10
-14.55378200000001
 20
-58.00603009648455
 30
0.0
 11
-14.60661300000003
 21
-57.83890009648462
 31
0.0
  0
LINE
  5
5587
330
1F
100
AcDbEntity
  8
0
100
AcDbLine
 10
-4.032315000000039
 20
-57.59942809648453
 30
0.0
 11
-3.928598000000079
 21
-57.78265609648451
 31
0.0
  0
LINE
  5
5588
330
1F
100
AcDbEntity
  8
0
100
AcDbLine
 10
-3.928598000000079
 20
-57.78265609648451
 30
0.0
 11
-4.125765999999998
 21
-57.61856109648454
 31
0.0
  0
SPLINE
  5
5589
330
1F
100
AcDbEntity
  8
0
100
AcDbSpline
210
0.0
220
0.0
230
1.0
 70
     8
 71
     3
 72
    11
 73
     7
 74
     5
 42
0.0000000001
 43
0.0000000001
 44
0.0000000001
 40
0.0
 40
0.0
 40
0.0
 40
0.0
 40
0.0663061719072799
 40
0.1143280214863856
 40
0.1441303157773307
 40
0.1567561104056881
 40
0.1567561104056881
 40
0.1567561104056881
 40
0.1567561104056881
 10
-19.18789000000003
 20
-53.12083509648459
 30
0.0
 10
-19.20877008682271
 20
-53.11337534491994
 30
0.0
 10
-19.24477245200583
 20
-53.10051291277172
 30
0.0
 10
-19.28814602778834
 20
-53.08110149109754
 30
0.0
 10
-19.3173742218741
 20
-53.07015415162767
 30
0.0
 10
-19.32652492445256
 20
-53.0591937146641
 30
0.0
 10
-19.329248
 20
-53.05593209648463
 30
0.0
 11
-19.18789000000003
 21
-53.12083509648459
 31
0.0
 11
-19.24999300000001
 21
-53.09760309648459
 31
0.0
 11
-19.29428699999999
 21
-53.07905209648459
 31
0.0
 11
-19.32067500000005
 21
-53.06520109648454
 31
0.0
 11
-19.329248
 21
-53.05593209648463
 31
0.0
  0
SPLINE
  5
558A
330
1F
100
AcDbEntity
  8
0
100
AcDbSpline
210
0.0
220
0.0
230
1.0
 70
     8
 71
     3
 72
    11
 73
     7
 74
     5
 42
0.0000000001
 43
0.0000000001
 44
0.0000000001
 40
0.0
 40
0.0
 40
0.0
 40
0.0
 40
0.0027392708884189
 40
0.0070204853189581
 40
0.0136303210203603
 40
0.0226678924862084
 40
0.0226678924862084
 40
0.0226678924862084
 40
0.0226678924862084
 10
-19.329248
 20
-53.05593209648463
 30
0.0
 10
-19.32883810404592
 20
-53.05508030255516
 30
0.0
 10
-19.32778758051424
 20
-53.05289723741842
 30
0.0
 10
-19.32304042184414
 20
-53.05154578771715
 30
0.0
 10
-19.31663929169212
 20
-53.05052223113611
 30
0.0
 10
-19.311388647577
 20
-53.05034719386384
 30
0.0
 10
-19.308356
 20
-53.05024609648455
 30
0.0
 11
-19.329248
 21
-53.05593209648463
 31
0.0
 11
-19.327806
 21
-53.0536030964846
 31
0.0
 11
-19.32389699999998
 21
-53.05185709648458
 31
0.0
 11
-19.31737900000001
 21
-53.05075909648462
 31
0.0
 11
-19.308356
 21
-53.05024609648455
 31
0.0
  0
LINE
  5
558B
330
1F
100
AcDbEntity
  8
AM_0
100
AcDbLine
 10
-0.0000002039009246
 20
-61.68390035342317
 30
0.0
 11
-0.0039319999999634
 21
-60.28884209648459
 31
0.0
  0
LINE
  5
5636
330
1F
100
AcDbEntity
  8
AM_0
100
AcDbLine
 10
-22.63962789658792
 20
-58.65004439034485
 30
0.0
 11
-21.30335588573621
 21
-59.8997767283199
 31
0.0
  0
LINE
  5
5637
330
1F
100
AcDbEntity
  8
AM_0
100
AcDbLine
 10
-21.30335588573621
 20
-59.8997767283199
 30
0.0
 11
-19.46321709186909
 21
-59.77647953062624
 31
0.0
  0
ARC
  5
5638
330
1F
100
AcDbEntity
  8
AM_0
100
AcDbCircle
 10
-27.40000000000009
 20
-50.4
 30
0.0
 40
0.4
100
AcDbArc
 50
90.0
 51
136.2795157521055
  0
ARC
  5
563A
330
1F
100
AcDbEntity
  8
AM_0
100
AcDbCircle
 10
-23.19999999999993
 20
-50.4
 30
0.0
 40
0.4
100
AcDbArc
 50
69.1567543186088
 51
90.0
  0
LINE
  5
563B
330
1F
100
AcDbEntity
  8
AM_0
100
AcDbLine
 10
-2.708991095338205
 20
-36.49619469809178
 30
0.0
 11
-2.348331960439927
 21
-40.61854747344833
 31
0.0
  0
LINE
  5
563C
330
1F
100
AcDbEntity
  8
AM_0
100
AcDbLine
 10
-2.000000000000056
 20
-40.61122447329364
 30
0.0
 11
-2.000000000000056
 21
0.0
 31
0.0
  0
LINE
  5
563D
330
1F
100
AcDbEntity
  8
AM_0
100
AcDbLine
 10
-2.708991095338203
 20
36.49619469809181
 30
0.0
 11
-2.348331960439927
 21
40.61854747344833
 31
0.0
  0
LINE
  5
563E
330
1F
100
AcDbEntity
  8
AM_0
100
AcDbLine
 10
-2.000000000000056
 20
40.61122447329364
 30
0.0
 11
-2.000000000000028
 21
0.0
 31
0.0
  0
LINE
  5
563F
330
1F
100
AcDbEntity
  8
AM_0
100
AcDbLine
 10
-22.63962789659225
 20
58.65004439034332
 30
0.0
 11
-21.30335588573629
 21
59.89977672832222
 31
0.0
  0
LINE
  5
5640
330
1F
100
AcDbEntity
  8
AM_0
100
AcDbLine
 10
-21.30335588573629
 20
59.89977672832222
 30
0.0
 11
-19.46321709186405
 21
59.77647953062803
 31
0.0
  0
ARC
  5
5641
330
1F
100
AcDbEntity
  8
AM_0
100
AcDbCircle
 10
-27.40000000000009
 20
50.4
 30
0.0
 40
0.4
100
AcDbArc
 50
223.7204842478944
 51
270.0
  0
ARC
  5
5642
330
1F
100
AcDbEntity
  8
AM_0
100
AcDbCircle
 10
-23.19999999999993
 20
50.4
 30
0.0
 40
0.4
100
AcDbArc
 50
270.0
 51
290.8432456813912
  0
LINE
  5
5643
330
1F
100
AcDbEntity
  8
AM_0
100
AcDbLine
 10
-27.79999999999995
 20
57.39999999999991
 30
0.0
 11
-27.79999999999995
 21
56.82004668804021
 31
0.0
  0
DIMENSION
  5
5652
330
1F
100
AcDbEntity
  8
AM_5
100
AcDbDimension
  2
*D13
 10
0.0000000000000284
 20
-62.5
 30
0.0
 11
21.86604445480752
 21
-84.36604445480785
 31
0.0
 70
    34
  1
<>
  3
AM_JIS$2
100
AcDb2LineAngularDimension
 13
-0.7727379999997766
 23
-62.5
 33
0.0
 14
0.0
 24
-62.5
 34
0.0
 15
0.0
 25
61.68846823328653
 35
0.0
 16
17.0116283117209
 26
-91.96500455537801
 36
0.0
1001
ACAD
1000
DSTYLE
1002
{
1070
   179
1070
     3
1002
}
1001
GENIUS_GENDTOL_13
1000

1000
h7
1000

1040
0.0
  0
LINE
  5
5768
330
1F
100
AcDbEntity
  8
AM_3
100
AcDbLine
 10
-2.0
 20
57.60636902737555
 30
0.0
 11
-2.997762742842438
 21
58.67322341388478
 31
0.0
1001
GENIUS_GENFIL_13
1070
     0
1040
1.0
1040
1.0
1040
20.0
1040
0.0
1002
{
1002
}
1001
GENIUS_GENODEF_13
1002
{
1000
HIER
1070
     0
1002
}
1002
{
1000
MANEDIT
1070
     0
1002
}
1002
{
1000
NOSEL
1070
     0
1002
}
1002
{
1000
BEHIND
1070
     0
1002
}
1002
{
1000
REACTOR
1002
}
1001
GENIUS_GENOBJ-N-CHA_13
1002
{
1000
OWNER
1000
GEN
1002
}
  0
LINE
  5
576A
330
1F
100
AcDbEntity
  8
AM_0
100
AcDbLine
 10
-28.79999999999995
 20
58.39999999999992
 30
0.0
 11
-27.79999999999995
 21
57.39999999999991
 31
0.0
1001
GENIUS_GENFIL_13
1070
     0
1040
1.0
1040
1.0
1040
20.0
1040
0.0
1002
{
1002
}
1001
GENIUS_GENODEF_13
1002
{
1000
HIER
1070
     0
1002
}
1002
{
1000
MANEDIT
1070
     0
1002
}
1002
{
1000
NOSEL
1070
     0
1002
}
1002
{
1000
BEHIND
1070
     0
1002
}
1002
{
1000
REACTOR
1002
}
1001
GENIUS_GENOBJ-N-CHA_13
1002
{
1000
OWNER
1000
GEN
1002
}
  0
ARC
  5
576E
330
1F
100
AcDbEntity
  8
AM_0
100
AcDbCircle
 10
-46.46491911669046
 20
42.00000000000003
 30
0.0
 40
2.0
100
AcDbArc
 50
270.0
 51
345.0000000000002
1001
GENIUS_GENODEF_13
1002
{
1000
HIER
1070
     0
1002
}
1002
{
1000
MANEDIT
1070
     0
1002
}
1002
{
1000
NOSEL
1070
     0
1002
}
1002
{
1000
BEHIND
1070
     0
1002
}
1002
{
1000
REACTOR
1002
}
1001
GENIUS_GENOBJ-N-FIL_13
1002
{
1000
OWNER
1000
GEN
1002
}
  0
ARC
  5
5770
330
1F
100
AcDbEntity
  8
AM_0
100
AcDbCircle
 10
-38.46534602404203
 20
56.39999999999999
 30
0.0
 40
2.0
100
AcDbArc
 50
89.99999999999968
 51
165.0000000000002
1001
GENIUS_GENODEF_13
1002
{
1000
HIER
1070
     0
1002
}
1002
{
1000
MANEDIT
1070
     0
1002
}
1002
{
1000
NOSEL
1070
     0
1002
}
1002
{
1000
BEHIND
1070
     0
1002
}
1002
{
1000
REACTOR
1002
}
1001
GENIUS_GENOBJ-N-FIL_13
1002
{
1000
OWNER
1000
GEN
1002
}
  0
LINE
  5
5774
330
1F
100
AcDbEntity
  8
AM_0
100
AcDbLine
 10
-60.69999999999998
 20
40.00000000000002
 30
0.0
 11
-62.99999999999998
 21
37.70000000000003
 31
0.0
1001
GENIUS_GENFIL_13
1070
     0
1040
2.299999999999999
1040
2.299999999999999
1040
20.0
1040
0.0
1002
{
1002
}
1001
GENIUS_GENODEF_13
1002
{
1000
HIER
1070
     0
1002
}
1002
{
1000
MANEDIT
1070
     0
1002
}
1002
{
1000
NOSEL
1070
     0
1002
}
1002
{
1000
BEHIND
1070
     0
1002
}
1002
{
1000
REACTOR
1002
}
1001
GENIUS_GENOBJ-N-CHA_13
1002
{
1000
OWNER
1000
GEN
1002
}
  0
LINE
  5
5777
330
1F
100
AcDbEntity
  8
AM_0
100
AcDbLine
 10
-63.00000000000001
 20
21.85003270956086
 30
0.0
 11
-60.20000000000003
 21
19.05003270956086
 31
0.0
1001
GENIUS_GENFIL_13
1070
     0
1040
2.799999999999999
1040
2.799999999999999
1040
20.0
1040
0.0
1002
{
1002
}
1001
GENIUS_GENODEF_13
1002
{
1000
HIER
1070
     0
1002
}
1002
{
1000
MANEDIT
1070
     0
1002
}
1002
{
1000
NOSEL
1070
     0
1002
}
1002
{
1000
BEHIND
1070
     0
1002
}
1002
{
1000
REACTOR
1002
}
1001
GENIUS_GENOBJ-N-CHA_13
1002
{
1000
OWNER
1000
GEN
1002
}
  0
LINE
  5
577A
330
1F
100
AcDbEntity
  8
AM_0
100
AcDbLine
 10
-61.70000000000003
 20
7.950000000000017
 30
0.0
 11
-63.00000000000003
 21
9.250000000000021
 31
0.0
1001
GENIUS_GENFIL_13
1070
     0
1040
1.3
1040
1.3
1040
20.0
1040
0.0
1002
{
1002
}
1001
GENIUS_GENODEF_13
1002
{
1000
HIER
1070
     0
1002
}
1002
{
1000
MANEDIT
1070
     0
1002
}
1002
{
1000
NOSEL
1070
     0
1002
}
1002
{
1000
BEHIND
1070
     0
1002
}
1002
{
1000
REACTOR
1002
}
1001
GENIUS_GENOBJ-N-CHA_13
1002
{
1000
OWNER
1000
GEN
1002
}
  0
ARC
  5
577E
330
1F
100
AcDbEntity
  8
AM_0
100
AcDbCircle
 10
-24.19999999999994
 20
28.2
 30
0.0
 40
0.8
100
AcDbArc
 50
90.0
 51
179.9999999999997
1001
GENIUS_GENODEF_13
1002
{
1000
HIER
1070
     0
1002
}
1002
{
1000
MANEDIT
1070
     0
1002
}
1002
{
1000
NOSEL
1070
     0
1002
}
1002
{
1000
BEHIND
1070
     0
1002
}
1002
{
1000
REACTOR
1002
}
1001
GENIUS_GENOBJ-N-FIL_13
1002
{
1000
OWNER
1000
GEN
1002
}
  0
LINE
  5
5782
330
1F
100
AcDbEntity
  8
AM_0
100
AcDbLine
 10
-2.708991095338203
 20
36.49619469809181
 30
0.0
 11
-3.796146838085849
 21
35.50000000000002
 31
0.0
1001
GENIUS_GENFIL_13
1070
     0
1040
1.0
1040
1.0
1040
20.0
1040
0.0
1002
{
1002
}
1001
GENIUS_GENODEF_13
1002
{
1000
HIER
1070
     0
1002
}
1002
{
1000
MANEDIT
1070
     0
1002
}
1002
{
1000
NOSEL
1070
     0
1002
}
1002
{
1000
BEHIND
1070
     0
1002
}
1002
{
1000
REACTOR
1002
}
1001
GENIUS_GENOBJ-N-CHA_13
1002
{
1000
OWNER
1000
GEN
1002
}
  0
ARC
  5
5786
330
1F
100
AcDbEntity
  8
AM_0
100
AcDbCircle
 10
-53.50000000000012
 20
7.449999999999988
 30
0.0
 40
0.5
100
AcDbArc
 50
0.0
 51
89.9999999999998
1001
GENIUS_GENODEF_13
1002
{
1000
HIER
1070
     0
1002
}
1002
{
1000
MANEDIT
1070
     0
1002
}
1002
{
1000
NOSEL
1070
     0
1002
}
1002
{
1000
BEHIND
1070
     0
1002
}
1002
{
1000
REACTOR
1002
}
1001
GENIUS_GENOBJ-N-FIL_13
1002
{
1000
OWNER
1000
GEN
1002
}
  0
LINE
  5
5788
330
1F
100
AcDbEntity
  8
AM_0
100
AcDbLine
 10
-63.00000000000001
 20
-21.85003270956086
 30
0.0
 11
-60.20000000000003
 21
-19.05003270956086
 31
0.0
1001
GENIUS_GENFIL_13
1070
     0
1040
2.799999999999999
1040
2.799999999999999
1040
20.0
1040
0.0
1002
{
1002
}
1001
GENIUS_GENODEF_13
1002
{
1000
HIER
1070
     0
1002
}
1002
{
1000
MANEDIT
1070
     0
1002
}
1002
{
1000
NOSEL
1070
     0
1002
}
1002
{
1000
BEHIND
1070
     0
1002
}
1002
{
1000
REACTOR
1002
}
1001
GENIUS_GENOBJ-N-CHA_13
1002
{
1000
OWNER
1000
GEN
1002
}
  0
LINE
  5
5789
330
1F
100
AcDbEntity
  8
AM_0
100
AcDbLine
 10
-60.69999999999998
 20
-40.00000000000002
 30
0.0
 11
-62.99999999999998
 21
-37.70000000000003
 31
0.0
1001
GENIUS_GENFIL_13
1070
     0
1040
2.299999999999999
1040
2.299999999999999
1040
20.0
1040
0.0
1002
{
1002
}
1001
GENIUS_GENODEF_13
1002
{
1000
HIER
1070
     0
1002
}
1002
{
1000
MANEDIT
1070
     0
1002
}
1002
{
1000
NOSEL
1070
     0
1002
}
1002
{
1000
BEHIND
1070
     0
1002
}
1002
{
1000
REACTOR
1002
}
1001
GENIUS_GENOBJ-N-CHA_13
1002
{
1000
OWNER
1000
GEN
1002
}
  0
LINE
  5
578A
330
1F
100
AcDbEntity
  8
AM_0
100
AcDbLine
 10
-61.70000000000003
 20
-7.950000000000017
 30
0.0
 11
-63.00000000000003
 21
-9.250000000000021
 31
0.0
1001
GENIUS_GENFIL_13
1070
     0
1040
1.3
1040
1.3
1040
20.0
1040
0.0
1002
{
1002
}
1001
GENIUS_GENODEF_13
1002
{
1000
HIER
1070
     0
1002
}
1002
{
1000
MANEDIT
1070
     0
1002
}
1002
{
1000
NOSEL
1070
     0
1002
}
1002
{
1000
BEHIND
1070
     0
1002
}
1002
{
1000
REACTOR
1002
}
1001
GENIUS_GENOBJ-N-CHA_13
1002
{
1000
OWNER
1000
GEN
1002
}
  0
ARC
  5
578B
330
1F
100
AcDbEntity
  8
AM_0
100
AcDbCircle
 10
-53.50000000000012
 20
-7.449999999999988
 30
0.0
 40
0.5
100
AcDbArc
 50
270.0000000000002
 51
0.0
1001
GENIUS_GENODEF_13
1002
{
1000
HIER
1070
     0
1002
}
1002
{
1000
MANEDIT
1070
     0
1002
}
1002
{
1000
NOSEL
1070
     0
1002
}
1002
{
1000
BEHIND
1070
     0
1002
}
1002
{
1000
REACTOR
1002
}
1001
GENIUS_GENOBJ-N-FIL_13
1002
{
1000
OWNER
1000
GEN
1002
}
  0
ARC
  5
578C
330
1F
100
AcDbEntity
  8
AM_0
100
AcDbCircle
 10
-24.19999999999994
 20
-28.2
 30
0.0
 40
0.8
100
AcDbArc
 50
180.0000000000002
 51
270.0
1001
GENIUS_GENODEF_13
1002
{
1000
HIER
1070
     0
1002
}
1002
{
1000
MANEDIT
1070
     0
1002
}
1002
{
1000
NOSEL
1070
     0
1002
}
1002
{
1000
BEHIND
1070
     0
1002
}
1002
{
1000
REACTOR
1002
}
1001
GENIUS_GENOBJ-N-FIL_13
1002
{
1000
OWNER
1000
GEN
1002
}
  0
LINE
  5
578D
330
1F
100
AcDbEntity
  8
AM_0
100
AcDbLine
 10
-2.708991095338203
 20
-36.49619469809181
 30
0.0
 11
-3.796146838085849
 21
-35.50000000000002
 31
0.0
1001
GENIUS_GENFIL_13
1070
     0
1040
1.0
1040
1.0
1040
20.0
1040
0.0
1002
{
1002
}
1001
GENIUS_GENODEF_13
1002
{
1000
HIER
1070
     0
1002
}
1002
{
1000
MANEDIT
1070
     0
1002
}
1002
{
1000
NOSEL
1070
     0
1002
}
1002
{
1000
BEHIND
1070
     0
1002
}
1002
{
1000
REACTOR
1002
}
1001
GENIUS_GENOBJ-N-CHA_13
1002
{
1000
OWNER
1000
GEN
1002
}
  0
ARC
  5
578E
330
1F
100
AcDbEntity
  8
AM_0
100
AcDbCircle
 10
-38.46534602404203
 20
-56.39999999999999
 30
0.0
 40
2.0
100
AcDbArc
 50
194.9999999999997
 51
270.0000000000002
1001
GENIUS_GENODEF_13
1002
{
1000
HIER
1070
     0
1002
}
1002
{
1000
MANEDIT
1070
     0
1002
}
1002
{
1000
NOSEL
1070
     0
1002
}
1002
{
1000
BEHIND
1070
     0
1002
}
1002
{
1000
REACTOR
1002
}
1001
GENIUS_GENOBJ-N-FIL_13
1002
{
1000
OWNER
1000
GEN
1002
}
  0
ARC
  5
578F
330
1F
100
AcDbEntity
  8
AM_0
100
AcDbCircle
 10
-46.46491911669046
 20
-42.00000000000003
 30
0.0
 40
2.0
100
AcDbArc
 50
14.99999999999979
 51
90.00000000000003
1001
GENIUS_GENODEF_13
1002
{
1000
HIER
1070
     0
1002
}
1002
{
1000
MANEDIT
1070
     0
1002
}
1002
{
1000
NOSEL
1070
     0
1002
}
1002
{
1000
BEHIND
1070
     0
1002
}
1002
{
1000
REACTOR
1002
}
1001
GENIUS_GENOBJ-N-FIL_13
1002
{
1000
OWNER
1000
GEN
1002
}
  0
LINE
  5
5790
330
1F
100
AcDbEntity
  8
AM_0
100
AcDbLine
 10
-28.79999999999995
 20
-58.39999999999992
 30
0.0
 11
-27.79999999999995
 21
-57.39999999999991
 31
0.0
1001
GENIUS_GENFIL_13
1070
     0
1040
1.0
1040
1.0
1040
20.0
1040
0.0
1002
{
1002
}
1001
GENIUS_GENODEF_13
1002
{
1000
HIER
1070
     0
1002
}
1002
{
1000
MANEDIT
1070
     0
1002
}
1002
{
1000
NOSEL
1070
     0
1002
}
1002
{
1000
BEHIND
1070
     0
1002
}
1002
{
1000
REACTOR
1002
}
1001
GENIUS_GENOBJ-N-CHA_13
1002
{
1000
OWNER
1000
GEN
1002
}
  0
LINE
  5
5791
330
1F
100
AcDbEntity
  8
AM_3
100
AcDbLine
 10
-2.0
 20
-57.60636902737555
 30
0.0
 11
-2.997762742842438
 21
-58.67322341388478
 31
0.0
1001
GENIUS_GENFIL_13
1070
     0
1040
1.0
1040
1.0
1040
20.0
1040
0.0
1002
{
1002
}
1001
GENIUS_GENODEF_13
1002
{
1000
HIER
1070
     0
1002
}
1002
{
1000
MANEDIT
1070
     0
1002
}
1002
{
1000
NOSEL
1070
     0
1002
}
1002
{
1000
BEHIND
1070
     0
1002
}
1002
{
1000
REACTOR
1002
}
1001
GENIUS_GENOBJ-N-CHA_13
1002
{
1000
OWNER
1000
GEN
1002
}
  0
VIEWPORT
  5
110
330
101
100
AcDbEntity
 67
     1
  8
0
100
AcDbViewport
 10
420.5
 20
297.0
 30
0.0
 40
948.9782706766916
 41
628.452
 68
     1
 69
     1
1001
ACAD
1000
MVIEW
1002
{
1070
    16
1010
0.0
1020
0.0
1030
0.0
1010
0.0
1020
0.0
1030
1.0
1040
0.0
1040
628.452
1040
420.5
1040
297.0
1040
50.0
1040
0.0
1040
0.0
1070
     0
1070
   100
1070
     1
1070
     1
1070
     0
1070
     0
1070
     0
1070
     0
1040
0.0
1040
0.0
1040
0.0
1040
10.0
1040
10.0
1040
10.0
1040
10.0
1070
     0
1002
{
1002
}
1002
}
  0
ENDSEC
  0
SECTION
  2
OBJECTS
  0
DICTIONARY
  5
C
330
0
100
AcDbDictionary
  3
ACAD_GROUP
350
D
  3
ACAD_LAYOUT
350
1A
  3
ACAD_MLINESTYLE
350
17
  3
ACAD_PLOTSETTINGS
350
19
  3
ACAD_PLOTSTYLENAME
350
E
  3
ACDBVARIABLEDICTIONARY
350
34
  3
ACMDICTIONARY
350
43
  3
AMG
350
2B
  3
AMGSNAPSETTINGS
350
6E
  3
DWGPROPS
350
57CB
  3
ACDBHEADERROUNDTRIPXREC
350
57D8
  0
DICTIONARY
  5
74
330
1F
100
AcDbDictionary
280
     1
  3
ACAD_INDEX
360
57CD
  3
ACAD_LAYOUTSELFREF
360
57FB
  0
DICTIONARY
  5
5800
330
101
100
AcDbDictionary
280
     1
  3
ACAD_LAYOUTSELFREF
360
5801
  0
DICTIONARY
  5
D
102
{ACAD_REACTORS
330
C
102
}
330
C
100
AcDbDictionary
  0
DICTIONARY
  5
1A
102
{ACAD_REACTORS
330
C
102
}
330
C
100
AcDbDictionary
  0
DICTIONARY
  5
17
102
{ACAD_REACTORS
330
C
102
}
330
C
100
AcDbDictionary
  3
STANDARD
350
18
  0
DICTIONARY
  5
19
102
{ACAD_REACTORS
330
C
102
}
330
C
100
AcDbDictionary
  0
ACDBDICTIONARYWDFLT
  5
E
102
{ACAD_REACTORS
330
C
102
}
330
C
100
AcDbDictionary
281
     1
  3
Normal
350
F
100
AcDbDictionaryWithDefault
340
F
  0
DICTIONARY
  5
34
102
{ACAD_REACTORS
330
C
102
}
330
C
100
AcDbDictionary
  3
INDEXCTL
350
35
  3
SORTENTS
350
B5E
  0
DICTIONARY
  5
43
102
{ACAD_REACTORS
330
C
102
}
330
C
100
AcDbDictionary
  3
ACMSTDDICTIONARY
350
260
  0
DICTIONARY
  5
2B
102
{ACAD_REACTORS
330
C
102
}
330
C
100
AcDbDictionary
  3
ACMGSETTINGS
350
2C
  0
DICTIONARY
  5
6E
102
{ACAD_REACTORS
330
C
102
}
330
C
100
AcDbDictionary
  0
XRECORD
  5
57CB
102
{ACAD_REACTORS
330
C
102
}
330
C
100
AcDbXrecord
  1
DWGPROPS COOKIE
  2

  3

  4

  6

  7

  8

  9

300
AmdtFileType=82
301
=
302
=
303
=
304
=
305
=
306
=
307
=
308
=
309
=
 40
0.1046068287037037
 41
2452836.771637361
 42
2452908.390953136
  1

 90
        1
  0
DICTIONARY
  5
57D8
102
{ACAD_REACTORS
330
C
102
}
330
C
100
AcDbDictionary
  3
TSTACKALIGN
350
57D9
  3
TSTACKSIZE
350
57DA
  3
HYPERLINKBASE
350
57DB
  3
STYLESHEET
350
57DC
  3
LAYOUTDICT
350
57DD
  3
PLOTSETDICT
350
57DE
  3
PLOTSTYLNAMDICT
350
57DF
  3
LWETCUNION
350
57E0
  3
INSUNITS
350
57E1
  3
CEPSNTYPE
350
57E2
  3
FINGERPRINTGUID
350
57E3
  3
VERSIONGUID
350
57E4
  3
PSVPSCALE
350
57E5
  3
DIMSTYLEDATA
350
57E6
  3
PUCSORTHOREF
350
57E7
  3
PUCSORTHOVIEW
350
57E8
  3
PUCSBASE
350
57E9
  3
PUCSORGTOP
350
57EA
  3
PUCSORGBOTTOM
350
57EB
  3
PUCSORGLEFT
350
57EC
  3
PUCSORGRIGHT
350
57ED
  3
PUCSORGFRONT
350
57EE
  3
PUCSORGBACK
350
57EF
  3
UCSORTHOREF
350
57F0
  3
UCSORTHOVIEW
350
57F1
  3
UCSBASE
350
57F2
  3
UCSORGTOP
350
57F3
  3
UCSORGBOTTOM
350
57F4
  3
UCSORGLEFT
350
57F5
  3
UCSORGRIGHT
350
57F6
  3
UCSORGFRONT
350
57F7
  3
UCSORGBACK
350
57F8
  0
DICTIONARY
  5
57CD
102
{ACAD_REACTORS
330
74
102
}
330
74
100
AcDbDictionary
  3
*A1
350
57CE
  0
XRECORD
  5
57FB
102
{ACAD_REACTORS
330
74
102
}
330
74
100
AcDbXrecord
340
1F
  0
XRECORD
  5
5801
102
{ACAD_REACTORS
330
5800
102
}
330
5800
100
AcDbXrecord
340
101
  0
MLINESTYLE
  5
18
102
{ACAD_REACTORS
330
17
102
}
330
17
100
AcDbMlineStyle
  2
STANDARD
 70
     0
  3

 62
   256
 51
90.0
 52
90.0
 71
     2
 49
0.5
 62
   256
  6
BYLAYER
 49
-0.5
 62
   256
  6
BYLAYER
  0
ACDBPLACEHOLDER
  5
F
102
{ACAD_REACTORS
330
E
102
}
330
E
100
AcDbPlaceHolder
280
     0
  0
DICTIONARYVAR
  5
35
102
{ACAD_REACTORS
330
34
102
}
330
34
100
DictionaryVariables
280
     0
  1
1
  0
DICTIONARYVAR
  5
B5E
102
{ACAD_REACTORS
330
34
102
}
330
34
100
DictionaryVariables
280
     0
  1
96
  0
DICTIONARY
  5
260
102
{ACAD_REACTORS
330
43
102
}
330
43
100
AcDbDictionary
  0
DICTIONARY
  5
2C
102
{ACAD_REACTORS
330
2B
102
}
330
2B
100
AcDbDictionary
  3
DWGSETTINGS
350
2D
  0
XRECORD
  5
57D9
102
{ACAD_REACTORS
330
57D8
102
}
330
57D8
100
AcDbXrecord
 90
        1
  0
XRECORD
  5
57DA
102
{ACAD_REACTORS
330
57D8
102
}
330
57D8
100
AcDbXrecord
 90
       70
  0
XRECORD
  5
57DB
102
{ACAD_REACTORS
330
57D8
102
}
330
57D8
100
AcDbXrecord
  1

  0
XRECORD
  5
57DC
102
{ACAD_REACTORS
330
57D8
102
}
330
57D8
100
AcDbXrecord
  1
ASAMI.ctb
  0
XRECORD
  5
57DD
102
{ACAD_REACTORS
330
57D8
102
}
330
57D8
100
AcDbXrecord
340
1A
  0
XRECORD
  5
57DE
102
{ACAD_REACTORS
330
57D8
102
}
330
57D8
100
AcDbXrecord
340
19
  0
XRECORD
  5
57DF
102
{ACAD_REACTORS
330
57D8
102
}
330
57D8
100
AcDbXrecord
340
E
  0
XRECORD
  5
57E0
102
{ACAD_REACTORS
330
57D8
102
}
330
57D8
100
AcDbXrecord
 90
    10781
  0
XRECORD
  5
57E1
102
{ACAD_REACTORS
330
57D8
102
}
330
57D8
100
AcDbXrecord
 90
        4
  0
XRECORD
  5
57E2
102
{ACAD_REACTORS
330
57D8
102
}
330
57D8
100
AcDbXrecord
 90
        0
  0
XRECORD
  5
57E3
102
{ACAD_REACTORS
330
57D8
102
}
330
57D8
100
AcDbXrecord
  1
{AFB28963-8C59-40AE-9337-C84526B81ACE}
  0
XRECORD
  5
57E4
102
{ACAD_REACTORS
330
57D8
102
}
330
57D8
100
AcDbXrecord
  1
{4C4C7F91-08BE-473B-A0D9-7485E41D53ED}
  0
XRECORD
  5
57E5
102
{ACAD_REACTORS
330
57D8
102
}
330
57D8
100
AcDbXrecord
 40
0.0
  0
XRECORD
  5
57E6
102
{ACAD_REACTORS
330
57D8
102
}
330
57D8
100
AcDbXrecord
1000
DSTYLE
1002
{
1070
    79
 70
     2
1070
   341
340
59
1070
   342
340
59
1070
   371
 70
    -1
1070
   372
 70
    -1
1002
}
  0
XRECORD
  5
57E7
102
{ACAD_REACTORS
330
57D8
102
}
330
57D8
100
AcDbXrecord
340
0
  0
XRECORD
  5
57E8
102
{ACAD_REACTORS
330
57D8
102
}
330
57D8
100
AcDbXrecord
 70
     0
  0
XRECORD
  5
57E9
102
{ACAD_REACTORS
330
57D8
102
}
330
57D8
100
AcDbXrecord
340
0
  0
XRECORD
  5
57EA
102
{ACAD_REACTORS
330
57D8
102
}
330
57D8
100
AcDbXrecord
 10
0.0
 20
0.0
 30
0.0
  0
XRECORD
  5
57EB
102
{ACAD_REACTORS
330
57D8
102
}
330
57D8
100
AcDbXrecord
 10
0.0
 20
0.0
 30
0.0
  0
XRECORD
  5
57EC
102
{ACAD_REACTORS
330
57D8
102
}
330
57D8
100
AcDbXrecord
 10
0.0
 20
0.0
 30
0.0
  0
XRECORD
  5
57ED
102
{ACAD_REACTORS
330
57D8
102
}
330
57D8
100
AcDbXrecord
 10
0.0
 20
0.0
 30
0.0
  0
XRECORD
  5
57EE
102
{ACAD_REACTORS
330
57D8
102
}
330
57D8
100
AcDbXrecord
 10
0.0
 20
0.0
 30
0.0
  0
XRECORD
  5
57EF
102
{ACAD_REACTORS
330
57D8
102
}
330
57D8
100
AcDbXrecord
 10
0.0
 20
0.0
 30
0.0
  0
XRECORD
  5
57F0
102
{ACAD_REACTORS
330
57D8
102
}
330
57D8
100
AcDbXrecord
340
0
  0
XRECORD
  5
57F1
102
{ACAD_REACTORS
330
57D8
102
}
330
57D8
100
AcDbXrecord
 70
     0
  0
XRECORD
  5
57F2
102
{ACAD_REACTORS
330
57D8
102
}
330
57D8
100
AcDbXrecord
340
0
  0
XRECORD
  5
57F3
102
{ACAD_REACTORS
330
57D8
102
}
330
57D8
100
AcDbXrecord
 10
0.0
 20
0.0
 30
0.0
  0
XRECORD
  5
57F4
102
{ACAD_REACTORS
330
57D8
102
}
330
57D8
100
AcDbXrecord
 10
0.0
 20
0.0
 30
0.0
  0
XRECORD
  5
57F5
102
{ACAD_REACTORS
330
57D8
102
}
330
57D8
100
AcDbXrecord
 10
0.0
 20
0.0
 30
0.0
  0
XRECORD
  5
57F6
102
{ACAD_REACTORS
330
57D8
102
}
330
57D8
100
AcDbXrecord
 10
0.0
 20
0.0
 30
0.0
  0
XRECORD
  5
57F7
102
{ACAD_REACTORS
330
57D8
102
}
330
57D8
100
AcDbXrecord
 10
0.0
 20
0.0
 30
0.0
  0
XRECORD
  5
57F8
102
{ACAD_REACTORS
330
57D8
102
}
330
57D8
100
AcDbXrecord
 10
0.0
 20
0.0
 30
0.0
  0
LAYER_INDEX
  5
57CE
102
{ACAD_REACTORS
330
57CD
102
}
330
57CD
100
AcDbIndex
 40
2453152.371205752
100
AcDbLayerIndex
  8
0
360
57CF
 90
       96
  8
AM_0
360
57D0
 90
       78
  8
AM_7
360
57D1
 90
        1
  8
AM_5
360
57D2
 90
        9
  8
Defpoints
360
57D3
 90
        0
  8
AM_6
360
57D4
 90
        1
  8
AM_11
360
57D5
 90
        4
  8
AM_3
360
57D6
 90
       20
  0
XRECORD
  5
2D
102
{ACAD_REACTORS
330
2C
102
}
330
2C
100
AcDbXrecord
  1
VERSION
140
15.0
  1
PRODUCT
  2
AutoCAD Mechanical 2000
  0
IDBUFFER
  5
57CF
330
0
100
AcDbIdBuffer
330
5528
330
555B
330
555C
330
555E
330
555F
330
5560
330
5561
330
5562
330
5563
330
5564
330
5565
330
5566
330
5567
330
5568
330
5569
330
556A
330
556B
330
556C
330
556D
330
556E
330
556F
330
5570
330
5571
330
5572
330
5573
330
5574
330
5575
330
5576
330
5577
330
5578
330
5579
330
557A
330
557B
330
557C
330
557D
330
557E
330
557F
330
5580
330
5581
330
5582
330
5583
330
5584
330
5585
330
5586
330
5587
330
5588
330
5589
330
558A
330
54F4
330
54F8
330
54FA
330
54FB
330
54FC
330
54FD
330
54FE
330
54FF
330
5500
330
5501
330
5502
330
5503
330
5504
330
5505
330
5506
330
5507
330
5508
330
5509
330
550A
330
550B
330
550C
330
550D
330
550E
330
550F
330
5510
330
5511
330
5512
330
5513
330
5514
330
5515
330
5516
330
5517
330
5518
330
5519
330
551A
330
551B
330
551C
330
551D
330
551E
330
551F
330
5520
330
5521
330
5522
330
5523
330
5524
330
5525
330
5526
330
5527
  0
IDBUFFER
  5
57D0
330
0
100
AcDbIdBuffer
330
5637
330
5638
330
563A
330
563B
330
563C
330
563D
330
563E
330
563F
330
5640
330
5641
330
5642
330
5643
330
576A
330
576E
330
5770
330
5774
330
5777
330
577A
330
577E
330
5782
330
5786
330
5788
330
5789
330
578A
330
578B
330
578C
330
578D
330
578E
330
578F
330
5790
330
44C4
330
44C6
330
44C9
330
44CA
330
44CB
330
44CD
330
44CE
330
44D1
330
44D4
330
44D5
330
44D6
330
44D7
330
44D8
330
44D9
330
44DA
330
44DB
330
44DD
330
44DE
330
44DF
330
44E2
330
44E3
330
44E4
330
44EB
330
44ED
330
44F6
330
44F7
330
44F8
330
44F9
330
44FA
330
44FB
330
44FC
330
44FE
330
44FF
330
4500
330
4502
330
4503
330
4504
330
4505
330
4506
330
4507
330
450B
330
450C
330
450D
330
450E
330
4510
330
4511
330
558B
330
5636
  0
IDBUFFER
  5
57D1
330
0
100
AcDbIdBuffer
330
44C8
  0
IDBUFFER
  5
57D2
330
0
100
AcDbIdBuffer
330
5348
330
5349
330
534A
330
53E5
330
53E6
330
53E7
330
5448
330
5449
330
5652
  0
IDBUFFER
  5
57D3
330
0
100
AcDbIdBuffer
  0
IDBUFFER
  5
57D4
330
0
100
AcDbIdBuffer
330
E5A
  0
IDBUFFER
  5
57D5
330
0
100
AcDbIdBuffer
330
54F5
330
54F7
330
54F9
330
555D
  0
IDBUFFER
  5
57D6
330
0
100
AcDbIdBuffer
330
52EC
330
52F0
330
5768
330
5791
330
44E7
330
44E8
330
44E9
330
44EC
330
44EF
330
44F0
330
44F2
330
44F3
330
44F5
330
4509
330
4512
330
4514
330
4515
330
4517
330
4FD9
330
5208
  0
ENDSEC
  0
EOF
