  0
SECTION
  2
HEADER
  9
$ACADVER
  1
AC1014
  9
$ACADMAINTVER
 70
     9
  9
$DWGCODEPAGE
  3
ANSI_932
  9
$INSBASE
 10
0.0
 20
0.0
 30
0.0
  9
$EXTMIN
 10
-107.8017126265763
 20
-166.5001664429654
 30
-0.00000001
  9
$EXTMAX
 10
45.00016644296529
 20
100.2025386063164
 30
0.00000001
  9
$LIMMIN
 10
-159.4180906858237
 20
-172.9493239946766
  9
$LIMMAX
 10
58.48129240726326
 20
113.5601828706136
  9
$ORTHOMODE
 70
     0
  9
$REGENMODE
 70
     1
  9
$FILLMODE
 70
     1
  9
$QTEXTMODE
 70
     0
  9
$MIRRTEXT
 70
     0
  9
$DRAGMODE
 70
     2
  9
$LTSCALE
 40
1.0
  9
$OSMODE
 70
    55
  9
$ATTMODE
 70
     1
  9
$TEXTSIZE
 40
2.5
  9
$TRACEWID
 40
1.0
  9
$TEXTSTYLE
  7
STANDARD
  9
$CLAYER
  8
0
  9
$CELTYPE
  6
BYLAYER
  9
$CECOLOR
 62
   256
  9
$CELTSCALE
 40
1.0
  9
$DELOBJ
 70
     1
  9
$DISPSILH
 70
     0
  9
$DIMSCALE
 40
1.0
  9
$DIMASZ
 40
2.5
  9
$DIMEXO
 40
1.0
  9
$DIMDLI
 40
12.0
  9
$DIMRND
 40
0.0
  9
$DIMDLE
 40
0.0
  9
$DIMEXE
 40
1.0
  9
$DIMTP
 40
0.1
  9
$DIMTM
 40
0.1
  9
$DIMTXT
 40
3.2
  9
$DIMCEN
 40
0.0
  9
$DIMTSZ
 40
0.0
  9
$DIMTOL
 70
     0
  9
$DIMLIM
 70
     0
  9
$DIMTIH
 70
     0
  9
$DIMTOH
 70
     0
  9
$DIMSE1
 70
     0
  9
$DIMSE2
 70
     0
  9
$DIMTAD
 70
     3
  9
$DIMZIN
 70
     8
  9
$DIMBLK
  1
OPEN30
  9
$DIMASO
 70
     1
  9
$DIMSHO
 70
     1
  9
$DIMPOST
  1

  9
$DIMAPOST
  1
"
  9
$DIMALT
 70
     0
  9
$DIMALTD
 70
     2
  9
$DIMALTF
 40
0.0393701
  9
$DIMLFAC
 40
1.0
  9
$DIMTOFL
 70
     1
  9
$DIMTVP
 40
0.0
  9
$DIMTIX
 70
     0
  9
$DIMSOXD
 70
     0
  9
$DIMSAH
 70
     0
  9
$DIMBLK1
  1

  9
$DIMBLK2
  1

  9
$DIMSTYLE
  2
AM_JIS
  9
$DIMCLRD
 70
   256
  9
$DIMCLRE
 70
   256
  9
$DIMCLRT
 70
     2
  9
$DIMTFAC
 40
0.71
  9
$DIMGAP
 40
1.5
  9
$DIMJUST
 70
     0
  9
$DIMSD1
 70
     0
  9
$DIMSD2
 70
     0
  9
$DIMTOLJ
 70
     0
  9
$DIMTZIN
 70
     0
  9
$DIMALTZ
 70
     0
  9
$DIMALTTZ
 70
     0
  9
$DIMFIT
 70
     3
  9
$DIMUPT
 70
     0
  9
$DIMUNIT
 70
     2
  9
$DIMDEC
 70
     3
  9
$DIMTDEC
 70
     3
  9
$DIMALTU
 70
     2
  9
$DIMALTTD
 70
     2
  9
$DIMTXSTY
  7
ASAMI
  9
$DIMAUNIT
 70
     0
  9
$LUNITS
 70
     2
  9
$LUPREC
 70
     2
  9
$SKETCHINC
 40
1.0
  9
$FILLETRAD
 40
0.8
  9
$AUNITS
 70
     0
  9
$AUPREC
 70
     0
  9
$MENU
  1
.
  9
$ELEVATION
 40
0.0
  9
$PELEVATION
 40
0.0
  9
$THICKNESS
 40
0.0
  9
$LIMCHECK
 70
     0
  9
$BLIPMODE
 70
     0
  9
$CHAMFERA
 40
1.9
  9
$CHAMFERB
 40
1.9
  9
$CHAMFERC
 40
20.0
  9
$CHAMFERD
 40
0.0
  9
$SKPOLY
 70
     0
  9
$TDCREATE
 40
2452836.771637361
  9
$TDUPDATE
 40
2453152.371386956
  9
$TDINDWG
 40
0.1421055671
  9
$TDUSRTIMER
 40
0.1421055671
  9
$USRTIMER
 70
     1
  9
$ANGBASE
 50
0.0
  9
$ANGDIR
 70
     0
  9
$PDMODE
 70
     0
  9
$PDSIZE
 40
0.0
  9
$PLINEWID
 40
0.0
  9
$COORDS
 70
     1
  9
$SPLFRAME
 70
     0
  9
$SPLINETYPE
 70
     6
  9
$SPLINESEGS
 70
     8
  9
$ATTDIA
 70
     1
  9
$ATTREQ
 70
     1
  9
$HANDLING
 70
 12289
  9
$HANDSEED
  5
8DAE
  9
$SURFTAB1
 70
     6
  9
$SURFTAB2
 70
     6
  9
$SURFTYPE
 70
     6
  9
$SURFU
 70
     6
  9
$SURFV
 70
     6
  9
$UCSNAME
  2

  9
$UCSORG
 10
0.0
 20
0.0
 30
0.0
  9
$UCSXDIR
 10
1.0
 20
0.0
 30
0.0
  9
$UCSYDIR
 10
0.0
 20
1.0
 30
0.0
  9
$PUCSNAME
  2

  9
$PUCSORG
 10
0.0
 20
0.0
 30
0.0
  9
$PUCSXDIR
 10
1.0
 20
0.0
 30
0.0
  9
$PUCSYDIR
 10
0.0
 20
1.0
 30
0.0
  9
$USERI1
 70
     0
  9
$USERI2
 70
     0
  9
$USERI3
 70
     0
  9
$USERI4
 70
     0
  9
$USERI5
 70
     0
  9
$USERR1
 40
0.0
  9
$USERR2
 40
0.0
  9
$USERR3
 40
0.0
  9
$USERR4
 40
0.0
  9
$USERR5
 40
0.0
  9
$WORLDVIEW
 70
     1
  9
$SHADEDGE
 70
     3
  9
$SHADEDIF
 70
    70
  9
$TILEMODE
 70
     1
  9
$MAXACTVP
 70
    64
  9
$PINSBASE
 10
0.0
 20
0.0
 30
0.0
  9
$PLIMCHECK
 70
     0
  9
$PEXTMIN
 10
1.000000000000000E+20
 20
1.000000000000000E+20
 30
1.000000000000000E+20
  9
$PEXTMAX
 10
-1.000000000000000E+20
 20
-1.000000000000000E+20
 30
-1.000000000000000E+20
  9
$PLIMMIN
 10
0.0
 20
0.0
  9
$PLIMMAX
 10
841.0
 20
594.0
  9
$UNITMODE
 70
     0
  9
$VISRETAIN
 70
     1
  9
$PLINEGEN
 70
     0
  9
$PSLTSCALE
 70
     0
  9
$TREEDEPTH
 70
  3020
  9
$PICKSTYLE
 70
     0
  9
$CMLSTYLE
  2
STANDARD
  9
$CMLJUST
 70
     0
  9
$CMLSCALE
 40
20.0
  9
$PROXYGRAPHICS
 70
     1
  9
$MEASUREMENT
 70
     1
  0
ENDSEC
  0
SECTION
  2
CLASSES
  0
CLASS
  1
ACDBDICTIONARYWDFLT
  2
AcDbDictionaryWithDefault
  3
AutoCAD 2000
 90
        0
280
     0
281
     0
  0
CLASS
  1
ACDBPLACEHOLDER
  2
AcDbPlaceHolder
  3
AutoCAD 2000
 90
        0
280
     0
281
     0
  0
CLASS
  1
LAYOUT
  2
AcDbLayout
  3
AutoCAD 2000
 90
        0
280
     0
281
     0
  0
CLASS
  1
AMGSETTINGSOBJ
  2
AmgSettingsObj
  3
"AcadM|Product Description: AutoCAD Mechanical 2000|Company: Autodesk"
 90
        0
280
     0
281
     0
  0
CLASS
  1
ACME_DOCUMENT
  2
AcMeDbDoc
  3
AcMeServices
 90
        0
280
     0
281
     0
  0
CLASS
  1
ACMESCOPE
  2
AcMeScope
  3
AcMeServices
 90
        0
280
     0
281
     0
  0
CLASS
  1
ACMECOMMANDHISTORY
  2
AcMeCommandHistory
  3
AcMeServices
 90
        0
280
     0
281
     0
  0
CLASS
  1
DICTIONARYVAR
  2
AcDbDictionaryVar
  3
AutoCAD 2000
 90
        0
280
     0
281
     0
  0
CLASS
  1
ACIMSYSVARMAN
  2
AcImSysVarManager
  3
AcMeServices
 90
        0
280
     0
281
     0
  0
CLASS
  1
ACIMREALSYSVAR
  2
AcImRealSysVar
  3
AcMeServices
 90
        0
280
     0
281
     0
  0
CLASS
  1
ACIMINTSYSVAR
  2
AcImIntSysVar
  3
AcMeServices
 90
        0
280
     0
281
     0
  0
CLASS
  1
ACMEDRAWINGMAN
  2
AcMeDrawingMan
  3
AcMeServices
 90
        0
280
     0
281
     0
  0
CLASS
  1
ACMEVIEW
  2
AcMeView
  3
AcMeServices
 90
        0
280
     0
281
     0
  0
CLASS
  1
ACDBENTITYCACHE
  2
AcMeEntityCache
  3
AcMeServices
 90
        0
280
     0
281
     0
  0
CLASS
  1
GSMANAGER
  2
AcMeGSManager
  3
AcMeServices
 90
        0
280
     0
281
     0
  0
CLASS
  1
AmdtInternalReactor
  2
AmdtInternalReactor
  3
AcMeServices
 90
        0
280
     0
281
     0
  0
CLASS
  1
ACMESTATEMGR
  2
AcMeStateMgr
  3
AcMeServices
 90
        0
280
     0
281
     0
  0
CLASS
  1
ACME_DATABASE
  2
AcMeDbDatabase
  3
AcMeServices
 90
        0
280
     0
281
     0
  0
CLASS
  1
ACRFINSADJUSTERMGR
  2
AcRfInsAdjusterMgr
  3
AcMeServices
 90
        0
280
     0
281
     0
  0
CLASS
  1
ACMDATADICTIONARY
  2
AcmDataDictionary
  3
"AcmSymBB|Product Description: AutoCAD Mechanical 2000|Company: Autodesk"
 90
        0
280
     0
281
     0
  0
CLASS
  1
ACMDATAENTRYBLOCK
  2
AcmDataEntryBlock
  3
"AcmSymBB|Product Description: AutoCAD Mechanical 2000|Company: Autodesk"
 90
        0
280
     0
281
     0
  0
CLASS
  1
AMGOBJPROPCFG
  2
AmgObjPropCfg
  3
"AmgLay|Product Description: AutoCAD Mechanical 2000|Company: Autodesk"
 90
        1
280
     0
281
     0
  0
CLASS
  1
ACAMGFILTERDAT
  2
AcAmgFilterDat
  3
"AcadM|Product Description: AutoCAD Mechanical 2000|Company: Autodesk"
 90
        0
280
     0
281
     0
  0
CLASS
  1
LAYER_INDEX
  2
AcDbLayerIndex
  3
AutoCAD 2000
 90
        0
280
     0
281
     0
  0
CLASS
  1
IDBUFFER
  2
AcDbIdBuffer
  3
AutoCAD 2000
 90
        0
280
     0
281
     0
  0
CLASS
  1
ACIMSTRSYSVAR
  2
AcImStrSysVar
  3
AcMeServices
 90
        0
280
     0
281
     0
  0
CLASS
  1
ACMSTANDARDJIS
  2
AcmStandardJIS
  3
"AcmSymBB|Product Description: AutoCAD Mechanical 2000|Company: Autodesk"
 90
        0
280
     0
281
     0
  0
CLASS
  1
ACMSURFSTANDARDJIS
  2
AcmSurfTextStdJIS
  3
"AcmSymBB|Product Description: AutoCAD Mechanical 2000|Company: Autodesk"
 90
        0
280
     0
281
     0
  0
CLASS
  1
ACMFCFSTANDARDJIS
  2
AcmFCFStdJIS
  3
"AcmSymBB|Product Description: AutoCAD Mechanical 2000|Company: Autodesk"
 90
        0
280
     0
281
     0
  0
CLASS
  1
ACMWELDSTANDARDJIS
  2
AcmWeldingStdJIS
  3
"AcmSymBB|Product Description: AutoCAD Mechanical 2000|Company: Autodesk"
 90
        0
280
     0
281
     0
  0
CLASS
  1
ACMIDSTANDARDJIS
  2
AcmIdStdJIS
  3
"AcmSymBB|Product Description: AutoCAD Mechanical 2000|Company: Autodesk"
 90
        0
280
     0
281
     0
  0
CLASS
  1
ACMDATUMSTANDARDJIS
  2
AcmDatumStdJIS
  3
"AcmSymBB|Product Description: AutoCAD Mechanical 2000|Company: Autodesk"
 90
        0
280
     0
281
     0
  0
CLASS
  1
ACMBOMSTANDARDJIS
  2
AcmBOMStdJIS
  3
"AcmSymBB|Product Description: AutoCAD Mechanical 2000|Company: Autodesk"
 90
        0
280
     0
281
     0
  0
CLASS
  1
ACMSTANDARDANSI
  2
AcmStandardANSI
  3
"AcmSymBB|Product Description: AutoCAD Mechanical 2000|Company: Autodesk"
 90
        0
280
     0
281
     0
  0
CLASS
  1
ACMSURFSTANDARDANSI
  2
AcmSurfTextStdANSI
  3
"AcmSymBB|Product Description: AutoCAD Mechanical 2000|Company: Autodesk"
 90
        0
280
     0
281
     0
  0
CLASS
  1
ACMFCFSTANDARDANSI
  2
AcmFCFStdANSI
  3
"AcmSymBB|Product Description: AutoCAD Mechanical 2000|Company: Autodesk"
 90
        0
280
     0
281
     0
  0
CLASS
  1
ACMWELDSTANDARDANSI
  2
AcmWeldingStdANSI
  3
"AcmSymBB|Product Description: AutoCAD Mechanical 2000|Company: Autodesk"
 90
        0
280
     0
281
     0
  0
CLASS
  1
ACMIDSTANDARDANSI
  2
AcmIdStdANSI
  3
"AcmSymBB|Product Description: AutoCAD Mechanical 2000|Company: Autodesk"
 90
        0
280
     0
281
     0
  0
CLASS
  1
ACMDATUMSTANDARDANSI
  2
AcmDatumStdANSI
  3
"AcmSymBB|Product Description: AutoCAD Mechanical 2000|Company: Autodesk"
 90
        0
280
     0
281
     0
  0
CLASS
  1
ACMBOMSTANDARDANSI
  2
AcmBOMStdANSI
  3
"AcmSymBB|Product Description: AutoCAD Mechanical 2000|Company: Autodesk"
 90
        0
280
     0
281
     0
  0
CLASS
  1
ACMSTANDARDBSI
  2
AcmStandardBSI
  3
"AcmSymBB|Product Description: AutoCAD Mechanical 2000|Company: Autodesk"
 90
        0
280
     0
281
     0
  0
CLASS
  1
ACMSURFSTANDARDBSI
  2
AcmSurfTextStdBSI
  3
"AcmSymBB|Product Description: AutoCAD Mechanical 2000|Company: Autodesk"
 90
        0
280
     0
281
     0
  0
CLASS
  1
ACMFCFSTANDARDBSI
  2
AcmFCFStdBSI
  3
"AcmSymBB|Product Description: AutoCAD Mechanical 2000|Company: Autodesk"
 90
        0
280
     0
281
     0
  0
CLASS
  1
ACMWELDSTANDARDBSI
  2
AcmWeldingStdBSI
  3
"AcmSymBB|Product Description: AutoCAD Mechanical 2000|Company: Autodesk"
 90
        0
280
     0
281
     0
  0
CLASS
  1
ACMIDSTANDARDBSI
  2
AcmIdStdBSI
  3
"AcmSymBB|Product Description: AutoCAD Mechanical 2000|Company: Autodesk"
 90
        0
280
     0
281
     0
  0
CLASS
  1
ACMDATUMSTANDARDBSI
  2
AcmDatumStdBSI
  3
"AcmSymBB|Product Description: AutoCAD Mechanical 2000|Company: Autodesk"
 90
        0
280
     0
281
     0
  0
CLASS
  1
ACMBOMSTANDARDBSI
  2
AcmBOMStdBSI
  3
"AcmSymBB|Product Description: AutoCAD Mechanical 2000|Company: Autodesk"
 90
        0
280
     0
281
     0
  0
CLASS
  1
LONG_TRANSACTION
  2
AcDbLongTransaction
  3
AutoCAD 2000
 90
        0
280
     0
281
     0
  0
CLASS
  1
LWPOLYLINE
  2
AcDbPolyline
  3
AutoCAD 2000
 90
        0
280
     0
281
     1
  0
CLASS
  1
HATCH
  2
AcDbHatch
  3
AutoCAD 2000
 90
        0
280
     0
281
     1
  0
CLASS
  1
XRECORD
  2
AcDbXrecord
  3
AutoCAD 2000
 90
        0
280
     0
281
     0
  0
ENDSEC
  0
SECTION
  2
TABLES
  0
TABLE
  2
VPORT
  5
8
330
0
100
AcDbSymbolTable
 70
     3
  0
VPORT
  5
8D83
330
8
100
AcDbSymbolTableRecord
100
AcDbViewportTableRecord
  2
*ACTIVE
 70
     0
 10
0.0
 20
0.0
 11
1.0
 21
1.0
 12
-27.98389271332749
 22
-33.80405074161251
 13
0.0
 23
0.0
 14
2.5
 24
2.5
 15
10.0
 25
10.0
 16
0.0
 26
0.0
 36
1.0
 17
0.0
 27
0.0
 37
0.0
 40
269.6837722398943
 41
1.56570841889117
 42
50.0
 43
0.0
 44
0.0
 50
0.0
 51
0.0
 71
     0
 72
   100
 73
     1
 74
     3
 75
     0
 76
     0
 77
     0
 78
     0
  0
ENDTAB
  0
TABLE
  2
LTYPE
  5
5
330
0
100
AcDbSymbolTable
 70
    10
  0
LTYPE
  5
14
330
5
100
AcDbSymbolTableRecord
100
AcDbLinetypeTableRecord
  2
BYBLOCK
 70
     0
  3

 72
    65
 73
     0
 40
0.0
  0
LTYPE
  5
15
330
5
100
AcDbSymbolTableRecord
100
AcDbLinetypeTableRecord
  2
BYLAYER
 70
     0
  3

 72
    65
 73
     0
 40
0.0
  0
LTYPE
  5
16
330
5
100
AcDbSymbolTableRecord
100
AcDbLinetypeTableRecord
  2
CONTINUOUS
 70
     0
  3
Solid line
 72
    65
 73
     0
 40
0.0
  0
LTYPE
  5
4B
330
5
100
AcDbSymbolTableRecord
100
AcDbLinetypeTableRecord
  2
AM_ISO02W050
 70
     0
  3
__ __ __ __ __ __ __ __ __ __ __ __ __ __ __
 72
    65
 73
     2
 40
7.5
 49
6.0
 74
     0
 49
-1.5
 74
     0
  0
LTYPE
  5
4C
330
5
100
AcDbSymbolTableRecord
100
AcDbLinetypeTableRecord
  2
AM_ISO08W050
 70
     0
  3
____ . ____ . ____ . ____ . ____ . ____ . ____
 72
    65
 73
     4
 40
18.0
 49
12.0
 74
     0
 49
-1.5
 74
     0
 49
3.0
 74
     0
 49
-1.5
 74
     0
  0
LTYPE
  5
4D
330
5
100
AcDbSymbolTableRecord
100
AcDbLinetypeTableRecord
  2
AM_ISO09W050
 70
     0
  3
_____ . . _____ . . _____ . . ____ .. ____
 72
    65
 73
     6
 40
22.5
 49
12.0
 74
     0
 49
-1.5
 74
     0
 49
3.0
 74
     0
 49
-1.5
 74
     0
 49
3.0
 74
     0
 49
-1.5
 74
     0
  0
LTYPE
  5
4E
330
5
100
AcDbSymbolTableRecord
100
AcDbLinetypeTableRecord
  2
AMCONSTR
 70
     0
  3
_______________________
 72
    65
 73
     2
 40
9999.0
 49
9999.0
 74
     0
 49
0.0
 74
     0
  0
LTYPE
  5
4F
330
5
100
AcDbSymbolTableRecord
100
AcDbLinetypeTableRecord
  2
AM_ISO02W050X2
 70
     0
  3
 _ _ _ _ _ _ _ _ _ _ _ _
 72
    65
 73
     2
 40
3.75
 49
3.0
 74
     0
 49
-0.75
 74
     0
  0
LTYPE
  5
50
330
5
100
AcDbSymbolTableRecord
100
AcDbLinetypeTableRecord
  2
AM_ISO08W050X2
 70
     0
  3
__ . __ . __ . __ . __ . __
 72
    65
 73
     4
 40
9.0
 49
6.0
 74
     0
 49
-0.75
 74
     0
 49
1.5
 74
     0
 49
-0.75
 74
     0
  0
LTYPE
  5
53
330
5
100
AcDbSymbolTableRecord
100
AcDbLinetypeTableRecord
  2
AMZIGZAG
 70
     0
  3
/\/-/\/-/\/-/\/-/\/-/\/
 72
    65
 73
     2
 40
11.00009999999999
 49
0.0001
 74
     4
 75
   135
340
52
 46
0.04
 50
0.0
 44
0.0
 45
0.0
 49
-11.0
 74
     0
  0
LTYPE
  5
166
330
5
100
AcDbSymbolTableRecord
100
AcDbLinetypeTableRecord
  2
ACJISTGL
 70
     0
  3
_ _ _ _ _
 72
    65
 73
     2
 40
3.0
 49
2.0
 74
     0
 49
-1.0
 74
     0
  0
LTYPE
  5
26A
330
5
100
AcDbSymbolTableRecord
100
AcDbLinetypeTableRecord
  2
ACJISTGB
 70
     0
  3
__ . . __ . .
 72
    65
 73
     6
 40
9.0
 49
4.0
 74
     0
 49
-1.0
 74
     0
 49
1.0
 74
     0
 49
-1.0
 74
     0
 49
1.0
 74
     0
 49
-1.0
 74
     0
  0
ENDTAB
  0
TABLE
  2
LAYER
  5
2
330
0
100
AcDbSymbolTable
 70
     8
  0
LAYER
  5
10
330
2
100
AcDbSymbolTableRecord
100
AcDbLayerTableRecord
  2
0
 70
     0
 62
     7
  6
CONTINUOUS
  0
LAYER
  5
3F9
330
2
100
AcDbSymbolTableRecord
100
AcDbLayerTableRecord
  2
AM_0
 70
     0
 62
     7
  6
CONTINUOUS
  0
LAYER
  5
BD5
330
2
100
AcDbSymbolTableRecord
100
AcDbLayerTableRecord
  2
AM_7
 70
     0
 62
     4
  6
AM_ISO08W050
  0
LAYER
  5
BD6
330
2
100
AcDbSymbolTableRecord
100
AcDbLayerTableRecord
  2
AM_5
 70
     0
 62
     3
  6
CONTINUOUS
  0
LAYER
  5
BD7
330
2
100
AcDbSymbolTableRecord
100
AcDbLayerTableRecord
  2
DEFPOINTS
 70
     0
 62
     7
  6
CONTINUOUS
  0
LAYER
  5
E59
330
2
100
AcDbSymbolTableRecord
100
AcDbLayerTableRecord
  2
AM_6
 70
     0
 62
     2
  6
CONTINUOUS
  0
LAYER
  5
1E31
330
2
100
AcDbSymbolTableRecord
100
AcDbLayerTableRecord
  2
AM_11
 70
     0
 62
     3
  6
AM_ISO09W050
  0
LAYER
  5
1E41
330
2
100
AcDbSymbolTableRecord
100
AcDbLayerTableRecord
  2
AM_3
 70
     0
 62
     6
  6
ACJISTGL
  0
ENDTAB
  0
TABLE
  2
STYLE
  5
3
330
0
100
AcDbSymbolTable
 70
     5
  0
STYLE
  5
11
330
3
100
AcDbSymbolTableRecord
100
AcDbTextStyleTableRecord
  2
STANDARD
 70
     0
 40
0.0
 41
1.0
 50
0.0
 71
     0
 42
2.5
  3
simplex.shx
  4
EXTFONT.SHX
  0
STYLE
  5
52
330
3
100
AcDbSymbolTableRecord
100
AcDbTextStyleTableRecord
  2

 70
     1
 40
0.0
 41
1.0
 50
0.0
 71
     0
 42
2.5
  3
ltypeshp.shx
  4

  0
STYLE
  5
6B
330
3
100
AcDbSymbolTableRecord
100
AcDbTextStyleTableRecord
  2
ASAMI
 70
     0
 40
0.0
 41
1.0
 50
0.0
 71
     0
 42
2.5
  3
simplex.shx
  4
EXTFONT.SHX
  0
STYLE
  5
262
330
3
100
AcDbSymbolTableRecord
100
AcDbTextStyleTableRecord
  2
ACJISTS
 70
     0
 40
1.0
 41
1.0
 50
0.0
 71
     0
 42
2.5
  3
simplex.shx
  4
bigfont.shx
  0
STYLE
  5
269
330
3
100
AcDbSymbolTableRecord
100
AcDbTextStyleTableRecord
  2
ACJISGDT
 70
     0
 40
0.0
 41
1.0
 50
0.0
 71
     0
 42
2.5
  3
amgdtans.shx
  4

  0
ENDTAB
  0
TABLE
  2
VIEW
  5
6
330
0
100
AcDbSymbolTable
 70
     0
  0
ENDTAB
  0
TABLE
  2
UCS
  5
7
330
0
100
AcDbSymbolTable
 70
     0
  0
ENDTAB
  0
TABLE
  2
APPID
  5
9
330
0
100
AcDbSymbolTable
 70
    13
  0
APPID
  5
12
330
9
100
AcDbSymbolTableRecord
100
AcDbRegAppTableRecord
  2
ACAD
 70
     0
  0
APPID
  5
30
330
9
100
AcDbSymbolTableRecord
100
AcDbRegAppTableRecord
  2
MCAD_NO_VIS
 70
     0
  0
APPID
  5
31
330
9
100
AcDbSymbolTableRecord
100
AcDbRegAppTableRecord
  2
ACAD_TEMP_GRAPHIC
 70
     0
  0
APPID
  5
2C2
330
9
100
AcDbSymbolTableRecord
100
AcDbRegAppTableRecord
  2
GENIUS_GENDTOL_13
 70
     0
  0
APPID
  5
339
330
9
100
AcDbSymbolTableRecord
100
AcDbRegAppTableRecord
  2
GENIUS_GENODEF_13
 70
     0
  0
APPID
  5
33A
330
9
100
AcDbSymbolTableRecord
100
AcDbRegAppTableRecord
  2
GENIUS_GENOBJ-N-RSBK_13
 70
     0
  0
APPID
  5
33B
330
9
100
AcDbSymbolTableRecord
100
AcDbRegAppTableRecord
  2
GENIUS_GENOBJ-N-LIB_13
 70
     0
  0
APPID
  5
33C
330
9
100
AcDbSymbolTableRecord
100
AcDbRegAppTableRecord
  2
GENIUS_GENSCALE_13
 70
     0
  0
APPID
  5
378
330
9
100
AcDbSymbolTableRecord
100
AcDbRegAppTableRecord
  2
GENIUS_GENDIMSH_14
 70
     0
  0
APPID
  5
BD8
330
9
100
AcDbSymbolTableRecord
100
AcDbRegAppTableRecord
  2
GENIUS_GENOBJ-N-CEN_13
 70
     0
  0
APPID
  5
BD9
330
9
100
AcDbSymbolTableRecord
100
AcDbRegAppTableRecord
  2
GENIUS_GENFIL_13
 70
     0
  0
APPID
  5
BDA
330
9
100
AcDbSymbolTableRecord
100
AcDbRegAppTableRecord
  2
GENIUS_GENOBJ-N-CHA_13
 70
     0
  0
APPID
  5
2BC1
330
9
100
AcDbSymbolTableRecord
100
AcDbRegAppTableRecord
  2
GENIUS_GENOBJ-N-FIL_13
 70
     0
  0
ENDTAB
  0
TABLE
  2
DIMSTYLE
  5
A
330
0
100
AcDbSymbolTable
 70
     9
  0
DIMSTYLE
105
58
102
{ACAD_REACTORS
330
8645
330
8644
330
8646
330
86CE
330
86D0
330
86CF
330
8746
330
8747
102
}
330
A
100
AcDbSymbolTableRecord
100
AcDbDimStyleTableRecord
  2
AM_JIS
 70
     0
  3

  4
"
  5
OPEN30
  6

  7

 40
1.0
 41
2.5
 42
1.0
 43
12.0
 44
1.0
 45
0.0
 46
0.0
 47
0.1
 48
0.1
140
3.2
141
0.0
142
0.0
143
0.0393701
144
1.0
145
0.0
146
0.71
147
1.5
 71
     0
 72
     0
 73
     0
 74
     0
 75
     0
 76
     0
 77
     3
 78
     8
170
     0
171
     2
172
     1
173
     0
174
     0
175
     0
176
   256
177
   256
178
     2
270
     2
271
     3
272
     3
273
     2
274
     2
340
6B
275
     0
280
     0
281
     0
282
     0
283
     0
284
     0
285
     0
286
     0
287
     3
288
     0
  0
DIMSTYLE
105
5F
330
A
100
AcDbSymbolTableRecord
100
AcDbDimStyleTableRecord
  2
AM_JIS$3
 70
     0
  3

  4
"
  5
OPEN30
  6

  7

 40
1.0
 41
2.5
 42
1.0
 43
10.0
 44
1.0
 45
0.0
 46
0.0
 47
0.1
 48
0.1
140
3.2
141
0.0
142
0.0
143
0.0393701
144
1.0
145
0.0
146
0.71
147
1.5
 71
     0
 72
     0
 73
     0
 74
     1
 75
     0
 76
     0
 77
     3
 78
     8
170
     0
171
     2
172
     0
173
     0
174
     0
175
     0
176
   256
177
   256
178
     2
270
     2
271
     2
272
     3
273
     2
274
     2
340
6B
275
     0
280
     0
281
     0
282
     0
283
     0
284
     0
285
     0
286
     0
287
     0
288
     1
  0
DIMSTYLE
105
60
330
A
100
AcDbSymbolTableRecord
100
AcDbDimStyleTableRecord
  2
AM_JIS$4
 70
     0
  3

  4
"
  5
OPEN30
  6

  7

 40
1.0
 41
2.5
 42
1.0
 43
10.0
 44
1.0
 45
0.0
 46
0.0
 47
0.1
 48
0.1
140
3.2
141
0.0
142
0.0
143
0.0393701
144
1.0
145
0.0
146
0.71
147
1.5
 71
     0
 72
     0
 73
     0
 74
     1
 75
     0
 76
     0
 77
     3
 78
     8
170
     0
171
     2
172
     0
173
     0
174
     0
175
     0
176
   256
177
   256
178
     2
270
     2
271
     2
272
     3
273
     2
274
     2
340
6B
275
     0
280
     0
281
     0
282
     0
283
     0
284
     0
285
     0
286
     0
287
     0
288
     1
  0
DIMSTYLE
105
61
330
A
100
AcDbSymbolTableRecord
100
AcDbDimStyleTableRecord
  2
AM_JIS$6
 70
     0
  3

  4
"
  5
OPEN30
  6

  7

 40
1.0
 41
2.5
 42
1.0
 43
10.0
 44
1.0
 45
0.0
 46
0.0
 47
0.1
 48
0.1
140
3.2
141
0.0
142
0.0
143
0.0393701
144
1.0
145
0.0
146
0.71
147
1.5
 71
     0
 72
     0
 73
     0
 74
     0
 75
     0
 76
     0
 77
     0
 78
     8
170
     0
171
     2
172
     1
173
     0
174
     0
175
     0
176
   256
177
   256
178
     2
270
     2
271
     2
272
     2
273
     2
274
     2
340
6B
275
     0
280
     0
281
     0
282
     0
283
     0
284
     0
285
     0
286
     0
287
     3
288
     0
  0
DIMSTYLE
105
62
330
A
100
AcDbSymbolTableRecord
100
AcDbDimStyleTableRecord
  2
AM_JIS$7
 70
     0
  3

  4
"
  5
OPEN30
  6

  7

 40
1.0
 41
2.5
 42
1.0
 43
10.0
 44
1.0
 45
0.0
 46
0.0
 47
0.1
 48
0.1
140
3.2
141
0.0
142
0.0
143
0.0393701
144
1.0
145
0.0
146
0.71
147
1.5
 71
     0
 72
     0
 73
     0
 74
     0
 75
     0
 76
     0
 77
     3
 78
     8
170
     0
171
     2
172
     1
173
     0
174
     0
175
     0
176
   256
177
   256
178
     2
270
     2
271
     2
272
     3
273
     2
274
     2
340
6B
275
     0
280
     0
281
     0
282
     0
283
     0
284
     0
285
     0
286
     0
287
     3
288
     0
  0
DIMSTYLE
105
63
330
A
100
AcDbSymbolTableRecord
100
AcDbDimStyleTableRecord
  2
AM_JIS$SF
 70
     0
  3

  4
"
  5
OPEN30
  6

  7

 40
1.0
 41
2.5
 42
1.0
 43
10.0
 44
1.0
 45
0.0
 46
0.0
 47
0.1
 48
0.1
140
3.2
141
0.0
142
0.0
143
0.0393701
144
1.0
145
0.0
146
0.71
147
1.5
 71
     0
 72
     0
 73
     0
 74
     0
 75
     1
 76
     1
 77
     3
 78
     8
170
     0
171
     2
172
     1
173
     0
174
     0
175
     0
176
   256
177
   256
178
     2
270
     2
271
     2
272
     2
273
     2
274
     2
340
6B
275
     0
280
     0
281
     0
282
     0
283
     0
284
     0
285
     0
286
     0
287
     3
288
     0
  0
DIMSTYLE
105
68
330
A
100
AcDbSymbolTableRecord
100
AcDbDimStyleTableRecord
  2
AM_JIS$SH
 70
     0
  3

  4
"
  5

  6
GENAXEH
  7
OPEN30
 40
1.0
 41
2.5
 42
1.0
 43
10.0
 44
1.0
 45
0.0
 46
0.0
 47
0.1
 48
0.1
140
3.2
141
0.0
142
0.0
143
0.0393701
144
2.0
145
0.0
146
0.71
147
1.5
 71
     0
 72
     0
 73
     0
 74
     0
 75
     1
 76
     1
 77
     3
 78
     8
170
     0
171
     2
172
     1
173
     1
174
     0
175
     0
176
   256
177
   256
178
     2
270
     2
271
     2
272
     2
273
     2
274
     2
340
6B
275
     0
280
     0
281
     0
282
     0
283
     0
284
     0
285
     0
286
     0
287
     3
288
     0
  0
DIMSTYLE
105
B34
102
{ACAD_REACTORS
330
89A3
102
}
330
A
100
AcDbSymbolTableRecord
100
AcDbDimStyleTableRecord
  2
AM_JIS$2
 70
     0
  3

  4
"
  5
OPEN30
  6

  7

 40
1.0
 41
2.5
 42
1.0
 43
12.0
 44
1.0
 45
0.0
 46
0.0
 47
0.1
 48
0.1
140
3.2
141
0.0
142
0.0
143
0.0393701
144
1.0
145
0.0
146
0.71
147
1.5
 71
     0
 72
     0
 73
     0
 74
     0
 75
     0
 76
     0
 77
     3
 78
     8
170
     0
171
     2
172
     1
173
     0
174
     0
175
     0
176
   256
177
   256
178
     2
270
     2
271
     3
272
     3
273
     2
274
     2
340
6B
275
     0
280
     0
281
     0
282
     0
283
     0
284
     0
285
     0
286
     0
287
     3
288
     0
  0
DIMSTYLE
105
1E42
102
{ACAD_REACTORS
330
8A9D
102
}
330
A
100
AcDbSymbolTableRecord
100
AcDbDimStyleTableRecord
  2
AM_JIS$0
 70
     0
  3

  4
"
  5
OPEN30
  6

  7

 40
2.0
 41
2.5
 42
1.0
 43
10.0
 44
1.0
 45
0.0
 46
0.0
 47
0.1
 48
0.1
140
2.5
141
0.0
142
0.0
143
0.0393701
144
1.0
145
0.0
146
0.71
147
1.0
 71
     0
 72
     0
 73
     0
 74
     0
 75
     0
 76
     0
 77
     3
 78
     8
170
     0
171
     2
172
     1
173
     0
174
     0
175
     0
176
   256
177
   256
178
     4
270
     2
271
     3
272
     3
273
     2
274
     2
340
6B
275
     0
280
     0
281
     0
282
     0
283
     0
284
     0
285
     0
286
     0
287
     3
288
     0
  0
ENDTAB
  0
TABLE
  2
BLOCK_RECORD
  5
1
330
0
100
AcDbSymbolTable
 70
    15
  0
BLOCK_RECORD
  5
1F
102
{ACAD_XDICTIONARY
360
74
102
}
330
1
100
AcDbSymbolTableRecord
100
AcDbBlockTableRecord
  2
*MODEL_SPACE
  0
BLOCK_RECORD
  5
101
102
{ACAD_XDICTIONARY
360
8DAC
102
}
330
1
100
AcDbSymbolTableRecord
100
AcDbBlockTableRecord
  2
*PAPER_SPACE
  0
BLOCK_RECORD
  5
59
330
1
100
AcDbSymbolTableRecord
100
AcDbBlockTableRecord
  2
_OPEN30
  0
BLOCK_RECORD
  5
64
330
1
100
AcDbSymbolTableRecord
100
AcDbBlockTableRecord
  2
GENAXEH
  0
BLOCK_RECORD
  5
8647
330
1
100
AcDbSymbolTableRecord
100
AcDbBlockTableRecord
  2
*D5
  0
BLOCK_RECORD
  5
8653
330
1
100
AcDbSymbolTableRecord
100
AcDbBlockTableRecord
  2
*D6
  0
BLOCK_RECORD
  5
865F
330
1
100
AcDbSymbolTableRecord
100
AcDbBlockTableRecord
  2
*D7
  0
BLOCK_RECORD
  5
86D1
330
1
100
AcDbSymbolTableRecord
100
AcDbBlockTableRecord
  2
*D8
  0
BLOCK_RECORD
  5
86DD
330
1
100
AcDbSymbolTableRecord
100
AcDbBlockTableRecord
  2
*D9
  0
BLOCK_RECORD
  5
86E9
330
1
100
AcDbSymbolTableRecord
100
AcDbBlockTableRecord
  2
*D10
  0
BLOCK_RECORD
  5
8748
330
1
100
AcDbSymbolTableRecord
100
AcDbBlockTableRecord
  2
*D11
  0
BLOCK_RECORD
  5
8754
330
1
100
AcDbSymbolTableRecord
100
AcDbBlockTableRecord
  2
*D12
  0
BLOCK_RECORD
  5
89A4
330
1
100
AcDbSymbolTableRecord
100
AcDbBlockTableRecord
  2
*D13
  0
BLOCK_RECORD
  5
8A9E
330
1
100
AcDbSymbolTableRecord
100
AcDbBlockTableRecord
  2
*D14
  0
ENDTAB
  0
ENDSEC
  0
SECTION
  2
BLOCKS
  0
BLOCK
  5
20
330
1F
100
AcDbEntity
  8
0
100
AcDbBlockBegin
  2
*MODEL_SPACE
 70
     0
 10
0.0
 20
0.0
 30
0.0
  3
*MODEL_SPACE
  1

  0
ENDBLK
  5
21
330
1F
100
AcDbEntity
  8
0
100
AcDbBlockEnd
  0
BLOCK
  5
103
330
101
100
AcDbEntity
 67
     1
  8
0
100
AcDbBlockBegin
  2
*PAPER_SPACE
 70
     0
 10
0.0
 20
0.0
 30
0.0
  3
*PAPER_SPACE
  1

  0
ENDBLK
  5
104
330
101
100
AcDbEntity
 67
     1
  8
0
100
AcDbBlockEnd
  0
BLOCK
  5
5D
330
59
100
AcDbEntity
  8
0
100
AcDbBlockBegin
  2
_OPEN30
 70
     0
 10
0.0
 20
0.0
 30
0.0
  3
_OPEN30
  1

  0
LINE
  5
5A
330
59
100
AcDbEntity
  8
0
 62
     0
100
AcDbLine
 10
-1.0
 20
0.26794919
 30
0.0
 11
0.0
 21
0.0
 31
0.0
  0
LINE
  5
5B
330
59
100
AcDbEntity
  8
0
 62
     0
100
AcDbLine
 10
0.0
 20
0.0
 30
0.0
 11
-1.0
 21
-0.26794919
 31
0.0
  0
LINE
  5
5C
330
59
100
AcDbEntity
  8
0
 62
     0
100
AcDbLine
 10
0.0
 20
0.0
 30
0.0
 11
-1.0
 21
0.0
 31
0.0
  0
ENDBLK
  5
5E
330
59
100
AcDbEntity
  8
0
100
AcDbBlockEnd
  0
BLOCK
  5
66
330
64
100
AcDbEntity
  8
0
100
AcDbBlockBegin
  2
GENAXEH
 70
     0
 10
0.0
 20
0.0
 30
0.0
  3
GENAXEH
  1

  0
LINE
  5
65
330
64
100
AcDbEntity
  8
0
100
AcDbLine
 10
-1.0
 20
0.0
 30
0.0
 11
1.0
 21
0.0
 31
0.0
  0
ENDBLK
  5
67
330
64
100
AcDbEntity
  8
0
100
AcDbBlockEnd
  0
BLOCK
  5
8651
330
8647
100
AcDbEntity
  8
0
100
AcDbBlockBegin
  2
*D5
 70
     1
 10
0.0
 20
0.0
 30
0.0
  3
*D5
  1

  0
LINE
  5
8968
330
8647
100
AcDbEntity
  8
AM_5
100
AcDbLine
 10
-61.60000000000017
 20
64.99999999999994
 30
0.0
 11
-104.1017126265763
 21
64.99999999999996
 31
0.0
  0
LINE
  5
8969
330
8647
100
AcDbEntity
  8
AM_5
100
AcDbLine
 10
-61.6
 20
-64.99999999999994
 30
0.0
 11
-104.1017126265763
 21
-64.99999999999992
 31
0.0
  0
LINE
  5
896A
330
8647
100
AcDbEntity
  8
AM_5
100
AcDbLine
 10
-103.1017126265763
 20
62.49999999999995
 30
0.0
 11
-103.1017126265763
 21
-62.49999999999993
 31
0.0
  0
INSERT
  5
896B
330
8647
100
AcDbEntity
  8
AM_5
100
AcDbBlockReference
  2
_OPEN30
 10
-103.1017126265763
 20
64.99999999999996
 30
0.0
 41
2.5
 42
2.5
 43
2.5
 50
90.0
  0
INSERT
  5
896C
330
8647
100
AcDbEntity
  8
AM_5
100
AcDbBlockReference
  2
_OPEN30
 10
-103.1017126265763
 20
-64.99999999999992
 30
0.0
 41
2.5
 42
2.5
 43
2.5
 50
270.0
  0
MTEXT
  5
896D
330
8647
100
AcDbEntity
  8
AM_5
 62
     2
100
AcDbMText
 10
-106.2017126265763
 20
-0.0000000000000075
 30
0.0
 40
3.2
 41
0.0
 71
     5
 72
     1
  1
%%c130
  7
ASAMI
 11
0.0000000000000001
 21
1.0
 31
0.0
1001
ACAD
1000
MTEXTBEGIN
1070
    73
1070
     1
1070
    44
1040
1.0
1070
    74
1070
     0
1000
MTEXTEND
  0
POINT
  5
896E
330
8647
100
AcDbEntity
  8
DEFPOINTS
 62
     0
100
AcDbPoint
 10
-60.60000000000016
 20
64.99999999999994
 30
0.0
  0
POINT
  5
896F
330
8647
100
AcDbEntity
  8
DEFPOINTS
 62
     0
100
AcDbPoint
 10
-60.59999999999999
 20
-64.99999999999994
 30
0.0
  0
POINT
  5
8970
330
8647
100
AcDbEntity
  8
DEFPOINTS
 62
     0
100
AcDbPoint
 10
-103.1017126265763
 20
-64.99999999999992
 30
0.0
  0
ENDBLK
  5
8652
330
8647
100
AcDbEntity
  8
0
100
AcDbBlockEnd
  0
BLOCK
  5
865D
330
8653
100
AcDbEntity
  8
0
100
AcDbBlockBegin
  2
*D6
 70
     1
 10
0.0
 20
0.0
 30
0.0
  3
*D6
  1

  0
LINE
  5
8971
330
8653
100
AcDbEntity
  8
AM_5
100
AcDbLine
 10
-61.09999999999999
 20
23.8374999999999
 30
0.0
 11
-94.10171262657636
 21
23.83749999999991
 31
0.0
  0
LINE
  5
8972
330
8653
100
AcDbEntity
  8
AM_5
100
AcDbLine
 10
-61.09999999999999
 20
-23.83750000000002
 30
0.0
 11
-94.10171262657636
 21
-23.8375
 31
0.0
  0
LINE
  5
8973
330
8653
100
AcDbEntity
  8
AM_5
100
AcDbLine
 10
-93.10171262657636
 20
21.33749999999991
 30
0.0
 11
-93.10171262657636
 21
-21.3375
 31
0.0
  0
INSERT
  5
8974
330
8653
100
AcDbEntity
  8
AM_5
100
AcDbBlockReference
  2
_OPEN30
 10
-93.10171262657636
 20
23.83749999999991
 30
0.0
 41
2.5
 42
2.5
 43
2.5
 50
90.0
  0
INSERT
  5
8975
330
8653
100
AcDbEntity
  8
AM_5
100
AcDbBlockReference
  2
_OPEN30
 10
-93.10171262657636
 20
-23.8375
 30
0.0
 41
2.5
 42
2.5
 43
2.5
 50
270.0
  0
MTEXT
  5
8976
330
8653
100
AcDbEntity
  8
AM_5
 62
     2
100
AcDbMText
 10
-96.20171262657635
 20
-0.0000000000000614
 30
0.0
 40
3.2
 41
0.0
 71
     5
 72
     1
  1
%%c47.675
  7
ASAMI
 11
0.0000000000000001
 21
1.0
 31
0.0
1001
ACAD
1000
MTEXTBEGIN
1070
    73
1070
     1
1070
    44
1040
1.0
1070
    74
1070
     0
1000
MTEXTEND
  0
POINT
  5
8977
330
8653
100
AcDbEntity
  8
DEFPOINTS
 62
     0
100
AcDbPoint
 10
-60.09999999999999
 20
23.8374999999999
 30
0.0
  0
POINT
  5
8978
330
8653
100
AcDbEntity
  8
DEFPOINTS
 62
     0
100
AcDbPoint
 10
-60.09999999999999
 20
-23.83750000000002
 30
0.0
  0
POINT
  5
8979
330
8653
100
AcDbEntity
  8
DEFPOINTS
 62
     0
100
AcDbPoint
 10
-93.10171262657636
 20
-23.8375
 30
0.0
  0
ENDBLK
  5
865E
330
8653
100
AcDbEntity
  8
0
100
AcDbBlockEnd
  0
BLOCK
  5
8669
330
865F
100
AcDbEntity
  8
0
100
AcDbBlockBegin
  2
*D7
 70
     1
 10
0.0
 20
0.0
 30
0.0
  3
*D7
  1

  0
LINE
  5
897A
330
865F
100
AcDbEntity
  8
AM_5
100
AcDbLine
 10
-62.09999999999999
 20
12.69999999999998
 30
0.0
 11
-84.10171262657636
 21
12.69999999999999
 31
0.0
  0
LINE
  5
897B
330
865F
100
AcDbEntity
  8
AM_5
100
AcDbLine
 10
-62.09999999999999
 20
-12.69999999999998
 30
0.0
 11
-84.10171262657636
 21
-12.69999999999998
 31
0.0
  0
LINE
  5
897C
330
865F
100
AcDbEntity
  8
AM_5
100
AcDbLine
 10
-83.10171262657636
 20
10.19999999999999
 30
0.0
 11
-83.10171262657636
 21
-10.19999999999998
 31
0.0
  0
INSERT
  5
897D
330
865F
100
AcDbEntity
  8
AM_5
100
AcDbBlockReference
  2
_OPEN30
 10
-83.10171262657636
 20
12.69999999999999
 30
0.0
 41
2.5
 42
2.5
 43
2.5
 50
90.0
  0
INSERT
  5
897E
330
865F
100
AcDbEntity
  8
AM_5
100
AcDbBlockReference
  2
_OPEN30
 10
-83.10171262657636
 20
-12.69999999999998
 30
0.0
 41
2.5
 42
2.5
 43
2.5
 50
270.0
  0
MTEXT
  5
897F
330
865F
100
AcDbEntity
  8
AM_5
 62
     2
100
AcDbMText
 10
-86.20171262657635
 20
0.0000000000000004
 30
0.0
 40
3.2
 41
0.0
 71
     5
 72
     1
  1
25.4
  7
ASAMI
 11
0.0000000000000001
 21
1.0
 31
0.0
1001
ACAD
1000
MTEXTBEGIN
1070
    73
1070
     1
1070
    44
1040
1.0
1070
    74
1070
     0
1000
MTEXTEND
  0
POINT
  5
8980
330
865F
100
AcDbEntity
  8
DEFPOINTS
 62
     0
100
AcDbPoint
 10
-61.09999999999999
 20
12.69999999999998
 30
0.0
  0
POINT
  5
8981
330
865F
100
AcDbEntity
  8
DEFPOINTS
 62
     0
100
AcDbPoint
 10
-61.09999999999999
 20
-12.69999999999998
 30
0.0
  0
POINT
  5
8982
330
865F
100
AcDbEntity
  8
DEFPOINTS
 62
     0
100
AcDbPoint
 10
-83.10171262657636
 20
-12.69999999999998
 30
0.0
  0
ENDBLK
  5
866A
330
865F
100
AcDbEntity
  8
0
100
AcDbBlockEnd
  0
BLOCK
  5
86DB
330
86D1
100
AcDbEntity
  8
0
100
AcDbBlockBegin
  2
*D8
 70
     1
 10
0.0
 20
0.0
 30
0.0
  3
*D8
  1

  0
LINE
  5
8D18
330
86D1
100
AcDbEntity
  8
AM_5
100
AcDbLine
 10
-62.99999999999997
 20
-63.59999999999994
 30
0.0
 11
-62.99999999999997
 21
-115.0001664429652
 31
0.0
  0
LINE
  5
8D19
330
86D1
100
AcDbEntity
  8
AM_5
100
AcDbLine
 10
-49.49999999999985
 20
-12.69999999999999
 30
0.0
 11
-49.49999999999986
 21
-115.0001664429652
 31
0.0
  0
LINE
  5
8D1A
330
86D1
100
AcDbEntity
  8
AM_5
100
AcDbLine
 10
-60.49999999999997
 20
-114.0001664429652
 30
0.0
 11
-51.99999999999986
 21
-114.0001664429652
 31
0.0
  0
INSERT
  5
8D1B
330
86D1
100
AcDbEntity
  8
AM_5
100
AcDbBlockReference
  2
_OPEN30
 10
-62.99999999999997
 20
-114.0001664429652
 30
0.0
 41
2.5
 42
2.5
 43
2.5
 50
180.0
  0
INSERT
  5
8D1C
330
86D1
100
AcDbEntity
  8
AM_5
100
AcDbBlockReference
  2
_OPEN30
 10
-49.49999999999986
 20
-114.0001664429652
 30
0.0
 41
2.5
 42
2.5
 43
2.5
  0
MTEXT
  5
8D1D
330
86D1
100
AcDbEntity
  8
AM_5
 62
     2
100
AcDbMText
 10
-56.24999999999992
 20
-110.9001664429652
 30
0.0
 40
3.2
 41
0.0
 71
     5
 72
     1
  1
13.5
  7
ASAMI
1001
ACAD
1000
MTEXTBEGIN
1070
    73
1070
     1
1070
    44
1040
1.0
1070
    74
1070
     0
1000
MTEXTEND
  0
POINT
  5
8D1E
330
86D1
100
AcDbEntity
  8
DEFPOINTS
 62
     0
100
AcDbPoint
 10
-62.99999999999997
 20
-62.59999999999994
 30
0.0
  0
POINT
  5
8D1F
330
86D1
100
AcDbEntity
  8
DEFPOINTS
 62
     0
100
AcDbPoint
 10
-49.49999999999985
 20
-11.69999999999999
 30
0.0
  0
POINT
  5
8D20
330
86D1
100
AcDbEntity
  8
DEFPOINTS
 62
     0
100
AcDbPoint
 10
-49.49999999999986
 20
-114.0001664429652
 30
0.0
  0
ENDBLK
  5
86DC
330
86D1
100
AcDbEntity
  8
0
100
AcDbBlockEnd
  0
BLOCK
  5
86E7
330
86DD
100
AcDbEntity
  8
0
100
AcDbBlockBegin
  2
*D9
 70
     1
 10
0.0
 20
0.0
 30
0.0
  3
*D9
  1

  0
LINE
  5
8C68
330
86DD
100
AcDbEntity
  8
AM_5
100
AcDbLine
 10
-62.99999999999997
 20
-63.59999999999994
 30
0.0
 11
-62.99999999999998
 21
-145.0001664429652
 31
0.0
  0
LINE
  5
8C69
330
86DD
100
AcDbEntity
  8
AM_5
100
AcDbLine
 10
-0.0000000000000001
 20
-101.0
 30
0.0
 11
-0.0000000000000028
 21
-145.0001664429652
 31
0.0
  0
LINE
  5
8C6A
330
86DD
100
AcDbEntity
  8
AM_5
100
AcDbLine
 10
-60.49999999999998
 20
-144.0001664429652
 30
0.0
 11
-2.500000000000002
 21
-144.0001664429652
 31
0.0
  0
INSERT
  5
8C6B
330
86DD
100
AcDbEntity
  8
AM_5
100
AcDbBlockReference
  2
_OPEN30
 10
-62.99999999999998
 20
-144.0001664429652
 30
0.0
 41
2.5
 42
2.5
 43
2.5
 50
180.0
  0
INSERT
  5
8C6C
330
86DD
100
AcDbEntity
  8
AM_5
100
AcDbBlockReference
  2
_OPEN30
 10
-0.0000000000000027
 20
-144.0001664429652
 30
0.0
 41
2.5
 42
2.5
 43
2.5
  0
MTEXT
  5
8C6D
330
86DD
100
AcDbEntity
  8
AM_5
 62
     2
100
AcDbMText
 10
-31.49999999999999
 20
-140.9001664429652
 30
0.0
 40
3.2
 41
0.0
 71
     5
 72
     1
  1
63
  7
ASAMI
1001
ACAD
1000
MTEXTBEGIN
1070
    73
1070
     1
1070
    44
1040
1.0
1070
    74
1070
     0
1000
MTEXTEND
  0
POINT
  5
8C6E
330
86DD
100
AcDbEntity
  8
DEFPOINTS
 62
     0
100
AcDbPoint
 10
-62.99999999999997
 20
-62.59999999999994
 30
0.0
  0
POINT
  5
8C6F
330
86DD
100
AcDbEntity
  8
DEFPOINTS
 62
     0
100
AcDbPoint
 10
0.0
 20
-100.0
 30
0.0
  0
POINT
  5
8C70
330
86DD
100
AcDbEntity
  8
DEFPOINTS
 62
     0
100
AcDbPoint
 10
-0.0000000000000027
 20
-144.0001664429652
 30
0.0
  0
ENDBLK
  5
86E8
330
86DD
100
AcDbEntity
  8
0
100
AcDbBlockEnd
  0
BLOCK
  5
86F3
330
86E9
100
AcDbEntity
  8
0
100
AcDbBlockBegin
  2
*D10
 70
     1
 10
0.0
 20
0.0
 30
0.0
  3
*D10
  1

  0
LINE
  5
8C71
330
86E9
100
AcDbEntity
  8
AM_5
100
AcDbLine
 10
-62.99999999999997
 20
-63.59999999999994
 30
0.0
 11
-62.99999999999998
 21
-135.0001664429652
 31
0.0
  0
LINE
  5
8C72
330
86E9
100
AcDbEntity
  8
AM_5
100
AcDbLine
 10
-25.00000000000037
 20
-51.0
 30
0.0
 11
-25.00000000000037
 21
-135.0001664429652
 31
0.0
  0
LINE
  5
8C73
330
86E9
100
AcDbEntity
  8
AM_5
100
AcDbLine
 10
-60.49999999999998
 20
-134.0001664429652
 30
0.0
 11
-27.50000000000037
 21
-134.0001664429652
 31
0.0
  0
INSERT
  5
8C74
330
86E9
100
AcDbEntity
  8
AM_5
100
AcDbBlockReference
  2
_OPEN30
 10
-62.99999999999998
 20
-134.0001664429652
 30
0.0
 41
2.5
 42
2.5
 43
2.5
 50
180.0
  0
INSERT
  5
8C75
330
86E9
100
AcDbEntity
  8
AM_5
100
AcDbBlockReference
  2
_OPEN30
 10
-25.00000000000037
 20
-134.0001664429652
 30
0.0
 41
2.5
 42
2.5
 43
2.5
  0
MTEXT
  5
8C76
330
86E9
100
AcDbEntity
  8
AM_5
 62
     2
100
AcDbMText
 10
-44.00000000000018
 20
-130.9001664429652
 30
0.0
 40
3.2
 41
0.0
 71
     5
 72
     1
  1
38
  7
ASAMI
1001
ACAD
1000
MTEXTBEGIN
1070
    73
1070
     1
1070
    44
1040
1.0
1070
    74
1070
     0
1000
MTEXTEND
  0
POINT
  5
8C77
330
86E9
100
AcDbEntity
  8
DEFPOINTS
 62
     0
100
AcDbPoint
 10
-62.99999999999997
 20
-62.59999999999994
 30
0.0
  0
POINT
  5
8C78
330
86E9
100
AcDbEntity
  8
DEFPOINTS
 62
     0
100
AcDbPoint
 10
-25.00000000000037
 20
-50.0
 30
0.0
  0
POINT
  5
8C79
330
86E9
100
AcDbEntity
  8
DEFPOINTS
 62
     0
100
AcDbPoint
 10
-25.00000000000037
 20
-134.0001664429652
 30
0.0
  0
ENDBLK
  5
86F4
330
86E9
100
AcDbEntity
  8
0
100
AcDbBlockEnd
  0
BLOCK
  5
8752
330
8748
100
AcDbEntity
  8
0
100
AcDbBlockBegin
  2
*D11
 70
     1
 10
0.0
 20
0.0
 30
0.0
  3
*D11
  1

  0
LINE
  5
8CA2
330
8748
100
AcDbEntity
  8
AM_5
100
AcDbLine
 10
1.0
 20
100.0
 30
0.0
 11
45.00016644296529
 21
100.0
 31
0.0
  0
LINE
  5
8CA3
330
8748
100
AcDbEntity
  8
AM_5
100
AcDbLine
 10
1.0
 20
-100.0
 30
0.0
 11
45.00016644296525
 21
-100.0
 31
0.0
  0
LINE
  5
8CA4
330
8748
100
AcDbEntity
  8
AM_5
100
AcDbLine
 10
44.00016644296529
 20
97.5
 30
0.0
 11
44.00016644296525
 21
-97.50000000000001
 31
0.0
  0
INSERT
  5
8CA5
330
8748
100
AcDbEntity
  8
AM_5
100
AcDbBlockReference
  2
_OPEN30
 10
44.00016644296529
 20
100.0
 30
0.0
 41
2.5
 42
2.5
 43
2.5
 50
90.0
  0
INSERT
  5
8CA6
330
8748
100
AcDbEntity
  8
AM_5
100
AcDbBlockReference
  2
_OPEN30
 10
44.00016644296525
 20
-100.0
 30
0.0
 41
2.5
 42
2.5
 43
2.5
 50
270.0
  0
MTEXT
  5
8CA7
330
8748
100
AcDbEntity
  8
AM_5
 62
     2
100
AcDbMText
 10
40.90016644296527
 20
-0.0000000000000023
 30
0.0
 40
3.2
 41
0.0
 71
     5
 72
     1
  1
%%c200
  7
ASAMI
 11
0.0000000000000001
 21
1.0
 31
0.0
1001
ACAD
1000
MTEXTBEGIN
1070
    73
1070
     1
1070
    44
1040
1.0
1070
    74
1070
     0
1000
MTEXTEND
  0
POINT
  5
8CA8
330
8748
100
AcDbEntity
  8
DEFPOINTS
 62
     0
100
AcDbPoint
 10
0.0
 20
100.0
 30
0.0
  0
POINT
  5
8CA9
330
8748
100
AcDbEntity
  8
DEFPOINTS
 62
     0
100
AcDbPoint
 10
0.0
 20
-100.0
 30
0.0
  0
POINT
  5
8CAA
330
8748
100
AcDbEntity
  8
DEFPOINTS
 62
     0
100
AcDbPoint
 10
44.00016644296525
 20
-100.0
 30
0.0
  0
ENDBLK
  5
8753
330
8748
100
AcDbEntity
  8
0
100
AcDbBlockEnd
  0
BLOCK
  5
875E
330
8754
100
AcDbEntity
  8
0
100
AcDbBlockBegin
  2
*D12
 70
     1
 10
0.0
 20
0.0
 30
0.0
  3
*D12
  1

  0
LINE
  5
8983
330
8754
100
AcDbEntity
  8
AM_5
100
AcDbLine
 10
-24.00000000000037
 20
50.0
 30
0.0
 11
22.70404903792524
 21
49.99999999999999
 31
0.0
  0
LINE
  5
8984
330
8754
100
AcDbEntity
  8
AM_5
100
AcDbLine
 10
-24.00000000000037
 20
-50.0
 30
0.0
 11
22.70404903792521
 21
-50.00000000000001
 31
0.0
  0
LINE
  5
8985
330
8754
100
AcDbEntity
  8
AM_5
100
AcDbLine
 10
21.70404903792523
 20
47.49999999999999
 30
0.0
 11
21.70404903792521
 21
-47.50000000000001
 31
0.0
  0
INSERT
  5
8986
330
8754
100
AcDbEntity
  8
AM_5
100
AcDbBlockReference
  2
_OPEN30
 10
21.70404903792523
 20
49.99999999999999
 30
0.0
 41
2.5
 42
2.5
 43
2.5
 50
90.0
  0
INSERT
  5
8987
330
8754
100
AcDbEntity
  8
AM_5
100
AcDbBlockReference
  2
_OPEN30
 10
21.70404903792521
 20
-50.00000000000001
 30
0.0
 41
2.5
 42
2.5
 43
2.5
 50
270.0
  0
MTEXT
  5
8988
330
8754
100
AcDbEntity
  8
AM_5
 62
     2
100
AcDbMText
 10
18.60404903792522
 20
-0.0000000000000081
 30
0.0
 40
3.2
 41
0.0
 71
     5
 72
     1
  1
%%c100
  7
ASAMI
 11
0.0000000000000001
 21
1.0
 31
0.0
1001
ACAD
1000
MTEXTBEGIN
1070
    73
1070
     1
1070
    44
1040
1.0
1070
    74
1070
     0
1000
MTEXTEND
  0
POINT
  5
8989
330
8754
100
AcDbEntity
  8
DEFPOINTS
 62
     0
100
AcDbPoint
 10
-25.00000000000037
 20
50.0
 30
0.0
  0
POINT
  5
898A
330
8754
100
AcDbEntity
  8
DEFPOINTS
 62
     0
100
AcDbPoint
 10
-25.00000000000037
 20
-50.0
 30
0.0
  0
POINT
  5
898B
330
8754
100
AcDbEntity
  8
DEFPOINTS
 62
     0
100
AcDbPoint
 10
21.70404903792521
 20
-50.00000000000001
 30
0.0
  0
ENDBLK
  5
875F
330
8754
100
AcDbEntity
  8
0
100
AcDbBlockEnd
  0
BLOCK
  5
89B4
330
89A4
100
AcDbEntity
  8
0
100
AcDbBlockBegin
  2
*D13
 70
     1
 10
0.0
 20
0.0
 30
0.0
  3
*D13
  1

  0
LINE
  5
8C97
330
89A4
100
AcDbEntity
  8
AM_5
100
AcDbLine
 10
0.0
 20
-101.0
 30
0.0
 11
0.0
 21
-145.0001664429652
 31
0.0
  0
LINE
  5
8C98
330
89A4
100
AcDbEntity
  8
AM_5
100
AcDbLine
 10
1.000000000000007
 20
-100.0
 30
0.0
 11
45.00016644296525
 21
-100.0
 31
0.0
  0
ARC
  5
8C99
330
89A4
100
AcDbEntity
  8
AM_5
100
AcDbCircle
 10
-0.0000000000000071
 20
-100.0
 30
0.0
 40
44.00016644296525
100
AcDbArc
 50
273.2558677557377
 51
356.7441322442623
  0
INSERT
  5
8C9A
330
89A4
100
AcDbEntity
  8
AM_5
100
AcDbBlockReference
  2
_OPEN30
 10
0.0
 20
-144.0001664429652
 30
0.0
 41
2.5
 42
2.5
 43
2.5
 50
181.6279338778688
  0
INSERT
  5
8C9B
330
89A4
100
AcDbEntity
  8
AM_5
100
AcDbBlockReference
  2
_OPEN30
 10
44.00016644296525
 20
-100.0
 30
0.0
 41
2.5
 42
2.5
 43
2.5
 50
88.37206612213117
  0
MTEXT
  5
8C9C
330
89A4
100
AcDbEntity
  8
AM_5
 62
     2
100
AcDbMText
 10
28.92078504347918
 20
-128.9207850434792
 30
0.0
 40
3.2
 41
0.0
 71
     5
 72
     1
  1
90°
  7
ASAMI
 11
0.7071067811865476
 21
0.7071067811865475
 31
0.0
1001
ACAD
1000
MTEXTBEGIN
1070
    73
1070
     1
1070
    44
1040
1.0
1070
    74
1070
     0
1000
MTEXTEND
  0
POINT
  5
8C9D
330
89A4
100
AcDbEntity
  8
DEFPOINTS
 62
     0
100
AcDbPoint
 10
22.00008322148262
 20
-138.1052619103514
 30
0.0
  0
POINT
  5
8C9E
330
89A4
100
AcDbEntity
  8
DEFPOINTS
 62
     0
100
AcDbPoint
 10
0.0
 20
99.18846823328653
 30
0.0
  0
POINT
  5
8C9F
330
89A4
100
AcDbEntity
  8
DEFPOINTS
 62
     0
100
AcDbPoint
 10
-0.7727379999997695
 20
-100.0
 30
0.0
  0
POINT
  5
8CA0
330
89A4
100
AcDbEntity
  8
DEFPOINTS
 62
     0
100
AcDbPoint
 10
-0.0000000000000071
 20
-100.0
 30
0.0
  0
POINT
  5
8CA1
330
89A4
100
AcDbEntity
  8
DEFPOINTS
 62
     0
100
AcDbPoint
 10
-0.0000000000000071
 20
-100.0
 30
0.0
  0
ENDBLK
  5
89B5
330
89A4
100
AcDbEntity
  8
0
100
AcDbBlockEnd
  0
BLOCK
  5
8AA8
330
8A9E
100
AcDbEntity
  8
0
100
AcDbBlockBegin
  2
*D14
 70
     1
 10
0.0
 20
0.0
 30
0.0
  3
*D14
  1

  0
LINE
  5
8CF1
330
8A9E
100
AcDbEntity
  8
AM_5
100
AcDbLine
 10
-62.99999999999997
 20
-63.59999999999994
 30
0.0
 11
-62.99999999999998
 21
-125.0001664429652
 31
0.0
  0
LINE
  5
8CF2
330
8A9E
100
AcDbEntity
  8
AM_5
100
AcDbLine
 10
-31.00000000000012
 20
-64.80000000000001
 30
0.0
 11
-31.00000000000013
 21
-125.0001664429652
 31
0.0
  0
LINE
  5
8CF3
330
8A9E
100
AcDbEntity
  8
AM_5
100
AcDbLine
 10
-60.49999999999998
 20
-124.0001664429652
 30
0.0
 11
-33.50000000000012
 21
-124.0001664429652
 31
0.0
  0
INSERT
  5
8CF4
330
8A9E
100
AcDbEntity
  8
AM_5
100
AcDbBlockReference
  2
_OPEN30
 10
-62.99999999999998
 20
-124.0001664429652
 30
0.0
 41
2.5
 42
2.5
 43
2.5
 50
180.0
  0
INSERT
  5
8CF5
330
8A9E
100
AcDbEntity
  8
AM_5
100
AcDbBlockReference
  2
_OPEN30
 10
-31.00000000000013
 20
-124.0001664429652
 30
0.0
 41
2.5
 42
2.5
 43
2.5
  0
MTEXT
  5
8CF6
330
8A9E
100
AcDbEntity
  8
AM_5
 62
     2
100
AcDbMText
 10
-47.00000000000005
 20
-120.9001664429652
 30
0.0
 40
3.2
 41
0.0
 71
     5
 72
     1
  1
32
  7
ASAMI
1001
ACAD
1000
MTEXTBEGIN
1070
    73
1070
     1
1070
    44
1040
1.0
1070
    74
1070
     0
1000
MTEXTEND
  0
POINT
  5
8CF7
330
8A9E
100
AcDbEntity
  8
DEFPOINTS
 62
     0
100
AcDbPoint
 10
-62.99999999999997
 20
-62.59999999999994
 30
0.0
  0
POINT
  5
8CF8
330
8A9E
100
AcDbEntity
  8
DEFPOINTS
 62
     0
100
AcDbPoint
 10
-31.00000000000012
 20
-63.80000000000001
 30
0.0
  0
POINT
  5
8CF9
330
8A9E
100
AcDbEntity
  8
DEFPOINTS
 62
     0
100
AcDbPoint
 10
-31.00000000000013
 20
-124.0001664429652
 30
0.0
  0
ENDBLK
  5
8AA9
330
8A9E
100
AcDbEntity
  8
0
100
AcDbBlockEnd
  0
ENDSEC
  0
SECTION
  2
ENTITIES
  0
TEXT
  5
E5A
330
1F
100
AcDbEntity
  8
AM_6
100
AcDbText
 10
-50.30952380952378
 20
-166.5001664429652
 30
0.0
 40
5.0
  1
CHG4200R
 72
     4
 11
-31.49999999999997
 21
-164.0001664429652
 31
0.0
100
AcDbText
  0
LINE
  5
6D81
330
1F
100
AcDbEntity
  8
AM_11
100
AcDbLine
 10
-31.50000000000019
 20
41.79999999999978
 30
0.0
 11
-31.50000000000042
 21
59.80000000000003
 31
0.0
  0
LINE
  5
6D82
330
1F
100
AcDbEntity
  8
AM_11
100
AcDbLine
 10
-61.09999999999999
 20
41.79999999999998
 30
0.0
 11
-61.09999999999999
 21
59.79999999999989
 31
0.0
  0
LINE
  5
6D83
330
1F
100
AcDbEntity
  8
AM_11
100
AcDbLine
 10
-31.0000000000002
 20
37.80000000000001
 30
0.0
 11
-31.00000000000042
 21
63.80000000000001
 31
0.0
  0
LINE
  5
6D85
330
1F
100
AcDbEntity
  8
AM_3
100
AcDbLine
 10
-1.999999999999971
 20
81.10000000000002
 30
0.0
 11
-1.999999999999943
 21
78.11122447329364
 31
0.0
  0
LINE
  5
6D86
330
1F
100
AcDbEntity
  8
AM_0
100
AcDbLine
 10
-4.500000000000085
 20
56.49295844483808
 30
0.0
 11
-4.500000000000085
 21
0.0
 31
0.0
  0
LINE
  5
6D87
330
1F
100
AcDbEntity
  8
AM_0
100
AcDbLine
 10
-3.700000000000017
 20
0.0000000000000568
 30
0.0
 11
-3.700000000000244
 21
69.94999999999996
 31
0.0
  0
LINE
  5
6D88
330
1F
100
AcDbEntity
  8
AM_0
100
AcDbLine
 10
-62.99999999999999
 20
14.59999999999999
 30
0.0
 11
-62.99999999999997
 21
62.59999999999994
 31
0.0
  0
LINE
  5
6D89
330
1F
100
AcDbEntity
  8
AM_3
100
AcDbLine
 10
-21.80077096375916
 20
-96.4107401842409
 30
0.0
 11
-2.999229036240848
 21
-95.67202558999937
 31
0.0
  0
LINE
  5
6D8A
330
1F
100
AcDbEntity
  8
AM_3
100
AcDbLine
 10
-1.999999999999971
 20
-81.10000000000002
 30
0.0
 11
-2.525055420477997
 21
-78.12226273955127
 31
0.0
  0
LINE
  5
6D8B
330
1F
100
AcDbEntity
  8
AM_7
100
AcDbLine
 10
-66.71594045351705
 20
-50.80000000000001
 30
0.0
 11
2.067129077551868
 21
-50.80000000000001
 31
0.0
  0
LINE
  5
6D8C
330
1F
100
AcDbEntity
  8
AM_7
100
AcDbLine
 10
-69.10171162657636
 20
0.0
 30
0.0
 11
7.704048037925218
 21
0.0
 31
0.0
  0
LINE
  5
6D8D
330
1F
100
AcDbEntity
  8
AM_11
100
AcDbLine
 10
-31.50000000000019
 20
-41.79999999999978
 30
0.0
 11
-31.50000000000042
 21
-59.80000000000003
 31
0.0
  0
LINE
  5
6D8E
330
1F
100
AcDbEntity
  8
AM_11
100
AcDbLine
 10
-31.0000000000002
 20
-37.80000000000001
 30
0.0
 11
-31.00000000000042
 21
-63.80000000000001
 31
0.0
  0
LINE
  5
6D8F
330
1F
100
AcDbEntity
  8
AM_0
100
AcDbLine
 10
-62.99999999999997
 20
-14.59999999999999
 30
0.0
 11
-62.99999999999997
 21
-62.59999999999994
 31
0.0
  0
LINE
  5
6D90
330
1F
100
AcDbEntity
  8
AM_11
100
AcDbLine
 10
-61.09999999999999
 20
-41.79999999999998
 30
0.0
 11
-61.09999999999999
 21
-59.79999999999989
 31
0.0
  0
LINE
  5
6D91
330
1F
100
AcDbEntity
  8
AM_0
100
AcDbLine
 10
-3.700000000000017
 20
-0.0000000000000568
 30
0.0
 11
-3.700000000000244
 21
-69.94999999999996
 31
0.0
  0
LINE
  5
6D92
330
1F
100
AcDbEntity
  8
AM_0
100
AcDbLine
 10
-4.500000000000085
 20
-56.49295844483808
 30
0.0
 11
-4.500000000000085
 21
0.0
 31
0.0
  0
LINE
  5
6D93
330
1F
100
AcDbEntity
  8
AM_0
100
AcDbLine
 10
-24.99999999999997
 20
0.0
 30
0.0
 11
-25.00000000000031
 21
-49.38613840961682
 31
0.0
  0
LINE
  5
6D94
330
1F
100
AcDbEntity
  8
AM_11
100
AcDbLine
 10
-62.99999999999997
 20
-61.70000000000005
 30
0.0
 11
-61.09999999999999
 21
-59.80000000000003
 31
0.0
  0
LINE
  5
6D96
330
1F
100
AcDbEntity
  8
AM_3
100
AcDbLine
 10
-22.79999999999992
 20
-87.59999999999999
 30
0.0
 11
-22.79999999999992
 21
-95.44999999999996
 31
0.0
  0
LINE
  5
6D97
330
1F
100
AcDbEntity
  8
AM_3
100
AcDbLine
 10
-27.79999999999992
 20
-87.62587537609226
 30
0.0
 11
-27.79999999999992
 21
-94.32004668804021
 31
0.0
  0
LINE
  5
6D98
330
1F
100
AcDbEntity
  8
AM_0
100
AcDbLine
 10
-47.74845777328581
 20
-66.48236190979486
 30
0.0
 11
-40.39719767662015
 21
-93.91763809020506
 31
0.0
  0
LINE
  5
6D99
330
1F
100
AcDbEntity
  8
AM_0
100
AcDbLine
 10
-38.46534602404196
 20
-95.40000000000004
 30
0.0
 11
-28.79999999999992
 21
-95.40000000000004
 31
0.0
  0
LINE
  5
6D9D
330
1F
100
AcDbEntity
  8
AM_11
100
AcDbLine
 10
-61.1000000000001
 20
-59.80000000000007
 30
0.0
 11
-31.50000000000031
 21
-59.80000000000003
 31
0.0
  0
LINE
  5
6D9F
330
1F
100
AcDbEntity
  8
AM_0
100
AcDbLine
 10
-60.59999999999999
 20
-64.99999999999994
 30
0.0
 11
-49.68030942586401
 21
-64.99999999999992
 31
0.0
  0
LINE
  5
6DA0
330
1F
100
AcDbEntity
  8
AM_0
100
AcDbLine
 10
-27.39999999999994
 20
-87.19999999999997
 30
0.0
 11
-23.1999999999999
 21
-87.19999999999998
 31
0.0
  0
ARC
  5
6DA1
330
1F
100
AcDbEntity
  8
AM_0
100
AcDbCircle
 10
-27.39999999999994
 20
-87.59999999999996
 30
0.0
 40
0.4
100
AcDbArc
 50
90.0
 51
180.0
  0
ARC
  5
6DA2
330
1F
100
AcDbEntity
  8
AM_3
100
AcDbCircle
 10
-23.1999999999999
 20
-87.59999999999999
 30
0.0
 40
0.4
100
AcDbArc
 50
0.0
 51
11.40163518680057
  0
LINE
  5
6DA3
330
1F
100
AcDbEntity
  8
AM_0
100
AcDbLine
 10
-4.500000000000085
 20
-69.94999999999999
 30
0.0
 11
-4.500000000000198
 21
-71.44999999999996
 31
0.0
  0
LINE
  5
6DA4
330
1F
100
AcDbEntity
  8
AM_0
100
AcDbLine
 10
-4.500000000000085
 20
-69.94999999999999
 30
0.0
 11
-3.70000000000013
 21
-69.94999999999999
 31
0.0
  0
LINE
  5
6DA5
330
1F
100
AcDbEntity
  8
AM_0
100
AcDbLine
 10
-4.500000000000198
 20
-71.45000000000002
 30
0.0
 11
-3.701555363836718
 21
-71.44999999999999
 31
0.0
  0
LINE
  5
6DA6
330
1F
100
AcDbEntity
  8
AM_11
100
AcDbLine
 10
-31.00000000000042
 20
-63.80000000000001
 30
0.0
 11
-5.500000000000198
 21
-63.80000000000001
 31
0.0
  0
LINE
  5
6DA7
330
1F
100
AcDbEntity
  8
AM_0
100
AcDbLine
 10
-24.40705523608241
 20
-50.15887907064808
 30
0.0
 11
-5.465925826289179
 21
-55.23413939973557
 31
0.0
  0
LINE
  5
6DA8
330
1F
100
AcDbEntity
  8
AM_11
100
AcDbLine
 10
-31.50000000000031
 20
-59.80000000000003
 30
0.0
 11
-31.00000000000031
 21
-60.30000000000004
 31
0.0
  0
LINE
  5
6DAA
330
1F
100
AcDbEntity
  8
AM_0
100
AcDbLine
 10
-4.500000000000085
 20
-64.94999999999999
 30
0.0
 11
-3.70000000000013
 21
-64.94999999999999
 31
0.0
  0
LINE
  5
6DAB
330
1F
100
AcDbEntity
  8
AM_11
100
AcDbLine
 10
-5.500000000000198
 20
-63.79999999999992
 30
0.0
 11
-5.500000000000085
 21
-60.82108201696735
 31
0.0
  0
LINE
  5
6DAC
330
1F
100
AcDbEntity
  8
AM_11
100
AcDbLine
 10
-5.500000000000085
 20
-63.79999999999999
 30
0.0
 11
-4.500000000000198
 21
-64.79999999999998
 31
0.0
  0
LINE
  5
6DAD
330
1F
100
AcDbEntity
  8
AM_0
100
AcDbLine
 10
-4.500000000000085
 20
-56.49295844483808
 30
0.0
 11
-5.465925826289179
 21
-55.23413939973557
 31
0.0
  0
LINE
  5
6DAE
330
1F
100
AcDbEntity
  8
AM_0
100
AcDbLine
 10
-4.500000000000085
 20
-64.94999999999999
 30
0.0
 11
-4.500000000000085
 21
-56.49295844483808
 31
0.0
  0
LINE
  5
6DAF
330
1F
100
AcDbEntity
  8
AM_11
100
AcDbLine
 10
-62.99999999999997
 20
-39.89999999999998
 30
0.0
 11
-61.09999999999999
 21
-41.79999999999998
 31
0.0
  0
LINE
  5
6DB2
330
1F
100
AcDbEntity
  8
AM_11
100
AcDbLine
 10
-62.99999999999997
 20
39.89999999999998
 30
0.0
 11
-61.09999999999999
 21
41.79999999999998
 31
0.0
  0
LINE
  5
6DB5
330
1F
100
AcDbEntity
  8
AM_0
100
AcDbLine
 10
-25.99999999999997
 20
0.0
 30
0.0
 11
-25.99999999999997
 21
23.52249999999999
 31
0.0
  0
LINE
  5
6DB6
330
1F
100
AcDbEntity
  8
AM_0
100
AcDbLine
 10
-24.99999999999997
 20
0.0
 30
0.0
 11
-25.00000000000025
 21
49.38613840961684
 31
0.0
  0
LINE
  5
6DB7
330
1F
100
AcDbEntity
  8
AM_0
100
AcDbLine
 10
-49.49999999999985
 20
0.0000000000000284
 30
0.0
 11
-49.49999999999985
 21
11.69999999999998
 31
0.0
  0
LINE
  5
6DB9
330
1F
100
AcDbEntity
  8
AM_11
100
AcDbLine
 10
-61.09999999999999
 20
-41.80000000000006
 30
0.0
 11
-31.50000000000042
 21
-41.80000000000004
 31
0.0
  0
LINE
  5
6DBF
330
1F
100
AcDbEntity
  8
AM_0
100
AcDbLine
 10
-49.49999999999985
 20
-0.0000000000000284
 30
0.0
 11
-49.49999999999985
 21
-11.69999999999999
 31
0.0
  0
LINE
  5
6DC0
330
1F
100
AcDbEntity
  8
AM_0
100
AcDbLine
 10
-61.09999999999999
 20
-12.69999999999998
 30
0.0
 11
-50.49999999999986
 21
-12.69999999999999
 31
0.0
  0
LINE
  5
6DC1
330
1F
100
AcDbEntity
  8
AM_0
100
AcDbLine
 10
-25.99999999999997
 20
0.0
 30
0.0
 11
-26.00000000000008
 21
-23.5224999999999
 31
0.0
  0
LINE
  5
6DC2
330
1F
100
AcDbEntity
  8
AM_11
100
AcDbLine
 10
-26.0000000000002
 20
-37.80000000000001
 30
0.0
 11
-25.00000000000042
 21
-36.80000000000001
 31
0.0
  0
LINE
  5
6DC3
330
1F
100
AcDbEntity
  8
AM_11
100
AcDbLine
 10
-31.50000000000031
 20
-41.79999999999998
 30
0.0
 11
-31.00000000000031
 21
-41.29999999999998
 31
0.0
  0
LINE
  5
6DC4
330
1F
100
AcDbEntity
  8
AM_11
100
AcDbLine
 10
-31.0000000000002
 20
-37.80000000000001
 30
0.0
 11
-26.00000000000008
 21
-37.80000000000001
 31
0.0
  0
LINE
  5
6DC5
330
1F
100
AcDbEntity
  8
AM_11
100
AcDbLine
 10
-26.00000000000031
 20
-37.80000000000018
 30
0.0
 11
-26.00000000000031
 21
-42.34465931649276
 31
0.0
  0
LINE
  5
6DC6
330
1F
100
AcDbEntity
  8
AM_0
100
AcDbLine
 10
-25.99999999999997
 20
-23.52249999999999
 30
0.0
 11
-25.00000000000008
 21
-24.52249999999999
 31
0.0
  0
LINE
  5
6DC7
330
1F
100
AcDbEntity
  8
AM_11
100
AcDbLine
 10
-61.09999999999999
 20
41.80000000000006
 30
0.0
 11
-31.50000000000042
 21
41.80000000000004
 31
0.0
  0
LINE
  5
6DCC
330
1F
100
AcDbEntity
  8
AM_0
100
AcDbLine
 10
-61.09999999999999
 20
12.69999999999999
 30
0.0
 11
-50.49999999999986
 21
12.69999999999998
 31
0.0
  0
LINE
  5
6DCF
330
1F
100
AcDbEntity
  8
AM_0
100
AcDbLine
 10
-25.99999999999997
 20
23.52249999999999
 30
0.0
 11
-25.00000000000008
 21
24.52249999999999
 31
0.0
  0
LINE
  5
6DD0
330
1F
100
AcDbEntity
  8
AM_11
100
AcDbLine
 10
-26.00000000000031
 20
37.80000000000018
 30
0.0
 11
-26.00000000000031
 21
42.34465931649276
 31
0.0
  0
LINE
  5
6DD1
330
1F
100
AcDbEntity
  8
AM_11
100
AcDbLine
 10
-26.0000000000002
 20
37.80000000000001
 30
0.0
 11
-25.00000000000042
 21
36.80000000000001
 31
0.0
  0
LINE
  5
6DD2
330
1F
100
AcDbEntity
  8
AM_11
100
AcDbLine
 10
-31.0000000000002
 20
37.80000000000001
 30
0.0
 11
-26.00000000000008
 21
37.80000000000001
 31
0.0
  0
LINE
  5
6DD3
330
1F
100
AcDbEntity
  8
AM_11
100
AcDbLine
 10
-31.50000000000031
 20
41.79999999999998
 30
0.0
 11
-31.00000000000031
 21
41.29999999999998
 31
0.0
  0
LINE
  5
6DD4
330
1F
100
AcDbEntity
  8
AM_3
100
AcDbLine
 10
-1.999999999999971
 20
-81.10000000000002
 30
0.0
 11
-1.999999999999943
 21
-78.11122447329364
 31
0.0
  0
LINE
  5
6DD5
330
1F
100
AcDbEntity
  8
AM_3
100
AcDbLine
 10
-1.999999999999971
 20
-81.10000000000002
 30
0.0
 11
-2.000000000000085
 21
-94.6327657742403
 31
0.0
  0
LINE
  5
6DD7
330
1F
100
AcDbEntity
  8
AM_7
100
AcDbLine
 10
-66.71594045351705
 20
50.80000000000001
 30
0.0
 11
2.067129077551868
 21
50.80000000000001
 31
0.0
  0
LINE
  5
6DD8
330
1F
100
AcDbEntity
  8
AM_3
100
AcDbLine
 10
-1.999999999999971
 20
81.10000000000002
 30
0.0
 11
-2.525055420478054
 21
78.1222627395513
 31
0.0
  0
LINE
  5
6DD9
330
1F
100
AcDbEntity
  8
AM_3
100
AcDbLine
 10
-21.30115644563884
 20
96.39111027636136
 30
0.0
 11
-2.999229036240786
 21
95.67202558999937
 31
0.0
  0
LINE
  5
6DDE
330
1F
100
AcDbEntity
  8
AM_11
100
AcDbLine
 10
-61.09999999999994
 20
59.80000000000003
 30
0.0
 11
-31.50000000000031
 21
59.80000000000003
 31
0.0
  0
LINE
  5
6DDF
330
1F
100
AcDbEntity
  8
AM_0
100
AcDbLine
 10
-38.46534602404195
 20
95.40000000000004
 30
0.0
 11
-28.79999999999992
 21
95.40000000000004
 31
0.0
  0
LINE
  5
6DE0
330
1F
100
AcDbEntity
  8
AM_0
100
AcDbLine
 10
-47.74845777328581
 20
66.48236190979486
 30
0.0
 11
-40.39719767662009
 21
93.91763809020508
 31
0.0
  0
LINE
  5
6DE1
330
1F
100
AcDbEntity
  8
AM_0
100
AcDbLine
 10
-60.59999999999996
 20
64.99999999999992
 30
0.0
 11
-49.68030942586396
 21
64.9999999999999
 31
0.0
  0
LINE
  5
6DE3
330
1F
100
AcDbEntity
  8
AM_11
100
AcDbLine
 10
-31.00000000000042
 20
63.80000000000001
 30
0.0
 11
-5.500000000000198
 21
63.80000000000001
 31
0.0
  0
LINE
  5
6DE4
330
1F
100
AcDbEntity
  8
AM_11
100
AcDbLine
 10
-25.00000000000037
 20
50.0
 30
0.0
 11
-24.4070552360823
 21
50.15887907064803
 31
0.0
  0
LINE
  5
6DE5
330
1F
100
AcDbEntity
  8
AM_11
100
AcDbLine
 10
-31.50000000000031
 20
59.80000000000003
 30
0.0
 11
-31.00000000000031
 21
60.30000000000004
 31
0.0
  0
LINE
  5
6DE6
330
1F
100
AcDbEntity
  8
AM_11
100
AcDbLine
 10
-5.500000000000198
 20
63.79999999999992
 30
0.0
 11
-5.500000000000085
 21
60.82108201696735
 31
0.0
  0
LINE
  5
6DE7
330
1F
100
AcDbEntity
  8
AM_0
100
AcDbLine
 10
-4.500000000000085
 20
64.94999999999999
 30
0.0
 11
-4.500000000000085
 21
56.49295844483808
 31
0.0
  0
LINE
  5
6DE8
330
1F
100
AcDbEntity
  8
AM_0
100
AcDbLine
 10
-4.500000000000085
 20
56.49295844483808
 30
0.0
 11
-5.465925826289179
 21
55.23413939973557
 31
0.0
  0
LINE
  5
6DE9
330
1F
100
AcDbEntity
  8
AM_11
100
AcDbLine
 10
-5.500000000000085
 20
63.79999999999999
 30
0.0
 11
-4.500000000000198
 21
64.79999999999998
 31
0.0
  0
LINE
  5
6DEA
330
1F
100
AcDbEntity
  8
AM_0
100
AcDbLine
 10
-4.500000000000085
 20
64.94999999999999
 30
0.0
 11
-3.70000000000013
 21
64.94999999999999
 31
0.0
  0
LINE
  5
6DEB
330
1F
100
AcDbEntity
  8
AM_0
100
AcDbLine
 10
-4.500000000000085
 20
69.94999999999999
 30
0.0
 11
-4.500000000000198
 21
71.44999999999996
 31
0.0
  0
LINE
  5
6DEC
330
1F
100
AcDbEntity
  8
AM_0
100
AcDbLine
 10
-4.500000000000085
 20
69.94999999999999
 30
0.0
 11
-3.70000000000013
 21
69.94999999999999
 31
0.0
  0
LINE
  5
6DED
330
1F
100
AcDbEntity
  8
AM_0
100
AcDbLine
 10
-4.500000000000198
 20
71.45000000000002
 30
0.0
 11
-3.701555363836718
 21
71.44999999999999
 31
0.0
  0
LINE
  5
6DEE
330
1F
100
AcDbEntity
  8
AM_0
100
AcDbLine
 10
-27.39999999999994
 20
87.19999999999997
 30
0.0
 11
-23.1999999999999
 21
87.19999999999998
 31
0.0
  0
ARC
  5
6DEF
330
1F
100
AcDbEntity
  8
AM_0
100
AcDbCircle
 10
-27.39999999999994
 20
87.59999999999996
 30
0.0
 40
0.4
100
AcDbArc
 50
180.0
 51
270.0
  0
LINE
  5
6DF1
330
1F
100
AcDbEntity
  8
AM_3
100
AcDbLine
 10
-27.79999999999992
 20
87.62587537609226
 30
0.0
 11
-27.79999999999992
 21
94.32004668804021
 31
0.0
  0
ARC
  5
6DF2
330
1F
100
AcDbEntity
  8
AM_0
100
AcDbCircle
 10
-23.1999999999999
 20
87.59999999999999
 30
0.0
 40
0.4
100
AcDbArc
 50
270.0
 51
348.5983648131985
  0
LINE
  5
6DF3
330
1F
100
AcDbEntity
  8
AM_3
100
AcDbLine
 10
-22.79999999999992
 20
87.59999999999999
 30
0.0
 11
-22.79999999999992
 21
94.94999999999997
 31
0.0
  0
LINE
  5
6DF4
330
1F
100
AcDbEntity
  8
AM_3
100
AcDbLine
 10
-1.999999999999971
 20
81.10000000000002
 30
0.0
 11
-2.000000000000057
 21
94.6327657742403
 31
0.0
  0
LINE
  5
75B4
330
1F
100
AcDbEntity
  8
AM_0
100
AcDbLine
 10
-42.47958021588281
 20
23.52249999999992
 30
0.0
 11
-26.00000000000008
 21
23.52249999999992
 31
0.0
  0
LINE
  5
75B5
330
1F
100
AcDbEntity
  8
AM_0
100
AcDbLine
 10
-42.4795802158832
 20
23.52249999999993
 30
0.0
 11
-51.49999999999997
 21
23.83749999999989
 31
0.0
  0
LINE
  5
75B7
330
1F
100
AcDbEntity
  8
AM_0
100
AcDbLine
 10
-60.09999999999999
 20
12.69999999999998
 30
0.0
 11
-60.09999999999999
 21
23.8374999999999
 31
0.0
  0
LINE
  5
75B8
330
1F
100
AcDbEntity
  8
AM_0
100
AcDbLine
 10
-51.49999999999997
 20
12.69999999999998
 30
0.0
 11
-51.49999999999997
 21
23.8374999999999
 31
0.0
  0
LINE
  5
75B9
330
1F
100
AcDbEntity
  8
AM_0
100
AcDbLine
 10
-51.49999999999997
 20
23.83749999999989
 30
0.0
 11
-60.09999999999998
 21
23.83749999999989
 31
0.0
  0
LINE
  5
75BA
330
1F
100
AcDbEntity
  8
AM_0
100
AcDbLine
 10
-42.4795802158832
 20
0.0
 30
0.0
 11
-42.4795802158832
 21
23.52249999999993
 31
0.0
  0
LINE
  5
75BB
330
1F
100
AcDbEntity
  8
AM_0
100
AcDbLine
 10
-42.47958021588297
 20
-23.52249999999997
 30
0.0
 11
-25.99999999999997
 21
-23.5224999999999
 31
0.0
  0
LINE
  5
75BC
330
1F
100
AcDbEntity
  8
AM_0
100
AcDbLine
 10
-42.47958021588269
 20
-23.52249999999997
 30
0.0
 11
-25.99999999999997
 21
-23.5224999999999
 31
0.0
  0
LINE
  5
75BD
330
1F
100
AcDbEntity
  8
AM_0
100
AcDbLine
 10
-42.47958021588309
 20
-23.52249999999999
 30
0.0
 11
-51.49999999999986
 21
-23.83749999999997
 31
0.0
  0
LINE
  5
75BE
330
1F
100
AcDbEntity
  8
AM_0
100
AcDbLine
 10
-43.90999999999983
 20
-23.57245135955756
 30
0.0
 11
-51.49999999999986
 21
-23.83749999999997
 31
0.0
  0
LINE
  5
75BF
330
1F
100
AcDbEntity
  8
AM_0
100
AcDbLine
 10
-51.49999999999994
 20
-12.69999999999999
 30
0.0
 11
-51.49999999999986
 21
-23.83749999999999
 31
0.0
  0
LINE
  5
75C0
330
1F
100
AcDbEntity
  8
AM_0
100
AcDbLine
 10
-60.09999999999994
 20
-12.69999999999999
 30
0.0
 11
-60.09999999999988
 21
-23.83750000000003
 31
0.0
  0
LINE
  5
75C2
330
1F
100
AcDbEntity
  8
AM_0
100
AcDbLine
 10
-51.49999999999986
 20
-23.83749999999997
 30
0.0
 11
-60.09999999999999
 21
-23.83750000000002
 31
0.0
  0
LINE
  5
75C3
330
1F
100
AcDbEntity
  8
AM_0
100
AcDbLine
 10
-42.47958021588323
 20
0.0
 30
0.0
 11
-42.47958021588309
 21
-23.52249999999999
 31
0.0
  0
LINE
  5
8038
330
1F
100
AcDbEntity
  8
AM_0
100
AcDbLine
 10
-24.40705523608226
 20
50.15887907064811
 30
0.0
 11
-5.465925826289179
 21
55.23413939973557
 31
0.0
  0
LINE
  5
8039
330
1F
100
AcDbEntity
  8
AM_11
100
AcDbLine
 10
-25.00000000000014
 20
49.38613840961654
 30
0.0
 11
-25.00000000000037
 21
50.0
 31
0.0
  0
LINE
  5
803B
330
1F
100
AcDbEntity
  8
AM_11
100
AcDbLine
 10
-25.00000000000014
 20
-49.38613840961654
 30
0.0
 11
-25.00000000000037
 21
-50.0
 31
0.0
  0
LINE
  5
803C
330
1F
100
AcDbEntity
  8
AM_11
100
AcDbLine
 10
-25.00000000000037
 20
-50.0
 30
0.0
 11
-24.4070552360823
 21
-50.15887907064803
 31
0.0
  0
DIMENSION
  5
8644
330
1F
100
AcDbEntity
  8
AM_5
100
AcDbDimension
  2
*D6
 10
-93.10171262657636
 20
-23.8375
 30
0.0
 11
-96.20171262657635
 21
-0.0000000000000614
 31
0.0
 70
    32
  1
%%c<>
  3
AM_JIS
100
AcDbAlignedDimension
 13
-60.09999999999999
 23
23.8374999999999
 33
0.0
 14
-60.09999999999999
 24
-23.83750000000002
 34
0.0
 50
90.0
100
AcDbRotatedDimension
1001
GENIUS_GENDTOL_13
1000

1000
h7
1000

1040
0.0
  0
DIMENSION
  5
8645
330
1F
100
AcDbEntity
  8
AM_5
100
AcDbDimension
  2
*D5
 10
-103.1017126265763
 20
-64.99999999999992
 30
0.0
 11
-106.2017126265763
 21
-0.0000000000000075
 31
0.0
 70
    32
  1
%%c<>
  3
AM_JIS
100
AcDbAlignedDimension
 13
-60.60000000000016
 23
64.99999999999994
 33
0.0
 14
-60.59999999999999
 24
-64.99999999999994
 34
0.0
 50
90.0
100
AcDbRotatedDimension
1001
GENIUS_GENDTOL_13
1000

1000
h7
1000

1040
0.0
  0
DIMENSION
  5
8646
330
1F
100
AcDbEntity
  8
AM_5
100
AcDbDimension
  2
*D7
 10
-83.10171262657636
 20
-12.69999999999998
 30
0.0
 11
-83.10171262657636
 21
0.0
 31
0.0
 70
   160
  3
AM_JIS
100
AcDbAlignedDimension
 13
-61.09999999999999
 23
12.69999999999998
 33
0.0
 14
-61.09999999999999
 24
-12.69999999999998
 34
0.0
 50
90.0
100
AcDbRotatedDimension
  0
DIMENSION
  5
86CE
330
1F
100
AcDbEntity
  8
AM_5
100
AcDbDimension
  2
*D8
 10
-49.49999999999986
 20
-114.0001664429652
 30
0.0
 11
-56.24999999999992
 21
-110.9001664429652
 31
0.0
 70
    32
  3
AM_JIS
100
AcDbAlignedDimension
 13
-62.99999999999997
 23
-62.59999999999994
 33
0.0
 14
-49.49999999999985
 24
-11.69999999999999
 34
0.0
100
AcDbRotatedDimension
  0
DIMENSION
  5
86CF
330
1F
100
AcDbEntity
  8
AM_5
100
AcDbDimension
  2
*D10
 10
-25.00000000000037
 20
-134.0001664429652
 30
0.0
 11
-44.00000000000018
 21
-130.9001664429652
 31
0.0
 70
    32
  3
AM_JIS
100
AcDbAlignedDimension
 13
-62.99999999999997
 23
-62.59999999999994
 33
0.0
 14
-25.00000000000037
 24
-50.0
 34
0.0
100
AcDbRotatedDimension
  0
DIMENSION
  5
86D0
330
1F
100
AcDbEntity
  8
AM_5
100
AcDbDimension
  2
*D9
 10
-0.0000000000000027
 20
-144.0001664429652
 30
0.0
 11
-31.49999999999999
 21
-140.9001664429652
 31
0.0
 70
    32
  3
AM_JIS
100
AcDbAlignedDimension
 13
-62.99999999999997
 23
-62.59999999999994
 33
0.0
 14
0.0
 24
-100.0
 34
0.0
100
AcDbRotatedDimension
  0
DIMENSION
  5
8746
330
1F
100
AcDbEntity
  8
AM_5
100
AcDbDimension
  2
*D11
 10
44.00016644296525
 20
-100.0
 30
0.0
 11
40.90016644296527
 21
-0.0000000000000023
 31
0.0
 70
    32
  1
%%c<>
  3
AM_JIS
100
AcDbAlignedDimension
 13
0.0
 23
100.0
 33
0.0
 14
0.0
 24
-100.0
 34
0.0
 50
90.0
100
AcDbRotatedDimension
1001
GENIUS_GENDTOL_13
1000

1000
h7
1000

1040
0.0
  0
DIMENSION
  5
8747
330
1F
100
AcDbEntity
  8
AM_5
100
AcDbDimension
  2
*D12
 10
21.70404903792521
 20
-50.00000000000001
 30
0.0
 11
18.60404903792522
 21
-0.0000000000000081
 31
0.0
 70
    32
  1
%%c<>
  3
AM_JIS
100
AcDbAlignedDimension
 13
-25.00000000000037
 23
50.0
 33
0.0
 14
-25.00000000000037
 24
-50.0
 34
0.0
 50
90.0
100
AcDbRotatedDimension
1001
GENIUS_GENDTOL_13
1000

1000
h7
1000

1040
0.0
  0
LINE
  5
882B
330
1F
100
AcDbEntity
  8
AM_11
100
AcDbLine
 10
-63.00000000000014
 20
61.70000000000007
 30
0.0
 11
-61.10000000000017
 21
59.80000000000007
 31
0.0
  0
ELLIPSE
  5
886E
330
1F
100
AcDbEntity
  8
0
100
AcDbEllipse
 10
-0.772738000000004
 20
99.20246609648462
 30
0.0
 11
-0.22481131597
 21
0.7677629010390001
 31
0.0
210
0.0
220
0.0
230
1.0
 40
0.9629487499999999
 41
4.414283443712509
 42
6.179975573459709
  0
LINE
  5
886F
330
1F
100
AcDbEntity
  8
0
100
AcDbLine
 10
-17.587208
 20
99.74796409648456
 30
0.0
 11
-0.9220209999999724
 21
99.99824409648454
 31
0.0
  0
LINE
  5
8870
330
1F
100
AcDbEntity
  8
AM_11
100
AcDbLine
 10
-0.7727379999997766
 20
100.0
 30
0.0
 11
0.0
 21
100.0
 31
0.0
  0
LINE
  5
8871
330
1F
100
AcDbEntity
  8
AM_0
100
AcDbLine
 10
-0.9220209999999724
 20
99.99824409648454
 30
0.0
 11
-0.9201837614936607
 21
99.98844680561781
 31
0.0
  0
LINE
  5
8872
330
1F
100
AcDbEntity
  8
AM_11
100
AcDbLine
 10
0.0
 20
99.18846823328653
 30
0.0
 11
0.0
 21
-100.0
 31
0.0
  0
LINE
  5
8873
330
1F
100
AcDbEntity
  8
0
100
AcDbLine
 10
-0.0039319999999634
 20
97.7888420964846
 30
0.0
 11
0.0
 21
99.18390009648465
 31
0.0
  0
ELLIPSE
  5
8874
330
1F
100
AcDbEntity
  8
0
100
AcDbEllipse
 10
-18.37541899999993
 20
98.37863709648457
 30
0.0
 11
-0.22481131597
 21
0.7677629010390001
 31
0.0
210
0.0
220
0.0
230
1.0
 40
0.9629487499999999
 41
0.225493268330497
 42
1.99118549412694
  0
LINE
  5
8875
330
1F
100
AcDbEntity
  8
0
100
AcDbLine
 10
-17.587208
 20
99.74796409648456
 30
0.0
 11
-18.75984000000002
 21
99.07856009648458
 31
0.0
  0
LINE
  5
8876
330
1F
100
AcDbEntity
  8
0
100
AcDbLine
 10
-18.96588300000004
 20
97.86129909648458
 30
0.0
 11
-16.889893
 21
94.38878109648454
 31
0.0
  0
LINE
  5
8877
330
1F
100
AcDbEntity
  8
0
100
AcDbLine
 10
-28.00295400000001
 20
94.24807409648463
 30
0.0
 11
-18.76440999999997
 21
97.5242940964846
 31
0.0
  0
SPLINE
  5
8878
330
1F
100
AcDbEntity
  8
0
100
AcDbSpline
210
0.0
220
0.0
230
1.0
 70
     8
 71
     3
 72
    11
 73
     7
 74
     5
 42
0.0000000001
 43
0.0000000001
 44
0.0000000001
 40
0.0
 40
0.0
 40
0.0
 40
0.0
 40
0.2030563352077282
 40
0.5163420215006563
 40
0.9442551238765288
 40
1.469714311317476
 40
1.469714311317476
 40
1.469714311317476
 40
1.469714311317476
 10
-13.22172399999996
 20
90.97022109648458
 30
0.0
 10
-13.19972972990526
 20
91.03554066270424
 30
0.0
 10
-13.14380157641763
 20
91.20163859228084
 30
0.0
 10
-12.87839821214053
 20
91.39623731288374
 30
0.0
 10
-12.52313479316925
 20
91.61606088902471
 30
0.0
 10
-12.22803741285098
 20
91.73801697174379
 30
0.0
 10
-12.06539199999994
 20
91.80523409648458
 30
0.0
 11
-13.22172399999996
 21
90.97022109648458
 31
0.0
 11
-13.14194600000004
 21
91.15694909648459
 31
0.0
 11
-12.910696
 21
91.36830509648461
 31
0.0
 11
-12.54491300000003
 21
91.59036909648454
 31
0.0
 11
-12.06539199999994
 21
91.80523409648458
 31
0.0
  0
SPLINE
  5
8879
330
1F
100
AcDbEntity
  8
0
100
AcDbSpline
210
0.0
220
0.0
230
1.0
 70
     8
 71
     3
 72
    11
 73
     7
 74
     5
 42
0.0000000001
 43
0.0000000001
 44
0.0000000001
 40
0.0
 40
0.0
 40
0.0
 40
0.0
 40
0.6064687981957514
 40
1.081292507016174
 40
1.40022470973334
 40
1.595249199769803
 40
1.595249199769803
 40
1.595249199769803
 40
1.595249199769803
 10
-11.75576699999996
 20
90.5481110964846
 30
0.0
 10
-11.95927019120318
 20
90.55990511447902
 30
0.0
 10
-12.32210250253818
 20
90.58093304423058
 30
0.0
 10
-12.76726509646686
 20
90.66289961855877
 30
0.0
 10
-13.12005056815568
 20
90.74636001963462
 30
0.0
 10
-13.19375596688848
 20
90.90864203992927
 30
0.0
 10
-13.22172399999996
 20
90.97022109648458
 30
0.0
 11
-11.75576699999996
 21
90.5481110964846
 31
0.0
 11
-12.36027899999996
 21
90.5967900964846
 31
0.0
 11
-12.82786599999994
 21
90.6793730964846
 31
0.0
 11
-13.12202899999997
 21
90.80260409648463
 31
0.0
 11
-13.22172399999996
 21
90.97022109648458
 31
0.0
  0
SPLINE
  5
887A
330
1F
100
AcDbEntity
  8
0
100
AcDbSpline
210
0.0
220
0.0
230
1.0
 70
     8
 71
     3
 72
    11
 73
     7
 74
     5
 42
0.0000000001
 43
0.0000000001
 44
0.0000000001
 40
0.0
 40
0.0
 40
0.0
 40
0.0
 40
0.0044537438184122
 40
0.008908952118847
 40
0.0133631916723548
 40
0.0178179278037406
 40
0.0178179278037406
 40
0.0178179278037406
 40
0.0178179278037406
 10
-14.60219300000002
 20
95.32163909648454
 30
0.0
 10
-14.60256051509954
 20
95.32307746859627
 30
0.0
 10
-14.60329566614506
 20
95.32595468578589
 30
0.0
 10
-14.60440110225448
 20
95.33026973696067
 30
0.0
 10
-14.60550552633789
 20
95.33458538875819
 30
0.0
 10
-14.60624382839522
 20
95.33746180713286
 30
0.0
 10
-14.60661300000001
 20
95.33890009648462
 30
0.0
 11
-14.60219300000002
 21
95.32163909648454
 31
0.0
 11
-14.60329599999997
 21
95.32595409648456
 31
0.0
 11
-14.60440100000002
 21
95.33027009648458
 31
0.0
 11
-14.60550599999996
 21
95.33458509648459
 31
0.0
 11
-14.60661300000001
 21
95.33890009648462
 31
0.0
  0
SPLINE
  5
887B
330
1F
100
AcDbEntity
  8
0
100
AcDbSpline
210
0.0
220
0.0
230
1.0
 70
     8
 71
     3
 72
    11
 73
     7
 74
     5
 42
0.0000000001
 43
0.0000000001
 44
0.0000000001
 40
0.0
 40
0.0
 40
0.0
 40
0.0
 40
0.1301237046583035
 40
0.3760882034827802
 40
0.7310805036710926
 40
1.186841671526647
 40
1.186841671526647
 40
1.186841671526647
 40
1.186841671526647
 10
-19.30835599999997
 20
90.55024609648455
 30
0.0
 10
-19.26510635200392
 20
90.55365378936722
 30
0.0
 10
-19.14010466642474
 20
90.56350282569479
 30
0.0
 10
-18.89896327384138
 20
90.59960000388491
 30
0.0
 10
-18.54932879024682
 20
90.64238461304492
 30
0.0
 10
-18.28026238649257
 20
90.66785822684279
 30
0.0
 10
-18.12900799999997
 20
90.68217809648457
 30
0.0
 11
-19.30835599999997
 21
90.55024609648455
 31
0.0
 11
-19.17872099999996
 21
90.56151309648454
 31
0.0
 11
-18.93482200000002
 21
90.59332209648459
 31
0.0
 11
-18.58251400000003
 21
90.63689509648453
 31
0.0
 11
-18.12900799999997
 21
90.68217809648457
 31
0.0
  0
SPLINE
  5
887C
330
1F
100
AcDbEntity
  8
0
100
AcDbSpline
210
0.0
220
0.0
230
1.0
 70
     8
 71
     3
 72
    11
 73
     7
 74
     5
 42
0.0000000001
 43
0.0000000001
 44
0.0000000001
 40
0.0
 40
0.0
 40
0.0
 40
0.0
 40
0.0663061719072799
 40
0.114328021486438
 40
0.1441303157773328
 40
0.1567561104056902
 40
0.1567561104056902
 40
0.1567561104056902
 40
0.1567561104056902
 10
-19.18789000000001
 20
90.62083509648459
 30
0.0
 10
-19.20877008682269
 20
90.61337534491995
 30
0.0
 10
-19.24477245200582
 20
90.60051291277167
 30
0.0
 10
-19.28814602778834
 20
90.5811014910976
 30
0.0
 10
-19.31737422187408
 20
90.57015415162762
 30
0.0
 10
-19.32652492445253
 20
90.5591937146641
 30
0.0
 10
-19.32924799999997
 20
90.55593209648463
 30
0.0
 11
-19.18789000000001
 21
90.62083509648459
 31
0.0
 11
-19.24999299999998
 21
90.59760309648458
 31
0.0
 11
-19.29428700000002
 21
90.57905209648458
 31
0.0
 11
-19.32067500000002
 21
90.56520109648454
 31
0.0
 11
-19.32924799999997
 21
90.55593209648463
 31
0.0
  0
SPLINE
  5
887D
330
1F
100
AcDbEntity
  8
0
100
AcDbSpline
210
0.0
220
0.0
230
1.0
 70
     8
 71
     3
 72
    11
 73
     7
 74
     5
 42
0.0000000001
 43
0.0000000001
 44
0.0000000001
 40
0.0
 40
0.0
 40
0.0
 40
0.0
 40
0.0027392708884189
 40
0.0070204853189581
 40
0.0136303210203042
 40
0.0226678924862091
 40
0.0226678924862091
 40
0.0226678924862091
 40
0.0226678924862091
 10
-19.32924799999997
 20
90.55593209648463
 30
0.0
 10
-19.32883810404589
 20
90.55508030255516
 30
0.0
 10
-19.32778758051421
 20
90.55289723741839
 30
0.0
 10
-19.32304042184413
 20
90.55154578771718
 30
0.0
 10
-19.31663929169211
 20
90.55052223113607
 30
0.0
 10
-19.31138864757699
 20
90.55034719386384
 30
0.0
 10
-19.30835599999997
 20
90.55024609648455
 30
0.0
 11
-19.32924799999997
 21
90.55593209648463
 31
0.0
 11
-19.32780599999998
 21
90.55360309648461
 31
0.0
 11
-19.32389699999996
 21
90.55185709648458
 31
0.0
 11
-19.31737900000004
 21
90.55075909648463
 31
0.0
 11
-19.30835599999997
 21
90.55024609648455
 31
0.0
  0
ELLIPSE
  5
887E
330
1F
100
AcDbEntity
  8
0
100
AcDbEllipse
 10
-15.38300599999999
 20
91.80727109648456
 30
0.0
 11
3.990881754126007
 21
0.2863286995530004
 31
0.0
210
0.0
220
0.0
230
1.0
 40
0.32607056988758
 41
3.930434247791799
 42
4.43481113636778
  0
ELLIPSE
  5
887F
330
1F
100
AcDbEntity
  8
0
100
AcDbEllipse
 10
-19.25571199999998
 20
105.5524540964845
 30
0.0
 11
0.31528168264
 21
14.99668621598099
 31
0.0
210
0.0
220
0.0
230
1.0
 40
0.2580212
 41
3.240362518333309
 42
3.97090545680866
  0
LINE
  5
8880
330
1F
100
AcDbEntity
  8
0
100
AcDbLine
 10
-14.60661300000001
 20
95.33890009648462
 30
0.0
 11
-4.12576599999997
 21
95.11856109648453
 31
0.0
  0
LINE
  5
8881
330
1F
100
AcDbEntity
  8
0
100
AcDbLine
 10
-14.55378200000004
 20
95.50603009648455
 30
0.0
 11
-3.92859800000005
 21
95.28265609648451
 31
0.0
  0
LINE
  5
8882
330
1F
100
AcDbEntity
  8
0
100
AcDbLine
 10
-16.38682600000001
 20
90.47731209648464
 30
0.0
 11
-1.994531000000051
 21
90.17474209648458
 31
0.0
  0
LINE
  5
8883
330
1F
100
AcDbEntity
  8
0
100
AcDbLine
 10
-1.994531000000051
 20
90.34298209648454
 30
0.0
 11
-18.12900799999997
 21
90.68217809648457
 31
0.0
  0
LINE
  5
8884
330
1F
100
AcDbEntity
  8
0
100
AcDbLine
 10
-16.38682600000001
 20
90.47731209648464
 30
0.0
 11
-15.90297199999994
 21
80.04938209648457
 31
0.0
  0
LINE
  5
8885
330
1F
100
AcDbEntity
  8
0
100
AcDbLine
 10
-19.32924899999997
 20
90.55595709648457
 30
0.0
 11
-18.85586099999997
 21
80.35359009648459
 31
0.0
  0
LINE
  5
8886
330
1F
100
AcDbEntity
  8
0
100
AcDbLine
 10
-16.61504299999998
 20
95.36395509648457
 30
0.0
 11
-14.60219300000002
 21
95.32163909648454
 31
0.0
  0
LINE
  5
8887
330
1F
100
AcDbEntity
  8
0
100
AcDbLine
 10
-14.55378200000004
 20
95.50603009648455
 30
0.0
 11
-14.60661300000001
 21
95.33890009648462
 31
0.0
  0
SPLINE
  5
8888
330
1F
100
AcDbEntity
  8
0
100
AcDbSpline
210
0.0
220
0.0
230
1.0
 70
     8
 71
     3
 72
    11
 73
     7
 74
     5
 42
0.0000000001
 43
0.0000000001
 44
0.0000000001
 40
0.0
 40
0.0
 40
0.0
 40
0.0
 40
0.0053654454614532
 40
0.0107302738837421
 40
0.0160952724856879
 40
0.0214608879210855
 40
0.0214608879210855
 40
0.0214608879210855
 40
0.0214608879210855
 10
-4.139005999999966
 20
95.10167109648454
 30
0.0
 10
-4.137902308036114
 20
95.10307840997194
 30
0.0
 10
-4.135695051035646
 20
95.10589287510228
 30
0.0
 10
-4.1323846492854
 20
95.11011489369527
 30
0.0
 10
-4.129076106995195
 20
95.1143384415659
 30
0.0
 10
-4.126869411281257
 20
95.11715349090534
 30
0.0
 10
-4.12576599999997
 20
95.11856109648453
 30
0.0
 11
-4.139005999999966
 21
95.10167109648454
 31
0.0
 11
-4.135695000000026
 21
95.10589309648457
 31
0.0
 11
-4.13238499999997
 21
95.1101150964846
 31
0.0
 11
-4.129076000000026
 21
95.11433809648451
 31
0.0
 11
-4.12576599999997
 21
95.11856109648453
 31
0.0
  0
LINE
  5
8889
330
1F
100
AcDbEntity
  8
0
100
AcDbLine
 10
-4.032315000000011
 20
95.09942809648453
 30
0.0
 11
-3.92859800000005
 21
95.28265609648451
 31
0.0
  0
LINE
  5
888A
330
1F
100
AcDbEntity
  8
0
100
AcDbLine
 10
-3.92859800000005
 20
95.28265609648451
 30
0.0
 11
-4.12576599999997
 21
95.11856109648453
 31
0.0
  0
LINE
  5
888B
330
1F
100
AcDbEntity
  8
0
100
AcDbLine
 10
-4.139005999999966
 20
95.10167109648454
 30
0.0
 11
-1.994531000000051
 21
95.05658709648457
 31
0.0
  0
SPLINE
  5
888C
330
1F
100
AcDbEntity
  8
0
100
AcDbSpline
210
0.0
220
0.0
230
1.0
 70
     8
 71
     3
 72
    11
 73
     7
 74
     5
 42
0.0000000001
 43
0.0000000001
 44
0.0000000001
 40
0.0
 40
0.0
 40
0.0
 40
0.0
 40
1.3561010422593
 40
2.732987623933348
 40
3.79004326519595
 40
4.401853662986774
 40
4.401853662986774
 40
4.401853662986774
 40
4.401853662986774
 10
-12.06539199999994
 20
91.80523409648458
 30
0.0
 10
-11.62944496155217
 20
91.94201545423723
 30
0.0
 10
-10.75086893835026
 20
92.21767467598668
 30
0.0
 10
-9.502752826407766
 20
92.19651053055004
 30
0.0
 10
-8.413560204774002
 20
91.97279919864481
 30
0.0
 10
-8.126837316575235
 20
91.4752191625122
 30
0.0
 10
-8.021724000000034
 20
91.29280509648458
 30
0.0
 11
-12.06539199999994
 21
91.80523409648458
 31
0.0
 11
-10.75227300000003
 21
92.14395009648455
 31
0.0
 11
-9.375388000000015
 21
92.14186309648459
 31
0.0
 11
-8.37873799999997
 21
91.7896480964846
 31
0.0
 11
-8.021724000000034
 21
91.29280509648458
 31
0.0
  0
SPLINE
  5
888D
330
1F
100
AcDbEntity
  8
0
100
AcDbSpline
210
0.0
220
0.0
230
1.0
 70
     8
 71
     3
 72
    11
 73
     7
 74
     5
 42
0.0000000001
 43
0.0000000001
 44
0.0000000001
 40
0.0
 40
0.0
 40
0.0
 40
0.0
 40
0.3997836009454979
 40
1.053196590930431
 40
1.975231531727203
 40
3.039655097374336
 40
3.039655097374336
 40
3.039655097374336
 40
3.039655097374336
 10
-8.021724000000034
 20
91.29280509648458
 30
0.0
 10
-8.080736267096964
 20
91.16746895228207
 30
0.0
 10
-8.236199168483048
 20
90.83728132206847
 30
0.0
 10
-8.942287235000041
 20
90.67534929904764
 30
0.0
 10
-9.78695878510331
 20
90.54602336299211
 30
0.0
 10
-10.45421926534349
 20
90.53441976586416
 30
0.0
 10
-10.81176400000001
 20
90.52820209648462
 30
0.0
 11
-8.021724000000034
 21
91.29280509648458
 31
0.0
 11
-8.230607999999932
 21
90.9519320964846
 31
0.0
 11
-8.836098999999961
 21
90.70631209648457
 31
0.0
 11
-9.748220000000031
 21
90.57146509648465
 31
0.0
 11
-10.81176400000001
 21
90.52820209648462
 31
0.0
  0
LINE
  5
888E
330
1F
100
AcDbEntity
  8
0
100
AcDbLine
 10
-1.994531000000051
 20
95.05658709648457
 30
0.0
 11
-1.994531000000051
 21
90.34298209648454
 31
0.0
  0
LINE
  5
888F
330
1F
100
AcDbEntity
  8
0
100
AcDbLine
 10
-0.9494980000000623
 20
78.4627830964846
 30
0.0
 11
-0.9494980000000623
 21
95.9733120964845
 31
0.0
  0
LINE
  5
8890
330
1F
100
AcDbEntity
  8
0
100
AcDbLine
 10
-1.994531000000051
 20
93.96680009648457
 30
0.0
 11
-0.0039319999999634
 21
97.7888420964846
 31
0.0
  0
LINE
  5
8891
330
1F
100
AcDbEntity
  8
0
100
AcDbLine
 10
-0.9583480000000008
 20
93.40860709648451
 30
0.0
 11
-0.9583480000000008
 21
95.95632009648454
 31
0.0
  0
LINE
  5
8892
330
1F
100
AcDbEntity
  8
0
100
AcDbLine
 10
-1.091098999999985
 20
78.33579709648461
 30
0.0
 11
-1.091098999999985
 21
93.28955709648459
 31
0.0
  0
LINE
  5
8893
330
1F
100
AcDbEntity
  8
0
100
AcDbLine
 10
-1.091098999999985
 20
93.28955709648459
 30
0.0
 11
-1.867556000000035
 21
93.06220009648461
 31
0.0
  0
LINE
  5
8894
330
1F
100
AcDbEntity
  8
0
100
AcDbLine
 10
-1.091098999999985
 20
93.28955709648459
 30
0.0
 11
-0.9583480000000008
 21
93.40860709648451
 31
0.0
  0
LINE
  5
8895
330
1F
100
AcDbEntity
  8
0
100
AcDbLine
 10
-1.994531000000051
 20
93.43039109648453
 30
0.0
 11
-0.9583480000000008
 21
93.40860709648451
 31
0.0
  0
LINE
  5
8896
330
1F
100
AcDbEntity
  8
0
100
AcDbLine
 10
-1.867556000000035
 20
93.06220009648461
 30
0.0
 11
-1.867556000000035
 21
78.10844009648462
 31
0.0
  0
LINE
  5
8897
330
1F
100
AcDbEntity
  8
0
100
AcDbLine
 10
-1.994531000000051
 20
93.06487009648458
 30
0.0
 11
-1.867556000000035
 21
93.06220009648461
 31
0.0
  0
LINE
  5
8898
330
1F
100
AcDbEntity
  8
0
100
AcDbLine
 10
-22.50295400000001
 20
78.5422590964846
 30
0.0
 11
-1.867556000000035
 21
78.10844009648462
 31
0.0
  0
LINE
  5
8899
330
1F
100
AcDbEntity
  8
0
100
AcDbLine
 10
-1.867556000000035
 20
78.10844009648462
 30
0.0
 11
-1.091098999999985
 21
78.33579709648461
 31
0.0
  0
LINE
  5
889A
330
1F
100
AcDbEntity
  8
0
100
AcDbLine
 10
-0.9494980000000623
 20
78.4627830964846
 30
0.0
 11
-1.091098999999985
 21
78.33579709648461
 31
0.0
  0
LINE
  5
889B
330
1F
100
AcDbEntity
  8
0
100
AcDbLine
 10
-15.90297199999994
 20
80.04938209648457
 30
0.0
 11
-1.994531000000051
 21
79.75698409648453
 31
0.0
  0
LINE
  5
889C
330
1F
100
AcDbEntity
  8
0
100
AcDbLine
 10
-1.994531000000051
 20
90.17474209648458
 30
0.0
 11
-1.994531000000051
 21
79.75698409648453
 31
0.0
  0
ELLIPSE
  5
889D
330
1F
100
AcDbEntity
  8
0
100
AcDbEllipse
 10
-14.85172499999996
 20
80.35720109648456
 30
0.0
 11
4.004163250131999
 21
0.002450548215
 31
0.0
210
0.0
220
0.0
230
1.0
 40
0.07950373661019
 41
3.145232044052919
 42
4.446688810665579
  0
LINE
  5
889E
330
1F
100
AcDbEntity
  8
0
100
AcDbLine
 10
-28.00295400000001
 20
94.24807409648463
 30
0.0
 11
-28.00295400000001
 21
87.63014209648464
 31
0.0
  0
LINE
  5
889F
330
1F
100
AcDbEntity
  8
0
100
AcDbLine
 10
-22.50295400000001
 20
87.51451509648461
 30
0.0
 11
-28.00295400000001
 21
87.63014209648464
 31
0.0
  0
LINE
  5
88A0
330
1F
100
AcDbEntity
  8
0
100
AcDbLine
 10
-22.50295400000001
 20
87.51451509648461
 30
0.0
 11
-22.50295400000001
 21
78.5422590964846
 31
0.0
  0
LINE
  5
88A2
330
1F
100
AcDbEntity
  8
AM_11
100
AcDbLine
 10
0.0
 20
100.0
 30
0.0
 11
0.0
 21
99.18397383380089
 31
0.0
  0
ELLIPSE
  5
88CA
330
1F
100
AcDbEntity
  8
0
100
AcDbEllipse
 10
-18.37541899999993
 20
-98.37863709648457
 30
0.0
 11
-0.22481131597
 21
-0.7677629010390001
 31
0.0
210
0.0
220
0.0
230
-1.0
 40
0.9629487499999999
 41
0.225493268330497
 42
1.99118549412694
  0
LINE
  5
88CB
330
1F
100
AcDbEntity
  8
0
100
AcDbLine
 10
-17.587208
 20
-99.74796409648456
 30
0.0
 11
-18.75984000000002
 21
-99.07856009648458
 31
0.0
  0
LINE
  5
88CC
330
1F
100
AcDbEntity
  8
0
100
AcDbLine
 10
-28.00295400000001
 20
-94.24807409648463
 30
0.0
 11
-18.76440999999997
 21
-97.5242940964846
 31
0.0
  0
LINE
  5
88CD
330
1F
100
AcDbEntity
  8
0
100
AcDbLine
 10
-18.96588300000004
 20
-97.86129909648458
 30
0.0
 11
-16.889893
 21
-94.38878109648454
 31
0.0
  0
LINE
  5
88CE
330
1F
100
AcDbEntity
  8
0
100
AcDbLine
 10
-17.587208
 20
-99.74796409648456
 30
0.0
 11
-0.9220209999999724
 21
-99.99824409648454
 31
0.0
  0
LINE
  5
88CF
330
1F
100
AcDbEntity
  8
0
100
AcDbLine
 10
-28.00295400000001
 20
-94.24807409648463
 30
0.0
 11
-28.00295400000001
 21
-87.63014209648464
 31
0.0
  0
LINE
  5
88D0
330
1F
100
AcDbEntity
  8
0
100
AcDbLine
 10
-22.50295400000001
 20
-87.51451509648461
 30
0.0
 11
-22.50295400000001
 21
-78.5422590964846
 31
0.0
  0
LINE
  5
88D1
330
1F
100
AcDbEntity
  8
0
100
AcDbLine
 10
-22.50295400000001
 20
-87.51451509648461
 30
0.0
 11
-28.00295400000001
 21
-87.63014209648464
 31
0.0
  0
ELLIPSE
  5
88D2
330
1F
100
AcDbEntity
  8
0
100
AcDbEllipse
 10
-14.85172499999996
 20
-80.35720109648456
 30
0.0
 11
4.004163250131999
 21
-0.002450548215
 31
0.0
210
0.0
220
0.0
230
-1.0
 40
0.07950373661019
 41
3.145232044052919
 42
4.446688810665579
  0
LINE
  5
88D3
330
1F
100
AcDbEntity
  8
0
100
AcDbLine
 10
-15.90297199999994
 20
-80.04938209648457
 30
0.0
 11
-1.994531000000051
 21
-79.75698409648453
 31
0.0
  0
LINE
  5
88D4
330
1F
100
AcDbEntity
  8
0
100
AcDbLine
 10
-22.50295400000001
 20
-78.5422590964846
 30
0.0
 11
-1.867556000000035
 21
-78.10844009648462
 31
0.0
  0
LINE
  5
88D5
330
1F
100
AcDbEntity
  8
0
100
AcDbLine
 10
-19.32924899999997
 20
-90.55595709648457
 30
0.0
 11
-18.85586099999997
 21
-80.35359009648459
 31
0.0
  0
LINE
  5
88D6
330
1F
100
AcDbEntity
  8
0
100
AcDbLine
 10
-16.38682600000001
 20
-90.47731209648464
 30
0.0
 11
-15.90297199999994
 21
-80.04938209648457
 31
0.0
  0
ELLIPSE
  5
88D7
330
1F
100
AcDbEntity
  8
0
100
AcDbEllipse
 10
-19.25571199999998
 20
-105.5524540964845
 30
0.0
 11
0.31528168264
 21
-14.99668621598099
 31
0.0
210
0.0
220
0.0
230
-1.0
 40
0.2580212
 41
3.240362518333309
 42
3.97090545680866
  0
ELLIPSE
  5
88D8
330
1F
100
AcDbEntity
  8
0
100
AcDbEllipse
 10
-15.38300599999999
 20
-91.80727109648456
 30
0.0
 11
3.990881754126008
 21
-0.2863286995530005
 31
0.0
210
0.0
220
0.0
230
-1.0
 40
0.3260705698875799
 41
3.930434247791799
 42
4.43481113636778
  0
SPLINE
  5
88D9
330
1F
100
AcDbEntity
  8
0
100
AcDbSpline
210
0.0
220
0.0
230
1.0
 70
     8
 71
     3
 72
    11
 73
     7
 74
     5
 42
0.0000000001
 43
0.0000000001
 44
0.0000000001
 40
0.0
 40
0.0
 40
0.0
 40
0.0
 40
0.0027392708884189
 40
0.0070204853189581
 40
0.0136303210203042
 40
0.0226678924862091
 40
0.0226678924862091
 40
0.0226678924862091
 40
0.0226678924862091
 10
-19.32924799999997
 20
-90.55593209648463
 30
0.0
 10
-19.32883810404589
 20
-90.55508030255516
 30
0.0
 10
-19.32778758051421
 20
-90.55289723741839
 30
0.0
 10
-19.32304042184413
 20
-90.55154578771718
 30
0.0
 10
-19.31663929169211
 20
-90.55052223113607
 30
0.0
 10
-19.31138864757699
 20
-90.55034719386384
 30
0.0
 10
-19.30835599999997
 20
-90.55024609648455
 30
0.0
 11
-19.32924799999997
 21
-90.55593209648463
 31
0.0
 11
-19.32780599999998
 21
-90.55360309648461
 31
0.0
 11
-19.32389699999996
 21
-90.55185709648458
 31
0.0
 11
-19.31737900000004
 21
-90.55075909648463
 31
0.0
 11
-19.30835599999997
 21
-90.55024609648455
 31
0.0
  0
SPLINE
  5
88DA
330
1F
100
AcDbEntity
  8
0
100
AcDbSpline
210
0.0
220
0.0
230
1.0
 70
     8
 71
     3
 72
    11
 73
     7
 74
     5
 42
0.0000000001
 43
0.0000000001
 44
0.0000000001
 40
0.0
 40
0.0
 40
0.0
 40
0.0
 40
0.0663061719072799
 40
0.114328021486438
 40
0.1441303157773328
 40
0.1567561104056902
 40
0.1567561104056902
 40
0.1567561104056902
 40
0.1567561104056902
 10
-19.18789000000001
 20
-90.62083509648459
 30
0.0
 10
-19.20877008682269
 20
-90.61337534491995
 30
0.0
 10
-19.24477245200582
 20
-90.60051291277167
 30
0.0
 10
-19.28814602778834
 20
-90.5811014910976
 30
0.0
 10
-19.31737422187408
 20
-90.57015415162762
 30
0.0
 10
-19.32652492445253
 20
-90.5591937146641
 30
0.0
 10
-19.32924799999997
 20
-90.55593209648463
 30
0.0
 11
-19.18789000000001
 21
-90.62083509648459
 31
0.0
 11
-19.24999299999998
 21
-90.59760309648458
 31
0.0
 11
-19.29428700000002
 21
-90.57905209648458
 31
0.0
 11
-19.32067500000002
 21
-90.56520109648454
 31
0.0
 11
-19.32924799999997
 21
-90.55593209648463
 31
0.0
  0
SPLINE
  5
88DB
330
1F
100
AcDbEntity
  8
0
100
AcDbSpline
210
0.0
220
0.0
230
1.0
 70
     8
 71
     3
 72
    11
 73
     7
 74
     5
 42
0.0000000001
 43
0.0000000001
 44
0.0000000001
 40
0.0
 40
0.0
 40
0.0
 40
0.0
 40
0.1301237046583035
 40
0.3760882034827802
 40
0.7310805036710926
 40
1.186841671526647
 40
1.186841671526647
 40
1.186841671526647
 40
1.186841671526647
 10
-19.30835599999997
 20
-90.55024609648455
 30
0.0
 10
-19.26510635200392
 20
-90.55365378936722
 30
0.0
 10
-19.14010466642474
 20
-90.56350282569479
 30
0.0
 10
-18.89896327384138
 20
-90.59960000388491
 30
0.0
 10
-18.54932879024682
 20
-90.64238461304492
 30
0.0
 10
-18.28026238649257
 20
-90.66785822684279
 30
0.0
 10
-18.12900799999997
 20
-90.68217809648457
 30
0.0
 11
-19.30835599999997
 21
-90.55024609648455
 31
0.0
 11
-19.17872099999996
 21
-90.56151309648454
 31
0.0
 11
-18.93482200000002
 21
-90.59332209648459
 31
0.0
 11
-18.58251400000003
 21
-90.63689509648453
 31
0.0
 11
-18.12900799999997
 21
-90.68217809648457
 31
0.0
  0
SPLINE
  5
88DC
330
1F
100
AcDbEntity
  8
0
100
AcDbSpline
210
0.0
220
0.0
230
1.0
 70
     8
 71
     3
 72
    11
 73
     7
 74
     5
 42
0.0000000001
 43
0.0000000001
 44
0.0000000001
 40
0.0
 40
0.0
 40
0.0
 40
0.0
 40
0.0044537438184122
 40
0.008908952118847
 40
0.0133631916723548
 40
0.0178179278037406
 40
0.0178179278037406
 40
0.0178179278037406
 40
0.0178179278037406
 10
-14.60219300000002
 20
-95.32163909648454
 30
0.0
 10
-14.60256051509954
 20
-95.32307746859627
 30
0.0
 10
-14.60329566614506
 20
-95.32595468578589
 30
0.0
 10
-14.60440110225448
 20
-95.33026973696067
 30
0.0
 10
-14.60550552633789
 20
-95.33458538875819
 30
0.0
 10
-14.60624382839522
 20
-95.33746180713286
 30
0.0
 10
-14.60661300000001
 20
-95.33890009648462
 30
0.0
 11
-14.60219300000002
 21
-95.32163909648454
 31
0.0
 11
-14.60329599999997
 21
-95.32595409648456
 31
0.0
 11
-14.60440100000002
 21
-95.33027009648458
 31
0.0
 11
-14.60550599999996
 21
-95.33458509648459
 31
0.0
 11
-14.60661300000001
 21
-95.33890009648462
 31
0.0
  0
LINE
  5
88DD
330
1F
100
AcDbEntity
  8
0
100
AcDbLine
 10
-1.994531000000051
 20
-90.34298209648454
 30
0.0
 11
-18.12900799999997
 21
-90.68217809648457
 31
0.0
  0
LINE
  5
88DE
330
1F
100
AcDbEntity
  8
0
100
AcDbLine
 10
-16.38682600000001
 20
-90.47731209648464
 30
0.0
 11
-1.994531000000051
 21
-90.17474209648458
 31
0.0
  0
LINE
  5
88DF
330
1F
100
AcDbEntity
  8
0
100
AcDbLine
 10
-14.55378200000004
 20
-95.50603009648455
 30
0.0
 11
-3.92859800000005
 21
-95.28265609648451
 31
0.0
  0
LINE
  5
88E0
330
1F
100
AcDbEntity
  8
0
100
AcDbLine
 10
-14.60661300000001
 20
-95.33890009648462
 30
0.0
 11
-4.12576599999997
 21
-95.11856109648453
 31
0.0
  0
LINE
  5
88E1
330
1F
100
AcDbEntity
  8
0
100
AcDbLine
 10
-14.55378200000004
 20
-95.50603009648455
 30
0.0
 11
-14.60661300000001
 21
-95.33890009648462
 31
0.0
  0
LINE
  5
88E2
330
1F
100
AcDbEntity
  8
0
100
AcDbLine
 10
-16.61504299999998
 20
-95.36395509648457
 30
0.0
 11
-14.60219300000002
 21
-95.32163909648454
 31
0.0
  0
SPLINE
  5
88E3
330
1F
100
AcDbEntity
  8
0
100
AcDbSpline
210
0.0
220
0.0
230
1.0
 70
     8
 71
     3
 72
    11
 73
     7
 74
     5
 42
0.0000000001
 43
0.0000000001
 44
0.0000000001
 40
0.0
 40
0.0
 40
0.0
 40
0.0
 40
0.3997836009454979
 40
1.053196590930431
 40
1.975231531727203
 40
3.039655097374336
 40
3.039655097374336
 40
3.039655097374336
 40
3.039655097374336
 10
-8.021724000000034
 20
-91.29280509648458
 30
0.0
 10
-8.080736267096964
 20
-91.16746895228207
 30
0.0
 10
-8.236199168483048
 20
-90.83728132206847
 30
0.0
 10
-8.942287235000041
 20
-90.67534929904764
 30
0.0
 10
-9.78695878510331
 20
-90.54602336299211
 30
0.0
 10
-10.45421926534349
 20
-90.53441976586416
 30
0.0
 10
-10.81176400000001
 20
-90.52820209648462
 30
0.0
 11
-8.021724000000034
 21
-91.29280509648458
 31
0.0
 11
-8.230607999999932
 21
-90.9519320964846
 31
0.0
 11
-8.836098999999961
 21
-90.70631209648457
 31
0.0
 11
-9.748220000000031
 21
-90.57146509648465
 31
0.0
 11
-10.81176400000001
 21
-90.52820209648462
 31
0.0
  0
SPLINE
  5
88E4
330
1F
100
AcDbEntity
  8
0
100
AcDbSpline
210
0.0
220
0.0
230
1.0
 70
     8
 71
     3
 72
    11
 73
     7
 74
     5
 42
0.0000000001
 43
0.0000000001
 44
0.0000000001
 40
0.0
 40
0.0
 40
0.0
 40
0.0
 40
1.3561010422593
 40
2.732987623933348
 40
3.79004326519595
 40
4.401853662986774
 40
4.401853662986774
 40
4.401853662986774
 40
4.401853662986774
 10
-12.06539199999994
 20
-91.80523409648458
 30
0.0
 10
-11.62944496155217
 20
-91.94201545423723
 30
0.0
 10
-10.75086893835026
 20
-92.21767467598668
 30
0.0
 10
-9.502752826407766
 20
-92.19651053055004
 30
0.0
 10
-8.413560204774002
 20
-91.97279919864481
 30
0.0
 10
-8.126837316575235
 20
-91.4752191625122
 30
0.0
 10
-8.021724000000034
 20
-91.29280509648458
 30
0.0
 11
-12.06539199999994
 21
-91.80523409648458
 31
0.0
 11
-10.75227300000003
 21
-92.14395009648455
 31
0.0
 11
-9.375388000000015
 21
-92.14186309648459
 31
0.0
 11
-8.37873799999997
 21
-91.7896480964846
 31
0.0
 11
-8.021724000000034
 21
-91.29280509648458
 31
0.0
  0
SPLINE
  5
88E5
330
1F
100
AcDbEntity
  8
0
100
AcDbSpline
210
0.0
220
0.0
230
1.0
 70
     8
 71
     3
 72
    11
 73
     7
 74
     5
 42
0.0000000001
 43
0.0000000001
 44
0.0000000001
 40
0.0
 40
0.0
 40
0.0
 40
0.0
 40
0.6064687981957514
 40
1.081292507016174
 40
1.40022470973334
 40
1.595249199769803
 40
1.595249199769803
 40
1.595249199769803
 40
1.595249199769803
 10
-11.75576699999996
 20
-90.5481110964846
 30
0.0
 10
-11.95927019120318
 20
-90.55990511447902
 30
0.0
 10
-12.32210250253818
 20
-90.58093304423058
 30
0.0
 10
-12.76726509646686
 20
-90.66289961855877
 30
0.0
 10
-13.12005056815568
 20
-90.74636001963462
 30
0.0
 10
-13.19375596688848
 20
-90.90864203992927
 30
0.0
 10
-13.22172399999996
 20
-90.97022109648458
 30
0.0
 11
-11.75576699999996
 21
-90.5481110964846
 31
0.0
 11
-12.36027899999996
 21
-90.5967900964846
 31
0.0
 11
-12.82786599999994
 21
-90.6793730964846
 31
0.0
 11
-13.12202899999997
 21
-90.80260409648463
 31
0.0
 11
-13.22172399999996
 21
-90.97022109648458
 31
0.0
  0
SPLINE
  5
88E6
330
1F
100
AcDbEntity
  8
0
100
AcDbSpline
210
0.0
220
0.0
230
1.0
 70
     8
 71
     3
 72
    11
 73
     7
 74
     5
 42
0.0000000001
 43
0.0000000001
 44
0.0000000001
 40
0.0
 40
0.0
 40
0.0
 40
0.0
 40
0.2030563352077282
 40
0.5163420215006563
 40
0.9442551238765288
 40
1.469714311317476
 40
1.469714311317476
 40
1.469714311317476
 40
1.469714311317476
 10
-13.22172399999996
 20
-90.97022109648458
 30
0.0
 10
-13.19972972990526
 20
-91.03554066270424
 30
0.0
 10
-13.14380157641763
 20
-91.20163859228084
 30
0.0
 10
-12.87839821214053
 20
-91.39623731288374
 30
0.0
 10
-12.52313479316925
 20
-91.61606088902471
 30
0.0
 10
-12.22803741285098
 20
-91.73801697174379
 30
0.0
 10
-12.06539199999994
 20
-91.80523409648458
 30
0.0
 11
-13.22172399999996
 21
-90.97022109648458
 31
0.0
 11
-13.14194600000004
 21
-91.15694909648459
 31
0.0
 11
-12.910696
 21
-91.36830509648461
 31
0.0
 11
-12.54491300000003
 21
-91.59036909648454
 31
0.0
 11
-12.06539199999994
 21
-91.80523409648458
 31
0.0
  0
SPLINE
  5
88E7
330
1F
100
AcDbEntity
  8
0
100
AcDbSpline
210
0.0
220
0.0
230
1.0
 70
     8
 71
     3
 72
    11
 73
     7
 74
     5
 42
0.0000000001
 43
0.0000000001
 44
0.0000000001
 40
0.0
 40
0.0
 40
0.0
 40
0.0
 40
0.0053654454614532
 40
0.0107302738837421
 40
0.0160952724856879
 40
0.0214608879210855
 40
0.0214608879210855
 40
0.0214608879210855
 40
0.0214608879210855
 10
-4.139005999999966
 20
-95.10167109648454
 30
0.0
 10
-4.137902308036114
 20
-95.10307840997194
 30
0.0
 10
-4.135695051035646
 20
-95.10589287510228
 30
0.0
 10
-4.1323846492854
 20
-95.11011489369527
 30
0.0
 10
-4.129076106995195
 20
-95.1143384415659
 30
0.0
 10
-4.126869411281257
 20
-95.11715349090534
 30
0.0
 10
-4.12576599999997
 20
-95.11856109648453
 30
0.0
 11
-4.139005999999966
 21
-95.10167109648454
 31
0.0
 11
-4.135695000000026
 21
-95.10589309648457
 31
0.0
 11
-4.13238499999997
 21
-95.1101150964846
 31
0.0
 11
-4.129076000000026
 21
-95.11433809648451
 31
0.0
 11
-4.12576599999997
 21
-95.11856109648453
 31
0.0
  0
LINE
  5
88E8
330
1F
100
AcDbEntity
  8
0
100
AcDbLine
 10
-3.92859800000005
 20
-95.28265609648451
 30
0.0
 11
-4.12576599999997
 21
-95.11856109648453
 31
0.0
  0
LINE
  5
88E9
330
1F
100
AcDbEntity
  8
0
100
AcDbLine
 10
-4.032315000000011
 20
-95.09942809648453
 30
0.0
 11
-3.92859800000005
 21
-95.28265609648451
 31
0.0
  0
LINE
  5
88EA
330
1F
100
AcDbEntity
  8
0
100
AcDbLine
 10
-4.139005999999966
 20
-95.10167109648454
 30
0.0
 11
-1.994531000000051
 21
-95.05658709648457
 31
0.0
  0
LINE
  5
88EB
330
1F
100
AcDbEntity
  8
0
100
AcDbLine
 10
-1.994531000000051
 20
-95.05658709648457
 30
0.0
 11
-1.994531000000051
 21
-90.34298209648454
 31
0.0
  0
LINE
  5
88EC
330
1F
100
AcDbEntity
  8
0
100
AcDbLine
 10
-1.994531000000051
 20
-93.96680009648457
 30
0.0
 11
-0.0039319999999634
 21
-97.7888420964846
 31
0.0
  0
LINE
  5
88ED
330
1F
100
AcDbEntity
  8
0
100
AcDbLine
 10
-1.867556000000035
 20
-93.06220009648461
 30
0.0
 11
-1.867556000000035
 21
-78.10844009648462
 31
0.0
  0
LINE
  5
88EE
330
1F
100
AcDbEntity
  8
0
100
AcDbLine
 10
-1.091098999999985
 20
-78.33579709648461
 30
0.0
 11
-1.091098999999985
 21
-93.28955709648459
 31
0.0
  0
LINE
  5
88EF
330
1F
100
AcDbEntity
  8
0
100
AcDbLine
 10
-0.9494980000000623
 20
-78.4627830964846
 30
0.0
 11
-0.9494980000000623
 21
-95.9733120964845
 31
0.0
  0
LINE
  5
88F0
330
1F
100
AcDbEntity
  8
0
100
AcDbLine
 10
-1.994531000000051
 20
-93.43039109648453
 30
0.0
 11
-0.9583480000000008
 21
-93.40860709648451
 31
0.0
  0
LINE
  5
88F1
330
1F
100
AcDbEntity
  8
0
100
AcDbLine
 10
-1.091098999999985
 20
-93.28955709648459
 30
0.0
 11
-1.867556000000035
 21
-93.06220009648461
 31
0.0
  0
LINE
  5
88F2
330
1F
100
AcDbEntity
  8
0
100
AcDbLine
 10
-1.994531000000051
 20
-93.06487009648458
 30
0.0
 11
-1.867556000000035
 21
-93.06220009648461
 31
0.0
  0
LINE
  5
88F3
330
1F
100
AcDbEntity
  8
0
100
AcDbLine
 10
-0.9583480000000008
 20
-93.40860709648451
 30
0.0
 11
-0.9583480000000008
 21
-95.95632009648454
 31
0.0
  0
LINE
  5
88F4
330
1F
100
AcDbEntity
  8
0
100
AcDbLine
 10
-1.091098999999985
 20
-93.28955709648459
 30
0.0
 11
-0.9583480000000008
 21
-93.40860709648451
 31
0.0
  0
LINE
  5
88F5
330
1F
100
AcDbEntity
  8
0
100
AcDbLine
 10
-1.994531000000051
 20
-90.17474209648458
 30
0.0
 11
-1.994531000000051
 21
-79.75698409648453
 31
0.0
  0
LINE
  5
88F6
330
1F
100
AcDbEntity
  8
0
100
AcDbLine
 10
-1.867556000000035
 20
-78.10844009648462
 30
0.0
 11
-1.091098999999985
 21
-78.33579709648461
 31
0.0
  0
LINE
  5
88F7
330
1F
100
AcDbEntity
  8
0
100
AcDbLine
 10
-0.9494980000000623
 20
-78.4627830964846
 30
0.0
 11
-1.091098999999985
 21
-78.33579709648461
 31
0.0
  0
LINE
  5
88F8
330
1F
100
AcDbEntity
  8
AM_11
100
AcDbLine
 10
-0.7727379999997766
 20
-100.0
 30
0.0
 11
0.0
 21
-100.0
 31
0.0
  0
LINE
  5
88FB
330
1F
100
AcDbEntity
  8
0
100
AcDbLine
 10
-0.0039319999999634
 20
-97.7888420964846
 30
0.0
 11
0.0
 21
-99.18390009648465
 31
0.0
  0
ELLIPSE
  5
88FC
330
1F
100
AcDbEntity
  8
0
100
AcDbEllipse
 10
-0.772738000000004
 20
-99.20246609648462
 30
0.0
 11
-0.22481131597
 21
-0.7677629010390001
 31
0.0
210
0.0
220
0.0
230
-1.0
 40
0.9629487499999999
 41
4.414283443712509
 42
6.179975573459709
  0
LINE
  5
8911
330
1F
100
AcDbEntity
  8
0
100
AcDbLine
 10
-2.525055420477997
 20
-78.12226273955127
 30
0.0
 11
-3.701555363836718
 21
-71.44999999999999
 31
0.0
  0
LINE
  5
8912
330
1F
100
AcDbEntity
  8
0
100
AcDbLine
 10
-1.999999999999943
 20
-78.11122447329364
 30
0.0
 11
-1.999999999999971
 21
0.0
 31
0.0
  0
LINE
  5
8913
330
1F
100
AcDbEntity
  8
0
100
AcDbLine
 10
-2.525055420478054
 20
78.12226273955127
 30
0.0
 11
-3.701555363836718
 21
71.44999999999999
 31
0.0
  0
LINE
  5
8914
330
1F
100
AcDbEntity
  8
0
100
AcDbLine
 10
-1.999999999999943
 20
78.11122447329364
 30
0.0
 11
-1.999999999999886
 21
0.0
 31
0.0
  0
LINE
  5
8915
330
1F
100
AcDbEntity
  8
0
100
AcDbLine
 10
-27.79999999999992
 20
87.62587537609226
 30
0.0
 11
-27.79999999999992
 21
87.59999999999996
 31
0.0
  0
ARC
  5
8916
330
1F
100
AcDbEntity
  8
AM_3
100
AcDbCircle
 10
-23.1999999999999
 20
87.59999999999999
 30
0.0
 40
0.4
100
AcDbArc
 50
348.5983648131985
 51
0.0
  0
ARC
  5
8917
330
1F
100
AcDbEntity
  8
AM_0
100
AcDbCircle
 10
-23.1999999999999
 20
-87.59999999999999
 30
0.0
 40
0.4
100
AcDbArc
 50
11.40163518680145
 51
90.00000000000003
  0
LINE
  5
8918
330
1F
100
AcDbEntity
  8
0
100
AcDbLine
 10
-27.79999999999992
 20
-87.59999999999996
 30
0.0
 11
-27.79999999999992
 21
-87.62587537609226
 31
0.0
  0
LINE
  5
8919
330
1F
100
AcDbEntity
  8
0
100
AcDbLine
 10
-27.79999999999992
 20
-94.40000000000003
 30
0.0
 11
-27.79999999999992
 21
-94.32004668804021
 31
0.0
  0
LINE
  5
891A
330
1F
100
AcDbEntity
  8
0
100
AcDbLine
 10
-27.79999999999992
 20
94.40000000000004
 30
0.0
 11
-27.79999999999992
 21
94.32004668804021
 31
0.0
  0
DIMENSION
  5
89A3
330
1F
100
AcDbEntity
  8
AM_5
100
AcDbDimension
  2
*D13
 10
0.0
 20
-100.0
 30
0.0
 11
28.9207850434792
 21
-128.9207850434792
 31
0.0
 70
    34
  1
<>
  3
AM_JIS$2
100
AcDb2LineAngularDimension
 13
-0.7727379999997766
 23
-100.0
 33
0.0
 14
0.0
 24
-100.0
 34
0.0
 15
0.0
 25
99.18846823328653
 35
0.0
 16
22.00008322148262
 26
-138.1052619103514
 36
0.0
1001
ACAD
1000
DSTYLE
1002
{
1070
   179
1070
     3
1002
}
1001
GENIUS_GENDTOL_13
1000

1000
h7
1000

1040
0.0
  0
DIMENSION
  5
8A9D
330
1F
100
AcDbEntity
  8
AM_5
100
AcDbDimension
  2
*D14
 10
-31.00000000000013
 20
-124.0001664429652
 30
0.0
 11
-47.00000000000005
 21
-120.9001664429652
 31
0.0
 70
    32
  1
<>
  3
AM_JIS$0
100
AcDbAlignedDimension
 13
-62.99999999999997
 23
-62.59999999999994
 33
0.0
 14
-31.00000000000012
 24
-63.80000000000001
 34
0.0
 50
0.0000000000001132
100
AcDbRotatedDimension
1001
GENIUS_GENDTOL_13
1000

1000
h7
1000

1040
0.0
1001
ACAD
1000
DSTYLE
1002
{
1070
    40
1040
1.0
1070
    43
1040
12.0
1070
   140
1040
3.2
1070
   147
1040
1.5
1070
   178
1070
     2
1002
}
  0
LINE
  5
8CCD
330
1F
100
AcDbEntity
  8
AM_3
100
AcDbLine
 10
-2.999229036240786
 20
95.67202558999937
 30
0.0
 11
-2.000000000000057
 21
94.6327657742403
 31
0.0
1001
GENIUS_GENFIL_13
1070
     0
1040
1.0
1040
1.0
1040
20.0
1040
0.0
1002
{
1002
}
1001
GENIUS_GENODEF_13
1002
{
1000
HIER
1070
     0
1002
}
1002
{
1000
MANEDIT
1070
     0
1002
}
1002
{
1000
NOSEL
1070
     0
1002
}
1002
{
1000
BEHIND
1070
     0
1002
}
1002
{
1000
REACTOR
1002
}
1001
GENIUS_GENOBJ-N-CHA_13
1002
{
1000
OWNER
1000
GEN
1002
}
  0
LINE
  5
8CCF
330
1F
100
AcDbEntity
  8
0
100
AcDbLine
 10
-28.79999999999992
 20
95.40000000000004
 30
0.0
 11
-27.79999999999992
 21
94.40000000000004
 31
0.0
1001
GENIUS_GENFIL_13
1070
     0
1040
1.0
1040
1.0
1040
20.0
1040
0.0
1002
{
1002
}
1001
GENIUS_GENODEF_13
1002
{
1000
HIER
1070
     0
1002
}
1002
{
1000
MANEDIT
1070
     0
1002
}
1002
{
1000
NOSEL
1070
     0
1002
}
1002
{
1000
BEHIND
1070
     0
1002
}
1002
{
1000
REACTOR
1002
}
1001
GENIUS_GENOBJ-N-CHA_13
1002
{
1000
OWNER
1000
GEN
1002
}
  0
LINE
  5
8CD2
330
1F
100
AcDbEntity
  8
AM_3
100
AcDbLine
 10
-21.30115644563884
 20
96.39111027636136
 30
0.0
 11
-22.79999999999992
 21
94.94999999999997
 31
0.0
1001
GENIUS_GENFIL_13
1070
     0
1040
1.5
1040
1.5
1040
20.0
1040
0.0
1002
{
1002
}
1001
GENIUS_GENODEF_13
1002
{
1000
HIER
1070
     0
1002
}
1002
{
1000
MANEDIT
1070
     0
1002
}
1002
{
1000
NOSEL
1070
     0
1002
}
1002
{
1000
BEHIND
1070
     0
1002
}
1002
{
1000
REACTOR
1002
}
1001
GENIUS_GENOBJ-N-CHA_13
1002
{
1000
OWNER
1000
GEN
1002
}
  0
ARC
  5
8CD5
330
1F
100
AcDbEntity
  8
AM_0
100
AcDbCircle
 10
-38.46534602404195
 20
93.40000000000005
 30
0.0
 40
2.0
100
AcDbArc
 50
90.00000000000007
 51
165.0
1001
GENIUS_GENODEF_13
1002
{
1000
HIER
1070
     0
1002
}
1002
{
1000
MANEDIT
1070
     0
1002
}
1002
{
1000
NOSEL
1070
     0
1002
}
1002
{
1000
BEHIND
1070
     0
1002
}
1002
{
1000
REACTOR
1002
}
1001
GENIUS_GENOBJ-N-FIL_13
1002
{
1000
OWNER
1000
GEN
1002
}
  0
ARC
  5
8CD8
330
1F
100
AcDbEntity
  8
AM_0
100
AcDbCircle
 10
-49.68030942586395
 20
66.9999999999999
 30
0.0
 40
2.0
100
AcDbArc
 50
269.9999999999998
 51
345.0
1001
GENIUS_GENODEF_13
1002
{
1000
HIER
1070
     0
1002
}
1002
{
1000
MANEDIT
1070
     0
1002
}
1002
{
1000
NOSEL
1070
     0
1002
}
1002
{
1000
BEHIND
1070
     0
1002
}
1002
{
1000
REACTOR
1002
}
1001
GENIUS_GENOBJ-N-FIL_13
1002
{
1000
OWNER
1000
GEN
1002
}
  0
LINE
  5
8CDC
330
1F
100
AcDbEntity
  8
AM_0
100
AcDbLine
 10
-60.59999999999996
 20
64.99999999999992
 30
0.0
 11
-62.99999999999997
 21
62.59999999999994
 31
0.0
1001
GENIUS_GENFIL_13
1070
     0
1040
2.399999999999999
1040
2.399999999999999
1040
20.0
1040
0.0
1002
{
1002
}
1001
GENIUS_GENODEF_13
1002
{
1000
HIER
1070
     0
1002
}
1002
{
1000
MANEDIT
1070
     0
1002
}
1002
{
1000
NOSEL
1070
     0
1002
}
1002
{
1000
BEHIND
1070
     0
1002
}
1002
{
1000
REACTOR
1002
}
1001
GENIUS_GENOBJ-N-CHA_13
1002
{
1000
OWNER
1000
GEN
1002
}
  0
LINE
  5
8D02
330
1F
100
AcDbEntity
  8
AM_0
100
AcDbLine
 10
-62.99999999999998
 20
26.73749999999989
 30
0.0
 11
-60.09999999999998
 21
23.83749999999989
 31
0.0
1001
GENIUS_GENFIL_13
1070
     0
1040
2.9
1040
2.9
1040
20.0
1040
0.0
1002
{
1002
}
1001
GENIUS_GENODEF_13
1002
{
1000
HIER
1070
     0
1002
}
1002
{
1000
MANEDIT
1070
     0
1002
}
1002
{
1000
NOSEL
1070
     0
1002
}
1002
{
1000
BEHIND
1070
     0
1002
}
1002
{
1000
REACTOR
1002
}
1001
GENIUS_GENOBJ-N-CHA_13
1002
{
1000
OWNER
1000
GEN
1002
}
  0
LINE
  5
8D11
330
1F
100
AcDbEntity
  8
AM_0
100
AcDbLine
 10
-61.09999999999999
 20
12.69999999999999
 30
0.0
 11
-62.99999999999999
 21
14.59999999999999
 31
0.0
1001
GENIUS_GENFIL_13
1070
     0
1040
1.9
1040
1.9
1040
20.0
1040
0.0
1002
{
1002
}
1001
GENIUS_GENODEF_13
1002
{
1000
HIER
1070
     0
1002
}
1002
{
1000
MANEDIT
1070
     0
1002
}
1002
{
1000
NOSEL
1070
     0
1002
}
1002
{
1000
BEHIND
1070
     0
1002
}
1002
{
1000
REACTOR
1002
}
1001
GENIUS_GENOBJ-N-CHA_13
1002
{
1000
OWNER
1000
GEN
1002
}
  0
ARC
  5
8D14
330
1F
100
AcDbEntity
  8
AM_0
100
AcDbCircle
 10
-50.49999999999986
 20
11.69999999999998
 30
0.0
 40
1.0
100
AcDbArc
 50
0.0
 51
90.0
1001
GENIUS_GENODEF_13
1002
{
1000
HIER
1070
     0
1002
}
1002
{
1000
MANEDIT
1070
     0
1002
}
1002
{
1000
NOSEL
1070
     0
1002
}
1002
{
1000
BEHIND
1070
     0
1002
}
1002
{
1000
REACTOR
1002
}
1001
GENIUS_GENOBJ-N-FIL_13
1002
{
1000
OWNER
1000
GEN
1002
}
  0
ARC
  5
8D17
330
1F
100
AcDbEntity
  8
AM_0
100
AcDbCircle
 10
-50.49999999999986
 20
-11.69999999999999
 30
0.0
 40
1.0
100
AcDbArc
 50
270.0
 51
0.0
1001
GENIUS_GENODEF_13
1002
{
1000
HIER
1070
     0
1002
}
1002
{
1000
MANEDIT
1070
     0
1002
}
1002
{
1000
NOSEL
1070
     0
1002
}
1002
{
1000
BEHIND
1070
     0
1002
}
1002
{
1000
REACTOR
1002
}
1001
GENIUS_GENOBJ-N-FIL_13
1002
{
1000
OWNER
1000
GEN
1002
}
  0
ARC
  5
8D23
330
1F
100
AcDbEntity
  8
AM_0
100
AcDbCircle
 10
-24.20000000000025
 20
49.38613840961685
 30
0.0
 40
0.8
100
AcDbArc
 50
105.0
 51
180.0000000000003
1001
GENIUS_GENODEF_13
1002
{
1000
HIER
1070
     0
1002
}
1002
{
1000
MANEDIT
1070
     0
1002
}
1002
{
1000
NOSEL
1070
     0
1002
}
1002
{
1000
BEHIND
1070
     0
1002
}
1002
{
1000
REACTOR
1002
}
1001
GENIUS_GENOBJ-N-FIL_13
1002
{
1000
OWNER
1000
GEN
1002
}
  0
ARC
  5
8D25
330
1F
100
AcDbEntity
  8
AM_0
100
AcDbCircle
 10
-38.46534602404195
 20
-93.40000000000005
 30
0.0
 40
2.0
100
AcDbArc
 50
194.9999999999999
 51
269.9999999999999
1001
GENIUS_GENODEF_13
1002
{
1000
HIER
1070
     0
1002
}
1002
{
1000
MANEDIT
1070
     0
1002
}
1002
{
1000
NOSEL
1070
     0
1002
}
1002
{
1000
BEHIND
1070
     0
1002
}
1002
{
1000
REACTOR
1002
}
1001
GENIUS_GENOBJ-N-FIL_13
1002
{
1000
OWNER
1000
GEN
1002
}
  0
LINE
  5
8D26
330
1F
100
AcDbEntity
  8
0
100
AcDbLine
 10
-28.79999999999992
 20
-95.40000000000004
 30
0.0
 11
-27.79999999999992
 21
-94.40000000000004
 31
0.0
1001
GENIUS_GENFIL_13
1070
     0
1040
1.0
1040
1.0
1040
20.0
1040
0.0
1002
{
1002
}
1001
GENIUS_GENODEF_13
1002
{
1000
HIER
1070
     0
1002
}
1002
{
1000
MANEDIT
1070
     0
1002
}
1002
{
1000
NOSEL
1070
     0
1002
}
1002
{
1000
BEHIND
1070
     0
1002
}
1002
{
1000
REACTOR
1002
}
1001
GENIUS_GENOBJ-N-CHA_13
1002
{
1000
OWNER
1000
GEN
1002
}
  0
LINE
  5
8D27
330
1F
100
AcDbEntity
  8
AM_3
100
AcDbLine
 10
-21.30115644563884
 20
-96.39111027636136
 30
0.0
 11
-22.79999999999992
 21
-94.94999999999997
 31
0.0
1001
GENIUS_GENFIL_13
1070
     0
1040
1.5
1040
1.5
1040
20.0
1040
0.0
1002
{
1002
}
1001
GENIUS_GENODEF_13
1002
{
1000
HIER
1070
     0
1002
}
1002
{
1000
MANEDIT
1070
     0
1002
}
1002
{
1000
NOSEL
1070
     0
1002
}
1002
{
1000
BEHIND
1070
     0
1002
}
1002
{
1000
REACTOR
1002
}
1001
GENIUS_GENOBJ-N-CHA_13
1002
{
1000
OWNER
1000
GEN
1002
}
  0
LINE
  5
8D28
330
1F
100
AcDbEntity
  8
AM_3
100
AcDbLine
 10
-2.999229036240786
 20
-95.67202558999937
 30
0.0
 11
-2.000000000000057
 21
-94.6327657742403
 31
0.0
1001
GENIUS_GENFIL_13
1070
     0
1040
1.0
1040
1.0
1040
20.0
1040
0.0
1002
{
1002
}
1001
GENIUS_GENODEF_13
1002
{
1000
HIER
1070
     0
1002
}
1002
{
1000
MANEDIT
1070
     0
1002
}
1002
{
1000
NOSEL
1070
     0
1002
}
1002
{
1000
BEHIND
1070
     0
1002
}
1002
{
1000
REACTOR
1002
}
1001
GENIUS_GENOBJ-N-CHA_13
1002
{
1000
OWNER
1000
GEN
1002
}
  0
ARC
  5
8D29
330
1F
100
AcDbEntity
  8
AM_0
100
AcDbCircle
 10
-49.68030942586395
 20
-66.9999999999999
 30
0.0
 40
2.0
100
AcDbArc
 50
14.99999999999999
 51
90.00000000000017
1001
GENIUS_GENODEF_13
1002
{
1000
HIER
1070
     0
1002
}
1002
{
1000
MANEDIT
1070
     0
1002
}
1002
{
1000
NOSEL
1070
     0
1002
}
1002
{
1000
BEHIND
1070
     0
1002
}
1002
{
1000
REACTOR
1002
}
1001
GENIUS_GENOBJ-N-FIL_13
1002
{
1000
OWNER
1000
GEN
1002
}
  0
LINE
  5
8D2A
330
1F
100
AcDbEntity
  8
AM_0
100
AcDbLine
 10
-60.59999999999996
 20
-64.99999999999992
 30
0.0
 11
-62.99999999999997
 21
-62.59999999999994
 31
0.0
1001
GENIUS_GENFIL_13
1070
     0
1040
2.399999999999999
1040
2.399999999999999
1040
20.0
1040
0.0
1002
{
1002
}
1001
GENIUS_GENODEF_13
1002
{
1000
HIER
1070
     0
1002
}
1002
{
1000
MANEDIT
1070
     0
1002
}
1002
{
1000
NOSEL
1070
     0
1002
}
1002
{
1000
BEHIND
1070
     0
1002
}
1002
{
1000
REACTOR
1002
}
1001
GENIUS_GENOBJ-N-CHA_13
1002
{
1000
OWNER
1000
GEN
1002
}
  0
LINE
  5
8D2B
330
1F
100
AcDbEntity
  8
AM_0
100
AcDbLine
 10
-62.99999999999998
 20
-26.73749999999989
 30
0.0
 11
-60.09999999999998
 21
-23.83749999999989
 31
0.0
1001
GENIUS_GENFIL_13
1070
     0
1040
2.9
1040
2.9
1040
20.0
1040
0.0
1002
{
1002
}
1001
GENIUS_GENODEF_13
1002
{
1000
HIER
1070
     0
1002
}
1002
{
1000
MANEDIT
1070
     0
1002
}
1002
{
1000
NOSEL
1070
     0
1002
}
1002
{
1000
BEHIND
1070
     0
1002
}
1002
{
1000
REACTOR
1002
}
1001
GENIUS_GENOBJ-N-CHA_13
1002
{
1000
OWNER
1000
GEN
1002
}
  0
LINE
  5
8D2C
330
1F
100
AcDbEntity
  8
AM_0
100
AcDbLine
 10
-61.09999999999999
 20
-12.69999999999999
 30
0.0
 11
-62.99999999999999
 21
-14.59999999999999
 31
0.0
1001
GENIUS_GENFIL_13
1070
     0
1040
1.9
1040
1.9
1040
20.0
1040
0.0
1002
{
1002
}
1001
GENIUS_GENODEF_13
1002
{
1000
HIER
1070
     0
1002
}
1002
{
1000
MANEDIT
1070
     0
1002
}
1002
{
1000
NOSEL
1070
     0
1002
}
1002
{
1000
BEHIND
1070
     0
1002
}
1002
{
1000
REACTOR
1002
}
1001
GENIUS_GENOBJ-N-CHA_13
1002
{
1000
OWNER
1000
GEN
1002
}
  0
ARC
  5
8D2D
330
1F
100
AcDbEntity
  8
AM_0
100
AcDbCircle
 10
-24.20000000000025
 20
-49.38613840961685
 30
0.0
 40
0.8
100
AcDbArc
 50
179.9999999999996
 51
254.9999999999999
1001
GENIUS_GENODEF_13
1002
{
1000
HIER
1070
     0
1002
}
1002
{
1000
MANEDIT
1070
     0
1002
}
1002
{
1000
NOSEL
1070
     0
1002
}
1002
{
1000
BEHIND
1070
     0
1002
}
1002
{
1000
REACTOR
1002
}
1001
GENIUS_GENOBJ-N-FIL_13
1002
{
1000
OWNER
1000
GEN
1002
}
  0
VIEWPORT
  5
110
330
101
100
AcDbEntity
 67
     1
  8
0
100
AcDbViewport
 10
420.5
 20
297.0
 30
0.0
 40
948.9782706766916
 41
628.452
 68
     1
 69
     1
1001
ACAD
1000
MVIEW
1002
{
1070
    16
1010
0.0
1020
0.0
1030
0.0
1010
0.0
1020
0.0
1030
1.0
1040
0.0
1040
628.452
1040
420.5
1040
297.0
1040
50.0
1040
0.0
1040
0.0
1070
     0
1070
   100
1070
     1
1070
     1
1070
     0
1070
     0
1070
     0
1070
     0
1040
0.0
1040
0.0
1040
0.0
1040
10.0
1040
10.0
1040
10.0
1040
10.0
1070
     0
1002
{
1002
}
1002
}
  0
ENDSEC
  0
SECTION
  2
OBJECTS
  0
DICTIONARY
  5
C
330
0
100
AcDbDictionary
  3
ACAD_GROUP
350
D
  3
ACAD_LAYOUT
350
1A
  3
ACAD_MLINESTYLE
350
17
  3
ACAD_PLOTSETTINGS
350
19
  3
ACAD_PLOTSTYLENAME
350
E
  3
ACDBVARIABLEDICTIONARY
350
34
  3
ACMDICTIONARY
350
43
  3
AMG
350
2B
  3
AMGSNAPSETTINGS
350
6E
  3
DWGPROPS
350
8D77
  3
ACDBHEADERROUNDTRIPXREC
350
8D84
  0
DICTIONARY
  5
74
330
1F
100
AcDbDictionary
280
     1
  3
ACAD_INDEX
360
8D79
  3
ACAD_LAYOUTSELFREF
360
8DA7
  0
DICTIONARY
  5
8DAC
330
101
100
AcDbDictionary
280
     1
  3
ACAD_LAYOUTSELFREF
360
8DAD
  0
DICTIONARY
  5
D
102
{ACAD_REACTORS
330
C
102
}
330
C
100
AcDbDictionary
  0
DICTIONARY
  5
1A
102
{ACAD_REACTORS
330
C
102
}
330
C
100
AcDbDictionary
  0
DICTIONARY
  5
17
102
{ACAD_REACTORS
330
C
102
}
330
C
100
AcDbDictionary
  3
STANDARD
350
18
  0
DICTIONARY
  5
19
102
{ACAD_REACTORS
330
C
102
}
330
C
100
AcDbDictionary
  0
ACDBDICTIONARYWDFLT
  5
E
102
{ACAD_REACTORS
330
C
102
}
330
C
100
AcDbDictionary
281
     1
  3
Normal
350
F
100
AcDbDictionaryWithDefault
340
F
  0
DICTIONARY
  5
34
102
{ACAD_REACTORS
330
C
102
}
330
C
100
AcDbDictionary
  3
INDEXCTL
350
35
  3
SORTENTS
350
B5E
  0
DICTIONARY
  5
43
102
{ACAD_REACTORS
330
C
102
}
330
C
100
AcDbDictionary
  3
ACMSTDDICTIONARY
350
260
  0
DICTIONARY
  5
2B
102
{ACAD_REACTORS
330
C
102
}
330
C
100
AcDbDictionary
  3
ACMGSETTINGS
350
2C
  0
DICTIONARY
  5
6E
102
{ACAD_REACTORS
330
C
102
}
330
C
100
AcDbDictionary
  0
XRECORD
  5
8D77
102
{ACAD_REACTORS
330
C
102
}
330
C
100
AcDbXrecord
  1
DWGPROPS COOKIE
  2

  3

  4

  6

  7

  8

  9

300
AmdtFileType=82
301
=
302
=
303
=
304
=
305
=
306
=
307
=
308
=
309
=
 40
0.1420446296296296
 41
2452836.771637361
 42
2452908.392223749
  1

 90
        1
  0
DICTIONARY
  5
8D84
102
{ACAD_REACTORS
330
C
102
}
330
C
100
AcDbDictionary
  3
TSTACKALIGN
350
8D85
  3
TSTACKSIZE
350
8D86
  3
HYPERLINKBASE
350
8D87
  3
STYLESHEET
350
8D88
  3
LAYOUTDICT
350
8D89
  3
PLOTSETDICT
350
8D8A
  3
PLOTSTYLNAMDICT
350
8D8B
  3
LWETCUNION
350
8D8C
  3
INSUNITS
350
8D8D
  3
CEPSNTYPE
350
8D8E
  3
FINGERPRINTGUID
350
8D8F
  3
VERSIONGUID
350
8D90
  3
PSVPSCALE
350
8D91
  3
DIMSTYLEDATA
350
8D92
  3
PUCSORTHOREF
350
8D93
  3
PUCSORTHOVIEW
350
8D94
  3
PUCSBASE
350
8D95
  3
PUCSORGTOP
350
8D96
  3
PUCSORGBOTTOM
350
8D97
  3
PUCSORGLEFT
350
8D98
  3
PUCSORGRIGHT
350
8D99
  3
PUCSORGFRONT
350
8D9A
  3
PUCSORGBACK
350
8D9B
  3
UCSORTHOREF
350
8D9C
  3
UCSORTHOVIEW
350
8D9D
  3
UCSBASE
350
8D9E
  3
UCSORGTOP
350
8D9F
  3
UCSORGBOTTOM
350
8DA0
  3
UCSORGLEFT
350
8DA1
  3
UCSORGRIGHT
350
8DA2
  3
UCSORGFRONT
350
8DA3
  3
UCSORGBACK
350
8DA4
  0
DICTIONARY
  5
8D79
102
{ACAD_REACTORS
330
74
102
}
330
74
100
AcDbDictionary
  3
*A1
350
8D7A
  0
XRECORD
  5
8DA7
102
{ACAD_REACTORS
330
74
102
}
330
74
100
AcDbXrecord
340
1F
  0
XRECORD
  5
8DAD
102
{ACAD_REACTORS
330
8DAC
102
}
330
8DAC
100
AcDbXrecord
340
101
  0
MLINESTYLE
  5
18
102
{ACAD_REACTORS
330
17
102
}
330
17
100
AcDbMlineStyle
  2
STANDARD
 70
     0
  3

 62
   256
 51
90.0
 52
90.0
 71
     2
 49
0.5
 62
   256
  6
BYLAYER
 49
-0.5
 62
   256
  6
BYLAYER
  0
ACDBPLACEHOLDER
  5
F
102
{ACAD_REACTORS
330
E
102
}
330
E
100
AcDbPlaceHolder
280
     0
  0
DICTIONARYVAR
  5
35
102
{ACAD_REACTORS
330
34
102
}
330
34
100
DictionaryVariables
280
     0
  1
1
  0
DICTIONARYVAR
  5
B5E
102
{ACAD_REACTORS
330
34
102
}
330
34
100
DictionaryVariables
280
     0
  1
96
  0
DICTIONARY
  5
260
102
{ACAD_REACTORS
330
43
102
}
330
43
100
AcDbDictionary
  0
DICTIONARY
  5
2C
102
{ACAD_REACTORS
330
2B
102
}
330
2B
100
AcDbDictionary
  3
DWGSETTINGS
350
2D
  0
XRECORD
  5
8D85
102
{ACAD_REACTORS
330
8D84
102
}
330
8D84
100
AcDbXrecord
 90
        1
  0
XRECORD
  5
8D86
102
{ACAD_REACTORS
330
8D84
102
}
330
8D84
100
AcDbXrecord
 90
       70
  0
XRECORD
  5
8D87
102
{ACAD_REACTORS
330
8D84
102
}
330
8D84
100
AcDbXrecord
  1

  0
XRECORD
  5
8D88
102
{ACAD_REACTORS
330
8D84
102
}
330
8D84
100
AcDbXrecord
  1
ASAMI.ctb
  0
XRECORD
  5
8D89
102
{ACAD_REACTORS
330
8D84
102
}
330
8D84
100
AcDbXrecord
340
1A
  0
XRECORD
  5
8D8A
102
{ACAD_REACTORS
330
8D84
102
}
330
8D84
100
AcDbXrecord
340
19
  0
XRECORD
  5
8D8B
102
{ACAD_REACTORS
330
8D84
102
}
330
8D84
100
AcDbXrecord
340
E
  0
XRECORD
  5
8D8C
102
{ACAD_REACTORS
330
8D84
102
}
330
8D84
100
AcDbXrecord
 90
    10781
  0
XRECORD
  5
8D8D
102
{ACAD_REACTORS
330
8D84
102
}
330
8D84
100
AcDbXrecord
 90
        4
  0
XRECORD
  5
8D8E
102
{ACAD_REACTORS
330
8D84
102
}
330
8D84
100
AcDbXrecord
 90
        0
  0
XRECORD
  5
8D8F
102
{ACAD_REACTORS
330
8D84
102
}
330
8D84
100
AcDbXrecord
  1
{AFB28963-8C59-40AE-9337-C84526B81ACE}
  0
XRECORD
  5
8D90
102
{ACAD_REACTORS
330
8D84
102
}
330
8D84
100
AcDbXrecord
  1
{6EAE524D-0059-4CA4-AFF8-97784352297B}
  0
XRECORD
  5
8D91
102
{ACAD_REACTORS
330
8D84
102
}
330
8D84
100
AcDbXrecord
 40
0.0
  0
XRECORD
  5
8D92
102
{ACAD_REACTORS
330
8D84
102
}
330
8D84
100
AcDbXrecord
1000
DSTYLE
1002
{
1070
    79
 70
     2
1070
   341
340
59
1070
   342
340
59
1070
   371
 70
    -1
1070
   372
 70
    -1
1002
}
  0
XRECORD
  5
8D93
102
{ACAD_REACTORS
330
8D84
102
}
330
8D84
100
AcDbXrecord
340
0
  0
XRECORD
  5
8D94
102
{ACAD_REACTORS
330
8D84
102
}
330
8D84
100
AcDbXrecord
 70
     0
  0
XRECORD
  5
8D95
102
{ACAD_REACTORS
330
8D84
102
}
330
8D84
100
AcDbXrecord
340
0
  0
XRECORD
  5
8D96
102
{ACAD_REACTORS
330
8D84
102
}
330
8D84
100
AcDbXrecord
 10
0.0
 20
0.0
 30
0.0
  0
XRECORD
  5
8D97
102
{ACAD_REACTORS
330
8D84
102
}
330
8D84
100
AcDbXrecord
 10
0.0
 20
0.0
 30
0.0
  0
XRECORD
  5
8D98
102
{ACAD_REACTORS
330
8D84
102
}
330
8D84
100
AcDbXrecord
 10
0.0
 20
0.0
 30
0.0
  0
XRECORD
  5
8D99
102
{ACAD_REACTORS
330
8D84
102
}
330
8D84
100
AcDbXrecord
 10
0.0
 20
0.0
 30
0.0
  0
XRECORD
  5
8D9A
102
{ACAD_REACTORS
330
8D84
102
}
330
8D84
100
AcDbXrecord
 10
0.0
 20
0.0
 30
0.0
  0
XRECORD
  5
8D9B
102
{ACAD_REACTORS
330
8D84
102
}
330
8D84
100
AcDbXrecord
 10
0.0
 20
0.0
 30
0.0
  0
XRECORD
  5
8D9C
102
{ACAD_REACTORS
330
8D84
102
}
330
8D84
100
AcDbXrecord
340
0
  0
XRECORD
  5
8D9D
102
{ACAD_REACTORS
330
8D84
102
}
330
8D84
100
AcDbXrecord
 70
     0
  0
XRECORD
  5
8D9E
102
{ACAD_REACTORS
330
8D84
102
}
330
8D84
100
AcDbXrecord
340
0
  0
XRECORD
  5
8D9F
102
{ACAD_REACTORS
330
8D84
102
}
330
8D84
100
AcDbXrecord
 10
0.0
 20
0.0
 30
0.0
  0
XRECORD
  5
8DA0
102
{ACAD_REACTORS
330
8D84
102
}
330
8D84
100
AcDbXrecord
 10
0.0
 20
0.0
 30
0.0
  0
XRECORD
  5
8DA1
102
{ACAD_REACTORS
330
8D84
102
}
330
8D84
100
AcDbXrecord
 10
0.0
 20
0.0
 30
0.0
  0
XRECORD
  5
8DA2
102
{ACAD_REACTORS
330
8D84
102
}
330
8D84
100
AcDbXrecord
 10
0.0
 20
0.0
 30
0.0
  0
XRECORD
  5
8DA3
102
{ACAD_REACTORS
330
8D84
102
}
330
8D84
100
AcDbXrecord
 10
0.0
 20
0.0
 30
0.0
  0
XRECORD
  5
8DA4
102
{ACAD_REACTORS
330
8D84
102
}
330
8D84
100
AcDbXrecord
 10
0.0
 20
0.0
 30
0.0
  0
LAYER_INDEX
  5
8D7A
102
{ACAD_REACTORS
330
8D79
102
}
330
8D79
100
AcDbIndex
 40
2453152.371386956
100
AcDbLayerIndex
  8
0
360
8D7B
 90
      106
  8
AM_0
360
8D7C
 90
       71
  8
AM_7
360
8D7D
 90
        3
  8
AM_5
360
8D7E
 90
       10
  8
Defpoints
360
8D7F
 90
        0
  8
AM_6
360
8D80
 90
        1
  8
AM_11
360
8D81
 90
       38
  8
AM_3
360
8D82
 90
       18
  0
XRECORD
  5
2D
102
{ACAD_REACTORS
330
2C
102
}
330
2C
100
AcDbXrecord
  1
VERSION
140
15.0
  1
PRODUCT
  2
AutoCAD Mechanical 2000
  0
IDBUFFER
  5
8D7B
330
0
100
AcDbIdBuffer
330
88CA
330
88CB
330
88CC
330
88CD
330
88CE
330
88CF
330
88D0
330
88D1
330
88D2
330
88D3
330
88D4
330
88D5
330
88D6
330
88D7
330
88D8
330
88D9
330
88DA
330
88DB
330
88DC
330
88DD
330
88DE
330
88DF
330
88E0
330
88E1
330
88E2
330
88E3
330
88E4
330
88E5
330
88E6
330
88E7
330
88E8
330
88E9
330
88EA
330
88EB
330
88EC
330
88ED
330
88EE
330
88EF
330
88F0
330
88F1
330
88F2
330
88F3
330
88F4
330
88F5
330
88F6
330
88F7
330
88FB
330
88FC
330
8911
330
8912
330
8913
330
8914
330
8915
330
8918
330
8919
330
891A
330
8CCF
330
8D26
330
886E
330
886F
330
8873
330
8874
330
8875
330
8876
330
8877
330
8878
330
8879
330
887A
330
887B
330
887C
330
887D
330
887E
330
887F
330
8880
330
8881
330
8882
330
8883
330
8884
330
8885
330
8886
330
8887
330
8888
330
8889
330
888A
330
888B
330
888C
330
888D
330
888E
330
888F
330
8890
330
8891
330
8892
330
8893
330
8894
330
8895
330
8896
330
8897
330
8898
330
8899
330
889A
330
889B
330
889C
330
889D
330
889E
330
889F
330
88A0
  0
IDBUFFER
  5
8D7C
330
0
100
AcDbIdBuffer
330
75BD
330
75BE
330
75BF
330
75C0
330
75C2
330
75C3
330
8038
330
8871
330
8917
330
8CD5
330
8CD8
330
8CDC
330
8D02
330
8D11
330
8D14
330
8D17
330
8D23
330
8D25
330
8D29
330
8D2A
330
8D2B
330
8D2C
330
8D2D
330
6D86
330
6D87
330
6D88
330
6D8F
330
6D91
330
6D92
330
6D93
330
6D98
330
6D99
330
6D9F
330
6DA0
330
6DA1
330
6DA3
330
6DA4
330
6DA5
330
6DA7
330
6DAA
330
6DAD
330
6DAE
330
6DB5
330
6DB6
330
6DB7
330
6DBF
330
6DC0
330
6DC1
330
6DC6
330
6DCC
330
6DCF
330
6DDF
330
6DE0
330
6DE1
330
6DE7
330
6DE8
330
6DEA
330
6DEB
330
6DEC
330
6DED
330
6DEE
330
6DEF
330
6DF2
330
75B4
330
75B5
330
75B7
330
75B8
330
75B9
330
75BA
330
75BB
330
75BC
  0
IDBUFFER
  5
8D7D
330
0
100
AcDbIdBuffer
330
6D8B
330
6D8C
330
6DD7
  0
IDBUFFER
  5
8D7E
330
0
100
AcDbIdBuffer
330
8644
330
8645
330
8646
330
86CE
330
86CF
330
86D0
330
8746
330
8747
330
89A3
330
8A9D
  0
IDBUFFER
  5
8D7F
330
0
100
AcDbIdBuffer
  0
IDBUFFER
  5
8D80
330
0
100
AcDbIdBuffer
330
E5A
  0
IDBUFFER
  5
8D81
330
0
100
AcDbIdBuffer
330
6DC3
330
6DC4
330
6DC5
330
6DC7
330
6DD0
330
6DD1
330
6DD2
330
6DD3
330
6DDE
330
6DE3
330
6DE4
330
6DE5
330
6DE6
330
6DE9
330
8039
330
803B
330
803C
330
882B
330
8870
330
8872
330
88A2
330
88F8
330
6D81
330
6D82
330
6D83
330
6D8D
330
6D8E
330
6D90
330
6D94
330
6D9D
330
6DA6
330
6DA8
330
6DAB
330
6DAC
330
6DAF
330
6DB2
330
6DB9
330
6DC2
  0
IDBUFFER
  5
8D82
330
0
100
AcDbIdBuffer
330
8D27
330
8D28
330
6D85
330
6D89
330
6D8A
330
6D96
330
6D97
330
6DA2
330
6DD4
330
6DD5
330
6DD8
330
6DD9
330
6DF1
330
6DF3
330
6DF4
330
8916
330
8CCD
330
8CD2
  0
ENDSEC
  0
EOF
