  0
SECTION
  2
HEADER
  9
$ACADVER
  1
AC1018
  9
$ACADMAINTVER
 70
    39
  9
$DWGCODEPAGE
  3
ANSI_936
  9
$CUSTOMPROPERTYTAG
  1
AmdtFileType
  9
$CUSTOMPROPERTY
  1
84
  9
$INSBASE
 10
0.0
 20
0.0
 30
0.0
  9
$EXTMIN
 10
-97.00644179400384
 20
-83.83822959710187
 30
-0.0015258207003583
  9
$EXTMAX
 10
141.6657118311716
 20
214.1085498368066
 30
0.0000000349246037
  9
$LIMMIN
 10
0.0
 20
0.0
  9
$LIMMAX
 10
420.0
 20
297.0
  9
$ORTHOMODE
 70
     1
  9
$REGENMODE
 70
     1
  9
$FILLMODE
 70
     1
  9
$QTEXTMODE
 70
     0
  9
$MIRRTEXT
 70
     1
  9
$LTSCALE
 40
1.0
  9
$ATTMODE
 70
     1
  9
$TEXTSIZE
 40
3.799999999999998
  9
$TRACEWID
 40
1.0
  9
$TEXTSTYLE
  7
ACISOTS
  9
$CLAYER
  8
AM_0
  9
$CELTYPE
  6
ByLayer
  9
$CECOLOR
 62
   256
  9
$CELTSCALE
 40
1.0
  9
$DISPSILH
 70
     0
  9
$DIMSCALE
 40
1.0
  9
$DIMASZ
 40
2.5
  9
$DIMEXO
 40
0.0
  9
$DIMDLI
 40
10.0
  9
$DIMRND
 40
0.0
  9
$DIMDLE
 40
0.0
  9
$DIMEXE
 40
1.0
  9
$DIMTP
 40
0.1
  9
$DIMTM
 40
0.1000000001
  9
$DIMTXT
 40
3.799999999999998
  9
$DIMCEN
 40
0.0
  9
$DIMTSZ
 40
0.0
  9
$DIMTOL
 70
     0
  9
$DIMLIM
 70
     0
  9
$DIMTIH
 70
     0
  9
$DIMTOH
 70
     0
  9
$DIMSE1
 70
     0
  9
$DIMSE2
 70
     0
  9
$DIMTAD
 70
     3
  9
$DIMZIN
 70
     1
  9
$DIMBLK
  1
Open30
  9
$DIMASO
 70
     1
  9
$DIMSHO
 70
     1
  9
$DIMPOST
  1

  9
$DIMAPOST
  1
"
  9
$DIMALT
 70
     0
  9
$DIMALTD
 70
     2
  9
$DIMALTF
 40
0.0393701
  9
$DIMLFAC
 40
1.0
  9
$DIMTOFL
 70
     1
  9
$DIMTVP
 40
0.0
  9
$DIMTIX
 70
     0
  9
$DIMSOXD
 70
     0
  9
$DIMSAH
 70
     0
  9
$DIMBLK1
  1

  9
$DIMBLK2
  1

  9
$DIMSTYLE
  2
AM_JIS
  9
$DIMCLRD
 70
   256
  9
$DIMCLRE
 70
   256
  9
$DIMCLRT
 70
     2
  9
$DIMTFAC
 40
0.71
  9
$DIMGAP
 40
1.5
  9
$DIMJUST
 70
     0
  9
$DIMSD1
 70
     0
  9
$DIMSD2
 70
     0
  9
$DIMTOLJ
 70
     0
  9
$DIMTZIN
 70
     8
  9
$DIMALTZ
 70
     0
  9
$DIMALTTZ
 70
     0
  9
$DIMUPT
 70
     0
  9
$DIMDEC
 70
     0
  9
$DIMTDEC
 70
     2
  9
$DIMALTU
 70
     2
  9
$DIMALTTD
 70
     2
  9
$DIMTXSTY
  7
STANDARD
  9
$DIMAUNIT
 70
     1
  9
$DIMADEC
 70
     1
  9
$DIMALTRND
 40
0.0
  9
$DIMAZIN
 70
     0
  9
$DIMDSEP
 70
    46
  9
$DIMATFIT
 70
     3
  9
$DIMFRAC
 70
     0
  9
$DIMLDRBLK
  1
Open30
  9
$DIMLUNIT
 70
     2
  9
$DIMLWD
 70
    -1
  9
$DIMLWE
 70
    -1
  9
$DIMTMOVE
 70
     0
  9
$LUNITS
 70
     2
  9
$LUPREC
 70
     2
  9
$SKETCHINC
 40
1.0
  9
$FILLETRAD
 40
10.0
  9
$AUNITS
 70
     0
  9
$AUPREC
 70
     0
  9
$MENU
  1
.
  9
$ELEVATION
 40
0.0
  9
$PELEVATION
 40
0.0
  9
$THICKNESS
 40
0.0
  9
$LIMCHECK
 70
     0
  9
$CHAMFERA
 40
1.3
  9
$CHAMFERB
 40
1.3
  9
$CHAMFERC
 40
20.0
  9
$CHAMFERD
 40
0.0
  9
$SKPOLY
 70
     0
  9
$TDCREATE
 40
2455413.706588172
  9
$TDUCREATE
 40
2455413.373254838
  9
$TDUPDATE
 40
2455542.485646412
  9
$TDUUPDATE
 40
2455542.152313079
  9
$TDINDWG
 40
0.2036856019
  9
$TDUSRTIMER
 40
0.2036856019
  9
$USRTIMER
 70
     1
  9
$ANGBASE
 50
0.0
  9
$ANGDIR
 70
     0
  9
$PDMODE
 70
     0
  9
$PDSIZE
 40
0.0
  9
$PLINEWID
 40
0.0
  9
$SPLFRAME
 70
     0
  9
$SPLINETYPE
 70
     6
  9
$SPLINESEGS
 70
     8
  9
$HANDSEED
  5
2762
  9
$SURFTAB1
 70
     6
  9
$SURFTAB2
 70
     6
  9
$SURFTYPE
 70
     6
  9
$SURFU
 70
     6
  9
$SURFV
 70
     6
  9
$UCSBASE
  2

  9
$UCSNAME
  2

  9
$UCSORG
 10
0.0
 20
0.0
 30
0.0
  9
$UCSXDIR
 10
1.0
 20
0.0
 30
0.0
  9
$UCSYDIR
 10
0.0
 20
1.0
 30
0.0
  9
$UCSORTHOREF
  2

  9
$UCSORTHOVIEW
 70
     0
  9
$UCSORGTOP
 10
0.0
 20
0.0
 30
0.0
  9
$UCSORGBOTTOM
 10
0.0
 20
0.0
 30
0.0
  9
$UCSORGLEFT
 10
0.0
 20
0.0
 30
0.0
  9
$UCSORGRIGHT
 10
0.0
 20
0.0
 30
0.0
  9
$UCSORGFRONT
 10
0.0
 20
0.0
 30
0.0
  9
$UCSORGBACK
 10
0.0
 20
0.0
 30
0.0
  9
$PUCSBASE
  2

  9
$PUCSNAME
  2

  9
$PUCSORG
 10
0.0
 20
0.0
 30
0.0
  9
$PUCSXDIR
 10
1.0
 20
0.0
 30
0.0
  9
$PUCSYDIR
 10
0.0
 20
1.0
 30
0.0
  9
$PUCSORTHOREF
  2

  9
$PUCSORTHOVIEW
 70
     0
  9
$PUCSORGTOP
 10
0.0
 20
0.0
 30
0.0
  9
$PUCSORGBOTTOM
 10
0.0
 20
0.0
 30
0.0
  9
$PUCSORGLEFT
 10
0.0
 20
0.0
 30
0.0
  9
$PUCSORGRIGHT
 10
0.0
 20
0.0
 30
0.0
  9
$PUCSORGFRONT
 10
0.0
 20
0.0
 30
0.0
  9
$PUCSORGBACK
 10
0.0
 20
0.0
 30
0.0
  9
$USERI1
 70
     0
  9
$USERI2
 70
     0
  9
$USERI3
 70
     0
  9
$USERI4
 70
     0
  9
$USERI5
 70
     0
  9
$USERR1
 40
0.0
  9
$USERR2
 40
0.0
  9
$USERR3
 40
0.0
  9
$USERR4
 40
0.0
  9
$USERR5
 40
0.0
  9
$WORLDVIEW
 70
     1
  9
$SHADEDGE
 70
     3
  9
$SHADEDIF
 70
    70
  9
$TILEMODE
 70
     1
  9
$MAXACTVP
 70
    64
  9
$PINSBASE
 10
0.0
 20
0.0
 30
0.0
  9
$PLIMCHECK
 70
     0
  9
$PEXTMIN
 10
1.000000000000000E+20
 20
1.000000000000000E+20
 30
1.000000000000000E+20
  9
$PEXTMAX
 10
-1.000000000000000E+20
 20
-1.000000000000000E+20
 30
-1.000000000000000E+20
  9
$PLIMMIN
 10
0.0
 20
0.0
  9
$PLIMMAX
 10
420.0
 20
297.0
  9
$UNITMODE
 70
     0
  9
$VISRETAIN
 70
     1
  9
$PLINEGEN
 70
     0
  9
$PSLTSCALE
 70
     1
  9
$TREEDEPTH
 70
  3020
  9
$CMLSTYLE
  2
Standard
  9
$CMLJUST
 70
     0
  9
$CMLSCALE
 40
20.0
  9
$PROXYGRAPHICS
 70
     1
  9
$MEASUREMENT
 70
     1
  9
$CELWEIGHT
370
    -1
  9
$ENDCAPS
280
     0
  9
$JOINSTYLE
280
     0
  9
$LWDISPLAY
290
     0
  9
$INSUNITS
 70
     4
  9
$HYPERLINKBASE
  1

  9
$STYLESHEET
  1

  9
$XEDIT
290
     1
  9
$CEPSNTYPE
380
     0
  9
$PSTYLEMODE
290
     1
  9
$FINGERPRINTGUID
  2
{4EF443E9-F763-4CB6-8927-D1E34FDC1C5A}
  9
$VERSIONGUID
  2
{88DD70CB-7097-4938-BE08-06F90D819FA2}
  9
$EXTNAMES
290
     1
  9
$PSVPSCALE
 40
0.0
  9
$OLESTARTUP
290
     0
  9
$SORTENTS
280
   127
  9
$INDEXCTL
280
     0
  9
$HIDETEXT
280
     0
  9
$XCLIPFRAME
290
     0
  9
$HALOGAP
280
     0
  9
$OBSCOLOR
 70
   257
  9
$OBSLTYPE
280
     0
  9
$INTERSECTIONDISPLAY
280
     0
  9
$INTERSECTIONCOLOR
 70
   257
  9
$DIMASSOC
280
     2
  9
$PROJECTNAME
  1

  0
ENDSEC
  0
SECTION
  2
CLASSES
  0
CLASS
  1
ACDBDICTIONARYWDFLT
  2
AcDbDictionaryWithDefault
  3
ObjectDBX Classes
 90
        0
 91
        1
280
     0
281
     0
  0
CLASS
  1
ACME_DOCUMENT
  2
AcMeDbDoc
  3
AcMeServices
 90
        0
 91
        1
280
     0
281
     0
  0
CLASS
  1
AMGSETTINGSOBJ
  2
AmgSettingsObj
  3
"AcadM|Product Description: AutoCAD Mechanical 2000|Company: Autodesk"
 90
        0
 91
        2
280
     0
281
     0
  0
CLASS
  1
ACMESCOPE
  2
AcMeScope
  3
AcMeServices
 90
        0
 91
        1
280
     0
281
     0
  0
CLASS
  1
ACMECOMMANDHISTORY
  2
AcMeCommandHistory
  3
AcMeServices
 90
        0
 91
        1
280
     0
281
     0
  0
CLASS
  1
ACIMSYSVARMAN
  2
AcImSysVarManager
  3
AcMeServices
 90
        0
 91
        5
280
     0
281
     0
  0
CLASS
  1
ACIMREALSYSVAR
  2
AcImRealSysVar
  3
AcMeServices
 90
        0
 91
        1
280
     0
281
     0
  0
CLASS
  1
ACIMINTSYSVAR
  2
AcImIntSysVar
  3
AcMeServices
 90
        0
 91
       26
280
     0
281
     0
  0
CLASS
  1
ACMEDRAWINGMAN
  2
AcMeDrawingMan
  3
AcMeServices
 90
        0
 91
        1
280
     0
281
     0
  0
CLASS
  1
ACMEVIEW
  2
AcMeView
  3
AcMeServices
 90
        0
 91
        1
280
     0
281
     0
  0
CLASS
  1
ACDBENTITYCACHE
  2
AcMeEntityCache
  3
AcMeServices
 90
        0
 91
        1
280
     0
281
     0
  0
CLASS
  1
GSMANAGER
  2
AcMeGSManager
  3
AcMeServices
 90
        0
 91
        1
280
     0
281
     0
  0
CLASS
  1
AMDTINTERNALREACTOR
  2
AmdtInternalReactor
  3
AcMeServices
 90
        0
 91
        2
280
     0
281
     0
  0
CLASS
  1
ACMESTATEMGR
  2
AcMeStateMgr
  3
AcMeServices
 90
        0
 91
        1
280
     0
281
     0
  0
CLASS
  1
ACGREFMASTER
  2
AcGrefMaster
  3
AcAttribServices
 90
        0
 91
        1
280
     0
281
     0
  0
CLASS
  1
ACME_DATABASE
  2
AcMeDbDatabase
  3
AcMeServices
 90
        0
 91
        4
280
     0
281
     0
  0
CLASS
  1
ACRFINSADJUSTERMGR
  2
AcRfInsAdjusterMgr
  3
AcMeServices
 90
        0
 91
        1
280
     0
281
     0
  0
CLASS
  1
ACGREFACADMASTER
  2
AcGrefacadMaster
  3
AcGrefServices
 90
        0
 91
        1
280
     0
281
     0
  0
CLASS
  1
AMIMASTER
  2
AmiMaster
  3
AmiServices
 90
        0
 91
        1
280
     0
281
     0
  0
CLASS
  1
ACMDATADICTIONARY
  2
AcmDataDictionary
  3
"AcmSymBB|Product Description: AutoCAD Mechanical 2004 DX|Company: Autodesk"
 90
        0
 91
        1
280
     0
281
     0
  0
CLASS
  1
ACMDATAENTRYBLOCK
  2
AcmDataEntryBlock
  3
"AcmSymBB|Product Description: AutoCAD Mechanical 2004 DX|Company: Autodesk"
 90
        0
 91
        0
280
     0
281
     0
  0
CLASS
  1
ACIMSTRSYSVAR
  2
AcImStrSysVar
  3
AcMeServices
 90
        0
 91
        5
280
     0
281
     0
  0
CLASS
  1
ACMSTANDARDISO
  2
AcmStandardISO
  3
"Amdt_StdImp|Product Description: AutoCAD Mechanical 2004 DX|Company: Autodesk"
 90
        0
 91
        1
280
     0
281
     0
  0
CLASS
  1
AMGOBJPROPCFG
  2
AmgObjPropCfg
  3
"AmgLay|Product Description: AutoCAD Mechanical 2000|Company: Autodesk"
 90
        1
 91
        1
280
     0
281
     0
  0
CLASS
  1
AMDTEDGESTANDARDISO
  2
AmdtEdgeStdISO
  3
"Amdt_StdImp|Product Description: AutoCAD Mechanical 2004 DX|Company: Autodesk"
 90
        0
 91
        0
280
     0
281
     0
  0
CLASS
  1
ACMSURFSTANDARDISO
  2
AcmSurfTextStdISO
  3
"Amdt_StdImp|Product Description: AutoCAD Mechanical 2004 DX|Company: Autodesk"
 90
        0
 91
        1
280
     0
281
     0
  0
CLASS
  1
ACMFCFSTANDARDISO
  2
AcmFCFStdISO
  3
"Amdt_StdImp|Product Description: AutoCAD Mechanical 2004 DX|Company: Autodesk"
 90
        0
 91
        1
280
     0
281
     0
  0
CLASS
  1
ACMWELDSTANDARDISO
  2
AcmWeldingStdISO
  3
"Amdt_StdImp|Product Description: AutoCAD Mechanical 2004 DX|Company: Autodesk"
 90
        0
 91
        1
280
     0
281
     0
  0
CLASS
  1
ACMIDSTANDARDISO
  2
AcmIdStdISO
  3
"Amdt_StdImp|Product Description: AutoCAD Mechanical 2004 DX|Company: Autodesk"
 90
        0
 91
        1
280
     0
281
     0
  0
CLASS
  1
ACMDATUMSTANDARDISO
  2
AcmDatumStdISO
  3
"Amdt_StdImp|Product Description: AutoCAD Mechanical 2004 DX|Company: Autodesk"
 90
        0
 91
        1
280
     0
281
     0
  0
CLASS
  1
ACMBOMSTANDARDISO
  2
AcmBOMStdISO
  3
"Amdt_StdImp|Product Description: AutoCAD Mechanical 2004 DX|Company: Autodesk"
 90
        0
 91
        1
280
     0
281
     0
  0
CLASS
  1
ACMDETAILSTANDARDISO
  2
AmdtDetailSymStdISO
  3
"Amdt_StdImp|Product Description: AutoCAD Mechanical 2004 DX|Company: Autodesk"
 90
        0
 91
        1
280
     0
281
     0
  0
CLASS
  1
ACMSECTIONSTANDARDISO
  2
AmdtSectionSymStdISO
  3
"Amdt_StdImp|Product Description: AutoCAD Mechanical 2004 DX|Company: Autodesk"
 90
        0
 91
        1
280
     0
281
     0
  0
CLASS
  1
ACMCENTERLINESTANDARDISO
  2
AmdtCenterLineStdISO
  3
"Amdt_StdImp|Product Description: AutoCAD Mechanical 2004 DX|Company: Autodesk"
 90
        0
 91
        1
280
     0
281
     0
  0
CLASS
  1
ACMNOTESTANDARDISO
  2
AmdtNoteStdISO
  3
"Amdt_StdImp|Product Description: AutoCAD Mechanical 2004 DX|Company: Autodesk"
 90
        0
 91
        1
280
     0
281
     0
  0
CLASS
  1
ACAMGLAYSTD
  2
AcAmgLayStd
  3
"AcAmgLayStd|Product Description: AutoCAD Mechanical 2000|Company: Autodesk"
 90
        0
 91
        2
280
     0
281
     0
  0
CLASS
  1
ACAMGDIMSTD
  2
AcAmgDimStd
  3
"AcAmgDimStd|Product Description: AutoCAD Mechanical 2000|Company: Autodesk"
 90
        0
 91
        2
280
     0
281
     0
  0
CLASS
  1
ACAMGHOLECHARTSTDISO
  2
AcAmgHoleChartStdISO
  3
ACMSYMBB_MODULE_NAME
 90
        0
 91
        1
280
     0
281
     0
  0
CLASS
  1
ACAMGTITLESTD
  2
AcAmgTitleStd
  3
"TITLEAPP"
 90
        0
 91
        2
280
     0
281
     0
  0
CLASS
  1
LAYER_INDEX
  2
AcDbLayerIndex
  3
ObjectDBX Classes
 90
        0
 91
        0
280
     0
281
     0
  0
CLASS
  1
IDBUFFER
  2
AcDbIdBuffer
  3
ObjectDBX Classes
 90
        0
 91
        0
280
     0
281
     0
  0
CLASS
  1
DICTIONARYVAR
  2
AcDbDictionaryVar
  3
ObjectDBX Classes
 90
        0
 91
        3
280
     0
281
     0
  0
CLASS
  1
AM_DRAWING_MGR
  2
AcDmDwgMgr
  3
AcMechDwgViewMgmt
 90
        0
 91
        1
280
     0
281
     0
  0
CLASS
  1
AM_DWG_DOCUMENT
  2
AcDmDwgDocument
  3
AcMechDwgViewMgmt
 90
        0
 91
        1
280
     0
281
     0
  0
CLASS
  1
AM_DWG_SHEET
  2
AcDmSheet
  3
AcMechDwgViewMgmt
 90
        0
 91
        2
280
     0
281
     0
  0
CLASS
  1
AM_VIEWDIMPARMAP
  2
AcDmViewDimParMap
  3
AcMechDwgViewMgmt
 90
        0
 91
        2
280
     0
281
     0
  0
CLASS
  1
AM_DWGMGR_NAME
  2
AcDmDwgMgrName
  3
AcMechDwgViewMgmt
 90
        0
 91
        1
280
     0
281
     0
  0
CLASS
  1
AMDTMENUSTATEMGR
  2
AmdtMenuStateMgr
  3
McadcomServices
 90
        0
 91
        1
280
     0
281
     0
  0
CLASS
  1
AMDTMCOMMENUSTATE
  2
AmdtMcomMenuState
  3
McadcomServices
 90
        0
 91
        1
280
     0
281
     0
  0
CLASS
  1
MAPIAMMOUDLE
  2
MApiAmModule
  3
MApiAmServices
 90
        0
 91
        1
280
     0
281
     0
  0
CLASS
  1
AMDTADMENUSTATE
  2
AmdtAdMenuState
  3
DesignerServices
 90
        0
 91
        1
280
     0
281
     0
  0
CLASS
  1
ADAPPL
  2
AcAdAppl
  3
DesignerServices
 90
        0
 91
        1
280
     0
281
     0
  0
CLASS
  1
DEPMGR
  2
AcAdDepMgr
  3
DesignerServices
 90
        0
 91
        1
280
     0
281
     0
  0
CLASS
  1
PARAMMGR
  2
AcAdParamMgr
  3
DesignerServices
 90
        0
 91
        1
280
     0
281
     0
  0
CLASS
  1
PARAMSCOPE
  2
AcAdParamScope
  3
DesignerServices
 90
        0
 91
        1
280
     0
281
     0
  0
CLASS
  1
NAMEDAPPL
  2
AcAdNamedAppl
  3
DesignerServices
 90
        0
 91
        1
280
     0
281
     0
  0
CLASS
  1
AMDTDMMENUSTATE
  2
AmdtDmMenuState
  3
AcMechDwgViewMgmt
 90
        0
 91
        1
280
     0
281
     0
  0
CLASS
  1
AMDTAMMENUSTATE
  2
AmdtAmMenuState
  3
DesignerAssemblies
 90
        0
 91
        1
280
     0
281
     0
  0
CLASS
  1
ACAMPROJECT
  2
AcAmProject
  3
DesignerAssemblies
 90
        0
 91
        1
280
     0
281
     0
  0
CLASS
  1
ACAMGRCOMPDEF
  2
AcAmGrCompDef
  3
DesignerAssemblies
 90
        0
 91
        1
280
     0
281
     0
  0
CLASS
  1
ACCMCONTEXT
  2
AcCmContext
  3
DesignerAssemblies
 90
        0
 91
        1
280
     0
281
     0
  0
CLASS
  1
ACAMCOMPDEF
  2
AcAmCompDef
  3
DesignerAssemblies
 90
        0
 91
        1
280
     0
281
     0
  0
CLASS
  1
ACAMCOMPDEFMGR
  2
AcAmCompDefMgr
  3
DesignerAssemblies
 90
        0
 91
        1
280
     0
281
     0
  0
CLASS
  1
AMCONTEXTMGR
  2
AcAmContextMgr
  3
DesignerAssemblies
 90
        0
 91
        1
280
     0
281
     0
  0
CLASS
  1
ACAMCONTEXTMODELER
  2
AcAmContextModeler
  3
DesignerAssemblies
 90
        0
 91
        1
280
     0
281
     0
  0
CLASS
  1
ACMTHREADLINESTANDARDISO
  2
AmdtThreadLineStdISO
  3
"Amdt_StdImp|Product Description: AutoCAD Mechanical 2004 DX|Company: Autodesk"
 90
        0
 91
        1
280
     0
281
     0
  0
CLASS
  1
CATALOGSTATE
  2
AcAmCatalogState
  3
DesignerAssemblies
 90
        0
 91
        1
280
     0
281
     0
  0
CLASS
  1
ACAMGRCOMPDEFSET
  2
AcAmGrCompDefSet
  3
DesignerAssemblies
 90
        0
 91
        1
280
     0
281
     0
  0
CLASS
  1
AMDTBROWSERDBTAB
  2
AmdtBrowserDbTab
  3
McadcomServices
 90
        0
 91
        1
280
     0
281
     0
  0
CLASS
  1
CBROWSERAPPOBJECT
  2
CBrowserAppObject
  3
McadcomServices
 90
        0
 91
        3
280
     0
281
     0
  0
CLASS
  1
DM_PLACEHOLDER
  2
AcDmSelsetPlaceholder
  3
AcMechDwgViewMgmt
 90
        0
 91
        1
280
     0
281
     0
  0
CLASS
  1
TABLESTYLE
  2
AcDbTableStyle
  3
ObjectDBX Classes
 90
     2047
 91
        1
280
     0
281
     0
  0
CLASS
  1
VAACXREFPANELOBJECT
  2
VaAcXREFPanelObject
  3
VAAC_ADDIN
 90
        0
 91
        0
280
     0
281
     0
  0
CLASS
  1
VAACIMAGEINVENTORY
  2
VaAcImageInventory
  3
VAAC_ADDIN
 90
        0
 91
        0
280
     0
281
     0
  0
CLASS
  1
AMDTNOTETEMPLATEDB
  2
AmdtNoteTemplateDB
  3
AMDT_STDIMP_MODULE_NAME
 90
        0
 91
       10
280
     0
281
     0
  0
CLASS
  1
ACMBOM
  2
AcmBom
  3
"AcmSymBB|Product Description: AutoCAD Mechanical 2004 DX|Company: Autodesk"
 90
        0
 91
        0
280
     0
281
     0
  0
CLASS
  1
AMDTFORMULAUPDATEDISPATCHER
  2
AmdtFormulaUpdateDispatcher
  3
AcMeServices
 90
        0
 91
        0
280
     0
281
     0
  0
CLASS
  1
ACMPARTLIST
  2
AcmPartList
  3
"AcmSymBB|Product Description: AutoCAD Mechanical 2004 DX|Company: Autodesk"
 90
     1023
 91
        0
280
     0
281
     1
  0
CLASS
  1
ACAMGFILTERDAT
  2
AcAmgFilterDat
  3
"AcadM|Product Description: AutoCAD Mechanical 2000|Company: Autodesk"
 90
        0
 91
        0
280
     0
281
     0
  0
CLASS
  1
ACMSTANDARDJIS
  2
AcmStandardJIS
  3
"Amdt_StdImp|Product Description: AutoCAD Mechanical 2004 DX|Company: Autodesk"
 90
        0
 91
        0
280
     0
281
     0
  0
CLASS
  1
ACMSURFSTANDARDJIS
  2
AcmSurfTextStdJIS
  3
"Amdt_StdImp|Product Description: AutoCAD Mechanical 2004 DX|Company: Autodesk"
 90
        0
 91
        0
280
     0
281
     0
  0
CLASS
  1
ACMFCFSTANDARDJIS98
  2
AcmFCFStdJIS98
  3
"Amdt_StdImp|Product Description: AutoCAD Mechanical 2004 DX|Company: Autodesk"
 90
        0
 91
        0
280
     0
281
     0
  0
CLASS
  1
ACMWELDSTANDARDJIS
  2
AcmWeldingStdJIS
  3
"Amdt_StdImp|Product Description: AutoCAD Mechanical 2004 DX|Company: Autodesk"
 90
        0
 91
        0
280
     0
281
     0
  0
CLASS
  1
ACMIDSTANDARDJIS
  2
AcmIdStdJIS
  3
"Amdt_StdImp|Product Description: AutoCAD Mechanical 2004 DX|Company: Autodesk"
 90
        0
 91
        0
280
     0
281
     0
  0
CLASS
  1
ACMDATUMSTANDARDJIS
  2
AcmDatumStdJIS
  3
"Amdt_StdImp|Product Description: AutoCAD Mechanical 2004 DX|Company: Autodesk"
 90
        0
 91
        0
280
     0
281
     0
  0
CLASS
  1
ACMBOMSTANDARDJIS
  2
AcmBOMStdJIS
  3
"Amdt_StdImp|Product Description: AutoCAD Mechanical 2004 DX|Company: Autodesk"
 90
        0
 91
        0
280
     0
281
     0
  0
CLASS
  1
ACMDETAILSTANDARDJIS
  2
AmdtDetailSymStdJIS
  3
"Amdt_StdImp|Product Description: AutoCAD Mechanical 2004 DX|Company: Autodesk"
 90
        0
 91
        0
280
     0
281
     0
  0
CLASS
  1
ACMSECTIONSTANDARDJIS
  2
AmdtSectionSymStdJIS
  3
"Amdt_StdImp|Product Description: AutoCAD Mechanical 2004 DX|Company: Autodesk"
 90
        0
 91
        0
280
     0
281
     0
  0
CLASS
  1
ACMCENTERLINESTANDARDJIS
  2
AmdtCenterLineStdJIS
  3
"Amdt_StdImp|Product Description: AutoCAD Mechanical 2004 DX|Company: Autodesk"
 90
        0
 91
        0
280
     0
281
     0
  0
CLASS
  1
ACMTHREADLINESTANDARDJIS
  2
AmdtThreadLineStdJIS
  3
"Amdt_StdImp|Product Description: AutoCAD Mechanical 2004 DX|Company: Autodesk"
 90
        0
 91
        0
280
     0
281
     0
  0
CLASS
  1
ACMNOTESTANDARDJIS
  2
AmdtNoteStdJIS
  3
"Amdt_StdImp|Product Description: AutoCAD Mechanical 2004 DX|Company: Autodesk"
 90
        0
 91
        0
280
     0
281
     0
  0
CLASS
  1
ACAMGHOLECHARTSTDJIS
  2
AcAmgHoleChartStdJIS
  3
ACMSYMBB_MODULE_NAME
 90
        0
 91
        0
280
     0
281
     0
  0
CLASS
  1
SORTENTSTABLE
  2
AcDbSortentsTable
  3
ObjectDBX Classes
 90
        0
 91
        1
280
     0
281
     0
  0
CLASS
  1
DIMASSOC
  2
AcDbDimAssoc
  3
"AcDbDimAssoc|Product Desc:     AcDim ARX App For Dimension|Company:          Autodesk, Inc.|WEB Address:      www.autodesk.com"
 90
        0
 91
       26
280
     0
281
     0
  0
CLASS
  1
ACRFATTGENMGR
  2
AcRfAttGeneralMgr
  3
AcAttribServices
 90
        0
 91
       11
280
     0
281
     0
  0
CLASS
  1
AMDTEDGESTANDARDISO13715
  2
AmdtEdgeStdISO13715
  3
"Amdt_StdImp|Product Description: AutoCAD Mechanical 2004 DX|Company: Autodesk"
 90
        0
 91
        1
280
     0
281
     0
  0
CLASS
  1
ACMSTANDARDANSI
  2
AcmStandardANSI
  3
"Amdt_StdImp|Product Description: AutoCAD Mechanical 2004 DX|Company: Autodesk"
 90
        0
 91
        1
280
     0
281
     0
  0
CLASS
  1
ACMSURFSTANDARDANSI
  2
AcmSurfTextStdANSI
  3
"Amdt_StdImp|Product Description: AutoCAD Mechanical 2004 DX|Company: Autodesk"
 90
        0
 91
        1
280
     0
281
     0
  0
CLASS
  1
ACMFCFSTANDARDANSI
  2
AcmFCFStdANSI
  3
"Amdt_StdImp|Product Description: AutoCAD Mechanical 2004 DX|Company: Autodesk"
 90
        0
 91
        1
280
     0
281
     0
  0
CLASS
  1
ACMWELDSTANDARDANSI
  2
AcmWeldingStdANSI
  3
"Amdt_StdImp|Product Description: AutoCAD Mechanical 2004 DX|Company: Autodesk"
 90
        0
 91
        1
280
     0
281
     0
  0
CLASS
  1
ACMIDSTANDARDANSI
  2
AcmIdStdANSI
  3
"Amdt_StdImp|Product Description: AutoCAD Mechanical 2004 DX|Company: Autodesk"
 90
        0
 91
        1
280
     0
281
     0
  0
CLASS
  1
ACMDATUMSTANDARDANSI
  2
AcmDatumStdANSI
  3
"Amdt_StdImp|Product Description: AutoCAD Mechanical 2004 DX|Company: Autodesk"
 90
        0
 91
        1
280
     0
281
     0
  0
CLASS
  1
ACMBOMSTANDARDANSI
  2
AcmBOMStdANSI
  3
"Amdt_StdImp|Product Description: AutoCAD Mechanical 2004 DX|Company: Autodesk"
 90
        0
 91
        1
280
     0
281
     0
  0
CLASS
  1
ACMDETAILSTANDARDANSI
  2
AmdtDetailSymStdANSI
  3
"Amdt_StdImp|Product Description: AutoCAD Mechanical 2004 DX|Company: Autodesk"
 90
        0
 91
        1
280
     0
281
     0
  0
CLASS
  1
ACMSECTIONSTANDARDANSI
  2
AmdtSectionSymStdANSI
  3
"Amdt_StdImp|Product Description: AutoCAD Mechanical 2004 DX|Company: Autodesk"
 90
        0
 91
        1
280
     0
281
     0
  0
CLASS
  1
ACMCENTERLINESTANDARDANSI
  2
AmdtCenterLineStdANSI
  3
"Amdt_StdImp|Product Description: AutoCAD Mechanical 2004 DX|Company: Autodesk"
 90
        0
 91
        1
280
     0
281
     0
  0
CLASS
  1
ACMTHREADLINESTANDARDANSI
  2
AmdtThreadLineStdANSI
  3
"Amdt_StdImp|Product Description: AutoCAD Mechanical 2004 DX|Company: Autodesk"
 90
        0
 91
        1
280
     0
281
     0
  0
CLASS
  1
ACMNOTESTANDARDANSI
  2
AmdtNoteStdANSI
  3
"Amdt_StdImp|Product Description: AutoCAD Mechanical 2004 DX|Company: Autodesk"
 90
        0
 91
        1
280
     0
281
     0
  0
CLASS
  1
ACAMGHOLECHARTSTDANSI
  2
AcAmgHoleChartStdANSI
  3
ACMSYMBB_MODULE_NAME
 90
        0
 91
        1
280
     0
281
     0
  0
ENDSEC
  0
SECTION
  2
TABLES
  0
TABLE
  2
VPORT
  5
8
330
0
100
AcDbSymbolTable
 70
   623
  0
VPORT
  5
2761
330
8
100
AcDbSymbolTableRecord
100
AcDbViewportTableRecord
  2
*Active
 70
     0
 10
0.0
 20
0.0
 11
1.0
 21
1.0
 12
-10.74810162320784
 22
-11.58131447223489
 13
0.0
 23
0.0
 14
2.5
 24
2.5
 15
10.0
 25
10.0
 16
0.0
 26
0.0
 36
1.0
 17
0.0
 27
0.0
 37
0.0
 40
224.010025208673
 41
1.212005108556832
 42
50.0
 43
0.0
 44
0.0
 50
0.0
 51
0.0
 71
     0
 72
  2000
 73
     1
 74
     3
 75
     0
 76
     0
 77
     0
 78
     0
281
     0
 65
     0
110
0.0
120
0.0
130
0.0
111
1.0
121
0.0
131
0.0
112
0.0
122
1.0
132
0.0
 79
     0
146
0.0
  0
ENDTAB
  0
TABLE
  2
LTYPE
  5
5
330
0
100
AcDbSymbolTable
 70
    22
  0
LTYPE
  5
14
330
5
100
AcDbSymbolTableRecord
100
AcDbLinetypeTableRecord
  2
ByBlock
 70
     0
  3

 72
    65
 73
     0
 40
0.0
  0
LTYPE
  5
15
330
5
100
AcDbSymbolTableRecord
100
AcDbLinetypeTableRecord
  2
ByLayer
 70
     0
  3

 72
    65
 73
     0
 40
0.0
  0
LTYPE
  5
16
330
5
100
AcDbSymbolTableRecord
100
AcDbLinetypeTableRecord
  2
Continuous
 70
     0
  3
Solid line
 72
    65
 73
     0
 40
0.0
  0
LTYPE
  5
64
330
5
100
AcDbSymbolTableRecord
100
AcDbLinetypeTableRecord
  2
AM_ISO02W050
 70
     0
  3
__ __ __ __ __ __ __ __ __ __ __ __ __ __ __
 72
    65
 73
     2
 40
7.5
 49
6.0
 74
     0
 49
-1.5
 74
     0
  0
LTYPE
  5
65
330
5
100
AcDbSymbolTableRecord
100
AcDbLinetypeTableRecord
  2
AM_ISO08W050
 70
     0
  3
____ . ____ . ____ . ____ . ____ . ____ . ____
 72
    65
 73
     4
 40
18.0
 49
12.0
 74
     0
 49
-1.5
 74
     0
 49
3.0
 74
     0
 49
-1.5
 74
     0
  0
LTYPE
  5
66
330
5
100
AcDbSymbolTableRecord
100
AcDbLinetypeTableRecord
  2
AM_ISO09W050
 70
     0
  3
_____ . . _____ . . _____ . . ____ .. ____
 72
    65
 73
     6
 40
22.5
 49
12.0
 74
     0
 49
-1.5
 74
     0
 49
3.0
 74
     0
 49
-1.5
 74
     0
 49
3.0
 74
     0
 49
-1.5
 74
     0
  0
LTYPE
  5
67
330
5
100
AcDbSymbolTableRecord
100
AcDbLinetypeTableRecord
  2
Amconstr
 70
     0
  3
_______________________
 72
    65
 73
     2
 40
9999.0
 49
9999.0
 74
     0
 49
0.0
 74
     0
  0
LTYPE
  5
68
330
5
100
AcDbSymbolTableRecord
100
AcDbLinetypeTableRecord
  2
AM_ISO08W050x2
 70
     0
  3
__ . __ . __ . __ . __ . __
 72
    65
 73
     4
 40
9.0
 49
6.0
 74
     0
 49
-0.75
 74
     0
 49
1.5
 74
     0
 49
-0.75
 74
     0
  0
LTYPE
  5
69
330
5
100
AcDbSymbolTableRecord
100
AcDbLinetypeTableRecord
  2
AM_ISO02W050x2
 70
     0
  3
 _ _ _ _ _ _ _ _ _ _ _ _
 72
    65
 73
     2
 40
3.75
 49
3.0
 74
     0
 49
-0.75
 74
     0
  0
LTYPE
  5
6C
330
5
100
AcDbSymbolTableRecord
100
AcDbLinetypeTableRecord
  2
Amzigzag
 70
     0
  3
/\/-/\/-/\/-/\/-/\/-/\/
 72
    65
 73
     2
 40
11.0001
 49
0.0001
 74
     4
 75
   135
340
6B
 46
0.04
 50
0.0
 44
0.0
 45
0.0
 49
-11.0
 74
     0
  0
LTYPE
  5
7A
330
5
100
AcDbSymbolTableRecord
100
AcDbLinetypeTableRecord
  2
ACISOWELD
 70
     0
  3
_ _ _ _ _
 72
    65
 73
     2
 40
2.0
 49
2.0
 74
     0
 49
-1.0
 74
     0
  0
LTYPE
  5
7B
330
5
100
AcDbSymbolTableRecord
100
AcDbLinetypeTableRecord
  2
ACISOTGB
 70
     0
  3
__ . . __ . .
 72
    65
 73
     6
 40
9.0
 49
4.0
 74
     0
 49
-1.0
 74
     0
 49
1.0
 74
     0
 49
-1.0
 74
     0
 49
1.0
 74
     0
 49
-1.0
 74
     0
  0
LTYPE
  5
7C
330
5
100
AcDbSymbolTableRecord
100
AcDbLinetypeTableRecord
  2
ACISOTGL
 70
     0
  3
_ _ _ _ _
 72
    65
 73
     2
 40
3.0
 49
2.0
 74
     0
 49
-1.0
 74
     0
  0
LTYPE
  5
7E
330
5
100
AcDbSymbolTableRecord
100
AcDbLinetypeTableRecord
  2
CENTER
 70
     0
  3
__ . __
 72
    65
 73
     4
 40
7.0
 49
4.0
 74
     0
 49
-1.0
 74
     0
 49
1.0
 74
     0
 49
-1.0
 74
     0
  0
LTYPE
  5
D8
330
5
100
AcDbSymbolTableRecord
100
AcDbLinetypeTableRecord
  2
HIDDEN
 70
     0
  3
Hidden __ __ __ __ __ __ __ __ __ __ __ __ __ _
 72
    65
 73
     2
 40
9.524999999999996
 49
6.349999999999998
 74
     0
 49
-3.174999999999998
 74
     0
  0
LTYPE
  5
D9
330
5
100
AcDbSymbolTableRecord
100
AcDbLinetypeTableRecord
  2
PHANTOM2
 70
     0
  3
Phantom (.5x) ___ _ _ ___ _ _ ___ _ _ ___ _ _
 72
    65
 73
     6
 40
31.75
 49
15.875
 74
     0
 49
-3.174999999999998
 74
     0
 49
3.174999999999998
 74
     0
 49
-3.174999999999998
 74
     0
 49
3.174999999999998
 74
     0
 49
-3.174999999999998
 74
     0
  0
LTYPE
  5
20C
330
5
100
AcDbSymbolTableRecord
100
AcDbLinetypeTableRecord
  2
ACJISWELD
 70
     0
  3
_ _ _ _ _
 72
    65
 73
     2
 40
2.0
 49
2.0
 74
     0
 49
-1.0
 74
     0
  0
LTYPE
  5
20D
330
5
100
AcDbSymbolTableRecord
100
AcDbLinetypeTableRecord
  2
ACJISTGB
 70
     0
  3
__ . . __ . .
 72
    65
 73
     6
 40
9.0
 49
4.0
 74
     0
 49
-1.0
 74
     0
 49
1.0
 74
     0
 49
-1.0
 74
     0
 49
1.0
 74
     0
 49
-1.0
 74
     0
  0
LTYPE
  5
20E
330
5
100
AcDbSymbolTableRecord
100
AcDbLinetypeTableRecord
  2
ACJISTGL
 70
     0
  3
_ _ _ _ _
 72
    65
 73
     2
 40
3.0
 49
2.0
 74
     0
 49
-1.0
 74
     0
  0
LTYPE
  5
1F2E
330
5
100
AcDbSymbolTableRecord
100
AcDbLinetypeTableRecord
  2
CENTER2
 70
     0
  3
Center (.5x) ___ _ ___ _ ___ _ ___ _ ___ _ ___
 72
    65
 73
     4
 40
1.125
 49
0.75
 74
     0
 49
-0.125
 74
     0
 49
0.125
 74
     0
 49
-0.125
 74
     0
  0
LTYPE
  5
1F2F
330
5
100
AcDbSymbolTableRecord
100
AcDbLinetypeTableRecord
  2
HIDDEN2
 70
     0
  3
Hidden (.5x) _ _ _ _ _ _ _ _ _ _ _ _ _ _ _ _ _
 72
    65
 73
     2
 40
0.1875
 49
0.125
 74
     0
 49
-0.0625
 74
     0
  0
LTYPE
  5
1F30
330
5
100
AcDbSymbolTableRecord
100
AcDbLinetypeTableRecord
  2
Amzigzag2
 70
     0
  3
/\/-/\/-/\/-/\/-/\/-/\/
 72
    65
 73
     2
 40
0.4401
 49
0.0001
 74
     4
 75
   135
340
6B
 46
0.0016
 50
0.0
 44
0.0
 45
0.0
 49
-0.4400000000000001
 74
     0
  0
LTYPE
  5
1F31
330
5
100
AcDbSymbolTableRecord
100
AcDbLinetypeTableRecord
  2
ACANSTGB
 70
     0
  3
__ . . __ . .
 72
    65
 73
     6
 40
0.35433070866
 49
0.15748031496
 74
     0
 49
-0.03937007874
 74
     0
 49
0.03937007874
 74
     0
 49
-0.03937007874
 74
     0
 49
0.03937007874
 74
     0
 49
-0.03937007874
 74
     0
  0
LTYPE
  5
1F32
330
5
100
AcDbSymbolTableRecord
100
AcDbLinetypeTableRecord
  2
ACANSTGL
 70
     0
  3
_ _ _ _ _
 72
    65
 73
     2
 40
0.11811023622
 49
0.07874015748
 74
     0
 49
-0.03937007874
 74
     0
  0
ENDTAB
  0
TABLE
  2
LAYER
  5
2
102
{ACAD_XDICTIONARY
360
34B
102
}
330
0
100
AcDbSymbolTable
 70
     9
  0
LAYER
  5
10
330
2
100
AcDbSymbolTableRecord
100
AcDbLayerTableRecord
  2
0
 70
     0
 62
     7
  6
Continuous
370
    -3
390
F
  0
LAYER
  5
34A
330
2
100
AcDbSymbolTableRecord
100
AcDbLayerTableRecord
  2
AM_0
 70
     0
 62
     7
  6
Continuous
370
    30
390
F
  0
LAYER
  5
69B
330
2
100
AcDbSymbolTableRecord
100
AcDbLayerTableRecord
  2
AM_CL
 70
     0
 62
   112
  6
Amconstr
370
    30
390
F
  0
LAYER
  5
72C
330
2
100
AcDbSymbolTableRecord
100
AcDbLayerTableRecord
  2
AM_7
 70
     0
 62
     4
  6
AM_ISO08W050
370
    13
390
F
  0
LAYER
  5
733
330
2
100
AcDbSymbolTableRecord
100
AcDbLayerTableRecord
  2
AM_5
 70
     0
 62
     3
  6
Continuous
370
    13
390
F
  0
LAYER
  5
78B
330
2
100
AcDbSymbolTableRecord
100
AcDbLayerTableRecord
  2
Defpoints
 70
     0
 62
     7
  6
Continuous
290
     0
370
    -3
390
F
  0
LAYER
  5
91E
330
2
100
AcDbSymbolTableRecord
100
AcDbLayerTableRecord
  2
AM_11
 70
     0
 62
     3
  6
AM_ISO09W050
370
    13
390
F
  0
LAYER
  5
9EB
330
2
100
AcDbSymbolTableRecord
100
AcDbLayerTableRecord
  2
AM_6
 70
     0
 62
     2
  6
Continuous
370
    30
390
F
  0
LAYER
  5
1E0B
330
2
100
AcDbSymbolTableRecord
100
AcDbLayerTableRecord
  2
AM_3
 70
     0
 62
     6
  6
AM_ISO02W050
370
    25
390
F
  0
ENDTAB
  0
TABLE
  2
STYLE
  5
3
330
0
100
AcDbSymbolTable
 70
    11
  0
STYLE
  5
11
330
3
100
AcDbSymbolTableRecord
100
AcDbTextStyleTableRecord
  2
STANDARD
 70
     0
 40
0.0
 41
1.0
 50
0.0
 71
     0
 42
3.799999999999998
  3
ISOCP.SHX
  4
EXTFONT.SHX
  0
STYLE
  5
6B
330
3
100
AcDbSymbolTableRecord
100
AcDbTextStyleTableRecord
  2

 70
     1
 40
0.0
 41
1.0
 50
0.0
 71
     0
 42
2.5
  3
ltypeshp.shx
  4

  0
STYLE
  5
6D
330
3
100
AcDbSymbolTableRecord
100
AcDbTextStyleTableRecord
  2
ACISOTS
 70
     0
 40
0.0
 41
1.0
 50
0.0
 71
     0
 42
3.799999999999998
  3
isocp.shx
  4
extfont.shx
  0
STYLE
  5
79
330
3
100
AcDbSymbolTableRecord
100
AcDbTextStyleTableRecord
  2
ACISOGDT
 70
     0
 40
0.0
 41
1.0
 50
0.0
 71
     0
 42
2.5
  3
amgdt.shx
  4
extfont.shx
  0
STYLE
  5
1F8
330
3
100
AcDbSymbolTableRecord
100
AcDbTextStyleTableRecord
  2
USER1
 70
     0
 40
0.0
 41
1.0
 50
0.0
 71
     0
 42
1.0
  3
TXT.SHX
  4

  0
STYLE
  5
1F9
330
3
100
AcDbSymbolTableRecord
100
AcDbTextStyleTableRecord
  2
USER2
 70
     0
 40
0.0
 41
1.0
 50
0.0
 71
     0
 42
1.0
  3
SIMPLEX.SHX
  4

  0
STYLE
  5
1FA
330
3
100
AcDbSymbolTableRecord
100
AcDbTextStyleTableRecord
  2
USER3
 70
     0
 40
0.0
 41
1.0
 50
0.0
 71
     0
 42
1.0
  3
ITALIC.SHX
  4

  0
STYLE
  5
1FF
330
3
100
AcDbSymbolTableRecord
100
AcDbTextStyleTableRecord
  2
ACJISTS
 70
     0
 40
1.0
 41
1.0
 50
0.0
 71
     0
 42
1.0
  3
isocp.shx
  4
extfont.shx
  0
STYLE
  5
20B
330
3
100
AcDbSymbolTableRecord
100
AcDbTextStyleTableRecord
  2
ACJISGDT
 70
     0
 40
0.0
 41
1.0
 50
0.0
 71
     0
 42
1.0
  3
amgdt.shx
  4

  0
STYLE
  5
1F33
330
3
100
AcDbSymbolTableRecord
100
AcDbTextStyleTableRecord
  2
ACANSTS
 70
     0
 40
1.0
 41
1.0
 50
0.0
 71
     0
 42
2.5
  3
romans.shx
  4
gbcbig.shx
  0
STYLE
  5
1F34
330
3
100
AcDbSymbolTableRecord
100
AcDbTextStyleTableRecord
  2
ACANSGDT
 70
     0
 40
0.0
 41
1.0
 50
0.0
 71
     0
 42
2.5
  3
amgdtans.shx
  4

  0
ENDTAB
  0
TABLE
  2
VIEW
  5
6
330
0
100
AcDbSymbolTable
 70
     0
  0
ENDTAB
  0
TABLE
  2
UCS
  5
7
330
0
100
AcDbSymbolTable
 70
     0
  0
ENDTAB
  0
TABLE
  2
APPID
  5
9
330
0
100
AcDbSymbolTable
 70
    14
  0
APPID
  5
12
330
9
100
AcDbSymbolTableRecord
100
AcDbRegAppTableRecord
  2
ACAD
 70
     0
  0
APPID
  5
46
330
9
100
AcDbSymbolTableRecord
100
AcDbRegAppTableRecord
  2
MCAD_NO_VIS
 70
     0
  0
APPID
  5
47
330
9
100
AcDbSymbolTableRecord
100
AcDbRegAppTableRecord
  2
ACAD_TEMP_GRAPHIC
 70
     0
  0
APPID
  5
58
330
9
100
AcDbSymbolTableRecord
100
AcDbRegAppTableRecord
  2
ACATTRIBSERVICES
 70
     0
  0
APPID
  5
EE
330
9
100
AcDbSymbolTableRecord
100
AcDbRegAppTableRecord
  2
AD_DRAW
 70
     0
  0
APPID
  5
10C
330
9
100
AcDbSymbolTableRecord
100
AcDbRegAppTableRecord
  2
DESIGNERASSEMBLIES
 70
     0
  0
APPID
  5
111
330
9
100
AcDbSymbolTableRecord
100
AcDbRegAppTableRecord
  2
ACADM_DIM_EDIT
 70
     0
  0
APPID
  5
112
330
9
100
AcDbSymbolTableRecord
100
AcDbRegAppTableRecord
  2
AMDT_DM_ADJ
 70
     0
  0
APPID
  5
243
330
9
100
AcDbSymbolTableRecord
100
AcDbRegAppTableRecord
  2
ACAD_DSTYLE_DIMTEXT_FILL
 70
     0
  0
APPID
  5
3AC
330
9
100
AcDbSymbolTableRecord
100
AcDbRegAppTableRecord
  2
ACAD_PSEXT
 70
     0
  0
APPID
  5
634
330
9
100
AcDbSymbolTableRecord
100
AcDbRegAppTableRecord
  2
GENIUS_GENODEF_13
 70
     0
  0
APPID
  5
635
330
9
100
AcDbSymbolTableRecord
100
AcDbRegAppTableRecord
  2
GENIUS_GENOBJ-N-FIL_13
 70
     0
  0
APPID
  5
72E
330
9
100
AcDbSymbolTableRecord
100
AcDbRegAppTableRecord
  2
GENIUS_GENOBJ-N-CEN_13
 70
     0
  0
APPID
  5
72F
330
9
100
AcDbSymbolTableRecord
100
AcDbRegAppTableRecord
  2
GENIUS_GENCEN_19
 70
     0
  0
ENDTAB
  0
TABLE
  2
DIMSTYLE
  5
A
330
0
100
AcDbSymbolTable
 70
    24
100
AcDbDimStyleTable
 71
     2
340
216
340
81
  0
DIMSTYLE
105
27
330
A
100
AcDbSymbolTableRecord
100
AcDbDimStyleTableRecord
  2
ISO-25
 70
     0
 41
2.5
 42
0.625
 43
3.75
 44
1.25
 73
     0
 74
     0
 77
     1
 78
     8
140
2.5
141
2.5
143
0.03937007874016
147
0.625
171
     3
172
     1
271
     2
272
     2
274
     3
278
    44
283
     0
284
     8
340
11
  0
DIMSTYLE
105
81
330
A
100
AcDbSymbolTableRecord
100
AcDbDimStyleTableRecord
  2
AM_ISO
 70
     0
  4
"
 41
2.5
 42
1.0
 43
10.0
 44
1.0
 47
0.1
 48
0.1
 73
     0
 74
     0
 77
     1
 78
     8
 79
     2
140
3.5
141
0.0
143
0.0393701
146
0.71
147
1.5
172
     1
176
   256
177
   256
178
     2
271
     2
272
     3
274
     4
283
     0
284
     8
340
11
371
    -1
372
    -1
  0
DIMSTYLE
105
82
330
A
100
AcDbSymbolTableRecord
100
AcDbDimStyleTableRecord
  2
AM_ISO$3
 70
     0
  4
"
 41
2.5
 42
1.0
 43
10.0
 44
1.0
 47
0.1
 48
0.1
 73
     0
 77
     1
 78
     8
 79
     2
140
3.5
141
0.0
143
0.0393701
146
0.71
147
1.5
176
   256
177
   256
178
     2
271
     2
272
     3
274
     4
283
     0
284
     8
288
     1
289
     0
340
11
371
    -1
372
    -1
  0
DIMSTYLE
105
83
330
A
100
AcDbSymbolTableRecord
100
AcDbDimStyleTableRecord
  2
AM_ISO$4
 70
     0
  4
"
 41
2.5
 42
1.0
 43
10.0
 44
1.0
 47
0.1
 48
0.1
 73
     0
 77
     1
 78
     8
 79
     2
140
3.5
141
0.0
143
0.0393701
146
0.71
147
1.5
176
   256
177
   256
178
     2
271
     2
272
     3
274
     4
283
     0
284
     8
288
     1
289
     0
340
11
371
    -1
372
    -1
  0
DIMSTYLE
105
84
330
A
100
AcDbSymbolTableRecord
100
AcDbDimStyleTableRecord
  2
AM_ISO$6
 70
     0
  4
"
 41
2.5
 42
1.0
 43
10.0
 44
1.0
 47
0.1
 48
0.1
 73
     0
 74
     0
 78
     8
 79
     2
140
3.5
141
0.0
143
0.0393701
146
0.71
147
1.5
172
     1
176
   256
177
   256
178
     2
271
     2
272
     3
274
     4
283
     0
284
     8
340
11
371
    -1
372
    -1
  0
DIMSTYLE
105
85
330
A
100
AcDbSymbolTableRecord
100
AcDbDimStyleTableRecord
  2
AM_ISO$7
 70
     0
  4
"
 41
2.5
 42
1.0
 43
10.0
 44
1.0
 47
0.1
 48
0.1
 73
     0
 74
     0
 77
     1
 78
     8
 79
     2
140
5.0
141
0.0
143
0.0393701
146
0.71
147
1.5
172
     1
176
   256
177
   256
178
     2
271
     2
272
     3
274
     4
283
     0
284
     8
340
11
371
    -1
372
    -1
  0
DIMSTYLE
105
86
330
A
100
AcDbSymbolTableRecord
100
AcDbDimStyleTableRecord
  2
AM_ISO$SF
 70
     0
  4
"
 41
2.5
 42
1.0
 43
10.0
 44
1.0
 47
0.1
 48
0.1
 73
     0
 74
     0
 75
     1
 76
     1
 77
     1
 78
     8
 79
     2
140
3.5
141
0.0
143
0.0393701
146
0.71
147
1.5
172
     1
176
   256
177
   256
178
     2
271
     2
272
     3
274
     4
283
     0
284
     8
340
11
371
    -1
372
    -1
  0
DIMSTYLE
105
8B
330
A
100
AcDbSymbolTableRecord
100
AcDbDimStyleTableRecord
  2
AM_ISO$SH
 70
     0
  4
"
 41
2.5
 42
1.0
 43
10.0
 44
1.0
 47
0.1
 48
0.1
 73
     0
 74
     0
 75
     1
 76
     1
 77
     1
 78
     8
 79
     2
140
3.5
141
0.0
143
0.0393701
144
2.0
146
0.71
147
1.5
172
     1
173
     1
176
   256
177
   256
178
     2
271
     2
272
     3
274
     4
283
     0
284
     8
340
11
343
87
371
    -1
372
    -1
  0
DIMSTYLE
105
216
330
A
100
AcDbSymbolTableRecord
100
AcDbDimStyleTableRecord
  2
AM_JIS
 70
     0
  4
"
 41
2.5
 42
0.0
 43
10.0
 44
1.0
 47
0.1
 48
0.1000000001
 73
     0
 74
     0
 77
     3
 78
     1
140
3.799999999999998
141
0.0
143
0.0393701
146
0.71
147
1.5
172
     1
176
   256
177
   256
178
     2
179
     1
271
     2
272
     2
275
     1
283
     0
284
     8
340
11
341
217
342
217
371
    -1
372
    -1
  0
DIMSTYLE
105
21D
330
A
100
AcDbSymbolTableRecord
100
AcDbDimStyleTableRecord
  2
AM_JIS$3
 70
     0
  4
"
 41
2.5
 42
0.0
 43
10.0
 44
1.0
 47
0.1
 48
0.1000000001
 73
     0
 77
     3
 78
     1
140
3.799999999999998
141
0.0
143
0.0393701
146
0.71
147
1.5
176
   256
177
   256
178
     2
179
     1
271
     2
272
     2
275
     1
283
     0
284
     8
288
     1
289
     0
340
11
341
217
342
217
371
    -1
372
    -1
  0
DIMSTYLE
105
21E
330
A
100
AcDbSymbolTableRecord
100
AcDbDimStyleTableRecord
  2
AM_JIS$4
 70
     0
  4
"
 41
2.5
 42
0.0
 43
10.0
 44
1.0
 47
0.1
 48
0.1000000001
 73
     0
 77
     3
 78
     1
140
3.799999999999998
141
0.0
143
0.0393701
146
0.71
147
1.5
176
   256
177
   256
178
     2
179
     1
271
     2
272
     2
275
     1
283
     0
284
     8
288
     1
289
     0
340
11
341
217
342
217
371
    -1
372
    -1
  0
DIMSTYLE
105
21F
330
A
100
AcDbSymbolTableRecord
100
AcDbDimStyleTableRecord
  2
AM_JIS$6
 70
     0
  4
"
 41
2.5
 42
0.0
 43
10.0
 44
1.0
 47
0.1
 48
0.1000000001
 73
     0
 74
     0
 78
     1
140
3.799999999999998
141
0.0
143
0.0393701
146
0.71
147
1.5
172
     1
176
   256
177
   256
178
     2
179
     1
271
     2
272
     2
275
     1
283
     0
284
     8
340
11
341
217
342
217
371
    -1
372
    -1
  0
DIMSTYLE
105
220
330
A
100
AcDbSymbolTableRecord
100
AcDbDimStyleTableRecord
  2
AM_JIS$7
 70
     0
  4
"
 41
2.5
 42
0.0
 43
10.0
 44
1.0
 47
0.1
 48
0.1000000001
 73
     0
 74
     0
 77
     3
 78
     1
140
5.0
141
0.0
143
0.0393701
146
0.71
147
1.5
172
     1
176
   256
177
   256
178
     2
179
     1
271
     2
272
     2
275
     1
283
     0
284
     8
340
11
341
217
342
217
371
    -1
372
    -1
  0
DIMSTYLE
105
221
330
A
100
AcDbSymbolTableRecord
100
AcDbDimStyleTableRecord
  2
AM_JIS$SF
 70
     0
  4
"
 41
2.5
 42
1.0
 43
10.0
 44
1.0
 47
0.1
 48
0.1
 73
     0
 74
     0
 75
     1
 76
     1
 77
     3
 78
     8
 79
     2
140
3.5
141
0.0
143
0.0393701
146
0.71
147
1.5
172
     1
176
   256
177
   256
178
     2
271
     2
272
     3
274
     4
283
     0
284
     8
340
11
341
217
342
217
343
217
344
217
371
    -1
372
    -1
  0
DIMSTYLE
105
222
330
A
100
AcDbSymbolTableRecord
100
AcDbDimStyleTableRecord
  2
AM_JIS$SH
 70
     0
  4
"
 41
2.5
 42
1.0
 43
10.0
 44
1.0
 47
0.1
 48
0.1
 73
     0
 74
     0
 75
     1
 76
     1
 77
     3
 78
     8
 79
     2
140
3.5
141
0.0
143
0.0393701
144
2.0
146
0.71
147
1.5
172
     1
173
     1
176
   256
177
   256
178
     2
271
     2
272
     3
274
     4
283
     0
284
     8
340
11
341
217
342
217
343
87
344
217
371
    -1
372
    -1
  0
DIMSTYLE
105
632
330
A
100
AcDbSymbolTableRecord
100
AcDbDimStyleTableRecord
  2
AM_JIS$2
 70
     0
  4
"
 41
2.5
 42
0.1
 43
8.0
 44
1.0
 47
0.1
 48
0.1
 73
     0
 74
     0
 77
     3
 78
     1
 79
     2
140
3.399999999999999
141
0.0
143
0.0393701
146
0.71
147
0.9999999999999996
172
     1
176
     3
177
     3
178
     2
179
     1
271
     2
272
     2
275
     1
283
     0
284
     1
340
11
341
217
342
217
371
    -1
372
    -1
  0
DIMSTYLE
105
633
102
{ACAD_REACTORS
330
25A5
330
25EC
330
261F
330
2643
330
2681
330
26BD
330
26F0
330
2723
102
}
330
A
100
AcDbSymbolTableRecord
100
AcDbDimStyleTableRecord
  2
AM_JIS$0
 70
     0
  4
"
 41
2.5
 42
0.1
 43
8.0
 44
0.5
 47
0.1
 48
0.1
 73
     0
 74
     0
 77
     3
 78
     1
 79
     2
140
3.399999999999999
141
0.0
143
0.0393701
146
0.71
147
0.9999999999999996
172
     1
176
     3
177
     3
178
     2
179
     1
271
     2
272
     2
275
     1
283
     0
284
     1
340
11
341
217
342
217
371
    -1
372
    -1
  0
DIMSTYLE
105
1F35
330
A
100
AcDbSymbolTableRecord
100
AcDbDimStyleTableRecord
  2
STANDARD
 70
     0
340
11
  0
DIMSTYLE
105
1F36
330
A
100
AcDbSymbolTableRecord
100
AcDbDimStyleTableRecord
  2
AM_ANSI
 70
     0
  4
mm
 41
0.1
 42
0.05
 43
0.5
 44
0.1
 47
0.1
 48
0.1
 78
     7
 79
     2
140
0.12
141
0.0
146
0.71
147
0.06
176
   256
177
   256
178
     2
274
     4
284
     7
340
11
371
    -1
372
    -1
  0
DIMSTYLE
105
1F37
330
A
100
AcDbSymbolTableRecord
100
AcDbDimStyleTableRecord
  2
AM_ANSI$3
 70
     0
  4
mm
 41
0.1
 42
0.05
 43
0.5
 44
0.1
 47
0.1
 48
0.1
 78
     7
 79
     2
140
0.12
141
0.0
146
0.71
147
0.06
176
   256
177
   256
178
     2
274
     4
284
     7
288
     1
289
     0
340
11
371
    -1
372
    -1
  0
DIMSTYLE
105
1F38
330
A
100
AcDbSymbolTableRecord
100
AcDbDimStyleTableRecord
  2
AM_ANSI$4
 70
     0
  4
mm
 41
0.1
 42
0.05
 43
0.5
 44
0.1
 47
0.1
 48
0.1
 78
     7
 79
     2
140
0.12
141
0.0
146
0.71
147
0.06
176
   256
177
   256
178
     2
274
     4
284
     7
288
     1
289
     0
340
11
371
    -1
372
    -1
  0
DIMSTYLE
105
1F39
330
A
100
AcDbSymbolTableRecord
100
AcDbDimStyleTableRecord
  2
AM_ANSI$7
 70
     0
  4
mm
 41
0.1
 42
0.05
 43
0.5
 44
0.1
 47
0.1
 48
0.1
 78
     7
 79
     2
140
0.24
141
0.0
146
0.71
147
0.06
176
   256
177
   256
178
     2
274
     4
284
     7
340
11
371
    -1
372
    -1
  0
DIMSTYLE
105
1F3A
330
A
100
AcDbSymbolTableRecord
100
AcDbDimStyleTableRecord
  2
AM_ANSI$SF
 70
     0
  4
mm
 41
0.1
 42
0.05
 43
0.5
 44
0.1
 47
0.1
 48
0.1
 75
     1
 76
     1
 78
     7
 79
     2
140
0.12
141
0.0
146
0.71
147
0.06
176
   256
177
   256
178
     2
274
     4
284
     7
340
11
371
    -1
372
    -1
  0
DIMSTYLE
105
1F3B
330
A
100
AcDbSymbolTableRecord
100
AcDbDimStyleTableRecord
  2
AM_ANSI$SH
 70
     0
  4
mm
 41
0.1
 42
0.05
 43
0.5
 44
0.1
 47
0.1
 48
0.1
 75
     1
 76
     1
 78
     7
 79
     2
140
0.12
141
0.0
146
0.71
147
0.06
173
     1
176
   256
177
   256
178
     2
274
     4
284
     7
340
11
343
87
371
    -1
372
    -1
  0
ENDTAB
  0
TABLE
  2
BLOCK_RECORD
  5
1
330
0
100
AcDbSymbolTable
 70
    42
  0
BLOCK_RECORD
  5
1F
102
{ACAD_XDICTIONARY
360
8F
102
}
330
1
100
AcDbSymbolTableRecord
100
AcDbBlockTableRecord
  2
*Model_Space
340
22
  0
BLOCK_RECORD
  5
1B
330
1
100
AcDbSymbolTableRecord
100
AcDbBlockTableRecord
  2
*Paper_Space
340
1E
  0
BLOCK_RECORD
  5
23
330
1
100
AcDbSymbolTableRecord
100
AcDbBlockTableRecord
  2
*Paper_Space0
340
26
  0
BLOCK_RECORD
  5
87
330
1
100
AcDbSymbolTableRecord
100
AcDbBlockTableRecord
  2
GENAXEH
340
0
  0
BLOCK_RECORD
  5
217
330
1
100
AcDbSymbolTableRecord
100
AcDbBlockTableRecord
  2
_Open30
340
0
102
{BLKREFS
331
1F7B
331
1F7C
331
1F84
331
1F85
331
1F8D
331
1F8E
331
1F96
331
1F97
331
1FA1
331
1FA2
331
1FAA
331
1FAB
331
1FB3
331
1FB4
331
1FBC
331
1FBD
331
1FC5
331
1FC6
331
2075
331
2076
331
20A4
331
20A5
331
210C
331
210D
331
214A
331
214B
331
2196
331
2197
331
2200
331
2201
331
2211
331
2212
331
2243
331
2244
331
224C
331
224D
331
24DB
331
24DC
331
24E4
331
24E5
331
24FF
331
2500
331
2511
331
2512
331
251A
331
251B
331
2523
331
2524
331
252C
331
252D
331
2535
331
2536
331
262F
331
2630
331
2663
331
2664
331
266C
331
266D
331
26CD
331
26CE
331
26DB
331
26DC
331
2709
331
270A
331
274A
331
274B
331
2753
331
2754
102
}
  0
BLOCK_RECORD
  5
8A4
330
1
100
AcDbSymbolTableRecord
100
AcDbBlockTableRecord
  2
*D3
340
0
  0
BLOCK_RECORD
  5
9EE
330
1
100
AcDbSymbolTableRecord
100
AcDbBlockTableRecord
  2
ta
340
0
310
2800000020000000200000000100080000000000000400000000000000000000000000000000000000000000000080000080000000808000800000008000800080800000C0C0C000C0DCC000F0CAA6000020400000206000002080000020A0000020C0000020E00000400000004020000040400000406000004080000040A0
310
000040C0000040E00000600000006020000060400000606000006080000060A0000060C0000060E00000800000008020000080400000806000008080000080A0000080C0000080E00000A0000000A0200000A0400000A0600000A0800000A0A00000A0C00000A0E00000C0000000C0200000C0400000C0600000C0800000C0
310
A00000C0C00000C0E00000E0000000E0200000E0400000E0600000E0800000E0A00000E0C00000E0E00040000000400020004000400040006000400080004000A0004000C0004000E00040200000402020004020400040206000402080004020A0004020C0004020E000404000004040200040404000404060004040800040
310
40A0004040C0004040E00040600000406020004060400040606000406080004060A0004060C0004060E00040800000408020004080400040806000408080004080A0004080C0004080E00040A0000040A0200040A0400040A0600040A0800040A0A00040A0C00040A0E00040C0000040C0200040C0400040C0600040C08000
310
40C0A00040C0C00040C0E00040E0000040E0200040E0400040E0600040E0800040E0A00040E0C00040E0E00080000000800020008000400080006000800080008000A0008000C0008000E00080200000802020008020400080206000802080008020A0008020C0008020E00080400000804020008040400080406000804080
310
008040A0008040C0008040E00080600000806020008060400080606000806080008060A0008060C0008060E00080800000808020008080400080806000808080008080A0008080C0008080E00080A0000080A0200080A0400080A0600080A0800080A0A00080A0C00080A0E00080C0000080C0200080C0400080C0600080C0
310
800080C0A00080C0C00080C0E00080E0000080E0200080E0400080E0600080E0800080E0A00080E0C00080E0E000C0000000C0002000C0004000C0006000C0008000C000A000C000C000C000E000C0200000C0202000C0204000C0206000C0208000C020A000C020C000C020E000C0400000C0402000C0404000C0406000C0
310
408000C040A000C040C000C040E000C0600000C0602000C0604000C0606000C0608000C060A000C060C000C060E000C0800000C0802000C0804000C0806000C0808000C080A000C080C000C080E000C0A00000C0A02000C0A04000C0A06000C0A08000C0A0A000C0A0C000C0A0E000C0C00000C0C02000C0C04000C0C06000
310
C0C08000C0C0A000F0FBFF00A4A0A000808080000000FF0000FF000000FFFF00FF000000FF00FF00FFFF0000FFFFFF0000000000000000000000000000000000000000000000000000000000000000000000000000000000000000000000000000000000000000000000000000000000000000000000000000000000000000
310
00000000000000000000000000000000000000000000000000000000000000000000000000000000000000000000000000000000000000000000000000000000000000000000000000000000000000000000000000000000000000000000000000000000000000000000000000000000000000000000000000000000000000
310
0000000000000000000000000000000000000000FFFFFFFFFFFFFFFFFFFFFFFFFFFFFFFFFFFFFFFFFFFFFFFFFFFF0000000000FF0000000000000000000000000000000000000000000000000000FF00000000FF0000000000000000000000000000000000000000000000000000FF00000000FF0000000000000000000000
310
000000000000000000000000000000FF00000000FFFF00000000000000000000FFFFFFFFFFFF000000000000000000FF0000000000FF000000000000000000FF000000000000FF0000000000000000FF0000000000FF000000000000000000FF00000000000000FF0000000000000000FF00000000FF0000000000000000FF
310
0000000000000000FF0000000000000000FF00000000FF00000000000000FF00000000000000000000FF00000000000000FF00000000FF0000000000000000FF0000000000000000FF0000000000000000FF00000000FF0000000000000000FF0000000000000000FF0000000000000000FF0000000000FF00000000000000
310
00FF000000000000FF000000000000000000FF0000000000FF0000000000000000FF000000000000FF000000000000000000FF0000000000FF000000000000000000FFFFFFFFFFFF00000000000000000000FFFF00000000FF0000000000000000000000000000000000000000000000000000FF00000000FF000000000000
310
0000000000000000000000000000000000000000FF00000000FF0000000000000000000000000000000000000000000000000000FF0000000000FFFFFFFFFFFFFFFFFFFFFFFFFFFFFFFFFFFFFFFFFFFFFFFFFFFF00000000000000000000000000000000000000000000000000000000000000000000000000000000000000
310
00000000000000000000000000000000000000000000000000000000000000000000000000000000000000000000000000000000000000000000000000000000000000000000000000000000000000000000000000000000000000000000000000000000000000000000000000000000000000000000000000000000000000
310
0000000000000000000000000000000000000000000000000000000000000000000000000000000000000000000000000000000000000000
1001
ACAD
1000
DesignCenter Data
1002
{
1070
     1
1070
     4
1002
}
  0
BLOCK_RECORD
  5
136E
330
1
100
AcDbSymbolTableRecord
100
AcDbBlockTableRecord
  2
*D5
340
0
  0
BLOCK_RECORD
  5
1378
330
1
100
AcDbSymbolTableRecord
100
AcDbBlockTableRecord
  2
*D6
340
0
  0
BLOCK_RECORD
  5
138B
330
1
100
AcDbSymbolTableRecord
100
AcDbBlockTableRecord
  2
*D7
340
0
  0
BLOCK_RECORD
  5
14C3
330
1
100
AcDbSymbolTableRecord
100
AcDbBlockTableRecord
  2
*D8
340
0
  0
BLOCK_RECORD
  5
14CF
330
1
100
AcDbSymbolTableRecord
100
AcDbBlockTableRecord
  2
*D9
340
0
  0
BLOCK_RECORD
  5
1540
330
1
100
AcDbSymbolTableRecord
100
AcDbBlockTableRecord
  2
*D10
340
0
  0
BLOCK_RECORD
  5
1B9E
330
1
100
AcDbSymbolTableRecord
100
AcDbBlockTableRecord
  2
*D11
340
0
  0
BLOCK_RECORD
  5
1C54
330
1
100
AcDbSymbolTableRecord
100
AcDbBlockTableRecord
  2
*D12
340
0
  0
BLOCK_RECORD
  5
202F
330
1
100
AcDbSymbolTableRecord
100
AcDbBlockTableRecord
  2
*D15
340
0
  0
BLOCK_RECORD
  5
2066
330
1
100
AcDbSymbolTableRecord
100
AcDbBlockTableRecord
  2
*D16
340
0
  0
BLOCK_RECORD
  5
2091
330
1
100
AcDbSymbolTableRecord
100
AcDbBlockTableRecord
  2
*D17
340
0
  0
BLOCK_RECORD
  5
20BF
330
1
100
AcDbSymbolTableRecord
100
AcDbBlockTableRecord
  2
*D18
340
0
  0
BLOCK_RECORD
  5
20F4
330
1
100
AcDbSymbolTableRecord
100
AcDbBlockTableRecord
  2
*D19
340
0
  0
BLOCK_RECORD
  5
2121
330
1
100
AcDbSymbolTableRecord
100
AcDbBlockTableRecord
  2
*D20
340
0
  0
BLOCK_RECORD
  5
2160
330
1
100
AcDbSymbolTableRecord
100
AcDbBlockTableRecord
  2
*D21
340
0
  0
BLOCK_RECORD
  5
21AC
330
1
100
AcDbSymbolTableRecord
100
AcDbBlockTableRecord
  2
*D22
340
0
  0
BLOCK_RECORD
  5
21E8
330
1
100
AcDbSymbolTableRecord
100
AcDbBlockTableRecord
  2
*D23
340
0
  0
BLOCK_RECORD
  5
2306
330
1
100
AcDbSymbolTableRecord
100
AcDbBlockTableRecord
  2
*D25
340
0
  0
BLOCK_RECORD
  5
2333
330
1
100
AcDbSymbolTableRecord
100
AcDbBlockTableRecord
  2
*D26
340
0
  0
BLOCK_RECORD
  5
237B
330
1
100
AcDbSymbolTableRecord
100
AcDbBlockTableRecord
  2
*D27
340
0
  0
BLOCK_RECORD
  5
23B7
330
1
100
AcDbSymbolTableRecord
100
AcDbBlockTableRecord
  2
*D28
340
0
  0
BLOCK_RECORD
  5
23E1
330
1
100
AcDbSymbolTableRecord
100
AcDbBlockTableRecord
  2
*D29
340
0
  0
BLOCK_RECORD
  5
2414
330
1
100
AcDbSymbolTableRecord
100
AcDbBlockTableRecord
  2
*D30
340
0
  0
BLOCK_RECORD
  5
2438
330
1
100
AcDbSymbolTableRecord
100
AcDbBlockTableRecord
  2
*D31
340
0
  0
BLOCK_RECORD
  5
2464
330
1
100
AcDbSymbolTableRecord
100
AcDbBlockTableRecord
  2
*D32
340
0
  0
BLOCK_RECORD
  5
25A6
330
1
100
AcDbSymbolTableRecord
100
AcDbBlockTableRecord
  2
*D34
340
0
  0
BLOCK_RECORD
  5
25ED
330
1
100
AcDbSymbolTableRecord
100
AcDbBlockTableRecord
  2
*D35
340
0
  0
BLOCK_RECORD
  5
2620
330
1
100
AcDbSymbolTableRecord
100
AcDbBlockTableRecord
  2
*D36
340
0
  0
BLOCK_RECORD
  5
2644
330
1
100
AcDbSymbolTableRecord
100
AcDbBlockTableRecord
  2
*D37
340
0
  0
BLOCK_RECORD
  5
2682
330
1
100
AcDbSymbolTableRecord
100
AcDbBlockTableRecord
  2
*D38
340
0
  0
BLOCK_RECORD
  5
26BE
330
1
100
AcDbSymbolTableRecord
100
AcDbBlockTableRecord
  2
*D39
340
0
  0
BLOCK_RECORD
  5
26F1
330
1
100
AcDbSymbolTableRecord
100
AcDbBlockTableRecord
  2
*D40
340
0
  0
BLOCK_RECORD
  5
2724
330
1
100
AcDbSymbolTableRecord
100
AcDbBlockTableRecord
  2
*D41
340
0
  0
ENDTAB
  0
ENDSEC
  0
SECTION
  2
BLOCKS
  0
BLOCK
  5
20
330
1F
100
AcDbEntity
  8
0
100
AcDbBlockBegin
  2
*Model_Space
 70
     0
 10
0.0
 20
0.0
 30
0.0
  3
*Model_Space
  1

  0
ENDBLK
  5
21
330
1F
100
AcDbEntity
  8
0
100
AcDbBlockEnd
  0
BLOCK
  5
1C
330
1B
100
AcDbEntity
 67
     1
  8
0
100
AcDbBlockBegin
  2
*Paper_Space
 70
     0
 10
0.0
 20
0.0
 30
0.0
  3
*Paper_Space
  1

  0
ENDBLK
  5
1D
330
1B
100
AcDbEntity
 67
     1
  8
0
100
AcDbBlockEnd
  0
BLOCK
  5
24
330
23
100
AcDbEntity
  8
0
100
AcDbBlockBegin
  2
*Paper_Space0
 70
     0
 10
0.0
 20
0.0
 30
0.0
  3
*Paper_Space0
  1

  0
ENDBLK
  5
25
330
23
100
AcDbEntity
  8
0
100
AcDbBlockEnd
  0
BLOCK
  5
89
330
87
100
AcDbEntity
  8
0
100
AcDbBlockBegin
  2
GENAXEH
 70
     0
 10
0.0
 20
0.0
 30
0.0
  3
GENAXEH
  1

  0
LINE
  5
88
330
87
100
AcDbEntity
  8
0
100
AcDbLine
 10
-1.0
 20
0.0
 30
0.0
 11
1.0
 21
0.0
 31
0.0
  0
ENDBLK
  5
8A
330
87
100
AcDbEntity
  8
0
100
AcDbBlockEnd
  0
BLOCK
  5
21B
330
217
100
AcDbEntity
  8
0
100
AcDbBlockBegin
  2
_Open30
 70
     0
 10
0.0
 20
0.0
 30
0.0
  3
_Open30
  1

  0
LINE
  5
218
330
217
100
AcDbEntity
  8
0
  6
ByBlock
 62
     0
370
    -2
100
AcDbLine
 10
-1.0
 20
0.26794919
 30
0.0
 11
0.0
 21
0.0
 31
0.0
  0
LINE
  5
219
330
217
100
AcDbEntity
  8
0
  6
ByBlock
 62
     0
370
    -2
100
AcDbLine
 10
0.0
 20
0.0
 30
0.0
 11
-1.0
 21
-0.26794919
 31
0.0
  0
LINE
  5
21A
330
217
100
AcDbEntity
  8
0
  6
ByBlock
 62
     0
370
    -2
100
AcDbLine
 10
0.0
 20
0.0
 30
0.0
 11
-1.0
 21
0.0
 31
0.0
  0
ENDBLK
  5
21C
330
217
100
AcDbEntity
  8
0
100
AcDbBlockEnd
  0
BLOCK
  5
8CF
330
8A4
100
AcDbEntity
  8
0
100
AcDbBlockBegin
  2
*D3
 70
     1
 10
0.0
 20
0.0
 30
0.0
  3
*D3
  1

  0
LINE
  5
1F78
330
8A4
100
AcDbEntity
  8
AM_5
 62
     3
100
AcDbLine
 10
-3.927571060076638
 20
148.0448783700201
 30
0.0
 11
27.4219504204444
 21
148.0448783700201
 31
0.0
  0
LINE
  5
1F79
330
8A4
100
AcDbEntity
  8
AM_5
 62
     3
100
AcDbLine
 10
-6.44300000000061
 20
85.04487837001997
 30
0.0
 11
27.42195042044438
 21
85.04487837001997
 31
0.0
  0
LINE
  5
1F7A
330
8A4
100
AcDbEntity
  8
AM_5
 62
     3
100
AcDbLine
 10
26.92195042044439
 20
145.5448783700201
 30
0.0
 11
26.92195042044438
 21
87.54487837001997
 31
0.0
  0
INSERT
  5
1F7B
330
8A4
100
AcDbEntity
  8
AM_5
 62
     3
100
AcDbBlockReference
  2
_Open30
 10
26.92195042044439
 20
148.0448783700201
 30
0.0
 41
2.5
 42
2.5
 43
2.5
 50
90.0
  0
INSERT
  5
1F7C
330
8A4
100
AcDbEntity
  8
AM_5
 62
     3
100
AcDbBlockReference
  2
_Open30
 10
26.92195042044438
 20
85.04487837001997
 30
0.0
 41
2.5
 42
2.5
 43
2.5
 50
270.0
  0
MTEXT
  5
1F7D
330
8A4
100
AcDbEntity
  8
AM_5
 62
     2
100
AcDbMText
 10
24.22195042044437
 20
116.54487837002
 30
0.0
 40
3.399999999999999
 41
0.0
 71
     5
 72
     1
  1
%%c63
 11
0.0000000000000001
 21
1.0
 31
0.0
 73
     1
 44
1.0
  0
POINT
  5
1F7E
330
8A4
100
AcDbEntity
  8
Defpoints
 62
     0
100
AcDbPoint
 10
-4.027571060076638
 20
148.0448783700201
 30
0.0
  0
POINT
  5
1F7F
330
8A4
100
AcDbEntity
  8
Defpoints
 62
     0
100
AcDbPoint
 10
-6.54300000000061
 20
85.04487837001997
 30
0.0
  0
POINT
  5
1F80
330
8A4
100
AcDbEntity
  8
Defpoints
 62
     0
100
AcDbPoint
 10
26.92195042044438
 20
85.04487837001997
 30
0.0
  0
ENDBLK
  5
8D0
330
8A4
100
AcDbEntity
  8
0
100
AcDbBlockEnd
  0
BLOCK
  5
9EF
330
9EE
100
AcDbEntity
  8
0
100
AcDbBlockBegin
  2
ta
 70
     0
 10
0.0
 20
0.0
 30
0.0
  3
ta
  1

  0
LINE
  5
A2B
330
9EE
100
AcDbEntity
  8
AM_0
100
AcDbLine
 10
-10.94000000000007
 20
6.998578643761787
 30
0.0
 11
-0.4000000000000538
 21
6.998578643762527
 31
0.0
  0
ARC
  5
A2C
330
9EE
100
AcDbEntity
  8
AM_0
100
AcDbCircle
 10
-0.4000000000000538
 20
6.598578643762523
 30
0.0
 40
0.4
100
AcDbArc
 50
0.0000000000040711
 51
90.00000000000325
1001
GENIUS_GENOBJ-N-FIL_13
1002
{
1000
OWNER
1000
GEN
1002
}
1001
GENIUS_GENODEF_13
1002
{
1000
HIER
1070
     0
1002
}
1002
{
1000
MANEDIT
1070
     0
1002
}
1002
{
1000
NOSEL
1070
     0
1002
}
1002
{
1000
BEHIND
1070
     0
1002
}
1002
{
1000
OTHER
1070
     0
1002
}
1002
{
1000
REACTOR
1002
}
  0
ARC
  5
A2D
330
9EE
100
AcDbEntity
  8
AM_0
100
AcDbCircle
 10
-10.94000000000007
 20
6.598578643761782
 30
0.0
 40
0.4
100
AcDbArc
 50
90.00000000000325
 51
180.0
1001
GENIUS_GENOBJ-N-FIL_13
1002
{
1000
OWNER
1000
GEN
1002
}
1001
GENIUS_GENODEF_13
1002
{
1000
HIER
1070
     0
1002
}
1002
{
1000
MANEDIT
1070
     0
1002
}
1002
{
1000
NOSEL
1070
     0
1002
}
1002
{
1000
BEHIND
1070
     0
1002
}
1002
{
1000
OTHER
1070
     0
1002
}
1002
{
1000
REACTOR
1002
}
  0
LINE
  5
A2E
330
9EE
100
AcDbEntity
  8
AM_0
100
AcDbLine
 10
-1.060000000000077
 20
-0.0014213562374148
 30
0.0
 11
-11.6000000000001
 21
-0.0014213562374148
 31
0.0
  0
ARC
  5
A2F
330
9EE
100
AcDbEntity
  8
AM_0
100
AcDbCircle
 10
-11.6000000000001
 20
0.3985786437625909
 30
0.0
 40
0.4
100
AcDbArc
 50
180.0
 51
270.0
1001
GENIUS_GENODEF_13
1002
{
1000
HIER
1070
     0
1002
}
1002
{
1000
MANEDIT
1070
     0
1002
}
1002
{
1000
NOSEL
1070
     0
1002
}
1002
{
1000
BEHIND
1070
     0
1002
}
1002
{
1000
OTHER
1070
     0
1002
}
1002
{
1000
REACTOR
1002
}
1001
GENIUS_GENOBJ-N-FIL_13
1002
{
1000
OWNER
1000
GEN
1002
}
  0
LINE
  5
A30
330
9EE
100
AcDbEntity
  8
AM_0
100
AcDbLine
 10
-11.34000000000005
 20
6.598578643761782
 30
0.0
 11
-11.34000000000005
 21
5.465263475678084
 31
0.0
  0
LINE
  5
A31
330
9EE
100
AcDbEntity
  8
AM_0
100
AcDbLine
 10
-0.6600000000001014
 20
0.3985786437625909
 30
0.0
 11
-0.6600000000001014
 21
1.53189381184515
 31
0.0
  0
ARC
  5
A32
330
9EE
100
AcDbEntity
  8
AM_0
100
AcDbCircle
 10
-0.2600000000001241
 20
1.53189381184515
 30
0.0
 40
0.4
100
AcDbArc
 50
172.3666694127705
 51
180.0
1001
GENIUS_GENOBJ-N-FIL_13
1002
{
1000
OWNER
1000
GEN
1002
}
1001
GENIUS_GENODEF_13
1002
{
1000
HIER
1070
     0
1002
}
1002
{
1000
MANEDIT
1070
     0
1002
}
1002
{
1000
NOSEL
1070
     0
1002
}
1002
{
1000
BEHIND
1070
     0
1002
}
1002
{
1000
OTHER
1070
     0
1002
}
1002
{
1000
REACTOR
1002
}
  0
ARC
  5
A33
330
9EE
100
AcDbEntity
  8
AM_0
100
AcDbCircle
 10
-1.060000000000077
 20
0.3985786437625909
 30
0.0
 40
0.4
100
AcDbArc
 50
270.0
 51
0.0
1001
GENIUS_GENODEF_13
1002
{
1000
HIER
1070
     0
1002
}
1002
{
1000
MANEDIT
1070
     0
1002
}
1002
{
1000
NOSEL
1070
     0
1002
}
1002
{
1000
BEHIND
1070
     0
1002
}
1002
{
1000
OTHER
1070
     0
1002
}
1002
{
1000
REACTOR
1002
}
1001
GENIUS_GENOBJ-N-FIL_13
1002
{
1000
OWNER
1000
GEN
1002
}
  0
LINE
  5
A34
330
9EE
100
AcDbEntity
  8
AM_0
100
AcDbLine
 10
-12.00000000000007
 20
0.3985786437625909
 30
0.0
 11
-12.00000000000007
 21
1.392893218812843
 31
0.0
  0
LINE
  5
A35
330
9EE
100
AcDbEntity
  8
AM_0
100
AcDbLine
 10
-0.0000000000000764
 20
6.59857864376255
 30
0.0
 11
-0.0000000000000195
 21
5.604264068712353
 31
0.0
  0
ARC
  5
A36
330
9EE
100
AcDbEntity
  8
AM_0
100
AcDbCircle
 10
-0.0000000000000764
 20
5.038578643762548
 30
0.0
 40
0.3999999999999488
100
AcDbArc
 50
109.4712206344584
 51
180.0
  0
ARC
  5
A37
330
9EE
100
AcDbEntity
  8
AM_0
100
AcDbCircle
 10
-0.1999999999999513
 20
5.604264068712353
 30
0.0
 40
0.2
100
AcDbArc
 50
289.4712206344672
 51
0.0
1001
GENIUS_GENODEF_13
1002
{
1000
HIER
1070
     0
1002
}
1002
{
1000
MANEDIT
1070
     0
1002
}
1002
{
1000
NOSEL
1070
     0
1002
}
1002
{
1000
BEHIND
1070
     0
1002
}
1002
{
1000
OTHER
1070
     0
1002
}
1002
{
1000
REACTOR
1002
}
1001
GENIUS_GENOBJ-N-FIL_13
1002
{
1000
OWNER
1000
GEN
1002
}
  0
ARC
  5
A38
330
9EE
100
AcDbEntity
  8
AM_0
100
AcDbCircle
 10
-12.00000000000007
 20
1.958578643762592
 30
0.0
 40
0.4000000000000057
100
AcDbArc
 50
289.4712206344724
 51
0.0
  0
ARC
  5
A39
330
9EE
100
AcDbEntity
  8
AM_0
100
AcDbCircle
 10
-11.80000000000009
 20
1.392893218812843
 30
0.0
 40
0.2
100
AcDbArc
 50
109.4712206344756
 51
180.0
1001
GENIUS_GENODEF_13
1002
{
1000
HIER
1070
     0
1002
}
1002
{
1000
MANEDIT
1070
     0
1002
}
1002
{
1000
NOSEL
1070
     0
1002
}
1002
{
1000
BEHIND
1070
     0
1002
}
1002
{
1000
OTHER
1070
     0
1002
}
1002
{
1000
REACTOR
1002
}
1001
GENIUS_GENOBJ-N-FIL_13
1002
{
1000
OWNER
1000
GEN
1002
}
  0
LINE
  5
A3A
330
9EE
100
AcDbEntity
  8
AM_0
100
AcDbLine
 10
-11.34354462590877
 20
5.412130281212228
 30
0.0
 11
-11.59645537409166
 21
3.525027006309556
 31
0.0
  0
ARC
  5
A3B
330
9EE
100
AcDbEntity
  8
AM_0
100
AcDbCircle
 10
-11.2000000000004
 20
3.471893811843698
 30
0.0
 40
0.4
100
AcDbArc
 50
172.3666694127663
 51
180.0
1001
GENIUS_GENOBJ-N-FIL_13
1002
{
1000
OWNER
1000
GEN
1002
}
1001
GENIUS_GENODEF_13
1002
{
1000
HIER
1070
     0
1002
}
1002
{
1000
MANEDIT
1070
     0
1002
}
1002
{
1000
NOSEL
1070
     0
1002
}
1002
{
1000
BEHIND
1070
     0
1002
}
1002
{
1000
OTHER
1070
     0
1002
}
1002
{
1000
REACTOR
1002
}
  0
ARC
  5
A3C
330
9EE
100
AcDbEntity
  8
AM_0
100
AcDbCircle
 10
-11.74000000000003
 20
5.465263475678084
 30
0.0
 40
0.4
100
AcDbArc
 50
352.3666694127663
 51
0.0
1001
GENIUS_GENOBJ-N-FIL_13
1002
{
1000
OWNER
1000
GEN
1002
}
1001
GENIUS_GENODEF_13
1002
{
1000
HIER
1070
     0
1002
}
1002
{
1000
MANEDIT
1070
     0
1002
}
1002
{
1000
NOSEL
1070
     0
1002
}
1002
{
1000
BEHIND
1070
     0
1002
}
1002
{
1000
OTHER
1070
     0
1002
}
1002
{
1000
REACTOR
1002
}
  0
LINE
  5
A3D
330
9EE
100
AcDbEntity
  8
AM_0
100
AcDbLine
 10
-11.60000000000038
 20
3.471893811843698
 30
0.0
 11
-11.60000000000038
 21
1.958578643762592
 31
0.0
  0
LINE
  5
A3E
330
9EE
100
AcDbEntity
  8
AM_0
100
AcDbLine
 10
-0.4000000000000538
 20
5.038578643762463
 30
0.0
 11
-0.4000000000000538
 21
3.525263475678685
 31
0.0
  0
LINE
  5
A3F
330
9EE
100
AcDbEntity
  8
AM_0
100
AcDbLine
 10
-0.4035446259087704
 20
3.472130281212856
 30
0.0
 11
-0.6564553740913848
 21
1.585027006310979
 31
0.0
  0
ARC
  5
A40
330
9EE
100
AcDbEntity
  8
AM_0
100
AcDbCircle
 10
-0.8000000000000309
 20
3.525263475678685
 30
0.0
 40
0.4
100
AcDbArc
 50
352.3666694127705
 51
0.0
1001
GENIUS_GENODEF_13
1002
{
1000
HIER
1070
     0
1002
}
1002
{
1000
MANEDIT
1070
     0
1002
}
1002
{
1000
NOSEL
1070
     0
1002
}
1002
{
1000
BEHIND
1070
     0
1002
}
1002
{
1000
OTHER
1070
     0
1002
}
1002
{
1000
REACTOR
1002
}
1001
GENIUS_GENOBJ-N-FIL_13
1002
{
1000
OWNER
1000
GEN
1002
}
  0
CIRCLE
  5
A41
330
9EE
100
AcDbEntity
  8
AM_0
100
AcDbCircle
 10
-6.000000000000018
 20
3.498578643762186
 30
0.0
 40
2.25
  0
ENDBLK
  5
9F0
330
9EE
100
AcDbEntity
  8
0
100
AcDbBlockEnd
  0
BLOCK
  5
1395
330
136E
100
AcDbEntity
  8
0
100
AcDbBlockBegin
  2
*D5
 70
     1
 10
0.0
 20
0.0
 30
0.0
  3
*D5
  1

  0
LINE
  5
1F8A
330
136E
100
AcDbEntity
  8
AM_5
 62
     3
100
AcDbLine
 10
-40.10000000000006
 20
121.7448783700201
 30
0.0
 11
-47.15871578168657
 21
121.7448783700201
 31
0.0
  0
LINE
  5
1F8B
330
136E
100
AcDbEntity
  8
AM_5
 62
     3
100
AcDbLine
 10
-40.10000000000005
 20
111.3448783700201
 30
0.0
 11
-47.15871578168658
 21
111.3448783700201
 31
0.0
  0
LINE
  5
1F8C
330
136E
100
AcDbEntity
  8
AM_5
 62
     3
100
AcDbLine
 10
-46.65871578168657
 20
119.2448783700201
 30
0.0
 11
-46.65871578168657
 21
113.8448783700201
 31
0.0
  0
INSERT
  5
1F8D
330
136E
100
AcDbEntity
  8
AM_5
 62
     3
100
AcDbBlockReference
  2
_Open30
 10
-46.65871578168657
 20
121.7448783700201
 30
0.0
 41
2.5
 42
2.5
 43
2.5
 50
90.0
  0
INSERT
  5
1F8E
330
136E
100
AcDbEntity
  8
AM_5
 62
     3
100
AcDbBlockReference
  2
_Open30
 10
-46.65871578168657
 20
111.3448783700201
 30
0.0
 41
2.5
 42
2.5
 43
2.5
 50
270.0
  0
MTEXT
  5
1F8F
330
136E
100
AcDbEntity
  8
AM_5
 62
     2
100
AcDbMText
 10
-49.35871578168659
 20
116.5448783700201
 30
0.0
 40
3.399999999999999
 41
0.0
 71
     5
 72
     1
  1
10.4
 11
0.0000000000000001
 21
1.0
 31
0.0
 73
     1
 44
1.0
  0
POINT
  5
1F90
330
136E
100
AcDbEntity
  8
Defpoints
 62
     0
100
AcDbPoint
 10
-40.00000000000006
 20
121.7448783700201
 30
0.0
  0
POINT
  5
1F91
330
136E
100
AcDbEntity
  8
Defpoints
 62
     0
100
AcDbPoint
 10
-40.00000000000005
 20
111.3448783700201
 30
0.0
  0
POINT
  5
1F92
330
136E
100
AcDbEntity
  8
Defpoints
 62
     0
100
AcDbPoint
 10
-46.65871578168657
 20
111.3448783700201
 30
0.0
  0
ENDBLK
  5
1396
330
136E
100
AcDbEntity
  8
0
100
AcDbBlockEnd
  0
BLOCK
  5
1397
330
1378
100
AcDbEntity
  8
0
100
AcDbBlockBegin
  2
*D6
 70
     1
 10
0.0
 20
0.0
 30
0.0
  3
*D6
  1

  0
LINE
  5
1F81
330
1378
100
AcDbEntity
  8
AM_5
 62
     3
100
AcDbLine
 10
-40.10000000000006
 20
127.5448783700201
 30
0.0
 11
-55.16120615296617
 21
127.5448783700201
 31
0.0
  0
LINE
  5
1F82
330
1378
100
AcDbEntity
  8
AM_5
 62
     3
100
AcDbLine
 10
-40.10000000000005
 20
105.5448783700201
 30
0.0
 11
-55.16120615296618
 21
105.5448783700201
 31
0.0
  0
LINE
  5
1F83
330
1378
100
AcDbEntity
  8
AM_5
 62
     3
100
AcDbLine
 10
-54.66120615296617
 20
125.0448783700201
 30
0.0
 11
-54.66120615296617
 21
108.0448783700201
 31
0.0
  0
INSERT
  5
1F84
330
1378
100
AcDbEntity
  8
AM_5
 62
     3
100
AcDbBlockReference
  2
_Open30
 10
-54.66120615296617
 20
127.5448783700201
 30
0.0
 41
2.5
 42
2.5
 43
2.5
 50
90.0
  0
INSERT
  5
1F85
330
1378
100
AcDbEntity
  8
AM_5
 62
     3
100
AcDbBlockReference
  2
_Open30
 10
-54.66120615296617
 20
105.5448783700201
 30
0.0
 41
2.5
 42
2.5
 43
2.5
 50
270.0
  0
MTEXT
  5
1F86
330
1378
100
AcDbEntity
  8
AM_5
 62
     2
100
AcDbMText
 10
-57.36154079863548
 20
116.5448783700201
 30
0.0
 40
3.399999999999999
 41
0.0
 71
     5
 72
     1
  1
%%c22
 11
0.0000000000000001
 21
1.0
 31
0.0
 73
     1
 44
1.0
  0
POINT
  5
1F87
330
1378
100
AcDbEntity
  8
Defpoints
 62
     0
100
AcDbPoint
 10
-40.00000000000006
 20
127.5448783700201
 30
0.0
  0
POINT
  5
1F88
330
1378
100
AcDbEntity
  8
Defpoints
 62
     0
100
AcDbPoint
 10
-40.00000000000005
 20
105.5448783700201
 30
0.0
  0
POINT
  5
1F89
330
1378
100
AcDbEntity
  8
Defpoints
 62
     0
100
AcDbPoint
 10
-54.66120615296617
 20
105.5448783700201
 30
0.0
  0
ENDBLK
  5
1398
330
1378
100
AcDbEntity
  8
0
100
AcDbBlockEnd
  0
BLOCK
  5
1399
330
138B
100
AcDbEntity
  8
0
100
AcDbBlockBegin
  2
*D7
 70
     1
 10
0.0
 20
0.0
 30
0.0
  3
*D7
  1

  0
LINE
  5
1F93
330
138B
100
AcDbEntity
  8
AM_5
 62
     3
100
AcDbLine
 10
-13.90000000000007
 20
122.0448783700201
 30
0.0
 11
12.00027462233424
 21
122.0448783700201
 31
0.0
  0
LINE
  5
1F94
330
138B
100
AcDbEntity
  8
AM_5
 62
     3
100
AcDbLine
 10
-13.90000000000008
 20
111.0448783700201
 30
0.0
 11
12.00027462233424
 21
111.0448783700201
 31
0.0
  0
LINE
  5
1F95
330
138B
100
AcDbEntity
  8
AM_5
 62
     3
100
AcDbLine
 10
11.50027462233424
 20
119.5448783700201
 30
0.0
 11
11.50027462233424
 21
113.5448783700201
 31
0.0
  0
INSERT
  5
1F96
330
138B
100
AcDbEntity
  8
AM_5
 62
     3
100
AcDbBlockReference
  2
_Open30
 10
11.50027462233424
 20
122.0448783700201
 30
0.0
 41
2.5
 42
2.5
 43
2.5
 50
90.0
  0
INSERT
  5
1F97
330
138B
100
AcDbEntity
  8
AM_5
 62
     3
100
AcDbBlockReference
  2
_Open30
 10
11.50027462233424
 20
111.0448783700201
 30
0.0
 41
2.5
 42
2.5
 43
2.5
 50
270.0
  0
MTEXT
  5
1F98
330
138B
100
AcDbEntity
  8
AM_5
 62
     2
100
AcDbMText
 10
8.800274622334223
 20
116.5448783700201
 30
0.0
 40
3.399999999999999
 41
0.0
 71
     5
 72
     1
  1
%%c11
 11
0.0000000000000001
 21
1.0
 31
0.0
 73
     1
 44
1.0
  0
POINT
  5
1F99
330
138B
100
AcDbEntity
  8
Defpoints
 62
     0
100
AcDbPoint
 10
-14.00000000000007
 20
122.0448783700201
 30
0.0
  0
POINT
  5
1F9A
330
138B
100
AcDbEntity
  8
Defpoints
 62
     0
100
AcDbPoint
 10
-14.00000000000008
 20
111.0448783700201
 30
0.0
  0
POINT
  5
1F9B
330
138B
100
AcDbEntity
  8
Defpoints
 62
     0
100
AcDbPoint
 10
11.50027462233424
 20
111.0448783700201
 30
0.0
  0
ENDBLK
  5
139A
330
138B
100
AcDbEntity
  8
0
100
AcDbBlockEnd
  0
BLOCK
  5
14E4
330
14C3
100
AcDbEntity
  8
0
100
AcDbBlockBegin
  2
*D8
 70
     1
 10
0.0
 20
0.0
 30
0.0
  3
*D8
  1

  0
LINE
  5
1F9C
330
14C3
100
AcDbEntity
  8
AM_5
 62
     3
100
AcDbLine
 10
-33.70000000000004
 20
111.2448783700201
 30
0.0
 11
-33.70000000000004
 21
87.1295365968943
 31
0.0
  0
LINE
  5
1F9D
330
14C3
100
AcDbEntity
  8
AM_5
 62
     3
100
AcDbLine
 10
-40.00000000000006
 20
98.64487837002013
 30
0.0
 11
-40.00000000000006
 21
87.1295365968943
 31
0.0
  0
LINE
  5
1F9E
330
14C3
100
AcDbEntity
  8
AM_5
 62
     3
100
AcDbLine
 10
-31.20000000000004
 20
87.62953659689429
 30
0.0
 11
-28.70000000000004
 21
87.62953659689429
 31
0.0
  0
LINE
  5
1F9F
330
14C3
100
AcDbEntity
  8
AM_5
 62
     3
100
AcDbLine
 10
-42.50000000000006
 20
87.62953659689429
 30
0.0
 11
-52.10429717813605
 21
87.62953659689429
 31
0.0
  0
LINE
  5
1FA0
330
14C3
100
AcDbEntity
  8
AM_5
 62
     3
100
AcDbLine
 10
-33.70000000000004
 20
87.62953659689429
 30
0.0
 11
-40.00000000000006
 21
87.62953659689429
 31
0.0
  0
INSERT
  5
1FA1
330
14C3
100
AcDbEntity
  8
AM_5
 62
     3
100
AcDbBlockReference
  2
_Open30
 10
-33.70000000000004
 20
87.62953659689429
 30
0.0
 41
2.5
 42
2.5
 43
2.5
 50
180.0
  0
INSERT
  5
1FA2
330
14C3
100
AcDbEntity
  8
AM_5
 62
     3
100
AcDbBlockReference
  2
_Open30
 10
-40.00000000000006
 20
87.62953659689429
 30
0.0
 41
2.5
 42
2.5
 43
2.5
  0
MTEXT
  5
1FA3
330
14C3
100
AcDbEntity
  8
AM_5
 62
     2
100
AcDbMText
 10
-48.55214858906805
 20
90.32953659689431
 30
0.0
 40
3.399999999999999
 41
0.0
 71
     5
 72
     1
  1
6.3
 73
     1
 44
1.0
  0
POINT
  5
1FA4
330
14C3
100
AcDbEntity
  8
Defpoints
 62
     0
100
AcDbPoint
 10
-33.70000000000004
 20
111.3448783700201
 30
0.0
  0
POINT
  5
1FA5
330
14C3
100
AcDbEntity
  8
Defpoints
 62
     0
100
AcDbPoint
 10
-40.00000000000006
 20
98.74487837002012
 30
0.0
  0
POINT
  5
1FA6
330
14C3
100
AcDbEntity
  8
Defpoints
 62
     0
100
AcDbPoint
 10
-40.00000000000006
 20
87.62953659689429
 30
0.0
  0
ENDBLK
  5
14E5
330
14C3
100
AcDbEntity
  8
0
100
AcDbBlockEnd
  0
BLOCK
  5
14E6
330
14CF
100
AcDbEntity
  8
0
100
AcDbBlockBegin
  2
*D9
 70
     1
 10
0.0
 20
0.0
 30
0.0
  3
*D9
  1

  0
LINE
  5
1FA7
330
14CF
100
AcDbEntity
  8
AM_5
 62
     3
100
AcDbLine
 10
-20.00000000000008
 20
105.2948783700201
 30
0.0
 11
-20.00000000000008
 21
79.12953659689432
 31
0.0
  0
LINE
  5
1FA8
330
14CF
100
AcDbEntity
  8
AM_5
 62
     3
100
AcDbLine
 10
-40.00000000000007
 20
98.64487837002013
 30
0.0
 11
-40.00000000000007
 21
79.12953659689432
 31
0.0
  0
LINE
  5
1FA9
330
14CF
100
AcDbEntity
  8
AM_5
 62
     3
100
AcDbLine
 10
-22.50000000000008
 20
79.62953659689432
 30
0.0
 11
-37.50000000000007
 21
79.62953659689432
 31
0.0
  0
INSERT
  5
1FAA
330
14CF
100
AcDbEntity
  8
AM_5
 62
     3
100
AcDbBlockReference
  2
_Open30
 10
-20.00000000000008
 20
79.62953659689432
 30
0.0
 41
2.5
 42
2.5
 43
2.5
  0
INSERT
  5
1FAB
330
14CF
100
AcDbEntity
  8
AM_5
 62
     3
100
AcDbBlockReference
  2
_Open30
 10
-40.00000000000007
 20
79.62953659689432
 30
0.0
 41
2.5
 42
2.5
 43
2.5
 50
180.0
  0
MTEXT
  5
1FAC
330
14CF
100
AcDbEntity
  8
AM_5
 62
     2
100
AcDbMText
 10
-30.00000000000007
 20
82.32987124256361
 30
0.0
 40
3.399999999999999
 41
0.0
 71
     5
 72
     1
  1
20
 73
     1
 44
1.0
  0
POINT
  5
1FAD
330
14CF
100
AcDbEntity
  8
Defpoints
 62
     0
100
AcDbPoint
 10
-20.00000000000008
 20
105.3948783700201
 30
0.0
  0
POINT
  5
1FAE
330
14CF
100
AcDbEntity
  8
Defpoints
 62
     0
100
AcDbPoint
 10
-40.00000000000007
 20
98.74487837002012
 30
0.0
  0
POINT
  5
1FAF
330
14CF
100
AcDbEntity
  8
Defpoints
 62
     0
100
AcDbPoint
 10
-40.00000000000007
 20
79.62953659689432
 30
0.0
  0
ENDBLK
  5
14E7
330
14CF
100
AcDbEntity
  8
0
100
AcDbBlockEnd
  0
BLOCK
  5
1555
330
1540
100
AcDbEntity
  8
0
100
AcDbBlockBegin
  2
*D10
 70
     1
 10
0.0
 20
0.0
 30
0.0
  3
*D10
  1

  0
LINE
  5
1FB0
330
1540
100
AcDbEntity
  8
AM_5
 62
     3
100
AcDbLine
 10
-40.00000000000005
 20
134.7995789100201
 30
0.0
 11
-40.00000000000005
 21
158.4988103968863
 31
0.0
  0
LINE
  5
1FB1
330
1540
100
AcDbEntity
  8
AM_5
 62
     3
100
AcDbLine
 10
-0.0000000000000444
 20
144.9698783700201
 30
0.0
 11
-0.0000000000000436
 21
158.4988103968863
 31
0.0
  0
LINE
  5
1FB2
330
1540
100
AcDbEntity
  8
AM_5
 62
     3
100
AcDbLine
 10
-37.50000000000005
 20
157.9988103968863
 30
0.0
 11
-2.500000000000043
 21
157.9988103968863
 31
0.0
  0
INSERT
  5
1FB3
330
1540
100
AcDbEntity
  8
AM_5
 62
     3
100
AcDbBlockReference
  2
_Open30
 10
-40.00000000000005
 20
157.9988103968863
 30
0.0
 41
2.5
 42
2.5
 43
2.5
 50
180.0
  0
INSERT
  5
1FB4
330
1540
100
AcDbEntity
  8
AM_5
 62
     3
100
AcDbBlockReference
  2
_Open30
 10
-0.0000000000000436
 20
157.9988103968863
 30
0.0
 41
2.5
 42
2.5
 43
2.5
  0
MTEXT
  5
1FB5
330
1540
100
AcDbEntity
  8
AM_5
 62
     2
100
AcDbMText
 10
-20.00000000000005
 20
160.6988103968863
 30
0.0
 40
3.399999999999999
 41
0.0
 71
     5
 72
     1
  1
40
 73
     1
 44
1.0
  0
POINT
  5
1FB6
330
1540
100
AcDbEntity
  8
Defpoints
 62
     0
100
AcDbPoint
 10
-40.00000000000005
 20
134.6995789100201
 30
0.0
  0
POINT
  5
1FB7
330
1540
100
AcDbEntity
  8
Defpoints
 62
     0
100
AcDbPoint
 10
-0.0000000000000444
 20
144.8698783700201
 30
0.0
  0
POINT
  5
1FB8
330
1540
100
AcDbEntity
  8
Defpoints
 62
     0
100
AcDbPoint
 10
-0.0000000000000436
 20
157.9988103968863
 30
0.0
  0
ENDBLK
  5
1556
330
1540
100
AcDbEntity
  8
0
100
AcDbBlockEnd
  0
BLOCK
  5
1BBF
330
1B9E
100
AcDbEntity
  8
0
100
AcDbBlockBegin
  2
*D11
 70
     1
 10
0.0
 20
0.0
 30
0.0
  3
*D11
  1

  0
LINE
  5
1FB9
330
1B9E
100
AcDbEntity
  8
AM_5
 62
     3
100
AcDbLine
 10
-33.60000000000005
 20
136.5448783700201
 30
0.0
 11
-63.16120615296616
 21
136.5448783700201
 31
0.0
  0
LINE
  5
1FBA
330
1B9E
100
AcDbEntity
  8
AM_5
 62
     3
100
AcDbLine
 10
-33.80000000000004
 20
96.54487837002012
 30
0.0
 11
-63.16120615296617
 21
96.54487837002012
 31
0.0
  0
LINE
  5
1FBB
330
1B9E
100
AcDbEntity
  8
AM_5
 62
     3
100
AcDbLine
 10
-62.66120615296617
 20
134.0448783700201
 30
0.0
 11
-62.66120615296618
 21
99.04487837002012
 31
0.0
  0
INSERT
  5
1FBC
330
1B9E
100
AcDbEntity
  8
AM_5
 62
     3
100
AcDbBlockReference
  2
_Open30
 10
-62.66120615296617
 20
136.5448783700201
 30
0.0
 41
2.5
 42
2.5
 43
2.5
 50
90.0
  0
INSERT
  5
1FBD
330
1B9E
100
AcDbEntity
  8
AM_5
 62
     3
100
AcDbBlockReference
  2
_Open30
 10
-62.66120615296618
 20
96.54487837002012
 30
0.0
 41
2.5
 42
2.5
 43
2.5
 50
270.0
  0
MTEXT
  5
1FBE
330
1B9E
100
AcDbEntity
  8
AM_5
 62
     2
100
AcDbMText
 10
-65.36120615296617
 20
116.5448783700201
 30
0.0
 40
3.399999999999999
 41
0.0
 71
     5
 72
     1
  1
%%c40
 11
0.0000000000000001
 21
1.0
 31
0.0
 73
     1
 44
1.0
  0
POINT
  5
1FBF
330
1B9E
100
AcDbEntity
  8
Defpoints
 62
     0
100
AcDbPoint
 10
-33.50000000000005
 20
136.5448783700201
 30
0.0
  0
POINT
  5
1FC0
330
1B9E
100
AcDbEntity
  8
Defpoints
 62
     0
100
AcDbPoint
 10
-33.70000000000004
 20
96.54487837002012
 30
0.0
  0
POINT
  5
1FC1
330
1B9E
100
AcDbEntity
  8
Defpoints
 62
     0
100
AcDbPoint
 10
-62.66120615296618
 20
96.54487837002012
 30
0.0
  0
ENDBLK
  5
1BC0
330
1B9E
100
AcDbEntity
  8
0
100
AcDbBlockEnd
  0
BLOCK
  5
1C7B
330
1C54
100
AcDbEntity
  8
0
100
AcDbBlockBegin
  2
*D12
 70
     1
 10
0.0
 20
0.0
 30
0.0
  3
*D12
  1

  0
LINE
  5
1FC2
330
1C54
100
AcDbEntity
  8
AM_5
 62
     3
100
AcDbLine
 10
-13.90000000000007
 20
125.5448783700201
 30
0.0
 11
19.42444872107921
 21
125.5448783700201
 31
0.0
  0
LINE
  5
1FC3
330
1C54
100
AcDbEntity
  8
AM_5
 62
     3
100
AcDbLine
 10
-10.5149545762237
 20
107.5448783700201
 30
0.0
 11
19.42444872107921
 21
107.5448783700201
 31
0.0
  0
LINE
  5
1FC4
330
1C54
100
AcDbEntity
  8
AM_5
 62
     3
100
AcDbLine
 10
18.92444872107921
 20
123.0448783700201
 30
0.0
 11
18.92444872107921
 21
110.0448783700201
 31
0.0
  0
INSERT
  5
1FC5
330
1C54
100
AcDbEntity
  8
AM_5
 62
     3
100
AcDbBlockReference
  2
_Open30
 10
18.92444872107921
 20
125.5448783700201
 30
0.0
 41
2.5
 42
2.5
 43
2.5
 50
90.0
  0
INSERT
  5
1FC6
330
1C54
100
AcDbEntity
  8
AM_5
 62
     3
100
AcDbBlockReference
  2
_Open30
 10
18.92444872107921
 20
107.5448783700201
 30
0.0
 41
2.5
 42
2.5
 43
2.5
 50
270.0
  0
MTEXT
  5
1FC7
330
1C54
100
AcDbEntity
  8
AM_5
 62
     2
100
AcDbMText
 10
16.22444872107919
 20
116.5448783700201
 30
0.0
 40
3.399999999999999
 41
0.0
 71
     5
 72
     1
  1
%%c18
 11
0.0000000000000001
 21
1.0
 31
0.0
 73
     1
 44
1.0
  0
POINT
  5
1FC8
330
1C54
100
AcDbEntity
  8
Defpoints
 62
     0
100
AcDbPoint
 10
-14.00000000000007
 20
125.5448783700201
 30
0.0
  0
POINT
  5
1FC9
330
1C54
100
AcDbEntity
  8
Defpoints
 62
     0
100
AcDbPoint
 10
-10.6149545762237
 20
107.5448783700201
 30
0.0
  0
POINT
  5
1FCA
330
1C54
100
AcDbEntity
  8
Defpoints
 62
     0
100
AcDbPoint
 10
18.92444872107921
 20
107.5448783700201
 30
0.0
  0
ENDBLK
  5
1C7C
330
1C54
100
AcDbEntity
  8
0
100
AcDbBlockEnd
  0
BLOCK
  5
2050
330
202F
100
AcDbEntity
  8
0
100
AcDbBlockBegin
  2
*D15
 70
     1
 10
0.0
 20
0.0
 30
0.0
  3
*D15
  1

  0
LINE
  5
2249
330
202F
100
AcDbEntity
  8
AM_5
 62
     3
100
AcDbLine
 10
-0.6999999999999936
 20
107.4813981077152
 30
0.0
 11
26.22555573850933
 21
107.4813981077152
 31
0.0
  0
LINE
  5
224A
330
202F
100
AcDbEntity
  8
AM_5
 62
     3
100
AcDbLine
 10
-3.670698067686055
 20
-40.00000000000001
 30
0.0
 11
26.22555573850929
 21
-40.00000000000002
 31
0.0
  0
LINE
  5
224B
330
202F
100
AcDbEntity
  8
AM_5
 62
     3
100
AcDbLine
 10
25.72555573850932
 20
104.9813981077152
 30
0.0
 11
25.72555573850929
 21
-37.50000000000002
 31
0.0
  0
INSERT
  5
224C
330
202F
100
AcDbEntity
  8
AM_5
 62
     3
100
AcDbBlockReference
  2
_Open30
 10
25.72555573850932
 20
107.4813981077152
 30
0.0
 41
2.5
 42
2.5
 43
2.5
 50
90.0
  0
INSERT
  5
224D
330
202F
100
AcDbEntity
  8
AM_5
 62
     3
100
AcDbBlockReference
  2
_Open30
 10
25.72555573850929
 20
-40.00000000000002
 30
0.0
 41
2.5
 42
2.5
 43
2.5
 50
270.0
  0
MTEXT
  5
224E
330
202F
100
AcDbEntity
  8
AM_5
 62
     2
100
AcDbMText
 10
23.02555573850931
 20
33.74069905385761
 30
0.0
 40
3.399999999999999
 41
0.0
 71
     5
 72
     1
  1
%%c147
 11
0.0000000000000001
 21
1.0
 31
0.0
 73
     1
 44
1.0
  0
POINT
  5
224F
330
202F
100
AcDbEntity
  8
Defpoints
 62
     0
100
AcDbPoint
 10
-0.7999999999999936
 20
107.4813981077152
 30
0.0
  0
POINT
  5
2250
330
202F
100
AcDbEntity
  8
Defpoints
 62
     0
100
AcDbPoint
 10
-3.770698067686055
 20
-40.00000000000001
 30
0.0
  0
POINT
  5
2251
330
202F
100
AcDbEntity
  8
Defpoints
 62
     0
100
AcDbPoint
 10
25.72555573850929
 20
-40.00000000000002
 30
0.0
  0
ENDBLK
  5
2051
330
202F
100
AcDbEntity
  8
0
100
AcDbBlockEnd
  0
BLOCK
  5
207E
330
2066
100
AcDbEntity
  8
0
100
AcDbBlockBegin
  2
*D16
 70
     1
 10
0.0
 20
0.0
 30
0.0
  3
*D16
  1

  0
LINE
  5
2072
330
2066
100
AcDbEntity
  8
AM_5
 62
     3
100
AcDbLine
 10
-50.0
 20
9.734872163047246
 30
0.0
 11
-50.0
 21
49.32499999999999
 31
0.0
  0
LINE
  5
2073
330
2066
100
AcDbEntity
  8
AM_5
 62
     3
100
AcDbLine
 10
0.0000000000000034
 20
36.92499999999999
 30
0.0
 11
0.0000000000000041
 21
49.32499999999999
 31
0.0
  0
LINE
  5
2074
330
2066
100
AcDbEntity
  8
AM_5
 62
     3
100
AcDbLine
 10
-47.49999999999999
 20
48.82499999999999
 30
0.0
 11
-2.499999999999996
 21
48.82499999999999
 31
0.0
  0
INSERT
  5
2075
330
2066
100
AcDbEntity
  8
AM_5
 62
     3
100
AcDbBlockReference
  2
_Open30
 10
-50.0
 20
48.82499999999999
 30
0.0
 41
2.5
 42
2.5
 43
2.5
 50
180.0
  0
INSERT
  5
2076
330
2066
100
AcDbEntity
  8
AM_5
 62
     3
100
AcDbBlockReference
  2
_Open30
 10
0.0000000000000041
 20
48.82499999999999
 30
0.0
 41
2.5
 42
2.5
 43
2.5
  0
MTEXT
  5
2077
330
2066
100
AcDbEntity
  8
AM_5
 62
     2
100
AcDbMText
 10
-25.0
 20
51.52499999999999
 30
0.0
 40
3.399999999999999
 41
0.0
 71
     5
 72
     1
  1
50
 73
     1
 44
1.0
  0
POINT
  5
2078
330
2066
100
AcDbEntity
  8
Defpoints
 62
     0
100
AcDbPoint
 10
-50.0
 20
9.634872163047246
 30
0.0
  0
POINT
  5
2079
330
2066
100
AcDbEntity
  8
Defpoints
 62
     0
100
AcDbPoint
 10
0.0000000000000033
 20
36.82499999999999
 30
0.0
  0
POINT
  5
207A
330
2066
100
AcDbEntity
  8
Defpoints
 62
     0
100
AcDbPoint
 10
0.0000000000000041
 20
48.82499999999999
 30
0.0
  0
ENDBLK
  5
207F
330
2066
100
AcDbEntity
  8
0
100
AcDbBlockEnd
  0
BLOCK
  5
20AD
330
2091
100
AcDbEntity
  8
0
100
AcDbBlockBegin
  2
*D17
 70
     1
 10
0.0
 20
0.0
 30
0.0
  3
*D17
  1

  0
LINE
  5
209F
330
2091
100
AcDbEntity
  8
AM_5
 62
     3
100
AcDbLine
 10
-50.0
 20
-9.883923091873418
 30
0.0
 11
-50.0
 21
-40.50000100000001
 31
0.0
  0
LINE
  5
20A0
330
2091
100
AcDbEntity
  8
AM_5
 62
     3
100
AcDbLine
 10
-44.0
 20
-4.850000000000001
 30
0.0
 11
-44.0
 21
-40.50000100000001
 31
0.0
  0
LINE
  5
20A1
330
2091
100
AcDbEntity
  8
AM_5
 62
     3
100
AcDbLine
 10
-52.5
 20
-40.00000100000002
 30
0.0
 11
-55.0
 21
-40.00000100000002
 31
0.0
  0
LINE
  5
20A2
330
2091
100
AcDbEntity
  8
AM_5
 62
     3
100
AcDbLine
 10
-41.5
 20
-40.00000100000002
 30
0.0
 11
-39.0
 21
-40.00000100000002
 31
0.0
  0
LINE
  5
20A3
330
2091
100
AcDbEntity
  8
AM_5
 62
     3
100
AcDbLine
 10
-50.0
 20
-40.00000100000002
 30
0.0
 11
-44.0
 21
-40.00000100000002
 31
0.0
  0
INSERT
  5
20A4
330
2091
100
AcDbEntity
  8
AM_5
 62
     3
100
AcDbBlockReference
  2
_Open30
 10
-50.0
 20
-40.00000100000002
 30
0.0
 41
2.5
 42
2.5
 43
2.5
  0
INSERT
  5
20A5
330
2091
100
AcDbEntity
  8
AM_5
 62
     3
100
AcDbBlockReference
  2
_Open30
 10
-44.0
 20
-40.00000100000002
 30
0.0
 41
2.5
 42
2.5
 43
2.5
 50
180.0
  0
MTEXT
  5
20A6
330
2091
100
AcDbEntity
  8
AM_5
 62
     2
100
AcDbMText
 10
-47.0
 20
-37.30000100000002
 30
0.0
 40
3.399999999999999
 41
0.0
 71
     5
 72
     1
  1
6
 73
     1
 44
1.0
  0
POINT
  5
20A7
330
2091
100
AcDbEntity
  8
Defpoints
 62
     0
100
AcDbPoint
 10
-50.0
 20
-9.783923091873418
 30
0.0
  0
POINT
  5
20A8
330
2091
100
AcDbEntity
  8
Defpoints
 62
     0
100
AcDbPoint
 10
-44.0
 20
-4.750000000000001
 30
0.0
  0
POINT
  5
20A9
330
2091
100
AcDbEntity
  8
Defpoints
 62
     0
100
AcDbPoint
 10
-44.0
 20
-40.00000100000002
 30
0.0
  0
ENDBLK
  5
20AE
330
2091
100
AcDbEntity
  8
0
100
AcDbBlockEnd
  0
BLOCK
  5
20D7
330
20BF
100
AcDbEntity
  8
0
100
AcDbBlockBegin
  2
*D18
 70
     1
 10
0.0
 20
0.0
 30
0.0
  3
*D18
  1

  0
LINE
  5
2240
330
20BF
100
AcDbEntity
  8
AM_5
 62
     3
100
AcDbLine
 10
-50.0
 20
-9.983923091873418
 30
0.0
 11
-50.0
 21
-48.50000099999999
 31
0.0
  0
LINE
  5
2241
330
20BF
100
AcDbEntity
  8
AM_5
 62
     3
100
AcDbLine
 10
-25.0
 20
-9.983923091873418
 30
0.0
 11
-25.0
 21
-48.50000099999999
 31
0.0
  0
LINE
  5
2242
330
20BF
100
AcDbEntity
  8
AM_5
 62
     3
100
AcDbLine
 10
-47.49999999999999
 20
-48.000001
 30
0.0
 11
-27.5
 21
-48.000001
 31
0.0
  0
INSERT
  5
2243
330
20BF
100
AcDbEntity
  8
AM_5
 62
     3
100
AcDbBlockReference
  2
_Open30
 10
-50.0
 20
-48.000001
 30
0.0
 41
2.5
 42
2.5
 43
2.5
 50
180.0
  0
INSERT
  5
2244
330
20BF
100
AcDbEntity
  8
AM_5
 62
     3
100
AcDbBlockReference
  2
_Open30
 10
-25.0
 20
-48.000001
 30
0.0
 41
2.5
 42
2.5
 43
2.5
  0
MTEXT
  5
2245
330
20BF
100
AcDbEntity
  8
AM_5
 62
     2
100
AcDbMText
 10
-37.5
 20
-45.29966635433071
 30
0.0
 40
3.399999999999999
 41
0.0
 71
     5
 72
     1
  1
25
 73
     1
 44
1.0
  0
POINT
  5
2246
330
20BF
100
AcDbEntity
  8
Defpoints
 62
     0
100
AcDbPoint
 10
-50.0
 20
-9.883923091873418
 30
0.0
  0
POINT
  5
2247
330
20BF
100
AcDbEntity
  8
Defpoints
 62
     0
100
AcDbPoint
 10
-25.0
 20
-9.883923091873418
 30
0.0
  0
POINT
  5
2248
330
20BF
100
AcDbEntity
  8
Defpoints
 62
     0
100
AcDbPoint
 10
-25.0
 20
-48.000001
 30
0.0
  0
ENDBLK
  5
20D8
330
20BF
100
AcDbEntity
  8
0
100
AcDbBlockEnd
  0
BLOCK
  5
2142
330
20F4
100
AcDbEntity
  8
0
100
AcDbBlockBegin
  2
*D19
 70
     1
 10
0.0
 20
0.0
 30
0.0
  3
*D19
  1

  0
LINE
  5
2109
330
20F4
100
AcDbEntity
  8
AM_5
 62
     3
100
AcDbLine
 10
-48.79999999999999
 20
4.75
 30
0.0
 11
-61.2
 21
4.750000000000003
 31
0.0
  0
LINE
  5
210A
330
20F4
100
AcDbEntity
  8
AM_5
 62
     3
100
AcDbLine
 10
-48.79999999999999
 20
-4.750000000000001
 30
0.0
 11
-61.2
 21
-4.749999999999998
 31
0.0
  0
LINE
  5
210B
330
20F4
100
AcDbEntity
  8
AM_5
 62
     3
100
AcDbLine
 10
-60.7
 20
2.250000000000003
 30
0.0
 11
-60.7
 21
-2.249999999999998
 31
0.0
  0
INSERT
  5
210C
330
20F4
100
AcDbEntity
  8
AM_5
 62
     3
100
AcDbBlockReference
  2
_Open30
 10
-60.7
 20
4.750000000000003
 30
0.0
 41
2.5
 42
2.5
 43
2.5
 50
90.0
  0
INSERT
  5
210D
330
20F4
100
AcDbEntity
  8
AM_5
 62
     3
100
AcDbBlockReference
  2
_Open30
 10
-60.7
 20
-4.749999999999998
 30
0.0
 41
2.5
 42
2.5
 43
2.5
 50
270.0
  0
MTEXT
  5
210E
330
20F4
100
AcDbEntity
  8
AM_5
 62
     2
100
AcDbMText
 10
-63.39999999999999
 20
-0.0000000000000066
 30
0.0
 40
3.399999999999999
 41
0.0
 71
     5
 72
     1
  1
9.5
 11
0.0000000000000001
 21
1.0
 31
0.0
 73
     1
 44
1.0
  0
POINT
  5
210F
330
20F4
100
AcDbEntity
  8
Defpoints
 62
     0
100
AcDbPoint
 10
-48.7
 20
4.75
 30
0.0
  0
POINT
  5
2110
330
20F4
100
AcDbEntity
  8
Defpoints
 62
     0
100
AcDbPoint
 10
-48.7
 20
-4.750000000000001
 30
0.0
  0
POINT
  5
2111
330
20F4
100
AcDbEntity
  8
Defpoints
 62
     0
100
AcDbPoint
 10
-60.7
 20
-4.749999999999998
 30
0.0
  0
ENDBLK
  5
2143
330
20F4
100
AcDbEntity
  8
0
100
AcDbBlockEnd
  0
BLOCK
  5
2144
330
2121
100
AcDbEntity
  8
0
100
AcDbBlockBegin
  2
*D20
 70
     1
 10
0.0
 20
0.0
 30
0.0
  3
*D20
  1

  0
LINE
  5
2147
330
2121
100
AcDbEntity
  8
AM_5
 62
     3
100
AcDbLine
 10
-45.38680855637236
 20
12.7
 30
0.0
 11
-69.19999999999999
 21
12.7
 31
0.0
  0
LINE
  5
2148
330
2121
100
AcDbEntity
  8
AM_5
 62
     3
100
AcDbLine
 10
-45.38680855637236
 20
-12.7
 30
0.0
 11
-69.19999999999999
 21
-12.7
 31
0.0
  0
LINE
  5
2149
330
2121
100
AcDbEntity
  8
AM_5
 62
     3
100
AcDbLine
 10
-68.69999999999999
 20
10.2
 30
0.0
 11
-68.69999999999999
 21
-10.2
 31
0.0
  0
INSERT
  5
214A
330
2121
100
AcDbEntity
  8
AM_5
 62
     3
100
AcDbBlockReference
  2
_Open30
 10
-68.69999999999999
 20
12.7
 30
0.0
 41
2.5
 42
2.5
 43
2.5
 50
90.0
  0
INSERT
  5
214B
330
2121
100
AcDbEntity
  8
AM_5
 62
     3
100
AcDbBlockReference
  2
_Open30
 10
-68.69999999999999
 20
-12.7
 30
0.0
 41
2.5
 42
2.5
 43
2.5
 50
270.0
  0
MTEXT
  5
214C
330
2121
100
AcDbEntity
  8
AM_5
 62
     2
100
AcDbMText
 10
-71.40033464566927
 20
-0.0000000000000079
 30
0.0
 40
3.399999999999999
 41
0.0
 71
     5
 72
     1
  1
%%c25.4
 11
0.0000000000000001
 21
1.0
 31
0.0
 73
     1
 44
1.0
  0
POINT
  5
214D
330
2121
100
AcDbEntity
  8
Defpoints
 62
     0
100
AcDbPoint
 10
-45.28680855637236
 20
12.7
 30
0.0
  0
POINT
  5
214E
330
2121
100
AcDbEntity
  8
Defpoints
 62
     0
100
AcDbPoint
 10
-45.28680855637236
 20
-12.7
 30
0.0
  0
POINT
  5
214F
330
2121
100
AcDbEntity
  8
Defpoints
 62
     0
100
AcDbPoint
 10
-68.69999999999999
 20
-12.7
 30
0.0
  0
ENDBLK
  5
2145
330
2121
100
AcDbEntity
  8
0
100
AcDbBlockEnd
  0
BLOCK
  5
2188
330
2160
100
AcDbEntity
  8
0
100
AcDbBlockBegin
  2
*D21
 70
     1
 10
0.0
 20
0.0
 30
0.0
  3
*D21
  1

  0
LINE
  5
2193
330
2160
100
AcDbEntity
  8
AM_5
 62
     3
100
AcDbLine
 10
-21.9
 20
6.499999999999999
 30
0.0
 11
9.937410800994941
 21
6.499999999999991
 31
0.0
  0
LINE
  5
2194
330
2160
100
AcDbEntity
  8
AM_5
 62
     3
100
AcDbLine
 10
-21.9
 20
-6.500000000000002
 30
0.0
 11
9.937410800994937
 21
-6.50000000000001
 31
0.0
  0
LINE
  5
2195
330
2160
100
AcDbEntity
  8
AM_5
 62
     3
100
AcDbLine
 10
9.437410800994941
 20
3.99999999999999
 30
0.0
 11
9.437410800994939
 21
-4.00000000000001
 31
0.0
  0
INSERT
  5
2196
330
2160
100
AcDbEntity
  8
AM_5
 62
     3
100
AcDbBlockReference
  2
_Open30
 10
9.437410800994943
 20
6.499999999999991
 30
0.0
 41
2.5
 42
2.5
 43
2.5
 50
90.0
  0
INSERT
  5
2197
330
2160
100
AcDbEntity
  8
AM_5
 62
     3
100
AcDbBlockReference
  2
_Open30
 10
9.437410800994939
 20
-6.50000000000001
 30
0.0
 41
2.5
 42
2.5
 43
2.5
 50
270.0
  0
MTEXT
  5
2198
330
2160
100
AcDbEntity
  8
AM_5
 62
     2
100
AcDbMText
 10
6.737410800994942
 20
-0.0000000000000082
 30
0.0
 40
3.399999999999999
 41
0.0
 71
     5
 72
     1
  1
%%c13
 11
0.0000000000000001
 21
1.0
 31
0.0
 73
     1
 44
1.0
  0
POINT
  5
2199
330
2160
100
AcDbEntity
  8
Defpoints
 62
     0
100
AcDbPoint
 10
-22.0
 20
6.5
 30
0.0
  0
POINT
  5
219A
330
2160
100
AcDbEntity
  8
Defpoints
 62
     0
100
AcDbPoint
 10
-22.0
 20
-6.500000000000001
 30
0.0
  0
POINT
  5
219B
330
2160
100
AcDbEntity
  8
Defpoints
 62
     0
100
AcDbPoint
 10
9.437410800994939
 20
-6.50000000000001
 30
0.0
  0
ENDBLK
  5
2189
330
2160
100
AcDbEntity
  8
0
100
AcDbBlockEnd
  0
BLOCK
  5
21CD
330
21AC
100
AcDbEntity
  8
0
100
AcDbBlockBegin
  2
*D22
 70
     1
 10
0.0
 20
0.0
 30
0.0
  3
*D22
  1

  0
LINE
  5
220E
330
21AC
100
AcDbEntity
  8
AM_5
 62
     3
100
AcDbLine
 10
-17.01687819696109
 20
10.0
 30
0.0
 11
17.7786377330327
 21
9.999999999999991
 31
0.0
  0
LINE
  5
220F
330
21AC
100
AcDbEntity
  8
AM_5
 62
     3
100
AcDbLine
 10
-16.06888280781156
 20
-10.0
 30
0.0
 11
17.77863773303269
 21
-10.00000000000001
 31
0.0
  0
LINE
  5
2210
330
21AC
100
AcDbEntity
  8
AM_5
 62
     3
100
AcDbLine
 10
17.2786377330327
 20
7.499999999999991
 30
0.0
 11
17.2786377330327
 21
-7.500000000000012
 31
0.0
  0
INSERT
  5
2211
330
21AC
100
AcDbEntity
  8
AM_5
 62
     3
100
AcDbBlockReference
  2
_Open30
 10
17.2786377330327
 20
9.999999999999991
 30
0.0
 41
2.5
 42
2.5
 43
2.5
 50
90.0
  0
INSERT
  5
2212
330
21AC
100
AcDbEntity
  8
AM_5
 62
     3
100
AcDbBlockReference
  2
_Open30
 10
17.27863773303269
 20
-10.00000000000001
 30
0.0
 41
2.5
 42
2.5
 43
2.5
 50
270.0
  0
MTEXT
  5
2213
330
21AC
100
AcDbEntity
  8
AM_5
 62
     2
100
AcDbMText
 10
14.57830308736341
 20
-0.0000000000000078
 30
0.0
 40
3.399999999999999
 41
0.0
 71
     5
 72
     1
  1
%%c20
 11
0.0000000000000001
 21
1.0
 31
0.0
 73
     1
 44
1.0
  0
POINT
  5
2214
330
21AC
100
AcDbEntity
  8
Defpoints
 62
     0
100
AcDbPoint
 10
-17.11687819696109
 20
10.0
 30
0.0
  0
POINT
  5
2215
330
21AC
100
AcDbEntity
  8
Defpoints
 62
     0
100
AcDbPoint
 10
-16.16888280781156
 20
-10.0
 30
0.0
  0
POINT
  5
2216
330
21AC
100
AcDbEntity
  8
Defpoints
 62
     0
100
AcDbPoint
 10
17.27863773303269
 20
-10.00000000000001
 30
0.0
  0
ENDBLK
  5
21CE
330
21AC
100
AcDbEntity
  8
0
100
AcDbBlockEnd
  0
BLOCK
  5
2209
330
21E8
100
AcDbEntity
  8
0
100
AcDbBlockBegin
  2
*D23
 70
     1
 10
0.0
 20
0.0
 30
0.0
  3
*D23
  1

  0
LINE
  5
21FD
330
21E8
100
AcDbEntity
  8
AM_5
 62
     3
100
AcDbLine
 10
-43.00026813212398
 20
30.0
 30
0.0
 11
-78.35087935239823
 21
30.00000000000001
 31
0.0
  0
LINE
  5
21FE
330
21E8
100
AcDbEntity
  8
AM_5
 62
     3
100
AcDbLine
 10
-39.27106781186548
 20
-30.00000000000002
 30
0.0
 11
-78.35087935239823
 21
-30.0
 31
0.0
  0
LINE
  5
21FF
330
21E8
100
AcDbEntity
  8
AM_5
 62
     3
100
AcDbLine
 10
-77.85087935239824
 20
27.50000000000001
 30
0.0
 11
-77.85087935239824
 21
-27.5
 31
0.0
  0
INSERT
  5
2200
330
21E8
100
AcDbEntity
  8
AM_5
 62
     3
100
AcDbBlockReference
  2
_Open30
 10
-77.85087935239824
 20
30.00000000000001
 30
0.0
 41
2.5
 42
2.5
 43
2.5
 50
90.0
  0
INSERT
  5
2201
330
21E8
100
AcDbEntity
  8
AM_5
 62
     3
100
AcDbBlockReference
  2
_Open30
 10
-77.85087935239824
 20
-30.0
 30
0.0
 41
2.5
 42
2.5
 43
2.5
 50
270.0
  0
MTEXT
  5
2202
330
21E8
100
AcDbEntity
  8
AM_5
 62
     2
100
AcDbMText
 10
-80.55087935239823
 20
-0.0000000000000091
 30
0.0
 40
3.399999999999999
 41
0.0
 71
     5
 72
     1
  1
%%c60
 11
0.0000000000000001
 21
1.0
 31
0.0
 73
     1
 44
1.0
  0
POINT
  5
2203
330
21E8
100
AcDbEntity
  8
Defpoints
 62
     0
100
AcDbPoint
 10
-42.90026813212398
 20
30.0
 30
0.0
  0
POINT
  5
2204
330
21E8
100
AcDbEntity
  8
Defpoints
 62
     0
100
AcDbPoint
 10
-39.17106781186548
 20
-30.00000000000002
 30
0.0
  0
POINT
  5
2205
330
21E8
100
AcDbEntity
  8
Defpoints
 62
     0
100
AcDbPoint
 10
-77.85087935239824
 20
-30.0
 30
0.0
  0
ENDBLK
  5
220A
330
21E8
100
AcDbEntity
  8
0
100
AcDbBlockEnd
  0
BLOCK
  5
2354
330
2306
100
AcDbEntity
  8
0
100
AcDbBlockBegin
  2
*D25
 70
     1
 10
0.0
 20
0.0
 30
0.0
  3
*D25
  1

  0
LINE
  5
2532
330
2306
100
AcDbEntity
  8
AM_5
 62
     3
100
AcDbLine
 10
-45.5
 20
149.2039571333439
 30
0.0
 11
-15.90000099999999
 21
149.2039571333439
 31
0.0
  0
LINE
  5
2533
330
2306
100
AcDbEntity
  8
AM_5
 62
     3
100
AcDbLine
 10
-0.1
 20
136.5039571333439
 30
0.0
 11
-16.90000099999999
 21
136.5039571333439
 31
0.0
  0
LINE
  5
2534
330
2306
100
AcDbEntity
  8
AM_5
 62
     3
100
AcDbLine
 10
-16.40000099999999
 20
146.7039571333439
 30
0.0
 11
-16.40000099999999
 21
139.0039571333439
 31
0.0
  0
INSERT
  5
2535
330
2306
100
AcDbEntity
  8
AM_5
 62
     3
100
AcDbBlockReference
  2
_Open30
 10
-16.40000099999999
 20
149.2039571333439
 30
0.0
 41
2.5
 42
2.5
 43
2.5
 50
90.0
  0
INSERT
  5
2536
330
2306
100
AcDbEntity
  8
AM_5
 62
     3
100
AcDbBlockReference
  2
_Open30
 10
-16.40000099999999
 20
136.5039571333439
 30
0.0
 41
2.5
 42
2.5
 43
2.5
 50
270.0
  0
MTEXT
  5
2537
330
2306
100
AcDbEntity
  8
AM_5
 62
     2
100
AcDbMText
 10
-19.10033564566931
 20
142.8539571333439
 30
0.0
 40
3.399999999999999
 41
0.0
 71
     5
 72
     1
  1
12.7
 11
0.0000000000000001
 21
1.0
 31
0.0
 73
     1
 44
1.0
  0
POINT
  5
2538
330
2306
100
AcDbEntity
  8
Defpoints
 62
     0
100
AcDbPoint
 10
-45.60000000000001
 20
149.2039571333439
 30
0.0
  0
POINT
  5
2539
330
2306
100
AcDbEntity
  8
Defpoints
 62
     0
100
AcDbPoint
 10
0.0
 20
136.5039571333439
 30
0.0
  0
POINT
  5
253A
330
2306
100
AcDbEntity
  8
Defpoints
 62
     0
100
AcDbPoint
 10
-16.40000099999999
 20
136.5039571333439
 30
0.0
  0
ENDBLK
  5
2355
330
2306
100
AcDbEntity
  8
0
100
AcDbBlockEnd
  0
BLOCK
  5
2356
330
2333
100
AcDbEntity
  8
0
100
AcDbBlockBegin
  2
*D26
 70
     1
 10
0.0
 20
0.0
 30
0.0
  3
*D26
  1

  0
LINE
  5
2520
330
2333
100
AcDbEntity
  8
AM_5
 62
     3
100
AcDbLine
 10
-46.41580755639514
 20
158.7289571333439
 30
0.0
 11
-69.66432594175609
 21
158.7289571333439
 31
0.0
  0
LINE
  5
2521
330
2333
100
AcDbEntity
  8
AM_5
 62
     3
100
AcDbLine
 10
-46.41580755639514
 20
126.9789571333439
 30
0.0
 11
-69.66432594175609
 21
126.9789571333439
 31
0.0
  0
LINE
  5
2522
330
2333
100
AcDbEntity
  8
AM_5
 62
     3
100
AcDbLine
 10
-69.16432594175609
 20
156.2289571333439
 30
0.0
 11
-69.16432594175609
 21
129.4789571333439
 31
0.0
  0
INSERT
  5
2523
330
2333
100
AcDbEntity
  8
AM_5
 62
     3
100
AcDbBlockReference
  2
_Open30
 10
-69.16432594175609
 20
158.7289571333439
 30
0.0
 41
2.5
 42
2.5
 43
2.5
 50
90.0
  0
INSERT
  5
2524
330
2333
100
AcDbEntity
  8
AM_5
 62
     3
100
AcDbBlockReference
  2
_Open30
 10
-69.16432594175609
 20
126.9789571333439
 30
0.0
 41
2.5
 42
2.5
 43
2.5
 50
270.0
  0
MTEXT
  5
2525
330
2333
100
AcDbEntity
  8
AM_5
 62
     2
100
AcDbMText
 10
-71.8643259417561
 20
142.8539571333439
 30
0.0
 40
3.399999999999999
 41
0.0
 71
     5
 72
     1
  1
%%c31.75
 11
0.0000000000000001
 21
1.0
 31
0.0
 73
     1
 44
1.0
  0
POINT
  5
2526
330
2333
100
AcDbEntity
  8
Defpoints
 62
     0
100
AcDbPoint
 10
-46.31580755639514
 20
158.7289571333439
 30
0.0
  0
POINT
  5
2527
330
2333
100
AcDbEntity
  8
Defpoints
 62
     0
100
AcDbPoint
 10
-46.31580755639514
 20
126.9789571333439
 30
0.0
  0
POINT
  5
2528
330
2333
100
AcDbEntity
  8
Defpoints
 62
     0
100
AcDbPoint
 10
-69.16432594175609
 20
126.9789571333439
 30
0.0
  0
ENDBLK
  5
2357
330
2333
100
AcDbEntity
  8
0
100
AcDbBlockEnd
  0
BLOCK
  5
23A5
330
237B
100
AcDbEntity
  8
0
100
AcDbBlockBegin
  2
*D27
 70
     1
 10
0.0
 20
0.0
 30
0.0
  3
*D27
  1

  0
LINE
  5
24D8
330
237B
100
AcDbEntity
  8
AM_5
 62
     3
100
AcDbLine
 10
-48.1
 20
177.8539571333439
 30
0.0
 11
-77.39767075755873
 21
177.8539571333439
 31
0.0
  0
LINE
  5
24D9
330
237B
100
AcDbEntity
  8
AM_5
 62
     3
100
AcDbLine
 10
-44.54105708400638
 20
107.8539571333439
 30
0.0
 11
-77.39767075755874
 21
107.8539571333439
 31
0.0
  0
LINE
  5
24DA
330
237B
100
AcDbEntity
  8
AM_5
 62
     3
100
AcDbLine
 10
-76.89767075755873
 20
175.3539571333439
 30
0.0
 11
-76.89767075755874
 21
110.3539571333439
 31
0.0
  0
INSERT
  5
24DB
330
237B
100
AcDbEntity
  8
AM_5
 62
     3
100
AcDbBlockReference
  2
_Open30
 10
-76.89767075755873
 20
177.8539571333439
 30
0.0
 41
2.5
 42
2.5
 43
2.5
 50
90.0
  0
INSERT
  5
24DC
330
237B
100
AcDbEntity
  8
AM_5
 62
     3
100
AcDbBlockReference
  2
_Open30
 10
-76.89767075755874
 20
107.8539571333439
 30
0.0
 41
2.5
 42
2.5
 43
2.5
 50
270.0
  0
MTEXT
  5
24DD
330
237B
100
AcDbEntity
  8
AM_5
 62
     2
100
AcDbMText
 10
-79.59767075755876
 20
142.8539571333439
 30
0.0
 40
3.399999999999999
 41
0.0
 71
     5
 72
     1
  1
%%c70
 11
0.0000000000000001
 21
1.0
 31
0.0
 73
     1
 44
1.0
  0
POINT
  5
24DE
330
237B
100
AcDbEntity
  8
Defpoints
 62
     0
100
AcDbPoint
 10
-48.0
 20
177.8539571333439
 30
0.0
  0
POINT
  5
24DF
330
237B
100
AcDbEntity
  8
Defpoints
 62
     0
100
AcDbPoint
 10
-44.44105708400638
 20
107.8539571333439
 30
0.0
  0
POINT
  5
24E0
330
237B
100
AcDbEntity
  8
Defpoints
 62
     0
100
AcDbPoint
 10
-76.89767075755874
 20
107.8539571333439
 30
0.0
  0
ENDBLK
  5
23A6
330
237B
100
AcDbEntity
  8
0
100
AcDbBlockEnd
  0
BLOCK
  5
23CF
330
23B7
100
AcDbEntity
  8
0
100
AcDbBlockBegin
  2
*D28
 70
     1
 10
0.0
 20
0.0
 30
0.0
  3
*D28
  1

  0
LINE
  5
24E1
330
23B7
100
AcDbEntity
  8
AM_5
 62
     3
100
AcDbLine
 10
-50.0
 20
171.4015736588314
 30
0.0
 11
-50.0
 21
210.3772112541293
 31
0.0
  0
LINE
  5
24E2
330
23B7
100
AcDbEntity
  8
AM_5
 62
     3
100
AcDbLine
 10
0.0000000000000038
 20
189.7789571333438
 30
0.0
 11
0.000000000000005
 21
210.3772112541293
 31
0.0
  0
LINE
  5
24E3
330
23B7
100
AcDbEntity
  8
AM_5
 62
     3
100
AcDbLine
 10
-47.5
 20
209.8772112541293
 30
0.0
 11
-2.499999999999995
 21
209.8772112541293
 31
0.0
  0
INSERT
  5
24E4
330
23B7
100
AcDbEntity
  8
AM_5
 62
     3
100
AcDbBlockReference
  2
_Open30
 10
-50.0
 20
209.8772112541293
 30
0.0
 41
2.5
 42
2.5
 43
2.5
 50
180.0
  0
INSERT
  5
24E5
330
23B7
100
AcDbEntity
  8
AM_5
 62
     3
100
AcDbBlockReference
  2
_Open30
 10
0.000000000000005
 20
209.8772112541293
 30
0.0
 41
2.5
 42
2.5
 43
2.5
  0
MTEXT
  5
24E6
330
23B7
100
AcDbEntity
  8
AM_5
 62
     2
100
AcDbMText
 10
-25.0
 20
212.5772112541294
 30
0.0
 40
3.399999999999999
 41
0.0
 71
     5
 72
     1
  1
50
 73
     1
 44
1.0
  0
POINT
  5
24E7
330
23B7
100
AcDbEntity
  8
Defpoints
 62
     0
100
AcDbPoint
 10
-50.0
 20
171.3015736588314
 30
0.0
  0
POINT
  5
24E8
330
23B7
100
AcDbEntity
  8
Defpoints
 62
     0
100
AcDbPoint
 10
0.0000000000000038
 20
189.6789571333439
 30
0.0
  0
POINT
  5
24E9
330
23B7
100
AcDbEntity
  8
Defpoints
 62
     0
100
AcDbPoint
 10
0.000000000000005
 20
209.8772112541293
 30
0.0
  0
ENDBLK
  5
23D0
330
23B7
100
AcDbEntity
  8
0
100
AcDbBlockEnd
  0
BLOCK
  5
2402
330
23E1
100
AcDbEntity
  8
0
100
AcDbBlockBegin
  2
*D29
 70
     1
 10
0.0
 20
0.0
 30
0.0
  3
*D29
  1

  0
LINE
  5
250E
330
23E1
100
AcDbEntity
  8
AM_5
 62
     3
100
AcDbLine
 10
-3.835408264130329
 20
192.8539571333439
 30
0.0
 11
23.16149929448445
 21
192.8539571333439
 31
0.0
  0
LINE
  5
250F
330
23E1
100
AcDbEntity
  8
AM_5
 62
     3
100
AcDbLine
 10
-3.835408264130329
 20
92.8539571333439
 30
0.0
 11
23.16149929448442
 21
92.8539571333439
 31
0.0
  0
LINE
  5
2510
330
23E1
100
AcDbEntity
  8
AM_5
 62
     3
100
AcDbLine
 10
22.66149929448445
 20
190.3539571333439
 30
0.0
 11
22.66149929448443
 21
95.3539571333439
 31
0.0
  0
INSERT
  5
2511
330
23E1
100
AcDbEntity
  8
AM_5
 62
     3
100
AcDbBlockReference
  2
_Open30
 10
22.66149929448445
 20
192.8539571333439
 30
0.0
 41
2.5
 42
2.5
 43
2.5
 50
90.0
  0
INSERT
  5
2512
330
23E1
100
AcDbEntity
  8
AM_5
 62
     3
100
AcDbBlockReference
  2
_Open30
 10
22.66149929448443
 20
92.8539571333439
 30
0.0
 41
2.5
 42
2.5
 43
2.5
 50
270.0
  0
MTEXT
  5
2513
330
23E1
100
AcDbEntity
  8
AM_5
 62
     2
100
AcDbMText
 10
19.96149929448441
 20
142.8539571333439
 30
0.0
 40
3.399999999999999
 41
0.0
 71
     5
 72
     1
  1
%%c100
 11
0.0000000000000001
 21
1.0
 31
0.0
 73
     1
 44
1.0
  0
POINT
  5
2514
330
23E1
100
AcDbEntity
  8
Defpoints
 62
     0
100
AcDbPoint
 10
-3.935408264130329
 20
192.8539571333439
 30
0.0
  0
POINT
  5
2515
330
23E1
100
AcDbEntity
  8
Defpoints
 62
     0
100
AcDbPoint
 10
-3.935408264130329
 20
92.8539571333439
 30
0.0
  0
POINT
  5
2516
330
23E1
100
AcDbEntity
  8
Defpoints
 62
     0
100
AcDbPoint
 10
22.66149929448443
 20
92.8539571333439
 30
0.0
  0
ENDBLK
  5
2403
330
23E1
100
AcDbEntity
  8
0
100
AcDbBlockEnd
  0
BLOCK
  5
2450
330
2414
100
AcDbEntity
  8
0
100
AcDbBlockBegin
  2
*D30
 70
     1
 10
0.0
 20
0.0
 30
0.0
  3
*D30
  1

  0
LINE
  5
2517
330
2414
100
AcDbEntity
  8
AM_5
 62
     3
100
AcDbLine
 10
-49.20000000000001
 20
149.3039571333438
 30
0.0
 11
-49.20000000000001
 21
193.1990287397988
 31
0.0
  0
LINE
  5
2518
330
2414
100
AcDbEntity
  8
AM_5
 62
     3
100
AcDbLine
 10
-41.99999999999999
 20
149.3039571333438
 30
0.0
 11
-41.99999999999999
 21
193.1990287397988
 31
0.0
  0
LINE
  5
2519
330
2414
100
AcDbEntity
  8
AM_5
 62
     3
100
AcDbLine
 10
-46.70000000000001
 20
192.6990287397988
 30
0.0
 11
-44.49999999999999
 21
192.6990287397988
 31
0.0
  0
INSERT
  5
251A
330
2414
100
AcDbEntity
  8
AM_5
 62
     3
100
AcDbBlockReference
  2
_Open30
 10
-49.20000000000001
 20
192.6990287397988
 30
0.0
 41
2.5
 42
2.5
 43
2.5
 50
180.0
  0
INSERT
  5
251B
330
2414
100
AcDbEntity
  8
AM_5
 62
     3
100
AcDbBlockReference
  2
_Open30
 10
-41.99999999999999
 20
192.6990287397988
 30
0.0
 41
2.5
 42
2.5
 43
2.5
  0
MTEXT
  5
251C
330
2414
100
AcDbEntity
  8
AM_5
 62
     2
100
AcDbMText
 10
-45.60000000000001
 20
195.3990287397988
 30
0.0
 40
3.399999999999999
 41
0.0
 71
     5
 72
     1
  1
7
 73
     1
 44
1.0
  0
POINT
  5
251D
330
2414
100
AcDbEntity
  8
Defpoints
 62
     0
100
AcDbPoint
 10
-49.20000000000001
 20
149.2039571333439
 30
0.0
  0
POINT
  5
251E
330
2414
100
AcDbEntity
  8
Defpoints
 62
     0
100
AcDbPoint
 10
-41.99999999999999
 20
149.2039571333439
 30
0.0
  0
POINT
  5
251F
330
2414
100
AcDbEntity
  8
Defpoints
 62
     0
100
AcDbPoint
 10
-41.99999999999999
 20
192.6990287397988
 30
0.0
  0
ENDBLK
  5
2451
330
2414
100
AcDbEntity
  8
0
100
AcDbBlockEnd
  0
BLOCK
  5
2452
330
2438
100
AcDbEntity
  8
0
100
AcDbBlockBegin
  2
*D31
 70
     1
 10
0.0
 20
0.0
 30
0.0
  3
*D31
  1

  0
LINE
  5
24FC
330
2438
100
AcDbEntity
  8
AM_5
 62
     3
100
AcDbLine
 10
-50.00000000000001
 20
154.096247195283
 30
0.0
 11
-50.00000000000001
 21
201.7342426898292
 31
0.0
  0
LINE
  5
24FD
330
2438
100
AcDbEntity
  8
AM_5
 62
     3
100
AcDbLine
 10
-18.0
 20
165.9539571333439
 30
0.0
 11
-18.0
 21
201.7342426898292
 31
0.0
  0
LINE
  5
24FE
330
2438
100
AcDbEntity
  8
AM_5
 62
     3
100
AcDbLine
 10
-47.50000000000001
 20
201.2342426898292
 30
0.0
 11
-20.5
 21
201.2342426898292
 31
0.0
  0
INSERT
  5
24FF
330
2438
100
AcDbEntity
  8
AM_5
 62
     3
100
AcDbBlockReference
  2
_Open30
 10
-50.00000000000001
 20
201.2342426898292
 30
0.0
 41
2.5
 42
2.5
 43
2.5
 50
180.0
  0
INSERT
  5
2500
330
2438
100
AcDbEntity
  8
AM_5
 62
     3
100
AcDbBlockReference
  2
_Open30
 10
-18.0
 20
201.2342426898292
 30
0.0
 41
2.5
 42
2.5
 43
2.5
  0
MTEXT
  5
2501
330
2438
100
AcDbEntity
  8
AM_5
 62
     2
100
AcDbMText
 10
-34.00000000000001
 20
203.9345773354984
 30
0.0
 40
3.399999999999999
 41
0.0
 71
     5
 72
     1
  1
32
 73
     1
 44
1.0
  0
POINT
  5
2502
330
2438
100
AcDbEntity
  8
Defpoints
 62
     0
100
AcDbPoint
 10
-50.00000000000001
 20
153.996247195283
 30
0.0
  0
POINT
  5
2503
330
2438
100
AcDbEntity
  8
Defpoints
 62
     0
100
AcDbPoint
 10
-18.0
 20
165.8539571333439
 30
0.0
  0
POINT
  5
2504
330
2438
100
AcDbEntity
  8
Defpoints
 62
     0
100
AcDbPoint
 10
-18.0
 20
201.2342426898292
 30
0.0
  0
ENDBLK
  5
2453
330
2438
100
AcDbEntity
  8
0
100
AcDbBlockEnd
  0
BLOCK
  5
2485
330
2464
100
AcDbEntity
  8
0
100
AcDbBlockBegin
  2
*D32
 70
     1
 10
0.0
 20
0.0
 30
0.0
  3
*D32
  1

  0
LINE
  5
2529
330
2464
100
AcDbEntity
  8
AM_5
 62
     3
100
AcDbLine
 10
-12.15833024919771
 20
165.8539571333439
 30
0.0
 11
15.6878938200357
 21
165.8539571333439
 31
0.0
  0
LINE
  5
252A
330
2464
100
AcDbEntity
  8
AM_5
 62
     3
100
AcDbLine
 10
-12.15833024919774
 20
119.8539571333439
 30
0.0
 11
15.68789382003569
 21
119.8539571333439
 31
0.0
  0
LINE
  5
252B
330
2464
100
AcDbEntity
  8
AM_5
 62
     3
100
AcDbLine
 10
15.1878938200357
 20
163.3539571333439
 30
0.0
 11
15.18789382003569
 21
122.3539571333439
 31
0.0
  0
INSERT
  5
252C
330
2464
100
AcDbEntity
  8
AM_5
 62
     3
100
AcDbBlockReference
  2
_Open30
 10
15.1878938200357
 20
165.8539571333439
 30
0.0
 41
2.5
 42
2.5
 43
2.5
 50
90.0
  0
INSERT
  5
252D
330
2464
100
AcDbEntity
  8
AM_5
 62
     3
100
AcDbBlockReference
  2
_Open30
 10
15.18789382003569
 20
119.8539571333439
 30
0.0
 41
2.5
 42
2.5
 43
2.5
 50
270.0
  0
MTEXT
  5
252E
330
2464
100
AcDbEntity
  8
AM_5
 62
     2
100
AcDbMText
 10
12.48789382003567
 20
142.8539571333439
 30
0.0
 40
3.399999999999999
 41
0.0
 71
     5
 72
     1
  1
%%c46
 11
0.0000000000000001
 21
1.0
 31
0.0
 73
     1
 44
1.0
  0
POINT
  5
252F
330
2464
100
AcDbEntity
  8
Defpoints
 62
     0
100
AcDbPoint
 10
-12.25833024919771
 20
165.8539571333439
 30
0.0
  0
POINT
  5
2530
330
2464
100
AcDbEntity
  8
Defpoints
 62
     0
100
AcDbPoint
 10
-12.25833024919774
 20
119.8539571333439
 30
0.0
  0
POINT
  5
2531
330
2464
100
AcDbEntity
  8
Defpoints
 62
     0
100
AcDbPoint
 10
15.18789382003569
 20
119.8539571333439
 30
0.0
  0
ENDBLK
  5
2486
330
2464
100
AcDbEntity
  8
0
100
AcDbBlockEnd
  0
BLOCK
  5
25C7
330
25A6
100
AcDbEntity
  8
0
100
AcDbBlockBegin
  2
*D34
 70
     1
 10
0.0
 20
0.0
 30
0.0
  3
*D34
  1

  0
LINE
  5
2750
330
25A6
100
AcDbEntity
  8
AM_5
 62
     3
100
AcDbLine
 10
-3.204326082704732
 20
62.5
 30
0.0
 11
23.49640792092262
 21
62.5
 31
0.0
  0
LINE
  5
2751
330
25A6
100
AcDbEntity
  8
AM_5
 62
     3
100
AcDbLine
 10
-3.204326082704733
 20
-62.50000000000003
 30
0.0
 11
23.49640792092259
 21
-62.50000000000003
 31
0.0
  0
LINE
  5
2752
330
25A6
100
AcDbEntity
  8
AM_5
 62
     3
100
AcDbLine
 10
22.99640792092262
 20
60.0
 30
0.0
 11
22.99640792092259
 21
-60.00000000000003
 31
0.0
  0
INSERT
  5
2753
330
25A6
100
AcDbEntity
  8
AM_5
 62
     3
100
AcDbBlockReference
  2
_Open30
 10
22.99640792092262
 20
62.5
 30
0.0
 41
2.5
 42
2.5
 43
2.5
 50
90.0
  0
INSERT
  5
2754
330
25A6
100
AcDbEntity
  8
AM_5
 62
     3
100
AcDbBlockReference
  2
_Open30
 10
22.99640792092259
 20
-62.50000000000003
 30
0.0
 41
2.5
 42
2.5
 43
2.5
 50
270.0
  0
MTEXT
  5
2755
330
25A6
100
AcDbEntity
  8
AM_5
 62
     2
100
AcDbMText
 10
20.29607327525332
 20
-0.0000000000000153
 30
0.0
 40
3.399999999999999
 41
0.0
 71
     5
 72
     1
  1
%%c125
 11
0.0000000000000001
 21
1.0
 31
0.0
 73
     1
 44
1.0
  0
POINT
  5
2756
330
25A6
100
AcDbEntity
  8
Defpoints
 62
     0
100
AcDbPoint
 10
-3.304326082704732
 20
62.5
 30
0.0
  0
POINT
  5
2757
330
25A6
100
AcDbEntity
  8
Defpoints
 62
     0
100
AcDbPoint
 10
-3.304326082704733
 20
-62.50000000000003
 30
0.0
  0
POINT
  5
2758
330
25A6
100
AcDbEntity
  8
Defpoints
 62
     0
100
AcDbPoint
 10
22.99640792092259
 20
-62.50000000000003
 30
0.0
  0
ENDBLK
  5
25C8
330
25A6
100
AcDbEntity
  8
0
100
AcDbBlockEnd
  0
BLOCK
  5
260E
330
25ED
100
AcDbEntity
  8
0
100
AcDbBlockBegin
  2
*D35
 70
     1
 10
0.0
 20
0.0
 30
0.0
  3
*D35
  1

  0
LINE
  5
2669
330
25ED
100
AcDbEntity
  8
AM_5
 62
     3
100
AcDbLine
 10
-57.45053133475844
 20
40.00000008494384
 30
0.0
 11
-93.27644179400383
 21
40.00000008494385
 31
0.0
  0
LINE
  5
266A
330
25ED
100
AcDbEntity
  8
AM_5
 62
     3
100
AcDbLine
 10
-57.45053133475846
 20
-40.00000008494387
 30
0.0
 11
-93.27644179400385
 21
-40.00000008494386
 31
0.0
  0
LINE
  5
266B
330
25ED
100
AcDbEntity
  8
AM_5
 62
     3
100
AcDbLine
 10
-92.77644179400382
 20
37.50000008494386
 30
0.0
 11
-92.77644179400386
 21
-37.50000008494386
 31
0.0
  0
INSERT
  5
266C
330
25ED
100
AcDbEntity
  8
AM_5
 62
     3
100
AcDbBlockReference
  2
_Open30
 10
-92.77644179400382
 20
40.00000008494385
 30
0.0
 41
2.5
 42
2.5
 43
2.5
 50
90.0
  0
INSERT
  5
266D
330
25ED
100
AcDbEntity
  8
AM_5
 62
     3
100
AcDbBlockReference
  2
_Open30
 10
-92.77644179400386
 20
-40.00000008494386
 30
0.0
 41
2.5
 42
2.5
 43
2.5
 50
270.0
  0
MTEXT
  5
266E
330
25ED
100
AcDbEntity
  8
AM_5
 62
     2
100
AcDbMText
 10
-95.47644179400384
 20
-0.0000000000000189
 30
0.0
 40
3.399999999999999
 41
0.0
 71
     5
 72
     1
  1
%%c80
 11
0.0000000000000001
 21
1.0
 31
0.0
 73
     1
 44
1.0
  0
POINT
  5
266F
330
25ED
100
AcDbEntity
  8
Defpoints
 62
     0
100
AcDbPoint
 10
-57.35053133475844
 20
40.00000008494384
 30
0.0
  0
POINT
  5
2670
330
25ED
100
AcDbEntity
  8
Defpoints
 62
     0
100
AcDbPoint
 10
-57.35053133475846
 20
-40.00000008494387
 30
0.0
  0
POINT
  5
2671
330
25ED
100
AcDbEntity
  8
Defpoints
 62
     0
100
AcDbPoint
 10
-92.77644179400386
 20
-40.00000008494386
 30
0.0
  0
ENDBLK
  5
260F
330
25ED
100
AcDbEntity
  8
0
100
AcDbBlockEnd
  0
BLOCK
  5
265C
330
2620
100
AcDbEntity
  8
0
100
AcDbBlockBegin
  2
*D36
 70
     1
 10
0.0
 20
0.0
 30
0.0
  3
*D36
  1

  0
LINE
  5
262C
102
{ACAD_REACTORS
330
264F
330
26FC
102
}
330
2620
100
AcDbEntity
  8
AM_5
 62
     3
100
AcDbLine
 10
-63.00000000000001
 20
32.74981349165554
 30
0.0
 11
-63.00000000000002
 21
-66.40696340544042
 31
0.0
  0
LINE
  5
262D
330
2620
100
AcDbEntity
  8
AM_5
 62
     3
100
AcDbLine
 10
-25.00000000000002
 20
23.57914139913409
 30
0.0
 11
-25.00000000000002
 21
-66.40696340544042
 31
0.0
  0
LINE
  5
262E
330
2620
100
AcDbEntity
  8
AM_5
 62
     3
100
AcDbLine
 10
-60.50000000000002
 20
-65.90696340544042
 30
0.0
 11
-27.50000000000002
 21
-65.90696340544042
 31
0.0
  0
INSERT
  5
262F
330
2620
100
AcDbEntity
  8
AM_5
 62
     3
100
AcDbBlockReference
  2
_Open30
 10
-63.00000000000002
 20
-65.90696340544042
 30
0.0
 41
2.5
 42
2.5
 43
2.5
 50
180.0
  0
INSERT
  5
2630
330
2620
100
AcDbEntity
  8
AM_5
 62
     3
100
AcDbBlockReference
  2
_Open30
 10
-25.00000000000002
 20
-65.90696340544042
 30
0.0
 41
2.5
 42
2.5
 43
2.5
  0
MTEXT
  5
2631
330
2620
100
AcDbEntity
  8
AM_5
 62
     2
100
AcDbMText
 10
-44.00000000000002
 20
-63.20696340544042
 30
0.0
 40
3.399999999999999
 41
0.0
 71
     5
 72
     1
  1
38
 73
     1
 44
1.0
  0
POINT
  5
2632
330
2620
100
AcDbEntity
  8
Defpoints
 62
     0
100
AcDbPoint
 10
-63.00000000000001
 20
32.84981349165554
 30
0.0
  0
POINT
  5
2633
330
2620
100
AcDbEntity
  8
Defpoints
 62
     0
100
AcDbPoint
 10
-25.00000000000002
 20
23.67914139913409
 30
0.0
  0
POINT
  5
2634
330
2620
100
AcDbEntity
  8
Defpoints
 62
     0
100
AcDbPoint
 10
-25.00000000000002
 20
-65.90696340544042
 30
0.0
  0
ENDBLK
  5
265D
330
2620
100
AcDbEntity
  8
0
100
AcDbBlockEnd
  0
BLOCK
  5
265E
330
2644
100
AcDbEntity
  8
0
100
AcDbBlockBegin
  2
*D37
 70
     1
 10
0.0
 20
0.0
 30
0.0
  3
*D37
  1

  0
LINE
  5
2660
330
2644
100
AcDbEntity
  8
AM_5
 62
     3
100
AcDbLine
 10
-63.00000000000001
 20
-12.08341193077544
 30
0.0
 11
-63.00000000000001
 21
-58.67478724426416
 31
0.0
  0
LINE
  5
2661
330
2644
100
AcDbEntity
  8
AM_5
 62
     3
100
AcDbLine
 10
-53.00000000000001
 20
-8.050000084943851
 30
0.0
 11
-53.00000000000001
 21
-58.67478724426416
 31
0.0
  0
LINE
  5
2662
330
2644
100
AcDbEntity
  8
AM_5
 62
     3
100
AcDbLine
 10
-60.50000000000001
 20
-58.17478724426417
 30
0.0
 11
-55.50000000000001
 21
-58.17478724426417
 31
0.0
  0
INSERT
  5
2663
330
2644
100
AcDbEntity
  8
AM_5
 62
     3
100
AcDbBlockReference
  2
_Open30
 10
-63.00000000000001
 20
-58.17478724426417
 30
0.0
 41
2.5
 42
2.5
 43
2.5
 50
180.0
  0
INSERT
  5
2664
330
2644
100
AcDbEntity
  8
AM_5
 62
     3
100
AcDbBlockReference
  2
_Open30
 10
-53.00000000000001
 20
-58.17478724426417
 30
0.0
 41
2.5
 42
2.5
 43
2.5
  0
MTEXT
  5
2665
330
2644
100
AcDbEntity
  8
AM_5
 62
     2
100
AcDbMText
 10
-58.00000000000001
 20
-55.47478724426416
 30
0.0
 40
3.399999999999999
 41
0.0
 71
     5
 72
     1
  1
10
 73
     1
 44
1.0
  0
POINT
  5
2666
330
2644
100
AcDbEntity
  8
Defpoints
 62
     0
100
AcDbPoint
 10
-63.00000000000001
 20
-11.98341193077544
 30
0.0
  0
POINT
  5
2667
330
2644
100
AcDbEntity
  8
Defpoints
 62
     0
100
AcDbPoint
 10
-53.00000000000001
 20
-7.950000084943852
 30
0.0
  0
POINT
  5
2668
330
2644
100
AcDbEntity
  8
Defpoints
 62
     0
100
AcDbPoint
 10
-53.00000000000001
 20
-58.17478724426417
 30
0.0
  0
ENDBLK
  5
265F
330
2644
100
AcDbEntity
  8
0
100
AcDbBlockEnd
  0
BLOCK
  5
26AC
330
2682
100
AcDbEntity
  8
0
100
AcDbBlockBegin
  2
*D38
 70
     1
 10
0.0
 20
0.0
 30
0.0
  3
*D38
  1

  0
LINE
  5
26D8
330
2682
100
AcDbEntity
  8
AM_5
 62
     3
100
AcDbLine
 10
-57.65320233983713
 20
19.05000008494385
 30
0.0
 11
-83.31954258685602
 21
19.05000008494385
 31
0.0
  0
LINE
  5
26D9
330
2682
100
AcDbEntity
  8
AM_5
 62
     3
100
AcDbLine
 10
-57.65320233983714
 20
-19.05000008494386
 30
0.0
 11
-83.31954258685602
 21
-19.05000008494385
 31
0.0
  0
LINE
  5
26DA
330
2682
100
AcDbEntity
  8
AM_5
 62
     3
100
AcDbLine
 10
-82.81954258685601
 20
16.55000008494385
 30
0.0
 11
-82.81954258685601
 21
-16.55000008494385
 31
0.0
  0
INSERT
  5
26DB
330
2682
100
AcDbEntity
  8
AM_5
 62
     3
100
AcDbBlockReference
  2
_Open30
 10
-82.81954258685601
 20
19.05000008494385
 30
0.0
 41
2.5
 42
2.5
 43
2.5
 50
90.0
  0
INSERT
  5
26DC
330
2682
100
AcDbEntity
  8
AM_5
 62
     3
100
AcDbBlockReference
  2
_Open30
 10
-82.81954258685601
 20
-19.05000008494385
 30
0.0
 41
2.5
 42
2.5
 43
2.5
 50
270.0
  0
MTEXT
  5
26DD
330
2682
100
AcDbEntity
  8
AM_5
 62
     2
100
AcDbMText
 10
-85.51954258685602
 20
-0.0000000000000124
 30
0.0
 40
3.399999999999999
 41
0.0
 71
     5
 72
     1
  1
%%c38.1
 11
0.0000000000000001
 21
1.0
 31
0.0
 73
     1
 44
1.0
  0
POINT
  5
26DE
330
2682
100
AcDbEntity
  8
Defpoints
 62
     0
100
AcDbPoint
 10
-57.55320233983713
 20
19.05000008494385
 30
0.0
  0
POINT
  5
26DF
330
2682
100
AcDbEntity
  8
Defpoints
 62
     0
100
AcDbPoint
 10
-57.55320233983713
 20
-19.05000008494386
 30
0.0
  0
POINT
  5
26E0
330
2682
100
AcDbEntity
  8
Defpoints
 62
     0
100
AcDbPoint
 10
-82.81954258685601
 20
-19.05000008494385
 30
0.0
  0
ENDBLK
  5
26AD
330
2682
100
AcDbEntity
  8
0
100
AcDbBlockEnd
  0
BLOCK
  5
26D6
330
26BE
100
AcDbEntity
  8
0
100
AcDbBlockBegin
  2
*D39
 70
     1
 10
0.0
 20
0.0
 30
0.0
  3
*D39
  1

  0
LINE
  5
26CA
330
26BE
100
AcDbEntity
  8
AM_5
 62
     3
100
AcDbLine
 10
-57.70000000000002
 20
7.950000084943848
 30
0.0
 11
-75.50000100000002
 21
7.950000084943853
 31
0.0
  0
LINE
  5
26CB
330
26BE
100
AcDbEntity
  8
AM_5
 62
     3
100
AcDbLine
 10
-57.70000000000002
 20
-7.950000084943851
 30
0.0
 11
-75.50000100000002
 21
-7.950000084943845
 31
0.0
  0
LINE
  5
26CC
330
26BE
100
AcDbEntity
  8
AM_5
 62
     3
100
AcDbLine
 10
-75.00000100000002
 20
5.450000084943853
 30
0.0
 11
-75.00000100000002
 21
-5.450000084943845
 31
0.0
  0
INSERT
  5
26CD
330
26BE
100
AcDbEntity
  8
AM_5
 62
     3
100
AcDbBlockReference
  2
_Open30
 10
-75.00000100000002
 20
7.950000084943853
 30
0.0
 41
2.5
 42
2.5
 43
2.5
 50
90.0
  0
INSERT
  5
26CE
330
26BE
100
AcDbEntity
  8
AM_5
 62
     3
100
AcDbBlockReference
  2
_Open30
 10
-75.00000100000002
 20
-7.950000084943845
 30
0.0
 41
2.5
 42
2.5
 43
2.5
 50
270.0
  0
MTEXT
  5
26CF
330
26BE
100
AcDbEntity
  8
AM_5
 62
     2
100
AcDbMText
 10
-77.70000100000003
 20
-0.000000000000008
 30
0.0
 40
3.399999999999999
 41
0.0
 71
     5
 72
     1
  1
15.9
 11
0.0000000000000001
 21
1.0
 31
0.0
 73
     1
 44
1.0
  0
POINT
  5
26D0
330
26BE
100
AcDbEntity
  8
Defpoints
 62
     0
100
AcDbPoint
 10
-57.60000000000001
 20
7.950000084943848
 30
0.0
  0
POINT
  5
26D1
330
26BE
100
AcDbEntity
  8
Defpoints
 62
     0
100
AcDbPoint
 10
-57.60000000000001
 20
-7.950000084943851
 30
0.0
  0
POINT
  5
26D2
330
26BE
100
AcDbEntity
  8
Defpoints
 62
     0
100
AcDbPoint
 10
-75.00000100000002
 20
-7.950000084943845
 30
0.0
  0
ENDBLK
  5
26D7
330
26BE
100
AcDbEntity
  8
0
100
AcDbBlockEnd
  0
BLOCK
  5
2712
330
26F1
100
AcDbEntity
  8
0
100
AcDbBlockBegin
  2
*D40
 70
     1
 10
0.0
 20
0.0
 30
0.0
  3
*D40
  1

  0
LINE
  5
2706
330
26F1
100
AcDbEntity
  8
AM_5
 62
     3
100
AcDbLine
 10
-0.0000000000000107
 20
59.42499999999999
 30
0.0
 11
-0.0000000000000099
 21
71.82499999999999
 31
0.0
  0
LINE
  5
2707
330
26F1
100
AcDbEntity
  8
AM_5
 62
     3
100
AcDbLine
 10
-63.00000000000001
 20
32.84981349165554
 30
0.0
 11
-63.00000000000001
 21
71.82499999999999
 31
0.0
  0
LINE
  5
2708
330
26F1
100
AcDbEntity
  8
AM_5
 62
     3
100
AcDbLine
 10
-2.500000000000009
 20
71.32499999999999
 30
0.0
 11
-60.50000000000001
 21
71.32499999999999
 31
0.0
  0
INSERT
  5
2709
330
26F1
100
AcDbEntity
  8
AM_5
 62
     3
100
AcDbBlockReference
  2
_Open30
 10
-0.0000000000000099
 20
71.32499999999999
 30
0.0
 41
2.5
 42
2.5
 43
2.5
  0
INSERT
  5
270A
330
26F1
100
AcDbEntity
  8
AM_5
 62
     3
100
AcDbBlockReference
  2
_Open30
 10
-63.00000000000001
 20
71.32499999999999
 30
0.0
 41
2.5
 42
2.5
 43
2.5
 50
180.0
  0
MTEXT
  5
270B
330
26F1
100
AcDbEntity
  8
AM_5
 62
     2
100
AcDbMText
 10
-31.50000000000001
 20
74.02499999999999
 30
0.0
 40
3.399999999999999
 41
0.0
 71
     5
 72
     1
  1
63
 73
     1
 44
1.0
  0
POINT
  5
270C
330
26F1
100
AcDbEntity
  8
Defpoints
 62
     0
100
AcDbPoint
 10
-0.0000000000000107
 20
59.32499999999999
 30
0.0
  0
POINT
  5
270D
330
26F1
100
AcDbEntity
  8
Defpoints
 62
     0
100
AcDbPoint
 10
-63.00000000000001
 20
32.74981349165554
 30
0.0
  0
POINT
  5
270E
330
26F1
100
AcDbEntity
  8
Defpoints
 62
     0
100
AcDbPoint
 10
-63.00000000000001
 20
71.32499999999999
 30
0.0
  0
ENDBLK
  5
2713
330
26F1
100
AcDbEntity
  8
0
100
AcDbBlockEnd
  0
BLOCK
  5
2745
330
2724
100
AcDbEntity
  8
0
100
AcDbBlockBegin
  2
*D41
 70
     1
 10
0.0
 20
0.0
 30
0.0
  3
*D41
  1

  0
LINE
  5
2747
330
2724
100
AcDbEntity
  8
AM_5
 62
     3
100
AcDbLine
 10
-16.48845733710402
 20
28.00000008494385
 30
0.0
 11
15.2556198788363
 21
28.00000008494384
 31
0.0
  0
LINE
  5
2748
330
2724
100
AcDbEntity
  8
AM_5
 62
     3
100
AcDbLine
 10
-16.48845733710403
 20
-28.00000008494386
 30
0.0
 11
15.25561987883628
 21
-28.00000008494388
 31
0.0
  0
LINE
  5
2749
330
2724
100
AcDbEntity
  8
AM_5
 62
     3
100
AcDbLine
 10
14.7556198788363
 20
25.50000008494384
 30
0.0
 11
14.75561987883629
 21
-25.50000008494388
 31
0.0
  0
INSERT
  5
274A
330
2724
100
AcDbEntity
  8
AM_5
 62
     3
100
AcDbBlockReference
  2
_Open30
 10
14.7556198788363
 20
28.00000008494384
 30
0.0
 41
2.5
 42
2.5
 43
2.5
 50
90.0
  0
INSERT
  5
274B
330
2724
100
AcDbEntity
  8
AM_5
 62
     3
100
AcDbBlockReference
  2
_Open30
 10
14.75561987883628
 20
-28.00000008494388
 30
0.0
 41
2.5
 42
2.5
 43
2.5
 50
270.0
  0
MTEXT
  5
274C
330
2724
100
AcDbEntity
  8
AM_5
 62
     2
100
AcDbMText
 10
12.05561987883629
 20
-0.0000000000000148
 30
0.0
 40
3.399999999999999
 41
0.0
 71
     5
 72
     1
  1
%%c56
 11
0.0000000000000001
 21
1.0
 31
0.0
 73
     1
 44
1.0
  0
POINT
  5
274D
330
2724
100
AcDbEntity
  8
Defpoints
 62
     0
100
AcDbPoint
 10
-16.58845733710402
 20
28.00000008494385
 30
0.0
  0
POINT
  5
274E
330
2724
100
AcDbEntity
  8
Defpoints
 62
     0
100
AcDbPoint
 10
-16.58845733710403
 20
-28.00000008494386
 30
0.0
  0
POINT
  5
274F
330
2724
100
AcDbEntity
  8
Defpoints
 62
     0
100
AcDbPoint
 10
14.75561987883628
 20
-28.00000008494388
 30
0.0
  0
ENDBLK
  5
2746
330
2724
100
AcDbEntity
  8
0
100
AcDbBlockEnd
  0
ENDSEC
  0
SECTION
  2
ENTITIES
  0
MTEXT
  5
B1F
330
1F
100
AcDbEntity
  8
AM_6
100
AcDbMText
 10
-38.01317467220605
 20
-80.22748156560579
 30
0.0
 40
3.799999999999998
 41
60.06636689918345
 71
     1
 72
     5
  1
CNP13125R
  7
ACISOTS
 73
     1
 44
1.0
  0
LINE
  5
1FCB
330
1F
100
AcDbEntity
  8
AM_7
100
AcDbLine
 10
3.162683833136838
 20
0.0
 30
0.0
 11
-67.39575057914112
 21
0.0
 31
0.0
  0
LINE
  5
223B
330
1F
100
AcDbEntity
  8
AM_0
100
AcDbLine
 10
-1.0
 20
50.00000008494387
 30
0.0
 11
-1.0
 21
0.0
 31
0.0
  0
LINE
  5
24A4
330
1F
100
AcDbEntity
  8
AM_0
100
AcDbLine
 10
-62.20000000000002
 20
7.950000084943848
 30
0.0
 11
-53.00000000000001
 21
7.950000084943848
 31
0.0
  0
LINE
  5
24A5
330
1F
100
AcDbEntity
  8
AM_0
100
AcDbLine
 10
-53.00000000000001
 20
7.950000084943848
 30
0.0
 11
-53.00000000000001
 21
0.0000000849438493
 31
0.0
  0
LINE
  5
24A6
102
{ACAD_REACTORS
330
262B
102
}
330
1F
100
AcDbEntity
  8
AM_0
100
AcDbLine
 10
-63.0
 20
8.750000084943859
 30
0.0
 11
-63.00000000000002
 21
38.00000008494385
 31
0.0
  0
LINE
  5
24A7
102
{ACAD_REACTORS
330
25F8
102
}
330
1F
100
AcDbEntity
  8
AM_0
100
AcDbLine
 10
-61.00000000000002
 20
40.00000008494384
 30
0.0
 11
-44.14213562373095
 21
40.00000008494385
 31
0.0
  0
LINE
  5
24A8
330
1F
100
AcDbEntity
  8
AM_0
100
AcDbLine
 10
-37.07106781186548
 20
42.92893227307838
 30
0.0
 11
-20.96446609406729
 21
59.03553399087659
 31
0.0
  0
LINE
  5
24A9
330
1F
100
AcDbEntity
  8
AM_0
100
AcDbLine
 10
-17.42893218813455
 20
60.50000008494386
 30
0.0
 11
-13.65000000000002
 21
60.50000008494385
 31
0.0
  0
LINE
  5
24AA
330
1F
100
AcDbEntity
  8
AM_0
100
AcDbLine
 10
-13.65000000000002
 20
60.50000008494385
 30
0.0
 11
-13.086
 21
61.06400008494387
 31
0.0
  0
LINE
  5
24AC
330
1F
100
AcDbEntity
  8
AM_0
100
AcDbLine
 10
-1.000000000000013
 20
56.15
 30
0.0
 11
-1.000000000000014
 21
50.00000008494385
 31
0.0
  0
LINE
  5
24AD
330
1F
100
AcDbEntity
  8
AM_0
100
AcDbLine
 10
-1.000000000000014
 20
50.00000008494385
 30
0.0
 11
-12.25833032481492
 21
30.50000007345501
 31
0.0
  0
LINE
  5
24AE
330
1F
100
AcDbEntity
  8
AM_0
100
AcDbLine
 10
-16.58845733710402
 20
28.00000008494385
 30
0.0
 11
-25.00000000000002
 21
28.00000008494385
 31
0.0
  0
LINE
  5
24AF
102
{ACAD_REACTORS
330
262B
102
}
330
1F
100
AcDbEntity
  8
AM_0
100
AcDbLine
 10
-25.00000000000002
 20
28.00000008494385
 30
0.0
 11
-25.00000000000002
 21
0.0000000849438493
 31
0.0
  0
LINE
  5
24B0
102
{ACAD_REACTORS
330
268D
102
}
330
1F
100
AcDbEntity
  8
AM_0
100
AcDbLine
 10
-25.00000000000002
 20
19.05000008494385
 30
0.0
 11
-61.70000000000001
 21
19.05000008494385
 31
0.0
  0
LINE
  5
2561
330
1F
100
AcDbEntity
  8
AM_0
100
AcDbLine
 10
-13.086
 20
61.69999999999999
 30
0.0
 11
-13.086
 21
56.94999999999999
 31
0.0
  0
LINE
  5
2562
330
1F
100
AcDbEntity
  8
AM_0
100
AcDbLine
 10
-12.286
 20
56.15000000000001
 30
0.0
 11
-0.8000000000000078
 21
56.15000000000001
 31
0.0
  0
ARC
  5
2563
330
1F
100
AcDbEntity
  8
AM_0
100
AcDbCircle
 10
-12.286
 20
56.94999999999999
 30
0.0
 40
0.8
100
AcDbArc
 50
179.9999999999999
 51
270.0
  0
LINE
  5
2564
330
1F
100
AcDbEntity
  8
AM_0
100
AcDbLine
 10
-0.0000000000000107
 20
56.94999999999999
 30
0.0
 11
-0.0000000000000107
 21
61.69999999999999
 31
0.0
  0
ARC
  5
2565
330
1F
100
AcDbEntity
  8
AM_0
100
AcDbCircle
 10
-0.8000000000000078
 20
56.94999999999999
 30
0.0
 40
0.8
100
AcDbArc
 50
270.0
 51
0.0
  0
LINE
  5
2566
102
{ACAD_REACTORS
330
23EC
330
25B1
102
}
330
1F
100
AcDbEntity
  8
AM_0
100
AcDbLine
 10
-0.8000000000000078
 20
62.5
 30
0.0
 11
-12.286
 21
62.5
 31
0.0
  0
ARC
  5
2567
330
1F
100
AcDbEntity
  8
AM_0
100
AcDbCircle
 10
-0.8000000000000078
 20
61.69999999999999
 30
0.0
 40
0.8
100
AcDbArc
 50
0.0
 51
90.0
  0
ARC
  5
2568
330
1F
100
AcDbEntity
  8
AM_0
100
AcDbCircle
 10
-12.286
 20
61.69999999999999
 30
0.0
 40
0.8
100
AcDbArc
 50
90.0
 51
180.0
  0
LINE
  5
2569
330
1F
100
AcDbEntity
  8
AM_0
100
AcDbLine
 10
-63.00000000000001
 20
8.750000084943849
 30
0.0
 11
-62.20000000000002
 21
7.950000084943848
 31
0.0
  0
LINE
  5
256A
330
1F
100
AcDbEntity
  8
AM_0
100
AcDbLine
 10
-63.00000000000001
 20
20.35000008494385
 30
0.0
 11
-61.70000000000001
 21
19.05000008494385
 31
0.0
  0
ARC
  5
256B
330
1F
100
AcDbEntity
  8
AM_0
100
AcDbCircle
 10
-61.00000000000002
 20
38.00000008494385
 30
0.0
 40
2.0
100
AcDbArc
 50
90.0
 51
180.0
  0
ARC
  5
256E
330
1F
100
AcDbEntity
  8
AM_0
100
AcDbCircle
 10
-17.42893218813455
 20
55.50000008494386
 30
0.0
 40
5.0
100
AcDbArc
 50
90.0
 51
135.0
  0
ARC
  5
256F
102
{ACAD_REACTORS
330
272F
102
}
330
1F
100
AcDbEntity
  8
AM_0
100
AcDbCircle
 10
-16.58845733710402
 20
33.00000008494385
 30
0.0
 40
5.0
100
AcDbArc
 50
270.0
 51
329.9999998479808
  0
ARC
  5
2570
330
1F
100
AcDbEntity
  8
AM_0
100
AcDbCircle
 10
-44.14213562373095
 20
50.00000008494385
 30
0.0
 40
10.0
100
AcDbArc
 50
270.0
 51
315.0000000000001
  0
LINE
  5
2571
330
1F
100
AcDbEntity
  8
AM_0
100
AcDbLine
 10
-61.70000000000001
 20
19.05000008494385
 30
0.0
 11
-61.70000000000001
 21
7.950000084943848
 31
0.0
  0
LINE
  5
2572
330
1F
100
AcDbEntity
  8
AM_0
100
AcDbLine
 10
-1.0
 20
-50.00000008494389
 30
0.0
 11
-1.0
 21
0.0
 31
0.0
  0
LINE
  5
2573
102
{ACAD_REACTORS
330
26C9
102
}
330
1F
100
AcDbEntity
  8
AM_0
100
AcDbLine
 10
-62.20000000000002
 20
-7.950000084943852
 30
0.0
 11
-53.00000000000001
 21
-7.950000084943852
 31
0.0
  0
LINE
  5
2574
330
1F
100
AcDbEntity
  8
AM_0
100
AcDbLine
 10
-63.00000000000001
 20
-8.750000084943852
 30
0.0
 11
-62.20000000000002
 21
-7.950000084943852
 31
0.0
  0
LINE
  5
2575
102
{ACAD_REACTORS
330
264F
102
}
330
1F
100
AcDbEntity
  8
AM_0
100
AcDbLine
 10
-53.00000000000001
 20
-7.950000084943852
 30
0.0
 11
-53.00000000000001
 21
-0.0000000849438493
 31
0.0
  0
LINE
  5
2576
330
1F
100
AcDbEntity
  8
AM_0
100
AcDbLine
 10
-63.0
 20
-8.750000084943863
 30
0.0
 11
-63.00000000000002
 21
-38.00000008494386
 31
0.0
  0
LINE
  5
2577
102
{ACAD_REACTORS
330
25F8
102
}
330
1F
100
AcDbEntity
  8
AM_0
100
AcDbLine
 10
-61.00000000000002
 20
-40.00000008494387
 30
0.0
 11
-44.14213562373095
 21
-40.00000008494388
 31
0.0
  0
ARC
  5
2578
330
1F
100
AcDbEntity
  8
AM_0
100
AcDbCircle
 10
-61.00000000000002
 20
-38.00000008494386
 30
0.0
 40
2.0
100
AcDbArc
 50
180.0
 51
270.0
  0
LINE
  5
2579
330
1F
100
AcDbEntity
  8
AM_0
100
AcDbLine
 10
-37.07106781186548
 20
-42.92893227307841
 30
0.0
 11
-20.96446609406729
 21
-59.03553399087662
 31
0.0
  0
ARC
  5
257A
330
1F
100
AcDbEntity
  8
AM_0
100
AcDbCircle
 10
-44.14213562373095
 20
-50.00000008494388
 30
0.0
 40
10.0
100
AcDbArc
 50
44.99999999999997
 51
90.00000000000003
  0
LINE
  5
257B
330
1F
100
AcDbEntity
  8
AM_0
100
AcDbLine
 10
-17.42893218813455
 20
-60.50000008494389
 30
0.0
 11
-13.65000000000002
 21
-60.50000008494388
 31
0.0
  0
ARC
  5
257C
330
1F
100
AcDbEntity
  8
AM_0
100
AcDbCircle
 10
-17.42893218813455
 20
-55.50000008494388
 30
0.0
 40
5.0
100
AcDbArc
 50
225.0
 51
270.0
  0
LINE
  5
257D
330
1F
100
AcDbEntity
  8
AM_0
100
AcDbLine
 10
-13.65000000000002
 20
-60.50000008494388
 30
0.0
 11
-13.00000000000001
 21
-61.15000008494388
 31
0.0
  0
LINE
  5
257E
330
1F
100
AcDbEntity
  8
AM_0
100
AcDbLine
 10
-13.00000000000001
 20
-61.15000008494388
 30
0.0
 11
-1.000000000000014
 21
-61.15000008494388
 31
0.0
  0
LINE
  5
257F
330
1F
100
AcDbEntity
  8
AM_0
100
AcDbLine
 10
-1.000000000000014
 20
-61.15000008494388
 30
0.0
 11
-1.000000000000014
 21
-50.00000008494387
 31
0.0
  0
LINE
  5
2580
330
1F
100
AcDbEntity
  8
AM_0
100
AcDbLine
 10
-1.000000000000014
 20
-50.00000008494387
 30
0.0
 11
-12.25833032481492
 21
-30.50000007345502
 31
0.0
  0
LINE
  5
2581
330
1F
100
AcDbEntity
  8
AM_0
100
AcDbLine
 10
-16.58845733710402
 20
-28.00000008494386
 30
0.0
 11
-25.00000000000002
 21
-28.00000008494386
 31
0.0
  0
ARC
  5
2582
102
{ACAD_REACTORS
330
272F
102
}
330
1F
100
AcDbEntity
  8
AM_0
100
AcDbCircle
 10
-16.58845733710402
 20
-33.00000008494386
 30
0.0
 40
5.0
100
AcDbArc
 50
30.00000015201921
 51
90.00000000000003
  0
LINE
  5
2583
330
1F
100
AcDbEntity
  8
AM_0
100
AcDbLine
 10
-25.00000000000002
 20
-28.00000008494386
 30
0.0
 11
-25.00000000000002
 21
-0.0000000849438493
 31
0.0
  0
LINE
  5
2584
102
{ACAD_REACTORS
330
268D
102
}
330
1F
100
AcDbEntity
  8
AM_0
100
AcDbLine
 10
-25.00000000000002
 20
-19.05000008494386
 30
0.0
 11
-61.70000000000001
 21
-19.05000008494386
 31
0.0
  0
LINE
  5
2585
330
1F
100
AcDbEntity
  8
AM_0
100
AcDbLine
 10
-63.00000000000001
 20
-20.35000008494386
 30
0.0
 11
-61.70000000000001
 21
-19.05000008494386
 31
0.0
  0
LINE
  5
2586
330
1F
100
AcDbEntity
  8
AM_3
 48
0.3
100
AcDbLine
 10
-13.086
 20
-61.70000000000001
 30
0.0
 11
-13.086
 21
-56.95000000000002
 31
0.0
  0
LINE
  5
2587
330
1F
100
AcDbEntity
  8
AM_3
 48
0.3
100
AcDbLine
 10
-12.286
 20
-56.15000000000003
 30
0.0
 11
-0.8000000000000087
 21
-56.15000000000003
 31
0.0
  0
ARC
  5
2588
330
1F
100
AcDbEntity
  8
AM_3
 48
0.3
100
AcDbCircle
 10
-12.286
 20
-56.95000000000002
 30
0.0
 40
0.8
100
AcDbArc
 50
90.00000000000003
 51
180.0000000000001
  0
LINE
  5
2589
330
1F
100
AcDbEntity
  8
AM_0
100
AcDbLine
 10
-0.0000000000000115
 20
-56.95000000000002
 30
0.0
 11
-0.0000000000000115
 21
-61.70000000000001
 31
0.0
  0
ARC
  5
258A
330
1F
100
AcDbEntity
  8
AM_0
100
AcDbCircle
 10
-0.8000000000000087
 20
-56.95000000000002
 30
0.0
 40
0.8
100
AcDbArc
 50
0.0
 51
90.00000000000003
  0
LINE
  5
258B
102
{ACAD_REACTORS
330
25B1
102
}
330
1F
100
AcDbEntity
  8
AM_0
100
AcDbLine
 10
-0.8000000000000087
 20
-62.50000000000003
 30
0.0
 11
-12.286
 21
-62.50000000000003
 31
0.0
  0
ARC
  5
258C
330
1F
100
AcDbEntity
  8
AM_0
100
AcDbCircle
 10
-0.8000000000000087
 20
-61.70000000000001
 30
0.0
 40
0.8
100
AcDbArc
 50
270.0
 51
0.0
  0
ARC
  5
258D
330
1F
100
AcDbEntity
  8
AM_0
100
AcDbCircle
 10
-12.286
 20
-61.70000000000001
 30
0.0
 40
0.8
100
AcDbArc
 50
180.0
 51
270.0
  0
LINE
  5
258E
330
1F
100
AcDbEntity
  8
AM_0
100
AcDbLine
 10
-61.70000000000001
 20
-19.05000008494386
 30
0.0
 11
-61.70000000000001
 21
-7.950000084943852
 31
0.0
  0
LINE
  5
2590
330
1F
100
AcDbEntity
  8
AM_0
100
AcDbLine
 10
-13.086
 20
-61.70000000000001
 30
0.0
 11
-13.086
 21
-61.06400008494389
 31
0.0
  0
LINE
  5
2591
330
1F
100
AcDbEntity
  8
AM_0
100
AcDbLine
 10
-1.000000000000014
 20
-56.15000000000003
 30
0.0
 11
-0.800000000000077
 21
-56.15000000000001
 31
0.0
  0
DIMENSION
  5
25A5
102
{ACAD_XDICTIONARY
360
25B0
102
}
102
{ACAD_REACTORS
330
25B1
102
}
330
1F
100
AcDbEntity
  8
AM_5
100
AcDbDimension
  2
*D34
 10
22.99640792092259
 20
-62.50000000000003
 30
0.0
 11
20.29607327525332
 21
-0.0000000000000153
 31
0.0
 70
    32
  1
%%c<>
 71
     5
 42
125.0
  3
AM_JIS$0
100
AcDbAlignedDimension
 13
-3.304326082704732
 23
62.5
 33
0.0
 14
-3.304326082704733
 24
-62.50000000000003
 34
0.0
 50
90.00000000000003
100
AcDbRotatedDimension
1001
ACAD
1000
DSTYLE
1002
{
1070
    40
1040
1.0
1070
   144
1040
1.0
1070
   271
1070
     0
1002
}
  0
DIMENSION
  5
25EC
102
{ACAD_XDICTIONARY
360
25F7
102
}
102
{ACAD_REACTORS
330
25F8
102
}
330
1F
100
AcDbEntity
  8
AM_5
100
AcDbDimension
  2
*D35
 10
-92.77644179400386
 20
-40.00000008494386
 30
0.0
 11
-95.47644179400384
 21
-0.0000000000000189
 31
0.0
 70
    32
  1
%%c<>
 71
     5
 42
80.00000016988773
  3
AM_JIS$0
100
AcDbAlignedDimension
 13
-57.35053133475844
 23
40.00000008494384
 33
0.0
 14
-57.35053133475846
 24
-40.00000008494387
 34
0.0
 50
90.00000000000005
100
AcDbRotatedDimension
1001
ACAD
1000
DSTYLE
1002
{
1070
    40
1040
1.0
1070
   144
1040
1.0
1070
   271
1070
     0
1002
}
  0
DIMENSION
  5
261F
102
{ACAD_XDICTIONARY
360
262A
102
}
102
{ACAD_REACTORS
330
262B
330
264F
330
26FC
102
}
330
1F
100
AcDbEntity
  8
AM_5
100
AcDbDimension
  2
*D36
 10
-25.00000000000002
 20
-65.90696340544042
 30
0.0
 11
-44.00000000000002
 21
-63.20696340544042
 31
0.0
 70
    32
 71
     5
 42
38.0
  3
AM_JIS$0
100
AcDbAlignedDimension
 13
-63.00000000000001
 23
32.84981349165554
 33
0.0
 14
-25.00000000000002
 24
23.67914139913409
 34
0.0
 50
0.0000000000001132
100
AcDbRotatedDimension
1001
ACAD
1000
DSTYLE
1002
{
1070
    40
1040
1.0
1070
   144
1040
1.0
1070
   271
1070
     0
1002
}
  0
DIMENSION
  5
2643
102
{ACAD_XDICTIONARY
360
264E
102
}
102
{ACAD_REACTORS
330
264F
102
}
330
1F
100
AcDbEntity
  8
AM_5
100
AcDbDimension
  2
*D37
 10
-53.00000000000001
 20
-58.17478724426417
 30
0.0
 11
-58.00000000000001
 21
-55.47478724426416
 31
0.0
 70
    32
 71
     5
 42
10.0
  3
AM_JIS$0
100
AcDbAlignedDimension
 13
-63.00000000000001
 23
-11.98341193077544
 33
0.0
 14
-53.00000000000001
 24
-7.950000084943852
 34
0.0
 50
0.0000000000001132
100
AcDbRotatedDimension
1001
ACAD
1000
DSTYLE
1002
{
1070
    40
1040
1.0
1070
   144
1040
1.0
1070
   271
1070
     0
1002
}
  0
DIMENSION
  5
2681
102
{ACAD_XDICTIONARY
360
268C
102
}
102
{ACAD_REACTORS
330
268D
102
}
330
1F
100
AcDbEntity
  8
AM_5
100
AcDbDimension
  2
*D38
 10
-82.81954258685601
 20
-19.05000008494385
 30
0.0
 11
-85.51954258685602
 21
-0.0000000000000124
 31
0.0
 70
    32
  1
%%c<>
 71
     5
 42
38.10000016988771
  3
AM_JIS$0
100
AcDbAlignedDimension
 13
-57.55320233983713
 23
19.05000008494385
 33
0.0
 14
-57.55320233983713
 24
-19.05000008494386
 34
0.0
 50
90.00000000000003
100
AcDbRotatedDimension
1001
ACAD
1000
DSTYLE
1002
{
1070
   271
1070
     1
1002
}
  0
DIMENSION
  5
26BD
102
{ACAD_XDICTIONARY
360
26C8
102
}
102
{ACAD_REACTORS
330
26C9
102
}
330
1F
100
AcDbEntity
  8
AM_5
100
AcDbDimension
  2
*D39
 10
-75.00000100000002
 20
-7.950000084943845
 30
0.0
 11
-77.70000100000003
 21
-0.000000000000008
 31
0.0
 70
    32
 71
     5
 42
15.9000001698877
  3
AM_JIS$0
100
AcDbAlignedDimension
 13
-57.60000000000001
 23
7.950000084943848
 33
0.0
 14
-57.60000000000001
 24
-7.950000084943851
 34
0.0
 50
90.00000000000003
100
AcDbRotatedDimension
1001
ACAD
1000
DSTYLE
1002
{
1070
    40
1040
1.0
1070
   144
1040
1.0
1070
   271
1070
     1
1002
}
  0
DIMENSION
  5
26F0
102
{ACAD_XDICTIONARY
360
26FB
102
}
102
{ACAD_REACTORS
330
26FC
102
}
330
1F
100
AcDbEntity
  8
AM_5
100
AcDbDimension
  2
*D40
 10
-63.00000000000001
 20
71.32499999999999
 30
0.0
 11
-31.50000000000001
 21
74.02499999999999
 31
0.0
 70
    32
 71
     5
 42
63.0
  3
AM_JIS$0
100
AcDbAlignedDimension
 13
-0.0000000000000107
 23
59.32499999999999
 33
0.0
 14
-63.00000000000001
 24
32.74981349165554
 34
0.0
100
AcDbRotatedDimension
1001
ACAD
1000
DSTYLE
1002
{
1070
   271
1070
     0
1002
}
  0
DIMENSION
  5
2723
102
{ACAD_XDICTIONARY
360
272E
102
}
102
{ACAD_REACTORS
330
272F
102
}
330
1F
100
AcDbEntity
  8
AM_5
100
AcDbDimension
  2
*D41
 10
14.75561987883628
 20
-28.00000008494388
 30
0.0
 11
12.05561987883629
 21
-0.0000000000000148
 31
0.0
 70
    32
  1
%%c<>
 71
     5
 42
56.00000016988771
  3
AM_JIS$0
100
AcDbAlignedDimension
 13
-16.58845733710402
 23
28.00000008494385
 33
0.0
 14
-16.58845733710403
 24
-28.00000008494386
 34
0.0
 50
90.00000000000003
100
AcDbRotatedDimension
1001
ACAD
1000
DSTYLE
1002
{
1070
    40
1040
1.0
1070
   144
1040
1.0
1070
   271
1070
     0
1002
}
  0
ENDSEC
  0
SECTION
  2
OBJECTS
  0
DICTIONARY
  5
C
330
0
100
AcDbDictionary
281
     1
  3
ACAD_COLOR
350
BE
  3
ACAD_GROUP
350
D
  3
ACAD_LAYOUT
350
1A
  3
ACAD_MATERIAL
350
BD
  3
ACAD_MLINESTYLE
350
17
  3
ACAD_PLOTSETTINGS
350
19
  3
ACAD_PLOTSTYLENAME
350
E
  3
ACAD_TABLESTYLE
350
11A
  3
AcDbVariableDictionary
350
94
  3
AcmDictionary
350
5B
  3
AMG
350
41
  3
AMGSNAPSETTINGS
350
1B8
  0
DICTIONARY
  5
34B
330
2
100
AcDbDictionary
280
     1
281
     1
  3
AMLAYER_GROUPCOLORS
360
34C
  0
DICTIONARY
  5
8F
330
1F
100
AcDbDictionary
280
     1
281
     1
  3
ACAD_SORTENTS
360
7DB
  0
DICTIONARY
  5
25B0
330
25A5
100
AcDbDictionary
280
     1
281
     1
  3
ACAD_DIMASSOC
360
25B1
  0
DICTIONARY
  5
25F7
330
25EC
100
AcDbDictionary
280
     1
281
     1
  3
ACAD_DIMASSOC
360
25F8
  0
DICTIONARY
  5
262A
330
261F
100
AcDbDictionary
280
     1
281
     1
  3
ACAD_DIMASSOC
360
262B
  0
DICTIONARY
  5
264E
330
2643
100
AcDbDictionary
280
     1
281
     1
  3
ACAD_DIMASSOC
360
264F
  0
DICTIONARY
  5
268C
330
2681
100
AcDbDictionary
280
     1
281
     1
  3
ACAD_DIMASSOC
360
268D
  0
DICTIONARY
  5
26C8
330
26BD
100
AcDbDictionary
280
     1
281
     1
  3
ACAD_DIMASSOC
360
26C9
  0
DICTIONARY
  5
26FB
330
26F0
100
AcDbDictionary
280
     1
281
     1
  3
ACAD_DIMASSOC
360
26FC
  0
DICTIONARY
  5
272E
330
2723
100
AcDbDictionary
280
     1
281
     1
  3
ACAD_DIMASSOC
360
272F
  0
DICTIONARY
  5
BE
102
{ACAD_REACTORS
330
C
102
}
330
C
100
AcDbDictionary
281
     1
  0
DICTIONARY
  5
D
102
{ACAD_REACTORS
330
C
102
}
330
C
100
AcDbDictionary
281
     1
  0
DICTIONARY
  5
1A
102
{ACAD_REACTORS
330
C
102
}
330
C
100
AcDbDictionary
281
     1
  3
\M+1838C\M+18343\M+18341\M+18345\M+183671
350
1E
  3
\M+1838C\M+18343\M+18341\M+18345\M+183672
350
26
  3
Model
350
22
  0
DICTIONARY
  5
BD
102
{ACAD_REACTORS
330
C
102
}
330
C
100
AcDbDictionary
281
     1
  0
DICTIONARY
  5
17
102
{ACAD_REACTORS
330
C
102
}
330
C
100
AcDbDictionary
281
     1
  3
Standard
350
18
  0
DICTIONARY
  5
19
102
{ACAD_REACTORS
330
C
102
}
330
C
100
AcDbDictionary
281
     1
  0
ACDBDICTIONARYWDFLT
  5
E
102
{ACAD_REACTORS
330
C
102
}
330
C
100
AcDbDictionary
281
     1
  3
Normal
350
F
100
AcDbDictionaryWithDefault
340
F
  0
DICTIONARY
  5
11A
102
{ACAD_REACTORS
330
C
102
}
330
C
100
AcDbDictionary
281
     1
  3
Standard
350
11B
  0
DICTIONARY
  5
94
102
{ACAD_REACTORS
330
C
102
}
330
C
100
AcDbDictionary
281
     1
  3
CTABLESTYLE
350
138
  3
DIMASSOC
350
96
  3
INDEXCTL
350
95
  0
DICTIONARY
  5
5B
102
{ACAD_REACTORS
330
C
102
}
330
C
100
AcDbDictionary
281
     1
  3
AcmBOM
350
1B5
  3
AcmStdDictionary
350
61
  3
AMDTSECTSYM_ARROWCOLOR
350
123
  0
DICTIONARY
  5
41
102
{ACAD_REACTORS
330
C
102
}
330
C
100
AcDbDictionary
281
     1
  0
DICTIONARY
  5
1B8
102
{ACAD_REACTORS
330
C
102
}
330
C
100
AcDbDictionary
281
     1
  0
DICTIONARY
  5
34C
102
{ACAD_REACTORS
330
34B
102
}
330
34B
100
AcDbDictionary
280
     1
281
     1
  0
SORTENTSTABLE
  5
7DB
102
{ACAD_REACTORS
330
8F
102
}
330
8F
100
AcDbSortentsTable
330
1F
331
24A4
  5
24A5
331
2563
  5
2569
331
2562
  5
2568
331
2561
  5
2567
331
24B0
  5
2564
331
256F
  5
2562
331
B1F
  5
101D
331
24AF
  5
2563
331
256E
  5
24AE
331
24AE
  5
2561
331
24AD
  5
2558
331
24AC
  5
24B7
331
256B
  5
24AA
331
256A
  5
2565
331
2570
  5
24AC
331
24AA
  5
24AF
331
2569
  5
24A6
331
2568
  5
2570
331
24A9
  5
24AD
331
223B
  5
2288
331
2567
  5
256F
331
24A8
  5
24AB
331
1FCB
  5
1FF7
331
2566
  5
256E
331
24A7
  5
24A9
331
2565
  5
256B
331
24A6
  5
24A8
331
2564
  5
256A
331
24A5
  5
24A7
  0
DIMASSOC
  5
25B1
102
{ACAD_REACTORS
330
25B0
102
}
330
25B0
100
AcDbDimAssoc
330
25A5
 90
        3
 70
     0
 71
     0
  1
AcDbOsnapPointRef
 72
    10
331
2566
 73
     0
 91
        0
 40
0.2180329168295947
 10
0.0
 20
0.0
 30
0.0
 75
     0
  1
AcDbOsnapPointRef
 72
     8
331
258B
 73
     0
 91
        0
 40
0.2180329168295947
 10
0.0
 20
0.0
 30
0.0
 75
     1
  1
AcDbOsnapPointRef
 72
    10
331
2566
 73
     0
 91
        0
 40
0.2180329168295947
 10
0.0
 20
0.0
 30
0.0
 75
     0
  0
DIMASSOC
  5
25F8
102
{ACAD_REACTORS
330
25F7
102
}
330
25F7
100
AcDbDimAssoc
330
25EC
 90
        3
 70
     0
 71
     0
  1
AcDbOsnapPointRef
 72
    10
331
24A7
 73
     0
 91
        0
 40
0.2164846378986753
 10
0.0
 20
0.0
 30
0.0
 75
     0
  1
AcDbOsnapPointRef
 72
     8
331
2577
 73
     0
 91
        0
 40
0.2164846378986736
 10
0.0
 20
0.0
 30
0.0
 75
     1
  1
AcDbOsnapPointRef
 72
    10
331
24A7
 73
     0
 91
        0
 40
0.2164846378986753
 10
0.0
 20
0.0
 30
0.0
 75
     0
  0
DIMASSOC
  5
262B
102
{ACAD_REACTORS
330
262A
102
}
330
262A
100
AcDbDimAssoc
330
261F
 90
        3
 70
     0
 71
     0
  1
AcDbOsnapPointRef
 72
    10
331
24A6
 73
     0
 91
        0
 40
0.8239252446739037
 10
0.0
 20
0.0
 30
0.0
 75
     0
  1
AcDbOsnapPointRef
 72
    10
331
24AF
 73
     0
 91
        0
 40
0.1543163816360627
 10
0.0
 20
0.0
 30
0.0
 75
     0
  0
DIMASSOC
  5
264F
102
{ACAD_REACTORS
330
264E
102
}
330
264E
100
AcDbDimAssoc
330
2643
 90
        3
 70
     0
 71
     0
  1
AcDbOsnapPointRef
 72
    10
331
261F
331
262C
 73
     0
 91
        0
 40
0.4511363400693705
 10
0.0
 20
0.0
 30
0.0
 75
     0
  1
AcDbOsnapPointRef
 72
    13
331
2575
 73
     0
 91
        0
 40
0.0
 10
0.0
 20
0.0
 30
2.000000000000000E+50
 75
     0
  0
DIMASSOC
  5
268D
102
{ACAD_REACTORS
330
268C
102
}
330
268C
100
AcDbDimAssoc
330
2681
 90
        3
 70
     0
 71
     0
  1
AcDbOsnapPointRef
 72
    10
331
24B0
 73
     0
 91
        0
 40
0.8870082381427003
 10
0.0
 20
0.0
 30
0.0
 75
     0
  1
AcDbOsnapPointRef
 72
     8
331
2584
 73
     0
 91
        0
 40
0.8870082381427007
 10
0.0
 20
0.0
 30
0.0
 75
     1
  1
AcDbOsnapPointRef
 72
    10
331
24B0
 73
     0
 91
        0
 40
0.8870082381427003
 10
0.0
 20
0.0
 30
0.0
 75
     0
  0
DIMASSOC
  5
26C9
102
{ACAD_REACTORS
330
26C8
102
}
330
26C8
100
AcDbDimAssoc
330
26BD
 90
        2
 70
     0
 71
     0
  1
AcDbOsnapPointRef
 72
     8
331
2573
 73
     0
 91
        0
 40
0.5
 10
0.0
 20
0.0
 30
0.0
 75
     0
  0
DIMASSOC
  5
26FC
102
{ACAD_REACTORS
330
26FB
102
}
330
26FB
100
AcDbDimAssoc
330
26F0
 90
        2
 70
     0
 71
     0
  1
AcDbOsnapPointRef
 72
    13
331
261F
331
262C
 73
     0
 91
        0
 40
0.0
 10
0.0
 20
0.0
 30
2.000000000000000E+50
 75
     0
  0
DIMASSOC
  5
272F
102
{ACAD_REACTORS
330
272E
102
}
330
272E
100
AcDbDimAssoc
330
2723
 90
        3
 70
     0
 71
     0
  1
AcDbOsnapPointRef
 72
    13
331
256F
 73
     0
 91
        0
 40
0.0
 10
0.0
 20
0.0
 30
2.000000000000000E+50
 75
     0
  1
AcDbOsnapPointRef
 72
     1
331
2582
 73
     0
 91
        0
 40
0.0
 10
0.0
 20
0.0
 30
2.000000000000000E+50
 75
     0
  0
LAYOUT
  5
1E
102
{ACAD_REACTORS
330
1A
102
}
330
1A
100
AcDbPlotSettings
  1

  2

  4

  6

 40
0.0
 41
0.0
 42
0.0
 43
0.0
 44
0.0
 45
0.0
 46
0.0
 47
0.0
 48
0.0
 49
0.0
140
0.0
141
0.0
142
1.0
143
1.0
 70
   688
 72
     0
 73
     0
 74
     5
  7
sei_cad.ctb
 75
    16
147
1.0
 76
     0
 77
     2
 78
   300
148
0.0
149
0.0
100
AcDbLayout
  1
\M+1838C\M+18343\M+18341\M+18345\M+183671
 70
     1
 71
     1
 10
0.0
 20
0.0
 11
420.0
 21
297.0
 12
0.0
 22
0.0
 32
0.0
 14
1.000000000000000E+20
 24
1.000000000000000E+20
 34
1.000000000000000E+20
 15
-1.000000000000000E+20
 25
-1.000000000000000E+20
 35
-1.000000000000000E+20
146
0.0
 13
0.0
 23
0.0
 33
0.0
 16
1.0
 26
0.0
 36
0.0
 17
0.0
 27
1.0
 37
0.0
 76
     0
330
1B
  0
LAYOUT
  5
26
102
{ACAD_REACTORS
330
1A
102
}
330
1A
100
AcDbPlotSettings
  1

  2

  4

  6

 40
0.0
 41
0.0
 42
0.0
 43
0.0
 44
0.0
 45
0.0
 46
0.0
 47
0.0
 48
0.0
 49
0.0
140
0.0
141
0.0
142
1.0
143
1.0
 70
   688
 72
     0
 73
     0
 74
     5
  7
sei_cad.ctb
 75
    16
147
1.0
 76
     0
 77
     2
 78
   300
148
0.0
149
0.0
100
AcDbLayout
  1
\M+1838C\M+18343\M+18341\M+18345\M+183672
 70
     1
 71
     2
 10
0.0
 20
0.0
 11
12.0
 21
9.0
 12
0.0
 22
0.0
 32
0.0
 14
0.0
 24
0.0
 34
0.0
 15
0.0
 25
0.0
 35
0.0
146
0.0
 13
0.0
 23
0.0
 33
0.0
 16
1.0
 26
0.0
 36
0.0
 17
0.0
 27
1.0
 37
0.0
 76
     0
330
23
  0
LAYOUT
  5
22
102
{ACAD_REACTORS
330
1A
102
}
330
1A
100
AcDbPlotSettings
  1

  2
SII LP-1010 (C2 VR)2R
  4
A4
  6

 40
3.174999952316283
 41
3.174999952316283
 42
3.175003051757812
 43
3.17498779296875
 44
209.9733276367186
 45
296.9259948730469
 46
0.0
 47
0.0
 48
0.0
 49
0.0
140
0.0
141
0.0
142
1.0
143
1.458575536647462
 70
 11952
 72
     1
 73
     1
 74
     2
  7
sei_cad.ctb
 75
     0
147
0.6856004196385343
 76
     0
 77
     2
 78
   300
148
0.0
149
0.0
100
AcDbLayout
  1
Model
 70
     1
 71
     0
 10
0.0
 20
0.0
 11
12.0
 21
9.0
 12
0.0
 22
0.0
 32
0.0
 14
0.0
 24
0.0
 34
0.0
 15
0.0
 25
0.0
 35
0.0
146
0.0
 13
0.0
 23
0.0
 33
0.0
 16
1.0
 26
0.0
 36
0.0
 17
0.0
 27
1.0
 37
0.0
 76
     0
330
1F
1001
ACAD_PSEXT
1000
SII LP-1010 (C2 VR)2R
1000
SII LP-1010 (C2 VR)2R
1000
133.153.16.130#9100
1000

1070
     0
  0
MLINESTYLE
  5
18
102
{ACAD_REACTORS
330
17
102
}
330
17
100
AcDbMlineStyle
  2
STANDARD
 70
     0
  3

 62
   256
 51
90.0
 52
90.0
 71
     2
 49
0.5
 62
   256
  6
BYLAYER
 49
-0.5
 62
   256
  6
BYLAYER
  0
ACDBPLACEHOLDER
  5
F
102
{ACAD_REACTORS
330
E
102
}
330
E
  0
TABLESTYLE
  5
11B
102
{ACAD_REACTORS
330
11A
102
}
330
11A
100
AcDbTableStyle
  3
Standard
 70
     0
 71
     0
 40
1.5
 41
1.5
280
     0
281
     0
  7
STANDARD
140
4.5
170
     2
 62
     0
 63
     7
283
     0
274
    -2
284
     1
 64
     0
275
    -2
285
     1
 65
     0
276
    -2
286
     1
 66
     0
277
    -2
287
     1
 67
     0
278
    -2
288
     1
 68
     0
279
    -2
289
     1
 69
     0
  7
STANDARD
140
6.0
170
     5
 62
     0
 63
     7
283
     0
274
    -2
284
     1
 64
     0
275
    -2
285
     1
 65
     0
276
    -2
286
     1
 66
     0
277
    -2
287
     1
 67
     0
278
    -2
288
     1
 68
     0
279
    -2
289
     1
 69
     0
  7
STANDARD
140
4.5
170
     5
 62
     0
 63
     7
283
     0
274
    -2
284
     1
 64
     0
275
    -2
285
     1
 65
     0
276
    -2
286
     1
 66
     0
277
    -2
287
     1
 67
     0
278
    -2
288
     1
 68
     0
279
    -2
289
     1
 69
     0
  0
DICTIONARYVAR
  5
138
102
{ACAD_REACTORS
330
94
102
}
330
94
100
DictionaryVariables
280
     0
  1
STANDARD
  0
DICTIONARYVAR
  5
96
102
{ACAD_REACTORS
330
94
102
}
330
94
100
DictionaryVariables
280
     0
  1
2
  0
DICTIONARYVAR
  5
95
102
{ACAD_REACTORS
330
94
102
}
330
94
100
DictionaryVariables
280
     0
  1
1
  0
DICTIONARY
  5
1B5
102
{ACAD_REACTORS
330
5B
102
}
330
5B
100
AcDbDictionary
281
     1
  0
DICTIONARY
  5
61
102
{ACAD_REACTORS
330
5B
102
}
330
5B
100
AcDbDictionary
281
     1
  0
XRECORD
  5
123
102
{ACAD_REACTORS
330
5B
102
}
330
5B
100
AcDbXrecord
280
     1
 90
-1023410169
  0
ENDSEC
  0
EOF
