  0
SECTION
  2
HEADER
  9
$ACADVER
  1
AC1014
  9
$ACADMAINTVER
 70
     9
  9
$DWGCODEPAGE
  3
ANSI_932
  9
$INSBASE
 10
0.0
 20
0.0
 30
0.0
  9
$EXTMIN
 10
-106.2522990351169
 20
-106.5000009999999
 30
-0.00000001
  9
$EXTMAX
 10
35.11355077468615
 20
50.0
 30
0.00000001
  9
$LIMMIN
 10
-128.6242631954538
 20
-124.9188381614793
  9
$LIMMAX
 10
50.59017542135984
 20
71.5095561809253
  9
$ORTHOMODE
 70
     0
  9
$REGENMODE
 70
     1
  9
$FILLMODE
 70
     1
  9
$QTEXTMODE
 70
     0
  9
$MIRRTEXT
 70
     0
  9
$DRAGMODE
 70
     2
  9
$LTSCALE
 40
1.0
  9
$OSMODE
 70
    55
  9
$ATTMODE
 70
     1
  9
$TEXTSIZE
 40
2.5
  9
$TRACEWID
 40
1.0
  9
$TEXTSTYLE
  7
STANDARD
  9
$CLAYER
  8
AM_0
  9
$CELTYPE
  6
BYLAYER
  9
$CECOLOR
 62
   256
  9
$CELTSCALE
 40
1.0
  9
$DELOBJ
 70
     1
  9
$DISPSILH
 70
     0
  9
$DIMSCALE
 40
1.0
  9
$DIMASZ
 40
2.5
  9
$DIMEXO
 40
1.0
  9
$DIMDLI
 40
12.0
  9
$DIMRND
 40
0.0
  9
$DIMDLE
 40
0.0
  9
$DIMEXE
 40
1.0
  9
$DIMTP
 40
0.1
  9
$DIMTM
 40
0.1
  9
$DIMTXT
 40
3.2
  9
$DIMCEN
 40
0.0
  9
$DIMTSZ
 40
0.0
  9
$DIMTOL
 70
     0
  9
$DIMLIM
 70
     0
  9
$DIMTIH
 70
     0
  9
$DIMTOH
 70
     0
  9
$DIMSE1
 70
     0
  9
$DIMSE2
 70
     0
  9
$DIMTAD
 70
     3
  9
$DIMZIN
 70
     8
  9
$DIMBLK
  1
OPEN30
  9
$DIMASO
 70
     1
  9
$DIMSHO
 70
     1
  9
$DIMPOST
  1

  9
$DIMAPOST
  1
"
  9
$DIMALT
 70
     0
  9
$DIMALTD
 70
     2
  9
$DIMALTF
 40
0.0393701
  9
$DIMLFAC
 40
1.0
  9
$DIMTOFL
 70
     1
  9
$DIMTVP
 40
0.0
  9
$DIMTIX
 70
     0
  9
$DIMSOXD
 70
     0
  9
$DIMSAH
 70
     0
  9
$DIMBLK1
  1

  9
$DIMBLK2
  1

  9
$DIMSTYLE
  2
AM_JIS
  9
$DIMCLRD
 70
   256
  9
$DIMCLRE
 70
   256
  9
$DIMCLRT
 70
     2
  9
$DIMTFAC
 40
0.71
  9
$DIMGAP
 40
1.5
  9
$DIMJUST
 70
     0
  9
$DIMSD1
 70
     0
  9
$DIMSD2
 70
     0
  9
$DIMTOLJ
 70
     0
  9
$DIMTZIN
 70
     0
  9
$DIMALTZ
 70
     0
  9
$DIMALTTZ
 70
     0
  9
$DIMFIT
 70
     3
  9
$DIMUPT
 70
     0
  9
$DIMUNIT
 70
     2
  9
$DIMDEC
 70
     3
  9
$DIMTDEC
 70
     3
  9
$DIMALTU
 70
     2
  9
$DIMALTTD
 70
     2
  9
$DIMTXSTY
  7
ASAMI
  9
$DIMAUNIT
 70
     0
  9
$LUNITS
 70
     2
  9
$LUPREC
 70
     2
  9
$SKETCHINC
 40
1.0
  9
$FILLETRAD
 40
1.0
  9
$AUNITS
 70
     0
  9
$AUPREC
 70
     0
  9
$MENU
  1
.
  9
$ELEVATION
 40
0.0
  9
$PELEVATION
 40
0.0
  9
$THICKNESS
 40
0.0
  9
$LIMCHECK
 70
     0
  9
$BLIPMODE
 70
     0
  9
$CHAMFERA
 40
1.199999999999999
  9
$CHAMFERB
 40
1.199999999999999
  9
$CHAMFERC
 40
20.0
  9
$CHAMFERD
 40
0.0
  9
$SKPOLY
 70
     0
  9
$TDCREATE
 40
2452836.771637361
  9
$TDUPDATE
 40
2453152.370662476
  9
$TDINDWG
 40
0.1847524190
  9
$TDUSRTIMER
 40
0.1847524190
  9
$USRTIMER
 70
     1
  9
$ANGBASE
 50
0.0
  9
$ANGDIR
 70
     0
  9
$PDMODE
 70
     0
  9
$PDSIZE
 40
0.0
  9
$PLINEWID
 40
0.0
  9
$COORDS
 70
     1
  9
$SPLFRAME
 70
     0
  9
$SPLINETYPE
 70
     6
  9
$SPLINESEGS
 70
     8
  9
$ATTDIA
 70
     1
  9
$ATTREQ
 70
     1
  9
$HANDLING
 70
 12289
  9
$HANDSEED
  5
AE3A
  9
$SURFTAB1
 70
     6
  9
$SURFTAB2
 70
     6
  9
$SURFTYPE
 70
     6
  9
$SURFU
 70
     6
  9
$SURFV
 70
     6
  9
$UCSNAME
  2

  9
$UCSORG
 10
0.0
 20
0.0
 30
0.0
  9
$UCSXDIR
 10
1.0
 20
0.0
 30
0.0
  9
$UCSYDIR
 10
0.0
 20
1.0
 30
0.0
  9
$PUCSNAME
  2

  9
$PUCSORG
 10
0.0
 20
0.0
 30
0.0
  9
$PUCSXDIR
 10
1.0
 20
0.0
 30
0.0
  9
$PUCSYDIR
 10
0.0
 20
1.0
 30
0.0
  9
$USERI1
 70
     0
  9
$USERI2
 70
     0
  9
$USERI3
 70
     0
  9
$USERI4
 70
     0
  9
$USERI5
 70
     0
  9
$USERR1
 40
0.0
  9
$USERR2
 40
0.0
  9
$USERR3
 40
0.0
  9
$USERR4
 40
0.0
  9
$USERR5
 40
0.0
  9
$WORLDVIEW
 70
     1
  9
$SHADEDGE
 70
     3
  9
$SHADEDIF
 70
    70
  9
$TILEMODE
 70
     1
  9
$MAXACTVP
 70
    64
  9
$PINSBASE
 10
0.0
 20
0.0
 30
0.0
  9
$PLIMCHECK
 70
     0
  9
$PEXTMIN
 10
1.000000000000000E+20
 20
1.000000000000000E+20
 30
1.000000000000000E+20
  9
$PEXTMAX
 10
-1.000000000000000E+20
 20
-1.000000000000000E+20
 30
-1.000000000000000E+20
  9
$PLIMMIN
 10
0.0
 20
0.0
  9
$PLIMMAX
 10
841.0
 20
594.0
  9
$UNITMODE
 70
     0
  9
$VISRETAIN
 70
     1
  9
$PLINEGEN
 70
     0
  9
$PSLTSCALE
 70
     0
  9
$TREEDEPTH
 70
  3020
  9
$PICKSTYLE
 70
     0
  9
$CMLSTYLE
  2
STANDARD
  9
$CMLJUST
 70
     0
  9
$CMLSCALE
 40
20.0
  9
$PROXYGRAPHICS
 70
     1
  9
$MEASUREMENT
 70
     1
  0
ENDSEC
  0
SECTION
  2
CLASSES
  0
CLASS
  1
ACDBDICTIONARYWDFLT
  2
AcDbDictionaryWithDefault
  3
AutoCAD 2000
 90
        0
280
     0
281
     0
  0
CLASS
  1
ACDBPLACEHOLDER
  2
AcDbPlaceHolder
  3
AutoCAD 2000
 90
        0
280
     0
281
     0
  0
CLASS
  1
LAYOUT
  2
AcDbLayout
  3
AutoCAD 2000
 90
        0
280
     0
281
     0
  0
CLASS
  1
AMGSETTINGSOBJ
  2
AmgSettingsObj
  3
"AcadM|Product Description: AutoCAD Mechanical 2000|Company: Autodesk"
 90
        0
280
     0
281
     0
  0
CLASS
  1
ACME_DOCUMENT
  2
AcMeDbDoc
  3
AcMeServices
 90
        0
280
     0
281
     0
  0
CLASS
  1
ACMESCOPE
  2
AcMeScope
  3
AcMeServices
 90
        0
280
     0
281
     0
  0
CLASS
  1
ACMECOMMANDHISTORY
  2
AcMeCommandHistory
  3
AcMeServices
 90
        0
280
     0
281
     0
  0
CLASS
  1
DICTIONARYVAR
  2
AcDbDictionaryVar
  3
AutoCAD 2000
 90
        0
280
     0
281
     0
  0
CLASS
  1
ACIMSYSVARMAN
  2
AcImSysVarManager
  3
AcMeServices
 90
        0
280
     0
281
     0
  0
CLASS
  1
ACIMREALSYSVAR
  2
AcImRealSysVar
  3
AcMeServices
 90
        0
280
     0
281
     0
  0
CLASS
  1
ACIMINTSYSVAR
  2
AcImIntSysVar
  3
AcMeServices
 90
        0
280
     0
281
     0
  0
CLASS
  1
ACMEDRAWINGMAN
  2
AcMeDrawingMan
  3
AcMeServices
 90
        0
280
     0
281
     0
  0
CLASS
  1
ACMEVIEW
  2
AcMeView
  3
AcMeServices
 90
        0
280
     0
281
     0
  0
CLASS
  1
ACDBENTITYCACHE
  2
AcMeEntityCache
  3
AcMeServices
 90
        0
280
     0
281
     0
  0
CLASS
  1
GSMANAGER
  2
AcMeGSManager
  3
AcMeServices
 90
        0
280
     0
281
     0
  0
CLASS
  1
AmdtInternalReactor
  2
AmdtInternalReactor
  3
AcMeServices
 90
        0
280
     0
281
     0
  0
CLASS
  1
ACMESTATEMGR
  2
AcMeStateMgr
  3
AcMeServices
 90
        0
280
     0
281
     0
  0
CLASS
  1
ACME_DATABASE
  2
AcMeDbDatabase
  3
AcMeServices
 90
        0
280
     0
281
     0
  0
CLASS
  1
ACRFINSADJUSTERMGR
  2
AcRfInsAdjusterMgr
  3
AcMeServices
 90
        0
280
     0
281
     0
  0
CLASS
  1
ACMDATADICTIONARY
  2
AcmDataDictionary
  3
"AcmSymBB|Product Description: AutoCAD Mechanical 2000|Company: Autodesk"
 90
        0
280
     0
281
     0
  0
CLASS
  1
ACMDATAENTRYBLOCK
  2
AcmDataEntryBlock
  3
"AcmSymBB|Product Description: AutoCAD Mechanical 2000|Company: Autodesk"
 90
        0
280
     0
281
     0
  0
CLASS
  1
AMGOBJPROPCFG
  2
AmgObjPropCfg
  3
"AmgLay|Product Description: AutoCAD Mechanical 2000|Company: Autodesk"
 90
        1
280
     0
281
     0
  0
CLASS
  1
ACAMGFILTERDAT
  2
AcAmgFilterDat
  3
"AcadM|Product Description: AutoCAD Mechanical 2000|Company: Autodesk"
 90
        0
280
     0
281
     0
  0
CLASS
  1
LAYER_INDEX
  2
AcDbLayerIndex
  3
AutoCAD 2000
 90
        0
280
     0
281
     0
  0
CLASS
  1
IDBUFFER
  2
AcDbIdBuffer
  3
AutoCAD 2000
 90
        0
280
     0
281
     0
  0
CLASS
  1
ACIMSTRSYSVAR
  2
AcImStrSysVar
  3
AcMeServices
 90
        0
280
     0
281
     0
  0
CLASS
  1
ACMSTANDARDJIS
  2
AcmStandardJIS
  3
"AcmSymBB|Product Description: AutoCAD Mechanical 2000|Company: Autodesk"
 90
        0
280
     0
281
     0
  0
CLASS
  1
ACMSURFSTANDARDJIS
  2
AcmSurfTextStdJIS
  3
"AcmSymBB|Product Description: AutoCAD Mechanical 2000|Company: Autodesk"
 90
        0
280
     0
281
     0
  0
CLASS
  1
ACMFCFSTANDARDJIS
  2
AcmFCFStdJIS
  3
"AcmSymBB|Product Description: AutoCAD Mechanical 2000|Company: Autodesk"
 90
        0
280
     0
281
     0
  0
CLASS
  1
ACMWELDSTANDARDJIS
  2
AcmWeldingStdJIS
  3
"AcmSymBB|Product Description: AutoCAD Mechanical 2000|Company: Autodesk"
 90
        0
280
     0
281
     0
  0
CLASS
  1
ACMIDSTANDARDJIS
  2
AcmIdStdJIS
  3
"AcmSymBB|Product Description: AutoCAD Mechanical 2000|Company: Autodesk"
 90
        0
280
     0
281
     0
  0
CLASS
  1
ACMDATUMSTANDARDJIS
  2
AcmDatumStdJIS
  3
"AcmSymBB|Product Description: AutoCAD Mechanical 2000|Company: Autodesk"
 90
        0
280
     0
281
     0
  0
CLASS
  1
ACMBOMSTANDARDJIS
  2
AcmBOMStdJIS
  3
"AcmSymBB|Product Description: AutoCAD Mechanical 2000|Company: Autodesk"
 90
        0
280
     0
281
     0
  0
CLASS
  1
ACMSTANDARDANSI
  2
AcmStandardANSI
  3
"AcmSymBB|Product Description: AutoCAD Mechanical 2000|Company: Autodesk"
 90
        0
280
     0
281
     0
  0
CLASS
  1
ACMSURFSTANDARDANSI
  2
AcmSurfTextStdANSI
  3
"AcmSymBB|Product Description: AutoCAD Mechanical 2000|Company: Autodesk"
 90
        0
280
     0
281
     0
  0
CLASS
  1
ACMFCFSTANDARDANSI
  2
AcmFCFStdANSI
  3
"AcmSymBB|Product Description: AutoCAD Mechanical 2000|Company: Autodesk"
 90
        0
280
     0
281
     0
  0
CLASS
  1
ACMWELDSTANDARDANSI
  2
AcmWeldingStdANSI
  3
"AcmSymBB|Product Description: AutoCAD Mechanical 2000|Company: Autodesk"
 90
        0
280
     0
281
     0
  0
CLASS
  1
ACMIDSTANDARDANSI
  2
AcmIdStdANSI
  3
"AcmSymBB|Product Description: AutoCAD Mechanical 2000|Company: Autodesk"
 90
        0
280
     0
281
     0
  0
CLASS
  1
ACMDATUMSTANDARDANSI
  2
AcmDatumStdANSI
  3
"AcmSymBB|Product Description: AutoCAD Mechanical 2000|Company: Autodesk"
 90
        0
280
     0
281
     0
  0
CLASS
  1
ACMBOMSTANDARDANSI
  2
AcmBOMStdANSI
  3
"AcmSymBB|Product Description: AutoCAD Mechanical 2000|Company: Autodesk"
 90
        0
280
     0
281
     0
  0
CLASS
  1
ACMSTANDARDBSI
  2
AcmStandardBSI
  3
"AcmSymBB|Product Description: AutoCAD Mechanical 2000|Company: Autodesk"
 90
        0
280
     0
281
     0
  0
CLASS
  1
ACMSURFSTANDARDBSI
  2
AcmSurfTextStdBSI
  3
"AcmSymBB|Product Description: AutoCAD Mechanical 2000|Company: Autodesk"
 90
        0
280
     0
281
     0
  0
CLASS
  1
ACMFCFSTANDARDBSI
  2
AcmFCFStdBSI
  3
"AcmSymBB|Product Description: AutoCAD Mechanical 2000|Company: Autodesk"
 90
        0
280
     0
281
     0
  0
CLASS
  1
ACMWELDSTANDARDBSI
  2
AcmWeldingStdBSI
  3
"AcmSymBB|Product Description: AutoCAD Mechanical 2000|Company: Autodesk"
 90
        0
280
     0
281
     0
  0
CLASS
  1
ACMIDSTANDARDBSI
  2
AcmIdStdBSI
  3
"AcmSymBB|Product Description: AutoCAD Mechanical 2000|Company: Autodesk"
 90
        0
280
     0
281
     0
  0
CLASS
  1
ACMDATUMSTANDARDBSI
  2
AcmDatumStdBSI
  3
"AcmSymBB|Product Description: AutoCAD Mechanical 2000|Company: Autodesk"
 90
        0
280
     0
281
     0
  0
CLASS
  1
ACMBOMSTANDARDBSI
  2
AcmBOMStdBSI
  3
"AcmSymBB|Product Description: AutoCAD Mechanical 2000|Company: Autodesk"
 90
        0
280
     0
281
     0
  0
CLASS
  1
LONG_TRANSACTION
  2
AcDbLongTransaction
  3
AutoCAD 2000
 90
        0
280
     0
281
     0
  0
CLASS
  1
LWPOLYLINE
  2
AcDbPolyline
  3
AutoCAD 2000
 90
        0
280
     0
281
     1
  0
CLASS
  1
HATCH
  2
AcDbHatch
  3
AutoCAD 2000
 90
        0
280
     0
281
     1
  0
CLASS
  1
XRECORD
  2
AcDbXrecord
  3
AutoCAD 2000
 90
        0
280
     0
281
     0
  0
ENDSEC
  0
SECTION
  2
TABLES
  0
TABLE
  2
VPORT
  5
8
330
0
100
AcDbSymbolTable
 70
     3
  0
VPORT
  5
AE0F
330
8
100
AcDbSymbolTableRecord
100
AcDbViewportTableRecord
  2
*ACTIVE
 70
     0
 10
0.0
 20
0.0
 11
1.0
 21
1.0
 12
-33.18551895203082
 22
-28.24822914383398
 13
0.0
 23
0.0
 14
2.5
 24
2.5
 15
10.0
 25
10.0
 16
0.0
 26
0.0
 36
1.0
 17
0.0
 27
0.0
 37
0.0
 40
157.4800685045224
 41
1.56570841889117
 42
50.0
 43
0.0
 44
0.0
 50
0.0
 51
0.0
 71
     0
 72
   100
 73
     1
 74
     3
 75
     0
 76
     0
 77
     0
 78
     0
  0
ENDTAB
  0
TABLE
  2
LTYPE
  5
5
330
0
100
AcDbSymbolTable
 70
    10
  0
LTYPE
  5
14
330
5
100
AcDbSymbolTableRecord
100
AcDbLinetypeTableRecord
  2
BYBLOCK
 70
     0
  3

 72
    65
 73
     0
 40
0.0
  0
LTYPE
  5
15
330
5
100
AcDbSymbolTableRecord
100
AcDbLinetypeTableRecord
  2
BYLAYER
 70
     0
  3

 72
    65
 73
     0
 40
0.0
  0
LTYPE
  5
16
330
5
100
AcDbSymbolTableRecord
100
AcDbLinetypeTableRecord
  2
CONTINUOUS
 70
     0
  3
Solid line
 72
    65
 73
     0
 40
0.0
  0
LTYPE
  5
4B
330
5
100
AcDbSymbolTableRecord
100
AcDbLinetypeTableRecord
  2
AM_ISO02W050
 70
     0
  3
__ __ __ __ __ __ __ __ __ __ __ __ __ __ __
 72
    65
 73
     2
 40
7.5
 49
6.0
 74
     0
 49
-1.5
 74
     0
  0
LTYPE
  5
4C
330
5
100
AcDbSymbolTableRecord
100
AcDbLinetypeTableRecord
  2
AM_ISO08W050
 70
     0
  3
____ . ____ . ____ . ____ . ____ . ____ . ____
 72
    65
 73
     4
 40
18.0
 49
12.0
 74
     0
 49
-1.5
 74
     0
 49
3.0
 74
     0
 49
-1.5
 74
     0
  0
LTYPE
  5
4D
330
5
100
AcDbSymbolTableRecord
100
AcDbLinetypeTableRecord
  2
AM_ISO09W050
 70
     0
  3
_____ . . _____ . . _____ . . ____ .. ____
 72
    65
 73
     6
 40
22.5
 49
12.0
 74
     0
 49
-1.5
 74
     0
 49
3.0
 74
     0
 49
-1.5
 74
     0
 49
3.0
 74
     0
 49
-1.5
 74
     0
  0
LTYPE
  5
4E
330
5
100
AcDbSymbolTableRecord
100
AcDbLinetypeTableRecord
  2
AMCONSTR
 70
     0
  3
_______________________
 72
    65
 73
     2
 40
9999.0
 49
9999.0
 74
     0
 49
0.0
 74
     0
  0
LTYPE
  5
4F
330
5
100
AcDbSymbolTableRecord
100
AcDbLinetypeTableRecord
  2
AM_ISO02W050X2
 70
     0
  3
 _ _ _ _ _ _ _ _ _ _ _ _
 72
    65
 73
     2
 40
3.75
 49
3.0
 74
     0
 49
-0.75
 74
     0
  0
LTYPE
  5
50
330
5
100
AcDbSymbolTableRecord
100
AcDbLinetypeTableRecord
  2
AM_ISO08W050X2
 70
     0
  3
__ . __ . __ . __ . __ . __
 72
    65
 73
     4
 40
9.0
 49
6.0
 74
     0
 49
-0.75
 74
     0
 49
1.5
 74
     0
 49
-0.75
 74
     0
  0
LTYPE
  5
53
330
5
100
AcDbSymbolTableRecord
100
AcDbLinetypeTableRecord
  2
AMZIGZAG
 70
     0
  3
/\/-/\/-/\/-/\/-/\/-/\/
 72
    65
 73
     2
 40
11.00009999999999
 49
0.0001
 74
     4
 75
   135
340
52
 46
0.04
 50
0.0
 44
0.0
 45
0.0
 49
-11.0
 74
     0
  0
LTYPE
  5
166
330
5
100
AcDbSymbolTableRecord
100
AcDbLinetypeTableRecord
  2
ACJISTGL
 70
     0
  3
_ _ _ _ _
 72
    65
 73
     2
 40
3.0
 49
2.0
 74
     0
 49
-1.0
 74
     0
  0
LTYPE
  5
26A
330
5
100
AcDbSymbolTableRecord
100
AcDbLinetypeTableRecord
  2
ACJISTGB
 70
     0
  3
__ . . __ . .
 72
    65
 73
     6
 40
9.0
 49
4.0
 74
     0
 49
-1.0
 74
     0
 49
1.0
 74
     0
 49
-1.0
 74
     0
 49
1.0
 74
     0
 49
-1.0
 74
     0
  0
ENDTAB
  0
TABLE
  2
LAYER
  5
2
330
0
100
AcDbSymbolTable
 70
     8
  0
LAYER
  5
10
330
2
100
AcDbSymbolTableRecord
100
AcDbLayerTableRecord
  2
0
 70
     0
 62
     7
  6
CONTINUOUS
  0
LAYER
  5
3F9
330
2
100
AcDbSymbolTableRecord
100
AcDbLayerTableRecord
  2
AM_0
 70
     0
 62
     7
  6
CONTINUOUS
  0
LAYER
  5
BD5
330
2
100
AcDbSymbolTableRecord
100
AcDbLayerTableRecord
  2
AM_7
 70
     0
 62
     4
  6
AM_ISO08W050
  0
LAYER
  5
BD6
330
2
100
AcDbSymbolTableRecord
100
AcDbLayerTableRecord
  2
AM_5
 70
     0
 62
     3
  6
CONTINUOUS
  0
LAYER
  5
BD7
330
2
100
AcDbSymbolTableRecord
100
AcDbLayerTableRecord
  2
DEFPOINTS
 70
     0
 62
     7
  6
CONTINUOUS
  0
LAYER
  5
E59
330
2
100
AcDbSymbolTableRecord
100
AcDbLayerTableRecord
  2
AM_6
 70
     0
 62
     2
  6
CONTINUOUS
  0
LAYER
  5
1E31
330
2
100
AcDbSymbolTableRecord
100
AcDbLayerTableRecord
  2
AM_11
 70
     0
 62
     3
  6
AM_ISO09W050
  0
LAYER
  5
1E41
330
2
100
AcDbSymbolTableRecord
100
AcDbLayerTableRecord
  2
AM_3
 70
     0
 62
     6
  6
ACJISTGL
  0
ENDTAB
  0
TABLE
  2
STYLE
  5
3
330
0
100
AcDbSymbolTable
 70
     5
  0
STYLE
  5
11
330
3
100
AcDbSymbolTableRecord
100
AcDbTextStyleTableRecord
  2
STANDARD
 70
     0
 40
0.0
 41
1.0
 50
0.0
 71
     0
 42
2.5
  3
simplex.shx
  4
EXTFONT.SHX
  0
STYLE
  5
52
330
3
100
AcDbSymbolTableRecord
100
AcDbTextStyleTableRecord
  2

 70
     1
 40
0.0
 41
1.0
 50
0.0
 71
     0
 42
2.5
  3
ltypeshp.shx
  4

  0
STYLE
  5
6B
330
3
100
AcDbSymbolTableRecord
100
AcDbTextStyleTableRecord
  2
ASAMI
 70
     0
 40
0.0
 41
1.0
 50
0.0
 71
     0
 42
2.5
  3
simplex.shx
  4
EXTFONT.SHX
  0
STYLE
  5
262
330
3
100
AcDbSymbolTableRecord
100
AcDbTextStyleTableRecord
  2
ACJISTS
 70
     0
 40
1.0
 41
1.0
 50
0.0
 71
     0
 42
2.5
  3
simplex.shx
  4
bigfont.shx
  0
STYLE
  5
269
330
3
100
AcDbSymbolTableRecord
100
AcDbTextStyleTableRecord
  2
ACJISGDT
 70
     0
 40
0.0
 41
1.0
 50
0.0
 71
     0
 42
2.5
  3
amgdtans.shx
  4

  0
ENDTAB
  0
TABLE
  2
VIEW
  5
6
330
0
100
AcDbSymbolTable
 70
     0
  0
ENDTAB
  0
TABLE
  2
UCS
  5
7
330
0
100
AcDbSymbolTable
 70
     0
  0
ENDTAB
  0
TABLE
  2
APPID
  5
9
330
0
100
AcDbSymbolTable
 70
    13
  0
APPID
  5
12
330
9
100
AcDbSymbolTableRecord
100
AcDbRegAppTableRecord
  2
ACAD
 70
     0
  0
APPID
  5
30
330
9
100
AcDbSymbolTableRecord
100
AcDbRegAppTableRecord
  2
MCAD_NO_VIS
 70
     0
  0
APPID
  5
31
330
9
100
AcDbSymbolTableRecord
100
AcDbRegAppTableRecord
  2
ACAD_TEMP_GRAPHIC
 70
     0
  0
APPID
  5
2C2
330
9
100
AcDbSymbolTableRecord
100
AcDbRegAppTableRecord
  2
GENIUS_GENDTOL_13
 70
     0
  0
APPID
  5
339
330
9
100
AcDbSymbolTableRecord
100
AcDbRegAppTableRecord
  2
GENIUS_GENODEF_13
 70
     0
  0
APPID
  5
33A
330
9
100
AcDbSymbolTableRecord
100
AcDbRegAppTableRecord
  2
GENIUS_GENOBJ-N-RSBK_13
 70
     0
  0
APPID
  5
33B
330
9
100
AcDbSymbolTableRecord
100
AcDbRegAppTableRecord
  2
GENIUS_GENOBJ-N-LIB_13
 70
     0
  0
APPID
  5
33C
330
9
100
AcDbSymbolTableRecord
100
AcDbRegAppTableRecord
  2
GENIUS_GENSCALE_13
 70
     0
  0
APPID
  5
378
330
9
100
AcDbSymbolTableRecord
100
AcDbRegAppTableRecord
  2
GENIUS_GENDIMSH_14
 70
     0
  0
APPID
  5
BD8
330
9
100
AcDbSymbolTableRecord
100
AcDbRegAppTableRecord
  2
GENIUS_GENOBJ-N-CEN_13
 70
     0
  0
APPID
  5
BD9
330
9
100
AcDbSymbolTableRecord
100
AcDbRegAppTableRecord
  2
GENIUS_GENFIL_13
 70
     0
  0
APPID
  5
BDA
330
9
100
AcDbSymbolTableRecord
100
AcDbRegAppTableRecord
  2
GENIUS_GENOBJ-N-CHA_13
 70
     0
  0
APPID
  5
2BC1
330
9
100
AcDbSymbolTableRecord
100
AcDbRegAppTableRecord
  2
GENIUS_GENOBJ-N-FIL_13
 70
     0
  0
ENDTAB
  0
TABLE
  2
DIMSTYLE
  5
A
330
0
100
AcDbSymbolTable
 70
     9
  0
DIMSTYLE
105
58
102
{ACAD_REACTORS
330
A93B
330
A93C
330
A93D
330
A98F
330
A990
330
A991
102
}
330
A
100
AcDbSymbolTableRecord
100
AcDbDimStyleTableRecord
  2
AM_JIS
 70
     0
  3

  4
"
  5
OPEN30
  6

  7

 40
1.0
 41
2.5
 42
1.0
 43
12.0
 44
1.0
 45
0.0
 46
0.0
 47
0.1
 48
0.1
140
3.2
141
0.0
142
0.0
143
0.0393701
144
1.0
145
0.0
146
0.71
147
1.5
 71
     0
 72
     0
 73
     0
 74
     0
 75
     0
 76
     0
 77
     3
 78
     8
170
     0
171
     2
172
     1
173
     0
174
     0
175
     0
176
   256
177
   256
178
     2
270
     2
271
     3
272
     3
273
     2
274
     2
340
6B
275
     0
280
     0
281
     0
282
     0
283
     0
284
     0
285
     0
286
     0
287
     3
288
     0
  0
DIMSTYLE
105
5F
330
A
100
AcDbSymbolTableRecord
100
AcDbDimStyleTableRecord
  2
AM_JIS$3
 70
     0
  3

  4
"
  5
OPEN30
  6

  7

 40
1.0
 41
2.5
 42
1.0
 43
10.0
 44
1.0
 45
0.0
 46
0.0
 47
0.1
 48
0.1
140
3.2
141
0.0
142
0.0
143
0.0393701
144
1.0
145
0.0
146
0.71
147
1.5
 71
     0
 72
     0
 73
     0
 74
     1
 75
     0
 76
     0
 77
     3
 78
     8
170
     0
171
     2
172
     0
173
     0
174
     0
175
     0
176
   256
177
   256
178
     2
270
     2
271
     2
272
     3
273
     2
274
     2
340
6B
275
     0
280
     0
281
     0
282
     0
283
     0
284
     0
285
     0
286
     0
287
     0
288
     1
  0
DIMSTYLE
105
60
330
A
100
AcDbSymbolTableRecord
100
AcDbDimStyleTableRecord
  2
AM_JIS$4
 70
     0
  3

  4
"
  5
OPEN30
  6

  7

 40
1.0
 41
2.5
 42
1.0
 43
10.0
 44
1.0
 45
0.0
 46
0.0
 47
0.1
 48
0.1
140
3.2
141
0.0
142
0.0
143
0.0393701
144
1.0
145
0.0
146
0.71
147
1.5
 71
     0
 72
     0
 73
     0
 74
     1
 75
     0
 76
     0
 77
     3
 78
     8
170
     0
171
     2
172
     0
173
     0
174
     0
175
     0
176
   256
177
   256
178
     2
270
     2
271
     2
272
     3
273
     2
274
     2
340
6B
275
     0
280
     0
281
     0
282
     0
283
     0
284
     0
285
     0
286
     0
287
     0
288
     1
  0
DIMSTYLE
105
61
330
A
100
AcDbSymbolTableRecord
100
AcDbDimStyleTableRecord
  2
AM_JIS$6
 70
     0
  3

  4
"
  5
OPEN30
  6

  7

 40
1.0
 41
2.5
 42
1.0
 43
10.0
 44
1.0
 45
0.0
 46
0.0
 47
0.1
 48
0.1
140
3.2
141
0.0
142
0.0
143
0.0393701
144
1.0
145
0.0
146
0.71
147
1.5
 71
     0
 72
     0
 73
     0
 74
     0
 75
     0
 76
     0
 77
     0
 78
     8
170
     0
171
     2
172
     1
173
     0
174
     0
175
     0
176
   256
177
   256
178
     2
270
     2
271
     2
272
     2
273
     2
274
     2
340
6B
275
     0
280
     0
281
     0
282
     0
283
     0
284
     0
285
     0
286
     0
287
     3
288
     0
  0
DIMSTYLE
105
62
330
A
100
AcDbSymbolTableRecord
100
AcDbDimStyleTableRecord
  2
AM_JIS$7
 70
     0
  3

  4
"
  5
OPEN30
  6

  7

 40
1.0
 41
2.5
 42
1.0
 43
10.0
 44
1.0
 45
0.0
 46
0.0
 47
0.1
 48
0.1
140
3.2
141
0.0
142
0.0
143
0.0393701
144
1.0
145
0.0
146
0.71
147
1.5
 71
     0
 72
     0
 73
     0
 74
     0
 75
     0
 76
     0
 77
     3
 78
     8
170
     0
171
     2
172
     1
173
     0
174
     0
175
     0
176
   256
177
   256
178
     2
270
     2
271
     2
272
     3
273
     2
274
     2
340
6B
275
     0
280
     0
281
     0
282
     0
283
     0
284
     0
285
     0
286
     0
287
     3
288
     0
  0
DIMSTYLE
105
63
330
A
100
AcDbSymbolTableRecord
100
AcDbDimStyleTableRecord
  2
AM_JIS$SF
 70
     0
  3

  4
"
  5
OPEN30
  6

  7

 40
1.0
 41
2.5
 42
1.0
 43
10.0
 44
1.0
 45
0.0
 46
0.0
 47
0.1
 48
0.1
140
3.2
141
0.0
142
0.0
143
0.0393701
144
1.0
145
0.0
146
0.71
147
1.5
 71
     0
 72
     0
 73
     0
 74
     0
 75
     1
 76
     1
 77
     3
 78
     8
170
     0
171
     2
172
     1
173
     0
174
     0
175
     0
176
   256
177
   256
178
     2
270
     2
271
     2
272
     2
273
     2
274
     2
340
6B
275
     0
280
     0
281
     0
282
     0
283
     0
284
     0
285
     0
286
     0
287
     3
288
     0
  0
DIMSTYLE
105
68
330
A
100
AcDbSymbolTableRecord
100
AcDbDimStyleTableRecord
  2
AM_JIS$SH
 70
     0
  3

  4
"
  5

  6
GENAXEH
  7
OPEN30
 40
1.0
 41
2.5
 42
1.0
 43
10.0
 44
1.0
 45
0.0
 46
0.0
 47
0.1
 48
0.1
140
3.2
141
0.0
142
0.0
143
0.0393701
144
2.0
145
0.0
146
0.71
147
1.5
 71
     0
 72
     0
 73
     0
 74
     0
 75
     1
 76
     1
 77
     3
 78
     8
170
     0
171
     2
172
     1
173
     1
174
     0
175
     0
176
   256
177
   256
178
     2
270
     2
271
     2
272
     2
273
     2
274
     2
340
6B
275
     0
280
     0
281
     0
282
     0
283
     0
284
     0
285
     0
286
     0
287
     3
288
     0
  0
DIMSTYLE
105
B34
102
{ACAD_REACTORS
330
AC82
102
}
330
A
100
AcDbSymbolTableRecord
100
AcDbDimStyleTableRecord
  2
AM_JIS$2
 70
     0
  3

  4
"
  5
OPEN30
  6

  7

 40
1.0
 41
2.5
 42
1.0
 43
12.0
 44
1.0
 45
0.0
 46
0.0
 47
0.1
 48
0.1
140
3.2
141
0.0
142
0.0
143
0.0393701
144
1.0
145
0.0
146
0.71
147
1.5
 71
     0
 72
     0
 73
     0
 74
     0
 75
     0
 76
     0
 77
     3
 78
     8
170
     0
171
     2
172
     1
173
     0
174
     0
175
     0
176
   256
177
   256
178
     2
270
     2
271
     3
272
     3
273
     2
274
     2
340
6B
275
     0
280
     0
281
     0
282
     0
283
     0
284
     0
285
     0
286
     0
287
     3
288
     0
  0
DIMSTYLE
105
1E42
102
{ACAD_REACTORS
330
A9D6
330
A9D5
102
}
330
A
100
AcDbSymbolTableRecord
100
AcDbDimStyleTableRecord
  2
AM_JIS$0
 70
     0
  3

  4
"
  5
OPEN30
  6

  7

 40
2.0
 41
2.5
 42
1.0
 43
10.0
 44
1.0
 45
0.0
 46
0.0
 47
0.1
 48
0.1
140
2.5
141
0.0
142
0.0
143
0.0393701
144
1.0
145
0.0
146
0.71
147
1.0
 71
     0
 72
     0
 73
     0
 74
     0
 75
     0
 76
     0
 77
     3
 78
     8
170
     0
171
     2
172
     1
173
     0
174
     0
175
     0
176
   256
177
   256
178
     4
270
     2
271
     3
272
     3
273
     2
274
     2
340
6B
275
     0
280
     0
281
     0
282
     0
283
     0
284
     0
285
     0
286
     0
287
     3
288
     0
  0
ENDTAB
  0
TABLE
  2
BLOCK_RECORD
  5
1
330
0
100
AcDbSymbolTable
 70
    14
  0
BLOCK_RECORD
  5
1F
102
{ACAD_XDICTIONARY
360
74
102
}
330
1
100
AcDbSymbolTableRecord
100
AcDbBlockTableRecord
  2
*MODEL_SPACE
  0
BLOCK_RECORD
  5
101
102
{ACAD_XDICTIONARY
360
AE38
102
}
330
1
100
AcDbSymbolTableRecord
100
AcDbBlockTableRecord
  2
*PAPER_SPACE
  0
BLOCK_RECORD
  5
59
330
1
100
AcDbSymbolTableRecord
100
AcDbBlockTableRecord
  2
_OPEN30
  0
BLOCK_RECORD
  5
64
330
1
100
AcDbSymbolTableRecord
100
AcDbBlockTableRecord
  2
GENAXEH
  0
BLOCK_RECORD
  5
A93E
330
1
100
AcDbSymbolTableRecord
100
AcDbBlockTableRecord
  2
*D5
  0
BLOCK_RECORD
  5
A94A
330
1
100
AcDbSymbolTableRecord
100
AcDbBlockTableRecord
  2
*D6
  0
BLOCK_RECORD
  5
A956
330
1
100
AcDbSymbolTableRecord
100
AcDbBlockTableRecord
  2
*D7
  0
BLOCK_RECORD
  5
A992
330
1
100
AcDbSymbolTableRecord
100
AcDbBlockTableRecord
  2
*D8
  0
BLOCK_RECORD
  5
A9A0
330
1
100
AcDbSymbolTableRecord
100
AcDbBlockTableRecord
  2
*D9
  0
BLOCK_RECORD
  5
A9AC
330
1
100
AcDbSymbolTableRecord
100
AcDbBlockTableRecord
  2
*D10
  0
BLOCK_RECORD
  5
A9E4
330
1
100
AcDbSymbolTableRecord
100
AcDbBlockTableRecord
  2
*D11
  0
BLOCK_RECORD
  5
A9F0
330
1
100
AcDbSymbolTableRecord
100
AcDbBlockTableRecord
  2
*D12
  0
BLOCK_RECORD
  5
AC83
330
1
100
AcDbSymbolTableRecord
100
AcDbBlockTableRecord
  2
*D13
  0
ENDTAB
  0
ENDSEC
  0
SECTION
  2
BLOCKS
  0
BLOCK
  5
20
330
1F
100
AcDbEntity
  8
0
100
AcDbBlockBegin
  2
*MODEL_SPACE
 70
     0
 10
0.0
 20
0.0
 30
0.0
  3
*MODEL_SPACE
  1

  0
ENDBLK
  5
21
330
1F
100
AcDbEntity
  8
0
100
AcDbBlockEnd
  0
BLOCK
  5
103
330
101
100
AcDbEntity
 67
     1
  8
0
100
AcDbBlockBegin
  2
*PAPER_SPACE
 70
     0
 10
0.0
 20
0.0
 30
0.0
  3
*PAPER_SPACE
  1

  0
ENDBLK
  5
104
330
101
100
AcDbEntity
 67
     1
  8
0
100
AcDbBlockEnd
  0
BLOCK
  5
5D
330
59
100
AcDbEntity
  8
0
100
AcDbBlockBegin
  2
_OPEN30
 70
     0
 10
0.0
 20
0.0
 30
0.0
  3
_OPEN30
  1

  0
LINE
  5
5A
330
59
100
AcDbEntity
  8
0
 62
     0
100
AcDbLine
 10
-1.0
 20
0.26794919
 30
0.0
 11
0.0
 21
0.0
 31
0.0
  0
LINE
  5
5B
330
59
100
AcDbEntity
  8
0
 62
     0
100
AcDbLine
 10
0.0
 20
0.0
 30
0.0
 11
-1.0
 21
-0.26794919
 31
0.0
  0
LINE
  5
5C
330
59
100
AcDbEntity
  8
0
 62
     0
100
AcDbLine
 10
0.0
 20
0.0
 30
0.0
 11
-1.0
 21
0.0
 31
0.0
  0
ENDBLK
  5
5E
330
59
100
AcDbEntity
  8
0
100
AcDbBlockEnd
  0
BLOCK
  5
66
330
64
100
AcDbEntity
  8
0
100
AcDbBlockBegin
  2
GENAXEH
 70
     0
 10
0.0
 20
0.0
 30
0.0
  3
GENAXEH
  1

  0
LINE
  5
65
330
64
100
AcDbEntity
  8
0
100
AcDbLine
 10
-1.0
 20
0.0
 30
0.0
 11
1.0
 21
0.0
 31
0.0
  0
ENDBLK
  5
67
330
64
100
AcDbEntity
  8
0
100
AcDbBlockEnd
  0
BLOCK
  5
A948
330
A93E
100
AcDbEntity
  8
0
100
AcDbBlockBegin
  2
*D5
 70
     1
 10
0.0
 20
0.0
 30
0.0
  3
*D5
  1

  0
LINE
  5
ABD9
330
A93E
100
AcDbEntity
  8
AM_5
100
AcDbLine
 10
-59.00000000000034
 20
37.5
 30
0.0
 11
-102.5522990351168
 21
37.50000000000001
 31
0.0
  0
LINE
  5
ABDA
330
A93E
100
AcDbEntity
  8
AM_5
100
AcDbLine
 10
-59.00000000000034
 20
-37.49999999999999
 30
0.0
 11
-102.5522990351169
 21
-37.49999999999998
 31
0.0
  0
LINE
  5
ABDB
330
A93E
100
AcDbEntity
  8
AM_5
100
AcDbLine
 10
-101.5522990351168
 20
35.00000000000001
 30
0.0
 11
-101.5522990351169
 21
-34.99999999999998
 31
0.0
  0
INSERT
  5
ABDC
330
A93E
100
AcDbEntity
  8
AM_5
100
AcDbBlockReference
  2
_OPEN30
 10
-101.5522990351168
 20
37.50000000000001
 30
0.0
 41
2.5
 42
2.5
 43
2.5
 50
90.0
  0
INSERT
  5
ABDD
330
A93E
100
AcDbEntity
  8
AM_5
100
AcDbBlockReference
  2
_OPEN30
 10
-101.5522990351169
 20
-37.49999999999998
 30
0.0
 41
2.5
 42
2.5
 43
2.5
 50
270.0
  0
MTEXT
  5
ABDE
330
A93E
100
AcDbEntity
  8
AM_5
 62
     2
100
AcDbMText
 10
-104.6522990351168
 20
-0.0000000000000005
 30
0.0
 40
3.2
 41
0.0
 71
     5
 72
     1
  1
%%c75
  7
ASAMI
 11
0.0000000000000001
 21
1.0
 31
0.0
1001
ACAD
1000
MTEXTBEGIN
1070
    73
1070
     1
1070
    44
1040
1.0
1070
    74
1070
     0
1000
MTEXTEND
  0
POINT
  5
ABDF
330
A93E
100
AcDbEntity
  8
DEFPOINTS
 62
     0
100
AcDbPoint
 10
-58.00000000000034
 20
37.5
 30
0.0
  0
POINT
  5
ABE0
330
A93E
100
AcDbEntity
  8
DEFPOINTS
 62
     0
100
AcDbPoint
 10
-58.00000000000034
 20
-37.49999999999999
 30
0.0
  0
POINT
  5
ABE1
330
A93E
100
AcDbEntity
  8
DEFPOINTS
 62
     0
100
AcDbPoint
 10
-101.5522990351169
 20
-37.49999999999998
 30
0.0
  0
ENDBLK
  5
A949
330
A93E
100
AcDbEntity
  8
0
100
AcDbBlockEnd
  0
BLOCK
  5
A954
330
A94A
100
AcDbEntity
  8
0
100
AcDbBlockBegin
  2
*D6
 70
     1
 10
0.0
 20
0.0
 30
0.0
  3
*D6
  1

  0
LINE
  5
ABCE
330
A94A
100
AcDbEntity
  8
AM_5
100
AcDbLine
 10
-59.80000000000018
 20
6.349999999999972
 30
0.0
 11
-82.5522990351169
 21
6.34999999999998
 31
0.0
  0
LINE
  5
ABCF
330
A94A
100
AcDbEntity
  8
AM_5
100
AcDbLine
 10
-59.80000000000018
 20
-6.349999999999958
 30
0.0
 11
-82.5522990351169
 21
-6.349999999999951
 31
0.0
  0
LINE
  5
ABD0
330
A94A
100
AcDbEntity
  8
AM_5
100
AcDbLine
 10
-81.5522990351169
 20
8.84999999999998
 30
0.0
 11
-81.5522990351169
 21
11.34999999999998
 31
0.0
  0
LINE
  5
ABD1
330
A94A
100
AcDbEntity
  8
AM_5
100
AcDbLine
 10
-81.5522990351169
 20
-8.849999999999951
 30
0.0
 11
-81.5522990351169
 21
-11.34999999999995
 31
0.0
  0
LINE
  5
ABD2
330
A94A
100
AcDbEntity
  8
AM_5
100
AcDbLine
 10
-81.5522990351169
 20
6.349999999999979
 30
0.0
 11
-81.5522990351169
 21
-6.349999999999952
 31
0.0
  0
INSERT
  5
ABD3
330
A94A
100
AcDbEntity
  8
AM_5
100
AcDbBlockReference
  2
_OPEN30
 10
-81.5522990351169
 20
6.349999999999979
 30
0.0
 41
2.5
 42
2.5
 43
2.5
 50
270.0
  0
INSERT
  5
ABD4
330
A94A
100
AcDbEntity
  8
AM_5
100
AcDbBlockReference
  2
_OPEN30
 10
-81.5522990351169
 20
-6.349999999999952
 30
0.0
 41
2.5
 42
2.5
 43
2.5
 50
90.0
  0
MTEXT
  5
ABD5
330
A94A
100
AcDbEntity
  8
AM_5
 62
     2
100
AcDbMText
 10
-84.65229903511689
 20
-0.0000000000000209
 30
0.0
 40
3.2
 41
0.0
 71
     5
 72
     1
  1
12.7
  7
ASAMI
 11
0.0000000000000001
 21
1.0
 31
0.0
1001
ACAD
1000
MTEXTBEGIN
1070
    73
1070
     1
1070
    44
1040
1.0
1070
    74
1070
     0
1000
MTEXTEND
  0
POINT
  5
ABD6
330
A94A
100
AcDbEntity
  8
DEFPOINTS
 62
     0
100
AcDbPoint
 10
-58.80000000000018
 20
6.349999999999972
 30
0.0
  0
POINT
  5
ABD7
330
A94A
100
AcDbEntity
  8
DEFPOINTS
 62
     0
100
AcDbPoint
 10
-58.80000000000018
 20
-6.349999999999958
 30
0.0
  0
POINT
  5
ABD8
330
A94A
100
AcDbEntity
  8
DEFPOINTS
 62
     0
100
AcDbPoint
 10
-81.5522990351169
 20
-6.349999999999952
 30
0.0
  0
ENDBLK
  5
A955
330
A94A
100
AcDbEntity
  8
0
100
AcDbBlockEnd
  0
BLOCK
  5
A960
330
A956
100
AcDbEntity
  8
0
100
AcDbBlockBegin
  2
*D7
 70
     1
 10
0.0
 20
0.0
 30
0.0
  3
*D7
  1

  0
LINE
  5
AC00
330
A956
100
AcDbEntity
  8
AM_5
100
AcDbLine
 10
-59.30000000000013
 20
15.875
 30
0.0
 11
-92.5522990351169
 21
15.87500000000001
 31
0.0
  0
LINE
  5
AC01
330
A956
100
AcDbEntity
  8
AM_5
100
AcDbLine
 10
-59.30000000000013
 20
-15.87499999999998
 30
0.0
 11
-92.5522990351169
 21
-15.87499999999997
 31
0.0
  0
LINE
  5
AC02
330
A956
100
AcDbEntity
  8
AM_5
100
AcDbLine
 10
-91.5522990351169
 20
13.37500000000001
 30
0.0
 11
-91.5522990351169
 21
-13.37499999999997
 31
0.0
  0
INSERT
  5
AC03
330
A956
100
AcDbEntity
  8
AM_5
100
AcDbBlockReference
  2
_OPEN30
 10
-91.5522990351169
 20
15.87500000000001
 30
0.0
 41
2.5
 42
2.5
 43
2.5
 50
90.0
  0
INSERT
  5
AC04
330
A956
100
AcDbEntity
  8
AM_5
100
AcDbBlockReference
  2
_OPEN30
 10
-91.5522990351169
 20
-15.87499999999997
 30
0.0
 41
2.5
 42
2.5
 43
2.5
 50
270.0
  0
MTEXT
  5
AC05
330
A956
100
AcDbEntity
  8
AM_5
 62
     2
100
AcDbMText
 10
-94.65229903511689
 20
0.0000000000000033
 30
0.0
 40
3.2
 41
0.0
 71
     5
 72
     1
  1
%%c31.75
  7
ASAMI
 11
0.0000000000000001
 21
1.0
 31
0.0
1001
ACAD
1000
MTEXTBEGIN
1070
    73
1070
     1
1070
    44
1040
1.0
1070
    74
1070
     0
1000
MTEXTEND
  0
POINT
  5
AC06
330
A956
100
AcDbEntity
  8
DEFPOINTS
 62
     0
100
AcDbPoint
 10
-58.30000000000012
 20
15.875
 30
0.0
  0
POINT
  5
AC07
330
A956
100
AcDbEntity
  8
DEFPOINTS
 62
     0
100
AcDbPoint
 10
-58.30000000000012
 20
-15.87499999999998
 30
0.0
  0
POINT
  5
AC08
330
A956
100
AcDbEntity
  8
DEFPOINTS
 62
     0
100
AcDbPoint
 10
-91.5522990351169
 20
-15.87499999999997
 30
0.0
  0
ENDBLK
  5
A961
330
A956
100
AcDbEntity
  8
0
100
AcDbBlockEnd
  0
BLOCK
  5
A99E
330
A992
100
AcDbEntity
  8
0
100
AcDbBlockBegin
  2
*D8
 70
     1
 10
0.0
 20
0.0
 30
0.0
  3
*D8
  1

  0
LINE
  5
ABBA
330
A992
100
AcDbEntity
  8
AM_5
100
AcDbLine
 10
-60.00000000000023
 20
-36.99999999999999
 30
0.0
 11
-60.00000000000023
 21
-65.00000099999998
 31
0.0
  0
LINE
  5
ABBB
330
A992
100
AcDbEntity
  8
AM_5
100
AcDbLine
 10
-52.00000000000023
 20
-6.349999999999987
 30
0.0
 11
-52.00000000000024
 21
-65.00000099999998
 31
0.0
  0
LINE
  5
ABBC
330
A992
100
AcDbEntity
  8
AM_5
100
AcDbLine
 10
-62.50000000000023
 20
-64.00000099999998
 30
0.0
 11
-65.00000000000023
 21
-64.00000099999998
 31
0.0
  0
LINE
  5
ABBD
330
A992
100
AcDbEntity
  8
AM_5
100
AcDbLine
 10
-49.50000000000024
 20
-64.00000099999998
 30
0.0
 11
-47.00000000000023
 21
-64.00000099999998
 31
0.0
  0
LINE
  5
ABBE
330
A992
100
AcDbEntity
  8
AM_5
100
AcDbLine
 10
-60.00000000000023
 20
-64.00000099999998
 30
0.0
 11
-52.00000000000024
 21
-64.00000099999998
 31
0.0
  0
INSERT
  5
ABBF
330
A992
100
AcDbEntity
  8
AM_5
100
AcDbBlockReference
  2
_OPEN30
 10
-60.00000000000023
 20
-64.00000099999998
 30
0.0
 41
2.5
 42
2.5
 43
2.5
  0
INSERT
  5
ABC0
330
A992
100
AcDbEntity
  8
AM_5
100
AcDbBlockReference
  2
_OPEN30
 10
-52.00000000000024
 20
-64.00000099999998
 30
0.0
 41
2.5
 42
2.5
 43
2.5
 50
180.0
  0
MTEXT
  5
ABC1
330
A992
100
AcDbEntity
  8
AM_5
 62
     2
100
AcDbMText
 10
-56.00000000000022
 20
-60.90000099999998
 30
0.0
 40
3.2
 41
0.0
 71
     5
 72
     1
  1
8
  7
ASAMI
1001
ACAD
1000
MTEXTBEGIN
1070
    73
1070
     1
1070
    44
1040
1.0
1070
    74
1070
     0
1000
MTEXTEND
  0
POINT
  5
ABC2
330
A992
100
AcDbEntity
  8
DEFPOINTS
 62
     0
100
AcDbPoint
 10
-60.00000000000023
 20
-35.99999999999999
 30
0.0
  0
POINT
  5
ABC3
330
A992
100
AcDbEntity
  8
DEFPOINTS
 62
     0
100
AcDbPoint
 10
-52.00000000000023
 20
-5.349999999999987
 30
0.0
  0
POINT
  5
ABC4
330
A992
100
AcDbEntity
  8
DEFPOINTS
 62
     0
100
AcDbPoint
 10
-52.00000000000024
 20
-64.00000099999998
 30
0.0
  0
ENDBLK
  5
A99F
330
A992
100
AcDbEntity
  8
0
100
AcDbBlockEnd
  0
BLOCK
  5
A9AA
330
A9A0
100
AcDbEntity
  8
0
100
AcDbBlockBegin
  2
*D9
 70
     1
 10
0.0
 20
0.0
 30
0.0
  3
*D9
  1

  0
LINE
  5
ABEB
330
A9A0
100
AcDbEntity
  8
AM_5
100
AcDbLine
 10
-60.00000000000023
 20
-36.99999999999999
 30
0.0
 11
-60.00000000000023
 21
-75.00000099999998
 31
0.0
  0
LINE
  5
ABEC
330
A9A0
100
AcDbEntity
  8
AM_5
100
AcDbLine
 10
-28.00000000000045
 20
-21.99999999999999
 30
0.0
 11
-28.00000000000046
 21
-75.00000099999998
 31
0.0
  0
LINE
  5
ABED
330
A9A0
100
AcDbEntity
  8
AM_5
100
AcDbLine
 10
-57.50000000000023
 20
-74.00000099999998
 30
0.0
 11
-30.50000000000046
 21
-74.00000099999998
 31
0.0
  0
INSERT
  5
ABEE
330
A9A0
100
AcDbEntity
  8
AM_5
100
AcDbBlockReference
  2
_OPEN30
 10
-60.00000000000023
 20
-74.00000099999998
 30
0.0
 41
2.5
 42
2.5
 43
2.5
 50
180.0
  0
INSERT
  5
ABEF
330
A9A0
100
AcDbEntity
  8
AM_5
100
AcDbBlockReference
  2
_OPEN30
 10
-28.00000000000046
 20
-74.00000099999998
 30
0.0
 41
2.5
 42
2.5
 43
2.5
  0
MTEXT
  5
ABF0
330
A9A0
100
AcDbEntity
  8
AM_5
 62
     2
100
AcDbMText
 10
-44.00000000000034
 20
-70.90000099999999
 30
0.0
 40
3.2
 41
0.0
 71
     5
 72
     1
  1
32
  7
ASAMI
1001
ACAD
1000
MTEXTBEGIN
1070
    73
1070
     1
1070
    44
1040
1.0
1070
    74
1070
     0
1000
MTEXTEND
  0
POINT
  5
ABF1
330
A9A0
100
AcDbEntity
  8
DEFPOINTS
 62
     0
100
AcDbPoint
 10
-60.00000000000023
 20
-35.99999999999999
 30
0.0
  0
POINT
  5
ABF2
330
A9A0
100
AcDbEntity
  8
DEFPOINTS
 62
     0
100
AcDbPoint
 10
-28.00000000000045
 20
-20.99999999999999
 30
0.0
  0
POINT
  5
ABF3
330
A9A0
100
AcDbEntity
  8
DEFPOINTS
 62
     0
100
AcDbPoint
 10
-28.00000000000046
 20
-74.00000099999998
 30
0.0
  0
ENDBLK
  5
A9AB
330
A9A0
100
AcDbEntity
  8
0
100
AcDbBlockEnd
  0
BLOCK
  5
A9B6
330
A9AC
100
AcDbEntity
  8
0
100
AcDbBlockBegin
  2
*D10
 70
     1
 10
0.0
 20
0.0
 30
0.0
  3
*D10
  1

  0
LINE
  5
ABE2
330
A9AC
100
AcDbEntity
  8
AM_5
100
AcDbLine
 10
-60.00000000000023
 20
-36.99999999999999
 30
0.0
 11
-60.00000000000023
 21
-85.00000099999999
 31
0.0
  0
LINE
  5
ABE3
330
A9AC
100
AcDbEntity
  8
AM_5
100
AcDbLine
 10
0.0000000000002557
 20
-50.99999999999996
 30
0.0
 11
0.0000000000002537
 21
-85.00000099999999
 31
0.0
  0
LINE
  5
ABE4
330
A9AC
100
AcDbEntity
  8
AM_5
100
AcDbLine
 10
-57.50000000000023
 20
-84.00000099999997
 30
0.0
 11
-2.499999999999746
 21
-84.00000099999997
 31
0.0
  0
INSERT
  5
ABE5
330
A9AC
100
AcDbEntity
  8
AM_5
100
AcDbBlockReference
  2
_OPEN30
 10
-60.00000000000023
 20
-84.00000099999997
 30
0.0
 41
2.5
 42
2.5
 43
2.5
 50
180.0
  0
INSERT
  5
ABE6
330
A9AC
100
AcDbEntity
  8
AM_5
100
AcDbBlockReference
  2
_OPEN30
 10
0.0000000000002537
 20
-84.00000099999997
 30
0.0
 41
2.5
 42
2.5
 43
2.5
  0
MTEXT
  5
ABE7
330
A9AC
100
AcDbEntity
  8
AM_5
 62
     2
100
AcDbMText
 10
-29.99999999999998
 20
-80.90000099999999
 30
0.0
 40
3.2
 41
0.0
 71
     5
 72
     1
  1
60
  7
ASAMI
1001
ACAD
1000
MTEXTBEGIN
1070
    73
1070
     1
1070
    44
1040
1.0
1070
    74
1070
     0
1000
MTEXTEND
  0
POINT
  5
ABE8
330
A9AC
100
AcDbEntity
  8
DEFPOINTS
 62
     0
100
AcDbPoint
 10
-60.00000000000023
 20
-35.99999999999999
 30
0.0
  0
POINT
  5
ABE9
330
A9AC
100
AcDbEntity
  8
DEFPOINTS
 62
     0
100
AcDbPoint
 10
0.0000000000002558
 20
-49.99999999999996
 30
0.0
  0
POINT
  5
ABEA
330
A9AC
100
AcDbEntity
  8
DEFPOINTS
 62
     0
100
AcDbPoint
 10
0.0000000000002537
 20
-84.00000099999997
 30
0.0
  0
ENDBLK
  5
A9B7
330
A9AC
100
AcDbEntity
  8
0
100
AcDbBlockEnd
  0
BLOCK
  5
A9EE
330
A9E4
100
AcDbEntity
  8
0
100
AcDbBlockBegin
  2
*D11
 70
     1
 10
0.0
 20
0.0
 30
0.0
  3
*D11
  1

  0
LINE
  5
ABA8
330
A9E4
100
AcDbEntity
  8
AM_5
100
AcDbLine
 10
-27.00000000000014
 20
20.99999999999999
 30
0.0
 11
21.69894822636457
 21
20.99999999999997
 31
0.0
  0
LINE
  5
ABA9
330
A9E4
100
AcDbEntity
  8
AM_5
100
AcDbLine
 10
-27.00000000000045
 20
-20.99999999999999
 30
0.0
 11
21.69894822636456
 21
-21.0
 31
0.0
  0
LINE
  5
ABAA
330
A9E4
100
AcDbEntity
  8
AM_5
100
AcDbLine
 10
20.69894822636457
 20
18.49999999999997
 30
0.0
 11
20.69894822636456
 21
-18.5
 31
0.0
  0
INSERT
  5
ABAB
330
A9E4
100
AcDbEntity
  8
AM_5
100
AcDbBlockReference
  2
_OPEN30
 10
20.69894822636457
 20
20.99999999999997
 30
0.0
 41
2.5
 42
2.5
 43
2.5
 50
90.0
  0
INSERT
  5
ABAC
330
A9E4
100
AcDbEntity
  8
AM_5
100
AcDbBlockReference
  2
_OPEN30
 10
20.69894822636456
 20
-21.0
 30
0.0
 41
2.5
 42
2.5
 43
2.5
 50
270.0
  0
MTEXT
  5
ABAD
330
A9E4
100
AcDbEntity
  8
AM_5
 62
     2
100
AcDbMText
 10
17.59894822636456
 20
-0.0000000000000115
 30
0.0
 40
3.2
 41
0.0
 71
     5
 72
     1
  1
%%c42
  7
ASAMI
 11
0.0000000000000001
 21
1.0
 31
0.0
1001
ACAD
1000
MTEXTBEGIN
1070
    73
1070
     1
1070
    44
1040
1.0
1070
    74
1070
     0
1000
MTEXTEND
  0
POINT
  5
ABAE
330
A9E4
100
AcDbEntity
  8
DEFPOINTS
 62
     0
100
AcDbPoint
 10
-28.00000000000014
 20
20.99999999999999
 30
0.0
  0
POINT
  5
ABAF
330
A9E4
100
AcDbEntity
  8
DEFPOINTS
 62
     0
100
AcDbPoint
 10
-28.00000000000045
 20
-20.99999999999999
 30
0.0
  0
POINT
  5
ABB0
330
A9E4
100
AcDbEntity
  8
DEFPOINTS
 62
     0
100
AcDbPoint
 10
20.69894822636456
 20
-21.0
 30
0.0
  0
ENDBLK
  5
A9EF
330
A9E4
100
AcDbEntity
  8
0
100
AcDbBlockEnd
  0
BLOCK
  5
A9FA
330
A9F0
100
AcDbEntity
  8
0
100
AcDbBlockBegin
  2
*D12
 70
     1
 10
0.0
 20
0.0
 30
0.0
  3
*D12
  1

  0
LINE
  5
AD5A
330
A9F0
100
AcDbEntity
  8
AM_5
100
AcDbLine
 10
0.9999999999997726
 20
50.0
 30
0.0
 11
35.11355077468581
 21
49.99999999999999
 31
0.0
  0
LINE
  5
AD5B
330
A9F0
100
AcDbEntity
  8
AM_5
100
AcDbLine
 10
1.000000000000255
 20
-49.99999999999996
 30
0.0
 11
35.11355077468578
 21
-49.99999999999997
 31
0.0
  0
LINE
  5
AD5C
330
A9F0
100
AcDbEntity
  8
AM_5
100
AcDbLine
 10
34.1135507746858
 20
47.49999999999999
 30
0.0
 11
34.11355077468579
 21
-47.49999999999997
 31
0.0
  0
INSERT
  5
AD5D
330
A9F0
100
AcDbEntity
  8
AM_5
100
AcDbBlockReference
  2
_OPEN30
 10
34.11355077468581
 20
49.99999999999999
 30
0.0
 41
2.5
 42
2.5
 43
2.5
 50
90.0
  0
INSERT
  5
AD5E
330
A9F0
100
AcDbEntity
  8
AM_5
100
AcDbBlockReference
  2
_OPEN30
 10
34.11355077468578
 20
-49.99999999999997
 30
0.0
 41
2.5
 42
2.5
 43
2.5
 50
270.0
  0
MTEXT
  5
AD5F
330
A9F0
100
AcDbEntity
  8
AM_5
 62
     2
100
AcDbMText
 10
31.01355077468579
 20
0.0000000000000125
 30
0.0
 40
3.2
 41
0.0
 71
     5
 72
     1
  1
%%c100
  7
ASAMI
 11
0.0000000000000001
 21
1.0
 31
0.0
1001
ACAD
1000
MTEXTBEGIN
1070
    73
1070
     1
1070
    44
1040
1.0
1070
    74
1070
     0
1000
MTEXTEND
  0
POINT
  5
AD60
330
A9F0
100
AcDbEntity
  8
DEFPOINTS
 62
     0
100
AcDbPoint
 10
-0.0000000000002274
 20
50.0
 30
0.0
  0
POINT
  5
AD61
330
A9F0
100
AcDbEntity
  8
DEFPOINTS
 62
     0
100
AcDbPoint
 10
0.0000000000002558
 20
-49.99999999999996
 30
0.0
  0
POINT
  5
AD62
330
A9F0
100
AcDbEntity
  8
DEFPOINTS
 62
     0
100
AcDbPoint
 10
34.11355077468578
 20
-49.99999999999997
 30
0.0
  0
ENDBLK
  5
A9FB
330
A9F0
100
AcDbEntity
  8
0
100
AcDbBlockEnd
  0
BLOCK
  5
AC93
330
AC83
100
AcDbEntity
  8
0
100
AcDbBlockBegin
  2
*D13
 70
     1
 10
0.0
 20
0.0
 30
0.0
  3
*D13
  1

  0
LINE
  5
AD4B
330
AC83
100
AcDbEntity
  8
AM_5
100
AcDbLine
 10
0.0000000000002522
 20
-50.99999999999997
 30
0.0
 11
0.0000000000004263
 21
-85.11355077468587
 31
0.0
  0
LINE
  5
AD4C
330
AC83
100
AcDbEntity
  8
AM_5
100
AcDbLine
 10
1.000000000000252
 20
-49.99999999999993
 30
0.0
 11
35.11355077468615
 21
-49.99999999999874
 31
0.0
  0
ARC
  5
AD4D
330
AC83
100
AcDbEntity
  8
AM_5
100
AcDbCircle
 10
0.0000000000002522
 20
-49.99999999999997
 30
0.0
 40
34.11355077468589
100
AcDbArc
 50
274.199841956256
 51
355.8001580437462
  0
INSERT
  5
AD4E
330
AC83
100
AcDbEntity
  8
AM_5
100
AcDbBlockReference
  2
_OPEN30
 10
0.0000000000004192
 20
-84.11355077468586
 30
0.0
 41
2.5
 42
2.5
 43
2.5
 50
182.0999209781281
  0
INSERT
  5
AD4F
330
AC83
100
AcDbEntity
  8
AM_5
100
AcDbBlockReference
  2
_OPEN30
 10
34.11355077468614
 20
-49.99999999999879
 30
0.0
 41
2.5
 42
2.5
 43
2.5
 50
87.90007902187417
  0
MTEXT
  5
AD50
330
AC83
100
AcDbEntity
  8
AM_5
 62
     2
100
AcDbMText
 10
21.92989206145438
 20
-71.92989206145324
 30
0.0
 40
3.2
 41
0.0
 71
     5
 72
     1
  1
90°
  7
ASAMI
 11
0.7071067811865321
 21
0.707106781186563
 31
0.0
1001
ACAD
1000
MTEXTBEGIN
1070
    73
1070
     1
1070
    44
1040
1.0
1070
    74
1070
     0
1000
MTEXTEND
  0
POINT
  5
AD51
330
AC83
100
AcDbEntity
  8
DEFPOINTS
 62
     0
100
AcDbPoint
 10
17.05677538734363
 20
-79.54320158416802
 30
0.0
  0
POINT
  5
AD52
330
AC83
100
AcDbEntity
  8
DEFPOINTS
 62
     0
100
AcDbPoint
 10
0.0000000000002522
 20
-49.99999999999997
 30
0.0
  0
POINT
  5
AD53
330
AC83
100
AcDbEntity
  8
DEFPOINTS
 62
     0
100
AcDbPoint
 10
-0.0000000000002345
 20
50.0
 30
0.0
  0
POINT
  5
AD54
330
AC83
100
AcDbEntity
  8
DEFPOINTS
 62
     0
100
AcDbPoint
 10
0.0000000000002522
 20
-49.99999999999997
 30
0.0
  0
POINT
  5
AD55
330
AC83
100
AcDbEntity
  8
DEFPOINTS
 62
     0
100
AcDbPoint
 10
-0.3718219999998134
 20
-49.99999999999999
 30
0.0
  0
ENDBLK
  5
AC94
330
AC83
100
AcDbEntity
  8
0
100
AcDbBlockEnd
  0
ENDSEC
  0
SECTION
  2
ENTITIES
  0
TEXT
  5
E5A
330
1F
100
AcDbEntity
  8
AM_6
100
AcDbText
 10
-48.21428571428569
 20
-106.5000009999999
 30
0.0
 40
5.0
  1
CPG4100R
 72
     4
 11
-29.99999999999997
 21
-104.0000009999999
 31
0.0
100
AcDbText
  0
LINE
  5
9BD4
330
1F
100
AcDbEntity
  8
AM_3
100
AcDbLine
 10
-19.93523648788093
 20
-48.30000000000001
 30
0.0
 11
-2.700000000000217
 21
-48.30000000000004
 31
0.0
  0
LINE
  5
9BD5
330
1F
100
AcDbEntity
  8
AM_0
100
AcDbLine
 10
-27.24186876499448
 20
-21.03973197443172
 30
0.0
 11
-3.699314767377614
 21
-22.27354494809794
 31
0.0
  0
LINE
  5
9BD6
330
1F
100
AcDbEntity
  8
AM_11
100
AcDbLine
 10
-28.00000000000014
 20
20.99999999999999
 30
0.0
 11
-27.24186876499445
 21
21.03973197443175
 31
0.0
  0
LINE
  5
9BD7
330
1F
100
AcDbEntity
  8
AM_3
100
AcDbLine
 10
-19.93523648788149
 20
48.30000000000001
 30
0.0
 11
-2.700000000000217
 21
48.30000000000005
 31
0.0
  0
LINE
  5
9BD8
330
1F
100
AcDbEntity
  8
AM_7
100
AcDbLine
 10
-67.5522980351169
 20
0.0000000000000071
 30
0.0
 11
6.698947226364566
 21
0.0
 31
0.0
  0
LINE
  5
9BDB
330
1F
100
AcDbEntity
  8
AM_0
100
AcDbLine
 10
-58.30000000000024
 20
-6.349999999999958
 30
0.0
 11
-58.30000000000012
 21
-15.87499999999998
 31
0.0
  0
LINE
  5
9BDC
330
1F
100
AcDbEntity
  8
AM_0
100
AcDbLine
 10
-29.00000000000017
 20
0.0000000000000071
 30
0.0
 11
-29.00000000000017
 21
-15.87499999999998
 31
0.0
  0
LINE
  5
9BDD
330
1F
100
AcDbEntity
  8
AM_0
100
AcDbLine
 10
-28.00000000000017
 20
0.0000000000000071
 30
0.0
 11
-28.00000000000011
 21
-20.24082834662805
 31
0.0
  0
LINE
  5
9BDE
330
1F
100
AcDbEntity
  8
AM_0
100
AcDbLine
 10
-48.16534602404232
 20
-44.99999999999999
 30
0.0
 11
-39.60000000000019
 21
-44.99999999999996
 31
0.0
  0
LINE
  5
9BDF
330
1F
100
AcDbEntity
  8
AM_0
100
AcDbLine
 10
-58.30000000000018
 20
-15.87499999999998
 30
0.0
 11
-29.00000000000017
 21
-15.87499999999998
 31
0.0
  0
LINE
  5
9BE0
330
1F
100
AcDbEntity
  8
AM_0
100
AcDbLine
 10
-60.00000000000015
 20
-7.549999999999952
 30
0.0
 11
-60.00000000000023
 21
-35.99999999999999
 31
0.0
  0
LINE
  5
9BE1
330
1F
100
AcDbEntity
  8
AM_0
100
AcDbLine
 10
-51.31242126661345
 20
-38.98236190979494
 30
0.0
 11
-50.09719767662045
 21
-43.51763809020502
 31
0.0
  0
LINE
  5
9BE4
330
1F
100
AcDbEntity
  8
AM_0
100
AcDbLine
 10
-58.50000000000022
 20
-37.49999999999999
 30
0.0
 11
-53.24427291919159
 21
-37.49999999999999
 31
0.0
  0
LINE
  5
9BE7
330
1F
100
AcDbEntity
  8
AM_3
100
AcDbLine
 10
-26.86199712940373
 20
-48.25659300000018
 30
0.0
 11
-32.61703708685578
 21
-46.71453469099211
 31
0.0
  0
LINE
  5
9BE8
330
1F
100
AcDbEntity
  8
AM_3
100
AcDbLine
 10
-33.10000000000019
 20
-37.99999999999996
 30
0.0
 11
-33.1000000000003
 21
-46.08512516844085
 31
0.0
  0
LINE
  5
9BE9
330
1F
100
AcDbEntity
  8
AM_3
100
AcDbLine
 10
-39.10000000000019
 20
-40.25659300000029
 30
0.0
 11
-39.10000000000019
 21
-44.49999999999996
 31
0.0
  0
LINE
  5
9BEA
330
1F
100
AcDbEntity
  8
AM_3
100
AcDbLine
 10
-39.39029299999984
 20
-44.79029299999962
 30
0.0
 11
-39.10000000000019
 21
-44.49999999999996
 31
0.0
  0
LINE
  5
9BEC
330
1F
100
AcDbEntity
  8
AM_0
100
AcDbLine
 10
-39.60000000000025
 20
-37.99999999999996
 30
0.0
 11
-36.26490099999986
 21
-37.99999999999996
 31
0.0
  0
LINE
  5
9BED
330
1F
100
AcDbEntity
  8
AM_0
100
AcDbLine
 10
-39.60000000000025
 20
-39.99999999999996
 30
0.0
 11
-39.10000000000019
 21
-39.99999999999996
 31
0.0
  0
LINE
  5
9BEE
330
1F
100
AcDbEntity
  8
AM_0
100
AcDbLine
 10
-39.60000000000019
 20
-37.99999999999993
 30
0.0
 11
-39.60000000000025
 21
-39.99999999999996
 31
0.0
  0
ARC
  5
9BEF
330
1F
100
AcDbEntity
  8
AM_0
100
AcDbCircle
 10
-27.2000000000001
 20
-20.24082834662805
 30
0.0
 40
0.8
100
AcDbArc
 50
180.0
 51
267.0000000000009
  0
LINE
  5
9BF0
330
1F
100
AcDbEntity
  8
AM_0
100
AcDbLine
 10
-29.00000000000017
 20
-15.87499999999998
 30
0.0
 11
-28.00000000000017
 21
-16.87499999999998
 31
0.0
  0
LINE
  5
9BF1
330
1F
100
AcDbEntity
  8
AM_3
100
AcDbLine
 10
-39.10000000000019
 20
40.25659299999994
 30
0.0
 11
-39.10000000000019
 21
44.49999999999998
 31
0.0
  0
LINE
  5
9BF2
330
1F
100
AcDbEntity
  8
AM_3
100
AcDbLine
 10
-33.10000000000019
 20
37.99999999999998
 30
0.0
 11
-33.10000000000031
 21
46.08512516844089
 31
0.0
  0
LINE
  5
9BF4
330
1F
100
AcDbEntity
  8
AM_0
100
AcDbLine
 10
-58.30000000000017
 20
15.875
 30
0.0
 11
-29.00000000000017
 21
15.875
 31
0.0
  0
LINE
  5
9BF6
330
1F
100
AcDbEntity
  8
AM_0
100
AcDbLine
 10
-60.00000000000015
 20
7.549999999999967
 30
0.0
 11
-60.00000000000022
 21
36.0
 31
0.0
  0
LINE
  5
9BF7
330
1F
100
AcDbEntity
  8
AM_0
100
AcDbLine
 10
-52.00000000000023
 20
0.0000000000000071
 30
0.0
 11
-52.00000000000023
 21
5.350000000000002
 31
0.0
  0
LINE
  5
9BF8
330
1F
100
AcDbEntity
  8
AM_0
100
AcDbLine
 10
-58.80000000000015
 20
-6.349999999999958
 30
0.0
 11
-53.00000000000023
 21
-6.349999999999987
 31
0.0
  0
LINE
  5
9BF9
330
1F
100
AcDbEntity
  8
AM_0
100
AcDbLine
 10
-52.00000000000023
 20
0.0000000000000071
 30
0.0
 11
-52.00000000000023
 21
-5.349999999999987
 31
0.0
  0
LINE
  5
9BFB
330
1F
100
AcDbEntity
  8
AM_0
100
AcDbLine
 10
-58.30000000000024
 20
6.349999999999972
 30
0.0
 11
-58.30000000000012
 21
15.87499999999994
 31
0.0
  0
LINE
  5
9BFD
330
1F
100
AcDbEntity
  8
AM_0
100
AcDbLine
 10
-58.80000000000014
 20
6.349999999999973
 30
0.0
 11
-53.00000000000023
 21
6.350000000000002
 31
0.0
  0
LINE
  5
9C00
330
1F
100
AcDbEntity
  8
AM_0
100
AcDbLine
 10
-58.50000000000022
 20
37.5
 30
0.0
 11
-53.24427291919128
 21
37.5
 31
0.0
  0
LINE
  5
9C01
330
1F
100
AcDbEntity
  8
AM_0
100
AcDbLine
 10
-28.00000000000017
 20
0.0000000000000071
 30
0.0
 11
-28.00000000000014
 21
20.24082834662807
 31
0.0
  0
LINE
  5
9C02
330
1F
100
AcDbEntity
  8
AM_0
100
AcDbLine
 10
-29.00000000000017
 20
0.0000000000000071
 30
0.0
 11
-29.00000000000017
 21
15.875
 31
0.0
  0
LINE
  5
9C03
330
1F
100
AcDbEntity
  8
AM_0
100
AcDbLine
 10
-29.00000000000017
 20
15.875
 30
0.0
 11
-28.00000000000017
 21
16.875
 31
0.0
  0
LINE
  5
9C04
330
1F
100
AcDbEntity
  8
AM_3
100
AcDbLine
 10
-36.26490100000023
 20
37.99999999999998
 30
0.0
 11
-33.10000000000025
 21
37.99999999999998
 31
0.0
  0
LINE
  5
9C05
330
1F
100
AcDbEntity
  8
AM_0
100
AcDbLine
 10
-39.60000000000019
 20
37.99999999999995
 30
0.0
 11
-39.60000000000025
 21
39.99999999999998
 31
0.0
  0
LINE
  5
9C06
330
1F
100
AcDbEntity
  8
AM_0
100
AcDbLine
 10
-39.60000000000025
 20
39.99999999999998
 30
0.0
 11
-39.10000000000019
 21
39.99999999999998
 31
0.0
  0
ARC
  5
9C07
330
1F
100
AcDbEntity
  8
AM_0
100
AcDbCircle
 10
-27.2000000000001
 20
20.24082834662807
 30
0.0
 40
0.8
100
AcDbArc
 50
92.99999999999908
 51
180.0
  0
LINE
  5
9C08
330
1F
100
AcDbEntity
  8
AM_0
100
AcDbLine
 10
-48.16534602404263
 20
45.0
 30
0.0
 11
-39.60000000000019
 21
44.99999999999998
 31
0.0
  0
LINE
  5
9C0A
330
1F
100
AcDbEntity
  8
AM_3
100
AcDbLine
 10
-26.86199712940464
 20
48.25659299999994
 30
0.0
 11
-32.61703708685578
 21
46.71453469099215
 31
0.0
  0
LINE
  5
9C0B
330
1F
100
AcDbEntity
  8
AM_3
100
AcDbLine
 10
-39.39029300000027
 20
44.79029300000005
 30
0.0
 11
-39.10000000000019
 21
44.49999999999998
 31
0.0
  0
LINE
  5
9C0D
330
1F
100
AcDbEntity
  8
AM_0
100
AcDbLine
 10
-1.700000000000329
 20
-29.25659299999994
 30
0.0
 11
-1.700000000000329
 21
0.0000000000000071
 31
0.0
  0
LINE
  5
9C0E
330
1F
100
AcDbEntity
  8
AM_0
100
AcDbLine
 10
-3.200000000000329
 20
-22.79971292621941
 30
0.0
 11
-3.200000000000329
 21
0.0000000000000071
 31
0.0
  0
LINE
  5
9C0F
330
1F
100
AcDbEntity
  8
AM_3
100
AcDbLine
 10
-1.700000000000329
 20
-29.25659299999994
 30
0.0
 11
-1.700000000000216
 21
-47.30000000000003
 31
0.0
  0
LINE
  5
9C11
330
1F
100
AcDbEntity
  8
AM_0
100
AcDbLine
 10
-1.700000000000329
 20
-27.53589838486222
 30
0.0
 11
-3.700000000000272
 21
-26.99999999999999
 31
0.0
  0
LINE
  5
9C12
330
1F
100
AcDbEntity
  8
AM_0
100
AcDbLine
 10
-3.200000000000329
 20
-25.99999999999999
 30
0.0
 11
-3.700000000000272
 21
-25.99999999999999
 31
0.0
  0
LINE
  5
9C13
330
1F
100
AcDbEntity
  8
AM_0
100
AcDbLine
 10
-3.700000000000272
 20
-25.99999999999999
 30
0.0
 11
-3.700000000000272
 21
-26.99999999999999
 31
0.0
  0
LINE
  5
9C14
330
1F
100
AcDbEntity
  8
AM_0
100
AcDbLine
 10
-3.200000000000329
 20
-22.79971292621941
 30
0.0
 11
-3.200000000000329
 21
-25.99999999999999
 31
0.0
  0
LINE
  5
9C15
330
1F
100
AcDbEntity
  8
AM_3
100
AcDbLine
 10
-1.700000000000329
 20
29.25659299999994
 30
0.0
 11
-1.700000000000216
 21
47.30000000000003
 31
0.0
  0
LINE
  5
9C16
330
1F
100
AcDbEntity
  8
AM_0
100
AcDbLine
 10
-3.200000000000329
 20
22.79971292621943
 30
0.0
 11
-3.200000000000329
 21
0.0000000000000071
 31
0.0
  0
LINE
  5
9C17
330
1F
100
AcDbEntity
  8
AM_0
100
AcDbLine
 10
-1.700000000000329
 20
29.25659299999994
 30
0.0
 11
-1.700000000000329
 21
0.0000000000000071
 31
0.0
  0
LINE
  5
9C18
330
1F
100
AcDbEntity
  8
AM_0
100
AcDbLine
 10
-1.700000000000329
 20
27.53589838486222
 30
0.0
 11
-3.700000000000272
 21
26.99999999999999
 31
0.0
  0
LINE
  5
9C19
330
1F
100
AcDbEntity
  8
AM_0
100
AcDbLine
 10
-3.200000000000329
 20
22.79971292621943
 30
0.0
 11
-3.200000000000329
 21
25.99999999999999
 31
0.0
  0
LINE
  5
9C1A
330
1F
100
AcDbEntity
  8
AM_0
100
AcDbLine
 10
-3.200000000000329
 20
25.99999999999999
 30
0.0
 11
-3.700000000000272
 21
25.99999999999999
 31
0.0
  0
LINE
  5
9C1B
330
1F
100
AcDbEntity
  8
AM_0
100
AcDbLine
 10
-3.700000000000272
 20
25.99999999999999
 30
0.0
 11
-3.700000000000272
 21
26.99999999999999
 31
0.0
  0
LINE
  5
A936
330
1F
100
AcDbEntity
  8
AM_0
100
AcDbLine
 10
-3.200000000000329
 20
22.79971292621943
 30
0.0
 11
-3.699314767377614
 21
22.27354494809795
 31
0.0
1001
GENIUS_GENFIL_13
1070
     0
1040
0.5
1040
0.5
1040
20.0
1040
0.0
1002
{
1002
}
1001
GENIUS_GENODEF_13
1002
{
1000
HIER
1070
     0
1002
}
1002
{
1000
MANEDIT
1070
     0
1002
}
1002
{
1000
NOSEL
1070
     0
1002
}
1002
{
1000
BEHIND
1070
     0
1002
}
1002
{
1000
REACTOR
1002
}
1001
GENIUS_GENOBJ-N-CHA_13
1002
{
1000
OWNER
1000
GEN
1002
}
  0
LINE
  5
A938
330
1F
100
AcDbEntity
  8
AM_0
100
AcDbLine
 10
-3.699314767377614
 20
-22.27354494809794
 30
0.0
 11
-3.200000000000329
 21
-22.79971292621941
 31
0.0
1001
GENIUS_GENFIL_13
1070
     0
1040
0.5
1040
0.5
1040
20.0
1040
0.0
1002
{
1002
}
1001
GENIUS_GENODEF_13
1002
{
1000
HIER
1070
     0
1002
}
1002
{
1000
MANEDIT
1070
     0
1002
}
1002
{
1000
NOSEL
1070
     0
1002
}
1002
{
1000
BEHIND
1070
     0
1002
}
1002
{
1000
REACTOR
1002
}
1001
GENIUS_GENOBJ-N-CHA_13
1002
{
1000
OWNER
1000
GEN
1002
}
  0
DIMENSION
  5
A93B
330
1F
100
AcDbEntity
  8
AM_5
100
AcDbDimension
  2
*D5
 10
-101.5522990351169
 20
-37.49999999999998
 30
0.0
 11
-104.6522990351168
 21
-0.0000000000000005
 31
0.0
 70
    32
  1
%%c<>
  3
AM_JIS
100
AcDbAlignedDimension
 13
-58.00000000000034
 23
37.5
 33
0.0
 14
-58.00000000000034
 24
-37.49999999999999
 34
0.0
 50
90.0
100
AcDbRotatedDimension
1001
GENIUS_GENDTOL_13
1000

1000
h7
1000

1040
0.0
  0
DIMENSION
  5
A93C
330
1F
100
AcDbEntity
  8
AM_5
100
AcDbDimension
  2
*D6
 10
-81.5522990351169
 20
-6.349999999999952
 30
0.0
 11
-81.5522990351169
 21
-0.0000000000000213
 31
0.0
 70
   160
  3
AM_JIS
100
AcDbAlignedDimension
 13
-58.80000000000018
 23
6.349999999999972
 33
0.0
 14
-58.80000000000018
 24
-6.349999999999958
 34
0.0
 50
90.0
100
AcDbRotatedDimension
  0
DIMENSION
  5
A93D
330
1F
100
AcDbEntity
  8
AM_5
100
AcDbDimension
  2
*D7
 10
-91.5522990351169
 20
-15.87499999999997
 30
0.0
 11
-94.65229903511689
 21
0.0000000000000033
 31
0.0
 70
    32
  1
%%c<>
  3
AM_JIS
100
AcDbAlignedDimension
 13
-58.30000000000012
 23
15.875
 33
0.0
 14
-58.30000000000012
 24
-15.87499999999998
 34
0.0
 50
90.0
100
AcDbRotatedDimension
1001
GENIUS_GENDTOL_13
1000

1000
h7
1000

1040
0.0
  0
DIMENSION
  5
A98F
330
1F
100
AcDbEntity
  8
AM_5
100
AcDbDimension
  2
*D8
 10
-52.00000000000024
 20
-64.00000099999998
 30
0.0
 11
-56.00000000000022
 21
-60.90000099999998
 31
0.0
 70
    32
  3
AM_JIS
100
AcDbAlignedDimension
 13
-60.00000000000023
 23
-35.99999999999999
 33
0.0
 14
-52.00000000000023
 24
-5.349999999999987
 34
0.0
100
AcDbRotatedDimension
  0
DIMENSION
  5
A990
330
1F
100
AcDbEntity
  8
AM_5
100
AcDbDimension
  2
*D9
 10
-28.00000000000046
 20
-74.00000099999998
 30
0.0
 11
-44.00000000000034
 21
-70.90000099999999
 31
0.0
 70
    32
  3
AM_JIS
100
AcDbAlignedDimension
 13
-60.00000000000023
 23
-35.99999999999999
 33
0.0
 14
-28.00000000000045
 24
-20.99999999999999
 34
0.0
100
AcDbRotatedDimension
  0
DIMENSION
  5
A991
330
1F
100
AcDbEntity
  8
AM_5
100
AcDbDimension
  2
*D10
 10
0.0000000000002537
 20
-84.00000099999997
 30
0.0
 11
-29.99999999999998
 21
-80.90000099999999
 31
0.0
 70
    32
  3
AM_JIS
100
AcDbAlignedDimension
 13
-60.00000000000023
 23
-35.99999999999999
 33
0.0
 14
0.0000000000002558
 24
-49.99999999999996
 34
0.0
100
AcDbRotatedDimension
  0
DIMENSION
  5
A9D5
330
1F
100
AcDbEntity
  8
AM_5
100
AcDbDimension
  2
*D12
 10
34.11355077468578
 20
-49.99999999999997
 30
0.0
 11
31.01355077468579
 21
0.0000000000000125
 31
0.0
 70
    32
  1
%%c<>
  3
AM_JIS$0
100
AcDbAlignedDimension
 13
-0.0000000000002274
 23
50.0
 33
0.0
 14
0.0000000000002558
 24
-49.99999999999996
 34
0.0
 50
90.0
100
AcDbRotatedDimension
1001
ACAD
1000
DSTYLE
1002
{
1070
    40
1040
1.0
1070
    43
1040
12.0
1070
   140
1040
3.2
1070
   147
1040
1.5
1070
   178
1070
     2
1002
}
1001
GENIUS_GENDTOL_13
1000

1000
h7
1000

1040
0.0
  0
DIMENSION
  5
A9D6
330
1F
100
AcDbEntity
  8
AM_5
100
AcDbDimension
  2
*D11
 10
20.69894822636456
 20
-21.0
 30
0.0
 11
17.59894822636456
 21
-0.0000000000000115
 31
0.0
 70
    32
  1
%%c<>
  3
AM_JIS$0
100
AcDbAlignedDimension
 13
-28.00000000000014
 23
20.99999999999999
 33
0.0
 14
-28.00000000000045
 24
-20.99999999999999
 34
0.0
 50
90.0
100
AcDbRotatedDimension
1001
ACAD
1000
DSTYLE
1002
{
1070
    40
1040
1.0
1070
    43
1040
12.0
1070
   140
1040
3.2
1070
   147
1040
1.5
1070
   178
1070
     2
1002
}
1001
GENIUS_GENDTOL_13
1000

1000
h7
1000

1040
0.0
  0
LINE
  5
AAA7
330
1F
100
AcDbEntity
  8
AM_0
100
AcDbLine
 10
-27.24186876499445
 20
21.03973197443175
 30
0.0
 11
-3.699314767377614
 21
22.27354494809795
 31
0.0
  0
LINE
  5
AAA8
330
1F
100
AcDbEntity
  8
AM_11
100
AcDbLine
 10
-28.00000000000014
 20
20.24082834662807
 30
0.0
 11
-28.00000000000014
 21
20.99999999999999
 31
0.0
  0
LINE
  5
AAA9
330
1F
100
AcDbEntity
  8
AM_11
100
AcDbLine
 10
-28.00000000000042
 20
-20.24082834662807
 30
0.0
 11
-28.00000000000045
 21
-20.99999999999999
 31
0.0
  0
LINE
  5
AAAA
330
1F
100
AcDbEntity
  8
AM_11
100
AcDbLine
 10
-28.00000000000045
 20
-20.99999999999999
 30
0.0
 11
-27.24186876499476
 21
-21.03973197443176
 31
0.0
  0
LINE
  5
AAE8
330
1F
100
AcDbEntity
  8
0
100
AcDbLine
 10
-18.87029000000029
 20
49.94589399999995
 30
0.0
 11
-0.371822000000293
 21
50.0
 31
0.0
  0
LINE
  5
AAE9
330
1F
100
AcDbEntity
  8
AM_11
100
AcDbLine
 10
-0.0000000000002274
 20
50.0
 30
0.0
 11
-0.371822000000293
 21
50.0
 31
0.0
  0
LINE
  5
AAEA
330
1F
100
AcDbEntity
  8
0
100
AcDbLine
 10
-0.0000000000002274
 20
49.66533000000003
 30
0.0
 11
-0.371822000000293
 21
50.0
 31
0.0
  0
LINE
  5
AAEB
330
1F
100
AcDbEntity
  8
AM_11
100
AcDbLine
 10
-0.0000000000002274
 20
50.0
 30
0.0
 11
0.0000000000002558
 21
-49.99999999999996
 31
0.0
  0
LINE
  5
AAEC
330
1F
100
AcDbEntity
  8
0
100
AcDbLine
 10
-1.657376000000226
 20
45.35659299999997
 30
0.0
 11
-0.0082000000002154
 21
48.24817699999993
 31
0.0
  0
LINE
  5
AAED
330
1F
100
AcDbEntity
  8
0
100
AcDbLine
 10
-0.0000000000002274
 20
49.66533000000003
 30
0.0
 11
-0.0082000000002154
 21
48.24817699999993
 31
0.0
  0
LINE
  5
AAEE
330
1F
100
AcDbEntity
  8
0
100
AcDbLine
 10
-0.593824000000268
 20
29.25659299999994
 30
0.0
 11
-0.593824000000268
 21
45.35659299999997
 31
0.0
  0
LINE
  5
AAEF
330
1F
100
AcDbEntity
  8
0
100
AcDbLine
 10
-0.9229430000002594
 20
46.644312
 30
0.0
 11
-0.9229430000002594
 21
45.35659299999997
 31
0.0
  0
LINE
  5
AAF0
330
1F
100
AcDbEntity
  8
0
100
AcDbLine
 10
-0.593824000000268
 20
45.35659299999997
 30
0.0
 11
-1.022391000000197
 21
45.35659299999997
 31
0.0
  0
LINE
  5
AAF1
330
1F
100
AcDbEntity
  8
0
100
AcDbLine
 10
-1.597297000000253
 20
40.74154499999997
 30
0.0
 11
-1.022391000000197
 21
45.35659299999997
 31
0.0
  0
LINE
  5
AAF2
330
1F
100
AcDbEntity
  8
0
100
AcDbLine
 10
-1.657376000000226
 20
45.35659299999997
 30
0.0
 11
-1.022391000000197
 21
45.35659299999997
 31
0.0
  0
LINE
  5
AAF3
330
1F
100
AcDbEntity
  8
0
100
AcDbLine
 10
-1.597297000000253
 20
29.25659299999994
 30
0.0
 11
-31.72597500000029
 21
29.25659299999994
 31
0.0
  0
LINE
  5
AAF4
330
1F
100
AcDbEntity
  8
0
100
AcDbLine
 10
-1.597297000000253
 20
40.74154499999997
 30
0.0
 11
-39.39029300000027
 21
40.74154499999997
 31
0.0
  0
LINE
  5
AAF5
330
1F
100
AcDbEntity
  8
0
100
AcDbLine
 10
-18.23379600000021
 20
45.35659299999997
 30
0.0
 11
-1.657376000000226
 21
45.35659299999997
 31
0.0
  0
LINE
  5
AAF6
330
1F
100
AcDbEntity
  8
0
100
AcDbLine
 10
-1.597297000000253
 20
40.74154499999997
 30
0.0
 11
-1.597297000000253
 21
29.25659299999994
 31
0.0
  0
LINE
  5
AAF7
330
1F
100
AcDbEntity
  8
0
100
AcDbLine
 10
-0.593824000000268
 20
29.25659299999994
 30
0.0
 11
-1.597297000000253
 21
29.25659299999994
 31
0.0
  0
LINE
  5
AAF8
330
1F
100
AcDbEntity
  8
0
100
AcDbLine
 10
-19.91014500000028
 20
48.25659299999994
 30
0.0
 11
-21.36689800000021
 21
48.25659299999994
 31
0.0
  0
LINE
  5
AAF9
330
1F
100
AcDbEntity
  8
0
100
AcDbLine
 10
-19.91014500000028
 20
48.25659299999994
 30
0.0
 11
-20.19729100000017
 21
48.75334099999997
 31
0.0
  0
LINE
  5
AAFA
330
1F
100
AcDbEntity
  8
0
100
AcDbLine
 10
-20.09495700000024
 20
49.244458
 30
0.0
 11
-20.19729100000017
 21
48.75334099999997
 31
0.0
  0
LINE
  5
AAFB
330
1F
100
AcDbEntity
  8
0
100
AcDbLine
 10
-18.87029000000029
 20
49.94589399999995
 30
0.0
 11
-20.09495700000024
 21
49.244458
 31
0.0
  0
LINE
  5
AAFC
330
1F
100
AcDbEntity
  8
0
100
AcDbLine
 10
-21.36689800000021
 20
48.25659299999994
 30
0.0
 11
-26.54091200000016
 21
48.25659299999994
 31
0.0
  0
LINE
  5
AAFD
330
1F
100
AcDbEntity
  8
0
100
AcDbLine
 10
-26.54091200000016
 20
48.25659299999994
 30
0.0
 11
-27.04945900000029
 21
45.35659299999997
 31
0.0
  0
LINE
  5
AAFE
330
1F
100
AcDbEntity
  8
0
100
AcDbLine
 10
-26.54091200000016
 20
48.25659299999994
 30
0.0
 11
-28.83036400000026
 21
48.25659299999994
 31
0.0
  0
LINE
  5
AAFF
330
1F
100
AcDbEntity
  8
0
100
AcDbLine
 10
-21.87544500000023
 20
45.35659299999997
 30
0.0
 11
-21.36689800000021
 21
48.25659299999994
 31
0.0
  0
ELLIPSE
  5
AB00
330
1F
100
AcDbEntity
  8
0
100
AcDbEllipse
 10
-24.71412600000019
 20
44.51749299999994
 30
0.0
 11
2.725014042142
 21
1.215857633035
 31
0.0
210
0.0
220
0.0
230
1.0
 40
0.7197076099236
 41
2.214463915846009
 42
2.689771956990409
  0
ELLIPSE
  5
AB01
330
1F
100
AcDbEntity
  8
0
100
AcDbEllipse
 10
-24.71412600000019
 20
44.51749299999994
 30
0.0
 11
2.725014042142
 21
1.215857633035
 31
0.0
210
0.0
220
0.0
230
1.0
 40
0.7197076099236
 41
2.689771956990409
 42
5.831365047675119
  0
ELLIPSE
  5
AB02
330
1F
100
AcDbEntity
  8
0
100
AcDbEllipse
 10
-24.71412600000019
 20
44.51749299999994
 30
0.0
 11
2.725014042142
 21
1.215857633035
 31
0.0
210
0.0
220
0.0
230
1.0
 40
0.7197076099236
 41
-0.451819871910055
 42
-0.182791786754033
  0
LINE
  5
AB03
330
1F
100
AcDbEntity
  8
0
100
AcDbLine
 10
-27.04945900000029
 20
45.35659299999997
 30
0.0
 11
-39.39029300000027
 21
45.35659299999997
 31
0.0
  0
LINE
  5
AB04
330
1F
100
AcDbEntity
  8
0
100
AcDbLine
 10
-18.23379600000021
 20
45.35659299999997
 30
0.0
 11
-21.87544500000023
 21
45.35659299999997
 31
0.0
  0
LINE
  5
AB05
330
1F
100
AcDbEntity
  8
0
100
AcDbLine
 10
-28.83036400000026
 20
48.25659299999994
 30
0.0
 11
-39.39029300000027
 21
45.41148299999997
 31
0.0
  0
LINE
  5
AB06
330
1F
100
AcDbEntity
  8
0
100
AcDbLine
 10
-39.39029300000027
 20
45.35659299999997
 30
0.0
 11
-39.39029300000027
 21
40.74154499999997
 31
0.0
  0
LINE
  5
AB07
330
1F
100
AcDbEntity
  8
0
100
AcDbLine
 10
-39.39029300000027
 20
40.25659299999994
 30
0.0
 11
-31.72597500000029
 21
40.25659299999994
 31
0.0
  0
LINE
  5
AB08
330
1F
100
AcDbEntity
  8
0
100
AcDbLine
 10
-39.39029300000027
 20
40.74154499999997
 30
0.0
 11
-39.39029300000027
 21
40.25659299999994
 31
0.0
  0
LINE
  5
AB09
330
1F
100
AcDbEntity
  8
0
100
AcDbLine
 10
-31.72597500000029
 20
40.25659299999994
 30
0.0
 11
-31.72597500000029
 21
29.25659299999994
 31
0.0
  0
LINE
  5
AB0A
330
1F
100
AcDbEntity
  8
0
100
AcDbLine
 10
-36.26490100000023
 20
29.25659299999994
 30
0.0
 11
-36.26490100000023
 21
40.25659299999994
 31
0.0
  0
LINE
  5
AB0B
330
1F
100
AcDbEntity
  8
0
100
AcDbLine
 10
-36.26490100000023
 20
29.25659299999994
 30
0.0
 11
-31.72597500000029
 21
29.25659299999994
 31
0.0
  0
LINE
  5
AB18
330
1F
100
AcDbEntity
  8
0
100
AcDbLine
 10
-39.39029300000027
 20
45.41148299999997
 30
0.0
 11
-39.39029300000027
 21
45.35659299999997
 31
0.0
  0
LINE
  5
AB19
330
1F
100
AcDbEntity
  8
0
100
AcDbLine
 10
-28.8303639999998
 20
-48.2565930000002
 30
0.0
 11
-39.39029299999984
 21
-45.41148300000032
 31
0.0
  0
LINE
  5
AB1A
330
1F
100
AcDbEntity
  8
0
100
AcDbLine
 10
-27.04945899999987
 20
-45.35659300000021
 30
0.0
 11
-39.39029299999984
 21
-45.35659300000032
 31
0.0
  0
LINE
  5
AB1B
330
1F
100
AcDbEntity
  8
0
100
AcDbLine
 10
-39.39029299999984
 20
-45.35659300000032
 30
0.0
 11
-39.39029299999987
 21
-40.74154500000032
 31
0.0
  0
LINE
  5
AB1C
330
1F
100
AcDbEntity
  8
0
100
AcDbLine
 10
-39.39029299999984
 20
-45.41148300000032
 30
0.0
 11
-39.39029299999984
 21
-45.35659300000032
 31
0.0
  0
LINE
  5
AB1D
330
1F
100
AcDbEntity
  8
0
100
AcDbLine
 10
-1.597296999999855
 20
-40.74154499999997
 30
0.0
 11
-39.39029299999987
 21
-40.74154500000032
 31
0.0
  0
LINE
  5
AB1E
330
1F
100
AcDbEntity
  8
0
100
AcDbLine
 10
-39.39029299999987
 20
-40.2565930000003
 30
0.0
 11
-31.72597499999989
 21
-40.25659300000023
 31
0.0
  0
LINE
  5
AB1F
330
1F
100
AcDbEntity
  8
0
100
AcDbLine
 10
-39.39029299999987
 20
-40.74154500000032
 30
0.0
 11
-39.39029299999987
 21
-40.2565930000003
 31
0.0
  0
LINE
  5
AB20
330
1F
100
AcDbEntity
  8
0
100
AcDbLine
 10
-36.26490099999995
 20
-29.25659300000027
 30
0.0
 11
-36.26490099999983
 21
-40.25659300000027
 31
0.0
  0
LINE
  5
AB21
330
1F
100
AcDbEntity
  8
0
100
AcDbLine
 10
-31.72597499999989
 20
-40.25659300000023
 30
0.0
 11
-31.725975
 21
-29.25659300000022
 31
0.0
  0
LINE
  5
AB22
330
1F
100
AcDbEntity
  8
0
100
AcDbLine
 10
-1.597296999999969
 20
-29.25659299999994
 30
0.0
 11
-31.725975
 21
-29.25659300000022
 31
0.0
  0
LINE
  5
AB23
330
1F
100
AcDbEntity
  8
0
100
AcDbLine
 10
-36.26490099999995
 20
-29.25659300000027
 30
0.0
 11
-31.725975
 21
-29.25659300000022
 31
0.0
  0
LINE
  5
AB24
330
1F
100
AcDbEntity
  8
0
100
AcDbLine
 10
-1.597296999999855
 20
-40.74154499999997
 30
0.0
 11
-1.597296999999969
 21
-29.25659299999994
 31
0.0
  0
LINE
  5
AB25
330
1F
100
AcDbEntity
  8
0
100
AcDbLine
 10
-0.5938239999999837
 20
-29.25659299999993
 30
0.0
 11
-0.5938239999998416
 21
-45.35659299999995
 31
0.0
  0
LINE
  5
AB26
330
1F
100
AcDbEntity
  8
0
100
AcDbLine
 10
-0.5938239999999837
 20
-29.25659299999993
 30
0.0
 11
-1.597296999999969
 21
-29.25659299999994
 31
0.0
  0
LINE
  5
AB27
330
1F
100
AcDbEntity
  8
0
100
AcDbLine
 10
-1.597296999999855
 20
-40.74154499999997
 30
0.0
 11
-1.022390999999771
 21
-45.35659299999995
 31
0.0
  0
LINE
  5
AB28
330
1F
100
AcDbEntity
  8
0
100
AcDbLine
 10
-1.6573759999998
 20
-45.35659299999997
 30
0.0
 11
-1.022390999999771
 21
-45.35659299999995
 31
0.0
  0
LINE
  5
AB29
330
1F
100
AcDbEntity
  8
0
100
AcDbLine
 10
-1.6573759999998
 20
-45.35659299999997
 30
0.0
 11
-0.0081999999997606
 21
-48.24817699999992
 31
0.0
  0
LINE
  5
AB2A
330
1F
100
AcDbEntity
  8
0
100
AcDbLine
 10
-0.5938239999998416
 20
-45.35659299999995
 30
0.0
 11
-1.022390999999771
 21
-45.35659299999995
 31
0.0
  0
LINE
  5
AB2B
330
1F
100
AcDbEntity
  8
0
100
AcDbLine
 10
-0.9229429999998046
 20
-46.64431199999999
 30
0.0
 11
-0.922942999999833
 21
-45.35659299999995
 31
0.0
  0
LINE
  5
AB2C
330
1F
100
AcDbEntity
  8
0
100
AcDbLine
 10
-18.23379599999978
 20
-45.35659300000012
 30
0.0
 11
-1.6573759999998
 21
-45.35659299999997
 31
0.0
  0
LINE
  5
AB2D
330
1F
100
AcDbEntity
  8
0
100
AcDbLine
 10
0.0000000000002558
 20
-49.66533
 30
0.0
 11
-0.0081999999997606
 21
-48.24817699999992
 31
0.0
  0
LINE
  5
AB2E
330
1F
100
AcDbEntity
  8
0
100
AcDbLine
 10
0.0000000000002558
 20
-49.66533
 30
0.0
 11
-0.3718219999998098
 21
-49.99999999999998
 31
0.0
  0
LINE
  5
AB2F
330
1F
100
AcDbEntity
  8
AM_11
100
AcDbLine
 10
0.0000000000002558
 20
-49.99999999999996
 30
0.0
 11
-0.3718219999998098
 21
-49.99999999999998
 31
0.0
  0
LINE
  5
AB30
330
1F
100
AcDbEntity
  8
0
100
AcDbLine
 10
-18.87028999999981
 20
-49.9458940000001
 30
0.0
 11
-0.3718219999998098
 21
-49.99999999999998
 31
0.0
  0
LINE
  5
AB31
330
1F
100
AcDbEntity
  8
0
100
AcDbLine
 10
-18.87028999999981
 20
-49.9458940000001
 30
0.0
 11
-20.09495699999976
 21
-49.24445800000017
 31
0.0
  0
LINE
  5
AB32
330
1F
100
AcDbEntity
  8
0
100
AcDbLine
 10
-20.09495699999976
 20
-49.24445800000017
 30
0.0
 11
-20.19729099999972
 21
-48.75334100000014
 31
0.0
  0
LINE
  5
AB33
330
1F
100
AcDbEntity
  8
0
100
AcDbLine
 10
-19.91014499999982
 20
-48.25659300000012
 30
0.0
 11
-20.19729099999972
 21
-48.75334100000014
 31
0.0
  0
LINE
  5
AB34
330
1F
100
AcDbEntity
  8
0
100
AcDbLine
 10
-21.87544499999981
 20
-45.35659300000015
 30
0.0
 11
-21.36689799999976
 21
-48.25659300000013
 31
0.0
  0
LINE
  5
AB35
330
1F
100
AcDbEntity
  8
0
100
AcDbLine
 10
-19.91014499999982
 20
-48.25659300000012
 30
0.0
 11
-21.36689799999976
 21
-48.25659300000013
 31
0.0
  0
LINE
  5
AB36
330
1F
100
AcDbEntity
  8
0
100
AcDbLine
 10
-21.36689799999976
 20
-48.25659300000013
 30
0.0
 11
-26.54091199999971
 21
-48.25659300000017
 31
0.0
  0
ELLIPSE
  5
AB37
330
1F
100
AcDbEntity
  8
0
100
AcDbEllipse
 10
-24.71412599999976
 20
-44.51749300000015
 30
0.0
 11
2.725014042142012
 21
-1.215857633034974
 31
0.0
210
0.0
220
0.0
230
-1.0
 40
0.7197076099235999
 41
-0.451819871910055
 42
-0.182791786754033
  0
ELLIPSE
  5
AB38
330
1F
100
AcDbEntity
  8
0
100
AcDbEllipse
 10
-24.71412599999976
 20
-44.51749300000015
 30
0.0
 11
2.725014042142012
 21
-1.215857633034974
 31
0.0
210
0.0
220
0.0
230
-1.0
 40
0.7197076099235999
 41
2.689771956990409
 42
5.831365047675119
  0
ELLIPSE
  5
AB39
330
1F
100
AcDbEntity
  8
0
100
AcDbEllipse
 10
-24.71412599999976
 20
-44.51749300000015
 30
0.0
 11
2.725014042142012
 21
-1.215857633034974
 31
0.0
210
0.0
220
0.0
230
-1.0
 40
0.7197076099235999
 41
2.214463915846009
 42
2.689771956990409
  0
LINE
  5
AB3A
330
1F
100
AcDbEntity
  8
0
100
AcDbLine
 10
-26.54091199999971
 20
-48.25659300000017
 30
0.0
 11
-27.04945899999987
 21
-45.35659300000021
 31
0.0
  0
LINE
  5
AB3B
330
1F
100
AcDbEntity
  8
0
100
AcDbLine
 10
-18.23379599999978
 20
-45.35659300000012
 30
0.0
 11
-21.87544499999981
 21
-45.35659300000015
 31
0.0
  0
LINE
  5
AB3C
330
1F
100
AcDbEntity
  8
0
100
AcDbLine
 10
-26.54091199999971
 20
-48.25659300000017
 30
0.0
 11
-28.8303639999998
 21
-48.2565930000002
 31
0.0
  0
LINE
  5
AB3E
330
1F
100
AcDbEntity
  8
AM_0
100
AcDbLine
 10
-19.93523648788149
 20
48.30000000000001
 30
0.0
 11
-26.70000000000021
 21
48.30000000000001
 31
0.0
  0
LINE
  5
AB3F
330
1F
100
AcDbEntity
  8
AM_0
100
AcDbLine
 10
-26.86199712940464
 20
48.25659299999994
 30
0.0
 11
-26.70000000000021
 21
48.30000000000001
 31
0.0
  0
LINE
  5
AB40
330
1F
100
AcDbEntity
  8
AM_0
100
AcDbLine
 10
-39.10000000000019
 20
40.25659299999994
 30
0.0
 11
-39.10000000000019
 21
39.99999999999998
 31
0.0
  0
LINE
  5
AB41
330
1F
100
AcDbEntity
  8
AM_0
100
AcDbLine
 10
-39.60000000000019
 20
37.99999999999995
 30
0.0
 11
-36.26490100000023
 21
37.99999999999995
 31
0.0
  0
LINE
  5
AB42
330
1F
100
AcDbEntity
  8
AM_0
100
AcDbLine
 10
-39.60000000000019
 20
44.99999999999998
 30
0.0
 11
-39.39029300000027
 21
44.79029300000005
 31
0.0
  0
LINE
  5
AB43
330
1F
100
AcDbEntity
  8
AM_0
100
AcDbLine
 10
-39.10000000000019
 20
-39.99999999999996
 30
0.0
 11
-39.10000000000019
 21
-40.25659300000029
 31
0.0
  0
LINE
  5
AB44
330
1F
100
AcDbEntity
  8
AM_0
100
AcDbLine
 10
-39.60000000000019
 20
-44.99999999999996
 30
0.0
 11
-39.39029299999984
 21
-44.79029299999962
 31
0.0
  0
LINE
  5
AB45
330
1F
100
AcDbEntity
  8
AM_3
100
AcDbLine
 10
-36.26490099999986
 20
-37.99999999999996
 30
0.0
 11
-33.10000000000019
 21
-37.99999999999996
 31
0.0
  0
LINE
  5
AB46
330
1F
100
AcDbEntity
  8
AM_0
100
AcDbLine
 10
-26.86199712940373
 20
-48.25659300000018
 30
0.0
 11
-26.70000000000021
 21
-48.3
 31
0.0
  0
LINE
  5
AB47
330
1F
100
AcDbEntity
  8
AM_0
100
AcDbLine
 10
-19.93523648788093
 20
-48.30000000000001
 30
0.0
 11
-26.70000000000015
 21
-48.30000000000001
 31
0.0
  0
DIMENSION
  5
AC82
330
1F
100
AcDbEntity
  8
AM_5
100
AcDbDimension
  2
*D13
 10
-0.3718219999998098
 20
-49.99999999999998
 30
0.0
 11
21.92989206145438
 21
-71.92989206145324
 31
0.0
 70
    34
  1
<>
  3
AM_JIS$2
100
AcDb2LineAngularDimension
 13
-0.0000000000002274
 23
50.0
 33
0.0
 14
0.0000000000002558
 24
-49.99999999999996
 34
0.0
 15
0.0000000000002558
 25
-49.99999999999996
 35
0.0
 16
17.05677538734363
 26
-79.54320158416802
 36
0.0
1001
ACAD
1000
DSTYLE
1002
{
1070
   179
1070
     3
1002
}
1001
GENIUS_GENDTOL_13
1000

1000
h7
1000

1040
0.0
  0
LINE
  5
AD81
330
1F
100
AcDbEntity
  8
AM_3
100
AcDbLine
 10
-33.1000000000003
 20
-46.08512516844085
 30
0.0
 11
-32.61703708685578
 21
-46.71453469099211
 31
0.0
1001
GENIUS_GENFIL_13
1070
     0
1040
0.5
1040
0.5
1040
20.0
1040
0.0
1002
{
1002
}
1001
GENIUS_GENODEF_13
1002
{
1000
HIER
1070
     0
1002
}
1002
{
1000
MANEDIT
1070
     0
1002
}
1002
{
1000
NOSEL
1070
     0
1002
}
1002
{
1000
BEHIND
1070
     0
1002
}
1002
{
1000
REACTOR
1002
}
1001
GENIUS_GENOBJ-N-CHA_13
1002
{
1000
OWNER
1000
GEN
1002
}
  0
LINE
  5
AD89
330
1F
100
AcDbEntity
  8
AM_3
100
AcDbLine
 10
-33.10000000000031
 20
46.08512516844089
 30
0.0
 11
-32.61703708685578
 21
46.71453469099215
 31
0.0
1001
GENIUS_GENFIL_13
1070
     0
1040
0.5
1040
0.5
1040
20.0
1040
0.0
1002
{
1002
}
1001
GENIUS_GENODEF_13
1002
{
1000
HIER
1070
     0
1002
}
1002
{
1000
MANEDIT
1070
     0
1002
}
1002
{
1000
NOSEL
1070
     0
1002
}
1002
{
1000
BEHIND
1070
     0
1002
}
1002
{
1000
REACTOR
1002
}
1001
GENIUS_GENOBJ-N-CHA_13
1002
{
1000
OWNER
1000
GEN
1002
}
  0
LINE
  5
AD93
330
1F
100
AcDbEntity
  8
AM_0
100
AcDbLine
 10
-51.31242126661309
 20
38.9823619097952
 30
0.0
 11
-50.09719767662083
 21
43.5176380902048
 31
0.0
  0
ARC
  5
AD99
330
1F
100
AcDbEntity
  8
AM_0
100
AcDbCircle
 10
-48.16534602404264
 20
43.0
 30
0.0
 40
2.0
100
AcDbArc
 50
89.99999999999982
 51
165.0000000000072
1001
GENIUS_GENODEF_13
1002
{
1000
HIER
1070
     0
1002
}
1002
{
1000
MANEDIT
1070
     0
1002
}
1002
{
1000
NOSEL
1070
     0
1002
}
1002
{
1000
BEHIND
1070
     0
1002
}
1002
{
1000
REACTOR
1002
}
1001
GENIUS_GENOBJ-N-FIL_13
1002
{
1000
OWNER
1000
GEN
1002
}
  0
ARC
  5
AD9C
330
1F
100
AcDbEntity
  8
AM_0
100
AcDbCircle
 10
-53.24427291919128
 20
39.5
 30
0.0
 40
2.0
100
AcDbArc
 50
270.0
 51
345.0000000000073
1001
GENIUS_GENODEF_13
1002
{
1000
HIER
1070
     0
1002
}
1002
{
1000
MANEDIT
1070
     0
1002
}
1002
{
1000
NOSEL
1070
     0
1002
}
1002
{
1000
BEHIND
1070
     0
1002
}
1002
{
1000
REACTOR
1002
}
1001
GENIUS_GENOBJ-N-FIL_13
1002
{
1000
OWNER
1000
GEN
1002
}
  0
LINE
  5
ADA0
330
1F
100
AcDbEntity
  8
AM_0
100
AcDbLine
 10
-60.00000000000022
 20
36.0
 30
0.0
 11
-58.50000000000022
 21
37.5
 31
0.0
1001
GENIUS_GENFIL_13
1070
     0
1040
1.5
1040
1.5
1040
20.0
1040
0.0
1002
{
1002
}
1001
GENIUS_GENODEF_13
1002
{
1000
HIER
1070
     0
1002
}
1002
{
1000
MANEDIT
1070
     0
1002
}
1002
{
1000
NOSEL
1070
     0
1002
}
1002
{
1000
BEHIND
1070
     0
1002
}
1002
{
1000
REACTOR
1002
}
1001
GENIUS_GENOBJ-N-CHA_13
1002
{
1000
OWNER
1000
GEN
1002
}
  0
LINE
  5
ADB3
330
1F
100
AcDbEntity
  8
AM_0
100
AcDbLine
 10
-60.00000000000018
 20
17.575
 30
0.0
 11
-58.30000000000017
 21
15.875
 31
0.0
1001
GENIUS_GENFIL_13
1070
     0
1040
1.7
1040
1.7
1040
20.0
1040
0.0
1002
{
1002
}
1001
GENIUS_GENODEF_13
1002
{
1000
HIER
1070
     0
1002
}
1002
{
1000
MANEDIT
1070
     0
1002
}
1002
{
1000
NOSEL
1070
     0
1002
}
1002
{
1000
BEHIND
1070
     0
1002
}
1002
{
1000
REACTOR
1002
}
1001
GENIUS_GENOBJ-N-CHA_13
1002
{
1000
OWNER
1000
GEN
1002
}
  0
LINE
  5
ADB6
330
1F
100
AcDbEntity
  8
AM_0
100
AcDbLine
 10
-58.30000000000018
 20
-15.87499999999998
 30
0.0
 11
-60.00000000000018
 21
-17.57499999999998
 31
0.0
1001
GENIUS_GENFIL_13
1070
     0
1040
1.7
1040
1.7
1040
20.0
1040
0.0
1002
{
1002
}
1001
GENIUS_GENODEF_13
1002
{
1000
HIER
1070
     0
1002
}
1002
{
1000
MANEDIT
1070
     0
1002
}
1002
{
1000
NOSEL
1070
     0
1002
}
1002
{
1000
BEHIND
1070
     0
1002
}
1002
{
1000
REACTOR
1002
}
1001
GENIUS_GENOBJ-N-CHA_13
1002
{
1000
OWNER
1000
GEN
1002
}
  0
LINE
  5
ADBD
330
1F
100
AcDbEntity
  8
AM_0
100
AcDbLine
 10
-60.00000000000015
 20
7.549999999999967
 30
0.0
 11
-58.80000000000014
 21
6.349999999999973
 31
0.0
1001
GENIUS_GENFIL_13
1070
     0
1040
1.199999999999999
1040
1.199999999999999
1040
20.0
1040
0.0
1002
{
1002
}
1001
GENIUS_GENODEF_13
1002
{
1000
HIER
1070
     0
1002
}
1002
{
1000
MANEDIT
1070
     0
1002
}
1002
{
1000
NOSEL
1070
     0
1002
}
1002
{
1000
BEHIND
1070
     0
1002
}
1002
{
1000
REACTOR
1002
}
1001
GENIUS_GENOBJ-N-CHA_13
1002
{
1000
OWNER
1000
GEN
1002
}
  0
LINE
  5
ADC0
330
1F
100
AcDbEntity
  8
AM_0
100
AcDbLine
 10
-58.80000000000015
 20
-6.349999999999958
 30
0.0
 11
-60.00000000000015
 21
-7.549999999999952
 31
0.0
1001
GENIUS_GENFIL_13
1070
     0
1040
1.199999999999999
1040
1.199999999999999
1040
20.0
1040
0.0
1002
{
1002
}
1001
GENIUS_GENODEF_13
1002
{
1000
HIER
1070
     0
1002
}
1002
{
1000
MANEDIT
1070
     0
1002
}
1002
{
1000
NOSEL
1070
     0
1002
}
1002
{
1000
BEHIND
1070
     0
1002
}
1002
{
1000
REACTOR
1002
}
1001
GENIUS_GENOBJ-N-CHA_13
1002
{
1000
OWNER
1000
GEN
1002
}
  0
ARC
  5
ADC4
330
1F
100
AcDbEntity
  8
AM_0
100
AcDbCircle
 10
-53.00000000000022
 20
5.350000000000002
 30
0.0
 40
1.0
100
AcDbArc
 50
0.0
 51
90.0000000000003
1001
GENIUS_GENODEF_13
1002
{
1000
HIER
1070
     0
1002
}
1002
{
1000
MANEDIT
1070
     0
1002
}
1002
{
1000
NOSEL
1070
     0
1002
}
1002
{
1000
BEHIND
1070
     0
1002
}
1002
{
1000
REACTOR
1002
}
1001
GENIUS_GENOBJ-N-FIL_13
1002
{
1000
OWNER
1000
GEN
1002
}
  0
ARC
  5
ADC6
330
1F
100
AcDbEntity
  8
AM_0
100
AcDbCircle
 10
-53.00000000000022
 20
-5.349999999999987
 30
0.0
 40
1.0
100
AcDbArc
 50
269.9999999999997
 51
0.0
1001
GENIUS_GENODEF_13
1002
{
1000
HIER
1070
     0
1002
}
1002
{
1000
MANEDIT
1070
     0
1002
}
1002
{
1000
NOSEL
1070
     0
1002
}
1002
{
1000
BEHIND
1070
     0
1002
}
1002
{
1000
REACTOR
1002
}
1001
GENIUS_GENOBJ-N-FIL_13
1002
{
1000
OWNER
1000
GEN
1002
}
  0
LINE
  5
ADC9
330
1F
100
AcDbEntity
  8
AM_0
100
AcDbLine
 10
-60.00000000000023
 20
-35.99999999999998
 30
0.0
 11
-58.50000000000022
 21
-37.49999999999998
 31
0.0
1001
GENIUS_GENFIL_13
1070
     0
1040
1.5
1040
1.5
1040
20.0
1040
0.0
1002
{
1002
}
1001
GENIUS_GENODEF_13
1002
{
1000
HIER
1070
     0
1002
}
1002
{
1000
MANEDIT
1070
     0
1002
}
1002
{
1000
NOSEL
1070
     0
1002
}
1002
{
1000
BEHIND
1070
     0
1002
}
1002
{
1000
REACTOR
1002
}
1001
GENIUS_GENOBJ-N-CHA_13
1002
{
1000
OWNER
1000
GEN
1002
}
  0
ARC
  5
ADCA
330
1F
100
AcDbEntity
  8
AM_0
100
AcDbCircle
 10
-53.24427291919129
 20
-39.49999999999999
 30
0.0
 40
2.0
100
AcDbArc
 50
14.9999999999927
 51
90.0
1001
GENIUS_GENODEF_13
1002
{
1000
HIER
1070
     0
1002
}
1002
{
1000
MANEDIT
1070
     0
1002
}
1002
{
1000
NOSEL
1070
     0
1002
}
1002
{
1000
BEHIND
1070
     0
1002
}
1002
{
1000
REACTOR
1002
}
1001
GENIUS_GENOBJ-N-FIL_13
1002
{
1000
OWNER
1000
GEN
1002
}
  0
ARC
  5
ADCB
330
1F
100
AcDbEntity
  8
AM_0
100
AcDbCircle
 10
-48.16534602404264
 20
-43.0
 30
0.0
 40
2.0
100
AcDbArc
 50
194.9999999999927
 51
270.0000000000002
1001
GENIUS_GENODEF_13
1002
{
1000
HIER
1070
     0
1002
}
1002
{
1000
MANEDIT
1070
     0
1002
}
1002
{
1000
NOSEL
1070
     0
1002
}
1002
{
1000
BEHIND
1070
     0
1002
}
1002
{
1000
REACTOR
1002
}
1001
GENIUS_GENOBJ-N-FIL_13
1002
{
1000
OWNER
1000
GEN
1002
}
  0
ARC
  5
ADD1
330
1F
100
AcDbEntity
  8
AM_3
100
AcDbCircle
 10
-2.700000000000216
 20
-47.30000000000003
 30
0.0
 40
1.0
100
AcDbArc
 50
269.9999999999998
 51
0.0000000000003562
1001
GENIUS_GENODEF_13
1002
{
1000
HIER
1070
     0
1002
}
1002
{
1000
MANEDIT
1070
     0
1002
}
1002
{
1000
NOSEL
1070
     0
1002
}
1002
{
1000
BEHIND
1070
     0
1002
}
1002
{
1000
REACTOR
1002
}
1001
GENIUS_GENOBJ-N-FIL_13
1002
{
1000
OWNER
1000
GEN
1002
}
  0
ARC
  5
ADD3
330
1F
100
AcDbEntity
  8
AM_3
100
AcDbCircle
 10
-2.700000000000216
 20
47.30000000000004
 30
0.0
 40
1.0
100
AcDbArc
 50
359.9999999999996
 51
90.0000000000001
1001
GENIUS_GENODEF_13
1002
{
1000
HIER
1070
     0
1002
}
1002
{
1000
MANEDIT
1070
     0
1002
}
1002
{
1000
NOSEL
1070
     0
1002
}
1002
{
1000
BEHIND
1070
     0
1002
}
1002
{
1000
REACTOR
1002
}
1001
GENIUS_GENOBJ-N-FIL_13
1002
{
1000
OWNER
1000
GEN
1002
}
  0
VIEWPORT
  5
110
330
101
100
AcDbEntity
 67
     1
  8
0
100
AcDbViewport
 10
420.5
 20
297.0
 30
0.0
 40
948.9782706766916
 41
628.452
 68
     1
 69
     1
1001
ACAD
1000
MVIEW
1002
{
1070
    16
1010
0.0
1020
0.0
1030
0.0
1010
0.0
1020
0.0
1030
1.0
1040
0.0
1040
628.452
1040
420.5
1040
297.0
1040
50.0
1040
0.0
1040
0.0
1070
     0
1070
   100
1070
     1
1070
     1
1070
     0
1070
     0
1070
     0
1070
     0
1040
0.0
1040
0.0
1040
0.0
1040
10.0
1040
10.0
1040
10.0
1040
10.0
1070
     0
1002
{
1002
}
1002
}
  0
ENDSEC
  0
SECTION
  2
OBJECTS
  0
DICTIONARY
  5
C
330
0
100
AcDbDictionary
  3
ACAD_GROUP
350
D
  3
ACAD_LAYOUT
350
1A
  3
ACAD_MLINESTYLE
350
17
  3
ACAD_PLOTSETTINGS
350
19
  3
ACAD_PLOTSTYLENAME
350
E
  3
ACDBVARIABLEDICTIONARY
350
34
  3
ACMDICTIONARY
350
43
  3
AMG
350
2B
  3
AMGSNAPSETTINGS
350
6E
  3
DWGPROPS
350
AE03
  3
ACDBHEADERROUNDTRIPXREC
350
AE10
  0
DICTIONARY
  5
74
330
1F
100
AcDbDictionary
280
     1
  3
ACAD_INDEX
360
AE05
  3
ACAD_LAYOUTSELFREF
360
AE33
  0
DICTIONARY
  5
AE38
330
101
100
AcDbDictionary
280
     1
  3
ACAD_LAYOUTSELFREF
360
AE39
  0
DICTIONARY
  5
D
102
{ACAD_REACTORS
330
C
102
}
330
C
100
AcDbDictionary
  0
DICTIONARY
  5
1A
102
{ACAD_REACTORS
330
C
102
}
330
C
100
AcDbDictionary
  0
DICTIONARY
  5
17
102
{ACAD_REACTORS
330
C
102
}
330
C
100
AcDbDictionary
  3
STANDARD
350
18
  0
DICTIONARY
  5
19
102
{ACAD_REACTORS
330
C
102
}
330
C
100
AcDbDictionary
  0
ACDBDICTIONARYWDFLT
  5
E
102
{ACAD_REACTORS
330
C
102
}
330
C
100
AcDbDictionary
281
     1
  3
Normal
350
F
100
AcDbDictionaryWithDefault
340
F
  0
DICTIONARY
  5
34
102
{ACAD_REACTORS
330
C
102
}
330
C
100
AcDbDictionary
  3
INDEXCTL
350
35
  3
SORTENTS
350
B5E
  0
DICTIONARY
  5
43
102
{ACAD_REACTORS
330
C
102
}
330
C
100
AcDbDictionary
  3
ACMSTDDICTIONARY
350
260
  0
DICTIONARY
  5
2B
102
{ACAD_REACTORS
330
C
102
}
330
C
100
AcDbDictionary
  3
ACMGSETTINGS
350
2C
  0
DICTIONARY
  5
6E
102
{ACAD_REACTORS
330
C
102
}
330
C
100
AcDbDictionary
  0
XRECORD
  5
AE03
102
{ACAD_REACTORS
330
C
102
}
330
C
100
AcDbXrecord
  1
DWGPROPS COOKIE
  2

  3

  4

  6

  7

  8

  9

300
AmdtFileType=82
301
=
302
=
303
=
304
=
305
=
306
=
307
=
308
=
309
=
 40
0.1846914699074074
 41
2452836.771637361
 42
2452908.412911863
  1

 90
        1
  0
DICTIONARY
  5
AE10
102
{ACAD_REACTORS
330
C
102
}
330
C
100
AcDbDictionary
  3
TSTACKALIGN
350
AE11
  3
TSTACKSIZE
350
AE12
  3
HYPERLINKBASE
350
AE13
  3
STYLESHEET
350
AE14
  3
LAYOUTDICT
350
AE15
  3
PLOTSETDICT
350
AE16
  3
PLOTSTYLNAMDICT
350
AE17
  3
LWETCUNION
350
AE18
  3
INSUNITS
350
AE19
  3
CEPSNTYPE
350
AE1A
  3
FINGERPRINTGUID
350
AE1B
  3
VERSIONGUID
350
AE1C
  3
PSVPSCALE
350
AE1D
  3
DIMSTYLEDATA
350
AE1E
  3
PUCSORTHOREF
350
AE1F
  3
PUCSORTHOVIEW
350
AE20
  3
PUCSBASE
350
AE21
  3
PUCSORGTOP
350
AE22
  3
PUCSORGBOTTOM
350
AE23
  3
PUCSORGLEFT
350
AE24
  3
PUCSORGRIGHT
350
AE25
  3
PUCSORGFRONT
350
AE26
  3
PUCSORGBACK
350
AE27
  3
UCSORTHOREF
350
AE28
  3
UCSORTHOVIEW
350
AE29
  3
UCSBASE
350
AE2A
  3
UCSORGTOP
350
AE2B
  3
UCSORGBOTTOM
350
AE2C
  3
UCSORGLEFT
350
AE2D
  3
UCSORGRIGHT
350
AE2E
  3
UCSORGFRONT
350
AE2F
  3
UCSORGBACK
350
AE30
  0
DICTIONARY
  5
AE05
102
{ACAD_REACTORS
330
74
102
}
330
74
100
AcDbDictionary
  3
*A1
350
AE06
  0
XRECORD
  5
AE33
102
{ACAD_REACTORS
330
74
102
}
330
74
100
AcDbXrecord
340
1F
  0
XRECORD
  5
AE39
102
{ACAD_REACTORS
330
AE38
102
}
330
AE38
100
AcDbXrecord
340
101
  0
MLINESTYLE
  5
18
102
{ACAD_REACTORS
330
17
102
}
330
17
100
AcDbMlineStyle
  2
STANDARD
 70
     0
  3

 62
   256
 51
90.0
 52
90.0
 71
     2
 49
0.5
 62
   256
  6
BYLAYER
 49
-0.5
 62
   256
  6
BYLAYER
  0
ACDBPLACEHOLDER
  5
F
102
{ACAD_REACTORS
330
E
102
}
330
E
100
AcDbPlaceHolder
280
     0
  0
DICTIONARYVAR
  5
35
102
{ACAD_REACTORS
330
34
102
}
330
34
100
DictionaryVariables
280
     0
  1
1
  0
DICTIONARYVAR
  5
B5E
102
{ACAD_REACTORS
330
34
102
}
330
34
100
DictionaryVariables
280
     0
  1
96
  0
DICTIONARY
  5
260
102
{ACAD_REACTORS
330
43
102
}
330
43
100
AcDbDictionary
  0
DICTIONARY
  5
2C
102
{ACAD_REACTORS
330
2B
102
}
330
2B
100
AcDbDictionary
  3
DWGSETTINGS
350
2D
  0
XRECORD
  5
AE11
102
{ACAD_REACTORS
330
AE10
102
}
330
AE10
100
AcDbXrecord
 90
        1
  0
XRECORD
  5
AE12
102
{ACAD_REACTORS
330
AE10
102
}
330
AE10
100
AcDbXrecord
 90
       70
  0
XRECORD
  5
AE13
102
{ACAD_REACTORS
330
AE10
102
}
330
AE10
100
AcDbXrecord
  1

  0
XRECORD
  5
AE14
102
{ACAD_REACTORS
330
AE10
102
}
330
AE10
100
AcDbXrecord
  1
ASAMI.ctb
  0
XRECORD
  5
AE15
102
{ACAD_REACTORS
330
AE10
102
}
330
AE10
100
AcDbXrecord
340
1A
  0
XRECORD
  5
AE16
102
{ACAD_REACTORS
330
AE10
102
}
330
AE10
100
AcDbXrecord
340
19
  0
XRECORD
  5
AE17
102
{ACAD_REACTORS
330
AE10
102
}
330
AE10
100
AcDbXrecord
340
E
  0
XRECORD
  5
AE18
102
{ACAD_REACTORS
330
AE10
102
}
330
AE10
100
AcDbXrecord
 90
    10781
  0
XRECORD
  5
AE19
102
{ACAD_REACTORS
330
AE10
102
}
330
AE10
100
AcDbXrecord
 90
        4
  0
XRECORD
  5
AE1A
102
{ACAD_REACTORS
330
AE10
102
}
330
AE10
100
AcDbXrecord
 90
        0
  0
XRECORD
  5
AE1B
102
{ACAD_REACTORS
330
AE10
102
}
330
AE10
100
AcDbXrecord
  1
{AFB28963-8C59-40AE-9337-C84526B81ACE}
  0
XRECORD
  5
AE1C
102
{ACAD_REACTORS
330
AE10
102
}
330
AE10
100
AcDbXrecord
  1
{B9BB74DE-5750-4C71-8930-A1A6BAC25B70}
  0
XRECORD
  5
AE1D
102
{ACAD_REACTORS
330
AE10
102
}
330
AE10
100
AcDbXrecord
 40
0.0
  0
XRECORD
  5
AE1E
102
{ACAD_REACTORS
330
AE10
102
}
330
AE10
100
AcDbXrecord
1000
DSTYLE
1002
{
1070
    79
 70
     2
1070
   341
340
59
1070
   342
340
59
1070
   371
 70
    -1
1070
   372
 70
    -1
1002
}
  0
XRECORD
  5
AE1F
102
{ACAD_REACTORS
330
AE10
102
}
330
AE10
100
AcDbXrecord
340
0
  0
XRECORD
  5
AE20
102
{ACAD_REACTORS
330
AE10
102
}
330
AE10
100
AcDbXrecord
 70
     0
  0
XRECORD
  5
AE21
102
{ACAD_REACTORS
330
AE10
102
}
330
AE10
100
AcDbXrecord
340
0
  0
XRECORD
  5
AE22
102
{ACAD_REACTORS
330
AE10
102
}
330
AE10
100
AcDbXrecord
 10
0.0
 20
0.0
 30
0.0
  0
XRECORD
  5
AE23
102
{ACAD_REACTORS
330
AE10
102
}
330
AE10
100
AcDbXrecord
 10
0.0
 20
0.0
 30
0.0
  0
XRECORD
  5
AE24
102
{ACAD_REACTORS
330
AE10
102
}
330
AE10
100
AcDbXrecord
 10
0.0
 20
0.0
 30
0.0
  0
XRECORD
  5
AE25
102
{ACAD_REACTORS
330
AE10
102
}
330
AE10
100
AcDbXrecord
 10
0.0
 20
0.0
 30
0.0
  0
XRECORD
  5
AE26
102
{ACAD_REACTORS
330
AE10
102
}
330
AE10
100
AcDbXrecord
 10
0.0
 20
0.0
 30
0.0
  0
XRECORD
  5
AE27
102
{ACAD_REACTORS
330
AE10
102
}
330
AE10
100
AcDbXrecord
 10
0.0
 20
0.0
 30
0.0
  0
XRECORD
  5
AE28
102
{ACAD_REACTORS
330
AE10
102
}
330
AE10
100
AcDbXrecord
340
0
  0
XRECORD
  5
AE29
102
{ACAD_REACTORS
330
AE10
102
}
330
AE10
100
AcDbXrecord
 70
     0
  0
XRECORD
  5
AE2A
102
{ACAD_REACTORS
330
AE10
102
}
330
AE10
100
AcDbXrecord
340
0
  0
XRECORD
  5
AE2B
102
{ACAD_REACTORS
330
AE10
102
}
330
AE10
100
AcDbXrecord
 10
0.0
 20
0.0
 30
0.0
  0
XRECORD
  5
AE2C
102
{ACAD_REACTORS
330
AE10
102
}
330
AE10
100
AcDbXrecord
 10
0.0
 20
0.0
 30
0.0
  0
XRECORD
  5
AE2D
102
{ACAD_REACTORS
330
AE10
102
}
330
AE10
100
AcDbXrecord
 10
0.0
 20
0.0
 30
0.0
  0
XRECORD
  5
AE2E
102
{ACAD_REACTORS
330
AE10
102
}
330
AE10
100
AcDbXrecord
 10
0.0
 20
0.0
 30
0.0
  0
XRECORD
  5
AE2F
102
{ACAD_REACTORS
330
AE10
102
}
330
AE10
100
AcDbXrecord
 10
0.0
 20
0.0
 30
0.0
  0
XRECORD
  5
AE30
102
{ACAD_REACTORS
330
AE10
102
}
330
AE10
100
AcDbXrecord
 10
0.0
 20
0.0
 30
0.0
  0
LAYER_INDEX
  5
AE06
102
{ACAD_REACTORS
330
AE05
102
}
330
AE05
100
AcDbIndex
 40
2453152.370662476
100
AcDbLayerIndex
  8
0
360
AE07
 90
       70
  8
AM_0
360
AE08
 90
       66
  8
AM_7
360
AE09
 90
        1
  8
AM_5
360
AE0A
 90
        9
  8
Defpoints
360
AE0B
 90
        0
  8
AM_6
360
AE0C
 90
        1
  8
AM_11
360
AE0D
 90
        7
  8
AM_3
360
AE0E
 90
       18
  0
XRECORD
  5
2D
102
{ACAD_REACTORS
330
2C
102
}
330
2C
100
AcDbXrecord
  1
VERSION
140
15.0
  1
PRODUCT
  2
AutoCAD Mechanical 2000
  0
IDBUFFER
  5
AE07
330
0
100
AcDbIdBuffer
330
AB26
330
AB27
330
AB28
330
AB29
330
AB2A
330
AB2B
330
AB2C
330
AB2D
330
AB2E
330
AB30
330
AB31
330
AB32
330
AB33
330
AB34
330
AB35
330
AB36
330
AB37
330
AB38
330
AB39
330
AB3A
330
AB3B
330
AB3C
330
AAE8
330
AAEA
330
AAEC
330
AAED
330
AAEE
330
AAEF
330
AAF0
330
AAF1
330
AAF2
330
AAF3
330
AAF4
330
AAF5
330
AAF6
330
AAF7
330
AAF8
330
AAF9
330
AAFA
330
AAFB
330
AAFC
330
AAFD
330
AAFE
330
AAFF
330
AB00
330
AB01
330
AB02
330
AB03
330
AB04
330
AB05
330
AB06
330
AB07
330
AB08
330
AB09
330
AB0A
330
AB0B
330
AB18
330
AB19
330
AB1A
330
AB1B
330
AB1C
330
AB1D
330
AB1E
330
AB1F
330
AB20
330
AB21
330
AB22
330
AB23
330
AB24
330
AB25
  0
IDBUFFER
  5
AE08
330
0
100
AcDbIdBuffer
330
AB42
330
AB43
330
AB44
330
AB46
330
AB47
330
AD93
330
AD99
330
AD9C
330
ADA0
330
ADB3
330
ADB6
330
ADBD
330
ADC0
330
ADC4
330
ADC6
330
ADC9
330
ADCA
330
ADCB
330
9BD5
330
9BDB
330
9BDC
330
9BDD
330
9BDE
330
9BDF
330
9BE0
330
9BE1
330
9BE4
330
9BEC
330
9BED
330
9BEE
330
9BEF
330
9BF0
330
9BF4
330
9BF6
330
9BF7
330
9BF8
330
9BF9
330
9BFB
330
9BFD
330
9C00
330
9C01
330
9C02
330
9C03
330
9C05
330
9C06
330
9C07
330
9C08
330
9C0D
330
9C0E
330
9C11
330
9C12
330
9C13
330
9C14
330
9C16
330
9C17
330
9C18
330
9C19
330
9C1A
330
9C1B
330
A936
330
A938
330
AAA7
330
AB3E
330
AB3F
330
AB40
330
AB41
  0
IDBUFFER
  5
AE09
330
0
100
AcDbIdBuffer
330
9BD8
  0
IDBUFFER
  5
AE0A
330
0
100
AcDbIdBuffer
330
A93B
330
A93C
330
A93D
330
A98F
330
A990
330
A991
330
A9D5
330
A9D6
330
AC82
  0
IDBUFFER
  5
AE0B
330
0
100
AcDbIdBuffer
  0
IDBUFFER
  5
AE0C
330
0
100
AcDbIdBuffer
330
E5A
  0
IDBUFFER
  5
AE0D
330
0
100
AcDbIdBuffer
330
9BD6
330
AAA8
330
AAA9
330
AAAA
330
AAE9
330
AAEB
330
AB2F
  0
IDBUFFER
  5
AE0E
330
0
100
AcDbIdBuffer
330
ADD1
330
ADD3
330
9BD4
330
9BD7
330
9BE7
330
9BE8
330
9BE9
330
9BEA
330
9BF1
330
9BF2
330
9C04
330
9C0A
330
9C0B
330
9C0F
330
9C15
330
AB45
330
AD81
330
AD89
  0
ENDSEC
  0
EOF
