  0
SECTION
  2
HEADER
  9
$ACADVER
  1
AC1014
  9
$ACADMAINTVER
 70
     9
  9
$DWGCODEPAGE
  3
ANSI_932
  9
$INSBASE
 10
0.0
 20
0.0
 30
0.0
  9
$EXTMIN
 10
-105.6163455017075
 20
-166.5000010000001
 30
-0.00000001
  9
$EXTMAX
 10
45.05819466606264
 20
100.0
 30
0.00000001
  9
$LIMMIN
 10
-145.0762338965984
 20
-199.7996415316209
  9
$LIMMAX
 10
89.30370319326948
 20
139.2161116562259
  9
$ORTHOMODE
 70
     0
  9
$REGENMODE
 70
     1
  9
$FILLMODE
 70
     1
  9
$QTEXTMODE
 70
     0
  9
$MIRRTEXT
 70
     0
  9
$DRAGMODE
 70
     2
  9
$LTSCALE
 40
1.0
  9
$OSMODE
 70
    55
  9
$ATTMODE
 70
     1
  9
$TEXTSIZE
 40
2.5
  9
$TRACEWID
 40
1.0
  9
$TEXTSTYLE
  7
STANDARD
  9
$CLAYER
  8
AM_0
  9
$CELTYPE
  6
BYLAYER
  9
$CECOLOR
 62
   256
  9
$CELTSCALE
 40
1.0
  9
$DELOBJ
 70
     1
  9
$DISPSILH
 70
     0
  9
$DIMSCALE
 40
1.0
  9
$DIMASZ
 40
2.5
  9
$DIMEXO
 40
1.0
  9
$DIMDLI
 40
12.0
  9
$DIMRND
 40
0.0
  9
$DIMDLE
 40
0.0
  9
$DIMEXE
 40
1.0
  9
$DIMTP
 40
0.1
  9
$DIMTM
 40
0.1
  9
$DIMTXT
 40
3.2
  9
$DIMCEN
 40
0.0
  9
$DIMTSZ
 40
0.0
  9
$DIMTOL
 70
     0
  9
$DIMLIM
 70
     0
  9
$DIMTIH
 70
     0
  9
$DIMTOH
 70
     0
  9
$DIMSE1
 70
     0
  9
$DIMSE2
 70
     0
  9
$DIMTAD
 70
     3
  9
$DIMZIN
 70
     8
  9
$DIMBLK
  1
OPEN30
  9
$DIMASO
 70
     1
  9
$DIMSHO
 70
     1
  9
$DIMPOST
  1

  9
$DIMAPOST
  1
"
  9
$DIMALT
 70
     0
  9
$DIMALTD
 70
     2
  9
$DIMALTF
 40
0.0393701
  9
$DIMLFAC
 40
1.0
  9
$DIMTOFL
 70
     1
  9
$DIMTVP
 40
0.0
  9
$DIMTIX
 70
     0
  9
$DIMSOXD
 70
     0
  9
$DIMSAH
 70
     0
  9
$DIMBLK1
  1

  9
$DIMBLK2
  1

  9
$DIMSTYLE
  2
AM_JIS
  9
$DIMCLRD
 70
   256
  9
$DIMCLRE
 70
   256
  9
$DIMCLRT
 70
     2
  9
$DIMTFAC
 40
0.71
  9
$DIMGAP
 40
1.5
  9
$DIMJUST
 70
     0
  9
$DIMSD1
 70
     0
  9
$DIMSD2
 70
     0
  9
$DIMTOLJ
 70
     0
  9
$DIMTZIN
 70
     0
  9
$DIMALTZ
 70
     0
  9
$DIMALTTZ
 70
     0
  9
$DIMFIT
 70
     3
  9
$DIMUPT
 70
     0
  9
$DIMUNIT
 70
     2
  9
$DIMDEC
 70
     3
  9
$DIMTDEC
 70
     3
  9
$DIMALTU
 70
     2
  9
$DIMALTTD
 70
     2
  9
$DIMTXSTY
  7
ASAMI
  9
$DIMAUNIT
 70
     0
  9
$LUNITS
 70
     2
  9
$LUPREC
 70
     2
  9
$SKETCHINC
 40
1.0
  9
$FILLETRAD
 40
1.0
  9
$AUNITS
 70
     0
  9
$AUPREC
 70
     0
  9
$MENU
  1
.
  9
$ELEVATION
 40
0.0
  9
$PELEVATION
 40
0.0
  9
$THICKNESS
 40
0.0
  9
$LIMCHECK
 70
     0
  9
$BLIPMODE
 70
     0
  9
$CHAMFERA
 40
1.199999999999999
  9
$CHAMFERB
 40
1.199999999999999
  9
$CHAMFERC
 40
20.0
  9
$CHAMFERD
 40
0.0
  9
$SKPOLY
 70
     0
  9
$TDCREATE
 40
2452836.771637361
  9
$TDUPDATE
 40
2453152.370933576
  9
$TDINDWG
 40
0.2012204977
  9
$TDUSRTIMER
 40
0.2012204977
  9
$USRTIMER
 70
     1
  9
$ANGBASE
 50
0.0
  9
$ANGDIR
 70
     0
  9
$PDMODE
 70
     0
  9
$PDSIZE
 40
0.0
  9
$PLINEWID
 40
0.0
  9
$COORDS
 70
     1
  9
$SPLFRAME
 70
     0
  9
$SPLINETYPE
 70
     6
  9
$SPLINESEGS
 70
     8
  9
$ATTDIA
 70
     1
  9
$ATTREQ
 70
     1
  9
$HANDLING
 70
 12289
  9
$HANDSEED
  5
E38D
  9
$SURFTAB1
 70
     6
  9
$SURFTAB2
 70
     6
  9
$SURFTYPE
 70
     6
  9
$SURFU
 70
     6
  9
$SURFV
 70
     6
  9
$UCSNAME
  2

  9
$UCSORG
 10
0.0
 20
0.0
 30
0.0
  9
$UCSXDIR
 10
1.0
 20
0.0
 30
0.0
  9
$UCSYDIR
 10
0.0
 20
1.0
 30
0.0
  9
$PUCSNAME
  2

  9
$PUCSORG
 10
0.0
 20
0.0
 30
0.0
  9
$PUCSXDIR
 10
1.0
 20
0.0
 30
0.0
  9
$PUCSYDIR
 10
0.0
 20
1.0
 30
0.0
  9
$USERI1
 70
     0
  9
$USERI2
 70
     0
  9
$USERI3
 70
     0
  9
$USERI4
 70
     0
  9
$USERI5
 70
     0
  9
$USERR1
 40
0.0
  9
$USERR2
 40
0.0
  9
$USERR3
 40
0.0
  9
$USERR4
 40
0.0
  9
$USERR5
 40
0.0
  9
$WORLDVIEW
 70
     1
  9
$SHADEDGE
 70
     3
  9
$SHADEDIF
 70
    70
  9
$TILEMODE
 70
     1
  9
$MAXACTVP
 70
    64
  9
$PINSBASE
 10
0.0
 20
0.0
 30
0.0
  9
$PLIMCHECK
 70
     0
  9
$PEXTMIN
 10
1.000000000000000E+20
 20
1.000000000000000E+20
 30
1.000000000000000E+20
  9
$PEXTMAX
 10
-1.000000000000000E+20
 20
-1.000000000000000E+20
 30
-1.000000000000000E+20
  9
$PLIMMIN
 10
0.0
 20
0.0
  9
$PLIMMAX
 10
841.0
 20
594.0
  9
$UNITMODE
 70
     0
  9
$VISRETAIN
 70
     1
  9
$PLINEGEN
 70
     0
  9
$PSLTSCALE
 70
     0
  9
$TREEDEPTH
 70
  3020
  9
$PICKSTYLE
 70
     0
  9
$CMLSTYLE
  2
STANDARD
  9
$CMLJUST
 70
     0
  9
$CMLSCALE
 40
20.0
  9
$PROXYGRAPHICS
 70
     1
  9
$MEASUREMENT
 70
     1
  0
ENDSEC
  0
SECTION
  2
CLASSES
  0
CLASS
  1
ACDBDICTIONARYWDFLT
  2
AcDbDictionaryWithDefault
  3
AutoCAD 2000
 90
        0
280
     0
281
     0
  0
CLASS
  1
ACDBPLACEHOLDER
  2
AcDbPlaceHolder
  3
AutoCAD 2000
 90
        0
280
     0
281
     0
  0
CLASS
  1
LAYOUT
  2
AcDbLayout
  3
AutoCAD 2000
 90
        0
280
     0
281
     0
  0
CLASS
  1
AMGSETTINGSOBJ
  2
AmgSettingsObj
  3
"AcadM|Product Description: AutoCAD Mechanical 2000|Company: Autodesk"
 90
        0
280
     0
281
     0
  0
CLASS
  1
ACME_DOCUMENT
  2
AcMeDbDoc
  3
AcMeServices
 90
        0
280
     0
281
     0
  0
CLASS
  1
ACMESCOPE
  2
AcMeScope
  3
AcMeServices
 90
        0
280
     0
281
     0
  0
CLASS
  1
ACMECOMMANDHISTORY
  2
AcMeCommandHistory
  3
AcMeServices
 90
        0
280
     0
281
     0
  0
CLASS
  1
DICTIONARYVAR
  2
AcDbDictionaryVar
  3
AutoCAD 2000
 90
        0
280
     0
281
     0
  0
CLASS
  1
ACIMSYSVARMAN
  2
AcImSysVarManager
  3
AcMeServices
 90
        0
280
     0
281
     0
  0
CLASS
  1
ACIMREALSYSVAR
  2
AcImRealSysVar
  3
AcMeServices
 90
        0
280
     0
281
     0
  0
CLASS
  1
ACIMINTSYSVAR
  2
AcImIntSysVar
  3
AcMeServices
 90
        0
280
     0
281
     0
  0
CLASS
  1
ACMEDRAWINGMAN
  2
AcMeDrawingMan
  3
AcMeServices
 90
        0
280
     0
281
     0
  0
CLASS
  1
ACMEVIEW
  2
AcMeView
  3
AcMeServices
 90
        0
280
     0
281
     0
  0
CLASS
  1
ACDBENTITYCACHE
  2
AcMeEntityCache
  3
AcMeServices
 90
        0
280
     0
281
     0
  0
CLASS
  1
GSMANAGER
  2
AcMeGSManager
  3
AcMeServices
 90
        0
280
     0
281
     0
  0
CLASS
  1
AmdtInternalReactor
  2
AmdtInternalReactor
  3
AcMeServices
 90
        0
280
     0
281
     0
  0
CLASS
  1
ACMESTATEMGR
  2
AcMeStateMgr
  3
AcMeServices
 90
        0
280
     0
281
     0
  0
CLASS
  1
ACME_DATABASE
  2
AcMeDbDatabase
  3
AcMeServices
 90
        0
280
     0
281
     0
  0
CLASS
  1
ACRFINSADJUSTERMGR
  2
AcRfInsAdjusterMgr
  3
AcMeServices
 90
        0
280
     0
281
     0
  0
CLASS
  1
ACMDATADICTIONARY
  2
AcmDataDictionary
  3
"AcmSymBB|Product Description: AutoCAD Mechanical 2000|Company: Autodesk"
 90
        0
280
     0
281
     0
  0
CLASS
  1
ACMDATAENTRYBLOCK
  2
AcmDataEntryBlock
  3
"AcmSymBB|Product Description: AutoCAD Mechanical 2000|Company: Autodesk"
 90
        0
280
     0
281
     0
  0
CLASS
  1
AMGOBJPROPCFG
  2
AmgObjPropCfg
  3
"AmgLay|Product Description: AutoCAD Mechanical 2000|Company: Autodesk"
 90
        1
280
     0
281
     0
  0
CLASS
  1
ACAMGFILTERDAT
  2
AcAmgFilterDat
  3
"AcadM|Product Description: AutoCAD Mechanical 2000|Company: Autodesk"
 90
        0
280
     0
281
     0
  0
CLASS
  1
LAYER_INDEX
  2
AcDbLayerIndex
  3
AutoCAD 2000
 90
        0
280
     0
281
     0
  0
CLASS
  1
IDBUFFER
  2
AcDbIdBuffer
  3
AutoCAD 2000
 90
        0
280
     0
281
     0
  0
CLASS
  1
ACIMSTRSYSVAR
  2
AcImStrSysVar
  3
AcMeServices
 90
        0
280
     0
281
     0
  0
CLASS
  1
ACMSTANDARDJIS
  2
AcmStandardJIS
  3
"AcmSymBB|Product Description: AutoCAD Mechanical 2000|Company: Autodesk"
 90
        0
280
     0
281
     0
  0
CLASS
  1
ACMSURFSTANDARDJIS
  2
AcmSurfTextStdJIS
  3
"AcmSymBB|Product Description: AutoCAD Mechanical 2000|Company: Autodesk"
 90
        0
280
     0
281
     0
  0
CLASS
  1
ACMFCFSTANDARDJIS
  2
AcmFCFStdJIS
  3
"AcmSymBB|Product Description: AutoCAD Mechanical 2000|Company: Autodesk"
 90
        0
280
     0
281
     0
  0
CLASS
  1
ACMWELDSTANDARDJIS
  2
AcmWeldingStdJIS
  3
"AcmSymBB|Product Description: AutoCAD Mechanical 2000|Company: Autodesk"
 90
        0
280
     0
281
     0
  0
CLASS
  1
ACMIDSTANDARDJIS
  2
AcmIdStdJIS
  3
"AcmSymBB|Product Description: AutoCAD Mechanical 2000|Company: Autodesk"
 90
        0
280
     0
281
     0
  0
CLASS
  1
ACMDATUMSTANDARDJIS
  2
AcmDatumStdJIS
  3
"AcmSymBB|Product Description: AutoCAD Mechanical 2000|Company: Autodesk"
 90
        0
280
     0
281
     0
  0
CLASS
  1
ACMBOMSTANDARDJIS
  2
AcmBOMStdJIS
  3
"AcmSymBB|Product Description: AutoCAD Mechanical 2000|Company: Autodesk"
 90
        0
280
     0
281
     0
  0
CLASS
  1
ACMSTANDARDANSI
  2
AcmStandardANSI
  3
"AcmSymBB|Product Description: AutoCAD Mechanical 2000|Company: Autodesk"
 90
        0
280
     0
281
     0
  0
CLASS
  1
ACMSURFSTANDARDANSI
  2
AcmSurfTextStdANSI
  3
"AcmSymBB|Product Description: AutoCAD Mechanical 2000|Company: Autodesk"
 90
        0
280
     0
281
     0
  0
CLASS
  1
ACMFCFSTANDARDANSI
  2
AcmFCFStdANSI
  3
"AcmSymBB|Product Description: AutoCAD Mechanical 2000|Company: Autodesk"
 90
        0
280
     0
281
     0
  0
CLASS
  1
ACMWELDSTANDARDANSI
  2
AcmWeldingStdANSI
  3
"AcmSymBB|Product Description: AutoCAD Mechanical 2000|Company: Autodesk"
 90
        0
280
     0
281
     0
  0
CLASS
  1
ACMIDSTANDARDANSI
  2
AcmIdStdANSI
  3
"AcmSymBB|Product Description: AutoCAD Mechanical 2000|Company: Autodesk"
 90
        0
280
     0
281
     0
  0
CLASS
  1
ACMDATUMSTANDARDANSI
  2
AcmDatumStdANSI
  3
"AcmSymBB|Product Description: AutoCAD Mechanical 2000|Company: Autodesk"
 90
        0
280
     0
281
     0
  0
CLASS
  1
ACMBOMSTANDARDANSI
  2
AcmBOMStdANSI
  3
"AcmSymBB|Product Description: AutoCAD Mechanical 2000|Company: Autodesk"
 90
        0
280
     0
281
     0
  0
CLASS
  1
ACMSTANDARDBSI
  2
AcmStandardBSI
  3
"AcmSymBB|Product Description: AutoCAD Mechanical 2000|Company: Autodesk"
 90
        0
280
     0
281
     0
  0
CLASS
  1
ACMSURFSTANDARDBSI
  2
AcmSurfTextStdBSI
  3
"AcmSymBB|Product Description: AutoCAD Mechanical 2000|Company: Autodesk"
 90
        0
280
     0
281
     0
  0
CLASS
  1
ACMFCFSTANDARDBSI
  2
AcmFCFStdBSI
  3
"AcmSymBB|Product Description: AutoCAD Mechanical 2000|Company: Autodesk"
 90
        0
280
     0
281
     0
  0
CLASS
  1
ACMWELDSTANDARDBSI
  2
AcmWeldingStdBSI
  3
"AcmSymBB|Product Description: AutoCAD Mechanical 2000|Company: Autodesk"
 90
        0
280
     0
281
     0
  0
CLASS
  1
ACMIDSTANDARDBSI
  2
AcmIdStdBSI
  3
"AcmSymBB|Product Description: AutoCAD Mechanical 2000|Company: Autodesk"
 90
        0
280
     0
281
     0
  0
CLASS
  1
ACMDATUMSTANDARDBSI
  2
AcmDatumStdBSI
  3
"AcmSymBB|Product Description: AutoCAD Mechanical 2000|Company: Autodesk"
 90
        0
280
     0
281
     0
  0
CLASS
  1
ACMBOMSTANDARDBSI
  2
AcmBOMStdBSI
  3
"AcmSymBB|Product Description: AutoCAD Mechanical 2000|Company: Autodesk"
 90
        0
280
     0
281
     0
  0
CLASS
  1
LONG_TRANSACTION
  2
AcDbLongTransaction
  3
AutoCAD 2000
 90
        0
280
     0
281
     0
  0
CLASS
  1
LWPOLYLINE
  2
AcDbPolyline
  3
AutoCAD 2000
 90
        0
280
     0
281
     1
  0
CLASS
  1
HATCH
  2
AcDbHatch
  3
AutoCAD 2000
 90
        0
280
     0
281
     1
  0
CLASS
  1
XRECORD
  2
AcDbXrecord
  3
AutoCAD 2000
 90
        0
280
     0
281
     0
  0
ENDSEC
  0
SECTION
  2
TABLES
  0
TABLE
  2
VPORT
  5
8
330
0
100
AcDbSymbolTable
 70
     3
  0
VPORT
  5
E362
330
8
100
AcDbSymbolTableRecord
100
AcDbViewportTableRecord
  2
*ACTIVE
 70
     0
 10
0.0
 20
0.0
 11
1.0
 21
1.0
 12
-26.85806302385504
 22
-33.25328940053157
 13
0.0
 23
0.0
 14
2.5
 24
2.5
 15
10.0
 25
10.0
 16
0.0
 26
0.0
 36
1.0
 17
0.0
 27
0.0
 37
0.0
 40
268.1775016683276
 41
1.56570841889117
 42
50.0
 43
0.0
 44
0.0
 50
0.0
 51
0.0
 71
     0
 72
   100
 73
     1
 74
     3
 75
     0
 76
     0
 77
     0
 78
     0
  0
ENDTAB
  0
TABLE
  2
LTYPE
  5
5
330
0
100
AcDbSymbolTable
 70
    10
  0
LTYPE
  5
14
330
5
100
AcDbSymbolTableRecord
100
AcDbLinetypeTableRecord
  2
BYBLOCK
 70
     0
  3

 72
    65
 73
     0
 40
0.0
  0
LTYPE
  5
15
330
5
100
AcDbSymbolTableRecord
100
AcDbLinetypeTableRecord
  2
BYLAYER
 70
     0
  3

 72
    65
 73
     0
 40
0.0
  0
LTYPE
  5
16
330
5
100
AcDbSymbolTableRecord
100
AcDbLinetypeTableRecord
  2
CONTINUOUS
 70
     0
  3
Solid line
 72
    65
 73
     0
 40
0.0
  0
LTYPE
  5
4B
330
5
100
AcDbSymbolTableRecord
100
AcDbLinetypeTableRecord
  2
AM_ISO02W050
 70
     0
  3
__ __ __ __ __ __ __ __ __ __ __ __ __ __ __
 72
    65
 73
     2
 40
7.5
 49
6.0
 74
     0
 49
-1.5
 74
     0
  0
LTYPE
  5
4C
330
5
100
AcDbSymbolTableRecord
100
AcDbLinetypeTableRecord
  2
AM_ISO08W050
 70
     0
  3
____ . ____ . ____ . ____ . ____ . ____ . ____
 72
    65
 73
     4
 40
18.0
 49
12.0
 74
     0
 49
-1.5
 74
     0
 49
3.0
 74
     0
 49
-1.5
 74
     0
  0
LTYPE
  5
4D
330
5
100
AcDbSymbolTableRecord
100
AcDbLinetypeTableRecord
  2
AM_ISO09W050
 70
     0
  3
_____ . . _____ . . _____ . . ____ .. ____
 72
    65
 73
     6
 40
22.5
 49
12.0
 74
     0
 49
-1.5
 74
     0
 49
3.0
 74
     0
 49
-1.5
 74
     0
 49
3.0
 74
     0
 49
-1.5
 74
     0
  0
LTYPE
  5
4E
330
5
100
AcDbSymbolTableRecord
100
AcDbLinetypeTableRecord
  2
AMCONSTR
 70
     0
  3
_______________________
 72
    65
 73
     2
 40
9999.0
 49
9999.0
 74
     0
 49
0.0
 74
     0
  0
LTYPE
  5
4F
330
5
100
AcDbSymbolTableRecord
100
AcDbLinetypeTableRecord
  2
AM_ISO02W050X2
 70
     0
  3
 _ _ _ _ _ _ _ _ _ _ _ _
 72
    65
 73
     2
 40
3.75
 49
3.0
 74
     0
 49
-0.75
 74
     0
  0
LTYPE
  5
50
330
5
100
AcDbSymbolTableRecord
100
AcDbLinetypeTableRecord
  2
AM_ISO08W050X2
 70
     0
  3
__ . __ . __ . __ . __ . __
 72
    65
 73
     4
 40
9.0
 49
6.0
 74
     0
 49
-0.75
 74
     0
 49
1.5
 74
     0
 49
-0.75
 74
     0
  0
LTYPE
  5
53
330
5
100
AcDbSymbolTableRecord
100
AcDbLinetypeTableRecord
  2
AMZIGZAG
 70
     0
  3
/\/-/\/-/\/-/\/-/\/-/\/
 72
    65
 73
     2
 40
11.00009999999999
 49
0.0001
 74
     4
 75
   135
340
52
 46
0.04
 50
0.0
 44
0.0
 45
0.0
 49
-11.0
 74
     0
  0
LTYPE
  5
166
330
5
100
AcDbSymbolTableRecord
100
AcDbLinetypeTableRecord
  2
ACJISTGL
 70
     0
  3
_ _ _ _ _
 72
    65
 73
     2
 40
3.0
 49
2.0
 74
     0
 49
-1.0
 74
     0
  0
LTYPE
  5
26A
330
5
100
AcDbSymbolTableRecord
100
AcDbLinetypeTableRecord
  2
ACJISTGB
 70
     0
  3
__ . . __ . .
 72
    65
 73
     6
 40
9.0
 49
4.0
 74
     0
 49
-1.0
 74
     0
 49
1.0
 74
     0
 49
-1.0
 74
     0
 49
1.0
 74
     0
 49
-1.0
 74
     0
  0
ENDTAB
  0
TABLE
  2
LAYER
  5
2
330
0
100
AcDbSymbolTable
 70
     8
  0
LAYER
  5
10
330
2
100
AcDbSymbolTableRecord
100
AcDbLayerTableRecord
  2
0
 70
     0
 62
     7
  6
CONTINUOUS
  0
LAYER
  5
3F9
330
2
100
AcDbSymbolTableRecord
100
AcDbLayerTableRecord
  2
AM_0
 70
     0
 62
     7
  6
CONTINUOUS
  0
LAYER
  5
BD5
330
2
100
AcDbSymbolTableRecord
100
AcDbLayerTableRecord
  2
AM_7
 70
     0
 62
     4
  6
AM_ISO08W050
  0
LAYER
  5
BD6
330
2
100
AcDbSymbolTableRecord
100
AcDbLayerTableRecord
  2
AM_5
 70
     0
 62
     3
  6
CONTINUOUS
  0
LAYER
  5
BD7
330
2
100
AcDbSymbolTableRecord
100
AcDbLayerTableRecord
  2
DEFPOINTS
 70
     0
 62
     7
  6
CONTINUOUS
  0
LAYER
  5
E59
330
2
100
AcDbSymbolTableRecord
100
AcDbLayerTableRecord
  2
AM_6
 70
     0
 62
     2
  6
CONTINUOUS
  0
LAYER
  5
1E31
330
2
100
AcDbSymbolTableRecord
100
AcDbLayerTableRecord
  2
AM_11
 70
     0
 62
     3
  6
AM_ISO09W050
  0
LAYER
  5
1E41
330
2
100
AcDbSymbolTableRecord
100
AcDbLayerTableRecord
  2
AM_3
 70
     0
 62
     6
  6
ACJISTGL
  0
ENDTAB
  0
TABLE
  2
STYLE
  5
3
330
0
100
AcDbSymbolTable
 70
     5
  0
STYLE
  5
11
330
3
100
AcDbSymbolTableRecord
100
AcDbTextStyleTableRecord
  2
STANDARD
 70
     0
 40
0.0
 41
1.0
 50
0.0
 71
     0
 42
2.5
  3
simplex.shx
  4
EXTFONT.SHX
  0
STYLE
  5
52
330
3
100
AcDbSymbolTableRecord
100
AcDbTextStyleTableRecord
  2

 70
     1
 40
0.0
 41
1.0
 50
0.0
 71
     0
 42
2.5
  3
ltypeshp.shx
  4

  0
STYLE
  5
6B
330
3
100
AcDbSymbolTableRecord
100
AcDbTextStyleTableRecord
  2
ASAMI
 70
     0
 40
0.0
 41
1.0
 50
0.0
 71
     0
 42
2.5
  3
simplex.shx
  4
EXTFONT.SHX
  0
STYLE
  5
262
330
3
100
AcDbSymbolTableRecord
100
AcDbTextStyleTableRecord
  2
ACJISTS
 70
     0
 40
1.0
 41
1.0
 50
0.0
 71
     0
 42
2.5
  3
simplex.shx
  4
bigfont.shx
  0
STYLE
  5
269
330
3
100
AcDbSymbolTableRecord
100
AcDbTextStyleTableRecord
  2
ACJISGDT
 70
     0
 40
0.0
 41
1.0
 50
0.0
 71
     0
 42
2.5
  3
amgdtans.shx
  4

  0
ENDTAB
  0
TABLE
  2
VIEW
  5
6
330
0
100
AcDbSymbolTable
 70
     0
  0
ENDTAB
  0
TABLE
  2
UCS
  5
7
330
0
100
AcDbSymbolTable
 70
     0
  0
ENDTAB
  0
TABLE
  2
APPID
  5
9
330
0
100
AcDbSymbolTable
 70
    13
  0
APPID
  5
12
330
9
100
AcDbSymbolTableRecord
100
AcDbRegAppTableRecord
  2
ACAD
 70
     0
  0
APPID
  5
30
330
9
100
AcDbSymbolTableRecord
100
AcDbRegAppTableRecord
  2
MCAD_NO_VIS
 70
     0
  0
APPID
  5
31
330
9
100
AcDbSymbolTableRecord
100
AcDbRegAppTableRecord
  2
ACAD_TEMP_GRAPHIC
 70
     0
  0
APPID
  5
2C2
330
9
100
AcDbSymbolTableRecord
100
AcDbRegAppTableRecord
  2
GENIUS_GENDTOL_13
 70
     0
  0
APPID
  5
339
330
9
100
AcDbSymbolTableRecord
100
AcDbRegAppTableRecord
  2
GENIUS_GENODEF_13
 70
     0
  0
APPID
  5
33A
330
9
100
AcDbSymbolTableRecord
100
AcDbRegAppTableRecord
  2
GENIUS_GENOBJ-N-RSBK_13
 70
     0
  0
APPID
  5
33B
330
9
100
AcDbSymbolTableRecord
100
AcDbRegAppTableRecord
  2
GENIUS_GENOBJ-N-LIB_13
 70
     0
  0
APPID
  5
33C
330
9
100
AcDbSymbolTableRecord
100
AcDbRegAppTableRecord
  2
GENIUS_GENSCALE_13
 70
     0
  0
APPID
  5
378
330
9
100
AcDbSymbolTableRecord
100
AcDbRegAppTableRecord
  2
GENIUS_GENDIMSH_14
 70
     0
  0
APPID
  5
BD8
330
9
100
AcDbSymbolTableRecord
100
AcDbRegAppTableRecord
  2
GENIUS_GENOBJ-N-CEN_13
 70
     0
  0
APPID
  5
BD9
330
9
100
AcDbSymbolTableRecord
100
AcDbRegAppTableRecord
  2
GENIUS_GENFIL_13
 70
     0
  0
APPID
  5
BDA
330
9
100
AcDbSymbolTableRecord
100
AcDbRegAppTableRecord
  2
GENIUS_GENOBJ-N-CHA_13
 70
     0
  0
APPID
  5
2BC1
330
9
100
AcDbSymbolTableRecord
100
AcDbRegAppTableRecord
  2
GENIUS_GENOBJ-N-FIL_13
 70
     0
  0
ENDTAB
  0
TABLE
  2
DIMSTYLE
  5
A
330
0
100
AcDbSymbolTable
 70
     9
  0
DIMSTYLE
105
58
102
{ACAD_REACTORS
330
DD62
330
DD61
330
DD63
330
DDB5
330
DDB6
330
DDB7
102
}
330
A
100
AcDbSymbolTableRecord
100
AcDbDimStyleTableRecord
  2
AM_JIS
 70
     0
  3

  4
"
  5
OPEN30
  6

  7

 40
1.0
 41
2.5
 42
1.0
 43
12.0
 44
1.0
 45
0.0
 46
0.0
 47
0.1
 48
0.1
140
3.2
141
0.0
142
0.0
143
0.0393701
144
1.0
145
0.0
146
0.71
147
1.5
 71
     0
 72
     0
 73
     0
 74
     0
 75
     0
 76
     0
 77
     3
 78
     8
170
     0
171
     2
172
     1
173
     0
174
     0
175
     0
176
   256
177
   256
178
     2
270
     2
271
     3
272
     3
273
     2
274
     2
340
6B
275
     0
280
     0
281
     0
282
     0
283
     0
284
     0
285
     0
286
     0
287
     3
288
     0
  0
DIMSTYLE
105
5F
330
A
100
AcDbSymbolTableRecord
100
AcDbDimStyleTableRecord
  2
AM_JIS$3
 70
     0
  3

  4
"
  5
OPEN30
  6

  7

 40
1.0
 41
2.5
 42
1.0
 43
10.0
 44
1.0
 45
0.0
 46
0.0
 47
0.1
 48
0.1
140
3.2
141
0.0
142
0.0
143
0.0393701
144
1.0
145
0.0
146
0.71
147
1.5
 71
     0
 72
     0
 73
     0
 74
     1
 75
     0
 76
     0
 77
     3
 78
     8
170
     0
171
     2
172
     0
173
     0
174
     0
175
     0
176
   256
177
   256
178
     2
270
     2
271
     2
272
     3
273
     2
274
     2
340
6B
275
     0
280
     0
281
     0
282
     0
283
     0
284
     0
285
     0
286
     0
287
     0
288
     1
  0
DIMSTYLE
105
60
330
A
100
AcDbSymbolTableRecord
100
AcDbDimStyleTableRecord
  2
AM_JIS$4
 70
     0
  3

  4
"
  5
OPEN30
  6

  7

 40
1.0
 41
2.5
 42
1.0
 43
10.0
 44
1.0
 45
0.0
 46
0.0
 47
0.1
 48
0.1
140
3.2
141
0.0
142
0.0
143
0.0393701
144
1.0
145
0.0
146
0.71
147
1.5
 71
     0
 72
     0
 73
     0
 74
     1
 75
     0
 76
     0
 77
     3
 78
     8
170
     0
171
     2
172
     0
173
     0
174
     0
175
     0
176
   256
177
   256
178
     2
270
     2
271
     2
272
     3
273
     2
274
     2
340
6B
275
     0
280
     0
281
     0
282
     0
283
     0
284
     0
285
     0
286
     0
287
     0
288
     1
  0
DIMSTYLE
105
61
330
A
100
AcDbSymbolTableRecord
100
AcDbDimStyleTableRecord
  2
AM_JIS$6
 70
     0
  3

  4
"
  5
OPEN30
  6

  7

 40
1.0
 41
2.5
 42
1.0
 43
10.0
 44
1.0
 45
0.0
 46
0.0
 47
0.1
 48
0.1
140
3.2
141
0.0
142
0.0
143
0.0393701
144
1.0
145
0.0
146
0.71
147
1.5
 71
     0
 72
     0
 73
     0
 74
     0
 75
     0
 76
     0
 77
     0
 78
     8
170
     0
171
     2
172
     1
173
     0
174
     0
175
     0
176
   256
177
   256
178
     2
270
     2
271
     2
272
     2
273
     2
274
     2
340
6B
275
     0
280
     0
281
     0
282
     0
283
     0
284
     0
285
     0
286
     0
287
     3
288
     0
  0
DIMSTYLE
105
62
330
A
100
AcDbSymbolTableRecord
100
AcDbDimStyleTableRecord
  2
AM_JIS$7
 70
     0
  3

  4
"
  5
OPEN30
  6

  7

 40
1.0
 41
2.5
 42
1.0
 43
10.0
 44
1.0
 45
0.0
 46
0.0
 47
0.1
 48
0.1
140
3.2
141
0.0
142
0.0
143
0.0393701
144
1.0
145
0.0
146
0.71
147
1.5
 71
     0
 72
     0
 73
     0
 74
     0
 75
     0
 76
     0
 77
     3
 78
     8
170
     0
171
     2
172
     1
173
     0
174
     0
175
     0
176
   256
177
   256
178
     2
270
     2
271
     2
272
     3
273
     2
274
     2
340
6B
275
     0
280
     0
281
     0
282
     0
283
     0
284
     0
285
     0
286
     0
287
     3
288
     0
  0
DIMSTYLE
105
63
330
A
100
AcDbSymbolTableRecord
100
AcDbDimStyleTableRecord
  2
AM_JIS$SF
 70
     0
  3

  4
"
  5
OPEN30
  6

  7

 40
1.0
 41
2.5
 42
1.0
 43
10.0
 44
1.0
 45
0.0
 46
0.0
 47
0.1
 48
0.1
140
3.2
141
0.0
142
0.0
143
0.0393701
144
1.0
145
0.0
146
0.71
147
1.5
 71
     0
 72
     0
 73
     0
 74
     0
 75
     1
 76
     1
 77
     3
 78
     8
170
     0
171
     2
172
     1
173
     0
174
     0
175
     0
176
   256
177
   256
178
     2
270
     2
271
     2
272
     2
273
     2
274
     2
340
6B
275
     0
280
     0
281
     0
282
     0
283
     0
284
     0
285
     0
286
     0
287
     3
288
     0
  0
DIMSTYLE
105
68
330
A
100
AcDbSymbolTableRecord
100
AcDbDimStyleTableRecord
  2
AM_JIS$SH
 70
     0
  3

  4
"
  5

  6
GENAXEH
  7
OPEN30
 40
1.0
 41
2.5
 42
1.0
 43
10.0
 44
1.0
 45
0.0
 46
0.0
 47
0.1
 48
0.1
140
3.2
141
0.0
142
0.0
143
0.0393701
144
2.0
145
0.0
146
0.71
147
1.5
 71
     0
 72
     0
 73
     0
 74
     0
 75
     1
 76
     1
 77
     3
 78
     8
170
     0
171
     2
172
     1
173
     1
174
     0
175
     0
176
   256
177
   256
178
     2
270
     2
271
     2
272
     2
273
     2
274
     2
340
6B
275
     0
280
     0
281
     0
282
     0
283
     0
284
     0
285
     0
286
     0
287
     3
288
     0
  0
DIMSTYLE
105
B34
102
{ACAD_REACTORS
330
E1CD
102
}
330
A
100
AcDbSymbolTableRecord
100
AcDbDimStyleTableRecord
  2
AM_JIS$2
 70
     0
  3

  4
"
  5
OPEN30
  6

  7

 40
1.0
 41
2.5
 42
1.0
 43
12.0
 44
1.0
 45
0.0
 46
0.0
 47
0.1
 48
0.1
140
3.2
141
0.0
142
0.0
143
0.0393701
144
1.0
145
0.0
146
0.71
147
1.5
 71
     0
 72
     0
 73
     0
 74
     0
 75
     0
 76
     0
 77
     3
 78
     8
170
     0
171
     2
172
     1
173
     0
174
     0
175
     0
176
   256
177
   256
178
     2
270
     2
271
     3
272
     3
273
     2
274
     2
340
6B
275
     0
280
     0
281
     0
282
     0
283
     0
284
     0
285
     0
286
     0
287
     3
288
     0
  0
DIMSTYLE
105
1E42
102
{ACAD_REACTORS
330
DDF7
330
DDF8
330
E091
102
}
330
A
100
AcDbSymbolTableRecord
100
AcDbDimStyleTableRecord
  2
AM_JIS$0
 70
     0
  3

  4
"
  5
OPEN30
  6

  7

 40
2.0
 41
2.5
 42
1.0
 43
10.0
 44
1.0
 45
0.0
 46
0.0
 47
0.1
 48
0.1
140
2.5
141
0.0
142
0.0
143
0.0393701
144
1.0
145
0.0
146
0.71
147
1.0
 71
     0
 72
     0
 73
     0
 74
     0
 75
     0
 76
     0
 77
     3
 78
     8
170
     0
171
     2
172
     1
173
     0
174
     0
175
     0
176
   256
177
   256
178
     4
270
     2
271
     3
272
     3
273
     2
274
     2
340
6B
275
     0
280
     0
281
     0
282
     0
283
     0
284
     0
285
     0
286
     0
287
     3
288
     0
  0
ENDTAB
  0
TABLE
  2
BLOCK_RECORD
  5
1
330
0
100
AcDbSymbolTable
 70
    15
  0
BLOCK_RECORD
  5
1F
102
{ACAD_XDICTIONARY
360
74
102
}
330
1
100
AcDbSymbolTableRecord
100
AcDbBlockTableRecord
  2
*MODEL_SPACE
  0
BLOCK_RECORD
  5
101
102
{ACAD_XDICTIONARY
360
E38B
102
}
330
1
100
AcDbSymbolTableRecord
100
AcDbBlockTableRecord
  2
*PAPER_SPACE
  0
BLOCK_RECORD
  5
59
330
1
100
AcDbSymbolTableRecord
100
AcDbBlockTableRecord
  2
_OPEN30
  0
BLOCK_RECORD
  5
64
330
1
100
AcDbSymbolTableRecord
100
AcDbBlockTableRecord
  2
GENAXEH
  0
BLOCK_RECORD
  5
DD64
330
1
100
AcDbSymbolTableRecord
100
AcDbBlockTableRecord
  2
*D5
  0
BLOCK_RECORD
  5
DD70
330
1
100
AcDbSymbolTableRecord
100
AcDbBlockTableRecord
  2
*D6
  0
BLOCK_RECORD
  5
DD7C
330
1
100
AcDbSymbolTableRecord
100
AcDbBlockTableRecord
  2
*D7
  0
BLOCK_RECORD
  5
DDB8
330
1
100
AcDbSymbolTableRecord
100
AcDbBlockTableRecord
  2
*D8
  0
BLOCK_RECORD
  5
DDC4
330
1
100
AcDbSymbolTableRecord
100
AcDbBlockTableRecord
  2
*D9
  0
BLOCK_RECORD
  5
DDD0
330
1
100
AcDbSymbolTableRecord
100
AcDbBlockTableRecord
  2
*D10
  0
BLOCK_RECORD
  5
DDF9
330
1
100
AcDbSymbolTableRecord
100
AcDbBlockTableRecord
  2
*D11
  0
BLOCK_RECORD
  5
DE05
330
1
100
AcDbSymbolTableRecord
100
AcDbBlockTableRecord
  2
*D12
  0
BLOCK_RECORD
  5
E092
330
1
100
AcDbSymbolTableRecord
100
AcDbBlockTableRecord
  2
*D13
  0
BLOCK_RECORD
  5
E1CE
330
1
100
AcDbSymbolTableRecord
100
AcDbBlockTableRecord
  2
*D14
  0
ENDTAB
  0
ENDSEC
  0
SECTION
  2
BLOCKS
  0
BLOCK
  5
20
330
1F
100
AcDbEntity
  8
0
100
AcDbBlockBegin
  2
*MODEL_SPACE
 70
     0
 10
0.0
 20
0.0
 30
0.0
  3
*MODEL_SPACE
  1

  0
ENDBLK
  5
21
330
1F
100
AcDbEntity
  8
0
100
AcDbBlockEnd
  0
BLOCK
  5
103
330
101
100
AcDbEntity
 67
     1
  8
0
100
AcDbBlockBegin
  2
*PAPER_SPACE
 70
     0
 10
0.0
 20
0.0
 30
0.0
  3
*PAPER_SPACE
  1

  0
ENDBLK
  5
104
330
101
100
AcDbEntity
 67
     1
  8
0
100
AcDbBlockEnd
  0
BLOCK
  5
5D
330
59
100
AcDbEntity
  8
0
100
AcDbBlockBegin
  2
_OPEN30
 70
     0
 10
0.0
 20
0.0
 30
0.0
  3
_OPEN30
  1

  0
LINE
  5
5A
330
59
100
AcDbEntity
  8
0
 62
     0
100
AcDbLine
 10
-1.0
 20
0.26794919
 30
0.0
 11
0.0
 21
0.0
 31
0.0
  0
LINE
  5
5B
330
59
100
AcDbEntity
  8
0
 62
     0
100
AcDbLine
 10
0.0
 20
0.0
 30
0.0
 11
-1.0
 21
-0.26794919
 31
0.0
  0
LINE
  5
5C
330
59
100
AcDbEntity
  8
0
 62
     0
100
AcDbLine
 10
0.0
 20
0.0
 30
0.0
 11
-1.0
 21
0.0
 31
0.0
  0
ENDBLK
  5
5E
330
59
100
AcDbEntity
  8
0
100
AcDbBlockEnd
  0
BLOCK
  5
66
330
64
100
AcDbEntity
  8
0
100
AcDbBlockBegin
  2
GENAXEH
 70
     0
 10
0.0
 20
0.0
 30
0.0
  3
GENAXEH
  1

  0
LINE
  5
65
330
64
100
AcDbEntity
  8
0
100
AcDbLine
 10
-1.0
 20
0.0
 30
0.0
 11
1.0
 21
0.0
 31
0.0
  0
ENDBLK
  5
67
330
64
100
AcDbEntity
  8
0
100
AcDbBlockEnd
  0
BLOCK
  5
DD6E
330
DD64
100
AcDbEntity
  8
0
100
AcDbBlockBegin
  2
*D5
 70
     1
 10
0.0
 20
0.0
 30
0.0
  3
*D5
  1

  0
LINE
  5
E179
330
DD64
100
AcDbEntity
  8
AM_5
100
AcDbLine
 10
-59.29999999999996
 20
65.0
 30
0.0
 11
-101.9163455017074
 21
65.00000000000001
 31
0.0
  0
LINE
  5
E17A
330
DD64
100
AcDbEntity
  8
AM_5
100
AcDbLine
 10
-59.30000000000006
 20
-65.0
 30
0.0
 11
-101.9163455017074
 21
-64.99999999999999
 31
0.0
  0
LINE
  5
E17B
330
DD64
100
AcDbEntity
  8
AM_5
100
AcDbLine
 10
-100.9163455017074
 20
62.5
 30
0.0
 11
-100.9163455017074
 21
-62.5
 31
0.0
  0
INSERT
  5
E17C
330
DD64
100
AcDbEntity
  8
AM_5
100
AcDbBlockReference
  2
_OPEN30
 10
-100.9163455017074
 20
65.00000000000001
 30
0.0
 41
2.5
 42
2.5
 43
2.5
 50
90.0
  0
INSERT
  5
E17D
330
DD64
100
AcDbEntity
  8
AM_5
100
AcDbBlockReference
  2
_OPEN30
 10
-100.9163455017074
 20
-64.99999999999999
 30
0.0
 41
2.5
 42
2.5
 43
2.5
 50
270.0
  0
MTEXT
  5
E17E
330
DD64
100
AcDbEntity
  8
AM_5
 62
     2
100
AcDbMText
 10
-104.0163455017074
 20
-0.0000000000000077
 30
0.0
 40
3.2
 41
0.0
 71
     5
 72
     1
  1
%%c130
  7
ASAMI
 11
0.0000000000000001
 21
1.0
 31
0.0
1001
ACAD
1000
MTEXTBEGIN
1070
    73
1070
     1
1070
    44
1040
1.0
1070
    74
1070
     0
1000
MTEXTEND
  0
POINT
  5
E17F
330
DD64
100
AcDbEntity
  8
DEFPOINTS
 62
     0
100
AcDbPoint
 10
-58.29999999999995
 20
65.0
 30
0.0
  0
POINT
  5
E180
330
DD64
100
AcDbEntity
  8
DEFPOINTS
 62
     0
100
AcDbPoint
 10
-58.30000000000007
 20
-65.0
 30
0.0
  0
POINT
  5
E181
330
DD64
100
AcDbEntity
  8
DEFPOINTS
 62
     0
100
AcDbPoint
 10
-100.9163455017074
 20
-64.99999999999999
 30
0.0
  0
ENDBLK
  5
DD6F
330
DD64
100
AcDbEntity
  8
0
100
AcDbBlockEnd
  0
BLOCK
  5
DD7A
330
DD70
100
AcDbEntity
  8
0
100
AcDbBlockBegin
  2
*D6
 70
     1
 10
0.0
 20
0.0
 30
0.0
  3
*D6
  1

  0
LINE
  5
E167
330
DD70
100
AcDbEntity
  8
AM_5
100
AcDbLine
 10
-59.29999999999996
 20
23.8125
 30
0.0
 11
-91.9163455017075
 21
23.8125
 31
0.0
  0
LINE
  5
E168
330
DD70
100
AcDbEntity
  8
AM_5
100
AcDbLine
 10
-59.29999999999989
 20
-23.81249999999997
 30
0.0
 11
-91.9163455017075
 21
-23.81249999999996
 31
0.0
  0
LINE
  5
E169
330
DD70
100
AcDbEntity
  8
AM_5
100
AcDbLine
 10
-90.9163455017075
 20
21.3125
 30
0.0
 11
-90.9163455017075
 21
-21.31249999999996
 31
0.0
  0
INSERT
  5
E16A
330
DD70
100
AcDbEntity
  8
AM_5
100
AcDbBlockReference
  2
_OPEN30
 10
-90.9163455017075
 20
23.8125
 30
0.0
 41
2.5
 42
2.5
 43
2.5
 50
90.0
  0
INSERT
  5
E16B
330
DD70
100
AcDbEntity
  8
AM_5
100
AcDbBlockReference
  2
_OPEN30
 10
-90.9163455017075
 20
-23.81249999999996
 30
0.0
 41
2.5
 42
2.5
 43
2.5
 50
270.0
  0
MTEXT
  5
E16C
330
DD70
100
AcDbEntity
  8
AM_5
 62
     2
100
AcDbMText
 10
-94.01634550170749
 20
0.0000000000000095
 30
0.0
 40
3.2
 41
0.0
 71
     5
 72
     1
  1
%%c47.625
  7
ASAMI
 11
0.0000000000000001
 21
1.0
 31
0.0
1001
ACAD
1000
MTEXTBEGIN
1070
    73
1070
     1
1070
    44
1040
1.0
1070
    74
1070
     0
1000
MTEXTEND
  0
POINT
  5
E16D
330
DD70
100
AcDbEntity
  8
DEFPOINTS
 62
     0
100
AcDbPoint
 10
-58.29999999999995
 20
23.8125
 30
0.0
  0
POINT
  5
E16E
330
DD70
100
AcDbEntity
  8
DEFPOINTS
 62
     0
100
AcDbPoint
 10
-58.2999999999999
 20
-23.81249999999997
 30
0.0
  0
POINT
  5
E16F
330
DD70
100
AcDbEntity
  8
DEFPOINTS
 62
     0
100
AcDbPoint
 10
-90.9163455017075
 20
-23.81249999999996
 30
0.0
  0
ENDBLK
  5
DD7B
330
DD70
100
AcDbEntity
  8
0
100
AcDbBlockEnd
  0
BLOCK
  5
DD86
330
DD7C
100
AcDbEntity
  8
0
100
AcDbBlockBegin
  2
*D7
 70
     1
 10
0.0
 20
0.0
 30
0.0
  3
*D7
  1

  0
LINE
  5
E170
330
DD7C
100
AcDbEntity
  8
AM_5
100
AcDbLine
 10
-59.79999999999995
 20
12.69999999999996
 30
0.0
 11
-81.9163455017075
 21
12.69999999999996
 31
0.0
  0
LINE
  5
E171
330
DD7C
100
AcDbEntity
  8
AM_5
100
AcDbLine
 10
-59.79999999999995
 20
-12.69999999999996
 30
0.0
 11
-81.9163455017075
 21
-12.69999999999995
 31
0.0
  0
LINE
  5
E172
330
DD7C
100
AcDbEntity
  8
AM_5
100
AcDbLine
 10
-80.9163455017075
 20
10.19999999999996
 30
0.0
 11
-80.9163455017075
 21
-10.19999999999995
 31
0.0
  0
INSERT
  5
E173
330
DD7C
100
AcDbEntity
  8
AM_5
100
AcDbBlockReference
  2
_OPEN30
 10
-80.9163455017075
 20
12.69999999999996
 30
0.0
 41
2.5
 42
2.5
 43
2.5
 50
90.0
  0
INSERT
  5
E174
330
DD7C
100
AcDbEntity
  8
AM_5
100
AcDbBlockReference
  2
_OPEN30
 10
-80.9163455017075
 20
-12.69999999999995
 30
0.0
 41
2.5
 42
2.5
 43
2.5
 50
270.0
  0
MTEXT
  5
E175
330
DD7C
100
AcDbEntity
  8
AM_5
 62
     2
100
AcDbMText
 10
-84.01634550170749
 20
-0.000000000000028
 30
0.0
 40
3.2
 41
0.0
 71
     5
 72
     1
  1
25.4
  7
ASAMI
 11
0.0000000000000001
 21
1.0
 31
0.0
1001
ACAD
1000
MTEXTBEGIN
1070
    73
1070
     1
1070
    44
1040
1.0
1070
    74
1070
     0
1000
MTEXTEND
  0
POINT
  5
E176
330
DD7C
100
AcDbEntity
  8
DEFPOINTS
 62
     0
100
AcDbPoint
 10
-58.79999999999995
 20
12.69999999999996
 30
0.0
  0
POINT
  5
E177
330
DD7C
100
AcDbEntity
  8
DEFPOINTS
 62
     0
100
AcDbPoint
 10
-58.79999999999995
 20
-12.69999999999996
 30
0.0
  0
POINT
  5
E178
330
DD7C
100
AcDbEntity
  8
DEFPOINTS
 62
     0
100
AcDbPoint
 10
-80.9163455017075
 20
-12.69999999999995
 30
0.0
  0
ENDBLK
  5
DD87
330
DD7C
100
AcDbEntity
  8
0
100
AcDbBlockEnd
  0
BLOCK
  5
DDC2
330
DDB8
100
AcDbEntity
  8
0
100
AcDbBlockBegin
  2
*D8
 70
     1
 10
0.0
 20
0.0
 30
0.0
  3
*D8
  1

  0
LINE
  5
E194
330
DDB8
100
AcDbEntity
  8
AM_5
100
AcDbLine
 10
-60.0
 20
-64.30000000000001
 30
0.0
 11
-60.0
 21
-115.000001
 31
0.0
  0
LINE
  5
E195
330
DDB8
100
AcDbEntity
  8
AM_5
100
AcDbLine
 10
-46.5
 20
-12.70000000000001
 30
0.0
 11
-46.50000000000001
 21
-115.000001
 31
0.0
  0
LINE
  5
E196
330
DDB8
100
AcDbEntity
  8
AM_5
100
AcDbLine
 10
-57.5
 20
-114.000001
 30
0.0
 11
-49.00000000000001
 21
-114.000001
 31
0.0
  0
INSERT
  5
E197
330
DDB8
100
AcDbEntity
  8
AM_5
100
AcDbBlockReference
  2
_OPEN30
 10
-60.0
 20
-114.000001
 30
0.0
 41
2.5
 42
2.5
 43
2.5
 50
180.0
  0
INSERT
  5
E198
330
DDB8
100
AcDbEntity
  8
AM_5
100
AcDbBlockReference
  2
_OPEN30
 10
-46.50000000000001
 20
-114.000001
 30
0.0
 41
2.5
 42
2.5
 43
2.5
  0
MTEXT
  5
E199
330
DDB8
100
AcDbEntity
  8
AM_5
 62
     2
100
AcDbMText
 10
-53.25
 20
-110.900001
 30
0.0
 40
3.2
 41
0.0
 71
     5
 72
     1
  1
13.5
  7
ASAMI
1001
ACAD
1000
MTEXTBEGIN
1070
    73
1070
     1
1070
    44
1040
1.0
1070
    74
1070
     0
1000
MTEXTEND
  0
POINT
  5
E19A
330
DDB8
100
AcDbEntity
  8
DEFPOINTS
 62
     0
100
AcDbPoint
 10
-60.0
 20
-63.3
 30
0.0
  0
POINT
  5
E19B
330
DDB8
100
AcDbEntity
  8
DEFPOINTS
 62
     0
100
AcDbPoint
 10
-46.5
 20
-11.70000000000001
 30
0.0
  0
POINT
  5
E19C
330
DDB8
100
AcDbEntity
  8
DEFPOINTS
 62
     0
100
AcDbPoint
 10
-46.50000000000001
 20
-114.000001
 30
0.0
  0
ENDBLK
  5
DDC3
330
DDB8
100
AcDbEntity
  8
0
100
AcDbBlockEnd
  0
BLOCK
  5
DDCE
330
DDC4
100
AcDbEntity
  8
0
100
AcDbBlockBegin
  2
*D9
 70
     1
 10
0.0
 20
0.0
 30
0.0
  3
*D9
  1

  0
LINE
  5
E15E
330
DDC4
100
AcDbEntity
  8
AM_5
100
AcDbLine
 10
-60.0
 20
-64.30000000000001
 30
0.0
 11
-60.0
 21
-145.0000009999999
 31
0.0
  0
LINE
  5
E15F
330
DDC4
100
AcDbEntity
  8
AM_5
100
AcDbLine
 10
-0.0000000000000001
 20
-101.0
 30
0.0
 11
-0.0000000000000028
 21
-145.0000009999999
 31
0.0
  0
LINE
  5
E160
330
DDC4
100
AcDbEntity
  8
AM_5
100
AcDbLine
 10
-57.5
 20
-144.000001
 30
0.0
 11
-2.500000000000002
 21
-144.000001
 31
0.0
  0
INSERT
  5
E161
330
DDC4
100
AcDbEntity
  8
AM_5
100
AcDbBlockReference
  2
_OPEN30
 10
-60.0
 20
-144.000001
 30
0.0
 41
2.5
 42
2.5
 43
2.5
 50
180.0
  0
INSERT
  5
E162
330
DDC4
100
AcDbEntity
  8
AM_5
100
AcDbBlockReference
  2
_OPEN30
 10
-0.0000000000000027
 20
-144.000001
 30
0.0
 41
2.5
 42
2.5
 43
2.5
  0
MTEXT
  5
E163
330
DDC4
100
AcDbEntity
  8
AM_5
 62
     2
100
AcDbMText
 10
-30.0
 20
-140.9000009999999
 30
0.0
 40
3.2
 41
0.0
 71
     5
 72
     1
  1
60
  7
ASAMI
1001
ACAD
1000
MTEXTBEGIN
1070
    73
1070
     1
1070
    44
1040
1.0
1070
    74
1070
     0
1000
MTEXTEND
  0
POINT
  5
E164
330
DDC4
100
AcDbEntity
  8
DEFPOINTS
 62
     0
100
AcDbPoint
 10
-60.0
 20
-63.3
 30
0.0
  0
POINT
  5
E165
330
DDC4
100
AcDbEntity
  8
DEFPOINTS
 62
     0
100
AcDbPoint
 10
0.0
 20
-100.0
 30
0.0
  0
POINT
  5
E166
330
DDC4
100
AcDbEntity
  8
DEFPOINTS
 62
     0
100
AcDbPoint
 10
-0.0000000000000027
 20
-144.000001
 30
0.0
  0
ENDBLK
  5
DDCF
330
DDC4
100
AcDbEntity
  8
0
100
AcDbBlockEnd
  0
BLOCK
  5
DDDA
330
DDD0
100
AcDbEntity
  8
0
100
AcDbBlockBegin
  2
*D10
 70
     1
 10
0.0
 20
0.0
 30
0.0
  3
*D10
  1

  0
LINE
  5
E155
330
DDD0
100
AcDbEntity
  8
AM_5
100
AcDbLine
 10
-60.0
 20
-64.30000000000001
 30
0.0
 11
-60.0
 21
-135.000001
 31
0.0
  0
LINE
  5
E156
330
DDD0
100
AcDbEntity
  8
AM_5
100
AcDbLine
 10
-22.00000000000011
 20
-51.00000000000003
 30
0.0
 11
-22.00000000000011
 21
-135.000001
 31
0.0
  0
LINE
  5
E157
330
DDD0
100
AcDbEntity
  8
AM_5
100
AcDbLine
 10
-57.5
 20
-134.000001
 30
0.0
 11
-24.50000000000011
 21
-134.000001
 31
0.0
  0
INSERT
  5
E158
330
DDD0
100
AcDbEntity
  8
AM_5
100
AcDbBlockReference
  2
_OPEN30
 10
-60.0
 20
-134.000001
 30
0.0
 41
2.5
 42
2.5
 43
2.5
 50
180.0
  0
INSERT
  5
E159
330
DDD0
100
AcDbEntity
  8
AM_5
100
AcDbBlockReference
  2
_OPEN30
 10
-22.00000000000011
 20
-134.000001
 30
0.0
 41
2.5
 42
2.5
 43
2.5
  0
MTEXT
  5
E15A
330
DDD0
100
AcDbEntity
  8
AM_5
 62
     2
100
AcDbMText
 10
-41.00000000000006
 20
-130.900001
 30
0.0
 40
3.2
 41
0.0
 71
     5
 72
     1
  1
38
  7
ASAMI
1001
ACAD
1000
MTEXTBEGIN
1070
    73
1070
     1
1070
    44
1040
1.0
1070
    74
1070
     0
1000
MTEXTEND
  0
POINT
  5
E15B
330
DDD0
100
AcDbEntity
  8
DEFPOINTS
 62
     0
100
AcDbPoint
 10
-60.0
 20
-63.3
 30
0.0
  0
POINT
  5
E15C
330
DDD0
100
AcDbEntity
  8
DEFPOINTS
 62
     0
100
AcDbPoint
 10
-22.00000000000011
 20
-50.00000000000003
 30
0.0
  0
POINT
  5
E15D
330
DDD0
100
AcDbEntity
  8
DEFPOINTS
 62
     0
100
AcDbPoint
 10
-22.00000000000011
 20
-134.000001
 30
0.0
  0
ENDBLK
  5
DDDB
330
DDD0
100
AcDbEntity
  8
0
100
AcDbBlockEnd
  0
BLOCK
  5
DE03
330
DDF9
100
AcDbEntity
  8
0
100
AcDbBlockBegin
  2
*D11
 70
     1
 10
0.0
 20
0.0
 30
0.0
  3
*D11
  1

  0
LINE
  5
E18B
330
DDF9
100
AcDbEntity
  8
AM_5
100
AcDbLine
 10
-21.00000000000011
 20
50.00000000000003
 30
0.0
 11
18.32278188075741
 21
50.00000000000001
 31
0.0
  0
LINE
  5
E18C
330
DDF9
100
AcDbEntity
  8
AM_5
100
AcDbLine
 10
-21.00000000000011
 20
-50.00000000000003
 30
0.0
 11
18.32278188075738
 21
-50.00000000000004
 31
0.0
  0
LINE
  5
E18D
330
DDF9
100
AcDbEntity
  8
AM_5
100
AcDbLine
 10
17.32278188075741
 20
47.50000000000001
 30
0.0
 11
17.32278188075738
 21
-47.50000000000004
 31
0.0
  0
INSERT
  5
E18E
330
DDF9
100
AcDbEntity
  8
AM_5
100
AcDbBlockReference
  2
_OPEN30
 10
17.32278188075741
 20
50.00000000000001
 30
0.0
 41
2.5
 42
2.5
 43
2.5
 50
90.0
  0
INSERT
  5
E18F
330
DDF9
100
AcDbEntity
  8
AM_5
100
AcDbBlockReference
  2
_OPEN30
 10
17.32278188075738
 20
-50.00000000000004
 30
0.0
 41
2.5
 42
2.5
 43
2.5
 50
270.0
  0
MTEXT
  5
E190
330
DDF9
100
AcDbEntity
  8
AM_5
 62
     2
100
AcDbMText
 10
14.2227818807574
 20
-0.0000000000000078
 30
0.0
 40
3.2
 41
0.0
 71
     5
 72
     1
  1
%%c100
  7
ASAMI
 11
0.0000000000000001
 21
1.0
 31
0.0
1001
ACAD
1000
MTEXTBEGIN
1070
    73
1070
     1
1070
    44
1040
1.0
1070
    74
1070
     0
1000
MTEXTEND
  0
POINT
  5
E191
330
DDF9
100
AcDbEntity
  8
DEFPOINTS
 62
     0
100
AcDbPoint
 10
-22.00000000000011
 20
50.00000000000003
 30
0.0
  0
POINT
  5
E192
330
DDF9
100
AcDbEntity
  8
DEFPOINTS
 62
     0
100
AcDbPoint
 10
-22.00000000000011
 20
-50.00000000000003
 30
0.0
  0
POINT
  5
E193
330
DDF9
100
AcDbEntity
  8
DEFPOINTS
 62
     0
100
AcDbPoint
 10
17.32278188075738
 20
-50.00000000000004
 30
0.0
  0
ENDBLK
  5
DE04
330
DDF9
100
AcDbEntity
  8
0
100
AcDbBlockEnd
  0
BLOCK
  5
DE0F
330
DE05
100
AcDbEntity
  8
0
100
AcDbBlockBegin
  2
*D12
 70
     1
 10
0.0
 20
0.0
 30
0.0
  3
*D12
  1

  0
LINE
  5
E2A5
330
DE05
100
AcDbEntity
  8
AM_5
100
AcDbLine
 10
0.9999999999999715
 20
100.0
 30
0.0
 11
45.05819466606264
 21
100.0
 31
0.0
  0
LINE
  5
E2A6
330
DE05
100
AcDbEntity
  8
AM_5
100
AcDbLine
 10
1.0
 20
-100.0
 30
0.0
 11
45.0581946660626
 21
-100.0
 31
0.0
  0
LINE
  5
E2A7
330
DE05
100
AcDbEntity
  8
AM_5
100
AcDbLine
 10
44.05819466606264
 20
97.5
 30
0.0
 11
44.05819466606259
 21
-97.50000000000001
 31
0.0
  0
INSERT
  5
E2A8
330
DE05
100
AcDbEntity
  8
AM_5
100
AcDbBlockReference
  2
_OPEN30
 10
44.05819466606264
 20
100.0
 30
0.0
 41
2.5
 42
2.5
 43
2.5
 50
90.0
  0
INSERT
  5
E2A9
330
DE05
100
AcDbEntity
  8
AM_5
100
AcDbBlockReference
  2
_OPEN30
 10
44.05819466606259
 20
-100.0
 30
0.0
 41
2.5
 42
2.5
 43
2.5
 50
270.0
  0
MTEXT
  5
E2AA
330
DE05
100
AcDbEntity
  8
AM_5
 62
     2
100
AcDbMText
 10
40.95819466606261
 20
-0.0000000000000023
 30
0.0
 40
3.2
 41
0.0
 71
     5
 72
     1
  1
%%c200
  7
ASAMI
 11
0.0000000000000001
 21
1.0
 31
0.0
1001
ACAD
1000
MTEXTBEGIN
1070
    73
1070
     1
1070
    44
1040
1.0
1070
    74
1070
     0
1000
MTEXTEND
  0
POINT
  5
E2AB
330
DE05
100
AcDbEntity
  8
DEFPOINTS
 62
     0
100
AcDbPoint
 10
-0.0000000000000284
 20
100.0
 30
0.0
  0
POINT
  5
E2AC
330
DE05
100
AcDbEntity
  8
DEFPOINTS
 62
     0
100
AcDbPoint
 10
0.0
 20
-100.0
 30
0.0
  0
POINT
  5
E2AD
330
DE05
100
AcDbEntity
  8
DEFPOINTS
 62
     0
100
AcDbPoint
 10
44.05819466606259
 20
-100.0
 30
0.0
  0
ENDBLK
  5
DE10
330
DE05
100
AcDbEntity
  8
0
100
AcDbBlockEnd
  0
BLOCK
  5
E09C
330
E092
100
AcDbEntity
  8
0
100
AcDbBlockBegin
  2
*D13
 70
     1
 10
0.0
 20
0.0
 30
0.0
  3
*D13
  1

  0
LINE
  5
E2E6
330
E092
100
AcDbEntity
  8
AM_5
100
AcDbLine
 10
-60.0
 20
-64.30000000000001
 30
0.0
 11
-60.0
 21
-125.0000009999999
 31
0.0
  0
LINE
  5
E2E7
330
E092
100
AcDbEntity
  8
AM_5
100
AcDbLine
 10
-27.99999999999991
 20
-64.80000000000001
 30
0.0
 11
-27.99999999999991
 21
-125.0000009999999
 31
0.0
  0
LINE
  5
E2E8
330
E092
100
AcDbEntity
  8
AM_5
100
AcDbLine
 10
-57.5
 20
-124.0000009999999
 30
0.0
 11
-30.49999999999991
 21
-124.0000009999999
 31
0.0
  0
INSERT
  5
E2E9
330
E092
100
AcDbEntity
  8
AM_5
100
AcDbBlockReference
  2
_OPEN30
 10
-60.0
 20
-124.0000009999999
 30
0.0
 41
2.5
 42
2.5
 43
2.5
 50
180.0
  0
INSERT
  5
E2EA
330
E092
100
AcDbEntity
  8
AM_5
100
AcDbBlockReference
  2
_OPEN30
 10
-27.99999999999991
 20
-124.0000009999999
 30
0.0
 41
2.5
 42
2.5
 43
2.5
  0
MTEXT
  5
E2EB
330
E092
100
AcDbEntity
  8
AM_5
 62
     2
100
AcDbMText
 10
-43.99999999999996
 20
-120.9000009999999
 30
0.0
 40
3.2
 41
0.0
 71
     5
 72
     1
  1
32
  7
ASAMI
1001
ACAD
1000
MTEXTBEGIN
1070
    73
1070
     1
1070
    44
1040
1.0
1070
    74
1070
     0
1000
MTEXTEND
  0
POINT
  5
E2EC
330
E092
100
AcDbEntity
  8
DEFPOINTS
 62
     0
100
AcDbPoint
 10
-60.0
 20
-63.30000000000001
 30
0.0
  0
POINT
  5
E2ED
330
E092
100
AcDbEntity
  8
DEFPOINTS
 62
     0
100
AcDbPoint
 10
-27.99999999999991
 20
-63.80000000000001
 30
0.0
  0
POINT
  5
E2EE
330
E092
100
AcDbEntity
  8
DEFPOINTS
 62
     0
100
AcDbPoint
 10
-27.99999999999991
 20
-124.0000009999999
 30
0.0
  0
ENDBLK
  5
E09D
330
E092
100
AcDbEntity
  8
0
100
AcDbBlockEnd
  0
BLOCK
  5
E1DE
330
E1CE
100
AcDbEntity
  8
0
100
AcDbBlockBegin
  2
*D14
 70
     1
 10
0.0
 20
0.0
 30
0.0
  3
*D14
  1

  0
LINE
  5
E296
330
E1CE
100
AcDbEntity
  8
AM_5
100
AcDbLine
 10
0.0
 20
-101.0
 30
0.0
 11
-0.0000000000000142
 21
-145.0581946660626
 31
0.0
  0
LINE
  5
E297
330
E1CE
100
AcDbEntity
  8
AM_5
100
AcDbLine
 10
1.000000000000007
 20
-100.0
 30
0.0
 11
45.0581946660626
 21
-100.0
 31
0.0
  0
ARC
  5
E298
330
E1CE
100
AcDbEntity
  8
AM_5
100
AcDbCircle
 10
-0.0000000000000071
 20
-100.0
 30
0.0
 40
44.05819466606259
100
AcDbArc
 50
273.2515783612502
 51
356.7484216387497
  0
INSERT
  5
E299
330
E1CE
100
AcDbEntity
  8
AM_5
100
AcDbBlockReference
  2
_OPEN30
 10
-0.0000000000000142
 20
-144.0581946660626
 30
0.0
 41
2.5
 42
2.5
 43
2.5
 50
181.6257891806251
  0
INSERT
  5
E29A
330
E1CE
100
AcDbEntity
  8
AM_5
100
AcDbBlockReference
  2
_OPEN30
 10
44.05819466606259
 20
-100.0
 30
0.0
 41
2.5
 42
2.5
 43
2.5
 50
88.3742108193749
  0
MTEXT
  5
E29B
330
E1CE
100
AcDbEntity
  8
AM_5
 62
     2
100
AcDbMText
 10
28.96181719353151
 20
-128.9618171935315
 30
0.0
 40
3.2
 41
0.0
 71
     5
 72
     1
  1
90°
  7
ASAMI
 11
0.7071067811865476
 21
0.7071067811865475
 31
0.0
1001
ACAD
1000
MTEXTBEGIN
1070
    73
1070
     1
1070
    44
1040
1.0
1070
    74
1070
     0
1000
MTEXTEND
  0
POINT
  5
E29C
330
E1CE
100
AcDbEntity
  8
DEFPOINTS
 62
     0
100
AcDbPoint
 10
22.02909733303131
 20
-138.1555158256902
 30
0.0
  0
POINT
  5
E29D
330
E1CE
100
AcDbEntity
  8
DEFPOINTS
 62
     0
100
AcDbPoint
 10
-0.0000000000000213
 20
-100.0
 30
0.0
  0
POINT
  5
E29E
330
E1CE
100
AcDbEntity
  8
DEFPOINTS
 62
     0
100
AcDbPoint
 10
-0.0000000000000213
 20
100.0
 30
0.0
  0
POINT
  5
E29F
330
E1CE
100
AcDbEntity
  8
DEFPOINTS
 62
     0
100
AcDbPoint
 10
-0.0000000000000071
 20
-100.0
 30
0.0
  0
POINT
  5
E2A0
330
E1CE
100
AcDbEntity
  8
DEFPOINTS
 62
     0
100
AcDbPoint
 10
-0.3718220000001011
 20
-100.0
 30
0.0
  0
ENDBLK
  5
E1DF
330
E1CE
100
AcDbEntity
  8
0
100
AcDbBlockEnd
  0
ENDSEC
  0
SECTION
  2
ENTITIES
  0
TEXT
  5
E5A
330
1F
100
AcDbEntity
  8
AM_6
100
AcDbText
 10
-48.69047619047617
 20
-166.5000009999999
 30
0.0
 40
5.0
  1
CPG4200R
 72
     4
 11
-29.99999999999999
 21
-164.000001
 31
0.0
100
AcDbText
  0
LINE
  5
CBDB
330
1F
100
AcDbEntity
  8
AM_0
100
AcDbLine
 10
-46.5
 20
0.0
 30
0.0
 11
-46.49999999999999
 21
-11.70000000000001
 31
0.0
  0
LINE
  5
CBDC
330
1F
100
AcDbEntity
  8
AM_0
100
AcDbLine
 10
-23.5
 20
0.0
 30
0.0
 11
-23.5
 21
-23.81249999999997
 31
0.0
  0
LINE
  5
CBDD
330
1F
100
AcDbEntity
  8
AM_0
100
AcDbLine
 10
-22.0
 20
0.0
 30
0.0
 11
-22.00000000000011
 21
-50.00000000000003
 31
0.0
  0
LINE
  5
CBDE
330
1F
100
AcDbEntity
  8
AM_3
100
AcDbLine
 10
-28.69999999999993
 20
-96.75
 30
0.0
 11
-2.700000000000159
 21
-96.75000000000002
 31
0.0
  0
LINE
  5
CBDF
330
1F
100
AcDbEntity
  8
AM_0
100
AcDbLine
 10
-22.00000000000011
 20
-50.00000000000003
 30
0.0
 11
-4.665925826289367
 21
-54.64465117638702
 31
0.0
  0
LINE
  5
CBE0
330
1F
100
AcDbEntity
  8
AM_7
100
AcDbLine
 10
-66.9163445017075
 20
-50.80000000000001
 30
0.0
 11
1.372055404636512
 21
-50.80000000000001
 31
0.0
  0
LINE
  5
CBE1
330
1F
100
AcDbEntity
  8
AM_11
100
AcDbLine
 10
-28.00000000000011
 20
-63.80000000000001
 30
0.0
 11
-3.700000000000272
 21
-63.80000000000001
 31
0.0
  0
LINE
  5
CBE2
330
1F
100
AcDbEntity
  8
AM_0
100
AcDbLine
 10
-60.0
 20
-13.89999999999995
 30
0.0
 11
-60.0
 21
-63.30000000000001
 31
0.0
  0
LINE
  5
CBE3
330
1F
100
AcDbEntity
  8
AM_11
100
AcDbLine
 10
-59.0
 20
-41.80000000000001
 30
0.0
 11
-59.0
 21
-59.79999999999989
 31
0.0
  0
LINE
  5
CBE4
330
1F
100
AcDbEntity
  8
AM_11
100
AcDbLine
 10
-28.50000000000022
 20
-41.80000000000018
 30
0.0
 11
-28.50000000000022
 21
-59.79999999999987
 31
0.0
  0
LINE
  5
CBE5
330
1F
100
AcDbEntity
  8
AM_11
100
AcDbLine
 10
-28.0
 20
-37.79999999999998
 30
0.0
 11
-28.00000000000011
 21
-63.80000000000001
 31
0.0
  0
LINE
  5
CBE6
330
1F
100
AcDbEntity
  8
AM_3
100
AcDbLine
 10
-36.26490100000001
 20
-87.99999999999995
 30
0.0
 11
-33.10000000000002
 21
-88.0
 31
0.0
  0
LINE
  5
CBE7
330
1F
100
AcDbEntity
  8
AM_11
100
AcDbLine
 10
-59.0
 20
-59.79999999999998
 30
0.0
 11
-28.50000000000022
 21
-59.79999999999998
 31
0.0
  0
LINE
  5
CBE8
330
1F
100
AcDbEntity
  8
AM_0
100
AcDbLine
 10
-54.55268505574917
 20
-67.47905546699922
 30
0.0
 11
-50.13712436550486
 21
-92.52094453300079
 31
0.0
  0
LINE
  5
CBE9
330
1F
100
AcDbEntity
  8
AM_0
100
AcDbLine
 10
-47.18270110646823
 20
-95.0
 30
0.0
 11
-39.59999999999979
 21
-95.0
 31
0.0
  0
LINE
  5
CBEB
330
1F
100
AcDbEntity
  8
AM_3
100
AcDbLine
 10
-39.39029300000004
 20
-94.79029300000025
 30
0.0
 11
-39.09999999999979
 21
-94.50000000000001
 31
0.0
  0
LINE
  5
CBEC
330
1F
100
AcDbEntity
  8
AM_0
100
AcDbLine
 10
-39.60000000000013
 20
-89.99999999999994
 30
0.0
 11
-39.10000000000013
 21
-89.99999999999994
 31
0.0
  0
LINE
  5
CBED
330
1F
100
AcDbEntity
  8
AM_0
100
AcDbLine
 10
-39.60000000000013
 20
-87.99999999999995
 30
0.0
 11
-39.60000000000013
 21
-89.99999999999994
 31
0.0
  0
LINE
  5
CBEE
330
1F
100
AcDbEntity
  8
AM_3
100
AcDbLine
 10
-39.10000000000001
 20
-90.25659299999995
 30
0.0
 11
-39.09999999999979
 21
-94.50000000000001
 31
0.0
  0
LINE
  5
CBF0
330
1F
100
AcDbEntity
  8
AM_0
100
AcDbLine
 10
-58.29999999999995
 20
-65.0
 30
0.0
 11
-57.50710831478579
 21
-65.0
 31
0.0
  0
LINE
  5
CBF2
330
1F
100
AcDbEntity
  8
AM_11
100
AcDbLine
 10
-59.0
 20
-59.79999999999998
 30
0.0
 11
-60.0
 21
-60.79999999999998
 31
0.0
  0
LINE
  5
CBF3
330
1F
100
AcDbEntity
  8
AM_3
100
AcDbLine
 10
-28.70000000000004
 20
-96.75
 30
0.0
 11
-32.61703708685549
 21
-95.7004330758543
 31
0.0
  0
LINE
  5
CBF5
330
1F
100
AcDbEntity
  8
AM_3
100
AcDbLine
 10
-33.10000000000002
 20
-87.99999999999995
 30
0.0
 11
-33.10000000000002
 21
-95.07102355330305
 31
0.0
  0
LINE
  5
CBF6
330
1F
100
AcDbEntity
  8
AM_11
100
AcDbLine
 10
-28.50000000000011
 20
-59.79999999999998
 30
0.0
 11
-28.00000000000011
 21
-60.29999999999998
 31
0.0
  0
LINE
  5
CBF7
330
1F
100
AcDbEntity
  8
AM_0
100
AcDbLine
 10
-58.30000000000007
 20
-23.81249999999997
 30
0.0
 11
-23.5
 21
-23.8125
 31
0.0
  0
LINE
  5
CBF8
330
1F
100
AcDbEntity
  8
AM_11
100
AcDbLine
 10
-58.99999999999988
 20
-41.80000000000001
 30
0.0
 11
-28.5
 21
-41.80000000000001
 31
0.0
  0
LINE
  5
CBF9
330
1F
100
AcDbEntity
  8
AM_11
100
AcDbLine
 10
-59.0
 20
-41.80000000000001
 30
0.0
 11
-60.0
 21
-40.8
 31
0.0
  0
LINE
  5
CBFA
330
1F
100
AcDbEntity
  8
AM_0
100
AcDbLine
 10
-58.79999999999995
 20
-12.69999999999996
 30
0.0
 11
-47.5
 21
-12.70000000000001
 31
0.0
  0
LINE
  5
CBFB
330
1F
100
AcDbEntity
  8
AM_0
100
AcDbLine
 10
-58.29999999999984
 20
-12.69999999999996
 30
0.0
 11
-58.29999999999995
 21
-23.8125
 31
0.0
  0
LINE
  5
CBFF
330
1F
100
AcDbEntity
  8
AM_11
100
AcDbLine
 10
-28.0
 20
-37.79999999999998
 30
0.0
 11
-22.00000000000011
 21
-37.79999999999998
 31
0.0
  0
LINE
  5
CC00
330
1F
100
AcDbEntity
  8
AM_11
100
AcDbLine
 10
-28.50000000000011
 20
-41.80000000000001
 30
0.0
 11
-28.00000000000011
 21
-41.30000000000001
 31
0.0
  0
LINE
  5
CC01
330
1F
100
AcDbEntity
  8
AM_0
100
AcDbLine
 10
-23.5
 20
-23.8125
 30
0.0
 11
-22.00000000000011
 21
-25.3125
 31
0.0
  0
LINE
  5
CC02
330
1F
100
AcDbEntity
  8
AM_0
100
AcDbLine
 10
-3.700000000000272
 20
-75.5
 30
0.0
 11
-1.700000000000159
 21
-76.65470053837925
 31
0.0
  0
LINE
  5
CC03
330
1F
100
AcDbEntity
  8
AM_3
100
AcDbLine
 10
-1.700000000000159
 20
-79.25659299999995
 30
0.0
 11
-1.700000000000159
 21
-95.75000000000001
 31
0.0
  0
LINE
  5
CC05
330
1F
100
AcDbEntity
  8
AM_0
100
AcDbLine
 10
-3.700000000000386
 20
-68.5
 30
0.0
 11
-3.700000000000272
 21
-55.90347022148953
 31
0.0
  0
LINE
  5
CC06
330
1F
100
AcDbEntity
  8
AM_0
100
AcDbLine
 10
-3.700000000000272
 20
-72.5
 30
0.0
 11
-3.700000000000159
 21
-75.5
 31
0.0
  0
LINE
  5
CC07
330
1F
100
AcDbEntity
  8
AM_0
100
AcDbLine
 10
-3.700000000000272
 20
-72.5
 30
0.0
 11
-3.200000000000159
 21
-72.5
 31
0.0
  0
LINE
  5
CC08
330
1F
100
AcDbEntity
  8
AM_0
100
AcDbLine
 10
-3.700000000000386
 20
-68.5
 30
0.0
 11
-3.200000000000272
 21
-68.5
 31
0.0
  0
LINE
  5
CC0A
330
1F
100
AcDbEntity
  8
AM_0
100
AcDbLine
 10
-4.665925826289367
 20
-54.64465117638702
 30
0.0
 11
-3.700000000000272
 21
-55.90347022148953
 31
0.0
  0
LINE
  5
CC0B
330
1F
100
AcDbEntity
  8
AM_11
100
AcDbLine
 10
-28.00000000000011
 20
63.80000000000001
 30
0.0
 11
-3.700000000000272
 21
63.80000000000001
 31
0.0
  0
LINE
  5
CC0C
330
1F
100
AcDbEntity
  8
AM_7
100
AcDbLine
 10
-66.9163445017075
 20
50.80000000000001
 30
0.0
 11
1.372055404636512
 21
50.80000000000001
 31
0.0
  0
LINE
  5
CC0D
330
1F
100
AcDbEntity
  8
AM_0
100
AcDbLine
 10
-22.00000000000011
 20
50.00000000000003
 30
0.0
 11
-4.665925826289367
 21
54.64465117638702
 31
0.0
  0
LINE
  5
CC0E
330
1F
100
AcDbEntity
  8
AM_3
100
AcDbLine
 10
-28.69999999999993
 20
96.75
 30
0.0
 11
-2.700000000000158
 21
96.74999999999997
 31
0.0
  0
LINE
  5
CC0F
330
1F
100
AcDbEntity
  8
AM_7
100
AcDbLine
 10
-66.02638315698277
 20
0.0
 30
0.0
 11
3.322780880757392
 21
0.0
 31
0.0
  0
LINE
  5
CC10
330
1F
100
AcDbEntity
  8
AM_0
100
AcDbLine
 10
-54.55268505574919
 20
67.4790554669992
 30
0.0
 11
-50.13712436550473
 21
92.52094453300076
 31
0.0
  0
LINE
  5
CC11
330
1F
100
AcDbEntity
  8
AM_11
100
AcDbLine
 10
-28.0
 20
37.79999999999998
 30
0.0
 11
-28.00000000000011
 21
63.80000000000001
 31
0.0
  0
LINE
  5
CC12
330
1F
100
AcDbEntity
  8
AM_0
100
AcDbLine
 10
-22.0
 20
0.0
 30
0.0
 11
-22.00000000000011
 21
50.00000000000003
 31
0.0
  0
LINE
  5
CC13
330
1F
100
AcDbEntity
  8
AM_0
100
AcDbLine
 10
-60.0
 20
13.89999999999995
 30
0.0
 11
-60.0
 21
63.3
 31
0.0
  0
LINE
  5
CC14
330
1F
100
AcDbEntity
  8
AM_0
100
AcDbLine
 10
-58.3
 20
23.81249999999997
 30
0.0
 11
-23.5
 21
23.8125
 31
0.0
  0
LINE
  5
CC15
330
1F
100
AcDbEntity
  8
AM_0
100
AcDbLine
 10
-58.29999999999984
 20
12.69999999999996
 30
0.0
 11
-58.29999999999995
 21
23.8125
 31
0.0
  0
LINE
  5
CC16
330
1F
100
AcDbEntity
  8
AM_0
100
AcDbLine
 10
-58.79999999999999
 20
12.69999999999996
 30
0.0
 11
-47.5
 21
12.70000000000002
 31
0.0
  0
LINE
  5
CC18
330
1F
100
AcDbEntity
  8
AM_0
100
AcDbLine
 10
-46.5
 20
0.0
 30
0.0
 11
-46.49999999999999
 21
11.70000000000001
 31
0.0
  0
LINE
  5
CC1B
330
1F
100
AcDbEntity
  8
AM_0
100
AcDbLine
 10
-23.5
 20
0.0
 30
0.0
 11
-23.5
 21
23.81249999999997
 31
0.0
  0
LINE
  5
CC1C
330
1F
100
AcDbEntity
  8
AM_11
100
AcDbLine
 10
-28.0
 20
37.79999999999998
 30
0.0
 11
-22.00000000000011
 21
37.79999999999998
 31
0.0
  0
LINE
  5
CC1D
330
1F
100
AcDbEntity
  8
AM_0
100
AcDbLine
 10
-23.5
 20
23.8125
 30
0.0
 11
-22.00000000000011
 21
25.3125
 31
0.0
  0
LINE
  5
CC1E
330
1F
100
AcDbEntity
  8
AM_11
100
AcDbLine
 10
-58.99999999999988
 20
41.80000000000001
 30
0.0
 11
-28.5
 21
41.80000000000001
 31
0.0
  0
LINE
  5
CC1F
330
1F
100
AcDbEntity
  8
AM_11
100
AcDbLine
 10
-59.0
 20
59.79999999999998
 30
0.0
 11
-28.50000000000022
 21
59.79999999999998
 31
0.0
  0
LINE
  5
CC20
330
1F
100
AcDbEntity
  8
AM_11
100
AcDbLine
 10
-59.0
 20
41.80000000000001
 30
0.0
 11
-59.0
 21
59.79999999999989
 31
0.0
  0
LINE
  5
CC21
330
1F
100
AcDbEntity
  8
AM_11
100
AcDbLine
 10
-59.0
 20
41.80000000000001
 30
0.0
 11
-60.0
 21
40.8
 31
0.0
  0
LINE
  5
CC22
330
1F
100
AcDbEntity
  8
AM_11
100
AcDbLine
 10
-59.0
 20
59.79999999999998
 30
0.0
 11
-60.0
 21
60.79999999999998
 31
0.0
  0
LINE
  5
CC25
330
1F
100
AcDbEntity
  8
AM_0
100
AcDbLine
 10
-58.3
 20
65.0
 30
0.0
 11
-57.50710831478581
 21
65.0
 31
0.0
  0
LINE
  5
CC26
330
1F
100
AcDbEntity
  8
AM_11
100
AcDbLine
 10
-28.50000000000022
 20
41.80000000000018
 30
0.0
 11
-28.50000000000022
 21
59.79999999999987
 31
0.0
  0
LINE
  5
CC27
330
1F
100
AcDbEntity
  8
AM_11
100
AcDbLine
 10
-28.50000000000011
 20
41.80000000000001
 30
0.0
 11
-28.00000000000011
 21
41.30000000000001
 31
0.0
  0
LINE
  5
CC28
330
1F
100
AcDbEntity
  8
AM_11
100
AcDbLine
 10
-28.50000000000011
 20
59.79999999999998
 30
0.0
 11
-28.00000000000011
 21
60.29999999999998
 31
0.0
  0
LINE
  5
CC29
330
1F
100
AcDbEntity
  8
AM_3
100
AcDbLine
 10
-36.26490100000001
 20
87.99999999999995
 30
0.0
 11
-33.10000000000002
 21
87.99999999999997
 31
0.0
  0
LINE
  5
CC2A
330
1F
100
AcDbEntity
  8
AM_0
100
AcDbLine
 10
-47.18270110646812
 20
94.99999999999996
 30
0.0
 11
-39.59999999999979
 21
94.99999999999998
 31
0.0
  0
LINE
  5
CC2C
330
1F
100
AcDbEntity
  8
AM_3
100
AcDbLine
 10
-39.39029300000004
 20
94.79029300000021
 30
0.0
 11
-39.09999999999979
 21
94.49999999999997
 31
0.0
  0
LINE
  5
CC2D
330
1F
100
AcDbEntity
  8
AM_0
100
AcDbLine
 10
-39.60000000000013
 20
87.99999999999995
 30
0.0
 11
-39.60000000000013
 21
89.99999999999994
 31
0.0
  0
LINE
  5
CC2E
330
1F
100
AcDbEntity
  8
AM_0
100
AcDbLine
 10
-39.60000000000013
 20
89.99999999999994
 30
0.0
 11
-39.10000000000013
 21
89.99999999999994
 31
0.0
  0
LINE
  5
CC2F
330
1F
100
AcDbEntity
  8
AM_3
100
AcDbLine
 10
-39.10000000000001
 20
90.25659299999995
 30
0.0
 11
-39.09999999999979
 21
94.49999999999997
 31
0.0
  0
LINE
  5
CC30
330
1F
100
AcDbEntity
  8
AM_3
100
AcDbLine
 10
-28.70000000000004
 20
96.74999999999997
 30
0.0
 11
-32.61703708685549
 21
95.70043307585434
 31
0.0
  0
LINE
  5
CC32
330
1F
100
AcDbEntity
  8
AM_3
100
AcDbLine
 10
-33.10000000000002
 20
87.99999999999995
 30
0.0
 11
-33.10000000000002
 21
95.07102355330308
 31
0.0
  0
LINE
  5
CC33
330
1F
100
AcDbEntity
  8
AM_3
100
AcDbLine
 10
-1.700000000000159
 20
79.25659299999995
 30
0.0
 11
-1.700000000000159
 21
95.74999999999997
 31
0.0
  0
LINE
  5
CC34
330
1F
100
AcDbEntity
  8
AM_0
100
AcDbLine
 10
-3.700000000000386
 20
68.5
 30
0.0
 11
-3.700000000000272
 21
55.90347022148953
 31
0.0
  0
LINE
  5
CC35
330
1F
100
AcDbEntity
  8
AM_0
100
AcDbLine
 10
-4.665925826289367
 20
54.64465117638702
 30
0.0
 11
-3.700000000000272
 21
55.90347022148953
 31
0.0
  0
LINE
  5
CC36
330
1F
100
AcDbEntity
  8
AM_0
100
AcDbLine
 10
-3.700000000000272
 20
72.5
 30
0.0
 11
-3.700000000000159
 21
75.5
 31
0.0
  0
LINE
  5
CC37
330
1F
100
AcDbEntity
  8
AM_0
100
AcDbLine
 10
-3.700000000000386
 20
68.5
 30
0.0
 11
-3.200000000000272
 21
68.5
 31
0.0
  0
LINE
  5
CC38
330
1F
100
AcDbEntity
  8
AM_0
100
AcDbLine
 10
-3.200000000000159
 20
72.5
 30
0.0
 11
-3.200000000000159
 21
-72.5
 31
0.0
  0
LINE
  5
CC39
330
1F
100
AcDbEntity
  8
AM_0
100
AcDbLine
 10
-3.700000000000272
 20
72.5
 30
0.0
 11
-3.200000000000159
 21
72.5
 31
0.0
  0
LINE
  5
CC3A
330
1F
100
AcDbEntity
  8
AM_0
100
AcDbLine
 10
-3.700000000000272
 20
75.5
 30
0.0
 11
-1.700000000000159
 21
76.65470053837925
 31
0.0
  0
ELLIPSE
  5
DC47
330
1F
100
AcDbEntity
  8
AM_0
100
AcDbEllipse
 10
-57.79999999999984
 20
0.0
 30
0.0
 11
-0.0000000000000568
 21
12.69999999999996
 31
0.0
210
0.0
220
0.0
230
1.0
 40
0.3582677165354217
 41
3.141592653589793
 42
6.283185307179586
  0
DIMENSION
  5
DD61
330
1F
100
AcDbEntity
  8
AM_5
100
AcDbDimension
  2
*D6
 10
-90.9163455017075
 20
-23.81249999999996
 30
0.0
 11
-94.01634550170749
 21
0.0000000000000095
 31
0.0
 70
    32
  1
%%c<>
  3
AM_JIS
100
AcDbAlignedDimension
 13
-58.29999999999995
 23
23.8125
 33
0.0
 14
-58.2999999999999
 24
-23.81249999999997
 34
0.0
 50
90.0
100
AcDbRotatedDimension
1001
GENIUS_GENDTOL_13
1000

1000
h7
1000

1040
0.0
  0
DIMENSION
  5
DD62
330
1F
100
AcDbEntity
  8
AM_5
100
AcDbDimension
  2
*D5
 10
-100.9163455017074
 20
-64.99999999999999
 30
0.0
 11
-104.0163455017074
 21
-0.0000000000000077
 31
0.0
 70
    32
  1
%%c<>
  3
AM_JIS
100
AcDbAlignedDimension
 13
-58.29999999999995
 23
65.0
 33
0.0
 14
-58.30000000000007
 24
-65.0
 34
0.0
 50
90.0
100
AcDbRotatedDimension
1001
GENIUS_GENDTOL_13
1000

1000
h7
1000

1040
0.0
  0
DIMENSION
  5
DD63
330
1F
100
AcDbEntity
  8
AM_5
100
AcDbDimension
  2
*D7
 10
-80.9163455017075
 20
-12.69999999999995
 30
0.0
 11
-80.9163455017075
 21
-0.0000000000000284
 31
0.0
 70
   160
  3
AM_JIS
100
AcDbAlignedDimension
 13
-58.79999999999995
 23
12.69999999999996
 33
0.0
 14
-58.79999999999995
 24
-12.69999999999996
 34
0.0
 50
90.0
100
AcDbRotatedDimension
  0
DIMENSION
  5
DDB5
330
1F
100
AcDbEntity
  8
AM_5
100
AcDbDimension
  2
*D8
 10
-46.50000000000001
 20
-114.000001
 30
0.0
 11
-53.25
 21
-110.900001
 31
0.0
 70
    32
  3
AM_JIS
100
AcDbAlignedDimension
 13
-60.0
 23
-63.3
 33
0.0
 14
-46.5
 24
-11.70000000000001
 34
0.0
100
AcDbRotatedDimension
  0
DIMENSION
  5
DDB6
330
1F
100
AcDbEntity
  8
AM_5
100
AcDbDimension
  2
*D9
 10
-0.0000000000000027
 20
-144.000001
 30
0.0
 11
-30.0
 21
-140.9000009999999
 31
0.0
 70
    32
  3
AM_JIS
100
AcDbAlignedDimension
 13
-60.0
 23
-63.3
 33
0.0
 14
0.0
 24
-100.0
 34
0.0
100
AcDbRotatedDimension
  0
DIMENSION
  5
DDB7
330
1F
100
AcDbEntity
  8
AM_5
100
AcDbDimension
  2
*D10
 10
-22.00000000000011
 20
-134.000001
 30
0.0
 11
-41.00000000000006
 21
-130.900001
 31
0.0
 70
    32
  3
AM_JIS
100
AcDbAlignedDimension
 13
-60.0
 23
-63.3
 33
0.0
 14
-22.00000000000011
 24
-50.00000000000003
 34
0.0
100
AcDbRotatedDimension
  0
DIMENSION
  5
DDF7
330
1F
100
AcDbEntity
  8
AM_5
100
AcDbDimension
  2
*D11
 10
17.32278188075738
 20
-50.00000000000004
 30
0.0
 11
14.2227818807574
 21
-0.0000000000000078
 31
0.0
 70
    32
  1
%%c<>
  3
AM_JIS$0
100
AcDbAlignedDimension
 13
-22.00000000000011
 23
50.00000000000003
 33
0.0
 14
-22.00000000000011
 24
-50.00000000000003
 34
0.0
 50
90.0
100
AcDbRotatedDimension
1001
ACAD
1000
DSTYLE
1002
{
1070
    40
1040
1.0
1070
    43
1040
12.0
1070
   140
1040
3.2
1070
   147
1040
1.5
1070
   178
1070
     2
1002
}
1001
GENIUS_GENDTOL_13
1000

1000
h7
1000

1040
0.0
  0
DIMENSION
  5
DDF8
330
1F
100
AcDbEntity
  8
AM_5
100
AcDbDimension
  2
*D12
 10
44.05819466606259
 20
-100.0
 30
0.0
 11
40.95819466606261
 21
-0.0000000000000023
 31
0.0
 70
    32
  1
%%c<>
  3
AM_JIS$0
100
AcDbAlignedDimension
 13
-0.0000000000000284
 23
100.0
 33
0.0
 14
0.0
 24
-100.0
 34
0.0
 50
90.0
100
AcDbRotatedDimension
1001
ACAD
1000
DSTYLE
1002
{
1070
    40
1040
1.0
1070
    43
1040
12.0
1070
   140
1040
3.2
1070
   147
1040
1.5
1070
   178
1070
     2
1002
}
1001
GENIUS_GENDTOL_13
1000

1000
h7
1000

1040
0.0
  0
LINE
  5
DFD4
330
1F
100
AcDbEntity
  8
0
100
AcDbLine
 10
-0.0000000000000284
 20
99.66532999999976
 30
0.0
 11
-0.0082000000000164
 21
98.24817699999966
 31
0.0
  0
LINE
  5
DFD5
330
1F
100
AcDbEntity
  8
AM_11
100
AcDbLine
 10
-0.0000000000000284
 20
100.0
 30
0.0
 11
-0.371822000000094
 21
100.0
 31
0.0
  0
LINE
  5
DFD6
330
1F
100
AcDbEntity
  8
0
100
AcDbLine
 10
-0.0000000000000284
 20
99.66533000000005
 30
0.0
 11
-0.371822000000094
 21
100.0
 31
0.0
  0
LINE
  5
DFD7
330
1F
100
AcDbEntity
  8
AM_11
100
AcDbLine
 10
-0.0000000000000284
 20
100.0
 30
0.0
 11
0.0
 21
-100.0
 31
0.0
  0
LINE
  5
DFD8
330
1F
100
AcDbEntity
  8
0
100
AcDbLine
 10
-1.657376000000027
 20
95.35659299999997
 30
0.0
 11
-0.0082000000000164
 21
98.24817699999995
 31
0.0
  0
LINE
  5
DFD9
330
1F
100
AcDbEntity
  8
0
100
AcDbLine
 10
-0.593824000000069
 20
79.25659299999995
 30
0.0
 11
-0.593824000000069
 21
95.35659299999997
 31
0.0
  0
LINE
  5
DFDA
330
1F
100
AcDbEntity
  8
0
100
AcDbLine
 10
-1.597297000000054
 20
90.74154499999997
 30
0.0
 11
-1.022390999999998
 21
95.35659299999997
 31
0.0
  0
LINE
  5
DFDB
330
1F
100
AcDbEntity
  8
0
100
AcDbLine
 10
-0.593824000000069
 20
95.35659299999997
 30
0.0
 11
-1.022390999999998
 21
95.35659299999997
 31
0.0
  0
LINE
  5
DFDC
330
1F
100
AcDbEntity
  8
0
100
AcDbLine
 10
-0.9229430000000604
 20
96.64431200000002
 30
0.0
 11
-0.9229430000000604
 21
95.35659299999997
 31
0.0
  0
LINE
  5
DFDD
330
1F
100
AcDbEntity
  8
0
100
AcDbLine
 10
-1.657376000000027
 20
95.35659299999997
 30
0.0
 11
-1.022390999999998
 21
95.35659299999997
 31
0.0
  0
LINE
  5
DFDE
330
1F
100
AcDbEntity
  8
0
100
AcDbLine
 10
-1.597297000000054
 20
90.74154499999997
 30
0.0
 11
-39.39029300000004
 21
90.74154499999997
 31
0.0
  0
LINE
  5
DFDF
330
1F
100
AcDbEntity
  8
0
100
AcDbLine
 10
-18.23379600000001
 20
95.35659299999997
 30
0.0
 11
-1.657376000000027
 21
95.35659299999997
 31
0.0
  0
LINE
  5
DFE0
330
1F
100
AcDbEntity
  8
0
100
AcDbLine
 10
-1.597297000000054
 20
90.74154499999997
 30
0.0
 11
-1.597297000000054
 21
79.25659299999995
 31
0.0
  0
LINE
  5
DFE1
330
1F
100
AcDbEntity
  8
0
100
AcDbLine
 10
-18.87029000000009
 20
99.94589399999995
 30
0.0
 11
-0.371822000000094
 21
100.0
 31
0.0
  0
LINE
  5
DFE2
330
1F
100
AcDbEntity
  8
0
100
AcDbLine
 10
-21.36689800000002
 20
98.25659299999996
 30
0.0
 11
-26.54091199999996
 21
98.25659299999996
 31
0.0
  0
LINE
  5
DFE3
330
1F
100
AcDbEntity
  8
0
100
AcDbLine
 10
-28.83036400000006
 20
98.25659299999996
 30
0.0
 11
-39.39029300000004
 21
95.41148299999997
 31
0.0
  0
LINE
  5
DFE4
330
1F
100
AcDbEntity
  8
0
100
AcDbLine
 10
-26.54091199999996
 20
98.25659299999996
 30
0.0
 11
-28.83036400000006
 21
98.25659299999996
 31
0.0
  0
LINE
  5
DFE5
330
1F
100
AcDbEntity
  8
0
100
AcDbLine
 10
-26.54091199999996
 20
98.25659299999996
 30
0.0
 11
-27.0494590000001
 21
95.35659299999997
 31
0.0
  0
LINE
  5
DFE6
330
1F
100
AcDbEntity
  8
0
100
AcDbLine
 10
-18.87029000000009
 20
99.94589399999995
 30
0.0
 11
-20.09495700000005
 21
99.244458
 31
0.0
  0
LINE
  5
DFE7
330
1F
100
AcDbEntity
  8
0
100
AcDbLine
 10
-19.91014500000008
 20
98.25659299999996
 30
0.0
 11
-21.36689800000002
 21
98.25659299999996
 31
0.0
  0
LINE
  5
DFE8
330
1F
100
AcDbEntity
  8
0
100
AcDbLine
 10
-21.87544500000004
 20
95.35659299999997
 30
0.0
 11
-21.36689800000002
 21
98.25659299999996
 31
0.0
  0
LINE
  5
DFE9
330
1F
100
AcDbEntity
  8
0
100
AcDbLine
 10
-19.91014500000008
 20
98.25659299999996
 30
0.0
 11
-20.19729099999997
 21
98.75334099999998
 31
0.0
  0
LINE
  5
DFEA
330
1F
100
AcDbEntity
  8
0
100
AcDbLine
 10
-20.09495700000005
 20
99.244458
 30
0.0
 11
-20.19729099999997
 21
98.75334099999998
 31
0.0
  0
ELLIPSE
  5
DFEB
330
1F
100
AcDbEntity
  8
0
100
AcDbEllipse
 10
-24.71412599999999
 20
94.51749299999994
 30
0.0
 11
2.725014042142
 21
1.215857633035
 31
0.0
210
0.0
220
0.0
230
1.0
 40
0.7197076099236
 41
-0.451819871910055
 42
-0.182791786754033
  0
ELLIPSE
  5
DFEC
330
1F
100
AcDbEntity
  8
0
100
AcDbEllipse
 10
-24.71412599999999
 20
94.51749299999994
 30
0.0
 11
2.725014042142
 21
1.215857633035
 31
0.0
210
0.0
220
0.0
230
1.0
 40
0.7197076099236
 41
2.689771956990409
 42
5.831365047675119
  0
ELLIPSE
  5
DFED
330
1F
100
AcDbEntity
  8
0
100
AcDbEllipse
 10
-24.71412599999999
 20
94.51749299999994
 30
0.0
 11
2.725014042142
 21
1.215857633035
 31
0.0
210
0.0
220
0.0
230
1.0
 40
0.7197076099236
 41
2.214463915846009
 42
2.689771956990409
  0
LINE
  5
DFEE
330
1F
100
AcDbEntity
  8
0
100
AcDbLine
 10
-27.0494590000001
 20
95.35659299999997
 30
0.0
 11
-39.39029300000004
 21
95.35659299999997
 31
0.0
  0
LINE
  5
DFEF
330
1F
100
AcDbEntity
  8
0
100
AcDbLine
 10
-18.23379600000001
 20
95.35659299999997
 30
0.0
 11
-21.87544500000004
 21
95.35659299999997
 31
0.0
  0
LINE
  5
DFF0
330
1F
100
AcDbEntity
  8
0
100
AcDbLine
 10
-39.39029300000004
 20
95.35659299999997
 30
0.0
 11
-39.39029300000004
 21
90.74154499999997
 31
0.0
  0
LINE
  5
DFF1
330
1F
100
AcDbEntity
  8
AM_0
100
AcDbLine
 10
-39.39029300000004
 20
95.41148299999997
 30
0.0
 11
-39.39029300000004
 21
95.35659299999997
 31
0.0
  0
LINE
  5
DFF2
330
1F
100
AcDbEntity
  8
0
100
AcDbLine
 10
-36.26490100000001
 20
79.25659299999995
 30
0.0
 11
-36.26490100000001
 21
90.25659299999995
 31
0.0
  0
LINE
  5
DFF3
330
1F
100
AcDbEntity
  8
0
100
AcDbLine
 10
-39.39029300000004
 20
90.25659299999995
 30
0.0
 11
-31.72597500000009
 21
90.25659299999995
 31
0.0
  0
LINE
  5
DFF4
330
1F
100
AcDbEntity
  8
0
100
AcDbLine
 10
-39.39029300000004
 20
90.74154499999997
 30
0.0
 11
-39.39029300000004
 21
90.25659299999995
 31
0.0
  0
LINE
  5
DFF5
330
1F
100
AcDbEntity
  8
0
100
AcDbLine
 10
-31.72597500000009
 20
90.25659299999995
 30
0.0
 11
-31.72597500000009
 21
79.25659299999995
 31
0.0
  0
LINE
  5
DFF6
330
1F
100
AcDbEntity
  8
0
100
AcDbLine
 10
-1.597297000000054
 20
79.25659299999995
 30
0.0
 11
-31.72597500000009
 21
79.25659299999995
 31
0.0
  0
LINE
  5
DFF7
330
1F
100
AcDbEntity
  8
0
100
AcDbLine
 10
-36.26490100000001
 20
79.25659299999995
 30
0.0
 11
-31.72597500000009
 21
79.25659299999995
 31
0.0
  0
LINE
  5
DFF8
330
1F
100
AcDbEntity
  8
0
100
AcDbLine
 10
-0.593824000000069
 20
79.25659299999995
 30
0.0
 11
-1.597297000000054
 21
79.25659299999995
 31
0.0
  0
LINE
  5
E005
330
1F
100
AcDbEntity
  8
0
100
AcDbLine
 10
-18.87029000000009
 20
-99.94589399999995
 30
0.0
 11
-0.371822000000094
 21
-100.0
 31
0.0
  0
LINE
  5
E006
330
1F
100
AcDbEntity
  8
0
100
AcDbLine
 10
-0.0000000000000284
 20
-99.66533000000005
 30
0.0
 11
-0.371822000000094
 21
-100.0
 31
0.0
  0
LINE
  5
E007
330
1F
100
AcDbEntity
  8
AM_11
100
AcDbLine
 10
-0.0000000000000284
 20
-100.0
 30
0.0
 11
-0.371822000000094
 21
-100.0
 31
0.0
  0
LINE
  5
E008
330
1F
100
AcDbEntity
  8
0
100
AcDbLine
 10
-0.593824000000069
 20
-79.25659299999995
 30
0.0
 11
-0.593824000000069
 21
-95.35659299999997
 31
0.0
  0
LINE
  5
E009
330
1F
100
AcDbEntity
  8
0
100
AcDbLine
 10
-1.597297000000054
 20
-90.74154499999997
 30
0.0
 11
-1.022390999999998
 21
-95.35659299999997
 31
0.0
  0
LINE
  5
E00A
330
1F
100
AcDbEntity
  8
0
100
AcDbLine
 10
-1.657376000000027
 20
-95.35659299999997
 30
0.0
 11
-1.022390999999998
 21
-95.35659299999997
 31
0.0
  0
LINE
  5
E00B
330
1F
100
AcDbEntity
  8
0
100
AcDbLine
 10
-0.9229430000000604
 20
-96.64431200000002
 30
0.0
 11
-0.9229430000000604
 21
-95.35659299999997
 31
0.0
  0
LINE
  5
E00C
330
1F
100
AcDbEntity
  8
0
100
AcDbLine
 10
-0.593824000000069
 20
-95.35659299999997
 30
0.0
 11
-1.022390999999998
 21
-95.35659299999997
 31
0.0
  0
LINE
  5
E00D
330
1F
100
AcDbEntity
  8
0
100
AcDbLine
 10
-1.657376000000027
 20
-95.35659299999997
 30
0.0
 11
-0.0082000000000164
 21
-98.24817699999995
 31
0.0
  0
LINE
  5
E00E
330
1F
100
AcDbEntity
  8
0
100
AcDbLine
 10
-18.23379600000001
 20
-95.35659299999997
 30
0.0
 11
-1.657376000000027
 21
-95.35659299999997
 31
0.0
  0
LINE
  5
E00F
330
1F
100
AcDbEntity
  8
0
100
AcDbLine
 10
-1.597297000000054
 20
-90.74154499999997
 30
0.0
 11
-39.39029300000004
 21
-90.74154499999997
 31
0.0
  0
LINE
  5
E010
330
1F
100
AcDbEntity
  8
0
100
AcDbLine
 10
-1.597297000000054
 20
-90.74154499999997
 30
0.0
 11
-1.597297000000054
 21
-79.25659299999995
 31
0.0
  0
LINE
  5
E011
330
1F
100
AcDbEntity
  8
0
100
AcDbLine
 10
-0.593824000000069
 20
-79.25659299999995
 30
0.0
 11
-1.597297000000054
 21
-79.25659299999995
 31
0.0
  0
LINE
  5
E012
330
1F
100
AcDbEntity
  8
0
100
AcDbLine
 10
-1.597297000000054
 20
-79.25659299999995
 30
0.0
 11
-31.72597500000009
 21
-79.25659299999995
 31
0.0
  0
LINE
  5
E013
330
1F
100
AcDbEntity
  8
0
100
AcDbLine
 10
-31.72597500000009
 20
-90.25659299999995
 30
0.0
 11
-31.72597500000009
 21
-79.25659299999995
 31
0.0
  0
LINE
  5
E014
330
1F
100
AcDbEntity
  8
0
100
AcDbLine
 10
-36.26490100000001
 20
-79.25659299999995
 30
0.0
 11
-36.26490100000001
 21
-90.25659299999995
 31
0.0
  0
LINE
  5
E015
330
1F
100
AcDbEntity
  8
0
100
AcDbLine
 10
-36.26490100000001
 20
-79.25659299999995
 30
0.0
 11
-31.72597500000009
 21
-79.25659299999995
 31
0.0
  0
LINE
  5
E016
330
1F
100
AcDbEntity
  8
0
100
AcDbLine
 10
-21.36689800000002
 20
-98.25659299999996
 30
0.0
 11
-26.54091199999996
 21
-98.25659299999996
 31
0.0
  0
LINE
  5
E017
330
1F
100
AcDbEntity
  8
0
100
AcDbLine
 10
-28.83036400000006
 20
-98.25659299999996
 30
0.0
 11
-39.39029300000004
 21
-95.41148299999997
 31
0.0
  0
LINE
  5
E018
330
1F
100
AcDbEntity
  8
0
100
AcDbLine
 10
-26.54091199999996
 20
-98.25659299999996
 30
0.0
 11
-27.0494590000001
 21
-95.35659299999997
 31
0.0
  0
LINE
  5
E019
330
1F
100
AcDbEntity
  8
0
100
AcDbLine
 10
-26.54091199999996
 20
-98.25659299999996
 30
0.0
 11
-28.83036400000006
 21
-98.25659299999996
 31
0.0
  0
LINE
  5
E01A
330
1F
100
AcDbEntity
  8
0
100
AcDbLine
 10
-18.87029000000009
 20
-99.94589399999995
 30
0.0
 11
-20.09495700000005
 21
-99.244458
 31
0.0
  0
LINE
  5
E01B
330
1F
100
AcDbEntity
  8
0
100
AcDbLine
 10
-20.09495700000005
 20
-99.244458
 30
0.0
 11
-20.19729099999997
 21
-98.75334099999998
 31
0.0
  0
LINE
  5
E01C
330
1F
100
AcDbEntity
  8
0
100
AcDbLine
 10
-19.91014500000008
 20
-98.25659299999996
 30
0.0
 11
-20.19729099999997
 21
-98.75334099999998
 31
0.0
  0
LINE
  5
E01D
330
1F
100
AcDbEntity
  8
0
100
AcDbLine
 10
-21.87544500000004
 20
-95.35659299999997
 30
0.0
 11
-21.36689800000002
 21
-98.25659299999996
 31
0.0
  0
LINE
  5
E01E
330
1F
100
AcDbEntity
  8
0
100
AcDbLine
 10
-19.91014500000008
 20
-98.25659299999996
 30
0.0
 11
-21.36689800000002
 21
-98.25659299999996
 31
0.0
  0
ELLIPSE
  5
E01F
330
1F
100
AcDbEntity
  8
0
100
AcDbEllipse
 10
-24.71412599999999
 20
-94.51749299999994
 30
0.0
 11
2.725014042142
 21
-1.215857633035
 31
0.0
210
0.0
220
0.0
230
-1.0
 40
0.7197076099236
 41
2.214463915846009
 42
2.689771956990409
  0
ELLIPSE
  5
E020
330
1F
100
AcDbEntity
  8
0
100
AcDbEllipse
 10
-24.71412599999999
 20
-94.51749299999994
 30
0.0
 11
2.725014042142
 21
-1.215857633035
 31
0.0
210
0.0
220
0.0
230
-1.0
 40
0.7197076099236
 41
2.689771956990409
 42
5.831365047675119
  0
ELLIPSE
  5
E021
330
1F
100
AcDbEntity
  8
0
100
AcDbEllipse
 10
-24.71412599999999
 20
-94.51749299999994
 30
0.0
 11
2.725014042142
 21
-1.215857633035
 31
0.0
210
0.0
220
0.0
230
-1.0
 40
0.7197076099236
 41
-0.451819871910055
 42
-0.182791786754033
  0
LINE
  5
E022
330
1F
100
AcDbEntity
  8
0
100
AcDbLine
 10
-27.0494590000001
 20
-95.35659299999997
 30
0.0
 11
-39.39029300000004
 21
-95.35659299999997
 31
0.0
  0
LINE
  5
E023
330
1F
100
AcDbEntity
  8
0
100
AcDbLine
 10
-18.23379600000001
 20
-95.35659299999997
 30
0.0
 11
-21.87544500000004
 21
-95.35659299999997
 31
0.0
  0
LINE
  5
E024
330
1F
100
AcDbEntity
  8
0
100
AcDbLine
 10
-39.39029300000004
 20
-95.35659299999997
 30
0.0
 11
-39.39029300000004
 21
-90.74154499999997
 31
0.0
  0
LINE
  5
E025
330
1F
100
AcDbEntity
  8
AM_0
100
AcDbLine
 10
-39.39029300000004
 20
-95.41148299999997
 30
0.0
 11
-39.39029300000004
 21
-95.35659299999997
 31
0.0
  0
LINE
  5
E026
330
1F
100
AcDbEntity
  8
0
100
AcDbLine
 10
-39.39029300000004
 20
-90.74154499999997
 30
0.0
 11
-39.39029300000004
 21
-90.25659299999995
 31
0.0
  0
LINE
  5
E027
330
1F
100
AcDbEntity
  8
0
100
AcDbLine
 10
-39.39029300000004
 20
-90.25659299999995
 30
0.0
 11
-31.72597500000009
 21
-90.25659299999995
 31
0.0
  0
LINE
  5
E028
330
1F
100
AcDbEntity
  8
0
100
AcDbLine
 10
-0.0000000000000284
 20
-99.66532999999976
 30
0.0
 11
-0.0082000000000164
 21
-98.24817699999966
 31
0.0
  0
DIMENSION
  5
E091
330
1F
100
AcDbEntity
  8
AM_5
100
AcDbDimension
  2
*D13
 10
-27.99999999999991
 20
-124.0000009999999
 30
0.0
 11
-43.99999999999996
 21
-120.9000009999999
 31
0.0
 70
    32
  1
<>
  3
AM_JIS$0
100
AcDbAlignedDimension
 13
-60.0
 23
-63.30000000000001
 33
0.0
 14
-27.99999999999991
 24
-63.80000000000001
 34
0.0
100
AcDbRotatedDimension
1001
GENIUS_GENDTOL_13
1000

1000
h7
1000

1040
0.0
1001
ACAD
1000
DSTYLE
1002
{
1070
    40
1040
1.0
1070
    43
1040
12.0
1070
   140
1040
3.2
1070
   147
1040
1.5
1070
   178
1070
     2
1002
}
  0
LINE
  5
E19F
330
1F
100
AcDbEntity
  8
AM_0
100
AcDbLine
 10
-1.700000000000159
 20
-76.65470053837925
 30
0.0
 11
-1.700000000000157
 21
-79.25659299999995
 31
0.0
  0
LINE
  5
E1A0
330
1F
100
AcDbEntity
  8
AM_0
100
AcDbLine
 10
-39.60000000000013
 20
-87.99999999999995
 30
0.0
 11
-36.26490100000001
 21
-87.99999999999995
 31
0.0
  0
LINE
  5
E1A1
330
1F
100
AcDbEntity
  8
AM_0
100
AcDbLine
 10
-39.10000000000001
 20
-90.25659299999995
 30
0.0
 11
-39.10000000000013
 21
-89.99999999999994
 31
0.0
  0
LINE
  5
E1A2
330
1F
100
AcDbEntity
  8
AM_0
100
AcDbLine
 10
-39.39029300000004
 20
-94.79029300000025
 30
0.0
 11
-39.59999999999979
 21
-95.0
 31
0.0
  0
LINE
  5
E1A3
330
1F
100
AcDbEntity
  8
AM_0
100
AcDbLine
 10
-39.59999999999979
 20
94.99999999999998
 30
0.0
 11
-39.39029300000004
 21
94.79029300000021
 31
0.0
  0
LINE
  5
E1A4
330
1F
100
AcDbEntity
  8
AM_0
100
AcDbLine
 10
-39.10000000000001
 20
90.25659299999995
 30
0.0
 11
-39.10000000000013
 21
89.99999999999994
 31
0.0
  0
LINE
  5
E1A5
330
1F
100
AcDbEntity
  8
AM_0
100
AcDbLine
 10
-39.60000000000013
 20
87.99999999999995
 30
0.0
 11
-36.26490100000001
 21
87.99999999999995
 31
0.0
  0
LINE
  5
E1A6
330
1F
100
AcDbEntity
  8
AM_0
100
AcDbLine
 10
-1.700000000000159
 20
76.65470053837925
 30
0.0
 11
-1.70000000000016
 21
79.25659299999995
 31
0.0
  0
LINE
  5
E1A7
330
1F
100
AcDbEntity
  8
AM_0
100
AcDbLine
 10
-1.700000000000159
 20
76.65470053837925
 30
0.0
 11
-1.700000000000159
 21
-76.65470053837925
 31
0.0
  0
LINE
  5
E1A8
330
1F
100
AcDbEntity
  8
AM_0
100
AcDbLine
 10
-3.700000000000272
 20
-55.90347022148953
 30
0.0
 11
-3.700000000000272
 21
55.90347022148953
 31
0.0
  0
DIMENSION
  5
E1CD
330
1F
100
AcDbEntity
  8
AM_5
100
AcDbDimension
  2
*D14
 10
-0.371822000000094
 20
-100.0
 30
0.0
 11
28.96181719353153
 21
-128.9618171935315
 31
0.0
 70
    34
  1
<>
  3
AM_JIS$2
100
AcDb2LineAngularDimension
 13
-0.0000000000000284
 23
100.0
 33
0.0
 14
0.0
 24
-100.0
 34
0.0
 15
-0.0000000000000284
 25
-100.0
 35
0.0
 16
22.02909733303131
 26
-138.1555158256902
 36
0.0
1001
ACAD
1000
DSTYLE
1002
{
1070
   179
1070
     3
1002
}
1001
GENIUS_GENDTOL_13
1000

1000
h7
1000

1040
0.0
  0
LINE
  5
E2CE
330
1F
100
AcDbEntity
  8
AM_3
100
AcDbLine
 10
-33.10000000000002
 20
-95.07102355330305
 30
0.0
 11
-32.61703708685549
 21
-95.7004330758543
 31
0.0
1001
GENIUS_GENFIL_13
1070
     0
1040
0.5
1040
0.5
1040
20.0
1040
0.0
1002
{
1002
}
1001
GENIUS_GENODEF_13
1002
{
1000
HIER
1070
     0
1002
}
1002
{
1000
MANEDIT
1070
     0
1002
}
1002
{
1000
NOSEL
1070
     0
1002
}
1002
{
1000
BEHIND
1070
     0
1002
}
1002
{
1000
REACTOR
1002
}
1001
GENIUS_GENOBJ-N-CHA_13
1002
{
1000
OWNER
1000
GEN
1002
}
  0
LINE
  5
E2D0
330
1F
100
AcDbEntity
  8
AM_3
100
AcDbLine
 10
-33.10000000000002
 20
95.07102355330308
 30
0.0
 11
-32.61703708685549
 21
95.70043307585434
 31
0.0
1001
GENIUS_GENFIL_13
1070
     0
1040
0.5
1040
0.5
1040
20.0
1040
0.0
1002
{
1002
}
1001
GENIUS_GENODEF_13
1002
{
1000
HIER
1070
     0
1002
}
1002
{
1000
MANEDIT
1070
     0
1002
}
1002
{
1000
NOSEL
1070
     0
1002
}
1002
{
1000
BEHIND
1070
     0
1002
}
1002
{
1000
REACTOR
1002
}
1001
GENIUS_GENOBJ-N-CHA_13
1002
{
1000
OWNER
1000
GEN
1002
}
  0
ARC
  5
E2D6
330
1F
100
AcDbEntity
  8
AM_0
100
AcDbCircle
 10
-47.49999999999999
 20
-11.70000000000001
 30
0.0
 40
1.0
100
AcDbArc
 50
269.9999999999997
 51
0.0
1001
GENIUS_GENODEF_13
1002
{
1000
HIER
1070
     0
1002
}
1002
{
1000
MANEDIT
1070
     0
1002
}
1002
{
1000
NOSEL
1070
     0
1002
}
1002
{
1000
BEHIND
1070
     0
1002
}
1002
{
1000
REACTOR
1002
}
1001
GENIUS_GENOBJ-N-FIL_13
1002
{
1000
OWNER
1000
GEN
1002
}
  0
ARC
  5
E2D8
330
1F
100
AcDbEntity
  8
AM_3
100
AcDbCircle
 10
-2.700000000000159
 20
95.74999999999997
 30
0.0
 40
1.0
100
AcDbArc
 50
0.0
 51
89.99999999999994
1001
GENIUS_GENODEF_13
1002
{
1000
HIER
1070
     0
1002
}
1002
{
1000
MANEDIT
1070
     0
1002
}
1002
{
1000
NOSEL
1070
     0
1002
}
1002
{
1000
BEHIND
1070
     0
1002
}
1002
{
1000
REACTOR
1002
}
1001
GENIUS_GENOBJ-N-FIL_13
1002
{
1000
OWNER
1000
GEN
1002
}
  0
ARC
  5
E2DA
330
1F
100
AcDbEntity
  8
AM_3
100
AcDbCircle
 10
-2.700000000000159
 20
-95.75000000000001
 30
0.0
 40
1.0
100
AcDbArc
 50
270.0
 51
0.0
1001
GENIUS_GENODEF_13
1002
{
1000
HIER
1070
     0
1002
}
1002
{
1000
MANEDIT
1070
     0
1002
}
1002
{
1000
NOSEL
1070
     0
1002
}
1002
{
1000
BEHIND
1070
     0
1002
}
1002
{
1000
REACTOR
1002
}
1001
GENIUS_GENOBJ-N-FIL_13
1002
{
1000
OWNER
1000
GEN
1002
}
  0
ARC
  5
E2DE
330
1F
100
AcDbEntity
  8
AM_0
100
AcDbCircle
 10
-57.50710831478579
 20
-68.0
 30
0.0
 40
3.0
100
AcDbArc
 50
9.999999999999886
 51
90.0
1001
GENIUS_GENODEF_13
1002
{
1000
HIER
1070
     0
1002
}
1002
{
1000
MANEDIT
1070
     0
1002
}
1002
{
1000
NOSEL
1070
     0
1002
}
1002
{
1000
BEHIND
1070
     0
1002
}
1002
{
1000
REACTOR
1002
}
1001
GENIUS_GENOBJ-N-FIL_13
1002
{
1000
OWNER
1000
GEN
1002
}
  0
ARC
  5
E2E0
330
1F
100
AcDbEntity
  8
AM_0
100
AcDbCircle
 10
-47.18270110646823
 20
-92.0
 30
0.0
 40
3.0
100
AcDbArc
 50
189.9999999999998
 51
270.0
1001
GENIUS_GENODEF_13
1002
{
1000
HIER
1070
     0
1002
}
1002
{
1000
MANEDIT
1070
     0
1002
}
1002
{
1000
NOSEL
1070
     0
1002
}
1002
{
1000
BEHIND
1070
     0
1002
}
1002
{
1000
REACTOR
1002
}
1001
GENIUS_GENOBJ-N-FIL_13
1002
{
1000
OWNER
1000
GEN
1002
}
  0
ARC
  5
E2E2
330
1F
100
AcDbEntity
  8
AM_0
100
AcDbCircle
 10
-47.18270110646812
 20
91.99999999999995
 30
0.0
 40
3.0
100
AcDbArc
 50
90.0
 51
169.9999999999998
1001
GENIUS_GENODEF_13
1002
{
1000
HIER
1070
     0
1002
}
1002
{
1000
MANEDIT
1070
     0
1002
}
1002
{
1000
NOSEL
1070
     0
1002
}
1002
{
1000
BEHIND
1070
     0
1002
}
1002
{
1000
REACTOR
1002
}
1001
GENIUS_GENOBJ-N-FIL_13
1002
{
1000
OWNER
1000
GEN
1002
}
  0
ARC
  5
E2E4
330
1F
100
AcDbEntity
  8
AM_0
100
AcDbCircle
 10
-57.50710831478581
 20
68.0
 30
0.0
 40
3.0
100
AcDbArc
 50
270.0
 51
349.9999999999998
1001
GENIUS_GENODEF_13
1002
{
1000
HIER
1070
     0
1002
}
1002
{
1000
MANEDIT
1070
     0
1002
}
1002
{
1000
NOSEL
1070
     0
1002
}
1002
{
1000
BEHIND
1070
     0
1002
}
1002
{
1000
REACTOR
1002
}
1001
GENIUS_GENOBJ-N-FIL_13
1002
{
1000
OWNER
1000
GEN
1002
}
  0
LINE
  5
E2F1
330
1F
100
AcDbEntity
  8
AM_0
100
AcDbLine
 10
-58.3
 20
65.0
 30
0.0
 11
-60.0
 21
63.3
 31
0.0
1001
GENIUS_GENFIL_13
1070
     0
1040
1.7
1040
1.7
1040
20.0
1040
0.0
1002
{
1002
}
1001
GENIUS_GENODEF_13
1002
{
1000
HIER
1070
     0
1002
}
1002
{
1000
MANEDIT
1070
     0
1002
}
1002
{
1000
NOSEL
1070
     0
1002
}
1002
{
1000
BEHIND
1070
     0
1002
}
1002
{
1000
REACTOR
1002
}
1001
GENIUS_GENOBJ-N-CHA_13
1002
{
1000
OWNER
1000
GEN
1002
}
  0
LINE
  5
E2F4
330
1F
100
AcDbEntity
  8
AM_0
100
AcDbLine
 10
-60.0
 20
25.51249999999997
 30
0.0
 11
-58.3
 21
23.81249999999997
 31
0.0
1001
GENIUS_GENFIL_13
1070
     0
1040
1.7
1040
1.7
1040
20.0
1040
0.0
1002
{
1002
}
1001
GENIUS_GENODEF_13
1002
{
1000
HIER
1070
     0
1002
}
1002
{
1000
MANEDIT
1070
     0
1002
}
1002
{
1000
NOSEL
1070
     0
1002
}
1002
{
1000
BEHIND
1070
     0
1002
}
1002
{
1000
REACTOR
1002
}
1001
GENIUS_GENOBJ-N-CHA_13
1002
{
1000
OWNER
1000
GEN
1002
}
  0
LINE
  5
E2F7
330
1F
100
AcDbEntity
  8
AM_0
100
AcDbLine
 10
-60.0
 20
13.89999999999995
 30
0.0
 11
-58.79999999999999
 21
12.69999999999996
 31
0.0
1001
GENIUS_GENFIL_13
1070
     0
1040
1.199999999999999
1040
1.199999999999999
1040
20.0
1040
0.0
1002
{
1002
}
1001
GENIUS_GENODEF_13
1002
{
1000
HIER
1070
     0
1002
}
1002
{
1000
MANEDIT
1070
     0
1002
}
1002
{
1000
NOSEL
1070
     0
1002
}
1002
{
1000
BEHIND
1070
     0
1002
}
1002
{
1000
REACTOR
1002
}
1001
GENIUS_GENOBJ-N-CHA_13
1002
{
1000
OWNER
1000
GEN
1002
}
  0
LINE
  5
E304
330
1F
100
AcDbEntity
  8
AM_0
100
AcDbLine
 10
-60.0
 20
-25.51249999999997
 30
0.0
 11
-58.3
 21
-23.81249999999997
 31
0.0
1001
GENIUS_GENFIL_13
1070
     0
1040
1.7
1040
1.7
1040
20.0
1040
0.0
1002
{
1002
}
1001
GENIUS_GENODEF_13
1002
{
1000
HIER
1070
     0
1002
}
1002
{
1000
MANEDIT
1070
     0
1002
}
1002
{
1000
NOSEL
1070
     0
1002
}
1002
{
1000
BEHIND
1070
     0
1002
}
1002
{
1000
REACTOR
1002
}
1001
GENIUS_GENOBJ-N-CHA_13
1002
{
1000
OWNER
1000
GEN
1002
}
  0
LINE
  5
E305
330
1F
100
AcDbEntity
  8
AM_0
100
AcDbLine
 10
-60.0
 20
-13.89999999999995
 30
0.0
 11
-58.79999999999999
 21
-12.69999999999996
 31
0.0
1001
GENIUS_GENFIL_13
1070
     0
1040
1.199999999999999
1040
1.199999999999999
1040
20.0
1040
0.0
1002
{
1002
}
1001
GENIUS_GENODEF_13
1002
{
1000
HIER
1070
     0
1002
}
1002
{
1000
MANEDIT
1070
     0
1002
}
1002
{
1000
NOSEL
1070
     0
1002
}
1002
{
1000
BEHIND
1070
     0
1002
}
1002
{
1000
REACTOR
1002
}
1001
GENIUS_GENOBJ-N-CHA_13
1002
{
1000
OWNER
1000
GEN
1002
}
  0
LINE
  5
E306
330
1F
100
AcDbEntity
  8
AM_0
100
AcDbLine
 10
-58.3
 20
-65.0
 30
0.0
 11
-60.0
 21
-63.3
 31
0.0
1001
GENIUS_GENFIL_13
1070
     0
1040
1.7
1040
1.7
1040
20.0
1040
0.0
1002
{
1002
}
1001
GENIUS_GENODEF_13
1002
{
1000
HIER
1070
     0
1002
}
1002
{
1000
MANEDIT
1070
     0
1002
}
1002
{
1000
NOSEL
1070
     0
1002
}
1002
{
1000
BEHIND
1070
     0
1002
}
1002
{
1000
REACTOR
1002
}
1001
GENIUS_GENOBJ-N-CHA_13
1002
{
1000
OWNER
1000
GEN
1002
}
  0
ARC
  5
E30C
330
1F
100
AcDbEntity
  8
AM_0
100
AcDbCircle
 10
-47.49999999999999
 20
11.70000000000001
 30
0.0
 40
1.0
100
AcDbArc
 50
0.0
 51
90.0000000000003
1001
GENIUS_GENODEF_13
1002
{
1000
HIER
1070
     0
1002
}
1002
{
1000
MANEDIT
1070
     0
1002
}
1002
{
1000
NOSEL
1070
     0
1002
}
1002
{
1000
BEHIND
1070
     0
1002
}
1002
{
1000
REACTOR
1002
}
1001
GENIUS_GENOBJ-N-FIL_13
1002
{
1000
OWNER
1000
GEN
1002
}
  0
VIEWPORT
  5
110
330
101
100
AcDbEntity
 67
     1
  8
0
100
AcDbViewport
 10
420.5
 20
297.0
 30
0.0
 40
948.9782706766916
 41
628.452
 68
     1
 69
     1
1001
ACAD
1000
MVIEW
1002
{
1070
    16
1010
0.0
1020
0.0
1030
0.0
1010
0.0
1020
0.0
1030
1.0
1040
0.0
1040
628.452
1040
420.5
1040
297.0
1040
50.0
1040
0.0
1040
0.0
1070
     0
1070
   100
1070
     1
1070
     1
1070
     0
1070
     0
1070
     0
1070
     0
1040
0.0
1040
0.0
1040
0.0
1040
10.0
1040
10.0
1040
10.0
1040
10.0
1070
     0
1002
{
1002
}
1002
}
  0
ENDSEC
  0
SECTION
  2
OBJECTS
  0
DICTIONARY
  5
C
330
0
100
AcDbDictionary
  3
ACAD_GROUP
350
D
  3
ACAD_LAYOUT
350
1A
  3
ACAD_MLINESTYLE
350
17
  3
ACAD_PLOTSETTINGS
350
19
  3
ACAD_PLOTSTYLENAME
350
E
  3
ACDBVARIABLEDICTIONARY
350
34
  3
ACMDICTIONARY
350
43
  3
AMG
350
2B
  3
AMGSNAPSETTINGS
350
6E
  3
DWGPROPS
350
E356
  3
ACDBHEADERROUNDTRIPXREC
350
E363
  0
DICTIONARY
  5
74
330
1F
100
AcDbDictionary
280
     1
  3
ACAD_INDEX
360
E358
  3
ACAD_LAYOUTSELFREF
360
E386
  0
DICTIONARY
  5
E38B
330
101
100
AcDbDictionary
280
     1
  3
ACAD_LAYOUTSELFREF
360
E38C
  0
DICTIONARY
  5
D
102
{ACAD_REACTORS
330
C
102
}
330
C
100
AcDbDictionary
  0
DICTIONARY
  5
1A
102
{ACAD_REACTORS
330
C
102
}
330
C
100
AcDbDictionary
  0
DICTIONARY
  5
17
102
{ACAD_REACTORS
330
C
102
}
330
C
100
AcDbDictionary
  3
STANDARD
350
18
  0
DICTIONARY
  5
19
102
{ACAD_REACTORS
330
C
102
}
330
C
100
AcDbDictionary
  0
ACDBDICTIONARYWDFLT
  5
E
102
{ACAD_REACTORS
330
C
102
}
330
C
100
AcDbDictionary
281
     1
  3
Normal
350
F
100
AcDbDictionaryWithDefault
340
F
  0
DICTIONARY
  5
34
102
{ACAD_REACTORS
330
C
102
}
330
C
100
AcDbDictionary
  3
INDEXCTL
350
35
  3
SORTENTS
350
B5E
  0
DICTIONARY
  5
43
102
{ACAD_REACTORS
330
C
102
}
330
C
100
AcDbDictionary
  3
ACMSTDDICTIONARY
350
260
  0
DICTIONARY
  5
2B
102
{ACAD_REACTORS
330
C
102
}
330
C
100
AcDbDictionary
  3
ACMGSETTINGS
350
2C
  0
DICTIONARY
  5
6E
102
{ACAD_REACTORS
330
C
102
}
330
C
100
AcDbDictionary
  0
XRECORD
  5
E356
102
{ACAD_REACTORS
330
C
102
}
330
C
100
AcDbXrecord
  1
DWGPROPS COOKIE
  2

  3

  4

  6

  7

  8

  9

300
AmdtFileType=82
301
=
302
=
303
=
304
=
305
=
306
=
307
=
308
=
309
=
 40
0.2011599189814815
 41
2452836.771637361
 42
2452908.40746934
  1

 90
        1
  0
DICTIONARY
  5
E363
102
{ACAD_REACTORS
330
C
102
}
330
C
100
AcDbDictionary
  3
TSTACKALIGN
350
E364
  3
TSTACKSIZE
350
E365
  3
HYPERLINKBASE
350
E366
  3
STYLESHEET
350
E367
  3
LAYOUTDICT
350
E368
  3
PLOTSETDICT
350
E369
  3
PLOTSTYLNAMDICT
350
E36A
  3
LWETCUNION
350
E36B
  3
INSUNITS
350
E36C
  3
CEPSNTYPE
350
E36D
  3
FINGERPRINTGUID
350
E36E
  3
VERSIONGUID
350
E36F
  3
PSVPSCALE
350
E370
  3
DIMSTYLEDATA
350
E371
  3
PUCSORTHOREF
350
E372
  3
PUCSORTHOVIEW
350
E373
  3
PUCSBASE
350
E374
  3
PUCSORGTOP
350
E375
  3
PUCSORGBOTTOM
350
E376
  3
PUCSORGLEFT
350
E377
  3
PUCSORGRIGHT
350
E378
  3
PUCSORGFRONT
350
E379
  3
PUCSORGBACK
350
E37A
  3
UCSORTHOREF
350
E37B
  3
UCSORTHOVIEW
350
E37C
  3
UCSBASE
350
E37D
  3
UCSORGTOP
350
E37E
  3
UCSORGBOTTOM
350
E37F
  3
UCSORGLEFT
350
E380
  3
UCSORGRIGHT
350
E381
  3
UCSORGFRONT
350
E382
  3
UCSORGBACK
350
E383
  0
DICTIONARY
  5
E358
102
{ACAD_REACTORS
330
74
102
}
330
74
100
AcDbDictionary
  3
*A1
350
E359
  0
XRECORD
  5
E386
102
{ACAD_REACTORS
330
74
102
}
330
74
100
AcDbXrecord
340
1F
  0
XRECORD
  5
E38C
102
{ACAD_REACTORS
330
E38B
102
}
330
E38B
100
AcDbXrecord
340
101
  0
MLINESTYLE
  5
18
102
{ACAD_REACTORS
330
17
102
}
330
17
100
AcDbMlineStyle
  2
STANDARD
 70
     0
  3

 62
   256
 51
90.0
 52
90.0
 71
     2
 49
0.5
 62
   256
  6
BYLAYER
 49
-0.5
 62
   256
  6
BYLAYER
  0
ACDBPLACEHOLDER
  5
F
102
{ACAD_REACTORS
330
E
102
}
330
E
100
AcDbPlaceHolder
280
     0
  0
DICTIONARYVAR
  5
35
102
{ACAD_REACTORS
330
34
102
}
330
34
100
DictionaryVariables
280
     0
  1
1
  0
DICTIONARYVAR
  5
B5E
102
{ACAD_REACTORS
330
34
102
}
330
34
100
DictionaryVariables
280
     0
  1
96
  0
DICTIONARY
  5
260
102
{ACAD_REACTORS
330
43
102
}
330
43
100
AcDbDictionary
  0
DICTIONARY
  5
2C
102
{ACAD_REACTORS
330
2B
102
}
330
2B
100
AcDbDictionary
  3
DWGSETTINGS
350
2D
  0
XRECORD
  5
E364
102
{ACAD_REACTORS
330
E363
102
}
330
E363
100
AcDbXrecord
 90
        1
  0
XRECORD
  5
E365
102
{ACAD_REACTORS
330
E363
102
}
330
E363
100
AcDbXrecord
 90
       70
  0
XRECORD
  5
E366
102
{ACAD_REACTORS
330
E363
102
}
330
E363
100
AcDbXrecord
  1

  0
XRECORD
  5
E367
102
{ACAD_REACTORS
330
E363
102
}
330
E363
100
AcDbXrecord
  1
ASAMI.ctb
  0
XRECORD
  5
E368
102
{ACAD_REACTORS
330
E363
102
}
330
E363
100
AcDbXrecord
340
1A
  0
XRECORD
  5
E369
102
{ACAD_REACTORS
330
E363
102
}
330
E363
100
AcDbXrecord
340
19
  0
XRECORD
  5
E36A
102
{ACAD_REACTORS
330
E363
102
}
330
E363
100
AcDbXrecord
340
E
  0
XRECORD
  5
E36B
102
{ACAD_REACTORS
330
E363
102
}
330
E363
100
AcDbXrecord
 90
    10781
  0
XRECORD
  5
E36C
102
{ACAD_REACTORS
330
E363
102
}
330
E363
100
AcDbXrecord
 90
        4
  0
XRECORD
  5
E36D
102
{ACAD_REACTORS
330
E363
102
}
330
E363
100
AcDbXrecord
 90
        0
  0
XRECORD
  5
E36E
102
{ACAD_REACTORS
330
E363
102
}
330
E363
100
AcDbXrecord
  1
{AFB28963-8C59-40AE-9337-C84526B81ACE}
  0
XRECORD
  5
E36F
102
{ACAD_REACTORS
330
E363
102
}
330
E363
100
AcDbXrecord
  1
{6B7692B3-FE24-454A-B861-8178CAE5311C}
  0
XRECORD
  5
E370
102
{ACAD_REACTORS
330
E363
102
}
330
E363
100
AcDbXrecord
 40
0.0
  0
XRECORD
  5
E371
102
{ACAD_REACTORS
330
E363
102
}
330
E363
100
AcDbXrecord
1000
DSTYLE
1002
{
1070
    79
 70
     2
1070
   341
340
59
1070
   342
340
59
1070
   371
 70
    -1
1070
   372
 70
    -1
1002
}
  0
XRECORD
  5
E372
102
{ACAD_REACTORS
330
E363
102
}
330
E363
100
AcDbXrecord
340
0
  0
XRECORD
  5
E373
102
{ACAD_REACTORS
330
E363
102
}
330
E363
100
AcDbXrecord
 70
     0
  0
XRECORD
  5
E374
102
{ACAD_REACTORS
330
E363
102
}
330
E363
100
AcDbXrecord
340
0
  0
XRECORD
  5
E375
102
{ACAD_REACTORS
330
E363
102
}
330
E363
100
AcDbXrecord
 10
0.0
 20
0.0
 30
0.0
  0
XRECORD
  5
E376
102
{ACAD_REACTORS
330
E363
102
}
330
E363
100
AcDbXrecord
 10
0.0
 20
0.0
 30
0.0
  0
XRECORD
  5
E377
102
{ACAD_REACTORS
330
E363
102
}
330
E363
100
AcDbXrecord
 10
0.0
 20
0.0
 30
0.0
  0
XRECORD
  5
E378
102
{ACAD_REACTORS
330
E363
102
}
330
E363
100
AcDbXrecord
 10
0.0
 20
0.0
 30
0.0
  0
XRECORD
  5
E379
102
{ACAD_REACTORS
330
E363
102
}
330
E363
100
AcDbXrecord
 10
0.0
 20
0.0
 30
0.0
  0
XRECORD
  5
E37A
102
{ACAD_REACTORS
330
E363
102
}
330
E363
100
AcDbXrecord
 10
0.0
 20
0.0
 30
0.0
  0
XRECORD
  5
E37B
102
{ACAD_REACTORS
330
E363
102
}
330
E363
100
AcDbXrecord
340
0
  0
XRECORD
  5
E37C
102
{ACAD_REACTORS
330
E363
102
}
330
E363
100
AcDbXrecord
 70
     0
  0
XRECORD
  5
E37D
102
{ACAD_REACTORS
330
E363
102
}
330
E363
100
AcDbXrecord
340
0
  0
XRECORD
  5
E37E
102
{ACAD_REACTORS
330
E363
102
}
330
E363
100
AcDbXrecord
 10
0.0
 20
0.0
 30
0.0
  0
XRECORD
  5
E37F
102
{ACAD_REACTORS
330
E363
102
}
330
E363
100
AcDbXrecord
 10
0.0
 20
0.0
 30
0.0
  0
XRECORD
  5
E380
102
{ACAD_REACTORS
330
E363
102
}
330
E363
100
AcDbXrecord
 10
0.0
 20
0.0
 30
0.0
  0
XRECORD
  5
E381
102
{ACAD_REACTORS
330
E363
102
}
330
E363
100
AcDbXrecord
 10
0.0
 20
0.0
 30
0.0
  0
XRECORD
  5
E382
102
{ACAD_REACTORS
330
E363
102
}
330
E363
100
AcDbXrecord
 10
0.0
 20
0.0
 30
0.0
  0
XRECORD
  5
E383
102
{ACAD_REACTORS
330
E363
102
}
330
E363
100
AcDbXrecord
 10
0.0
 20
0.0
 30
0.0
  0
LAYER_INDEX
  5
E359
102
{ACAD_REACTORS
330
E358
102
}
330
E358
100
AcDbIndex
 40
2453152.370933576
100
AcDbLayerIndex
  8
0
360
E35A
 90
       68
  8
AM_0
360
E35B
 90
       66
  8
AM_7
360
E35C
 90
        3
  8
AM_5
360
E35D
 90
       10
  8
Defpoints
360
E35E
 90
        0
  8
AM_6
360
E35F
 90
        1
  8
AM_11
360
E360
 90
       25
  8
AM_3
360
E361
 90
       18
  0
XRECORD
  5
2D
102
{ACAD_REACTORS
330
2C
102
}
330
2C
100
AcDbXrecord
  1
VERSION
140
15.0
  1
PRODUCT
  2
AutoCAD Mechanical 2000
  0
IDBUFFER
  5
E35A
330
0
100
AcDbIdBuffer
330
E014
330
E015
330
E016
330
E017
330
E018
330
E019
330
E01A
330
E01B
330
E01C
330
E01D
330
E01E
330
E01F
330
E020
330
E021
330
E022
330
E023
330
E024
330
E026
330
E027
330
E028
330
DFD4
330
DFD6
330
DFD8
330
DFD9
330
DFDA
330
DFDB
330
DFDC
330
DFDD
330
DFDE
330
DFDF
330
DFE0
330
DFE1
330
DFE2
330
DFE3
330
DFE4
330
DFE5
330
DFE6
330
DFE7
330
DFE8
330
DFE9
330
DFEA
330
DFEB
330
DFEC
330
DFED
330
DFEE
330
DFEF
330
DFF0
330
DFF2
330
DFF3
330
DFF4
330
DFF5
330
DFF6
330
DFF7
330
DFF8
330
E005
330
E006
330
E008
330
E009
330
E00A
330
E00B
330
E00C
330
E00D
330
E00E
330
E00F
330
E010
330
E011
330
E012
330
E013
  0
IDBUFFER
  5
E35B
330
0
100
AcDbIdBuffer
330
E1A3
330
E1A4
330
E1A5
330
E1A6
330
E1A7
330
E1A8
330
E2D6
330
E2DE
330
E2E0
330
E2E2
330
E2E4
330
E2F1
330
E2F4
330
E2F7
330
E304
330
E305
330
E306
330
E30C
330
CBDB
330
CBDC
330
CBDD
330
CBDF
330
CBE2
330
CBE8
330
CBE9
330
CBEC
330
CBED
330
CBF0
330
CBF7
330
CBFA
330
CBFB
330
CC01
330
CC02
330
CC05
330
CC06
330
CC07
330
CC08
330
CC0A
330
CC0D
330
CC10
330
CC12
330
CC13
330
CC14
330
CC15
330
CC16
330
CC18
330
CC1B
330
CC1D
330
CC25
330
CC2A
330
CC2D
330
CC2E
330
CC34
330
CC35
330
CC36
330
CC37
330
CC38
330
CC39
330
CC3A
330
DC47
330
DFF1
330
E025
330
E19F
330
E1A0
330
E1A1
330
E1A2
  0
IDBUFFER
  5
E35C
330
0
100
AcDbIdBuffer
330
CBE0
330
CC0C
330
CC0F
  0
IDBUFFER
  5
E35D
330
0
100
AcDbIdBuffer
330
DD61
330
DD62
330
DD63
330
DDB5
330
DDB6
330
DDB7
330
DDF7
330
DDF8
330
E091
330
E1CD
  0
IDBUFFER
  5
E35E
330
0
100
AcDbIdBuffer
  0
IDBUFFER
  5
E35F
330
0
100
AcDbIdBuffer
330
E5A
  0
IDBUFFER
  5
E360
330
0
100
AcDbIdBuffer
330
CC20
330
CC21
330
CC22
330
CC26
330
CC27
330
CC28
330
DFD5
330
DFD7
330
E007
330
CBE1
330
CBE3
330
CBE4
330
CBE5
330
CBE7
330
CBF2
330
CBF6
330
CBF8
330
CBF9
330
CBFF
330
CC00
330
CC0B
330
CC11
330
CC1C
330
CC1E
330
CC1F
  0
IDBUFFER
  5
E361
330
0
100
AcDbIdBuffer
330
E2D8
330
E2DA
330
CBDE
330
CBE6
330
CBEB
330
CBEE
330
CBF3
330
CBF5
330
CC03
330
CC0E
330
CC29
330
CC2C
330
CC2F
330
CC30
330
CC32
330
CC33
330
E2CE
330
E2D0
  0
ENDSEC
  0
EOF
