  0
SECTION
  2
HEADER
  9
$ACADVER
  1
AC1014
  9
$ACADMAINTVER
 70
     9
  9
$DWGCODEPAGE
  3
ANSI_932
  9
$INSBASE
 10
0.0
 20
0.0
 30
0.0
  9
$EXTMIN
 10
-116.024096331168
 20
-125.6062689999999
 30
-0.00000001
  9
$EXTMAX
 10
28.26553665350422
 20
69.10626799999999
 30
0.00000001
  9
$LIMMIN
 10
-133.5498939532715
 20
-152.8952662105094
  9
$LIMMAX
 10
47.90974801421862
 20
83.73905350422115
  9
$ORTHOMODE
 70
     0
  9
$REGENMODE
 70
     1
  9
$FILLMODE
 70
     1
  9
$QTEXTMODE
 70
     0
  9
$MIRRTEXT
 70
     0
  9
$DRAGMODE
 70
     2
  9
$LTSCALE
 40
1.0
  9
$OSMODE
 70
    55
  9
$ATTMODE
 70
     1
  9
$TEXTSIZE
 40
2.5
  9
$TRACEWID
 40
1.0
  9
$TEXTSTYLE
  7
STANDARD
  9
$CLAYER
  8
AM_0
  9
$CELTYPE
  6
BYLAYER
  9
$CECOLOR
 62
   256
  9
$CELTSCALE
 40
1.0
  9
$DELOBJ
 70
     1
  9
$DISPSILH
 70
     0
  9
$DIMSCALE
 40
1.0
  9
$DIMASZ
 40
2.5
  9
$DIMEXO
 40
1.0
  9
$DIMDLI
 40
12.0
  9
$DIMRND
 40
0.0
  9
$DIMDLE
 40
0.0
  9
$DIMEXE
 40
1.0
  9
$DIMTP
 40
0.1
  9
$DIMTM
 40
0.1
  9
$DIMTXT
 40
3.2
  9
$DIMCEN
 40
0.0
  9
$DIMTSZ
 40
0.0
  9
$DIMTOL
 70
     0
  9
$DIMLIM
 70
     0
  9
$DIMTIH
 70
     0
  9
$DIMTOH
 70
     0
  9
$DIMSE1
 70
     0
  9
$DIMSE2
 70
     0
  9
$DIMTAD
 70
     3
  9
$DIMZIN
 70
     8
  9
$DIMBLK
  1
OPEN30
  9
$DIMASO
 70
     1
  9
$DIMSHO
 70
     1
  9
$DIMPOST
  1

  9
$DIMAPOST
  1
"
  9
$DIMALT
 70
     0
  9
$DIMALTD
 70
     2
  9
$DIMALTF
 40
0.0393701
  9
$DIMLFAC
 40
1.0
  9
$DIMTOFL
 70
     1
  9
$DIMTVP
 40
0.0
  9
$DIMTIX
 70
     0
  9
$DIMSOXD
 70
     0
  9
$DIMSAH
 70
     0
  9
$DIMBLK1
  1

  9
$DIMBLK2
  1

  9
$DIMSTYLE
  2
AM_JIS
  9
$DIMCLRD
 70
   256
  9
$DIMCLRE
 70
   256
  9
$DIMCLRT
 70
     2
  9
$DIMTFAC
 40
0.71
  9
$DIMGAP
 40
1.5
  9
$DIMJUST
 70
     0
  9
$DIMSD1
 70
     0
  9
$DIMSD2
 70
     0
  9
$DIMTOLJ
 70
     0
  9
$DIMTZIN
 70
     0
  9
$DIMALTZ
 70
     0
  9
$DIMALTTZ
 70
     0
  9
$DIMFIT
 70
     3
  9
$DIMUPT
 70
     0
  9
$DIMUNIT
 70
     2
  9
$DIMDEC
 70
     3
  9
$DIMTDEC
 70
     3
  9
$DIMALTU
 70
     2
  9
$DIMALTTD
 70
     2
  9
$DIMTXSTY
  7
ASAMI
  9
$DIMAUNIT
 70
     0
  9
$LUNITS
 70
     2
  9
$LUPREC
 70
     2
  9
$SKETCHINC
 40
1.0
  9
$FILLETRAD
 40
1.0
  9
$AUNITS
 70
     0
  9
$AUPREC
 70
     0
  9
$MENU
  1
.
  9
$ELEVATION
 40
0.0
  9
$PELEVATION
 40
0.0
  9
$THICKNESS
 40
0.0
  9
$LIMCHECK
 70
     0
  9
$BLIPMODE
 70
     0
  9
$CHAMFERA
 40
1.0
  9
$CHAMFERB
 40
1.0
  9
$CHAMFERC
 40
20.0
  9
$CHAMFERD
 40
0.0
  9
$SKPOLY
 70
     0
  9
$TDCREATE
 40
2452836.771637361
  9
$TDUPDATE
 40
2453152.368611284
  9
$TDINDWG
 40
0.1081904282
  9
$TDUSRTIMER
 40
0.1081904282
  9
$USRTIMER
 70
     1
  9
$ANGBASE
 50
0.0
  9
$ANGDIR
 70
     0
  9
$PDMODE
 70
     0
  9
$PDSIZE
 40
0.0
  9
$PLINEWID
 40
0.0
  9
$COORDS
 70
     1
  9
$SPLFRAME
 70
     0
  9
$SPLINETYPE
 70
     6
  9
$SPLINESEGS
 70
     8
  9
$ATTDIA
 70
     1
  9
$ATTREQ
 70
     1
  9
$HANDLING
 70
 12289
  9
$HANDSEED
  5
7E91
  9
$SURFTAB1
 70
     6
  9
$SURFTAB2
 70
     6
  9
$SURFTYPE
 70
     6
  9
$SURFU
 70
     6
  9
$SURFV
 70
     6
  9
$UCSNAME
  2

  9
$UCSORG
 10
0.0
 20
0.0
 30
0.0
  9
$UCSXDIR
 10
1.0
 20
0.0
 30
0.0
  9
$UCSYDIR
 10
0.0
 20
1.0
 30
0.0
  9
$PUCSNAME
  2

  9
$PUCSORG
 10
0.0
 20
0.0
 30
0.0
  9
$PUCSXDIR
 10
1.0
 20
0.0
 30
0.0
  9
$PUCSYDIR
 10
0.0
 20
1.0
 30
0.0
  9
$USERI1
 70
     0
  9
$USERI2
 70
     0
  9
$USERI3
 70
     0
  9
$USERI4
 70
     0
  9
$USERI5
 70
     0
  9
$USERR1
 40
0.0
  9
$USERR2
 40
0.0
  9
$USERR3
 40
0.0
  9
$USERR4
 40
0.0
  9
$USERR5
 40
0.0
  9
$WORLDVIEW
 70
     1
  9
$SHADEDGE
 70
     3
  9
$SHADEDIF
 70
    70
  9
$TILEMODE
 70
     1
  9
$MAXACTVP
 70
    64
  9
$PINSBASE
 10
0.0
 20
0.0
 30
0.0
  9
$PLIMCHECK
 70
     0
  9
$PEXTMIN
 10
1.000000000000000E+20
 20
1.000000000000000E+20
 30
1.000000000000000E+20
  9
$PEXTMAX
 10
-1.000000000000000E+20
 20
-1.000000000000000E+20
 30
-1.000000000000000E+20
  9
$PLIMMIN
 10
0.0
 20
0.0
  9
$PLIMMAX
 10
841.0
 20
594.0
  9
$UNITMODE
 70
     0
  9
$VISRETAIN
 70
     1
  9
$PLINEGEN
 70
     0
  9
$PSLTSCALE
 70
     0
  9
$TREEDEPTH
 70
  3020
  9
$PICKSTYLE
 70
     0
  9
$CMLSTYLE
  2
STANDARD
  9
$CMLJUST
 70
     0
  9
$CMLSCALE
 40
20.0
  9
$PROXYGRAPHICS
 70
     1
  9
$MEASUREMENT
 70
     1
  0
ENDSEC
  0
SECTION
  2
CLASSES
  0
CLASS
  1
ACDBDICTIONARYWDFLT
  2
AcDbDictionaryWithDefault
  3
AutoCAD 2000
 90
        0
280
     0
281
     0
  0
CLASS
  1
ACDBPLACEHOLDER
  2
AcDbPlaceHolder
  3
AutoCAD 2000
 90
        0
280
     0
281
     0
  0
CLASS
  1
LAYOUT
  2
AcDbLayout
  3
AutoCAD 2000
 90
        0
280
     0
281
     0
  0
CLASS
  1
AMGSETTINGSOBJ
  2
AmgSettingsObj
  3
"AcadM|Product Description: AutoCAD Mechanical 2000|Company: Autodesk"
 90
        0
280
     0
281
     0
  0
CLASS
  1
ACME_DOCUMENT
  2
AcMeDbDoc
  3
AcMeServices
 90
        0
280
     0
281
     0
  0
CLASS
  1
ACMESCOPE
  2
AcMeScope
  3
AcMeServices
 90
        0
280
     0
281
     0
  0
CLASS
  1
ACMECOMMANDHISTORY
  2
AcMeCommandHistory
  3
AcMeServices
 90
        0
280
     0
281
     0
  0
CLASS
  1
DICTIONARYVAR
  2
AcDbDictionaryVar
  3
AutoCAD 2000
 90
        0
280
     0
281
     0
  0
CLASS
  1
ACIMSYSVARMAN
  2
AcImSysVarManager
  3
AcMeServices
 90
        0
280
     0
281
     0
  0
CLASS
  1
ACIMREALSYSVAR
  2
AcImRealSysVar
  3
AcMeServices
 90
        0
280
     0
281
     0
  0
CLASS
  1
ACIMINTSYSVAR
  2
AcImIntSysVar
  3
AcMeServices
 90
        0
280
     0
281
     0
  0
CLASS
  1
ACMEDRAWINGMAN
  2
AcMeDrawingMan
  3
AcMeServices
 90
        0
280
     0
281
     0
  0
CLASS
  1
ACMEVIEW
  2
AcMeView
  3
AcMeServices
 90
        0
280
     0
281
     0
  0
CLASS
  1
ACDBENTITYCACHE
  2
AcMeEntityCache
  3
AcMeServices
 90
        0
280
     0
281
     0
  0
CLASS
  1
GSMANAGER
  2
AcMeGSManager
  3
AcMeServices
 90
        0
280
     0
281
     0
  0
CLASS
  1
AmdtInternalReactor
  2
AmdtInternalReactor
  3
AcMeServices
 90
        0
280
     0
281
     0
  0
CLASS
  1
ACMESTATEMGR
  2
AcMeStateMgr
  3
AcMeServices
 90
        0
280
     0
281
     0
  0
CLASS
  1
ACME_DATABASE
  2
AcMeDbDatabase
  3
AcMeServices
 90
        0
280
     0
281
     0
  0
CLASS
  1
ACRFINSADJUSTERMGR
  2
AcRfInsAdjusterMgr
  3
AcMeServices
 90
        0
280
     0
281
     0
  0
CLASS
  1
ACMDATADICTIONARY
  2
AcmDataDictionary
  3
"AcmSymBB|Product Description: AutoCAD Mechanical 2000|Company: Autodesk"
 90
        0
280
     0
281
     0
  0
CLASS
  1
ACMDATAENTRYBLOCK
  2
AcmDataEntryBlock
  3
"AcmSymBB|Product Description: AutoCAD Mechanical 2000|Company: Autodesk"
 90
        0
280
     0
281
     0
  0
CLASS
  1
AMGOBJPROPCFG
  2
AmgObjPropCfg
  3
"AmgLay|Product Description: AutoCAD Mechanical 2000|Company: Autodesk"
 90
        1
280
     0
281
     0
  0
CLASS
  1
ACAMGFILTERDAT
  2
AcAmgFilterDat
  3
"AcadM|Product Description: AutoCAD Mechanical 2000|Company: Autodesk"
 90
        0
280
     0
281
     0
  0
CLASS
  1
LAYER_INDEX
  2
AcDbLayerIndex
  3
AutoCAD 2000
 90
        0
280
     0
281
     0
  0
CLASS
  1
IDBUFFER
  2
AcDbIdBuffer
  3
AutoCAD 2000
 90
        0
280
     0
281
     0
  0
CLASS
  1
ACIMSTRSYSVAR
  2
AcImStrSysVar
  3
AcMeServices
 90
        0
280
     0
281
     0
  0
CLASS
  1
ACMSTANDARDJIS
  2
AcmStandardJIS
  3
"AcmSymBB|Product Description: AutoCAD Mechanical 2000|Company: Autodesk"
 90
        0
280
     0
281
     0
  0
CLASS
  1
ACMSURFSTANDARDJIS
  2
AcmSurfTextStdJIS
  3
"AcmSymBB|Product Description: AutoCAD Mechanical 2000|Company: Autodesk"
 90
        0
280
     0
281
     0
  0
CLASS
  1
ACMFCFSTANDARDJIS
  2
AcmFCFStdJIS
  3
"AcmSymBB|Product Description: AutoCAD Mechanical 2000|Company: Autodesk"
 90
        0
280
     0
281
     0
  0
CLASS
  1
ACMWELDSTANDARDJIS
  2
AcmWeldingStdJIS
  3
"AcmSymBB|Product Description: AutoCAD Mechanical 2000|Company: Autodesk"
 90
        0
280
     0
281
     0
  0
CLASS
  1
ACMIDSTANDARDJIS
  2
AcmIdStdJIS
  3
"AcmSymBB|Product Description: AutoCAD Mechanical 2000|Company: Autodesk"
 90
        0
280
     0
281
     0
  0
CLASS
  1
ACMDATUMSTANDARDJIS
  2
AcmDatumStdJIS
  3
"AcmSymBB|Product Description: AutoCAD Mechanical 2000|Company: Autodesk"
 90
        0
280
     0
281
     0
  0
CLASS
  1
ACMBOMSTANDARDJIS
  2
AcmBOMStdJIS
  3
"AcmSymBB|Product Description: AutoCAD Mechanical 2000|Company: Autodesk"
 90
        0
280
     0
281
     0
  0
CLASS
  1
ACMSTANDARDANSI
  2
AcmStandardANSI
  3
"AcmSymBB|Product Description: AutoCAD Mechanical 2000|Company: Autodesk"
 90
        0
280
     0
281
     0
  0
CLASS
  1
ACMSURFSTANDARDANSI
  2
AcmSurfTextStdANSI
  3
"AcmSymBB|Product Description: AutoCAD Mechanical 2000|Company: Autodesk"
 90
        0
280
     0
281
     0
  0
CLASS
  1
ACMFCFSTANDARDANSI
  2
AcmFCFStdANSI
  3
"AcmSymBB|Product Description: AutoCAD Mechanical 2000|Company: Autodesk"
 90
        0
280
     0
281
     0
  0
CLASS
  1
ACMWELDSTANDARDANSI
  2
AcmWeldingStdANSI
  3
"AcmSymBB|Product Description: AutoCAD Mechanical 2000|Company: Autodesk"
 90
        0
280
     0
281
     0
  0
CLASS
  1
ACMIDSTANDARDANSI
  2
AcmIdStdANSI
  3
"AcmSymBB|Product Description: AutoCAD Mechanical 2000|Company: Autodesk"
 90
        0
280
     0
281
     0
  0
CLASS
  1
ACMDATUMSTANDARDANSI
  2
AcmDatumStdANSI
  3
"AcmSymBB|Product Description: AutoCAD Mechanical 2000|Company: Autodesk"
 90
        0
280
     0
281
     0
  0
CLASS
  1
ACMBOMSTANDARDANSI
  2
AcmBOMStdANSI
  3
"AcmSymBB|Product Description: AutoCAD Mechanical 2000|Company: Autodesk"
 90
        0
280
     0
281
     0
  0
CLASS
  1
ACMSTANDARDBSI
  2
AcmStandardBSI
  3
"AcmSymBB|Product Description: AutoCAD Mechanical 2000|Company: Autodesk"
 90
        0
280
     0
281
     0
  0
CLASS
  1
ACMSURFSTANDARDBSI
  2
AcmSurfTextStdBSI
  3
"AcmSymBB|Product Description: AutoCAD Mechanical 2000|Company: Autodesk"
 90
        0
280
     0
281
     0
  0
CLASS
  1
ACMFCFSTANDARDBSI
  2
AcmFCFStdBSI
  3
"AcmSymBB|Product Description: AutoCAD Mechanical 2000|Company: Autodesk"
 90
        0
280
     0
281
     0
  0
CLASS
  1
ACMWELDSTANDARDBSI
  2
AcmWeldingStdBSI
  3
"AcmSymBB|Product Description: AutoCAD Mechanical 2000|Company: Autodesk"
 90
        0
280
     0
281
     0
  0
CLASS
  1
ACMIDSTANDARDBSI
  2
AcmIdStdBSI
  3
"AcmSymBB|Product Description: AutoCAD Mechanical 2000|Company: Autodesk"
 90
        0
280
     0
281
     0
  0
CLASS
  1
ACMDATUMSTANDARDBSI
  2
AcmDatumStdBSI
  3
"AcmSymBB|Product Description: AutoCAD Mechanical 2000|Company: Autodesk"
 90
        0
280
     0
281
     0
  0
CLASS
  1
ACMBOMSTANDARDBSI
  2
AcmBOMStdBSI
  3
"AcmSymBB|Product Description: AutoCAD Mechanical 2000|Company: Autodesk"
 90
        0
280
     0
281
     0
  0
CLASS
  1
LONG_TRANSACTION
  2
AcDbLongTransaction
  3
AutoCAD 2000
 90
        0
280
     0
281
     0
  0
CLASS
  1
LWPOLYLINE
  2
AcDbPolyline
  3
AutoCAD 2000
 90
        0
280
     0
281
     1
  0
CLASS
  1
HATCH
  2
AcDbHatch
  3
AutoCAD 2000
 90
        0
280
     0
281
     1
  0
CLASS
  1
XRECORD
  2
AcDbXrecord
  3
AutoCAD 2000
 90
        0
280
     0
281
     0
  0
ENDSEC
  0
SECTION
  2
TABLES
  0
TABLE
  2
VPORT
  5
8
330
0
100
AcDbSymbolTable
 70
     3
  0
VPORT
  5
7E66
330
8
100
AcDbSymbolTableRecord
100
AcDbViewportTableRecord
  2
*ACTIVE
 70
     0
 10
0.0
 20
0.0
 11
1.0
 21
1.0
 12
-43.87915935631887
 22
-28.24123398238077
 13
0.0
 23
0.0
 14
2.5
 24
2.5
 15
10.0
 25
10.0
 16
0.0
 26
0.0
 36
1.0
 17
0.0
 27
0.0
 37
0.0
 40
195.9625737645227
 41
1.56570841889117
 42
50.0
 43
0.0
 44
0.0
 50
0.0
 51
0.0
 71
     0
 72
   100
 73
     1
 74
     3
 75
     0
 76
     0
 77
     0
 78
     0
  0
ENDTAB
  0
TABLE
  2
LTYPE
  5
5
330
0
100
AcDbSymbolTable
 70
    10
  0
LTYPE
  5
14
330
5
100
AcDbSymbolTableRecord
100
AcDbLinetypeTableRecord
  2
BYBLOCK
 70
     0
  3

 72
    65
 73
     0
 40
0.0
  0
LTYPE
  5
15
330
5
100
AcDbSymbolTableRecord
100
AcDbLinetypeTableRecord
  2
BYLAYER
 70
     0
  3

 72
    65
 73
     0
 40
0.0
  0
LTYPE
  5
16
330
5
100
AcDbSymbolTableRecord
100
AcDbLinetypeTableRecord
  2
CONTINUOUS
 70
     0
  3
Solid line
 72
    65
 73
     0
 40
0.0
  0
LTYPE
  5
4B
330
5
100
AcDbSymbolTableRecord
100
AcDbLinetypeTableRecord
  2
AM_ISO02W050
 70
     0
  3
__ __ __ __ __ __ __ __ __ __ __ __ __ __ __
 72
    65
 73
     2
 40
7.5
 49
6.0
 74
     0
 49
-1.5
 74
     0
  0
LTYPE
  5
4C
330
5
100
AcDbSymbolTableRecord
100
AcDbLinetypeTableRecord
  2
AM_ISO08W050
 70
     0
  3
____ . ____ . ____ . ____ . ____ . ____ . ____
 72
    65
 73
     4
 40
18.0
 49
12.0
 74
     0
 49
-1.5
 74
     0
 49
3.0
 74
     0
 49
-1.5
 74
     0
  0
LTYPE
  5
4D
330
5
100
AcDbSymbolTableRecord
100
AcDbLinetypeTableRecord
  2
AM_ISO09W050
 70
     0
  3
_____ . . _____ . . _____ . . ____ .. ____
 72
    65
 73
     6
 40
22.5
 49
12.0
 74
     0
 49
-1.5
 74
     0
 49
3.0
 74
     0
 49
-1.5
 74
     0
 49
3.0
 74
     0
 49
-1.5
 74
     0
  0
LTYPE
  5
4E
330
5
100
AcDbSymbolTableRecord
100
AcDbLinetypeTableRecord
  2
AMCONSTR
 70
     0
  3
_______________________
 72
    65
 73
     2
 40
9999.0
 49
9999.0
 74
     0
 49
0.0
 74
     0
  0
LTYPE
  5
4F
330
5
100
AcDbSymbolTableRecord
100
AcDbLinetypeTableRecord
  2
AM_ISO02W050X2
 70
     0
  3
 _ _ _ _ _ _ _ _ _ _ _ _
 72
    65
 73
     2
 40
3.75
 49
3.0
 74
     0
 49
-0.75
 74
     0
  0
LTYPE
  5
50
330
5
100
AcDbSymbolTableRecord
100
AcDbLinetypeTableRecord
  2
AM_ISO08W050X2
 70
     0
  3
__ . __ . __ . __ . __ . __
 72
    65
 73
     4
 40
9.0
 49
6.0
 74
     0
 49
-0.75
 74
     0
 49
1.5
 74
     0
 49
-0.75
 74
     0
  0
LTYPE
  5
53
330
5
100
AcDbSymbolTableRecord
100
AcDbLinetypeTableRecord
  2
AMZIGZAG
 70
     0
  3
/\/-/\/-/\/-/\/-/\/-/\/
 72
    65
 73
     2
 40
11.00009999999999
 49
0.0001
 74
     4
 75
   135
340
52
 46
0.04
 50
0.0
 44
0.0
 45
0.0
 49
-11.0
 74
     0
  0
LTYPE
  5
166
330
5
100
AcDbSymbolTableRecord
100
AcDbLinetypeTableRecord
  2
ACJISTGL
 70
     0
  3
_ _ _ _ _
 72
    65
 73
     2
 40
3.0
 49
2.0
 74
     0
 49
-1.0
 74
     0
  0
LTYPE
  5
26A
330
5
100
AcDbSymbolTableRecord
100
AcDbLinetypeTableRecord
  2
ACJISTGB
 70
     0
  3
__ . . __ . .
 72
    65
 73
     6
 40
9.0
 49
4.0
 74
     0
 49
-1.0
 74
     0
 49
1.0
 74
     0
 49
-1.0
 74
     0
 49
1.0
 74
     0
 49
-1.0
 74
     0
  0
ENDTAB
  0
TABLE
  2
LAYER
  5
2
330
0
100
AcDbSymbolTable
 70
     8
  0
LAYER
  5
10
330
2
100
AcDbSymbolTableRecord
100
AcDbLayerTableRecord
  2
0
 70
     0
 62
     7
  6
CONTINUOUS
  0
LAYER
  5
3F9
330
2
100
AcDbSymbolTableRecord
100
AcDbLayerTableRecord
  2
AM_0
 70
     0
 62
     7
  6
CONTINUOUS
  0
LAYER
  5
BD5
330
2
100
AcDbSymbolTableRecord
100
AcDbLayerTableRecord
  2
AM_7
 70
     0
 62
     4
  6
AM_ISO08W050
  0
LAYER
  5
BD6
330
2
100
AcDbSymbolTableRecord
100
AcDbLayerTableRecord
  2
AM_5
 70
     0
 62
     3
  6
CONTINUOUS
  0
LAYER
  5
BD7
330
2
100
AcDbSymbolTableRecord
100
AcDbLayerTableRecord
  2
DEFPOINTS
 70
     0
 62
     7
  6
CONTINUOUS
  0
LAYER
  5
E59
330
2
100
AcDbSymbolTableRecord
100
AcDbLayerTableRecord
  2
AM_6
 70
     0
 62
     2
  6
CONTINUOUS
  0
LAYER
  5
1E31
330
2
100
AcDbSymbolTableRecord
100
AcDbLayerTableRecord
  2
AM_11
 70
     0
 62
     3
  6
AM_ISO09W050
  0
LAYER
  5
1E41
330
2
100
AcDbSymbolTableRecord
100
AcDbLayerTableRecord
  2
AM_3
 70
     0
 62
     6
  6
ACJISTGL
  0
ENDTAB
  0
TABLE
  2
STYLE
  5
3
330
0
100
AcDbSymbolTable
 70
     5
  0
STYLE
  5
11
330
3
100
AcDbSymbolTableRecord
100
AcDbTextStyleTableRecord
  2
STANDARD
 70
     0
 40
0.0
 41
1.0
 50
0.0
 71
     0
 42
2.5
  3
simplex.shx
  4
EXTFONT.SHX
  0
STYLE
  5
52
330
3
100
AcDbSymbolTableRecord
100
AcDbTextStyleTableRecord
  2

 70
     1
 40
0.0
 41
1.0
 50
0.0
 71
     0
 42
2.5
  3
ltypeshp.shx
  4

  0
STYLE
  5
6B
330
3
100
AcDbSymbolTableRecord
100
AcDbTextStyleTableRecord
  2
ASAMI
 70
     0
 40
0.0
 41
1.0
 50
0.0
 71
     0
 42
2.5
  3
simplex.shx
  4
EXTFONT.SHX
  0
STYLE
  5
262
330
3
100
AcDbSymbolTableRecord
100
AcDbTextStyleTableRecord
  2
ACJISTS
 70
     0
 40
1.0
 41
1.0
 50
0.0
 71
     0
 42
2.5
  3
simplex.shx
  4
bigfont.shx
  0
STYLE
  5
269
330
3
100
AcDbSymbolTableRecord
100
AcDbTextStyleTableRecord
  2
ACJISGDT
 70
     0
 40
0.0
 41
1.0
 50
0.0
 71
     0
 42
2.5
  3
amgdtans.shx
  4

  0
ENDTAB
  0
TABLE
  2
VIEW
  5
6
330
0
100
AcDbSymbolTable
 70
     0
  0
ENDTAB
  0
TABLE
  2
UCS
  5
7
330
0
100
AcDbSymbolTable
 70
     0
  0
ENDTAB
  0
TABLE
  2
APPID
  5
9
330
0
100
AcDbSymbolTable
 70
    13
  0
APPID
  5
12
330
9
100
AcDbSymbolTableRecord
100
AcDbRegAppTableRecord
  2
ACAD
 70
     0
  0
APPID
  5
30
330
9
100
AcDbSymbolTableRecord
100
AcDbRegAppTableRecord
  2
MCAD_NO_VIS
 70
     0
  0
APPID
  5
31
330
9
100
AcDbSymbolTableRecord
100
AcDbRegAppTableRecord
  2
ACAD_TEMP_GRAPHIC
 70
     0
  0
APPID
  5
2C2
330
9
100
AcDbSymbolTableRecord
100
AcDbRegAppTableRecord
  2
GENIUS_GENDTOL_13
 70
     0
  0
APPID
  5
339
330
9
100
AcDbSymbolTableRecord
100
AcDbRegAppTableRecord
  2
GENIUS_GENODEF_13
 70
     0
  0
APPID
  5
33A
330
9
100
AcDbSymbolTableRecord
100
AcDbRegAppTableRecord
  2
GENIUS_GENOBJ-N-RSBK_13
 70
     0
  0
APPID
  5
33B
330
9
100
AcDbSymbolTableRecord
100
AcDbRegAppTableRecord
  2
GENIUS_GENOBJ-N-LIB_13
 70
     0
  0
APPID
  5
33C
330
9
100
AcDbSymbolTableRecord
100
AcDbRegAppTableRecord
  2
GENIUS_GENSCALE_13
 70
     0
  0
APPID
  5
378
330
9
100
AcDbSymbolTableRecord
100
AcDbRegAppTableRecord
  2
GENIUS_GENDIMSH_14
 70
     0
  0
APPID
  5
BD8
330
9
100
AcDbSymbolTableRecord
100
AcDbRegAppTableRecord
  2
GENIUS_GENOBJ-N-CEN_13
 70
     0
  0
APPID
  5
BD9
330
9
100
AcDbSymbolTableRecord
100
AcDbRegAppTableRecord
  2
GENIUS_GENFIL_13
 70
     0
  0
APPID
  5
BDA
330
9
100
AcDbSymbolTableRecord
100
AcDbRegAppTableRecord
  2
GENIUS_GENOBJ-N-CHA_13
 70
     0
  0
APPID
  5
2BC1
330
9
100
AcDbSymbolTableRecord
100
AcDbRegAppTableRecord
  2
GENIUS_GENOBJ-N-FIL_13
 70
     0
  0
ENDTAB
  0
TABLE
  2
DIMSTYLE
  5
A
330
0
100
AcDbSymbolTable
 70
     9
  0
DIMSTYLE
105
58
102
{ACAD_REACTORS
330
7937
330
7938
330
7939
330
793A
330
793D
330
793E
330
793F
330
793B
330
793C
102
}
330
A
100
AcDbSymbolTableRecord
100
AcDbDimStyleTableRecord
  2
AM_JIS
 70
     0
  3

  4
"
  5
OPEN30
  6

  7

 40
1.0
 41
2.5
 42
1.0
 43
12.0
 44
1.0
 45
0.0
 46
0.0
 47
0.1
 48
0.1
140
3.2
141
0.0
142
0.0
143
0.0393701
144
1.0
145
0.0
146
0.71
147
1.5
 71
     0
 72
     0
 73
     0
 74
     0
 75
     0
 76
     0
 77
     3
 78
     8
170
     0
171
     2
172
     1
173
     0
174
     0
175
     0
176
   256
177
   256
178
     2
270
     2
271
     3
272
     3
273
     2
274
     2
340
6B
275
     0
280
     0
281
     0
282
     0
283
     0
284
     0
285
     0
286
     0
287
     3
288
     0
  0
DIMSTYLE
105
5F
330
A
100
AcDbSymbolTableRecord
100
AcDbDimStyleTableRecord
  2
AM_JIS$3
 70
     0
  3

  4
"
  5
OPEN30
  6

  7

 40
1.0
 41
2.5
 42
1.0
 43
10.0
 44
1.0
 45
0.0
 46
0.0
 47
0.1
 48
0.1
140
3.2
141
0.0
142
0.0
143
0.0393701
144
1.0
145
0.0
146
0.71
147
1.5
 71
     0
 72
     0
 73
     0
 74
     1
 75
     0
 76
     0
 77
     3
 78
     8
170
     0
171
     2
172
     0
173
     0
174
     0
175
     0
176
   256
177
   256
178
     2
270
     2
271
     2
272
     3
273
     2
274
     2
340
6B
275
     0
280
     0
281
     0
282
     0
283
     0
284
     0
285
     0
286
     0
287
     0
288
     1
  0
DIMSTYLE
105
60
330
A
100
AcDbSymbolTableRecord
100
AcDbDimStyleTableRecord
  2
AM_JIS$4
 70
     0
  3

  4
"
  5
OPEN30
  6

  7

 40
1.0
 41
2.5
 42
1.0
 43
10.0
 44
1.0
 45
0.0
 46
0.0
 47
0.1
 48
0.1
140
3.2
141
0.0
142
0.0
143
0.0393701
144
1.0
145
0.0
146
0.71
147
1.5
 71
     0
 72
     0
 73
     0
 74
     1
 75
     0
 76
     0
 77
     3
 78
     8
170
     0
171
     2
172
     0
173
     0
174
     0
175
     0
176
   256
177
   256
178
     2
270
     2
271
     2
272
     3
273
     2
274
     2
340
6B
275
     0
280
     0
281
     0
282
     0
283
     0
284
     0
285
     0
286
     0
287
     0
288
     1
  0
DIMSTYLE
105
61
330
A
100
AcDbSymbolTableRecord
100
AcDbDimStyleTableRecord
  2
AM_JIS$6
 70
     0
  3

  4
"
  5
OPEN30
  6

  7

 40
1.0
 41
2.5
 42
1.0
 43
10.0
 44
1.0
 45
0.0
 46
0.0
 47
0.1
 48
0.1
140
3.2
141
0.0
142
0.0
143
0.0393701
144
1.0
145
0.0
146
0.71
147
1.5
 71
     0
 72
     0
 73
     0
 74
     0
 75
     0
 76
     0
 77
     0
 78
     8
170
     0
171
     2
172
     1
173
     0
174
     0
175
     0
176
   256
177
   256
178
     2
270
     2
271
     2
272
     2
273
     2
274
     2
340
6B
275
     0
280
     0
281
     0
282
     0
283
     0
284
     0
285
     0
286
     0
287
     3
288
     0
  0
DIMSTYLE
105
62
330
A
100
AcDbSymbolTableRecord
100
AcDbDimStyleTableRecord
  2
AM_JIS$7
 70
     0
  3

  4
"
  5
OPEN30
  6

  7

 40
1.0
 41
2.5
 42
1.0
 43
10.0
 44
1.0
 45
0.0
 46
0.0
 47
0.1
 48
0.1
140
3.2
141
0.0
142
0.0
143
0.0393701
144
1.0
145
0.0
146
0.71
147
1.5
 71
     0
 72
     0
 73
     0
 74
     0
 75
     0
 76
     0
 77
     3
 78
     8
170
     0
171
     2
172
     1
173
     0
174
     0
175
     0
176
   256
177
   256
178
     2
270
     2
271
     2
272
     3
273
     2
274
     2
340
6B
275
     0
280
     0
281
     0
282
     0
283
     0
284
     0
285
     0
286
     0
287
     3
288
     0
  0
DIMSTYLE
105
63
330
A
100
AcDbSymbolTableRecord
100
AcDbDimStyleTableRecord
  2
AM_JIS$SF
 70
     0
  3

  4
"
  5
OPEN30
  6

  7

 40
1.0
 41
2.5
 42
1.0
 43
10.0
 44
1.0
 45
0.0
 46
0.0
 47
0.1
 48
0.1
140
3.2
141
0.0
142
0.0
143
0.0393701
144
1.0
145
0.0
146
0.71
147
1.5
 71
     0
 72
     0
 73
     0
 74
     0
 75
     1
 76
     1
 77
     3
 78
     8
170
     0
171
     2
172
     1
173
     0
174
     0
175
     0
176
   256
177
   256
178
     2
270
     2
271
     2
272
     2
273
     2
274
     2
340
6B
275
     0
280
     0
281
     0
282
     0
283
     0
284
     0
285
     0
286
     0
287
     3
288
     0
  0
DIMSTYLE
105
68
330
A
100
AcDbSymbolTableRecord
100
AcDbDimStyleTableRecord
  2
AM_JIS$SH
 70
     0
  3

  4
"
  5

  6
GENAXEH
  7
OPEN30
 40
1.0
 41
2.5
 42
1.0
 43
10.0
 44
1.0
 45
0.0
 46
0.0
 47
0.1
 48
0.1
140
3.2
141
0.0
142
0.0
143
0.0393701
144
2.0
145
0.0
146
0.71
147
1.5
 71
     0
 72
     0
 73
     0
 74
     0
 75
     1
 76
     1
 77
     3
 78
     8
170
     0
171
     2
172
     1
173
     1
174
     0
175
     0
176
   256
177
   256
178
     2
270
     2
271
     2
272
     2
273
     2
274
     2
340
6B
275
     0
280
     0
281
     0
282
     0
283
     0
284
     0
285
     0
286
     0
287
     3
288
     0
  0
DIMSTYLE
105
B34
102
{ACAD_REACTORS
330
7D2C
102
}
330
A
100
AcDbSymbolTableRecord
100
AcDbDimStyleTableRecord
  2
AM_JIS$2
 70
     0
  3

  4
"
  5
OPEN30
  6

  7

 40
1.0
 41
2.5
 42
1.0
 43
12.0
 44
1.0
 45
0.0
 46
0.0
 47
0.1
 48
0.1
140
3.2
141
0.0
142
0.0
143
0.0393701
144
1.0
145
0.0
146
0.71
147
1.5
 71
     0
 72
     0
 73
     0
 74
     0
 75
     0
 76
     0
 77
     3
 78
     8
170
     0
171
     2
172
     1
173
     0
174
     0
175
     0
176
   256
177
   256
178
     2
270
     2
271
     3
272
     3
273
     2
274
     2
340
6B
275
     0
280
     0
281
     0
282
     0
283
     0
284
     0
285
     0
286
     0
287
     3
288
     0
  0
DIMSTYLE
105
1E42
330
A
100
AcDbSymbolTableRecord
100
AcDbDimStyleTableRecord
  2
AM_JIS$0
 70
     0
  3

  4
"
  5
OPEN30
  6

  7

 40
2.0
 41
2.5
 42
1.0
 43
10.0
 44
1.0
 45
0.0
 46
0.0
 47
0.1
 48
0.1
140
2.5
141
0.0
142
0.0
143
0.0393701
144
1.0
145
0.0
146
0.71
147
1.0
 71
     0
 72
     0
 73
     0
 74
     0
 75
     0
 76
     0
 77
     3
 78
     8
170
     0
171
     2
172
     1
173
     0
174
     0
175
     0
176
   256
177
   256
178
     4
270
     2
271
     3
272
     3
273
     2
274
     2
340
6B
275
     0
280
     0
281
     0
282
     0
283
     0
284
     0
285
     0
286
     0
287
     3
288
     0
  0
ENDTAB
  0
TABLE
  2
BLOCK_RECORD
  5
1
330
0
100
AcDbSymbolTable
 70
    15
  0
BLOCK_RECORD
  5
1F
102
{ACAD_XDICTIONARY
360
74
102
}
330
1
100
AcDbSymbolTableRecord
100
AcDbBlockTableRecord
  2
*MODEL_SPACE
  0
BLOCK_RECORD
  5
101
102
{ACAD_XDICTIONARY
360
7E8F
102
}
330
1
100
AcDbSymbolTableRecord
100
AcDbBlockTableRecord
  2
*PAPER_SPACE
  0
BLOCK_RECORD
  5
59
330
1
100
AcDbSymbolTableRecord
100
AcDbBlockTableRecord
  2
_OPEN30
  0
BLOCK_RECORD
  5
64
330
1
100
AcDbSymbolTableRecord
100
AcDbBlockTableRecord
  2
GENAXEH
  0
BLOCK_RECORD
  5
7940
330
1
100
AcDbSymbolTableRecord
100
AcDbBlockTableRecord
  2
*D5
  0
BLOCK_RECORD
  5
794C
330
1
100
AcDbSymbolTableRecord
100
AcDbBlockTableRecord
  2
*D6
  0
BLOCK_RECORD
  5
7958
330
1
100
AcDbSymbolTableRecord
100
AcDbBlockTableRecord
  2
*D7
  0
BLOCK_RECORD
  5
7966
330
1
100
AcDbSymbolTableRecord
100
AcDbBlockTableRecord
  2
*D8
  0
BLOCK_RECORD
  5
7972
330
1
100
AcDbSymbolTableRecord
100
AcDbBlockTableRecord
  2
*D9
  0
BLOCK_RECORD
  5
797E
330
1
100
AcDbSymbolTableRecord
100
AcDbBlockTableRecord
  2
*D10
  0
BLOCK_RECORD
  5
798C
330
1
100
AcDbSymbolTableRecord
100
AcDbBlockTableRecord
  2
*D11
  0
BLOCK_RECORD
  5
7998
330
1
100
AcDbSymbolTableRecord
100
AcDbBlockTableRecord
  2
*D12
  0
BLOCK_RECORD
  5
79A4
330
1
100
AcDbSymbolTableRecord
100
AcDbBlockTableRecord
  2
*D13
  0
BLOCK_RECORD
  5
7D2D
330
1
100
AcDbSymbolTableRecord
100
AcDbBlockTableRecord
  2
*D14
  0
ENDTAB
  0
ENDSEC
  0
SECTION
  2
BLOCKS
  0
BLOCK
  5
20
330
1F
100
AcDbEntity
  8
0
100
AcDbBlockBegin
  2
*MODEL_SPACE
 70
     0
 10
0.0
 20
0.0
 30
0.0
  3
*MODEL_SPACE
  1

  0
ENDBLK
  5
21
330
1F
100
AcDbEntity
  8
0
100
AcDbBlockEnd
  0
BLOCK
  5
103
330
101
100
AcDbEntity
 67
     1
  8
0
100
AcDbBlockBegin
  2
*PAPER_SPACE
 70
     0
 10
0.0
 20
0.0
 30
0.0
  3
*PAPER_SPACE
  1

  0
ENDBLK
  5
104
330
101
100
AcDbEntity
 67
     1
  8
0
100
AcDbBlockEnd
  0
BLOCK
  5
5D
330
59
100
AcDbEntity
  8
0
100
AcDbBlockBegin
  2
_OPEN30
 70
     0
 10
0.0
 20
0.0
 30
0.0
  3
_OPEN30
  1

  0
LINE
  5
5A
330
59
100
AcDbEntity
  8
0
 62
     0
100
AcDbLine
 10
-1.0
 20
0.26794919
 30
0.0
 11
0.0
 21
0.0
 31
0.0
  0
LINE
  5
5B
330
59
100
AcDbEntity
  8
0
 62
     0
100
AcDbLine
 10
0.0
 20
0.0
 30
0.0
 11
-1.0
 21
-0.26794919
 31
0.0
  0
LINE
  5
5C
330
59
100
AcDbEntity
  8
0
 62
     0
100
AcDbLine
 10
0.0
 20
0.0
 30
0.0
 11
-1.0
 21
0.0
 31
0.0
  0
ENDBLK
  5
5E
330
59
100
AcDbEntity
  8
0
100
AcDbBlockEnd
  0
BLOCK
  5
66
330
64
100
AcDbEntity
  8
0
100
AcDbBlockBegin
  2
GENAXEH
 70
     0
 10
0.0
 20
0.0
 30
0.0
  3
GENAXEH
  1

  0
LINE
  5
65
330
64
100
AcDbEntity
  8
0
100
AcDbLine
 10
-1.0
 20
0.0
 30
0.0
 11
1.0
 21
0.0
 31
0.0
  0
ENDBLK
  5
67
330
64
100
AcDbEntity
  8
0
100
AcDbBlockEnd
  0
BLOCK
  5
794A
330
7940
100
AcDbEntity
  8
0
100
AcDbBlockBegin
  2
*D5
 70
     1
 10
0.0
 20
0.0
 30
0.0
  3
*D5
  1

  0
LINE
  5
7BD7
330
7940
100
AcDbEntity
  8
AM_5
100
AcDbLine
 10
-61.69999999999982
 20
37.50000000000001
 30
0.0
 11
-102.324096331168
 21
37.50000000000002
 31
0.0
  0
LINE
  5
7BD8
330
7940
100
AcDbEntity
  8
AM_5
100
AcDbLine
 10
-61.69999999999982
 20
-37.50000000000001
 30
0.0
 11
-102.324096331168
 21
-37.5
 31
0.0
  0
LINE
  5
7BD9
330
7940
100
AcDbEntity
  8
AM_5
100
AcDbLine
 10
-101.324096331168
 20
35.00000000000002
 30
0.0
 11
-101.324096331168
 21
-35.0
 31
0.0
  0
INSERT
  5
7BDA
330
7940
100
AcDbEntity
  8
AM_5
100
AcDbBlockReference
  2
_OPEN30
 10
-101.324096331168
 20
37.50000000000002
 30
0.0
 41
2.5
 42
2.5
 43
2.5
 50
90.0
  0
INSERT
  5
7BDB
330
7940
100
AcDbEntity
  8
AM_5
100
AcDbBlockReference
  2
_OPEN30
 10
-101.324096331168
 20
-37.5
 30
0.0
 41
2.5
 42
2.5
 43
2.5
 50
270.0
  0
MTEXT
  5
7BDC
330
7940
100
AcDbEntity
  8
AM_5
 62
     2
100
AcDbMText
 10
-104.424096331168
 20
-0.0000000000000076
 30
0.0
 40
3.2
 41
0.0
 71
     5
 72
     1
  1
%%c75
  7
ASAMI
 11
0.0000000000000001
 21
1.0
 31
0.0
1001
ACAD
1000
MTEXTBEGIN
1070
    73
1070
     1
1070
    44
1040
1.0
1070
    74
1070
     0
1000
MTEXTEND
  0
POINT
  5
7BDD
330
7940
100
AcDbEntity
  8
DEFPOINTS
 62
     0
100
AcDbPoint
 10
-60.69999999999982
 20
37.50000000000001
 30
0.0
  0
POINT
  5
7BDE
330
7940
100
AcDbEntity
  8
DEFPOINTS
 62
     0
100
AcDbPoint
 10
-60.69999999999982
 20
-37.50000000000001
 30
0.0
  0
POINT
  5
7BDF
330
7940
100
AcDbEntity
  8
DEFPOINTS
 62
     0
100
AcDbPoint
 10
-101.324096331168
 20
-37.5
 30
0.0
  0
ENDBLK
  5
794B
330
7940
100
AcDbEntity
  8
0
100
AcDbBlockEnd
  0
BLOCK
  5
7956
330
794C
100
AcDbEntity
  8
0
100
AcDbBlockBegin
  2
*D6
 70
     1
 10
0.0
 20
0.0
 30
0.0
  3
*D6
  1

  0
LINE
  5
7CF8
330
794C
100
AcDbEntity
  8
AM_5
100
AcDbLine
 10
-27.20157287525356
 20
69.0
 30
0.0
 11
-112.324096331168
 21
69.00000000000003
 31
0.0
  0
LINE
  5
7CF9
330
794C
100
AcDbEntity
  8
AM_5
100
AcDbLine
 10
-27.17157287525356
 20
-69.0
 30
0.0
 11
-112.324096331168
 21
-68.99999999999997
 31
0.0
  0
LINE
  5
7CFA
330
794C
100
AcDbEntity
  8
AM_5
100
AcDbLine
 10
-111.324096331168
 20
66.50000000000003
 30
0.0
 11
-111.324096331168
 21
-66.49999999999997
 31
0.0
  0
INSERT
  5
7CFB
330
794C
100
AcDbEntity
  8
AM_5
100
AcDbBlockReference
  2
_OPEN30
 10
-111.324096331168
 20
69.00000000000003
 30
0.0
 41
2.5
 42
2.5
 43
2.5
 50
90.0
  0
INSERT
  5
7CFC
330
794C
100
AcDbEntity
  8
AM_5
100
AcDbBlockReference
  2
_OPEN30
 10
-111.324096331168
 20
-68.99999999999997
 30
0.0
 41
2.5
 42
2.5
 43
2.5
 50
270.0
  0
MTEXT
  5
7CFD
330
794C
100
AcDbEntity
  8
AM_5
 62
     2
100
AcDbMText
 10
-114.424096331168
 20
0.0000000000000072
 30
0.0
 40
3.2
 41
0.0
 71
     5
 72
     1
  1
%%c138
  7
ASAMI
 11
0.0000000000000001
 21
1.0
 31
0.0
1001
ACAD
1000
MTEXTBEGIN
1070
    73
1070
     1
1070
    44
1040
1.0
1070
    74
1070
     0
1000
MTEXTEND
  0
POINT
  5
7CFE
330
794C
100
AcDbEntity
  8
DEFPOINTS
 62
     0
100
AcDbPoint
 10
-26.20157287525356
 20
69.0
 30
0.0
  0
POINT
  5
7CFF
330
794C
100
AcDbEntity
  8
DEFPOINTS
 62
     0
100
AcDbPoint
 10
-26.17157287525356
 20
-69.0
 30
0.0
  0
POINT
  5
7D00
330
794C
100
AcDbEntity
  8
DEFPOINTS
 62
     0
100
AcDbPoint
 10
-111.324096331168
 20
-68.99999999999997
 30
0.0
  0
ENDBLK
  5
7957
330
794C
100
AcDbEntity
  8
0
100
AcDbBlockEnd
  0
BLOCK
  5
7964
330
7958
100
AcDbEntity
  8
0
100
AcDbBlockBegin
  2
*D7
 70
     1
 10
0.0
 20
0.0
 30
0.0
  3
*D7
  1

  0
LINE
  5
7BCC
330
7958
100
AcDbEntity
  8
AM_5
100
AcDbLine
 10
-62.49999999999994
 20
7.949999999999982
 30
0.0
 11
-82.32409633116807
 21
7.949999999999987
 31
0.0
  0
LINE
  5
7BCD
330
7958
100
AcDbEntity
  8
AM_5
100
AcDbLine
 10
-62.49999999999994
 20
-7.94999999999998
 30
0.0
 11
-82.32409633116807
 21
-7.949999999999975
 31
0.0
  0
LINE
  5
7BCE
330
7958
100
AcDbEntity
  8
AM_5
100
AcDbLine
 10
-81.32409633116807
 20
10.44999999999998
 30
0.0
 11
-81.32409633116807
 21
12.94999999999998
 31
0.0
  0
LINE
  5
7BCF
330
7958
100
AcDbEntity
  8
AM_5
100
AcDbLine
 10
-81.32409633116807
 20
-10.44999999999997
 30
0.0
 11
-81.32409633116807
 21
-12.94999999999997
 31
0.0
  0
LINE
  5
7BD0
330
7958
100
AcDbEntity
  8
AM_5
100
AcDbLine
 10
-81.32409633116807
 20
7.949999999999986
 30
0.0
 11
-81.32409633116807
 21
-7.949999999999976
 31
0.0
  0
INSERT
  5
7BD1
330
7958
100
AcDbEntity
  8
AM_5
100
AcDbBlockReference
  2
_OPEN30
 10
-81.32409633116807
 20
7.949999999999986
 30
0.0
 41
2.5
 42
2.5
 43
2.5
 50
270.0
  0
INSERT
  5
7BD2
330
7958
100
AcDbEntity
  8
AM_5
100
AcDbBlockReference
  2
_OPEN30
 10
-81.32409633116807
 20
-7.949999999999976
 30
0.0
 41
2.5
 42
2.5
 43
2.5
 50
90.0
  0
MTEXT
  5
7BD3
330
7958
100
AcDbEntity
  8
AM_5
 62
     2
100
AcDbMText
 10
-84.42409633116808
 20
-0.0000000000000351
 30
0.0
 40
3.2
 41
0.0
 71
     5
 72
     1
  1
15.9
  7
ASAMI
 11
0.0000000000000001
 21
1.0
 31
0.0
1001
ACAD
1000
MTEXTBEGIN
1070
    73
1070
     1
1070
    44
1040
1.0
1070
    74
1070
     0
1000
MTEXTEND
  0
POINT
  5
7BD4
330
7958
100
AcDbEntity
  8
DEFPOINTS
 62
     0
100
AcDbPoint
 10
-61.49999999999995
 20
7.949999999999981
 30
0.0
  0
POINT
  5
7BD5
330
7958
100
AcDbEntity
  8
DEFPOINTS
 62
     0
100
AcDbPoint
 10
-61.49999999999995
 20
-7.949999999999981
 30
0.0
  0
POINT
  5
7BD6
330
7958
100
AcDbEntity
  8
DEFPOINTS
 62
     0
100
AcDbPoint
 10
-81.32409633116807
 20
-7.949999999999976
 30
0.0
  0
ENDBLK
  5
7965
330
7958
100
AcDbEntity
  8
0
100
AcDbBlockEnd
  0
BLOCK
  5
7970
330
7966
100
AcDbEntity
  8
0
100
AcDbBlockBegin
  2
*D8
 70
     1
 10
0.0
 20
0.0
 30
0.0
  3
*D8
  1

  0
LINE
  5
7BC3
330
7966
100
AcDbEntity
  8
AM_5
100
AcDbLine
 10
-61.19999999999987
 20
19.04999999999999
 30
0.0
 11
-92.32409633116807
 21
19.05
 31
0.0
  0
LINE
  5
7BC4
330
7966
100
AcDbEntity
  8
AM_5
100
AcDbLine
 10
-61.19999999999987
 20
-19.04999999999999
 30
0.0
 11
-92.32409633116807
 21
-19.04999999999997
 31
0.0
  0
LINE
  5
7BC5
330
7966
100
AcDbEntity
  8
AM_5
100
AcDbLine
 10
-91.32409633116807
 20
16.55
 30
0.0
 11
-91.32409633116807
 21
-16.54999999999998
 31
0.0
  0
INSERT
  5
7BC6
330
7966
100
AcDbEntity
  8
AM_5
100
AcDbBlockReference
  2
_OPEN30
 10
-91.32409633116807
 20
19.05
 30
0.0
 41
2.5
 42
2.5
 43
2.5
 50
90.0
  0
INSERT
  5
7BC7
330
7966
100
AcDbEntity
  8
AM_5
100
AcDbBlockReference
  2
_OPEN30
 10
-91.32409633116807
 20
-19.04999999999997
 30
0.0
 41
2.5
 42
2.5
 43
2.5
 50
270.0
  0
MTEXT
  5
7BC8
330
7966
100
AcDbEntity
  8
AM_5
 62
     2
100
AcDbMText
 10
-94.42409633116808
 20
-0.0000000000000011
 30
0.0
 40
3.2
 41
0.0
 71
     5
 72
     1
  1
%%c38.1
  7
ASAMI
 11
0.0000000000000001
 21
1.0
 31
0.0
1001
ACAD
1000
MTEXTBEGIN
1070
    73
1070
     1
1070
    44
1040
1.0
1070
    74
1070
     0
1000
MTEXTEND
  0
POINT
  5
7BC9
330
7966
100
AcDbEntity
  8
DEFPOINTS
 62
     0
100
AcDbPoint
 10
-60.19999999999988
 20
19.04999999999999
 30
0.0
  0
POINT
  5
7BCA
330
7966
100
AcDbEntity
  8
DEFPOINTS
 62
     0
100
AcDbPoint
 10
-60.19999999999988
 20
-19.04999999999999
 30
0.0
  0
POINT
  5
7BCB
330
7966
100
AcDbEntity
  8
DEFPOINTS
 62
     0
100
AcDbPoint
 10
-91.32409633116807
 20
-19.04999999999997
 30
0.0
  0
ENDBLK
  5
7971
330
7966
100
AcDbEntity
  8
0
100
AcDbBlockEnd
  0
BLOCK
  5
797C
330
7972
100
AcDbEntity
  8
0
100
AcDbBlockBegin
  2
*D9
 70
     1
 10
0.0
 20
0.0
 30
0.0
  3
*D9
  1

  0
LINE
  5
7D13
330
7972
100
AcDbEntity
  8
AM_5
100
AcDbLine
 10
-62.99999999999982
 20
-36.20000000000003
 30
0.0
 11
-62.99999999999983
 21
-94.10626899999998
 31
0.0
  0
LINE
  5
7D14
330
7972
100
AcDbEntity
  8
AM_5
100
AcDbLine
 10
-24.9999999999998
 20
-29.0
 30
0.0
 11
-24.9999999999998
 21
-94.10626899999998
 31
0.0
  0
LINE
  5
7D15
330
7972
100
AcDbEntity
  8
AM_5
100
AcDbLine
 10
-60.49999999999982
 20
-93.10626899999999
 30
0.0
 11
-27.4999999999998
 21
-93.10626899999999
 31
0.0
  0
INSERT
  5
7D16
330
7972
100
AcDbEntity
  8
AM_5
100
AcDbBlockReference
  2
_OPEN30
 10
-62.99999999999982
 20
-93.10626899999999
 30
0.0
 41
2.5
 42
2.5
 43
2.5
 50
180.0
  0
INSERT
  5
7D17
330
7972
100
AcDbEntity
  8
AM_5
100
AcDbBlockReference
  2
_OPEN30
 10
-24.9999999999998
 20
-93.10626899999999
 30
0.0
 41
2.5
 42
2.5
 43
2.5
  0
MTEXT
  5
7D18
330
7972
100
AcDbEntity
  8
AM_5
 62
     2
100
AcDbMText
 10
-43.99999999999981
 20
-90.00626899999998
 30
0.0
 40
3.2
 41
0.0
 71
     5
 72
     1
  1
38
  7
ASAMI
1001
ACAD
1000
MTEXTBEGIN
1070
    73
1070
     1
1070
    44
1040
1.0
1070
    74
1070
     0
1000
MTEXTEND
  0
POINT
  5
7D19
330
7972
100
AcDbEntity
  8
DEFPOINTS
 62
     0
100
AcDbPoint
 10
-62.99999999999982
 20
-35.20000000000003
 30
0.0
  0
POINT
  5
7D1A
330
7972
100
AcDbEntity
  8
DEFPOINTS
 62
     0
100
AcDbPoint
 10
-24.9999999999998
 20
-28.0
 30
0.0
  0
POINT
  5
7D1B
330
7972
100
AcDbEntity
  8
DEFPOINTS
 62
     0
100
AcDbPoint
 10
-24.9999999999998
 20
-93.10626899999999
 30
0.0
  0
ENDBLK
  5
797D
330
7972
100
AcDbEntity
  8
0
100
AcDbBlockEnd
  0
BLOCK
  5
798A
330
797E
100
AcDbEntity
  8
0
100
AcDbBlockBegin
  2
*D10
 70
     1
 10
0.0
 20
0.0
 30
0.0
  3
*D10
  1

  0
LINE
  5
7D0A
330
797E
100
AcDbEntity
  8
AM_5
100
AcDbLine
 10
-62.99999999999982
 20
-36.20000000000003
 30
0.0
 11
-62.99999999999982
 21
-84.10626899999998
 31
0.0
  0
LINE
  5
7D0B
330
797E
100
AcDbEntity
  8
AM_5
100
AcDbLine
 10
-52.99999999999986
 20
-7.949999999999974
 30
0.0
 11
-52.99999999999986
 21
-84.10626899999998
 31
0.0
  0
LINE
  5
7D0C
330
797E
100
AcDbEntity
  8
AM_5
100
AcDbLine
 10
-60.49999999999982
 20
-83.10626899999999
 30
0.0
 11
-55.49999999999986
 21
-83.10626899999999
 31
0.0
  0
INSERT
  5
7D0D
330
797E
100
AcDbEntity
  8
AM_5
100
AcDbBlockReference
  2
_OPEN30
 10
-62.99999999999982
 20
-83.10626899999999
 30
0.0
 41
2.5
 42
2.5
 43
2.5
 50
180.0
  0
INSERT
  5
7D0E
330
797E
100
AcDbEntity
  8
AM_5
100
AcDbBlockReference
  2
_OPEN30
 10
-52.99999999999986
 20
-83.10626899999999
 30
0.0
 41
2.5
 42
2.5
 43
2.5
  0
MTEXT
  5
7D0F
330
797E
100
AcDbEntity
  8
AM_5
 62
     2
100
AcDbMText
 10
-57.99999999999984
 20
-80.00626899999998
 30
0.0
 40
3.2
 41
0.0
 71
     5
 72
     1
  1
10
  7
ASAMI
1001
ACAD
1000
MTEXTBEGIN
1070
    73
1070
     1
1070
    44
1040
1.0
1070
    74
1070
     0
1000
MTEXTEND
  0
POINT
  5
7D10
330
797E
100
AcDbEntity
  8
DEFPOINTS
 62
     0
100
AcDbPoint
 10
-62.99999999999982
 20
-35.20000000000003
 30
0.0
  0
POINT
  5
7D11
330
797E
100
AcDbEntity
  8
DEFPOINTS
 62
     0
100
AcDbPoint
 10
-52.99999999999986
 20
-6.949999999999974
 30
0.0
  0
POINT
  5
7D12
330
797E
100
AcDbEntity
  8
DEFPOINTS
 62
     0
100
AcDbPoint
 10
-52.99999999999986
 20
-83.10626899999999
 30
0.0
  0
ENDBLK
  5
798B
330
797E
100
AcDbEntity
  8
0
100
AcDbBlockEnd
  0
BLOCK
  5
7996
330
798C
100
AcDbEntity
  8
0
100
AcDbBlockBegin
  2
*D11
 70
     1
 10
0.0
 20
0.0
 30
0.0
  3
*D11
  1

  0
LINE
  5
7D01
330
798C
100
AcDbEntity
  8
AM_5
100
AcDbLine
 10
-62.99999999999982
 20
-36.20000000000003
 30
0.0
 11
-62.99999999999983
 21
-104.1062689999999
 31
0.0
  0
LINE
  5
7D02
330
798C
100
AcDbEntity
  8
AM_5
100
AcDbLine
 10
0.0000000000002557
 20
-63.50000000000003
 30
0.0
 11
0.0000000000002532
 21
-104.1062689999999
 31
0.0
  0
LINE
  5
7D03
330
798C
100
AcDbEntity
  8
AM_5
100
AcDbLine
 10
-60.49999999999983
 20
-103.1062689999999
 30
0.0
 11
-2.499999999999746
 21
-103.1062689999999
 31
0.0
  0
INSERT
  5
7D04
330
798C
100
AcDbEntity
  8
AM_5
100
AcDbBlockReference
  2
_OPEN30
 10
-62.99999999999983
 20
-103.1062689999999
 30
0.0
 41
2.5
 42
2.5
 43
2.5
 50
180.0
  0
INSERT
  5
7D05
330
798C
100
AcDbEntity
  8
AM_5
100
AcDbBlockReference
  2
_OPEN30
 10
0.0000000000002533
 20
-103.1062689999999
 30
0.0
 41
2.5
 42
2.5
 43
2.5
  0
MTEXT
  5
7D06
330
798C
100
AcDbEntity
  8
AM_5
 62
     2
100
AcDbMText
 10
-31.49999999999979
 20
-100.0062689999999
 30
0.0
 40
3.2
 41
0.0
 71
     5
 72
     1
  1
63
  7
ASAMI
1001
ACAD
1000
MTEXTBEGIN
1070
    73
1070
     1
1070
    44
1040
1.0
1070
    74
1070
     0
1000
MTEXTEND
  0
POINT
  5
7D07
330
798C
100
AcDbEntity
  8
DEFPOINTS
 62
     0
100
AcDbPoint
 10
-62.99999999999982
 20
-35.20000000000003
 30
0.0
  0
POINT
  5
7D08
330
798C
100
AcDbEntity
  8
DEFPOINTS
 62
     0
100
AcDbPoint
 10
0.0000000000002558
 20
-62.50000000000003
 30
0.0
  0
POINT
  5
7D09
330
798C
100
AcDbEntity
  8
DEFPOINTS
 62
     0
100
AcDbPoint
 10
0.0000000000002533
 20
-103.1062689999999
 30
0.0
  0
ENDBLK
  5
7997
330
798C
100
AcDbEntity
  8
0
100
AcDbBlockEnd
  0
BLOCK
  5
79A2
330
7998
100
AcDbEntity
  8
0
100
AcDbBlockBegin
  2
*D12
 70
     1
 10
0.0
 20
0.0
 30
0.0
  3
*D12
  1

  0
LINE
  5
7BE0
330
7998
100
AcDbEntity
  8
AM_5
100
AcDbLine
 10
1.000000000000312
 20
62.5
 30
0.0
 11
28.26553665350422
 21
62.5
 31
0.0
  0
LINE
  5
7BE1
330
7998
100
AcDbEntity
  8
AM_5
100
AcDbLine
 10
1.000000000000255
 20
-62.50000000000003
 30
0.0
 11
28.2655366535042
 21
-62.50000000000003
 31
0.0
  0
LINE
  5
7BE2
330
7998
100
AcDbEntity
  8
AM_5
100
AcDbLine
 10
27.26553665350422
 20
60.0
 30
0.0
 11
27.2655366535042
 21
-60.00000000000003
 31
0.0
  0
INSERT
  5
7BE3
330
7998
100
AcDbEntity
  8
AM_5
100
AcDbBlockReference
  2
_OPEN30
 10
27.26553665350422
 20
62.5
 30
0.0
 41
2.5
 42
2.5
 43
2.5
 50
90.0
  0
INSERT
  5
7BE4
330
7998
100
AcDbEntity
  8
AM_5
100
AcDbBlockReference
  2
_OPEN30
 10
27.2655366535042
 20
-62.50000000000003
 30
0.0
 41
2.5
 42
2.5
 43
2.5
 50
270.0
  0
MTEXT
  5
7BE5
330
7998
100
AcDbEntity
  8
AM_5
 62
     2
100
AcDbMText
 10
24.16553665350421
 20
-0.0000000000000155
 30
0.0
 40
3.2
 41
0.0
 71
     5
 72
     1
  1
%%c125
  7
ASAMI
 11
0.0000000000000001
 21
1.0
 31
0.0
1001
ACAD
1000
MTEXTBEGIN
1070
    73
1070
     1
1070
    44
1040
1.0
1070
    74
1070
     0
1000
MTEXTEND
  0
POINT
  5
7BE6
330
7998
100
AcDbEntity
  8
DEFPOINTS
 62
     0
100
AcDbPoint
 10
0.0000000000003126
 20
62.5
 30
0.0
  0
POINT
  5
7BE7
330
7998
100
AcDbEntity
  8
DEFPOINTS
 62
     0
100
AcDbPoint
 10
0.0000000000002558
 20
-62.50000000000003
 30
0.0
  0
POINT
  5
7BE8
330
7998
100
AcDbEntity
  8
DEFPOINTS
 62
     0
100
AcDbPoint
 10
27.2655366535042
 20
-62.50000000000003
 30
0.0
  0
ENDBLK
  5
79A3
330
7998
100
AcDbEntity
  8
0
100
AcDbBlockEnd
  0
BLOCK
  5
79AE
330
79A4
100
AcDbEntity
  8
0
100
AcDbBlockBegin
  2
*D13
 70
     1
 10
0.0
 20
0.0
 30
0.0
  3
*D13
  1

  0
LINE
  5
7BE9
330
79A4
100
AcDbEntity
  8
AM_5
100
AcDbLine
 10
-20.99999999999994
 20
27.99999999999995
 30
0.0
 11
18.26553665350421
 21
27.99999999999994
 31
0.0
  0
LINE
  5
7BEA
330
79A4
100
AcDbEntity
  8
AM_5
100
AcDbLine
 10
-20.99999999999994
 20
-27.99999999999995
 30
0.0
 11
18.26553665350419
 21
-27.99999999999997
 31
0.0
  0
LINE
  5
7BEB
330
79A4
100
AcDbEntity
  8
AM_5
100
AcDbLine
 10
17.26553665350421
 20
25.49999999999994
 30
0.0
 11
17.2655366535042
 21
-25.49999999999997
 31
0.0
  0
INSERT
  5
7BEC
330
79A4
100
AcDbEntity
  8
AM_5
100
AcDbBlockReference
  2
_OPEN30
 10
17.26553665350421
 20
27.99999999999994
 30
0.0
 41
2.5
 42
2.5
 43
2.5
 50
90.0
  0
INSERT
  5
7BED
330
79A4
100
AcDbEntity
  8
AM_5
100
AcDbBlockReference
  2
_OPEN30
 10
17.2655366535042
 20
-27.99999999999997
 30
0.0
 41
2.5
 42
2.5
 43
2.5
 50
270.0
  0
MTEXT
  5
7BEE
330
79A4
100
AcDbEntity
  8
AM_5
 62
     2
100
AcDbMText
 10
14.1655366535042
 20
-0.0000000000000078
 30
0.0
 40
3.2
 41
0.0
 71
     5
 72
     1
  1
%%c56
  7
ASAMI
 11
0.0000000000000001
 21
1.0
 31
0.0
1001
ACAD
1000
MTEXTBEGIN
1070
    73
1070
     1
1070
    44
1040
1.0
1070
    74
1070
     0
1000
MTEXTEND
  0
POINT
  5
7BEF
330
79A4
100
AcDbEntity
  8
DEFPOINTS
 62
     0
100
AcDbPoint
 10
-21.99999999999994
 20
27.99999999999995
 30
0.0
  0
POINT
  5
7BF0
330
79A4
100
AcDbEntity
  8
DEFPOINTS
 62
     0
100
AcDbPoint
 10
-21.99999999999994
 20
-27.99999999999995
 30
0.0
  0
POINT
  5
7BF1
330
79A4
100
AcDbEntity
  8
DEFPOINTS
 62
     0
100
AcDbPoint
 10
17.2655366535042
 20
-27.99999999999997
 30
0.0
  0
ENDBLK
  5
79AF
330
79A4
100
AcDbEntity
  8
0
100
AcDbBlockEnd
  0
BLOCK
  5
7D3D
330
7D2D
100
AcDbEntity
  8
0
100
AcDbBlockBegin
  2
*D14
 70
     1
 10
0.0
 20
0.0
 30
0.0
  3
*D14
  1

  0
LINE
  5
7E03
330
7D2D
100
AcDbEntity
  8
AM_5
100
AcDbLine
 10
-7.0286420086688
 20
-69.82796029329557
 30
0.0
 11
-18.98184173208046
 21
-82.29019308918363
 31
0.0
  0
LINE
  5
7E04
330
7D2D
100
AcDbEntity
  8
AM_5
100
AcDbLine
 10
-0.0000000000003268
 20
-63.50000000000064
 30
0.0
 11
-0.0000000000004654
 21
-89.92192659258135
 31
0.0
  0
ARC
  5
7E05
330
7D2D
100
AcDbEntity
  8
AM_5
100
AcDbCircle
 10
-0.0000000000003197
 20
-62.50000000000063
 30
0.0
 40
26.42192659258071
100
AcDbArc
 50
231.6176350078328
 51
264.5767416205013
  0
INSERT
  5
7E06
330
7D2D
100
AcDbEntity
  8
AM_5
100
AcDbBlockReference
  2
_OPEN30
 10
-18.28962772341135
 20
-81.56850079588803
 30
0.0
 41
2.5
 42
2.5
 43
2.5
 50
138.9060058180836
  0
INSERT
  5
7E07
330
7D2D
100
AcDbEntity
  8
AM_5
100
AcDbBlockReference
  2
_OPEN30
 10
-0.0000000000004619
 20
-88.92192659258135
 30
0.0
 41
2.5
 42
2.5
 43
2.5
 50
357.2883708102505
  0
MTEXT
  5
7E08
330
7D2D
100
AcDbEntity
  8
AM_5
 62
     2
100
AcDbMText
 10
-8.699855565644877
 20
-84.13850209988378
 30
0.0
 40
3.2
 41
0.0
 71
     5
 72
     1
  1
45%%d
  7
ASAMI
 11
0.9278179490868854
 21
-0.373033313997833
 31
0.0
1001
ACAD
1000
MTEXTBEGIN
1070
    73
1070
     1
1070
    44
1040
1.0
1070
    74
1070
     0
1000
MTEXTEND
  0
POINT
  5
7E09
330
7D2D
100
AcDbEntity
  8
DEFPOINTS
 62
     0
100
AcDbPoint
 10
-12.89170119045878
 20
-85.56343958042003
 30
0.0
  0
POINT
  5
7E0A
330
7D2D
100
AcDbEntity
  8
DEFPOINTS
 62
     0
100
AcDbPoint
 10
-6.336427999999695
 20
-69.10626799999999
 30
0.0
  0
POINT
  5
7E0B
330
7D2D
100
AcDbEntity
  8
DEFPOINTS
 62
     0
100
AcDbPoint
 10
0.0000000000003126
 20
62.49999999999997
 30
0.0
  0
POINT
  5
7E0C
330
7D2D
100
AcDbEntity
  8
DEFPOINTS
 62
     0
100
AcDbPoint
 10
-0.0000000000003126
 20
-62.50000000000002
 30
0.0
  0
POINT
  5
7E0D
330
7D2D
100
AcDbEntity
  8
DEFPOINTS
 62
     0
100
AcDbPoint
 10
0.0000000000003126
 20
-62.49999999999998
 30
0.0
  0
ENDBLK
  5
7D3E
330
7D2D
100
AcDbEntity
  8
0
100
AcDbBlockEnd
  0
ENDSEC
  0
SECTION
  2
ENTITIES
  0
TEXT
  5
E5A
330
1F
100
AcDbEntity
  8
AM_6
100
AcDbText
 10
-49.59523809523787
 20
-125.6062689999999
 30
0.0
 40
5.0
  1
EHG4125R
 72
     4
 11
-31.49999999999977
 21
-123.1062689999999
 31
0.0
100
AcDbText
  0
LINE
  5
6CCE
330
1F
100
AcDbEntity
  8
AM_3
100
AcDbLine
 10
-1.999999999999801
 20
57.20000000000002
 30
0.0
 11
-1.999999999999801
 21
54.00477448845602
 31
0.0
  0
LINE
  5
6CCF
330
1F
100
AcDbEntity
  8
AM_3
100
AcDbLine
 10
-12.75896380647348
 20
46.44103619352628
 30
0.0
 11
-1.999999999999801
 21
57.20000000000002
 31
0.0
  0
LINE
  5
6CD0
330
1F
100
AcDbEntity
  8
AM_0
100
AcDbLine
 10
-40.9828323961925
 20
55.01716760380732
 30
0.0
 11
-46.87958982747804
 21
38.81595971334866
 31
0.0
  0
LINE
  5
6CD1
330
1F
100
AcDbEntity
  8
AM_0
100
AcDbLine
 10
-51.74093667927323
 20
18.80000000000009
 30
0.0
 11
-25.99999999999983
 21
18.80000000000001
 31
0.0
  0
LINE
  5
6CD2
330
1F
100
AcDbEntity
  8
AM_7
100
AcDbLine
 10
-67.32409533116808
 20
0.0
 30
0.0
 11
3.265535653504201
 21
0.0
 31
0.0
  0
LINE
  5
6CD3
330
1F
100
AcDbEntity
  8
AM_0
100
AcDbLine
 10
-62.99999999999982
 20
35.20000000000003
 30
0.0
 11
-62.99999999999994
 21
9.449999999999981
 31
0.0
  0
LINE
  5
6CD4
330
1F
100
AcDbEntity
  8
AM_0
100
AcDbLine
 10
-61.49999999999995
 20
7.949999999999981
 30
0.0
 11
-53.99999999999986
 21
7.949999999999988
 31
0.0
  0
LINE
  5
6CD5
330
1F
100
AcDbEntity
  8
AM_0
100
AcDbLine
 10
-52.99999999999986
 20
6.949999999999974
 30
0.0
 11
-52.99999999999991
 21
0.0
 31
0.0
  0
LINE
  5
6CD6
330
1F
100
AcDbEntity
  8
AM_0
100
AcDbLine
 10
-60.69999999999982
 20
37.50000000000001
 30
0.0
 11
-48.75897506904985
 21
37.49999999999998
 31
0.0
  0
LINE
  5
6CD7
330
1F
100
AcDbEntity
  8
AM_0
100
AcDbLine
 10
-60.19999999999988
 20
19.04999999999999
 30
0.0
 11
-58.9
 21
19.04999999999998
 31
0.0
  0
LINE
  5
6CD8
330
1F
100
AcDbEntity
  8
AM_0
100
AcDbLine
 10
-51.74093667927164
 20
18.80000000000004
 30
0.0
 11
-51.74093667927163
 21
0.0
 31
0.0
  0
LINE
  5
6CD9
330
1F
100
AcDbEntity
  8
AM_0
100
AcDbLine
 10
-58.89999999999989
 20
19.04999999999998
 30
0.0
 11
-51.74093667927323
 21
18.80000000000009
 31
0.0
  0
LINE
  5
6CDA
330
1F
100
AcDbEntity
  8
AM_0
100
AcDbLine
 10
-58.89999999999989
 20
19.04999999999998
 30
0.0
 11
-58.89999999999989
 21
7.949999999999983
 31
0.0
  0
LINE
  5
6CDC
330
1F
100
AcDbEntity
  8
AM_0
100
AcDbLine
 10
-24.9999999999998
 20
28.0
 30
0.0
 11
-24.99999999999991
 21
0.0
 31
0.0
  0
LINE
  5
6CDD
330
1F
100
AcDbEntity
  8
AM_0
100
AcDbLine
 10
-21.4999999999998
 20
32.70000000000001
 30
0.0
 11
-21.50000000000088
 21
-0.0000000000000071
 31
0.0
  0
LINE
  5
6CDE
330
1F
100
AcDbEntity
  8
AM_0
100
AcDbLine
 10
-24.99999999999968
 20
27.99999999999997
 30
0.0
 11
-21.99999999999994
 21
27.99999999999995
 31
0.0
  0
LINE
  5
6CDF
330
1F
100
AcDbEntity
  8
AM_0
100
AcDbLine
 10
-21.9999999999998
 20
32.69999999999999
 30
0.0
 11
-21.4999999999998
 21
32.70000000000001
 31
0.0
  0
LINE
  5
6CE0
330
1F
100
AcDbEntity
  8
AM_0
100
AcDbLine
 10
-21.9999999999998
 20
37.19999999999996
 30
0.0
 11
-21.9999999999998
 21
32.69999999999999
 31
0.0
  0
LINE
  5
6CE1
330
1F
100
AcDbEntity
  8
AM_0
100
AcDbLine
 10
-27.58578643762666
 20
68.41421356237309
 30
0.0
 11
-40.98283239619249
 21
55.01716760380734
 31
0.0
  0
LINE
  5
6CE2
330
1F
100
AcDbEntity
  8
AM_0
100
AcDbLine
 10
-26.17157287525356
 20
69.0
 30
0.0
 11
-8.996139424194012
 21
69.0
 31
0.0
  0
LINE
  5
6CE3
330
1F
100
AcDbEntity
  8
AM_3
100
AcDbLine
 10
-1.999999999999801
 20
61.19999999999999
 30
0.0
 11
-8.767490018385627
 21
68.71605910840094
 31
0.0
  0
LINE
  5
6CE4
330
1F
100
AcDbEntity
  8
AM_3
100
AcDbLine
 10
-1.999999999999801
 20
61.19999999999999
 30
0.0
 11
-1.999999999999801
 21
57.20000000000002
 31
0.0
  0
ARC
  5
78F6
330
1F
100
AcDbEntity
  8
AM_0
100
AcDbCircle
 10
-48.75897506904985
 20
39.49999999999998
 30
0.0
 40
2.0
100
AcDbArc
 50
269.9999999999998
 51
340.0000000000005
1001
GENIUS_GENODEF_13
1002
{
1000
HIER
1070
     0
1002
}
1002
{
1000
MANEDIT
1070
     0
1002
}
1002
{
1000
NOSEL
1070
     0
1002
}
1002
{
1000
BEHIND
1070
     0
1002
}
1002
{
1000
REACTOR
1002
}
1001
GENIUS_GENOBJ-N-FIL_13
1002
{
1000
OWNER
1000
GEN
1002
}
  0
ARC
  5
78F9
330
1F
100
AcDbEntity
  8
AM_0
100
AcDbCircle
 10
-26.17157287525356
 20
67.0
 30
0.0
 40
2.0
100
AcDbArc
 50
90.0
 51
135.0
1001
GENIUS_GENODEF_13
1002
{
1000
HIER
1070
     0
1002
}
1002
{
1000
MANEDIT
1070
     0
1002
}
1002
{
1000
NOSEL
1070
     0
1002
}
1002
{
1000
BEHIND
1070
     0
1002
}
1002
{
1000
REACTOR
1002
}
1001
GENIUS_GENOBJ-N-FIL_13
1002
{
1000
OWNER
1000
GEN
1002
}
  0
ARC
  5
78FC
330
1F
100
AcDbEntity
  8
AM_0
100
AcDbCircle
 10
-53.99999999999986
 20
6.949999999999988
 30
0.0
 40
1.0
100
AcDbArc
 50
359.9999999999992
 51
90.0
1001
GENIUS_GENODEF_13
1002
{
1000
HIER
1070
     0
1002
}
1002
{
1000
MANEDIT
1070
     0
1002
}
1002
{
1000
NOSEL
1070
     0
1002
}
1002
{
1000
BEHIND
1070
     0
1002
}
1002
{
1000
REACTOR
1002
}
1001
GENIUS_GENOBJ-N-FIL_13
1002
{
1000
OWNER
1000
GEN
1002
}
  0
LINE
  5
7900
330
1F
100
AcDbEntity
  8
AM_0
100
AcDbLine
 10
-21.49999999999994
 20
28.49999999999996
 30
0.0
 11
-21.99999999999994
 21
27.99999999999995
 31
0.0
1001
GENIUS_GENFIL_13
1070
     0
1040
0.5
1040
0.5
1040
20.0
1040
0.0
1002
{
1002
}
1001
GENIUS_GENODEF_13
1002
{
1000
HIER
1070
     0
1002
}
1002
{
1000
MANEDIT
1070
     0
1002
}
1002
{
1000
NOSEL
1070
     0
1002
}
1002
{
1000
BEHIND
1070
     0
1002
}
1002
{
1000
REACTOR
1002
}
1001
GENIUS_GENOBJ-N-CHA_13
1002
{
1000
OWNER
1000
GEN
1002
}
  0
LINE
  5
7906
330
1F
100
AcDbEntity
  8
AM_0
100
AcDbLine
 10
-60.69999999999982
 20
37.50000000000001
 30
0.0
 11
-62.99999999999982
 21
35.20000000000003
 31
0.0
1001
GENIUS_GENFIL_13
1070
     0
1040
2.299999999999999
1040
2.299999999999999
1040
20.0
1040
0.0
1002
{
1002
}
1001
GENIUS_GENODEF_13
1002
{
1000
HIER
1070
     0
1002
}
1002
{
1000
MANEDIT
1070
     0
1002
}
1002
{
1000
NOSEL
1070
     0
1002
}
1002
{
1000
BEHIND
1070
     0
1002
}
1002
{
1000
REACTOR
1002
}
1001
GENIUS_GENOBJ-N-CHA_13
1002
{
1000
OWNER
1000
GEN
1002
}
  0
LINE
  5
790A
330
1F
100
AcDbEntity
  8
AM_0
100
AcDbLine
 10
-62.99999999999989
 20
21.85
 30
0.0
 11
-60.19999999999988
 21
19.04999999999999
 31
0.0
1001
GENIUS_GENFIL_13
1070
     0
1040
2.799999999999999
1040
2.799999999999999
1040
20.0
1040
0.0
1002
{
1002
}
1001
GENIUS_GENODEF_13
1002
{
1000
HIER
1070
     0
1002
}
1002
{
1000
MANEDIT
1070
     0
1002
}
1002
{
1000
NOSEL
1070
     0
1002
}
1002
{
1000
BEHIND
1070
     0
1002
}
1002
{
1000
REACTOR
1002
}
1001
GENIUS_GENOBJ-N-CHA_13
1002
{
1000
OWNER
1000
GEN
1002
}
  0
LINE
  5
790D
330
1F
100
AcDbEntity
  8
AM_0
100
AcDbLine
 10
-61.49999999999995
 20
7.949999999999981
 30
0.0
 11
-62.99999999999994
 21
9.449999999999981
 31
0.0
1001
GENIUS_GENFIL_13
1070
     0
1040
1.5
1040
1.5
1040
20.0
1040
0.0
1002
{
1002
}
1001
GENIUS_GENODEF_13
1002
{
1000
HIER
1070
     0
1002
}
1002
{
1000
MANEDIT
1070
     0
1002
}
1002
{
1000
NOSEL
1070
     0
1002
}
1002
{
1000
BEHIND
1070
     0
1002
}
1002
{
1000
REACTOR
1002
}
1001
GENIUS_GENOBJ-N-CHA_13
1002
{
1000
OWNER
1000
GEN
1002
}
  0
LINE
  5
7910
330
1F
100
AcDbEntity
  8
AM_0
100
AcDbLine
 10
-25.99999999999983
 20
18.80000000000001
 30
0.0
 11
-24.99999999999983
 21
19.80000000000001
 31
0.0
1001
GENIUS_GENFIL_13
1070
     0
1040
1.0
1040
1.0
1040
20.0
1040
0.0
1002
{
1002
}
1001
GENIUS_GENODEF_13
1002
{
1000
HIER
1070
     0
1002
}
1002
{
1000
MANEDIT
1070
     0
1002
}
1002
{
1000
NOSEL
1070
     0
1002
}
1002
{
1000
BEHIND
1070
     0
1002
}
1002
{
1000
REACTOR
1002
}
1001
GENIUS_GENOBJ-N-CHA_13
1002
{
1000
OWNER
1000
GEN
1002
}
  0
LINE
  5
7912
330
1F
100
AcDbEntity
  8
AM_0
100
AcDbLine
 10
-60.19999999999988
 20
19.04999999999999
 30
0.0
 11
-60.19999999999988
 21
7.949999999999981
 31
0.0
  0
LINE
  5
7913
330
1F
100
AcDbEntity
  8
AM_0
100
AcDbLine
 10
-25.99999999999983
 20
18.80000000000001
 30
0.0
 11
-25.99999999999983
 21
0.0
 31
0.0
  0
LINE
  5
7914
330
1F
100
AcDbEntity
  8
AM_0
100
AcDbLine
 10
-21.99999999999994
 20
27.99999999999995
 30
0.0
 11
-21.99999999999991
 21
0.0
 31
0.0
  0
LINE
  5
7915
330
1F
100
AcDbEntity
  8
AM_0
100
AcDbLine
 10
-51.74093667927323
 20
-18.80000000000008
 30
0.0
 11
-25.99999999999983
 21
-18.8
 31
0.0
  0
LINE
  5
7917
330
1F
100
AcDbEntity
  8
AM_0
100
AcDbLine
 10
-40.98283239619249
 20
-55.01716760380736
 30
0.0
 11
-46.87958982747804
 21
-38.81595971334866
 31
0.0
  0
LINE
  5
7918
330
1F
100
AcDbEntity
  8
AM_0
100
AcDbLine
 10
-60.69999999999982
 20
-37.50000000000001
 30
0.0
 11
-48.75897506904985
 21
-37.49999999999998
 31
0.0
  0
ARC
  5
7919
330
1F
100
AcDbEntity
  8
AM_0
100
AcDbCircle
 10
-53.99999999999986
 20
-6.949999999999988
 30
0.0
 40
1.0
100
AcDbArc
 50
270.0
 51
0.0000000000008283
1001
GENIUS_GENODEF_13
1002
{
1000
HIER
1070
     0
1002
}
1002
{
1000
MANEDIT
1070
     0
1002
}
1002
{
1000
NOSEL
1070
     0
1002
}
1002
{
1000
BEHIND
1070
     0
1002
}
1002
{
1000
REACTOR
1002
}
1001
GENIUS_GENOBJ-N-FIL_13
1002
{
1000
OWNER
1000
GEN
1002
}
  0
LINE
  5
791A
330
1F
100
AcDbEntity
  8
AM_0
100
AcDbLine
 10
-58.89999999999989
 20
-19.04999999999997
 30
0.0
 11
-51.74093667927323
 21
-18.80000000000008
 31
0.0
  0
LINE
  5
791B
330
1F
100
AcDbEntity
  8
AM_0
100
AcDbLine
 10
-62.99999999999982
 20
-35.20000000000003
 30
0.0
 11
-62.99999999999994
 21
-9.449999999999981
 31
0.0
  0
LINE
  5
791C
330
1F
100
AcDbEntity
  8
AM_0
100
AcDbLine
 10
-62.99999999999989
 20
-21.85
 30
0.0
 11
-60.19999999999988
 21
-19.04999999999999
 31
0.0
1001
GENIUS_GENFIL_13
1070
     0
1040
2.799999999999999
1040
2.799999999999999
1040
20.0
1040
0.0
1002
{
1002
}
1001
GENIUS_GENODEF_13
1002
{
1000
HIER
1070
     0
1002
}
1002
{
1000
MANEDIT
1070
     0
1002
}
1002
{
1000
NOSEL
1070
     0
1002
}
1002
{
1000
BEHIND
1070
     0
1002
}
1002
{
1000
REACTOR
1002
}
1001
GENIUS_GENOBJ-N-CHA_13
1002
{
1000
OWNER
1000
GEN
1002
}
  0
LINE
  5
791D
330
1F
100
AcDbEntity
  8
AM_0
100
AcDbLine
 10
-60.19999999999988
 20
-19.04999999999999
 30
0.0
 11
-60.19999999999988
 21
-7.949999999999981
 31
0.0
  0
LINE
  5
791E
330
1F
100
AcDbEntity
  8
AM_0
100
AcDbLine
 10
-61.49999999999995
 20
-7.949999999999981
 30
0.0
 11
-53.99999999999986
 21
-7.949999999999988
 31
0.0
  0
LINE
  5
791F
330
1F
100
AcDbEntity
  8
AM_0
100
AcDbLine
 10
-61.49999999999995
 20
-7.949999999999981
 30
0.0
 11
-62.99999999999994
 21
-9.449999999999981
 31
0.0
1001
GENIUS_GENFIL_13
1070
     0
1040
1.5
1040
1.5
1040
20.0
1040
0.0
1002
{
1002
}
1001
GENIUS_GENODEF_13
1002
{
1000
HIER
1070
     0
1002
}
1002
{
1000
MANEDIT
1070
     0
1002
}
1002
{
1000
NOSEL
1070
     0
1002
}
1002
{
1000
BEHIND
1070
     0
1002
}
1002
{
1000
REACTOR
1002
}
1001
GENIUS_GENOBJ-N-CHA_13
1002
{
1000
OWNER
1000
GEN
1002
}
  0
LINE
  5
7920
330
1F
100
AcDbEntity
  8
AM_0
100
AcDbLine
 10
-58.89999999999989
 20
-19.04999999999997
 30
0.0
 11
-58.89999999999989
 21
-7.949999999999984
 31
0.0
  0
LINE
  5
7921
330
1F
100
AcDbEntity
  8
AM_0
100
AcDbLine
 10
-60.19999999999988
 20
-19.04999999999999
 30
0.0
 11
-58.9
 21
-19.04999999999997
 31
0.0
  0
LINE
  5
7922
330
1F
100
AcDbEntity
  8
AM_0
100
AcDbLine
 10
-60.69999999999982
 20
-37.50000000000001
 30
0.0
 11
-62.99999999999982
 21
-35.20000000000003
 31
0.0
1001
GENIUS_GENFIL_13
1070
     0
1040
2.299999999999999
1040
2.299999999999999
1040
20.0
1040
0.0
1002
{
1002
}
1001
GENIUS_GENODEF_13
1002
{
1000
HIER
1070
     0
1002
}
1002
{
1000
MANEDIT
1070
     0
1002
}
1002
{
1000
NOSEL
1070
     0
1002
}
1002
{
1000
BEHIND
1070
     0
1002
}
1002
{
1000
REACTOR
1002
}
1001
GENIUS_GENOBJ-N-CHA_13
1002
{
1000
OWNER
1000
GEN
1002
}
  0
LINE
  5
7923
330
1F
100
AcDbEntity
  8
AM_0
100
AcDbLine
 10
-52.99999999999986
 20
-6.949999999999974
 30
0.0
 11
-52.99999999999991
 21
0.0
 31
0.0
  0
LINE
  5
7924
330
1F
100
AcDbEntity
  8
AM_0
100
AcDbLine
 10
-51.74093667927164
 20
-18.80000000000003
 30
0.0
 11
-51.74093667927163
 21
0.0
 31
0.0
  0
ARC
  5
7925
330
1F
100
AcDbEntity
  8
AM_0
100
AcDbCircle
 10
-48.75897506904985
 20
-39.49999999999998
 30
0.0
 40
2.0
100
AcDbArc
 50
19.99999999999948
 51
90.00000000000012
1001
GENIUS_GENODEF_13
1002
{
1000
HIER
1070
     0
1002
}
1002
{
1000
MANEDIT
1070
     0
1002
}
1002
{
1000
NOSEL
1070
     0
1002
}
1002
{
1000
BEHIND
1070
     0
1002
}
1002
{
1000
REACTOR
1002
}
1001
GENIUS_GENOBJ-N-FIL_13
1002
{
1000
OWNER
1000
GEN
1002
}
  0
LINE
  5
7927
330
1F
100
AcDbEntity
  8
AM_0
100
AcDbLine
 10
-21.9999999999998
 20
-37.19999999999996
 30
0.0
 11
-12.75896380647348
 21
-46.44103619352628
 31
0.0
  0
LINE
  5
7928
330
1F
100
AcDbEntity
  8
AM_0
100
AcDbLine
 10
-1.999999999999801
 20
-54.00477448845602
 30
0.0
 11
-1.999999999999801
 21
0.0
 31
0.0
  0
LINE
  5
7929
330
1F
100
AcDbEntity
  8
AM_0
100
AcDbLine
 10
-21.99999999999994
 20
-27.99999999999995
 30
0.0
 11
-21.99999999999991
 21
0.0
 31
0.0
  0
LINE
  5
792A
330
1F
100
AcDbEntity
  8
AM_0
100
AcDbLine
 10
-21.4999999999998
 20
-32.70000000000001
 30
0.0
 11
-21.50000000000088
 21
0.0000000000000071
 31
0.0
  0
LINE
  5
792B
330
1F
100
AcDbEntity
  8
AM_0
100
AcDbLine
 10
-24.9999999999998
 20
-28.0
 30
0.0
 11
-24.99999999999991
 21
0.0
 31
0.0
  0
LINE
  5
792C
330
1F
100
AcDbEntity
  8
AM_0
100
AcDbLine
 10
-25.99999999999983
 20
-18.8
 30
0.0
 11
-24.99999999999983
 21
-19.8
 31
0.0
1001
GENIUS_GENFIL_13
1070
     0
1040
1.0
1040
1.0
1040
20.0
1040
0.0
1002
{
1002
}
1001
GENIUS_GENODEF_13
1002
{
1000
HIER
1070
     0
1002
}
1002
{
1000
MANEDIT
1070
     0
1002
}
1002
{
1000
NOSEL
1070
     0
1002
}
1002
{
1000
BEHIND
1070
     0
1002
}
1002
{
1000
REACTOR
1002
}
1001
GENIUS_GENOBJ-N-CHA_13
1002
{
1000
OWNER
1000
GEN
1002
}
  0
LINE
  5
792D
330
1F
100
AcDbEntity
  8
AM_0
100
AcDbLine
 10
-25.99999999999983
 20
-18.8
 30
0.0
 11
-25.99999999999983
 21
0.0
 31
0.0
  0
LINE
  5
792E
330
1F
100
AcDbEntity
  8
AM_0
100
AcDbLine
 10
-24.99999999999968
 20
-27.99999999999997
 30
0.0
 11
-21.99999999999994
 21
-27.99999999999995
 31
0.0
  0
LINE
  5
792F
330
1F
100
AcDbEntity
  8
AM_0
100
AcDbLine
 10
-21.49999999999994
 20
-28.49999999999996
 30
0.0
 11
-21.99999999999994
 21
-27.99999999999995
 31
0.0
1001
GENIUS_GENFIL_13
1070
     0
1040
0.5
1040
0.5
1040
20.0
1040
0.0
1002
{
1002
}
1001
GENIUS_GENODEF_13
1002
{
1000
HIER
1070
     0
1002
}
1002
{
1000
MANEDIT
1070
     0
1002
}
1002
{
1000
NOSEL
1070
     0
1002
}
1002
{
1000
BEHIND
1070
     0
1002
}
1002
{
1000
REACTOR
1002
}
1001
GENIUS_GENOBJ-N-CHA_13
1002
{
1000
OWNER
1000
GEN
1002
}
  0
LINE
  5
7930
330
1F
100
AcDbEntity
  8
AM_0
100
AcDbLine
 10
-21.9999999999998
 20
-37.19999999999996
 30
0.0
 11
-21.9999999999998
 21
-32.69999999999999
 31
0.0
  0
LINE
  5
7931
330
1F
100
AcDbEntity
  8
AM_0
100
AcDbLine
 10
-21.9999999999998
 20
-32.69999999999999
 30
0.0
 11
-21.4999999999998
 21
-32.70000000000001
 31
0.0
  0
LINE
  5
7934
330
1F
100
AcDbEntity
  8
AM_0
100
AcDbLine
 10
-8.767490018385627
 20
-68.71605910840094
 30
0.0
 11
-8.996139424194012
 21
-68.97
 31
0.0
  0
DIMENSION
  5
7937
330
1F
100
AcDbEntity
  8
AM_5
100
AcDbDimension
  2
*D5
 10
-101.324096331168
 20
-37.5
 30
0.0
 11
-104.424096331168
 21
-0.0000000000000076
 31
0.0
 70
    32
  1
%%c<>
  3
AM_JIS
100
AcDbAlignedDimension
 13
-60.69999999999982
 23
37.50000000000001
 33
0.0
 14
-60.69999999999982
 24
-37.50000000000001
 34
0.0
 50
90.0
100
AcDbRotatedDimension
1001
GENIUS_GENDTOL_13
1000

1000
h7
1000

1040
0.0
  0
DIMENSION
  5
7938
330
1F
100
AcDbEntity
  8
AM_5
100
AcDbDimension
  2
*D6
 10
-111.324096331168
 20
-68.99999999999997
 30
0.0
 11
-114.424096331168
 21
0.0000000000000072
 31
0.0
 70
    32
  1
%%c<>
  3
AM_JIS
100
AcDbAlignedDimension
 13
-26.20157287525356
 23
69.0
 33
0.0
 14
-26.17157287525356
 24
-69.0
 34
0.0
 50
90.0
100
AcDbRotatedDimension
1001
GENIUS_GENDTOL_13
1000

1000
h7
1000

1040
0.0
  0
DIMENSION
  5
7939
330
1F
100
AcDbEntity
  8
AM_5
100
AcDbDimension
  2
*D7
 10
-81.32409633116807
 20
-7.949999999999976
 30
0.0
 11
-81.32409633116807
 21
-0.0000000000000355
 31
0.0
 70
   160
  3
AM_JIS
100
AcDbAlignedDimension
 13
-61.49999999999995
 23
7.949999999999981
 33
0.0
 14
-61.49999999999995
 24
-7.949999999999981
 34
0.0
 50
90.0
100
AcDbRotatedDimension
  0
DIMENSION
  5
793A
330
1F
100
AcDbEntity
  8
AM_5
100
AcDbDimension
  2
*D8
 10
-91.32409633116807
 20
-19.04999999999997
 30
0.0
 11
-94.42409633116808
 21
-0.0000000000000011
 31
0.0
 70
    32
  1
%%c<>
  3
AM_JIS
100
AcDbAlignedDimension
 13
-60.19999999999988
 23
19.04999999999999
 33
0.0
 14
-60.19999999999988
 24
-19.04999999999999
 34
0.0
 50
90.0
100
AcDbRotatedDimension
1001
GENIUS_GENDTOL_13
1000

1000
h7
1000

1040
0.0
  0
DIMENSION
  5
793B
330
1F
100
AcDbEntity
  8
AM_5
100
AcDbDimension
  2
*D12
 10
27.2655366535042
 20
-62.50000000000003
 30
0.0
 11
24.16553665350421
 21
-0.0000000000000155
 31
0.0
 70
    32
  1
%%c<>
  3
AM_JIS
100
AcDbAlignedDimension
 13
0.0000000000003126
 23
62.5
 33
0.0
 14
0.0000000000002558
 24
-62.50000000000003
 34
0.0
 50
90.0
100
AcDbRotatedDimension
1001
GENIUS_GENDTOL_13
1000

1000
h7
1000

1040
0.0
  0
DIMENSION
  5
793C
330
1F
100
AcDbEntity
  8
AM_5
100
AcDbDimension
  2
*D13
 10
17.2655366535042
 20
-27.99999999999997
 30
0.0
 11
14.1655366535042
 21
-0.0000000000000078
 31
0.0
 70
    32
  1
%%c<>
  3
AM_JIS
100
AcDbAlignedDimension
 13
-21.99999999999994
 23
27.99999999999995
 33
0.0
 14
-21.99999999999994
 24
-27.99999999999995
 34
0.0
 50
90.0
100
AcDbRotatedDimension
1001
GENIUS_GENDTOL_13
1000

1000
h7
1000

1040
0.0
  0
DIMENSION
  5
793D
330
1F
100
AcDbEntity
  8
AM_5
100
AcDbDimension
  2
*D9
 10
-24.9999999999998
 20
-93.10626899999999
 30
0.0
 11
-43.99999999999981
 21
-90.00626899999998
 31
0.0
 70
    32
  3
AM_JIS
100
AcDbAlignedDimension
 13
-62.99999999999982
 23
-35.20000000000003
 33
0.0
 14
-24.9999999999998
 24
-28.0
 34
0.0
100
AcDbRotatedDimension
  0
DIMENSION
  5
793E
330
1F
100
AcDbEntity
  8
AM_5
100
AcDbDimension
  2
*D10
 10
-52.99999999999986
 20
-83.10626899999999
 30
0.0
 11
-57.99999999999984
 21
-80.00626899999998
 31
0.0
 70
    32
  3
AM_JIS
100
AcDbAlignedDimension
 13
-62.99999999999982
 23
-35.20000000000003
 33
0.0
 14
-52.99999999999986
 24
-6.949999999999974
 34
0.0
100
AcDbRotatedDimension
  0
DIMENSION
  5
793F
330
1F
100
AcDbEntity
  8
AM_5
100
AcDbDimension
  2
*D11
 10
0.0000000000002533
 20
-103.1062689999999
 30
0.0
 11
-31.49999999999979
 21
-100.0062689999999
 31
0.0
 70
    32
  3
AM_JIS
100
AcDbAlignedDimension
 13
-62.99999999999982
 23
-35.20000000000003
 33
0.0
 14
0.0000000000002558
 24
-62.50000000000003
 34
0.0
100
AcDbRotatedDimension
  0
LINE
  5
7B78
330
1F
100
AcDbEntity
  8
AM_11
100
AcDbLine
 10
0.0000000000003126
 20
62.49999999999999
 30
0.0
 11
-0.0000000000003126
 21
-62.50000000000003
 31
0.0
  0
LINE
  5
7B8A
330
1F
100
AcDbEntity
  8
AM_11
100
AcDbLine
 10
-67.32409533116814
 20
-62.49999999999999
 30
0.0
 11
0.0000000000002558
 21
-62.50000000000003
 31
0.0
  0
ELLIPSE
  5
7C6F
330
1F
100
AcDbEntity
  8
AM_0
100
AcDbEllipse
 10
-21.37272199999969
 20
56.66365200000005
 30
0.0
 11
-2.954186418877
 21
2.714057903162999
 31
0.0
210
0.0
220
0.0
230
1.0
 40
0.20521137317846
 41
0.016016318775099
 42
1.271735474371949
  0
LINE
  5
7C70
330
1F
100
AcDbEntity
  8
0
100
AcDbLine
 10
-11.8581539999997
 20
45.50186499999994
 30
0.0
 11
-15.46316499999969
 21
49.260397
 31
0.0
  0
LINE
  5
7C71
330
1F
100
AcDbEntity
  8
0
100
AcDbLine
 10
-11.8581539999997
 20
45.50186499999994
 30
0.0
 11
-5.367722999999699
 21
51.72596799999995
 31
0.0
  0
LINE
  5
7C72
330
1F
100
AcDbEntity
  8
0
100
AcDbLine
 10
-10.8621839999997
 20
66.45450900000001
 30
0.0
 11
-8.44402799999969
 21
69.06528699999999
 31
0.0
  0
LINE
  5
7C73
330
1F
100
AcDbEntity
  8
0
100
AcDbLine
 10
-10.16510499999972
 20
65.90411900000002
 30
0.0
 11
-9.594306999999702
 21
65.636744
 31
0.0
  0
LINE
  5
7C74
330
1F
100
AcDbEntity
  8
0
100
AcDbLine
 10
-10.31824499999967
 20
67.62272599999993
 30
0.0
 11
-9.711665999999667
 21
67.69667300000001
 31
0.0
  0
LINE
  5
7C75
330
1F
100
AcDbEntity
  8
0
100
AcDbLine
 10
-10.43945899999968
 20
56.68595600000002
 30
0.0
 11
-9.857335999999719
 21
56.40677400000003
 31
0.0
  0
LINE
  5
7C76
330
1F
100
AcDbEntity
  8
0
100
AcDbLine
 10
-10.16510499999972
 20
65.90411900000002
 30
0.0
 11
-2.954922999999695
 21
58.38688799999999
 31
0.0
  0
LINE
  5
7C77
330
1F
100
AcDbEntity
  8
0
100
AcDbLine
 10
-5.28155199999972
 20
51.96385799999994
 30
0.0
 11
-18.20701299999964
 21
65.43975699999997
 31
0.0
  0
LINE
  5
7C78
330
1F
100
AcDbEntity
  8
0
100
AcDbLine
 10
-9.857335999999719
 20
56.40677400000003
 30
0.0
 11
-15.46316499999969
 21
49.260397
 31
0.0
  0
SPLINE
  5
7C79
330
1F
100
AcDbEntity
  8
0
100
AcDbSpline
210
0.0
220
0.0
230
1.0
 70
     8
 71
     3
 72
    11
 73
     7
 74
     5
 42
0.0000000001
 43
0.0000000001
 44
0.0000000001
 40
0.0
 40
0.0
 40
0.0
 40
0.0
 40
1.680671175277545
 40
3.344850029815181
 40
4.850853623663756
 40
6.080831076820138
 40
6.080831076820138
 40
6.080831076820138
 40
6.080831076820138
 10
-10.19230899999971
 20
65.90592000000002
 30
0.0
 10
-10.63987352736256
 20
66.25477698192767
 30
0.0
 10
-11.53061065947684
 20
66.94906763411862
 30
0.0
 10
-13.143374789593
 20
67.29792760487552
 30
0.0
 10
-14.62123907841714
 20
67.39879517602318
 30
0.0
 10
-15.50791380920618
 20
67.16164179225891
 30
0.0
 10
-15.90652399999967
 20
67.05502799999997
 30
0.0
 11
-10.19230899999971
 21
65.90592000000002
 31
0.0
 11
-11.59088099999965
 21
66.837935
 31
0.0
 11
-13.1989299999997
 21
67.26650200000005
 31
0.0
 11
-14.70417599999964
 21
67.31426499999996
 31
0.0
 11
-15.90652399999967
 21
67.05502799999997
 31
0.0
  0
SPLINE
  5
7C7A
330
1F
100
AcDbEntity
  8
0
100
AcDbSpline
210
0.0
220
0.0
230
1.0
 70
     8
 71
     3
 72
    11
 73
     7
 74
     5
 42
0.0000000001
 43
0.0000000001
 44
0.0000000001
 40
0.0
 40
0.0
 40
0.0
 40
0.0
 40
1.523560773772081
 40
3.002751148215152
 40
4.210777899195902
 40
5.055305487676606
 40
5.055305487676606
 40
5.055305487676606
 40
5.055305487676606
 10
-11.66970199999971
 20
62.44364199999994
 30
0.0
 10
-11.20725001484366
 20
62.22068023848614
 30
0.0
 10
-10.29581395444699
 20
61.7812499926312
 30
0.0
 10
-9.327938132785721
 20
60.76418103884046
 30
0.0
 10
-8.715021966835177
 20
59.64540600021949
 30
0.0
 10
-8.925052512063459
 20
58.97080140857353
 30
0.0
 10
-9.011469999999718
 20
58.69323399999995
 30
0.0
 11
-11.66970199999971
 21
62.44364199999994
 31
0.0
 11
-10.33930099999966
 21
61.70116600000004
 31
0.0
 11
-9.311459999999698
 21
60.63742399999999
 31
0.0
 11
-8.848077999999674
 21
59.52180499999996
 31
0.0
 11
-9.011469999999718
 21
58.69323399999995
 31
0.0
  0
SPLINE
  5
7C7B
330
1F
100
AcDbEntity
  8
0
100
AcDbSpline
210
0.0
220
0.0
230
1.0
 70
     8
 71
     3
 72
    11
 73
     7
 74
     5
 42
0.0000000001
 43
0.0000000001
 44
0.0000000001
 40
0.0
 40
0.0
 40
0.0
 40
0.0
 40
1.26302428990457
 40
3.44038497790212
 40
5.647743376351408
 40
6.79710210163485
 40
6.79710210163485
 40
6.79710210163485
 40
6.79710210163485
 10
-9.011469999999718
 20
58.69323399999995
 30
0.0
 10
-9.443554162860426
 20
58.59427966553029
 30
0.0
 10
-10.62051954268515
 20
58.32473535943197
 30
0.0
 10
-12.05847920823555
 20
59.84185683211141
 30
0.0
 10
-13.60830561119429
 20
60.98014054817005
 30
0.0
 10
-13.77543944136983
 20
62.12091980080212
 30
0.0
 10
-13.8326669999997
 20
62.51152899999998
 30
0.0
 11
-9.011469999999718
 21
58.69323399999995
 31
0.0
 11
-10.26715299999969
 21
58.55725399999993
 31
0.0
 11
-12.07835199999968
 21
59.76574800000001
 31
0.0
 11
-13.57036599999966
 21
61.39250099999991
 31
0.0
 11
-13.8326669999997
 21
62.51152899999998
 31
0.0
  0
LINE
  5
7C7C
330
1F
100
AcDbEntity
  8
0
100
AcDbLine
 10
-17.08687899999969
 20
63.61646000000006
 30
0.0
 11
-22.61828099999971
 21
56.5649629999999
 31
0.0
  0
LINE
  5
7C7D
330
1F
100
AcDbEntity
  8
0
100
AcDbLine
 10
-17.16949799999966
 20
64.03032799999992
 30
0.0
 11
-22.77532699999969
 21
56.8839509999999
 31
0.0
  0
LINE
  5
7C7E
330
1F
100
AcDbEntity
  8
0
100
AcDbLine
 10
-18.82801699999967
 20
66.388592
 30
0.0
 11
-24.33544799999967
 21
59.36765499999999
 31
0.0
  0
LINE
  5
7C7F
330
1F
100
AcDbEntity
  8
0
100
AcDbLine
 10
-17.08687899999969
 20
63.61646000000006
 30
0.0
 11
-10.43945899999968
 21
56.68595600000002
 31
0.0
  0
LINE
  5
7C80
330
1F
100
AcDbEntity
  8
0
100
AcDbLine
 10
-22.61828099999971
 20
56.5649629999999
 30
0.0
 11
-15.97086199999969
 21
49.63445999999997
 31
0.0
  0
LINE
  5
7C81
330
1F
100
AcDbEntity
  8
0
100
AcDbLine
 10
-22.61828099999971
 20
56.5649629999999
 30
0.0
 11
-22.77532699999969
 21
56.8839509999999
 31
0.0
  0
LINE
  5
7C82
330
1F
100
AcDbEntity
  8
0
100
AcDbLine
 10
-15.97086199999969
 20
49.63445999999997
 30
0.0
 11
-10.43945899999968
 21
56.68595600000002
 31
0.0
  0
LINE
  5
7C83
330
1F
100
AcDbEntity
  8
0
100
AcDbLine
 10
-15.46316499999969
 20
49.260397
 30
0.0
 11
-15.97086199999969
 21
49.63445999999997
 31
0.0
  0
ELLIPSE
  5
7C84
330
1F
100
AcDbEntity
  8
AM_0
100
AcDbEllipse
 10
-15.17147899999966
 20
64.56907
 30
0.0
 11
-3.147236006137
 21
2.46878624463
 31
0.0
210
0.0
220
0.0
230
1.0
 40
0.43571325
 41
0.750360750764375
 42
1.25572155047507
  0
ELLIPSE
  5
7C85
330
1F
100
AcDbEntity
  8
AM_0
100
AcDbEllipse
 10
-8.765499999999661
 20
77.26558299999997
 30
0.0
 11
10.82538812414099
 21
10.383206246709
 31
0.0
210
0.0
220
0.0
230
1.0
 40
0.2789252
 41
3.394128618333349
 42
3.760060757170899
  0
SPLINE
  5
7C86
330
1F
100
AcDbEntity
  8
0
100
AcDbSpline
210
0.0
220
0.0
230
1.0
 70
     8
 71
     3
 72
    11
 73
     7
 74
     5
 42
0.0000000001
 43
0.0000000001
 44
0.0000000001
 40
0.0
 40
0.0
 40
0.0
 40
0.0
 40
0.1088933382030651
 40
0.196680848778262
 40
0.2658380826442638
 40
0.3215235334730896
 40
0.3215235334730896
 40
0.3215235334730896
 40
0.3215235334730896
 10
-18.52388999999968
 20
66.457262
 30
0.0
 10
-18.56026185235989
 20
66.45865628900302
 30
0.0
 10
-18.62595592430123
 20
66.4611746243675
 30
0.0
 10
-18.7137504764055
 20
66.45042055679123
 30
0.0
 10
-18.78370334166422
 20
66.43014520097429
 30
0.0
 10
-18.81441100251432
 20
66.40132922221488
 30
0.0
 10
-18.82810799999973
 20
66.38847599999995
 30
0.0
 11
-18.52388999999968
 21
66.457262
 31
0.0
 11
-18.63277899999971
 21
66.45823399999994
 31
0.0
 11
-18.71984099999966
 21
66.44697099999994
 31
0.0
 11
-18.78495499999965
 21
66.423671
 31
0.0
 11
-18.82810799999973
 21
66.38847599999995
 31
0.0
  0
SPLINE
  5
7C87
330
1F
100
AcDbEntity
  8
0
100
AcDbSpline
210
0.0
220
0.0
230
1.0
 70
     8
 71
     3
 72
    11
 73
     7
 74
     5
 42
0.0000000001
 43
0.0000000001
 44
0.0000000001
 40
0.0
 40
0.0
 40
0.0
 40
0.0
 40
0.1338890705622002
 40
0.3606003701327783
 40
0.7070161066113383
 40
1.173939637002622
 40
1.173939637002622
 40
1.173939637002622
 40
1.173939637002622
 10
-18.82810799999973
 20
66.38847599999995
 30
0.0
 10
-18.83807140293073
 20
66.34338162333723
 30
0.0
 10
-18.86490560806499
 20
66.22192997050849
 30
0.0
 10
-18.71149344481629
 20
66.01627512115811
 30
0.0
 10
-18.50411182425719
 20
65.75055340523147
 30
0.0
 10
-18.31536765358655
 20
65.55310728642091
 30
0.0
 10
-18.20701299999964
 20
65.43975699999997
 30
0.0
 11
-18.82810799999973
 21
66.38847599999995
 31
0.0
 11
-18.84351199999971
 21
66.25547599999991
 31
0.0
 11
-18.73904499999972
 21
66.05426799999996
 31
0.0
 11
-18.52332099999969
 21
65.78322000000001
 31
0.0
 11
-18.20701299999964
 21
65.43975699999997
 31
0.0
  0
SPLINE
  5
7C88
330
1F
100
AcDbEntity
  8
0
100
AcDbSpline
210
0.0
220
0.0
230
1.0
 70
     8
 71
     3
 72
    11
 73
     7
 74
     5
 42
0.0000000001
 43
0.0000000001
 44
0.0000000001
 40
0.0
 40
0.0
 40
0.0
 40
0.0
 40
0.3528712242972182
 40
0.8471483172157228
 40
1.493385898231439
 40
2.258829522849199
 40
2.258829522849199
 40
2.258829522849199
 40
2.258829522849199
 10
-13.8326669999997
 20
62.51152899999998
 30
0.0
 10
-13.73660681083371
 20
62.58345590082583
 30
0.0
 10
-13.50599229199481
 20
62.75613292519498
 30
0.0
 10
-12.98440859829959
 20
62.76394336049926
 30
0.0
 10
-12.35850383065584
 20
62.68446741626454
 30
0.0
 10
-11.9118741357334
 20
62.52831251450801
 30
0.0
 10
-11.66970199999971
 20
62.44364199999994
 30
0.0
 11
-13.8326669999997
 21
62.51152899999998
 31
0.0
 11
-13.53316299999969
 21
62.69811800000001
 31
0.0
 11
-13.04195299999972
 21
62.75309600000001
 31
0.0
 11
-12.40120399999969
 21
62.66904999999995
 31
0.0
 11
-11.66970199999971
 21
62.44364199999994
 31
0.0
  0
LINE
  5
7C89
330
1F
100
AcDbEntity
  8
0
100
AcDbLine
 10
-17.16949799999966
 20
64.03032799999992
 30
0.0
 11
-17.08687899999969
 21
63.61646000000006
 31
0.0
  0
LINE
  5
7C8A
330
1F
100
AcDbEntity
  8
0
100
AcDbLine
 10
-11.21118899999967
 20
66.65865299999994
 30
0.0
 11
-10.31824499999967
 21
67.62272599999993
 31
0.0
  0
SPLINE
  5
7C8B
330
1F
100
AcDbEntity
  8
0
100
AcDbSpline
210
0.0
220
0.0
230
1.0
 70
     8
 71
     3
 72
    11
 73
     7
 74
     5
 42
0.0000000001
 43
0.0000000001
 44
0.0000000001
 40
0.0
 40
0.0
 40
0.0
 40
0.0
 40
0.0068166716951835
 40
0.0136324770034244
 40
0.0204474827994582
 40
0.0272635527814962
 40
0.0272635527814962
 40
0.0272635527814962
 40
0.0272635527814962
 10
-10.16510499999972
 20
65.90411900000002
 30
0.0
 10
-10.16737234098315
 20
65.90426788349677
 30
0.0
 10
-10.17190673477497
 20
65.90456563156743
 30
0.0
 10
-10.17870777776786
 20
65.90501432341546
 30
0.0
 10
-10.18550835848223
 20
65.90546695596607
 30
0.0
 10
-10.1900420015125
 20
65.90576897746237
 30
0.0
 10
-10.19230899999971
 20
65.90592000000002
 30
0.0
 11
-10.16510499999972
 21
65.90411900000002
 31
0.0
 11
-10.17190699999972
 21
65.90456600000003
 31
0.0
 11
-10.17870799999971
 21
65.90501499999992
 31
0.0
 11
-10.18550799999971
 21
65.90546699999991
 31
0.0
 11
-10.19230899999971
 21
65.90592000000002
 31
0.0
  0
LINE
  5
7C8C
330
1F
100
AcDbEntity
  8
0
100
AcDbLine
 10
-0.0018049999996776
 20
60.263547
 30
0.0
 11
0.0000000000003126
 21
62.49999999999999
 31
0.0
  0
LINE
  5
7C8D
330
1F
100
AcDbEntity
  8
0
100
AcDbLine
 10
-9.594306999999702
 20
65.636744
 30
0.0
 11
-2.868751999999659
 21
58.62477799999997
 31
0.0
  0
LINE
  5
7C8E
330
1F
100
AcDbEntity
  8
0
100
AcDbLine
 10
-5.060671999999698
 20
50.70029899999996
 30
0.0
 11
-1.214197999999697
 21
54.85317099999996
 31
0.0
  0
LINE
  5
7C8F
330
1F
100
AcDbEntity
  8
0
100
AcDbLine
 10
-0.0018049999996776
 20
60.263547
 30
0.0
 11
-4.764789999999635
 21
55.12115900000002
 31
0.0
  0
LINE
  5
7C90
330
1F
100
AcDbEntity
  8
0
100
AcDbLine
 10
-9.857335999999719
 20
56.40677400000003
 30
0.0
 11
-5.367722999999699
 21
51.72596799999995
 31
0.0
  0
ELLIPSE
  5
7C91
330
1F
100
AcDbEntity
  8
AM_0
100
AcDbEllipse
 10
4.497599000000349
 20
63.43766800000001
 30
0.0
 11
9.725129601224999
 21
11.525590336806
 31
0.0
210
0.0
220
0.0
230
1.0
 40
0.19759403685481
 41
2.182997531215409
 42
3.116527845121599
  0
LINE
  5
7C92
330
1F
100
AcDbEntity
  8
0
100
AcDbLine
 10
-5.28155199999972
 20
51.96385799999994
 30
0.0
 11
-5.367722999999699
 21
51.72596799999995
 31
0.0
  0
LINE
  5
7C93
330
1F
100
AcDbEntity
  8
0
100
AcDbLine
 10
-6.243542999999675
 20
50.88608599999997
 30
0.0
 11
-5.060671999999698
 21
50.70029899999996
 31
0.0
  0
LINE
  5
7C94
330
1F
100
AcDbEntity
  8
0
100
AcDbLine
 10
-2.868751999999659
 20
58.62477799999997
 30
0.0
 11
-2.954922999999695
 21
58.38688799999999
 31
0.0
  0
LINE
  5
7C95
330
1F
100
AcDbEntity
  8
0
100
AcDbLine
 10
-0.616685999999703
 20
59.59968700000001
 30
0.0
 11
-1.214197999999697
 21
54.85317099999996
 31
0.0
  0
LINE
  5
7C96
330
1F
100
AcDbEntity
  8
0
100
AcDbLine
 10
-6.336427999999699
 20
69.10626799999999
 30
0.0
 11
0.0000000000003126
 21
62.49999999999999
 31
0.0
  0
LINE
  5
7C97
330
1F
100
AcDbEntity
  8
0
100
AcDbLine
 10
-6.336427999999699
 20
69.10626799999999
 30
0.0
 11
-8.44402799999969
 21
69.06528699999999
 31
0.0
  0
LINE
  5
7C99
330
1F
100
AcDbEntity
  8
AM_0
100
AcDbLine
 10
-8.996139424194012
 20
68.97
 30
0.0
 11
-8.767490018385629
 21
68.71605910840094
 31
0.0
  0
LINE
  5
7C9A
330
1F
100
AcDbEntity
  8
AM_0
100
AcDbLine
 10
-21.9999999999998
 20
37.19999999999996
 30
0.0
 11
-12.75896380647348
 21
46.44103619352628
 31
0.0
  0
LINE
  5
7C9B
330
1F
100
AcDbEntity
  8
AM_0
100
AcDbLine
 10
-1.999999999999801
 20
0.0
 30
0.0
 11
-1.999999999999821
 21
54.00477448845601
 31
0.0
  0
ARC
  5
7CBC
330
1F
100
AcDbEntity
  8
AM_0
100
AcDbCircle
 10
-26.17157287525356
 20
-67.0
 30
0.0
 40
2.0
100
AcDbArc
 50
225.0
 51
270.0
1001
GENIUS_GENODEF_13
1002
{
1000
HIER
1070
     0
1002
}
1002
{
1000
MANEDIT
1070
     0
1002
}
1002
{
1000
NOSEL
1070
     0
1002
}
1002
{
1000
BEHIND
1070
     0
1002
}
1002
{
1000
REACTOR
1002
}
1001
GENIUS_GENOBJ-N-FIL_13
1002
{
1000
OWNER
1000
GEN
1002
}
  0
LINE
  5
7CBD
330
1F
100
AcDbEntity
  8
AM_0
100
AcDbLine
 10
-26.17157287525356
 20
-69.0
 30
0.0
 11
-8.996139424194012
 21
-69.0
 31
0.0
  0
LINE
  5
7CBE
330
1F
100
AcDbEntity
  8
AM_0
100
AcDbLine
 10
-27.58578643762666
 20
-68.41421356237309
 30
0.0
 11
-40.98283239619249
 21
-55.01716760380734
 31
0.0
  0
LINE
  5
7CC9
330
1F
100
AcDbEntity
  8
AM_3
100
AcDbLine
 10
-1.999999999999801
 20
-61.19999999999999
 30
0.0
 11
-8.767490018385627
 21
-68.71605910840094
 31
0.0
  0
LINE
  5
7CCA
330
1F
100
AcDbEntity
  8
AM_3
100
AcDbLine
 10
-12.75896380647348
 20
-46.44103619352628
 30
0.0
 11
-1.999999999999801
 21
-57.20000000000002
 31
0.0
  0
LINE
  5
7CCB
330
1F
100
AcDbEntity
  8
0
100
AcDbLine
 10
-6.336427999999699
 20
-69.10626799999999
 30
0.0
 11
-8.44402799999969
 21
-69.06528699999999
 31
0.0
  0
LINE
  5
7CCC
330
1F
100
AcDbEntity
  8
0
100
AcDbLine
 10
-9.857335999999719
 20
-56.40677400000003
 30
0.0
 11
-5.367722999999699
 21
-51.72596799999995
 31
0.0
  0
LINE
  5
7CCD
330
1F
100
AcDbEntity
  8
0
100
AcDbLine
 10
-9.594306999999702
 20
-65.636744
 30
0.0
 11
-2.868751999999659
 21
-58.62477799999997
 31
0.0
  0
SPLINE
  5
7CCE
330
1F
100
AcDbEntity
  8
0
100
AcDbSpline
210
0.0
220
0.0
230
1.0
 70
     8
 71
     3
 72
    11
 73
     7
 74
     5
 42
0.0000000001
 43
0.0000000001
 44
0.0000000001
 40
0.0
 40
0.0
 40
0.0
 40
0.0
 40
1.523560773772081
 40
3.002751148215152
 40
4.210777899195902
 40
5.055305487676606
 40
5.055305487676606
 40
5.055305487676606
 40
5.055305487676606
 10
-11.66970199999971
 20
-62.44364199999994
 30
0.0
 10
-11.20725001484366
 20
-62.22068023848614
 30
0.0
 10
-10.29581395444699
 20
-61.7812499926312
 30
0.0
 10
-9.327938132785721
 20
-60.76418103884046
 30
0.0
 10
-8.715021966835177
 20
-59.64540600021949
 30
0.0
 10
-8.925052512063459
 20
-58.97080140857353
 30
0.0
 10
-9.011469999999718
 20
-58.69323399999995
 30
0.0
 11
-11.66970199999971
 21
-62.44364199999994
 31
0.0
 11
-10.33930099999966
 21
-61.70116600000004
 31
0.0
 11
-9.311459999999698
 21
-60.63742399999999
 31
0.0
 11
-8.848077999999674
 21
-59.52180499999996
 31
0.0
 11
-9.011469999999718
 21
-58.69323399999995
 31
0.0
  0
LINE
  5
7CCF
330
1F
100
AcDbEntity
  8
0
100
AcDbLine
 10
-5.28155199999972
 20
-51.96385799999994
 30
0.0
 11
-18.20701299999964
 21
-65.43975699999997
 31
0.0
  0
LINE
  5
7CD0
330
1F
100
AcDbEntity
  8
0
100
AcDbLine
 10
-10.16510499999972
 20
-65.90411900000002
 30
0.0
 11
-2.954922999999695
 21
-58.38688799999999
 31
0.0
  0
LINE
  5
7CD1
330
1F
100
AcDbEntity
  8
0
100
AcDbLine
 10
-11.8581539999997
 20
-45.50186499999994
 30
0.0
 11
-5.367722999999699
 21
-51.72596799999995
 31
0.0
  0
ELLIPSE
  5
7CD2
330
1F
100
AcDbEntity
  8
AM_0
100
AcDbEllipse
 10
-8.765499999999661
 20
-77.26558299999997
 30
0.0
 11
10.82538812414099
 21
-10.383206246709
 31
0.0
210
0.0
220
0.0
230
-1.0
 40
0.2789252
 41
3.394128618333349
 42
3.760060757170899
  0
SPLINE
  5
7CD3
330
1F
100
AcDbEntity
  8
0
100
AcDbSpline
210
0.0
220
0.0
230
1.0
 70
     8
 71
     3
 72
    11
 73
     7
 74
     5
 42
0.0000000001
 43
0.0000000001
 44
0.0000000001
 40
0.0
 40
0.0
 40
0.0
 40
0.0
 40
1.680671175277545
 40
3.344850029815181
 40
4.850853623663756
 40
6.080831076820138
 40
6.080831076820138
 40
6.080831076820138
 40
6.080831076820138
 10
-10.19230899999971
 20
-65.90592000000002
 30
0.0
 10
-10.63987352736256
 20
-66.25477698192767
 30
0.0
 10
-11.53061065947684
 20
-66.94906763411862
 30
0.0
 10
-13.143374789593
 20
-67.29792760487552
 30
0.0
 10
-14.62123907841714
 20
-67.39879517602318
 30
0.0
 10
-15.50791380920618
 20
-67.16164179225891
 30
0.0
 10
-15.90652399999967
 20
-67.05502799999997
 30
0.0
 11
-10.19230899999971
 21
-65.90592000000002
 31
0.0
 11
-11.59088099999965
 21
-66.837935
 31
0.0
 11
-13.1989299999997
 21
-67.26650200000005
 31
0.0
 11
-14.70417599999964
 21
-67.31426499999996
 31
0.0
 11
-15.90652399999967
 21
-67.05502799999997
 31
0.0
  0
LINE
  5
7CD4
330
1F
100
AcDbEntity
  8
0
100
AcDbLine
 10
-10.8621839999997
 20
-66.45450900000001
 30
0.0
 11
-8.44402799999969
 21
-69.06528699999999
 31
0.0
  0
LINE
  5
7CD5
330
1F
100
AcDbEntity
  8
0
100
AcDbLine
 10
-22.61828099999971
 20
-56.5649629999999
 30
0.0
 11
-22.77532699999969
 21
-56.8839509999999
 31
0.0
  0
LINE
  5
7CD6
330
1F
100
AcDbEntity
  8
0
100
AcDbLine
 10
-18.82801699999967
 20
-66.388592
 30
0.0
 11
-24.33544799999967
 21
-59.36765499999999
 31
0.0
  0
LINE
  5
7CD7
330
1F
100
AcDbEntity
  8
0
100
AcDbLine
 10
-17.16949799999966
 20
-64.03032799999992
 30
0.0
 11
-22.77532699999969
 21
-56.8839509999999
 31
0.0
  0
ELLIPSE
  5
7CD8
330
1F
100
AcDbEntity
  8
AM_0
100
AcDbEllipse
 10
-21.37272199999969
 20
-56.66365200000005
 30
0.0
 11
-2.954186418877
 21
-2.714057903162999
 31
0.0
210
0.0
220
0.0
230
-1.0
 40
0.20521137317846
 41
0.016016318775099
 42
1.271735474371949
  0
LINE
  5
7CD9
330
1F
100
AcDbEntity
  8
0
100
AcDbLine
 10
-15.97086199999969
 20
-49.63445999999997
 30
0.0
 11
-10.43945899999968
 21
-56.68595600000002
 31
0.0
  0
LINE
  5
7CDA
330
1F
100
AcDbEntity
  8
0
100
AcDbLine
 10
-22.61828099999971
 20
-56.5649629999999
 30
0.0
 11
-15.97086199999969
 21
-49.63445999999997
 31
0.0
  0
LINE
  5
7CDB
330
1F
100
AcDbEntity
  8
0
100
AcDbLine
 10
-9.857335999999719
 20
-56.40677400000003
 30
0.0
 11
-15.46316499999969
 21
-49.260397
 31
0.0
  0
LINE
  5
7CDC
330
1F
100
AcDbEntity
  8
0
100
AcDbLine
 10
-15.46316499999969
 20
-49.260397
 30
0.0
 11
-15.97086199999969
 21
-49.63445999999997
 31
0.0
  0
LINE
  5
7CDD
330
1F
100
AcDbEntity
  8
0
100
AcDbLine
 10
-11.8581539999997
 20
-45.50186499999994
 30
0.0
 11
-15.46316499999969
 21
-49.260397
 31
0.0
  0
LINE
  5
7CDE
330
1F
100
AcDbEntity
  8
0
100
AcDbLine
 10
-17.08687899999969
 20
-63.61646000000006
 30
0.0
 11
-10.43945899999968
 21
-56.68595600000002
 31
0.0
  0
LINE
  5
7CDF
330
1F
100
AcDbEntity
  8
0
100
AcDbLine
 10
-17.08687899999969
 20
-63.61646000000006
 30
0.0
 11
-22.61828099999971
 21
-56.5649629999999
 31
0.0
  0
LINE
  5
7CE0
330
1F
100
AcDbEntity
  8
0
100
AcDbLine
 10
-17.16949799999966
 20
-64.03032799999992
 30
0.0
 11
-17.08687899999969
 21
-63.61646000000006
 31
0.0
  0
SPLINE
  5
7CE1
330
1F
100
AcDbEntity
  8
0
100
AcDbSpline
210
0.0
220
0.0
230
1.0
 70
     8
 71
     3
 72
    11
 73
     7
 74
     5
 42
0.0000000001
 43
0.0000000001
 44
0.0000000001
 40
0.0
 40
0.0
 40
0.0
 40
0.0
 40
0.1338890705622002
 40
0.3606003701327783
 40
0.7070161066113383
 40
1.173939637002622
 40
1.173939637002622
 40
1.173939637002622
 40
1.173939637002622
 10
-18.82810799999973
 20
-66.38847599999995
 30
0.0
 10
-18.83807140293073
 20
-66.34338162333723
 30
0.0
 10
-18.86490560806499
 20
-66.22192997050849
 30
0.0
 10
-18.71149344481629
 20
-66.01627512115811
 30
0.0
 10
-18.50411182425719
 20
-65.75055340523147
 30
0.0
 10
-18.31536765358655
 20
-65.55310728642091
 30
0.0
 10
-18.20701299999964
 20
-65.43975699999997
 30
0.0
 11
-18.82810799999973
 21
-66.38847599999995
 31
0.0
 11
-18.84351199999971
 21
-66.25547599999991
 31
0.0
 11
-18.73904499999972
 21
-66.05426799999996
 31
0.0
 11
-18.52332099999969
 21
-65.78322000000001
 31
0.0
 11
-18.20701299999964
 21
-65.43975699999997
 31
0.0
  0
SPLINE
  5
7CE2
330
1F
100
AcDbEntity
  8
0
100
AcDbSpline
210
0.0
220
0.0
230
1.0
 70
     8
 71
     3
 72
    11
 73
     7
 74
     5
 42
0.0000000001
 43
0.0000000001
 44
0.0000000001
 40
0.0
 40
0.0
 40
0.0
 40
0.0
 40
0.1088933382030651
 40
0.196680848778262
 40
0.2658380826442638
 40
0.3215235334730896
 40
0.3215235334730896
 40
0.3215235334730896
 40
0.3215235334730896
 10
-18.52388999999968
 20
-66.457262
 30
0.0
 10
-18.56026185235989
 20
-66.45865628900302
 30
0.0
 10
-18.62595592430123
 20
-66.4611746243675
 30
0.0
 10
-18.7137504764055
 20
-66.45042055679123
 30
0.0
 10
-18.78370334166422
 20
-66.43014520097429
 30
0.0
 10
-18.81441100251432
 20
-66.40132922221488
 30
0.0
 10
-18.82810799999973
 20
-66.38847599999995
 30
0.0
 11
-18.52388999999968
 21
-66.457262
 31
0.0
 11
-18.63277899999971
 21
-66.45823399999994
 31
0.0
 11
-18.71984099999966
 21
-66.44697099999994
 31
0.0
 11
-18.78495499999965
 21
-66.423671
 31
0.0
 11
-18.82810799999973
 21
-66.38847599999995
 31
0.0
  0
ELLIPSE
  5
7CE3
330
1F
100
AcDbEntity
  8
AM_0
100
AcDbEllipse
 10
-15.17147899999966
 20
-64.56907
 30
0.0
 11
-3.147236006137
 21
-2.46878624463
 31
0.0
210
0.0
220
0.0
230
-1.0
 40
0.43571325
 41
0.750360750764375
 42
1.25572155047507
  0
SPLINE
  5
7CE4
330
1F
100
AcDbEntity
  8
0
100
AcDbSpline
210
0.0
220
0.0
230
1.0
 70
     8
 71
     3
 72
    11
 73
     7
 74
     5
 42
0.0000000001
 43
0.0000000001
 44
0.0000000001
 40
0.0
 40
0.0
 40
0.0
 40
0.0
 40
1.26302428990457
 40
3.44038497790212
 40
5.647743376351408
 40
6.79710210163485
 40
6.79710210163485
 40
6.79710210163485
 40
6.79710210163485
 10
-9.011469999999718
 20
-58.69323399999995
 30
0.0
 10
-9.443554162860426
 20
-58.59427966553029
 30
0.0
 10
-10.62051954268515
 20
-58.32473535943197
 30
0.0
 10
-12.05847920823555
 20
-59.84185683211141
 30
0.0
 10
-13.60830561119429
 20
-60.98014054817005
 30
0.0
 10
-13.77543944136983
 20
-62.12091980080212
 30
0.0
 10
-13.8326669999997
 20
-62.51152899999998
 30
0.0
 11
-9.011469999999718
 21
-58.69323399999995
 31
0.0
 11
-10.26715299999969
 21
-58.55725399999993
 31
0.0
 11
-12.07835199999968
 21
-59.76574800000001
 31
0.0
 11
-13.57036599999966
 21
-61.39250099999991
 31
0.0
 11
-13.8326669999997
 21
-62.51152899999998
 31
0.0
  0
LINE
  5
7CE5
330
1F
100
AcDbEntity
  8
0
100
AcDbLine
 10
-10.43945899999968
 20
-56.68595600000002
 30
0.0
 11
-9.857335999999719
 21
-56.40677400000003
 31
0.0
  0
SPLINE
  5
7CE6
330
1F
100
AcDbEntity
  8
0
100
AcDbSpline
210
0.0
220
0.0
230
1.0
 70
     8
 71
     3
 72
    11
 73
     7
 74
     5
 42
0.0000000001
 43
0.0000000001
 44
0.0000000001
 40
0.0
 40
0.0
 40
0.0
 40
0.0
 40
0.3528712242972182
 40
0.8471483172157228
 40
1.493385898231439
 40
2.258829522849199
 40
2.258829522849199
 40
2.258829522849199
 40
2.258829522849199
 10
-13.8326669999997
 20
-62.51152899999998
 30
0.0
 10
-13.73660681083371
 20
-62.58345590082583
 30
0.0
 10
-13.50599229199481
 20
-62.75613292519498
 30
0.0
 10
-12.98440859829959
 20
-62.76394336049926
 30
0.0
 10
-12.35850383065584
 20
-62.68446741626454
 30
0.0
 10
-11.9118741357334
 20
-62.52831251450801
 30
0.0
 10
-11.66970199999971
 20
-62.44364199999994
 30
0.0
 11
-13.8326669999997
 21
-62.51152899999998
 31
0.0
 11
-13.53316299999969
 21
-62.69811800000001
 31
0.0
 11
-13.04195299999972
 21
-62.75309600000001
 31
0.0
 11
-12.40120399999969
 21
-62.66904999999995
 31
0.0
 11
-11.66970199999971
 21
-62.44364199999994
 31
0.0
  0
SPLINE
  5
7CE7
330
1F
100
AcDbEntity
  8
0
100
AcDbSpline
210
0.0
220
0.0
230
1.0
 70
     8
 71
     3
 72
    11
 73
     7
 74
     5
 42
0.0000000001
 43
0.0000000001
 44
0.0000000001
 40
0.0
 40
0.0
 40
0.0
 40
0.0
 40
0.0068166716951835
 40
0.0136324770034244
 40
0.0204474827994582
 40
0.0272635527814962
 40
0.0272635527814962
 40
0.0272635527814962
 40
0.0272635527814962
 10
-10.16510499999972
 20
-65.90411900000002
 30
0.0
 10
-10.16737234098315
 20
-65.90426788349677
 30
0.0
 10
-10.17190673477497
 20
-65.90456563156743
 30
0.0
 10
-10.17870777776786
 20
-65.90501432341546
 30
0.0
 10
-10.18550835848223
 20
-65.90546695596607
 30
0.0
 10
-10.1900420015125
 20
-65.90576897746237
 30
0.0
 10
-10.19230899999971
 20
-65.90592000000002
 30
0.0
 11
-10.16510499999972
 21
-65.90411900000002
 31
0.0
 11
-10.17190699999972
 21
-65.90456600000003
 31
0.0
 11
-10.17870799999971
 21
-65.90501499999992
 31
0.0
 11
-10.18550799999971
 21
-65.90546699999991
 31
0.0
 11
-10.19230899999971
 21
-65.90592000000002
 31
0.0
  0
LINE
  5
7CE8
330
1F
100
AcDbEntity
  8
0
100
AcDbLine
 10
-10.16510499999972
 20
-65.90411900000002
 30
0.0
 11
-9.594306999999702
 21
-65.636744
 31
0.0
  0
LINE
  5
7CE9
330
1F
100
AcDbEntity
  8
0
100
AcDbLine
 10
-11.21118899999967
 20
-66.65865299999994
 30
0.0
 11
-10.31824499999967
 21
-67.62272599999993
 31
0.0
  0
LINE
  5
7CEA
330
1F
100
AcDbEntity
  8
0
100
AcDbLine
 10
-10.31824499999967
 20
-67.62272599999993
 30
0.0
 11
-9.711665999999667
 21
-67.69667300000001
 31
0.0
  0
LINE
  5
7CEB
330
1F
100
AcDbEntity
  8
0
100
AcDbLine
 10
-6.336427999999699
 20
-69.10626799999999
 30
0.0
 11
0.0000000000003126
 21
-62.49999999999999
 31
0.0
  0
ELLIPSE
  5
7CEC
330
1F
100
AcDbEntity
  8
AM_0
100
AcDbEllipse
 10
4.497599000000349
 20
-63.43766800000001
 30
0.0
 11
9.725129601224999
 21
-11.525590336806
 31
0.0
210
0.0
220
0.0
230
-1.0
 40
0.19759403685481
 41
2.182997531215409
 42
3.116527845121599
  0
LINE
  5
7CED
330
1F
100
AcDbEntity
  8
0
100
AcDbLine
 10
-5.060671999999698
 20
-50.70029899999996
 30
0.0
 11
-1.214197999999697
 21
-54.85317099999996
 31
0.0
  0
LINE
  5
7CEE
330
1F
100
AcDbEntity
  8
0
100
AcDbLine
 10
-6.243542999999675
 20
-50.88608599999997
 30
0.0
 11
-5.060671999999698
 21
-50.70029899999996
 31
0.0
  0
LINE
  5
7CEF
330
1F
100
AcDbEntity
  8
0
100
AcDbLine
 10
-5.28155199999972
 20
-51.96385799999994
 30
0.0
 11
-5.367722999999699
 21
-51.72596799999995
 31
0.0
  0
LINE
  5
7CF0
330
1F
100
AcDbEntity
  8
0
100
AcDbLine
 10
-0.616685999999703
 20
-59.59968700000001
 30
0.0
 11
-1.214197999999697
 21
-54.85317099999996
 31
0.0
  0
LINE
  5
7CF1
330
1F
100
AcDbEntity
  8
0
100
AcDbLine
 10
-0.0018049999996776
 20
-60.263547
 30
0.0
 11
-4.764789999999635
 21
-55.12115900000002
 31
0.0
  0
LINE
  5
7CF2
330
1F
100
AcDbEntity
  8
AM_3
100
AcDbLine
 10
-1.999999999999801
 20
-61.19999999999999
 30
0.0
 11
-1.999999999999801
 21
-57.20000000000002
 31
0.0
  0
LINE
  5
7CF3
330
1F
100
AcDbEntity
  8
AM_3
100
AcDbLine
 10
-1.999999999999801
 20
-57.20000000000002
 30
0.0
 11
-1.999999999999801
 21
-54.00477448845602
 31
0.0
  0
LINE
  5
7CF4
330
1F
100
AcDbEntity
  8
0
100
AcDbLine
 10
-2.868751999999659
 20
-58.62477799999997
 30
0.0
 11
-2.954922999999695
 21
-58.38688799999999
 31
0.0
  0
LINE
  5
7CF5
330
1F
100
AcDbEntity
  8
0
100
AcDbLine
 10
-0.0018049999996776
 20
-60.263547
 30
0.0
 11
0.0000000000003126
 21
-62.49999999999999
 31
0.0
  0
DIMENSION
  5
7D2C
330
1F
100
AcDbEntity
  8
AM_5
100
AcDbDimension
  2
*D14
 10
0.0000000000003126
 20
-62.49999999999999
 30
0.0
 11
-8.699855565644881
 21
-84.13850209988378
 31
0.0
 70
    34
  1
45%%d
  3
AM_JIS$2
100
AcDb2LineAngularDimension
 13
0.0000000000003126
 23
62.49999999999999
 33
0.0
 14
-0.0000000000003126
 24
-62.50000000000003
 34
0.0
 15
-6.336427999999699
 25
-69.10626799999999
 35
0.0
 16
-12.89170119045878
 26
-85.56343958042003
 36
0.0
1001
ACAD
1000
DSTYLE
1002
{
1070
   179
1070
     3
1002
}
1001
GENIUS_GENDTOL_13
1000

1000
h7
1000

1040
0.0
  0
VIEWPORT
  5
110
330
101
100
AcDbEntity
 67
     1
  8
0
100
AcDbViewport
 10
420.5
 20
297.0
 30
0.0
 40
948.9782706766916
 41
628.452
 68
     1
 69
     1
1001
ACAD
1000
MVIEW
1002
{
1070
    16
1010
0.0
1020
0.0
1030
0.0
1010
0.0
1020
0.0
1030
1.0
1040
0.0
1040
628.452
1040
420.5
1040
297.0
1040
50.0
1040
0.0
1040
0.0
1070
     0
1070
   100
1070
     1
1070
     1
1070
     0
1070
     0
1070
     0
1070
     0
1040
0.0
1040
0.0
1040
0.0
1040
10.0
1040
10.0
1040
10.0
1040
10.0
1070
     0
1002
{
1002
}
1002
}
  0
ENDSEC
  0
SECTION
  2
OBJECTS
  0
DICTIONARY
  5
C
330
0
100
AcDbDictionary
  3
ACAD_GROUP
350
D
  3
ACAD_LAYOUT
350
1A
  3
ACAD_MLINESTYLE
350
17
  3
ACAD_PLOTSETTINGS
350
19
  3
ACAD_PLOTSTYLENAME
350
E
  3
ACDBVARIABLEDICTIONARY
350
34
  3
ACMDICTIONARY
350
43
  3
AMG
350
2B
  3
AMGSNAPSETTINGS
350
6E
  3
DWGPROPS
350
7E5A
  3
ACDBHEADERROUNDTRIPXREC
350
7E67
  0
DICTIONARY
  5
74
330
1F
100
AcDbDictionary
280
     1
  3
ACAD_INDEX
360
7E5C
  3
ACAD_LAYOUTSELFREF
360
7E8A
  0
DICTIONARY
  5
7E8F
330
101
100
AcDbDictionary
280
     1
  3
ACAD_LAYOUTSELFREF
360
7E90
  0
DICTIONARY
  5
D
102
{ACAD_REACTORS
330
C
102
}
330
C
100
AcDbDictionary
  0
DICTIONARY
  5
1A
102
{ACAD_REACTORS
330
C
102
}
330
C
100
AcDbDictionary
  0
DICTIONARY
  5
17
102
{ACAD_REACTORS
330
C
102
}
330
C
100
AcDbDictionary
  3
STANDARD
350
18
  0
DICTIONARY
  5
19
102
{ACAD_REACTORS
330
C
102
}
330
C
100
AcDbDictionary
  0
ACDBDICTIONARYWDFLT
  5
E
102
{ACAD_REACTORS
330
C
102
}
330
C
100
AcDbDictionary
281
     1
  3
Normal
350
F
100
AcDbDictionaryWithDefault
340
F
  0
DICTIONARY
  5
34
102
{ACAD_REACTORS
330
C
102
}
330
C
100
AcDbDictionary
  3
INDEXCTL
350
35
  3
SORTENTS
350
B5E
  0
DICTIONARY
  5
43
102
{ACAD_REACTORS
330
C
102
}
330
C
100
AcDbDictionary
  3
ACMSTDDICTIONARY
350
260
  0
DICTIONARY
  5
2B
102
{ACAD_REACTORS
330
C
102
}
330
C
100
AcDbDictionary
  3
ACMGSETTINGS
350
2C
  0
DICTIONARY
  5
6E
102
{ACAD_REACTORS
330
C
102
}
330
C
100
AcDbDictionary
  0
XRECORD
  5
7E5A
102
{ACAD_REACTORS
330
C
102
}
330
C
100
AcDbXrecord
  1
DWGPROPS COOKIE
  2

  3

  4

  6

  7

  8

  9

300
AmdtFileType=82
301
=
302
=
303
=
304
=
305
=
306
=
307
=
308
=
309
=
 40
0.1081321875
 41
2452836.771637361
 42
2452913.457065961
  1

 90
        1
  0
DICTIONARY
  5
7E67
102
{ACAD_REACTORS
330
C
102
}
330
C
100
AcDbDictionary
  3
TSTACKALIGN
350
7E68
  3
TSTACKSIZE
350
7E69
  3
HYPERLINKBASE
350
7E6A
  3
STYLESHEET
350
7E6B
  3
LAYOUTDICT
350
7E6C
  3
PLOTSETDICT
350
7E6D
  3
PLOTSTYLNAMDICT
350
7E6E
  3
LWETCUNION
350
7E6F
  3
INSUNITS
350
7E70
  3
CEPSNTYPE
350
7E71
  3
FINGERPRINTGUID
350
7E72
  3
VERSIONGUID
350
7E73
  3
PSVPSCALE
350
7E74
  3
DIMSTYLEDATA
350
7E75
  3
PUCSORTHOREF
350
7E76
  3
PUCSORTHOVIEW
350
7E77
  3
PUCSBASE
350
7E78
  3
PUCSORGTOP
350
7E79
  3
PUCSORGBOTTOM
350
7E7A
  3
PUCSORGLEFT
350
7E7B
  3
PUCSORGRIGHT
350
7E7C
  3
PUCSORGFRONT
350
7E7D
  3
PUCSORGBACK
350
7E7E
  3
UCSORTHOREF
350
7E7F
  3
UCSORTHOVIEW
350
7E80
  3
UCSBASE
350
7E81
  3
UCSORGTOP
350
7E82
  3
UCSORGBOTTOM
350
7E83
  3
UCSORGLEFT
350
7E84
  3
UCSORGRIGHT
350
7E85
  3
UCSORGFRONT
350
7E86
  3
UCSORGBACK
350
7E87
  0
DICTIONARY
  5
7E5C
102
{ACAD_REACTORS
330
74
102
}
330
74
100
AcDbDictionary
  3
*A1
350
7E5D
  0
XRECORD
  5
7E8A
102
{ACAD_REACTORS
330
74
102
}
330
74
100
AcDbXrecord
340
1F
  0
XRECORD
  5
7E90
102
{ACAD_REACTORS
330
7E8F
102
}
330
7E8F
100
AcDbXrecord
340
101
  0
MLINESTYLE
  5
18
102
{ACAD_REACTORS
330
17
102
}
330
17
100
AcDbMlineStyle
  2
STANDARD
 70
     0
  3

 62
   256
 51
90.0
 52
90.0
 71
     2
 49
0.5
 62
   256
  6
BYLAYER
 49
-0.5
 62
   256
  6
BYLAYER
  0
ACDBPLACEHOLDER
  5
F
102
{ACAD_REACTORS
330
E
102
}
330
E
100
AcDbPlaceHolder
280
     0
  0
DICTIONARYVAR
  5
35
102
{ACAD_REACTORS
330
34
102
}
330
34
100
DictionaryVariables
280
     0
  1
1
  0
DICTIONARYVAR
  5
B5E
102
{ACAD_REACTORS
330
34
102
}
330
34
100
DictionaryVariables
280
     0
  1
96
  0
DICTIONARY
  5
260
102
{ACAD_REACTORS
330
43
102
}
330
43
100
AcDbDictionary
  0
DICTIONARY
  5
2C
102
{ACAD_REACTORS
330
2B
102
}
330
2B
100
AcDbDictionary
  3
DWGSETTINGS
350
2D
  0
XRECORD
  5
7E68
102
{ACAD_REACTORS
330
7E67
102
}
330
7E67
100
AcDbXrecord
 90
        1
  0
XRECORD
  5
7E69
102
{ACAD_REACTORS
330
7E67
102
}
330
7E67
100
AcDbXrecord
 90
       70
  0
XRECORD
  5
7E6A
102
{ACAD_REACTORS
330
7E67
102
}
330
7E67
100
AcDbXrecord
  1

  0
XRECORD
  5
7E6B
102
{ACAD_REACTORS
330
7E67
102
}
330
7E67
100
AcDbXrecord
  1
ASAMI.ctb
  0
XRECORD
  5
7E6C
102
{ACAD_REACTORS
330
7E67
102
}
330
7E67
100
AcDbXrecord
340
1A
  0
XRECORD
  5
7E6D
102
{ACAD_REACTORS
330
7E67
102
}
330
7E67
100
AcDbXrecord
340
19
  0
XRECORD
  5
7E6E
102
{ACAD_REACTORS
330
7E67
102
}
330
7E67
100
AcDbXrecord
340
E
  0
XRECORD
  5
7E6F
102
{ACAD_REACTORS
330
7E67
102
}
330
7E67
100
AcDbXrecord
 90
    10781
  0
XRECORD
  5
7E70
102
{ACAD_REACTORS
330
7E67
102
}
330
7E67
100
AcDbXrecord
 90
        4
  0
XRECORD
  5
7E71
102
{ACAD_REACTORS
330
7E67
102
}
330
7E67
100
AcDbXrecord
 90
        0
  0
XRECORD
  5
7E72
102
{ACAD_REACTORS
330
7E67
102
}
330
7E67
100
AcDbXrecord
  1
{AFB28963-8C59-40AE-9337-C84526B81ACE}
  0
XRECORD
  5
7E73
102
{ACAD_REACTORS
330
7E67
102
}
330
7E67
100
AcDbXrecord
  1
{27057AA8-D488-4F33-A735-DCF512F1A91E}
  0
XRECORD
  5
7E74
102
{ACAD_REACTORS
330
7E67
102
}
330
7E67
100
AcDbXrecord
 40
0.0
  0
XRECORD
  5
7E75
102
{ACAD_REACTORS
330
7E67
102
}
330
7E67
100
AcDbXrecord
1000
DSTYLE
1002
{
1070
    79
 70
     2
1070
   341
340
59
1070
   342
340
59
1070
   371
 70
    -1
1070
   372
 70
    -1
1002
}
  0
XRECORD
  5
7E76
102
{ACAD_REACTORS
330
7E67
102
}
330
7E67
100
AcDbXrecord
340
0
  0
XRECORD
  5
7E77
102
{ACAD_REACTORS
330
7E67
102
}
330
7E67
100
AcDbXrecord
 70
     0
  0
XRECORD
  5
7E78
102
{ACAD_REACTORS
330
7E67
102
}
330
7E67
100
AcDbXrecord
340
0
  0
XRECORD
  5
7E79
102
{ACAD_REACTORS
330
7E67
102
}
330
7E67
100
AcDbXrecord
 10
0.0
 20
0.0
 30
0.0
  0
XRECORD
  5
7E7A
102
{ACAD_REACTORS
330
7E67
102
}
330
7E67
100
AcDbXrecord
 10
0.0
 20
0.0
 30
0.0
  0
XRECORD
  5
7E7B
102
{ACAD_REACTORS
330
7E67
102
}
330
7E67
100
AcDbXrecord
 10
0.0
 20
0.0
 30
0.0
  0
XRECORD
  5
7E7C
102
{ACAD_REACTORS
330
7E67
102
}
330
7E67
100
AcDbXrecord
 10
0.0
 20
0.0
 30
0.0
  0
XRECORD
  5
7E7D
102
{ACAD_REACTORS
330
7E67
102
}
330
7E67
100
AcDbXrecord
 10
0.0
 20
0.0
 30
0.0
  0
XRECORD
  5
7E7E
102
{ACAD_REACTORS
330
7E67
102
}
330
7E67
100
AcDbXrecord
 10
0.0
 20
0.0
 30
0.0
  0
XRECORD
  5
7E7F
102
{ACAD_REACTORS
330
7E67
102
}
330
7E67
100
AcDbXrecord
340
0
  0
XRECORD
  5
7E80
102
{ACAD_REACTORS
330
7E67
102
}
330
7E67
100
AcDbXrecord
 70
     0
  0
XRECORD
  5
7E81
102
{ACAD_REACTORS
330
7E67
102
}
330
7E67
100
AcDbXrecord
340
0
  0
XRECORD
  5
7E82
102
{ACAD_REACTORS
330
7E67
102
}
330
7E67
100
AcDbXrecord
 10
0.0
 20
0.0
 30
0.0
  0
XRECORD
  5
7E83
102
{ACAD_REACTORS
330
7E67
102
}
330
7E67
100
AcDbXrecord
 10
0.0
 20
0.0
 30
0.0
  0
XRECORD
  5
7E84
102
{ACAD_REACTORS
330
7E67
102
}
330
7E67
100
AcDbXrecord
 10
0.0
 20
0.0
 30
0.0
  0
XRECORD
  5
7E85
102
{ACAD_REACTORS
330
7E67
102
}
330
7E67
100
AcDbXrecord
 10
0.0
 20
0.0
 30
0.0
  0
XRECORD
  5
7E86
102
{ACAD_REACTORS
330
7E67
102
}
330
7E67
100
AcDbXrecord
 10
0.0
 20
0.0
 30
0.0
  0
XRECORD
  5
7E87
102
{ACAD_REACTORS
330
7E67
102
}
330
7E67
100
AcDbXrecord
 10
0.0
 20
0.0
 30
0.0
  0
LAYER_INDEX
  5
7E5D
102
{ACAD_REACTORS
330
7E5C
102
}
330
7E5C
100
AcDbIndex
 40
2453152.368611284
100
AcDbLayerIndex
  8
0
360
7E5E
 90
       74
  8
AM_0
360
7E5F
 90
       70
  8
AM_7
360
7E60
 90
        1
  8
AM_5
360
7E61
 90
       10
  8
Defpoints
360
7E62
 90
        0
  8
AM_6
360
7E63
 90
        1
  8
AM_11
360
7E64
 90
        2
  8
AM_3
360
7E65
 90
        8
  0
XRECORD
  5
2D
102
{ACAD_REACTORS
330
2C
102
}
330
2C
100
AcDbXrecord
  1
VERSION
140
15.0
  1
PRODUCT
  2
AutoCAD Mechanical 2000
  0
IDBUFFER
  5
7E5E
330
0
100
AcDbIdBuffer
330
7CD7
330
7CD9
330
7CDA
330
7CDB
330
7CDC
330
7CDD
330
7CDE
330
7CDF
330
7CE0
330
7CE1
330
7CE2
330
7CE4
330
7CE5
330
7CE6
330
7CE7
330
7CE8
330
7CE9
330
7CEA
330
7CEB
330
7CED
330
7CEE
330
7CEF
330
7CF0
330
7CF1
330
7CF4
330
7CF5
330
7C70
330
7C71
330
7C72
330
7C73
330
7C74
330
7C75
330
7C76
330
7C77
330
7C78
330
7C79
330
7C7A
330
7C7B
330
7C7C
330
7C7D
330
7C7E
330
7C7F
330
7C80
330
7C81
330
7C82
330
7C83
330
7C86
330
7C87
330
7C88
330
7C89
330
7C8A
330
7C8B
330
7C8C
330
7C8D
330
7C8E
330
7C8F
330
7C90
330
7C92
330
7C93
330
7C94
330
7C95
330
7C96
330
7C97
330
7CCB
330
7CCC
330
7CCD
330
7CCE
330
7CCF
330
7CD0
330
7CD1
330
7CD3
330
7CD4
330
7CD5
330
7CD6
  0
IDBUFFER
  5
7E5F
330
0
100
AcDbIdBuffer
330
792B
330
792C
330
792D
330
792E
330
792F
330
7930
330
7931
330
7934
330
7C6F
330
7C84
330
7C85
330
7C91
330
7C99
330
7C9A
330
7C9B
330
7CBC
330
7CBD
330
7CBE
330
7CD2
330
7CD8
330
7CE3
330
7CEC
330
6CD0
330
6CD1
330
6CD3
330
6CD4
330
6CD5
330
6CD6
330
6CD7
330
6CD8
330
6CD9
330
6CDA
330
6CDC
330
6CDD
330
6CDE
330
6CDF
330
6CE0
330
6CE1
330
6CE2
330
78F6
330
78F9
330
78FC
330
7900
330
7906
330
790A
330
790D
330
7910
330
7912
330
7913
330
7914
330
7915
330
7917
330
7918
330
7919
330
791A
330
791B
330
791C
330
791D
330
791E
330
791F
330
7920
330
7921
330
7922
330
7923
330
7924
330
7925
330
7927
330
7928
330
7929
330
792A
  0
IDBUFFER
  5
7E60
330
0
100
AcDbIdBuffer
330
6CD2
  0
IDBUFFER
  5
7E61
330
0
100
AcDbIdBuffer
330
7937
330
7938
330
7939
330
793A
330
793B
330
793C
330
793D
330
793E
330
793F
330
7D2C
  0
IDBUFFER
  5
7E62
330
0
100
AcDbIdBuffer
  0
IDBUFFER
  5
7E63
330
0
100
AcDbIdBuffer
330
E5A
  0
IDBUFFER
  5
7E64
330
0
100
AcDbIdBuffer
330
7B78
330
7B8A
  0
IDBUFFER
  5
7E65
330
0
100
AcDbIdBuffer
330
6CCE
330
6CCF
330
6CE3
330
6CE4
330
7CC9
330
7CCA
330
7CF2
330
7CF3
  0
ENDSEC
  0
EOF
