  0
SECTION
  2
HEADER
  9
$ACADVER
  1
AC1014
  9
$ACADMAINTVER
 70
     9
  9
$DWGCODEPAGE
  3
ANSI_932
  9
$INSBASE
 10
0.0
 20
0.0
 30
0.0
  9
$EXTMIN
 10
-116.0240963311684
 20
-143.1062690000001
 30
-0.00000001
  9
$EXTMAX
 10
21.50699442689256
 20
86.60626800000001
 30
0.00000001
  9
$LIMMIN
 10
-143.6694350096599
 20
-164.3532095547793
  9
$LIMMAX
 10
54.94781189251625
 20
118.6782363344036
  9
$ORTHOMODE
 70
     0
  9
$REGENMODE
 70
     1
  9
$FILLMODE
 70
     1
  9
$QTEXTMODE
 70
     0
  9
$MIRRTEXT
 70
     0
  9
$DRAGMODE
 70
     2
  9
$LTSCALE
 40
1.0
  9
$OSMODE
 70
    55
  9
$ATTMODE
 70
     1
  9
$TEXTSIZE
 40
2.5
  9
$TRACEWID
 40
1.0
  9
$TEXTSTYLE
  7
STANDARD
  9
$CLAYER
  8
AM_0
  9
$CELTYPE
  6
BYLAYER
  9
$CECOLOR
 62
   256
  9
$CELTSCALE
 40
1.0
  9
$DELOBJ
 70
     1
  9
$DISPSILH
 70
     0
  9
$DIMSCALE
 40
1.0
  9
$DIMASZ
 40
2.5
  9
$DIMEXO
 40
1.0
  9
$DIMDLI
 40
12.0
  9
$DIMRND
 40
0.0
  9
$DIMDLE
 40
0.0
  9
$DIMEXE
 40
1.0
  9
$DIMTP
 40
0.1
  9
$DIMTM
 40
0.1
  9
$DIMTXT
 40
3.2
  9
$DIMCEN
 40
0.0
  9
$DIMTSZ
 40
0.0
  9
$DIMTOL
 70
     0
  9
$DIMLIM
 70
     0
  9
$DIMTIH
 70
     0
  9
$DIMTOH
 70
     0
  9
$DIMSE1
 70
     0
  9
$DIMSE2
 70
     0
  9
$DIMTAD
 70
     3
  9
$DIMZIN
 70
     8
  9
$DIMBLK
  1
OPEN30
  9
$DIMASO
 70
     1
  9
$DIMSHO
 70
     1
  9
$DIMPOST
  1

  9
$DIMAPOST
  1
"
  9
$DIMALT
 70
     0
  9
$DIMALTD
 70
     2
  9
$DIMALTF
 40
0.0393701
  9
$DIMLFAC
 40
1.0
  9
$DIMTOFL
 70
     1
  9
$DIMTVP
 40
0.0
  9
$DIMTIX
 70
     0
  9
$DIMSOXD
 70
     0
  9
$DIMSAH
 70
     0
  9
$DIMBLK1
  1

  9
$DIMBLK2
  1

  9
$DIMSTYLE
  2
AM_JIS
  9
$DIMCLRD
 70
   256
  9
$DIMCLRE
 70
   256
  9
$DIMCLRT
 70
     2
  9
$DIMTFAC
 40
0.71
  9
$DIMGAP
 40
1.5
  9
$DIMJUST
 70
     0
  9
$DIMSD1
 70
     0
  9
$DIMSD2
 70
     0
  9
$DIMTOLJ
 70
     0
  9
$DIMTZIN
 70
     0
  9
$DIMALTZ
 70
     0
  9
$DIMALTTZ
 70
     0
  9
$DIMFIT
 70
     3
  9
$DIMUPT
 70
     0
  9
$DIMUNIT
 70
     2
  9
$DIMDEC
 70
     3
  9
$DIMTDEC
 70
     3
  9
$DIMALTU
 70
     2
  9
$DIMALTTD
 70
     2
  9
$DIMTXSTY
  7
ASAMI
  9
$DIMAUNIT
 70
     0
  9
$LUNITS
 70
     2
  9
$LUPREC
 70
     2
  9
$SKETCHINC
 40
1.0
  9
$FILLETRAD
 40
2.0
  9
$AUNITS
 70
     0
  9
$AUPREC
 70
     0
  9
$MENU
  1
.
  9
$ELEVATION
 40
0.0
  9
$PELEVATION
 40
0.0
  9
$THICKNESS
 40
0.0
  9
$LIMCHECK
 70
     0
  9
$BLIPMODE
 70
     0
  9
$CHAMFERA
 40
1.5
  9
$CHAMFERB
 40
1.5
  9
$CHAMFERC
 40
20.0
  9
$CHAMFERD
 40
0.0
  9
$SKPOLY
 70
     0
  9
$TDCREATE
 40
2452836.771637361
  9
$TDUPDATE
 40
2453152.368699178
  9
$TDINDWG
 40
0.1138653704
  9
$TDUSRTIMER
 40
0.1138653704
  9
$USRTIMER
 70
     1
  9
$ANGBASE
 50
0.0
  9
$ANGDIR
 70
     0
  9
$PDMODE
 70
     0
  9
$PDSIZE
 40
0.0
  9
$PLINEWID
 40
0.0
  9
$COORDS
 70
     1
  9
$SPLFRAME
 70
     0
  9
$SPLINETYPE
 70
     6
  9
$SPLINESEGS
 70
     8
  9
$ATTDIA
 70
     1
  9
$ATTREQ
 70
     1
  9
$HANDLING
 70
 12289
  9
$HANDSEED
  5
8DF8
  9
$SURFTAB1
 70
     6
  9
$SURFTAB2
 70
     6
  9
$SURFTYPE
 70
     6
  9
$SURFU
 70
     6
  9
$SURFV
 70
     6
  9
$UCSNAME
  2

  9
$UCSORG
 10
0.0
 20
0.0
 30
0.0
  9
$UCSXDIR
 10
1.0
 20
0.0
 30
0.0
  9
$UCSYDIR
 10
0.0
 20
1.0
 30
0.0
  9
$PUCSNAME
  2

  9
$PUCSORG
 10
0.0
 20
0.0
 30
0.0
  9
$PUCSXDIR
 10
1.0
 20
0.0
 30
0.0
  9
$PUCSYDIR
 10
0.0
 20
1.0
 30
0.0
  9
$USERI1
 70
     0
  9
$USERI2
 70
     0
  9
$USERI3
 70
     0
  9
$USERI4
 70
     0
  9
$USERI5
 70
     0
  9
$USERR1
 40
0.0
  9
$USERR2
 40
0.0
  9
$USERR3
 40
0.0
  9
$USERR4
 40
0.0
  9
$USERR5
 40
0.0
  9
$WORLDVIEW
 70
     1
  9
$SHADEDGE
 70
     3
  9
$SHADEDIF
 70
    70
  9
$TILEMODE
 70
     1
  9
$MAXACTVP
 70
    64
  9
$PINSBASE
 10
0.0
 20
0.0
 30
0.0
  9
$PLIMCHECK
 70
     0
  9
$PEXTMIN
 10
1.000000000000000E+20
 20
1.000000000000000E+20
 30
1.000000000000000E+20
  9
$PEXTMAX
 10
-1.000000000000000E+20
 20
-1.000000000000000E+20
 30
-1.000000000000000E+20
  9
$PLIMMIN
 10
0.0
 20
0.0
  9
$PLIMMAX
 10
841.0
 20
594.0
  9
$UNITMODE
 70
     0
  9
$VISRETAIN
 70
     1
  9
$PLINEGEN
 70
     0
  9
$PSLTSCALE
 70
     0
  9
$TREEDEPTH
 70
  3020
  9
$PICKSTYLE
 70
     0
  9
$CMLSTYLE
  2
STANDARD
  9
$CMLJUST
 70
     0
  9
$CMLSCALE
 40
20.0
  9
$PROXYGRAPHICS
 70
     1
  9
$MEASUREMENT
 70
     1
  0
ENDSEC
  0
SECTION
  2
CLASSES
  0
CLASS
  1
ACDBDICTIONARYWDFLT
  2
AcDbDictionaryWithDefault
  3
AutoCAD 2000
 90
        0
280
     0
281
     0
  0
CLASS
  1
ACDBPLACEHOLDER
  2
AcDbPlaceHolder
  3
AutoCAD 2000
 90
        0
280
     0
281
     0
  0
CLASS
  1
LAYOUT
  2
AcDbLayout
  3
AutoCAD 2000
 90
        0
280
     0
281
     0
  0
CLASS
  1
AMGSETTINGSOBJ
  2
AmgSettingsObj
  3
"AcadM|Product Description: AutoCAD Mechanical 2000|Company: Autodesk"
 90
        0
280
     0
281
     0
  0
CLASS
  1
ACME_DOCUMENT
  2
AcMeDbDoc
  3
AcMeServices
 90
        0
280
     0
281
     0
  0
CLASS
  1
ACMESCOPE
  2
AcMeScope
  3
AcMeServices
 90
        0
280
     0
281
     0
  0
CLASS
  1
ACMECOMMANDHISTORY
  2
AcMeCommandHistory
  3
AcMeServices
 90
        0
280
     0
281
     0
  0
CLASS
  1
DICTIONARYVAR
  2
AcDbDictionaryVar
  3
AutoCAD 2000
 90
        0
280
     0
281
     0
  0
CLASS
  1
ACIMSYSVARMAN
  2
AcImSysVarManager
  3
AcMeServices
 90
        0
280
     0
281
     0
  0
CLASS
  1
ACIMREALSYSVAR
  2
AcImRealSysVar
  3
AcMeServices
 90
        0
280
     0
281
     0
  0
CLASS
  1
ACIMINTSYSVAR
  2
AcImIntSysVar
  3
AcMeServices
 90
        0
280
     0
281
     0
  0
CLASS
  1
ACMEDRAWINGMAN
  2
AcMeDrawingMan
  3
AcMeServices
 90
        0
280
     0
281
     0
  0
CLASS
  1
ACMEVIEW
  2
AcMeView
  3
AcMeServices
 90
        0
280
     0
281
     0
  0
CLASS
  1
ACDBENTITYCACHE
  2
AcMeEntityCache
  3
AcMeServices
 90
        0
280
     0
281
     0
  0
CLASS
  1
GSMANAGER
  2
AcMeGSManager
  3
AcMeServices
 90
        0
280
     0
281
     0
  0
CLASS
  1
AmdtInternalReactor
  2
AmdtInternalReactor
  3
AcMeServices
 90
        0
280
     0
281
     0
  0
CLASS
  1
ACMESTATEMGR
  2
AcMeStateMgr
  3
AcMeServices
 90
        0
280
     0
281
     0
  0
CLASS
  1
ACME_DATABASE
  2
AcMeDbDatabase
  3
AcMeServices
 90
        0
280
     0
281
     0
  0
CLASS
  1
ACRFINSADJUSTERMGR
  2
AcRfInsAdjusterMgr
  3
AcMeServices
 90
        0
280
     0
281
     0
  0
CLASS
  1
ACMDATADICTIONARY
  2
AcmDataDictionary
  3
"AcmSymBB|Product Description: AutoCAD Mechanical 2000|Company: Autodesk"
 90
        0
280
     0
281
     0
  0
CLASS
  1
ACMDATAENTRYBLOCK
  2
AcmDataEntryBlock
  3
"AcmSymBB|Product Description: AutoCAD Mechanical 2000|Company: Autodesk"
 90
        0
280
     0
281
     0
  0
CLASS
  1
AMGOBJPROPCFG
  2
AmgObjPropCfg
  3
"AmgLay|Product Description: AutoCAD Mechanical 2000|Company: Autodesk"
 90
        1
280
     0
281
     0
  0
CLASS
  1
ACAMGFILTERDAT
  2
AcAmgFilterDat
  3
"AcadM|Product Description: AutoCAD Mechanical 2000|Company: Autodesk"
 90
        0
280
     0
281
     0
  0
CLASS
  1
LAYER_INDEX
  2
AcDbLayerIndex
  3
AutoCAD 2000
 90
        0
280
     0
281
     0
  0
CLASS
  1
IDBUFFER
  2
AcDbIdBuffer
  3
AutoCAD 2000
 90
        0
280
     0
281
     0
  0
CLASS
  1
ACIMSTRSYSVAR
  2
AcImStrSysVar
  3
AcMeServices
 90
        0
280
     0
281
     0
  0
CLASS
  1
ACMSTANDARDJIS
  2
AcmStandardJIS
  3
"AcmSymBB|Product Description: AutoCAD Mechanical 2000|Company: Autodesk"
 90
        0
280
     0
281
     0
  0
CLASS
  1
ACMSURFSTANDARDJIS
  2
AcmSurfTextStdJIS
  3
"AcmSymBB|Product Description: AutoCAD Mechanical 2000|Company: Autodesk"
 90
        0
280
     0
281
     0
  0
CLASS
  1
ACMFCFSTANDARDJIS
  2
AcmFCFStdJIS
  3
"AcmSymBB|Product Description: AutoCAD Mechanical 2000|Company: Autodesk"
 90
        0
280
     0
281
     0
  0
CLASS
  1
ACMWELDSTANDARDJIS
  2
AcmWeldingStdJIS
  3
"AcmSymBB|Product Description: AutoCAD Mechanical 2000|Company: Autodesk"
 90
        0
280
     0
281
     0
  0
CLASS
  1
ACMIDSTANDARDJIS
  2
AcmIdStdJIS
  3
"AcmSymBB|Product Description: AutoCAD Mechanical 2000|Company: Autodesk"
 90
        0
280
     0
281
     0
  0
CLASS
  1
ACMDATUMSTANDARDJIS
  2
AcmDatumStdJIS
  3
"AcmSymBB|Product Description: AutoCAD Mechanical 2000|Company: Autodesk"
 90
        0
280
     0
281
     0
  0
CLASS
  1
ACMBOMSTANDARDJIS
  2
AcmBOMStdJIS
  3
"AcmSymBB|Product Description: AutoCAD Mechanical 2000|Company: Autodesk"
 90
        0
280
     0
281
     0
  0
CLASS
  1
ACMSTANDARDANSI
  2
AcmStandardANSI
  3
"AcmSymBB|Product Description: AutoCAD Mechanical 2000|Company: Autodesk"
 90
        0
280
     0
281
     0
  0
CLASS
  1
ACMSURFSTANDARDANSI
  2
AcmSurfTextStdANSI
  3
"AcmSymBB|Product Description: AutoCAD Mechanical 2000|Company: Autodesk"
 90
        0
280
     0
281
     0
  0
CLASS
  1
ACMFCFSTANDARDANSI
  2
AcmFCFStdANSI
  3
"AcmSymBB|Product Description: AutoCAD Mechanical 2000|Company: Autodesk"
 90
        0
280
     0
281
     0
  0
CLASS
  1
ACMWELDSTANDARDANSI
  2
AcmWeldingStdANSI
  3
"AcmSymBB|Product Description: AutoCAD Mechanical 2000|Company: Autodesk"
 90
        0
280
     0
281
     0
  0
CLASS
  1
ACMIDSTANDARDANSI
  2
AcmIdStdANSI
  3
"AcmSymBB|Product Description: AutoCAD Mechanical 2000|Company: Autodesk"
 90
        0
280
     0
281
     0
  0
CLASS
  1
ACMDATUMSTANDARDANSI
  2
AcmDatumStdANSI
  3
"AcmSymBB|Product Description: AutoCAD Mechanical 2000|Company: Autodesk"
 90
        0
280
     0
281
     0
  0
CLASS
  1
ACMBOMSTANDARDANSI
  2
AcmBOMStdANSI
  3
"AcmSymBB|Product Description: AutoCAD Mechanical 2000|Company: Autodesk"
 90
        0
280
     0
281
     0
  0
CLASS
  1
ACMSTANDARDBSI
  2
AcmStandardBSI
  3
"AcmSymBB|Product Description: AutoCAD Mechanical 2000|Company: Autodesk"
 90
        0
280
     0
281
     0
  0
CLASS
  1
ACMSURFSTANDARDBSI
  2
AcmSurfTextStdBSI
  3
"AcmSymBB|Product Description: AutoCAD Mechanical 2000|Company: Autodesk"
 90
        0
280
     0
281
     0
  0
CLASS
  1
ACMFCFSTANDARDBSI
  2
AcmFCFStdBSI
  3
"AcmSymBB|Product Description: AutoCAD Mechanical 2000|Company: Autodesk"
 90
        0
280
     0
281
     0
  0
CLASS
  1
ACMWELDSTANDARDBSI
  2
AcmWeldingStdBSI
  3
"AcmSymBB|Product Description: AutoCAD Mechanical 2000|Company: Autodesk"
 90
        0
280
     0
281
     0
  0
CLASS
  1
ACMIDSTANDARDBSI
  2
AcmIdStdBSI
  3
"AcmSymBB|Product Description: AutoCAD Mechanical 2000|Company: Autodesk"
 90
        0
280
     0
281
     0
  0
CLASS
  1
ACMDATUMSTANDARDBSI
  2
AcmDatumStdBSI
  3
"AcmSymBB|Product Description: AutoCAD Mechanical 2000|Company: Autodesk"
 90
        0
280
     0
281
     0
  0
CLASS
  1
ACMBOMSTANDARDBSI
  2
AcmBOMStdBSI
  3
"AcmSymBB|Product Description: AutoCAD Mechanical 2000|Company: Autodesk"
 90
        0
280
     0
281
     0
  0
CLASS
  1
LONG_TRANSACTION
  2
AcDbLongTransaction
  3
AutoCAD 2000
 90
        0
280
     0
281
     0
  0
CLASS
  1
LWPOLYLINE
  2
AcDbPolyline
  3
AutoCAD 2000
 90
        0
280
     0
281
     1
  0
CLASS
  1
HATCH
  2
AcDbHatch
  3
AutoCAD 2000
 90
        0
280
     0
281
     1
  0
CLASS
  1
XRECORD
  2
AcDbXrecord
  3
AutoCAD 2000
 90
        0
280
     0
281
     0
  0
ENDSEC
  0
SECTION
  2
TABLES
  0
TABLE
  2
VPORT
  5
8
330
0
100
AcDbSymbolTable
 70
     3
  0
VPORT
  5
8DCD
330
8
100
AcDbSymbolTableRecord
100
AcDbViewportTableRecord
  2
*ACTIVE
 70
     0
 10
0.0
 20
0.0
 11
1.0
 21
1.0
 12
-47.26266678049021
 22
-28.24667916392502
 13
0.0
 23
0.0
 14
2.5
 24
2.5
 15
10.0
 25
10.0
 16
0.0
 26
0.0
 36
1.0
 17
0.0
 27
0.0
 37
0.0
 40
231.1479063778398
 41
1.56570841889117
 42
50.0
 43
0.0
 44
0.0
 50
0.0
 51
0.0
 71
     0
 72
   100
 73
     1
 74
     3
 75
     0
 76
     0
 77
     0
 78
     0
  0
ENDTAB
  0
TABLE
  2
LTYPE
  5
5
330
0
100
AcDbSymbolTable
 70
    10
  0
LTYPE
  5
14
330
5
100
AcDbSymbolTableRecord
100
AcDbLinetypeTableRecord
  2
BYBLOCK
 70
     0
  3

 72
    65
 73
     0
 40
0.0
  0
LTYPE
  5
15
330
5
100
AcDbSymbolTableRecord
100
AcDbLinetypeTableRecord
  2
BYLAYER
 70
     0
  3

 72
    65
 73
     0
 40
0.0
  0
LTYPE
  5
16
330
5
100
AcDbSymbolTableRecord
100
AcDbLinetypeTableRecord
  2
CONTINUOUS
 70
     0
  3
Solid line
 72
    65
 73
     0
 40
0.0
  0
LTYPE
  5
4B
330
5
100
AcDbSymbolTableRecord
100
AcDbLinetypeTableRecord
  2
AM_ISO02W050
 70
     0
  3
__ __ __ __ __ __ __ __ __ __ __ __ __ __ __
 72
    65
 73
     2
 40
7.5
 49
6.0
 74
     0
 49
-1.5
 74
     0
  0
LTYPE
  5
4C
330
5
100
AcDbSymbolTableRecord
100
AcDbLinetypeTableRecord
  2
AM_ISO08W050
 70
     0
  3
____ . ____ . ____ . ____ . ____ . ____ . ____
 72
    65
 73
     4
 40
18.0
 49
12.0
 74
     0
 49
-1.5
 74
     0
 49
3.0
 74
     0
 49
-1.5
 74
     0
  0
LTYPE
  5
4D
330
5
100
AcDbSymbolTableRecord
100
AcDbLinetypeTableRecord
  2
AM_ISO09W050
 70
     0
  3
_____ . . _____ . . _____ . . ____ .. ____
 72
    65
 73
     6
 40
22.5
 49
12.0
 74
     0
 49
-1.5
 74
     0
 49
3.0
 74
     0
 49
-1.5
 74
     0
 49
3.0
 74
     0
 49
-1.5
 74
     0
  0
LTYPE
  5
4E
330
5
100
AcDbSymbolTableRecord
100
AcDbLinetypeTableRecord
  2
AMCONSTR
 70
     0
  3
_______________________
 72
    65
 73
     2
 40
9999.0
 49
9999.0
 74
     0
 49
0.0
 74
     0
  0
LTYPE
  5
4F
330
5
100
AcDbSymbolTableRecord
100
AcDbLinetypeTableRecord
  2
AM_ISO02W050X2
 70
     0
  3
 _ _ _ _ _ _ _ _ _ _ _ _
 72
    65
 73
     2
 40
3.75
 49
3.0
 74
     0
 49
-0.75
 74
     0
  0
LTYPE
  5
50
330
5
100
AcDbSymbolTableRecord
100
AcDbLinetypeTableRecord
  2
AM_ISO08W050X2
 70
     0
  3
__ . __ . __ . __ . __ . __
 72
    65
 73
     4
 40
9.0
 49
6.0
 74
     0
 49
-0.75
 74
     0
 49
1.5
 74
     0
 49
-0.75
 74
     0
  0
LTYPE
  5
53
330
5
100
AcDbSymbolTableRecord
100
AcDbLinetypeTableRecord
  2
AMZIGZAG
 70
     0
  3
/\/-/\/-/\/-/\/-/\/-/\/
 72
    65
 73
     2
 40
11.00009999999999
 49
0.0001
 74
     4
 75
   135
340
52
 46
0.04
 50
0.0
 44
0.0
 45
0.0
 49
-11.0
 74
     0
  0
LTYPE
  5
166
330
5
100
AcDbSymbolTableRecord
100
AcDbLinetypeTableRecord
  2
ACJISTGL
 70
     0
  3
_ _ _ _ _
 72
    65
 73
     2
 40
3.0
 49
2.0
 74
     0
 49
-1.0
 74
     0
  0
LTYPE
  5
26A
330
5
100
AcDbSymbolTableRecord
100
AcDbLinetypeTableRecord
  2
ACJISTGB
 70
     0
  3
__ . . __ . .
 72
    65
 73
     6
 40
9.0
 49
4.0
 74
     0
 49
-1.0
 74
     0
 49
1.0
 74
     0
 49
-1.0
 74
     0
 49
1.0
 74
     0
 49
-1.0
 74
     0
  0
ENDTAB
  0
TABLE
  2
LAYER
  5
2
330
0
100
AcDbSymbolTable
 70
     8
  0
LAYER
  5
10
330
2
100
AcDbSymbolTableRecord
100
AcDbLayerTableRecord
  2
0
 70
     0
 62
     7
  6
CONTINUOUS
  0
LAYER
  5
3F9
330
2
100
AcDbSymbolTableRecord
100
AcDbLayerTableRecord
  2
AM_0
 70
     0
 62
     7
  6
CONTINUOUS
  0
LAYER
  5
BD5
330
2
100
AcDbSymbolTableRecord
100
AcDbLayerTableRecord
  2
AM_7
 70
     0
 62
     4
  6
AM_ISO08W050
  0
LAYER
  5
BD6
330
2
100
AcDbSymbolTableRecord
100
AcDbLayerTableRecord
  2
AM_5
 70
     0
 62
     3
  6
CONTINUOUS
  0
LAYER
  5
BD7
330
2
100
AcDbSymbolTableRecord
100
AcDbLayerTableRecord
  2
DEFPOINTS
 70
     0
 62
     7
  6
CONTINUOUS
  0
LAYER
  5
E59
330
2
100
AcDbSymbolTableRecord
100
AcDbLayerTableRecord
  2
AM_6
 70
     0
 62
     2
  6
CONTINUOUS
  0
LAYER
  5
1E31
330
2
100
AcDbSymbolTableRecord
100
AcDbLayerTableRecord
  2
AM_11
 70
     0
 62
     3
  6
AM_ISO09W050
  0
LAYER
  5
1E41
330
2
100
AcDbSymbolTableRecord
100
AcDbLayerTableRecord
  2
AM_3
 70
     0
 62
     6
  6
ACJISTGL
  0
ENDTAB
  0
TABLE
  2
STYLE
  5
3
330
0
100
AcDbSymbolTable
 70
     5
  0
STYLE
  5
11
330
3
100
AcDbSymbolTableRecord
100
AcDbTextStyleTableRecord
  2
STANDARD
 70
     0
 40
0.0
 41
1.0
 50
0.0
 71
     0
 42
2.5
  3
simplex.shx
  4
EXTFONT.SHX
  0
STYLE
  5
52
330
3
100
AcDbSymbolTableRecord
100
AcDbTextStyleTableRecord
  2

 70
     1
 40
0.0
 41
1.0
 50
0.0
 71
     0
 42
2.5
  3
ltypeshp.shx
  4

  0
STYLE
  5
6B
330
3
100
AcDbSymbolTableRecord
100
AcDbTextStyleTableRecord
  2
ASAMI
 70
     0
 40
0.0
 41
1.0
 50
0.0
 71
     0
 42
2.5
  3
simplex.shx
  4
EXTFONT.SHX
  0
STYLE
  5
262
330
3
100
AcDbSymbolTableRecord
100
AcDbTextStyleTableRecord
  2
ACJISTS
 70
     0
 40
1.0
 41
1.0
 50
0.0
 71
     0
 42
2.5
  3
simplex.shx
  4
bigfont.shx
  0
STYLE
  5
269
330
3
100
AcDbSymbolTableRecord
100
AcDbTextStyleTableRecord
  2
ACJISGDT
 70
     0
 40
0.0
 41
1.0
 50
0.0
 71
     0
 42
2.5
  3
amgdtans.shx
  4

  0
ENDTAB
  0
TABLE
  2
VIEW
  5
6
330
0
100
AcDbSymbolTable
 70
     0
  0
ENDTAB
  0
TABLE
  2
UCS
  5
7
330
0
100
AcDbSymbolTable
 70
     0
  0
ENDTAB
  0
TABLE
  2
APPID
  5
9
330
0
100
AcDbSymbolTable
 70
    13
  0
APPID
  5
12
330
9
100
AcDbSymbolTableRecord
100
AcDbRegAppTableRecord
  2
ACAD
 70
     0
  0
APPID
  5
30
330
9
100
AcDbSymbolTableRecord
100
AcDbRegAppTableRecord
  2
MCAD_NO_VIS
 70
     0
  0
APPID
  5
31
330
9
100
AcDbSymbolTableRecord
100
AcDbRegAppTableRecord
  2
ACAD_TEMP_GRAPHIC
 70
     0
  0
APPID
  5
2C2
330
9
100
AcDbSymbolTableRecord
100
AcDbRegAppTableRecord
  2
GENIUS_GENDTOL_13
 70
     0
  0
APPID
  5
339
330
9
100
AcDbSymbolTableRecord
100
AcDbRegAppTableRecord
  2
GENIUS_GENODEF_13
 70
     0
  0
APPID
  5
33A
330
9
100
AcDbSymbolTableRecord
100
AcDbRegAppTableRecord
  2
GENIUS_GENOBJ-N-RSBK_13
 70
     0
  0
APPID
  5
33B
330
9
100
AcDbSymbolTableRecord
100
AcDbRegAppTableRecord
  2
GENIUS_GENOBJ-N-LIB_13
 70
     0
  0
APPID
  5
33C
330
9
100
AcDbSymbolTableRecord
100
AcDbRegAppTableRecord
  2
GENIUS_GENSCALE_13
 70
     0
  0
APPID
  5
378
330
9
100
AcDbSymbolTableRecord
100
AcDbRegAppTableRecord
  2
GENIUS_GENDIMSH_14
 70
     0
  0
APPID
  5
BD8
330
9
100
AcDbSymbolTableRecord
100
AcDbRegAppTableRecord
  2
GENIUS_GENOBJ-N-CEN_13
 70
     0
  0
APPID
  5
BD9
330
9
100
AcDbSymbolTableRecord
100
AcDbRegAppTableRecord
  2
GENIUS_GENFIL_13
 70
     0
  0
APPID
  5
BDA
330
9
100
AcDbSymbolTableRecord
100
AcDbRegAppTableRecord
  2
GENIUS_GENOBJ-N-CHA_13
 70
     0
  0
APPID
  5
2BC1
330
9
100
AcDbSymbolTableRecord
100
AcDbRegAppTableRecord
  2
GENIUS_GENOBJ-N-FIL_13
 70
     0
  0
ENDTAB
  0
TABLE
  2
DIMSTYLE
  5
A
330
0
100
AcDbSymbolTable
 70
     9
  0
DIMSTYLE
105
58
102
{ACAD_REACTORS
330
8871
330
8870
330
8872
330
8873
330
8877
330
8874
330
8875
330
8876
102
}
330
A
100
AcDbSymbolTableRecord
100
AcDbDimStyleTableRecord
  2
AM_JIS
 70
     0
  3

  4
"
  5
OPEN30
  6

  7

 40
1.0
 41
2.5
 42
1.0
 43
12.0
 44
1.0
 45
0.0
 46
0.0
 47
0.1
 48
0.1
140
3.2
141
0.0
142
0.0
143
0.0393701
144
1.0
145
0.0
146
0.71
147
1.5
 71
     0
 72
     0
 73
     0
 74
     0
 75
     0
 76
     0
 77
     3
 78
     8
170
     0
171
     2
172
     1
173
     0
174
     0
175
     0
176
   256
177
   256
178
     2
270
     2
271
     3
272
     3
273
     2
274
     2
340
6B
275
     0
280
     0
281
     0
282
     0
283
     0
284
     0
285
     0
286
     0
287
     3
288
     0
  0
DIMSTYLE
105
5F
330
A
100
AcDbSymbolTableRecord
100
AcDbDimStyleTableRecord
  2
AM_JIS$3
 70
     0
  3

  4
"
  5
OPEN30
  6

  7

 40
1.0
 41
2.5
 42
1.0
 43
10.0
 44
1.0
 45
0.0
 46
0.0
 47
0.1
 48
0.1
140
3.2
141
0.0
142
0.0
143
0.0393701
144
1.0
145
0.0
146
0.71
147
1.5
 71
     0
 72
     0
 73
     0
 74
     1
 75
     0
 76
     0
 77
     3
 78
     8
170
     0
171
     2
172
     0
173
     0
174
     0
175
     0
176
   256
177
   256
178
     2
270
     2
271
     2
272
     3
273
     2
274
     2
340
6B
275
     0
280
     0
281
     0
282
     0
283
     0
284
     0
285
     0
286
     0
287
     0
288
     1
  0
DIMSTYLE
105
60
330
A
100
AcDbSymbolTableRecord
100
AcDbDimStyleTableRecord
  2
AM_JIS$4
 70
     0
  3

  4
"
  5
OPEN30
  6

  7

 40
1.0
 41
2.5
 42
1.0
 43
10.0
 44
1.0
 45
0.0
 46
0.0
 47
0.1
 48
0.1
140
3.2
141
0.0
142
0.0
143
0.0393701
144
1.0
145
0.0
146
0.71
147
1.5
 71
     0
 72
     0
 73
     0
 74
     1
 75
     0
 76
     0
 77
     3
 78
     8
170
     0
171
     2
172
     0
173
     0
174
     0
175
     0
176
   256
177
   256
178
     2
270
     2
271
     2
272
     3
273
     2
274
     2
340
6B
275
     0
280
     0
281
     0
282
     0
283
     0
284
     0
285
     0
286
     0
287
     0
288
     1
  0
DIMSTYLE
105
61
330
A
100
AcDbSymbolTableRecord
100
AcDbDimStyleTableRecord
  2
AM_JIS$6
 70
     0
  3

  4
"
  5
OPEN30
  6

  7

 40
1.0
 41
2.5
 42
1.0
 43
10.0
 44
1.0
 45
0.0
 46
0.0
 47
0.1
 48
0.1
140
3.2
141
0.0
142
0.0
143
0.0393701
144
1.0
145
0.0
146
0.71
147
1.5
 71
     0
 72
     0
 73
     0
 74
     0
 75
     0
 76
     0
 77
     0
 78
     8
170
     0
171
     2
172
     1
173
     0
174
     0
175
     0
176
   256
177
   256
178
     2
270
     2
271
     2
272
     2
273
     2
274
     2
340
6B
275
     0
280
     0
281
     0
282
     0
283
     0
284
     0
285
     0
286
     0
287
     3
288
     0
  0
DIMSTYLE
105
62
330
A
100
AcDbSymbolTableRecord
100
AcDbDimStyleTableRecord
  2
AM_JIS$7
 70
     0
  3

  4
"
  5
OPEN30
  6

  7

 40
1.0
 41
2.5
 42
1.0
 43
10.0
 44
1.0
 45
0.0
 46
0.0
 47
0.1
 48
0.1
140
3.2
141
0.0
142
0.0
143
0.0393701
144
1.0
145
0.0
146
0.71
147
1.5
 71
     0
 72
     0
 73
     0
 74
     0
 75
     0
 76
     0
 77
     3
 78
     8
170
     0
171
     2
172
     1
173
     0
174
     0
175
     0
176
   256
177
   256
178
     2
270
     2
271
     2
272
     3
273
     2
274
     2
340
6B
275
     0
280
     0
281
     0
282
     0
283
     0
284
     0
285
     0
286
     0
287
     3
288
     0
  0
DIMSTYLE
105
63
330
A
100
AcDbSymbolTableRecord
100
AcDbDimStyleTableRecord
  2
AM_JIS$SF
 70
     0
  3

  4
"
  5
OPEN30
  6

  7

 40
1.0
 41
2.5
 42
1.0
 43
10.0
 44
1.0
 45
0.0
 46
0.0
 47
0.1
 48
0.1
140
3.2
141
0.0
142
0.0
143
0.0393701
144
1.0
145
0.0
146
0.71
147
1.5
 71
     0
 72
     0
 73
     0
 74
     0
 75
     1
 76
     1
 77
     3
 78
     8
170
     0
171
     2
172
     1
173
     0
174
     0
175
     0
176
   256
177
   256
178
     2
270
     2
271
     2
272
     2
273
     2
274
     2
340
6B
275
     0
280
     0
281
     0
282
     0
283
     0
284
     0
285
     0
286
     0
287
     3
288
     0
  0
DIMSTYLE
105
68
330
A
100
AcDbSymbolTableRecord
100
AcDbDimStyleTableRecord
  2
AM_JIS$SH
 70
     0
  3

  4
"
  5

  6
GENAXEH
  7
OPEN30
 40
1.0
 41
2.5
 42
1.0
 43
10.0
 44
1.0
 45
0.0
 46
0.0
 47
0.1
 48
0.1
140
3.2
141
0.0
142
0.0
143
0.0393701
144
2.0
145
0.0
146
0.71
147
1.5
 71
     0
 72
     0
 73
     0
 74
     0
 75
     1
 76
     1
 77
     3
 78
     8
170
     0
171
     2
172
     1
173
     1
174
     0
175
     0
176
   256
177
   256
178
     2
270
     2
271
     2
272
     2
273
     2
274
     2
340
6B
275
     0
280
     0
281
     0
282
     0
283
     0
284
     0
285
     0
286
     0
287
     3
288
     0
  0
DIMSTYLE
105
B34
102
{ACAD_REACTORS
330
8C3B
102
}
330
A
100
AcDbSymbolTableRecord
100
AcDbDimStyleTableRecord
  2
AM_JIS$2
 70
     0
  3

  4
"
  5
OPEN30
  6

  7

 40
1.0
 41
2.5
 42
1.0
 43
12.0
 44
1.0
 45
0.0
 46
0.0
 47
0.1
 48
0.1
140
3.2
141
0.0
142
0.0
143
0.0393701
144
1.0
145
0.0
146
0.71
147
1.5
 71
     0
 72
     0
 73
     0
 74
     0
 75
     0
 76
     0
 77
     3
 78
     8
170
     0
171
     2
172
     1
173
     0
174
     0
175
     0
176
   256
177
   256
178
     2
270
     2
271
     3
272
     3
273
     2
274
     2
340
6B
275
     0
280
     0
281
     0
282
     0
283
     0
284
     0
285
     0
286
     0
287
     3
288
     0
  0
DIMSTYLE
105
1E42
330
A
100
AcDbSymbolTableRecord
100
AcDbDimStyleTableRecord
  2
AM_JIS$0
 70
     0
  3

  4
"
  5
OPEN30
  6

  7

 40
2.0
 41
2.5
 42
1.0
 43
10.0
 44
1.0
 45
0.0
 46
0.0
 47
0.1
 48
0.1
140
2.5
141
0.0
142
0.0
143
0.0393701
144
1.0
145
0.0
146
0.71
147
1.0
 71
     0
 72
     0
 73
     0
 74
     0
 75
     0
 76
     0
 77
     3
 78
     8
170
     0
171
     2
172
     1
173
     0
174
     0
175
     0
176
   256
177
   256
178
     4
270
     2
271
     3
272
     3
273
     2
274
     2
340
6B
275
     0
280
     0
281
     0
282
     0
283
     0
284
     0
285
     0
286
     0
287
     3
288
     0
  0
ENDTAB
  0
TABLE
  2
BLOCK_RECORD
  5
1
330
0
100
AcDbSymbolTable
 70
    14
  0
BLOCK_RECORD
  5
1F
102
{ACAD_XDICTIONARY
360
74
102
}
330
1
100
AcDbSymbolTableRecord
100
AcDbBlockTableRecord
  2
*MODEL_SPACE
  0
BLOCK_RECORD
  5
101
102
{ACAD_XDICTIONARY
360
8DF6
102
}
330
1
100
AcDbSymbolTableRecord
100
AcDbBlockTableRecord
  2
*PAPER_SPACE
  0
BLOCK_RECORD
  5
59
330
1
100
AcDbSymbolTableRecord
100
AcDbBlockTableRecord
  2
_OPEN30
  0
BLOCK_RECORD
  5
64
330
1
100
AcDbSymbolTableRecord
100
AcDbBlockTableRecord
  2
GENAXEH
  0
BLOCK_RECORD
  5
8879
330
1
100
AcDbSymbolTableRecord
100
AcDbBlockTableRecord
  2
*D5
  0
BLOCK_RECORD
  5
8885
330
1
100
AcDbSymbolTableRecord
100
AcDbBlockTableRecord
  2
*D6
  0
BLOCK_RECORD
  5
8891
330
1
100
AcDbSymbolTableRecord
100
AcDbBlockTableRecord
  2
*D7
  0
BLOCK_RECORD
  5
889F
330
1
100
AcDbSymbolTableRecord
100
AcDbBlockTableRecord
  2
*D8
  0
BLOCK_RECORD
  5
88AB
330
1
100
AcDbSymbolTableRecord
100
AcDbBlockTableRecord
  2
*D9
  0
BLOCK_RECORD
  5
88C3
330
1
100
AcDbSymbolTableRecord
100
AcDbBlockTableRecord
  2
*D10
  0
BLOCK_RECORD
  5
88CF
330
1
100
AcDbSymbolTableRecord
100
AcDbBlockTableRecord
  2
*D11
  0
BLOCK_RECORD
  5
88DB
330
1
100
AcDbSymbolTableRecord
100
AcDbBlockTableRecord
  2
*D12
  0
BLOCK_RECORD
  5
8C3C
330
1
100
AcDbSymbolTableRecord
100
AcDbBlockTableRecord
  2
*D13
  0
ENDTAB
  0
ENDSEC
  0
SECTION
  2
BLOCKS
  0
BLOCK
  5
20
330
1F
100
AcDbEntity
  8
0
100
AcDbBlockBegin
  2
*MODEL_SPACE
 70
     0
 10
0.0
 20
0.0
 30
0.0
  3
*MODEL_SPACE
  1

  0
ENDBLK
  5
21
330
1F
100
AcDbEntity
  8
0
100
AcDbBlockEnd
  0
BLOCK
  5
103
330
101
100
AcDbEntity
 67
     1
  8
0
100
AcDbBlockBegin
  2
*PAPER_SPACE
 70
     0
 10
0.0
 20
0.0
 30
0.0
  3
*PAPER_SPACE
  1

  0
ENDBLK
  5
104
330
101
100
AcDbEntity
 67
     1
  8
0
100
AcDbBlockEnd
  0
BLOCK
  5
5D
330
59
100
AcDbEntity
  8
0
100
AcDbBlockBegin
  2
_OPEN30
 70
     0
 10
0.0
 20
0.0
 30
0.0
  3
_OPEN30
  1

  0
LINE
  5
5A
330
59
100
AcDbEntity
  8
0
 62
     0
100
AcDbLine
 10
-1.0
 20
0.26794919
 30
0.0
 11
0.0
 21
0.0
 31
0.0
  0
LINE
  5
5B
330
59
100
AcDbEntity
  8
0
 62
     0
100
AcDbLine
 10
0.0
 20
0.0
 30
0.0
 11
-1.0
 21
-0.26794919
 31
0.0
  0
LINE
  5
5C
330
59
100
AcDbEntity
  8
0
 62
     0
100
AcDbLine
 10
0.0
 20
0.0
 30
0.0
 11
-1.0
 21
0.0
 31
0.0
  0
ENDBLK
  5
5E
330
59
100
AcDbEntity
  8
0
100
AcDbBlockEnd
  0
BLOCK
  5
66
330
64
100
AcDbEntity
  8
0
100
AcDbBlockBegin
  2
GENAXEH
 70
     0
 10
0.0
 20
0.0
 30
0.0
  3
GENAXEH
  1

  0
LINE
  5
65
330
64
100
AcDbEntity
  8
0
100
AcDbLine
 10
-1.0
 20
0.0
 30
0.0
 11
1.0
 21
0.0
 31
0.0
  0
ENDBLK
  5
67
330
64
100
AcDbEntity
  8
0
100
AcDbBlockEnd
  0
BLOCK
  5
8883
330
8879
100
AcDbEntity
  8
0
100
AcDbBlockBegin
  2
*D5
 70
     1
 10
0.0
 20
0.0
 30
0.0
  3
*D5
  1

  0
LINE
  5
8B0A
330
8879
100
AcDbEntity
  8
AM_5
100
AcDbLine
 10
-61.70000000000013
 20
50.00000000000001
 30
0.0
 11
-102.3240963311683
 21
50.00000000000002
 31
0.0
  0
LINE
  5
8B0B
330
8879
100
AcDbEntity
  8
AM_5
100
AcDbLine
 10
-61.70000000000013
 20
-50.00000000000001
 30
0.0
 11
-102.3240963311684
 21
-50.0
 31
0.0
  0
LINE
  5
8B0C
330
8879
100
AcDbEntity
  8
AM_5
100
AcDbLine
 10
-101.3240963311683
 20
47.50000000000002
 30
0.0
 11
-101.3240963311684
 21
-47.5
 31
0.0
  0
INSERT
  5
8B0D
330
8879
100
AcDbEntity
  8
AM_5
100
AcDbBlockReference
  2
_OPEN30
 10
-101.3240963311683
 20
50.00000000000002
 30
0.0
 41
2.5
 42
2.5
 43
2.5
 50
90.0
  0
INSERT
  5
8B0E
330
8879
100
AcDbEntity
  8
AM_5
100
AcDbBlockReference
  2
_OPEN30
 10
-101.3240963311684
 20
-50.0
 30
0.0
 41
2.5
 42
2.5
 43
2.5
 50
270.0
  0
MTEXT
  5
8B0F
330
8879
100
AcDbEntity
  8
AM_5
 62
     2
100
AcDbMText
 10
-104.4240963311684
 20
-0.0000000000000076
 30
0.0
 40
3.2
 41
0.0
 71
     5
 72
     1
  1
%%c100
  7
ASAMI
 11
0.0000000000000001
 21
1.0
 31
0.0
1001
ACAD
1000
MTEXTBEGIN
1070
    73
1070
     1
1070
    44
1040
1.0
1070
    74
1070
     0
1000
MTEXTEND
  0
POINT
  5
8B10
330
8879
100
AcDbEntity
  8
DEFPOINTS
 62
     0
100
AcDbPoint
 10
-60.70000000000013
 20
50.00000000000001
 30
0.0
  0
POINT
  5
8B11
330
8879
100
AcDbEntity
  8
DEFPOINTS
 62
     0
100
AcDbPoint
 10
-60.70000000000013
 20
-50.00000000000001
 30
0.0
  0
POINT
  5
8B12
330
8879
100
AcDbEntity
  8
DEFPOINTS
 62
     0
100
AcDbPoint
 10
-101.3240963311684
 20
-50.0
 30
0.0
  0
ENDBLK
  5
8884
330
8879
100
AcDbEntity
  8
0
100
AcDbBlockEnd
  0
BLOCK
  5
888F
330
8885
100
AcDbEntity
  8
0
100
AcDbBlockBegin
  2
*D6
 70
     1
 10
0.0
 20
0.0
 30
0.0
  3
*D6
  1

  0
LINE
  5
8AE6
330
8885
100
AcDbEntity
  8
AM_5
100
AcDbLine
 10
-27.17157287525393
 20
85.99999999999997
 30
0.0
 11
-112.3240963311683
 21
86.0
 31
0.0
  0
LINE
  5
8AE7
330
8885
100
AcDbEntity
  8
AM_5
100
AcDbLine
 10
-27.17157287525393
 20
-85.99999999999997
 30
0.0
 11
-112.3240963311684
 21
-85.99999999999994
 31
0.0
  0
LINE
  5
8AE8
330
8885
100
AcDbEntity
  8
AM_5
100
AcDbLine
 10
-111.3240963311683
 20
83.49999999999999
 30
0.0
 11
-111.3240963311684
 21
-83.49999999999994
 31
0.0
  0
INSERT
  5
8AE9
330
8885
100
AcDbEntity
  8
AM_5
100
AcDbBlockReference
  2
_OPEN30
 10
-111.3240963311683
 20
86.0
 30
0.0
 41
2.5
 42
2.5
 43
2.5
 50
90.0
  0
INSERT
  5
8AEA
330
8885
100
AcDbEntity
  8
AM_5
100
AcDbBlockReference
  2
_OPEN30
 10
-111.3240963311684
 20
-85.99999999999994
 30
0.0
 41
2.5
 42
2.5
 43
2.5
 50
270.0
  0
MTEXT
  5
8AEB
330
8885
100
AcDbEntity
  8
AM_5
 62
     2
100
AcDbMText
 10
-114.4240963311684
 20
0.0000000000000072
 30
0.0
 40
3.2
 41
0.0
 71
     5
 72
     1
  1
%%c172
  7
ASAMI
 11
0.0000000000000001
 21
1.0
 31
0.0
1001
ACAD
1000
MTEXTBEGIN
1070
    73
1070
     1
1070
    44
1040
1.0
1070
    74
1070
     0
1000
MTEXTEND
  0
POINT
  5
8AEC
330
8885
100
AcDbEntity
  8
DEFPOINTS
 62
     0
100
AcDbPoint
 10
-26.17157287525393
 20
85.99999999999997
 30
0.0
  0
POINT
  5
8AED
330
8885
100
AcDbEntity
  8
DEFPOINTS
 62
     0
100
AcDbPoint
 10
-26.17157287525393
 20
-85.99999999999997
 30
0.0
  0
POINT
  5
8AEE
330
8885
100
AcDbEntity
  8
DEFPOINTS
 62
     0
100
AcDbPoint
 10
-111.3240963311684
 20
-85.99999999999994
 30
0.0
  0
ENDBLK
  5
8890
330
8885
100
AcDbEntity
  8
0
100
AcDbBlockEnd
  0
BLOCK
  5
889D
330
8891
100
AcDbEntity
  8
0
100
AcDbBlockBegin
  2
*D7
 70
     1
 10
0.0
 20
0.0
 30
0.0
  3
*D7
  1

  0
LINE
  5
8B13
330
8891
100
AcDbEntity
  8
AM_5
100
AcDbLine
 10
-62.50000000000003
 20
9.499999999999992
 30
0.0
 11
-82.32409633116843
 21
9.499999999999998
 31
0.0
  0
LINE
  5
8B14
330
8891
100
AcDbEntity
  8
AM_5
100
AcDbLine
 10
-62.50000000000003
 20
-9.499999999999992
 30
0.0
 11
-82.32409633116843
 21
-9.499999999999987
 31
0.0
  0
LINE
  5
8B15
330
8891
100
AcDbEntity
  8
AM_5
100
AcDbLine
 10
-81.32409633116841
 20
6.999999999999998
 30
0.0
 11
-81.32409633116841
 21
-6.999999999999987
 31
0.0
  0
INSERT
  5
8B16
330
8891
100
AcDbEntity
  8
AM_5
100
AcDbBlockReference
  2
_OPEN30
 10
-81.32409633116841
 20
9.499999999999998
 30
0.0
 41
2.5
 42
2.5
 43
2.5
 50
90.0
  0
INSERT
  5
8B17
330
8891
100
AcDbEntity
  8
AM_5
100
AcDbBlockReference
  2
_OPEN30
 10
-81.32409633116841
 20
-9.499999999999987
 30
0.0
 41
2.5
 42
2.5
 43
2.5
 50
270.0
  0
MTEXT
  5
8B18
330
8891
100
AcDbEntity
  8
AM_5
 62
     2
100
AcDbMText
 10
-84.42409633116842
 20
-0.0000000000000636
 30
0.0
 40
3.2
 41
0.0
 71
     5
 72
     1
  1
19
  7
ASAMI
 11
0.0000000000000001
 21
1.0
 31
0.0
1001
ACAD
1000
MTEXTBEGIN
1070
    73
1070
     1
1070
    44
1040
1.0
1070
    74
1070
     0
1000
MTEXTEND
  0
POINT
  5
8B19
330
8891
100
AcDbEntity
  8
DEFPOINTS
 62
     0
100
AcDbPoint
 10
-61.50000000000003
 20
9.499999999999992
 30
0.0
  0
POINT
  5
8B1A
330
8891
100
AcDbEntity
  8
DEFPOINTS
 62
     0
100
AcDbPoint
 10
-61.50000000000003
 20
-9.499999999999992
 30
0.0
  0
POINT
  5
8B1B
330
8891
100
AcDbEntity
  8
DEFPOINTS
 62
     0
100
AcDbPoint
 10
-81.32409633116841
 20
-9.499999999999987
 30
0.0
  0
ENDBLK
  5
889E
330
8891
100
AcDbEntity
  8
0
100
AcDbBlockEnd
  0
BLOCK
  5
88A9
330
889F
100
AcDbEntity
  8
0
100
AcDbBlockBegin
  2
*D8
 70
     1
 10
0.0
 20
0.0
 30
0.0
  3
*D8
  1

  0
LINE
  5
8B01
330
889F
100
AcDbEntity
  8
AM_5
100
AcDbLine
 10
-61.20000000000008
 20
25.39999999999999
 30
0.0
 11
-92.32409633116843
 21
25.4
 31
0.0
  0
LINE
  5
8B02
330
889F
100
AcDbEntity
  8
AM_5
100
AcDbLine
 10
-61.20000000000008
 20
-25.39999999999998
 30
0.0
 11
-92.32409633116843
 21
-25.39999999999997
 31
0.0
  0
LINE
  5
8B03
330
889F
100
AcDbEntity
  8
AM_5
100
AcDbLine
 10
-91.32409633116841
 20
22.9
 30
0.0
 11
-91.32409633116841
 21
-22.89999999999997
 31
0.0
  0
INSERT
  5
8B04
330
889F
100
AcDbEntity
  8
AM_5
100
AcDbBlockReference
  2
_OPEN30
 10
-91.32409633116841
 20
25.4
 30
0.0
 41
2.5
 42
2.5
 43
2.5
 50
90.0
  0
INSERT
  5
8B05
330
889F
100
AcDbEntity
  8
AM_5
100
AcDbBlockReference
  2
_OPEN30
 10
-91.32409633116841
 20
-25.39999999999997
 30
0.0
 41
2.5
 42
2.5
 43
2.5
 50
270.0
  0
MTEXT
  5
8B06
330
889F
100
AcDbEntity
  8
AM_5
 62
     2
100
AcDbMText
 10
-94.42409633116842
 20
-0.0000000000000011
 30
0.0
 40
3.2
 41
0.0
 71
     5
 72
     1
  1
%%c50.8
  7
ASAMI
 11
0.0000000000000001
 21
1.0
 31
0.0
1001
ACAD
1000
MTEXTBEGIN
1070
    73
1070
     1
1070
    44
1040
1.0
1070
    74
1070
     0
1000
MTEXTEND
  0
POINT
  5
8B07
330
889F
100
AcDbEntity
  8
DEFPOINTS
 62
     0
100
AcDbPoint
 10
-60.20000000000007
 20
25.39999999999999
 30
0.0
  0
POINT
  5
8B08
330
889F
100
AcDbEntity
  8
DEFPOINTS
 62
     0
100
AcDbPoint
 10
-60.20000000000007
 20
-25.39999999999998
 30
0.0
  0
POINT
  5
8B09
330
889F
100
AcDbEntity
  8
DEFPOINTS
 62
     0
100
AcDbPoint
 10
-91.32409633116841
 20
-25.39999999999997
 30
0.0
  0
ENDBLK
  5
88AA
330
889F
100
AcDbEntity
  8
0
100
AcDbBlockEnd
  0
BLOCK
  5
88B5
330
88AB
100
AcDbEntity
  8
0
100
AcDbBlockBegin
  2
*D9
 70
     1
 10
0.0
 20
0.0
 30
0.0
  3
*D9
  1

  0
LINE
  5
8B1C
330
88AB
100
AcDbEntity
  8
AM_5
100
AcDbLine
 10
0.9999999999997442
 20
80.0
 30
0.0
 11
21.50699442689256
 21
80.0
 31
0.0
  0
LINE
  5
8B1D
330
88AB
100
AcDbEntity
  8
AM_5
100
AcDbLine
 10
0.9999999999997442
 20
-80.0
 30
0.0
 11
21.50699442689253
 21
-80.0
 31
0.0
  0
LINE
  5
8B1E
330
88AB
100
AcDbEntity
  8
AM_5
100
AcDbLine
 10
20.50699442689257
 20
77.5
 30
0.0
 11
20.50699442689253
 21
-77.5
 31
0.0
  0
INSERT
  5
8B1F
330
88AB
100
AcDbEntity
  8
AM_5
100
AcDbBlockReference
  2
_OPEN30
 10
20.50699442689257
 20
80.0
 30
0.0
 41
2.5
 42
2.5
 43
2.5
 50
90.0
  0
INSERT
  5
8B20
330
88AB
100
AcDbEntity
  8
AM_5
100
AcDbBlockReference
  2
_OPEN30
 10
20.50699442689253
 20
-80.0
 30
0.0
 41
2.5
 42
2.5
 43
2.5
 50
270.0
  0
MTEXT
  5
8B21
330
88AB
100
AcDbEntity
  8
AM_5
 62
     2
100
AcDbMText
 10
17.40699442689255
 20
-0.0000000000000009
 30
0.0
 40
3.2
 41
0.0
 71
     5
 72
     1
  1
%%c160
  7
ASAMI
 11
0.0000000000000001
 21
1.0
 31
0.0
1001
ACAD
1000
MTEXTBEGIN
1070
    73
1070
     1
1070
    44
1040
1.0
1070
    74
1070
     0
1000
MTEXTEND
  0
POINT
  5
8B22
330
88AB
100
AcDbEntity
  8
DEFPOINTS
 62
     0
100
AcDbPoint
 10
-0.0000000000002558
 20
80.0
 30
0.0
  0
POINT
  5
8B23
330
88AB
100
AcDbEntity
  8
DEFPOINTS
 62
     0
100
AcDbPoint
 10
-0.0000000000002558
 20
-80.0
 30
0.0
  0
POINT
  5
8B24
330
88AB
100
AcDbEntity
  8
DEFPOINTS
 62
     0
100
AcDbPoint
 10
20.50699442689253
 20
-80.0
 30
0.0
  0
ENDBLK
  5
88B6
330
88AB
100
AcDbEntity
  8
0
100
AcDbBlockEnd
  0
BLOCK
  5
88CD
330
88C3
100
AcDbEntity
  8
0
100
AcDbBlockBegin
  2
*D10
 70
     1
 10
0.0
 20
0.0
 30
0.0
  3
*D10
  1

  0
LINE
  5
8C18
330
88C3
100
AcDbEntity
  8
AM_5
100
AcDbLine
 10
-63.00000000000014
 20
-48.70000000000001
 30
0.0
 11
-63.00000000000014
 21
-111.6062689999999
 31
0.0
  0
LINE
  5
8C19
330
88C3
100
AcDbEntity
  8
AM_5
100
AcDbLine
 10
-24.99999999999991
 20
-42.20000000000007
 30
0.0
 11
-24.99999999999992
 21
-111.6062689999999
 31
0.0
  0
LINE
  5
8C1A
330
88C3
100
AcDbEntity
  8
AM_5
100
AcDbLine
 10
-60.50000000000014
 20
-110.6062689999999
 30
0.0
 11
-27.49999999999992
 21
-110.6062689999999
 31
0.0
  0
INSERT
  5
8C1B
330
88C3
100
AcDbEntity
  8
AM_5
100
AcDbBlockReference
  2
_OPEN30
 10
-63.00000000000014
 20
-110.6062689999999
 30
0.0
 41
2.5
 42
2.5
 43
2.5
 50
180.0
  0
INSERT
  5
8C1C
330
88C3
100
AcDbEntity
  8
AM_5
100
AcDbBlockReference
  2
_OPEN30
 10
-24.99999999999992
 20
-110.6062689999999
 30
0.0
 41
2.5
 42
2.5
 43
2.5
  0
MTEXT
  5
8C1D
330
88C3
100
AcDbEntity
  8
AM_5
 62
     2
100
AcDbMText
 10
-44.00000000000003
 20
-107.5062689999999
 30
0.0
 40
3.2
 41
0.0
 71
     5
 72
     1
  1
38
  7
ASAMI
1001
ACAD
1000
MTEXTBEGIN
1070
    73
1070
     1
1070
    44
1040
1.0
1070
    74
1070
     0
1000
MTEXTEND
  0
POINT
  5
8C1E
330
88C3
100
AcDbEntity
  8
DEFPOINTS
 62
     0
100
AcDbPoint
 10
-63.00000000000014
 20
-47.70000000000002
 30
0.0
  0
POINT
  5
8C1F
330
88C3
100
AcDbEntity
  8
DEFPOINTS
 62
     0
100
AcDbPoint
 10
-24.99999999999991
 20
-41.20000000000007
 30
0.0
  0
POINT
  5
8C20
330
88C3
100
AcDbEntity
  8
DEFPOINTS
 62
     0
100
AcDbPoint
 10
-24.99999999999992
 20
-110.6062689999999
 30
0.0
  0
ENDBLK
  5
88CE
330
88C3
100
AcDbEntity
  8
0
100
AcDbBlockEnd
  0
BLOCK
  5
88D9
330
88CF
100
AcDbEntity
  8
0
100
AcDbBlockBegin
  2
*D11
 70
     1
 10
0.0
 20
0.0
 30
0.0
  3
*D11
  1

  0
LINE
  5
8C0F
330
88CF
100
AcDbEntity
  8
AM_5
100
AcDbLine
 10
-63.00000000000014
 20
-48.70000000000001
 30
0.0
 11
-63.00000000000014
 21
-101.606269
 31
0.0
  0
LINE
  5
8C10
330
88CF
100
AcDbEntity
  8
AM_5
100
AcDbLine
 10
-52.00000000000009
 20
-10.5
 30
0.0
 11
-52.00000000000009
 21
-101.606269
 31
0.0
  0
LINE
  5
8C11
330
88CF
100
AcDbEntity
  8
AM_5
100
AcDbLine
 10
-60.50000000000014
 20
-100.606269
 30
0.0
 11
-54.50000000000009
 21
-100.606269
 31
0.0
  0
INSERT
  5
8C12
330
88CF
100
AcDbEntity
  8
AM_5
100
AcDbBlockReference
  2
_OPEN30
 10
-63.00000000000014
 20
-100.606269
 30
0.0
 41
2.5
 42
2.5
 43
2.5
 50
180.0
  0
INSERT
  5
8C13
330
88CF
100
AcDbEntity
  8
AM_5
100
AcDbBlockReference
  2
_OPEN30
 10
-52.00000000000009
 20
-100.606269
 30
0.0
 41
2.5
 42
2.5
 43
2.5
  0
MTEXT
  5
8C14
330
88CF
100
AcDbEntity
  8
AM_5
 62
     2
100
AcDbMText
 10
-57.50000000000011
 20
-97.506269
 30
0.0
 40
3.2
 41
0.0
 71
     5
 72
     1
  1
11
  7
ASAMI
1001
ACAD
1000
MTEXTBEGIN
1070
    73
1070
     1
1070
    44
1040
1.0
1070
    74
1070
     0
1000
MTEXTEND
  0
POINT
  5
8C15
330
88CF
100
AcDbEntity
  8
DEFPOINTS
 62
     0
100
AcDbPoint
 10
-63.00000000000014
 20
-47.70000000000002
 30
0.0
  0
POINT
  5
8C16
330
88CF
100
AcDbEntity
  8
DEFPOINTS
 62
     0
100
AcDbPoint
 10
-52.00000000000009
 20
-9.5
 30
0.0
  0
POINT
  5
8C17
330
88CF
100
AcDbEntity
  8
DEFPOINTS
 62
     0
100
AcDbPoint
 10
-52.00000000000009
 20
-100.606269
 30
0.0
  0
ENDBLK
  5
88DA
330
88CF
100
AcDbEntity
  8
0
100
AcDbBlockEnd
  0
BLOCK
  5
88E5
330
88DB
100
AcDbEntity
  8
0
100
AcDbBlockBegin
  2
*D12
 70
     1
 10
0.0
 20
0.0
 30
0.0
  3
*D12
  1

  0
LINE
  5
8C06
330
88DB
100
AcDbEntity
  8
AM_5
100
AcDbLine
 10
-63.00000000000014
 20
-48.70000000000001
 30
0.0
 11
-63.00000000000014
 21
-121.606269
 31
0.0
  0
LINE
  5
8C07
330
88DB
100
AcDbEntity
  8
AM_5
100
AcDbLine
 10
-0.0000000000002559
 20
-81.0
 30
0.0
 11
-0.0000000000002583
 21
-121.606269
 31
0.0
  0
LINE
  5
8C08
330
88DB
100
AcDbEntity
  8
AM_5
100
AcDbLine
 10
-60.50000000000014
 20
-120.6062689999999
 30
0.0
 11
-2.500000000000258
 21
-120.6062689999999
 31
0.0
  0
INSERT
  5
8C09
330
88DB
100
AcDbEntity
  8
AM_5
100
AcDbBlockReference
  2
_OPEN30
 10
-63.00000000000014
 20
-120.6062689999999
 30
0.0
 41
2.5
 42
2.5
 43
2.5
 50
180.0
  0
INSERT
  5
8C0A
330
88DB
100
AcDbEntity
  8
AM_5
100
AcDbBlockReference
  2
_OPEN30
 10
-0.0000000000002583
 20
-120.6062689999999
 30
0.0
 41
2.5
 42
2.5
 43
2.5
  0
MTEXT
  5
8C0B
330
88DB
100
AcDbEntity
  8
AM_5
 62
     2
100
AcDbMText
 10
-31.5000000000002
 20
-117.506269
 30
0.0
 40
3.2
 41
0.0
 71
     5
 72
     1
  1
63
  7
ASAMI
1001
ACAD
1000
MTEXTBEGIN
1070
    73
1070
     1
1070
    44
1040
1.0
1070
    74
1070
     0
1000
MTEXTEND
  0
POINT
  5
8C0C
330
88DB
100
AcDbEntity
  8
DEFPOINTS
 62
     0
100
AcDbPoint
 10
-63.00000000000014
 20
-47.70000000000002
 30
0.0
  0
POINT
  5
8C0D
330
88DB
100
AcDbEntity
  8
DEFPOINTS
 62
     0
100
AcDbPoint
 10
-0.0000000000002558
 20
-80.0
 30
0.0
  0
POINT
  5
8C0E
330
88DB
100
AcDbEntity
  8
DEFPOINTS
 62
     0
100
AcDbPoint
 10
-0.0000000000002583
 20
-120.6062689999999
 30
0.0
  0
ENDBLK
  5
88E6
330
88DB
100
AcDbEntity
  8
0
100
AcDbBlockEnd
  0
BLOCK
  5
8C4C
330
8C3C
100
AcDbEntity
  8
0
100
AcDbBlockBegin
  2
*D13
 70
     1
 10
0.0
 20
0.0
 30
0.0
  3
*D13
  1

  0
LINE
  5
8D4E
330
8C3C
100
AcDbEntity
  8
AM_5
100
AcDbLine
 10
-7.028642008669375
 20
-87.32796029329559
 30
0.0
 11
-18.81506533862303
 21
-99.61631443842687
 31
0.0
  0
LINE
  5
8D4F
330
8C3C
100
AcDbEntity
  8
AM_5
100
AcDbLine
 10
0.0000000000002629
 20
-81.0
 30
0.0
 11
0.0000000000003411
 21
-107.180994754495
 31
0.0
  0
ARC
  5
8D50
330
8C3C
100
AcDbEntity
  8
AM_5
100
AcDbCircle
 10
0.0000000000002558
 20
-79.99999999999947
 30
0.0
 40
26.18099475449563
100
AcDbArc
 50
231.6675806108505
 51
264.526796017484
  0
INSERT
  5
8D51
330
8C3C
100
AcDbEntity
  8
AM_5
100
AcDbBlockReference
  2
_OPEN30
 10
-18.12285132995392
 20
-98.89462214513129
 30
0.0
 41
2.5
 42
2.5
 43
2.5
 50
138.9309786195924
  0
INSERT
  5
8D52
330
8C3C
100
AcDbEntity
  8
AM_5
100
AcDbBlockReference
  2
_OPEN30
 10
0.0000000000003411
 20
-106.180994754495
 30
0.0
 41
2.5
 42
2.5
 43
2.5
 50
357.2633980087421
  0
MTEXT
  5
8D53
330
8C3C
100
AcDbEntity
  8
AM_5
 62
     2
100
AcDbMText
 10
-8.609979963635758
 20
-101.4149612160007
 30
0.0
 40
3.2
 41
0.0
 71
     5
 72
     1
  1
45%%d
  7
ASAMI
 11
0.9278179490868875
 21
-0.373033313997828
 31
0.0
1001
ACAD
1000
MTEXTBEGIN
1070
    73
1070
     1
1070
    44
1040
1.0
1070
    74
1070
     0
1000
MTEXTEND
  0
POINT
  5
8D54
330
8C3C
100
AcDbEntity
  8
DEFPOINTS
 62
     0
100
AcDbPoint
 10
-12.77414650522439
 20
-102.8531325510959
 30
0.0
  0
POINT
  5
8D55
330
8C3C
100
AcDbEntity
  8
DEFPOINTS
 62
     0
100
AcDbPoint
 10
-6.336428000000271
 20
-86.60626799999999
 30
0.0
  0
POINT
  5
8D56
330
8C3C
100
AcDbEntity
  8
DEFPOINTS
 62
     0
100
AcDbPoint
 10
-0.0000000000002629
 20
79.99999999999999
 30
0.0
  0
POINT
  5
8D57
330
8C3C
100
AcDbEntity
  8
DEFPOINTS
 62
     0
100
AcDbPoint
 10
0.0000000000002629
 20
-79.99999999999999
 30
0.0
  0
POINT
  5
8D58
330
8C3C
100
AcDbEntity
  8
DEFPOINTS
 62
     0
100
AcDbPoint
 10
-0.0000000000002558
 20
-80.0
 30
0.0
  0
ENDBLK
  5
8C4D
330
8C3C
100
AcDbEntity
  8
0
100
AcDbBlockEnd
  0
ENDSEC
  0
SECTION
  2
ENTITIES
  0
TEXT
  5
E5A
330
1F
100
AcDbEntity
  8
AM_6
100
AcDbText
 10
-49.59523809523829
 20
-143.106269
 30
0.0
 40
5.0
  1
EHG4160R
 72
     4
 11
-31.50000000000019
 21
-140.6062689999999
 31
0.0
100
AcDbText
  0
LINE
  5
7C10
330
1F
100
AcDbEntity
  8
AM_7
100
AcDbLine
 10
-67.32409533116842
 20
0.0
 30
0.0
 11
6.506993426892535
 21
0.0
 31
0.0
  0
LINE
  5
7C11
330
1F
100
AcDbEntity
  8
AM_3
100
AcDbLine
 10
-2.000000000000028
 20
74.20000000000013
 30
0.0
 11
-2.000000000000028
 21
71.50477448845641
 31
0.0
  0
LINE
  5
7C12
330
1F
100
AcDbEntity
  8
AM_0
100
AcDbLine
 10
-25.00000000000014
 20
51.20000000000008
 30
0.0
 11
-25.00000000000014
 21
46.20000000000007
 31
0.0
  0
LINE
  5
7C13
330
1F
100
AcDbEntity
  8
AM_0
100
AcDbLine
 10
-63.00000000000014
 20
47.70000000000002
 30
0.0
 11
-63.00000000000003
 21
10.99999999999999
 31
0.0
  0
LINE
  5
7C14
330
1F
100
AcDbEntity
  8
AM_0
100
AcDbLine
 10
-50.74093667927016
 20
25.15
 30
0.0
 11
-25.99999999999997
 21
25.14999999999999
 31
0.0
  0
LINE
  5
7C15
330
1F
100
AcDbEntity
  8
AM_0
100
AcDbLine
 10
-61.50000000000003
 20
9.499999999999992
 30
0.0
 11
-52.00000000000014
 21
9.5
 31
0.0
  0
LINE
  5
7C16
330
1F
100
AcDbEntity
  8
AM_0
100
AcDbLine
 10
-52.00000000000049
 20
9.5
 30
0.0
 11
-52.00000000000014
 21
0.0000000000000284
 31
0.0
  0
LINE
  5
7C17
330
1F
100
AcDbEntity
  8
AM_0
100
AcDbLine
 10
-60.20000000000007
 20
25.39999999999999
 30
0.0
 11
-57.90000000000024
 21
25.39999999999997
 31
0.0
  0
LINE
  5
7C18
330
1F
100
AcDbEntity
  8
AM_0
100
AcDbLine
 10
-57.90000000000024
 20
25.39999999999997
 30
0.0
 11
-50.74093667927016
 21
25.15
 31
0.0
  0
LINE
  5
7C19
330
1F
100
AcDbEntity
  8
AM_0
100
AcDbLine
 10
-57.90000000000024
 20
25.39999999999997
 30
0.0
 11
-57.90000000000024
 21
9.499999999999994
 31
0.0
  0
LINE
  5
7C1A
330
1F
100
AcDbEntity
  8
AM_0
100
AcDbLine
 10
-50.74093667927016
 20
25.15
 30
0.0
 11
-50.74093667927016
 21
0.0
 31
0.0
  0
LINE
  5
7C1B
330
1F
100
AcDbEntity
  8
AM_0
100
AcDbLine
 10
-24.99999999999991
 20
41.20000000000007
 30
0.0
 11
-25.00000000000005
 21
0.0
 31
0.0
  0
LINE
  5
7C1C
330
1F
100
AcDbEntity
  8
AM_0
100
AcDbLine
 10
-24.99999999999991
 20
41.20000000000007
 30
0.0
 11
-24.49999999999969
 21
41.2000000000001
 31
0.0
  0
LINE
  5
7C1D
330
1F
100
AcDbEntity
  8
AM_0
100
AcDbLine
 10
-24.50000000000014
 20
46.20000000000007
 30
0.0
 11
-24.50000000000014
 21
41.2000000000001
 31
0.0
  0
LINE
  5
7C1E
330
1F
100
AcDbEntity
  8
AM_0
100
AcDbLine
 10
-25.00000000000014
 20
46.20000000000007
 30
0.0
 11
-24.49999999999991
 21
46.2000000000001
 31
0.0
  0
LINE
  5
7C1F
330
1F
100
AcDbEntity
  8
AM_0
100
AcDbLine
 10
-27.585786437627
 20
85.41421356237306
 30
0.0
 11
-42.00000000000048
 21
70.99999999999974
 31
0.0
  0
LINE
  5
7C20
330
1F
100
AcDbEntity
  8
AM_0
100
AcDbLine
 10
-60.70000000000013
 20
50.00000000000001
 30
0.0
 11
-51.0437899960099
 21
49.99999999999997
 31
0.0
  0
LINE
  5
7C21
330
1F
100
AcDbEntity
  8
AM_0
100
AcDbLine
 10
-42.00000000000025
 20
71.0
 30
0.0
 11
-49.1644047544381
 21
51.31595971334864
 31
0.0
  0
LINE
  5
7C22
330
1F
100
AcDbEntity
  8
AM_3
100
AcDbLine
 10
-12.51417600527555
 20
63.68582399472463
 30
0.0
 11
-2.000000000000028
 21
74.20000000000013
 31
0.0
  0
LINE
  5
7C23
330
1F
100
AcDbEntity
  8
AM_0
100
AcDbLine
 10
-26.17157287525393
 20
85.99999999999997
 30
0.0
 11
-9.023151545523461
 21
85.99999999999997
 31
0.0
  0
LINE
  5
7C24
330
1F
100
AcDbEntity
  8
AM_3
100
AcDbLine
 10
-2.000000000000369
 20
78.20000000000016
 30
0.0
 11
-8.995772472200016
 21
85.96959245852266
 31
0.0
  0
LINE
  5
7C25
330
1F
100
AcDbEntity
  8
AM_3
100
AcDbLine
 10
-2.000000000000255
 20
78.20000000000002
 30
0.0
 11
-2.000000000000142
 21
74.20000000000013
 31
0.0
  0
ARC
  5
883F
330
1F
100
AcDbEntity
  8
AM_0
100
AcDbCircle
 10
-26.17157287525393
 20
83.99999999999996
 30
0.0
 40
2.0
100
AcDbArc
 50
89.99999999999991
 51
134.9999999999998
1001
GENIUS_GENODEF_13
1002
{
1000
HIER
1070
     0
1002
}
1002
{
1000
MANEDIT
1070
     0
1002
}
1002
{
1000
NOSEL
1070
     0
1002
}
1002
{
1000
BEHIND
1070
     0
1002
}
1002
{
1000
REACTOR
1002
}
1001
GENIUS_GENOBJ-N-FIL_13
1002
{
1000
OWNER
1000
GEN
1002
}
  0
ARC
  5
8842
330
1F
100
AcDbEntity
  8
AM_0
100
AcDbCircle
 10
-51.0437899960099
 20
51.99999999999997
 30
0.0
 40
2.0
100
AcDbArc
 50
269.9999999999998
 51
340.0000000000001
1001
GENIUS_GENODEF_13
1002
{
1000
HIER
1070
     0
1002
}
1002
{
1000
MANEDIT
1070
     0
1002
}
1002
{
1000
NOSEL
1070
     0
1002
}
1002
{
1000
BEHIND
1070
     0
1002
}
1002
{
1000
REACTOR
1002
}
1001
GENIUS_GENOBJ-N-FIL_13
1002
{
1000
OWNER
1000
GEN
1002
}
  0
LINE
  5
8845
330
1F
100
AcDbEntity
  8
AM_0
100
AcDbLine
 10
-24.99999999999997
 20
26.14999999999999
 30
0.0
 11
-25.99999999999997
 21
25.14999999999999
 31
0.0
1001
GENIUS_GENFIL_13
1070
     0
1040
1.0
1040
1.0
1040
20.0
1040
0.0
1002
{
1002
}
1001
GENIUS_GENODEF_13
1002
{
1000
HIER
1070
     0
1002
}
1002
{
1000
MANEDIT
1070
     0
1002
}
1002
{
1000
NOSEL
1070
     0
1002
}
1002
{
1000
BEHIND
1070
     0
1002
}
1002
{
1000
REACTOR
1002
}
1001
GENIUS_GENOBJ-N-CHA_13
1002
{
1000
OWNER
1000
GEN
1002
}
  0
LINE
  5
8848
330
1F
100
AcDbEntity
  8
AM_0
100
AcDbLine
 10
-60.70000000000013
 20
50.00000000000001
 30
0.0
 11
-63.00000000000014
 21
47.70000000000002
 31
0.0
1001
GENIUS_GENFIL_13
1070
     0
1040
2.299999999999999
1040
2.299999999999999
1040
20.0
1040
0.0
1002
{
1002
}
1001
GENIUS_GENODEF_13
1002
{
1000
HIER
1070
     0
1002
}
1002
{
1000
MANEDIT
1070
     0
1002
}
1002
{
1000
NOSEL
1070
     0
1002
}
1002
{
1000
BEHIND
1070
     0
1002
}
1002
{
1000
REACTOR
1002
}
1001
GENIUS_GENOBJ-N-CHA_13
1002
{
1000
OWNER
1000
GEN
1002
}
  0
LINE
  5
884B
330
1F
100
AcDbEntity
  8
AM_0
100
AcDbLine
 10
-63.00000000000008
 20
28.2
 30
0.0
 11
-60.20000000000007
 21
25.39999999999999
 31
0.0
1001
GENIUS_GENFIL_13
1070
     0
1040
2.799999999999999
1040
2.799999999999999
1040
20.0
1040
0.0
1002
{
1002
}
1001
GENIUS_GENODEF_13
1002
{
1000
HIER
1070
     0
1002
}
1002
{
1000
MANEDIT
1070
     0
1002
}
1002
{
1000
NOSEL
1070
     0
1002
}
1002
{
1000
BEHIND
1070
     0
1002
}
1002
{
1000
REACTOR
1002
}
1001
GENIUS_GENOBJ-N-CHA_13
1002
{
1000
OWNER
1000
GEN
1002
}
  0
LINE
  5
884E
330
1F
100
AcDbEntity
  8
AM_0
100
AcDbLine
 10
-61.50000000000003
 20
9.499999999999992
 30
0.0
 11
-63.00000000000003
 21
10.99999999999999
 31
0.0
1001
GENIUS_GENFIL_13
1070
     0
1040
1.5
1040
1.5
1040
20.0
1040
0.0
1002
{
1002
}
1001
GENIUS_GENODEF_13
1002
{
1000
HIER
1070
     0
1002
}
1002
{
1000
MANEDIT
1070
     0
1002
}
1002
{
1000
NOSEL
1070
     0
1002
}
1002
{
1000
BEHIND
1070
     0
1002
}
1002
{
1000
REACTOR
1002
}
1001
GENIUS_GENOBJ-N-CHA_13
1002
{
1000
OWNER
1000
GEN
1002
}
  0
LINE
  5
884F
330
1F
100
AcDbEntity
  8
AM_0
100
AcDbLine
 10
-60.20000000000007
 20
25.39999999999999
 30
0.0
 11
-60.20000000000007
 21
9.499999999999992
 31
0.0
  0
LINE
  5
8850
330
1F
100
AcDbEntity
  8
AM_0
100
AcDbLine
 10
-25.99999999999997
 20
25.14999999999999
 30
0.0
 11
-25.99999999999994
 21
0.0
 31
0.0
  0
LINE
  5
8851
330
1F
100
AcDbEntity
  8
AM_0
100
AcDbLine
 10
-8.995772472200016
 20
-85.96959245852266
 30
0.0
 11
-9.023151545523347
 21
-85.99999999999997
 31
0.0
  0
LINE
  5
8852
330
1F
100
AcDbEntity
  8
AM_0
100
AcDbLine
 10
-25.00000000000014
 20
-51.20000000000008
 30
0.0
 11
-12.51417600527554
 21
-63.68582399472462
 31
0.0
  0
LINE
  5
8853
330
1F
100
AcDbEntity
  8
AM_0
100
AcDbLine
 10
-25.99999999999997
 20
-25.14999999999998
 30
0.0
 11
-25.99999999999994
 21
0.0
 31
0.0
  0
LINE
  5
8854
330
1F
100
AcDbEntity
  8
AM_0
100
AcDbLine
 10
-60.20000000000007
 20
-25.39999999999998
 30
0.0
 11
-60.20000000000007
 21
-9.499999999999992
 31
0.0
  0
LINE
  5
8855
330
1F
100
AcDbEntity
  8
AM_0
100
AcDbLine
 10
-24.99999999999991
 20
-41.20000000000007
 30
0.0
 11
-25.00000000000005
 21
0.0
 31
0.0
  0
LINE
  5
8856
330
1F
100
AcDbEntity
  8
AM_0
100
AcDbLine
 10
-61.50000000000003
 20
-9.499999999999992
 30
0.0
 11
-63.00000000000003
 21
-10.99999999999999
 31
0.0
1001
GENIUS_GENFIL_13
1070
     0
1040
1.5
1040
1.5
1040
20.0
1040
0.0
1002
{
1002
}
1001
GENIUS_GENODEF_13
1002
{
1000
HIER
1070
     0
1002
}
1002
{
1000
MANEDIT
1070
     0
1002
}
1002
{
1000
NOSEL
1070
     0
1002
}
1002
{
1000
BEHIND
1070
     0
1002
}
1002
{
1000
REACTOR
1002
}
1001
GENIUS_GENOBJ-N-CHA_13
1002
{
1000
OWNER
1000
GEN
1002
}
  0
LINE
  5
8857
330
1F
100
AcDbEntity
  8
AM_0
100
AcDbLine
 10
-61.50000000000003
 20
-9.499999999999992
 30
0.0
 11
-52.00000000000014
 21
-9.5
 31
0.0
  0
LINE
  5
8858
330
1F
100
AcDbEntity
  8
AM_0
100
AcDbLine
 10
-52.00000000000049
 20
-9.5
 30
0.0
 11
-52.00000000000014
 21
-0.0000000000000284
 31
0.0
  0
LINE
  5
8859
330
1F
100
AcDbEntity
  8
AM_0
100
AcDbLine
 10
-63.00000000000008
 20
-28.19999999999999
 30
0.0
 11
-60.20000000000007
 21
-25.39999999999998
 31
0.0
1001
GENIUS_GENFIL_13
1070
     0
1040
2.799999999999999
1040
2.799999999999999
1040
20.0
1040
0.0
1002
{
1002
}
1001
GENIUS_GENODEF_13
1002
{
1000
HIER
1070
     0
1002
}
1002
{
1000
MANEDIT
1070
     0
1002
}
1002
{
1000
NOSEL
1070
     0
1002
}
1002
{
1000
BEHIND
1070
     0
1002
}
1002
{
1000
REACTOR
1002
}
1001
GENIUS_GENOBJ-N-CHA_13
1002
{
1000
OWNER
1000
GEN
1002
}
  0
LINE
  5
885A
330
1F
100
AcDbEntity
  8
AM_0
100
AcDbLine
 10
-60.70000000000013
 20
-50.00000000000001
 30
0.0
 11
-63.00000000000014
 21
-47.70000000000002
 31
0.0
1001
GENIUS_GENFIL_13
1070
     0
1040
2.299999999999999
1040
2.299999999999999
1040
20.0
1040
0.0
1002
{
1002
}
1001
GENIUS_GENODEF_13
1002
{
1000
HIER
1070
     0
1002
}
1002
{
1000
MANEDIT
1070
     0
1002
}
1002
{
1000
NOSEL
1070
     0
1002
}
1002
{
1000
BEHIND
1070
     0
1002
}
1002
{
1000
REACTOR
1002
}
1001
GENIUS_GENOBJ-N-CHA_13
1002
{
1000
OWNER
1000
GEN
1002
}
  0
LINE
  5
885B
330
1F
100
AcDbEntity
  8
AM_0
100
AcDbLine
 10
-63.00000000000014
 20
-47.70000000000002
 30
0.0
 11
-63.00000000000003
 21
-10.99999999999999
 31
0.0
  0
LINE
  5
885C
330
1F
100
AcDbEntity
  8
AM_0
100
AcDbLine
 10
-25.00000000000014
 20
-51.20000000000008
 30
0.0
 11
-25.00000000000014
 21
-46.20000000000007
 31
0.0
  0
LINE
  5
885D
330
1F
100
AcDbEntity
  8
AM_0
100
AcDbLine
 10
-50.74093667927016
 20
-25.15
 30
0.0
 11
-25.99999999999997
 21
-25.14999999999998
 31
0.0
  0
LINE
  5
885E
330
1F
100
AcDbEntity
  8
AM_0
100
AcDbLine
 10
-50.74093667927016
 20
-25.15
 30
0.0
 11
-50.74093667927016
 21
0.0
 31
0.0
  0
LINE
  5
885F
330
1F
100
AcDbEntity
  8
AM_0
100
AcDbLine
 10
-57.90000000000024
 20
-25.39999999999997
 30
0.0
 11
-57.90000000000024
 21
-9.499999999999994
 31
0.0
  0
LINE
  5
8860
330
1F
100
AcDbEntity
  8
AM_0
100
AcDbLine
 10
-57.90000000000024
 20
-25.39999999999997
 30
0.0
 11
-50.74093667927016
 21
-25.15
 31
0.0
  0
LINE
  5
8861
330
1F
100
AcDbEntity
  8
AM_0
100
AcDbLine
 10
-60.20000000000007
 20
-25.39999999999998
 30
0.0
 11
-57.90000000000024
 21
-25.39999999999997
 31
0.0
  0
LINE
  5
8862
330
1F
100
AcDbEntity
  8
AM_0
100
AcDbLine
 10
-24.99999999999997
 20
-26.14999999999998
 30
0.0
 11
-25.99999999999997
 21
-25.14999999999998
 31
0.0
1001
GENIUS_GENFIL_13
1070
     0
1040
1.0
1040
1.0
1040
20.0
1040
0.0
1002
{
1002
}
1001
GENIUS_GENODEF_13
1002
{
1000
HIER
1070
     0
1002
}
1002
{
1000
MANEDIT
1070
     0
1002
}
1002
{
1000
NOSEL
1070
     0
1002
}
1002
{
1000
BEHIND
1070
     0
1002
}
1002
{
1000
REACTOR
1002
}
1001
GENIUS_GENOBJ-N-CHA_13
1002
{
1000
OWNER
1000
GEN
1002
}
  0
LINE
  5
8863
330
1F
100
AcDbEntity
  8
AM_0
100
AcDbLine
 10
-24.50000000000014
 20
-46.20000000000007
 30
0.0
 11
-24.50000000000014
 21
-41.2000000000001
 31
0.0
  0
LINE
  5
8864
330
1F
100
AcDbEntity
  8
AM_0
100
AcDbLine
 10
-24.99999999999991
 20
-41.20000000000007
 30
0.0
 11
-24.49999999999969
 21
-41.2000000000001
 31
0.0
  0
LINE
  5
8865
330
1F
100
AcDbEntity
  8
AM_0
100
AcDbLine
 10
-25.00000000000014
 20
-46.20000000000007
 30
0.0
 11
-24.49999999999991
 21
-46.2000000000001
 31
0.0
  0
LINE
  5
8866
330
1F
100
AcDbEntity
  8
AM_0
100
AcDbLine
 10
-27.585786437627
 20
-85.41421356237306
 30
0.0
 11
-42.00000000000048
 21
-70.99999999999974
 31
0.0
  0
LINE
  5
8867
330
1F
100
AcDbEntity
  8
AM_0
100
AcDbLine
 10
-42.00000000000025
 20
-71.0
 30
0.0
 11
-49.1644047544381
 21
-51.31595971334864
 31
0.0
  0
LINE
  5
8868
330
1F
100
AcDbEntity
  8
AM_0
100
AcDbLine
 10
-60.70000000000013
 20
-50.00000000000001
 30
0.0
 11
-51.0437899960099
 21
-49.99999999999997
 31
0.0
  0
ARC
  5
8869
330
1F
100
AcDbEntity
  8
AM_0
100
AcDbCircle
 10
-51.0437899960099
 20
-51.99999999999997
 30
0.0
 40
2.0
100
AcDbArc
 50
19.99999999999989
 51
90.00000000000012
1001
GENIUS_GENODEF_13
1002
{
1000
HIER
1070
     0
1002
}
1002
{
1000
MANEDIT
1070
     0
1002
}
1002
{
1000
NOSEL
1070
     0
1002
}
1002
{
1000
BEHIND
1070
     0
1002
}
1002
{
1000
REACTOR
1002
}
1001
GENIUS_GENOBJ-N-FIL_13
1002
{
1000
OWNER
1000
GEN
1002
}
  0
LINE
  5
886A
330
1F
100
AcDbEntity
  8
AM_0
100
AcDbLine
 10
-26.17157287525393
 20
-85.99999999999997
 30
0.0
 11
-9.023151545523461
 21
-85.99999999999997
 31
0.0
  0
ARC
  5
886B
330
1F
100
AcDbEntity
  8
AM_0
100
AcDbCircle
 10
-26.17157287525393
 20
-83.99999999999996
 30
0.0
 40
2.0
100
AcDbArc
 50
225.0000000000001
 51
270.0000000000001
1001
GENIUS_GENODEF_13
1002
{
1000
HIER
1070
     0
1002
}
1002
{
1000
MANEDIT
1070
     0
1002
}
1002
{
1000
NOSEL
1070
     0
1002
}
1002
{
1000
BEHIND
1070
     0
1002
}
1002
{
1000
REACTOR
1002
}
1001
GENIUS_GENOBJ-N-FIL_13
1002
{
1000
OWNER
1000
GEN
1002
}
  0
LINE
  5
886C
330
1F
100
AcDbEntity
  8
AM_0
100
AcDbLine
 10
-2.000000000000028
 20
-71.50477448845641
 30
0.0
 11
-2.000000000000028
 21
0.0
 31
0.0
  0
DIMENSION
  5
8870
330
1F
100
AcDbEntity
  8
AM_5
100
AcDbDimension
  2
*D6
 10
-111.3240963311684
 20
-85.99999999999994
 30
0.0
 11
-114.4240963311684
 21
0.0000000000000072
 31
0.0
 70
    32
  1
%%c<>
  3
AM_JIS
100
AcDbAlignedDimension
 13
-26.17157287525393
 23
85.99999999999997
 33
0.0
 14
-26.17157287525393
 24
-85.99999999999997
 34
0.0
 50
90.0
100
AcDbRotatedDimension
1001
GENIUS_GENDTOL_13
1000

1000
h7
1000

1040
0.0
  0
DIMENSION
  5
8871
330
1F
100
AcDbEntity
  8
AM_5
100
AcDbDimension
  2
*D5
 10
-101.3240963311684
 20
-50.0
 30
0.0
 11
-104.4240963311684
 21
-0.0000000000000076
 31
0.0
 70
    32
  1
%%c<>
  3
AM_JIS
100
AcDbAlignedDimension
 13
-60.70000000000013
 23
50.00000000000001
 33
0.0
 14
-60.70000000000013
 24
-50.00000000000001
 34
0.0
 50
90.0
100
AcDbRotatedDimension
1001
GENIUS_GENDTOL_13
1000

1000
h7
1000

1040
0.0
  0
DIMENSION
  5
8872
330
1F
100
AcDbEntity
  8
AM_5
100
AcDbDimension
  2
*D7
 10
-81.32409633116841
 20
-9.499999999999987
 30
0.0
 11
-81.32409633116841
 21
-0.0000000000000639
 31
0.0
 70
   160
  3
AM_JIS
100
AcDbAlignedDimension
 13
-61.50000000000003
 23
9.499999999999992
 33
0.0
 14
-61.50000000000003
 24
-9.499999999999992
 34
0.0
 50
90.0
100
AcDbRotatedDimension
  0
DIMENSION
  5
8873
330
1F
100
AcDbEntity
  8
AM_5
100
AcDbDimension
  2
*D8
 10
-91.32409633116841
 20
-25.39999999999997
 30
0.0
 11
-94.42409633116842
 21
-0.0000000000000011
 31
0.0
 70
    32
  1
%%c<>
  3
AM_JIS
100
AcDbAlignedDimension
 13
-60.20000000000007
 23
25.39999999999999
 33
0.0
 14
-60.20000000000007
 24
-25.39999999999998
 34
0.0
 50
90.0
100
AcDbRotatedDimension
1001
GENIUS_GENDTOL_13
1000

1000
h7
1000

1040
0.0
  0
DIMENSION
  5
8874
330
1F
100
AcDbEntity
  8
AM_5
100
AcDbDimension
  2
*D10
 10
-24.99999999999992
 20
-110.6062689999999
 30
0.0
 11
-44.00000000000003
 21
-107.5062689999999
 31
0.0
 70
    32
  3
AM_JIS
100
AcDbAlignedDimension
 13
-63.00000000000014
 23
-47.70000000000002
 33
0.0
 14
-24.99999999999991
 24
-41.20000000000007
 34
0.0
100
AcDbRotatedDimension
  0
DIMENSION
  5
8875
330
1F
100
AcDbEntity
  8
AM_5
100
AcDbDimension
  2
*D11
 10
-52.00000000000009
 20
-100.606269
 30
0.0
 11
-57.50000000000011
 21
-97.506269
 31
0.0
 70
    32
  3
AM_JIS
100
AcDbAlignedDimension
 13
-63.00000000000014
 23
-47.70000000000002
 33
0.0
 14
-52.00000000000009
 24
-9.5
 34
0.0
100
AcDbRotatedDimension
  0
DIMENSION
  5
8876
330
1F
100
AcDbEntity
  8
AM_5
100
AcDbDimension
  2
*D12
 10
-0.0000000000002583
 20
-120.6062689999999
 30
0.0
 11
-31.5000000000002
 21
-117.506269
 31
0.0
 70
    32
  3
AM_JIS
100
AcDbAlignedDimension
 13
-63.00000000000014
 23
-47.70000000000002
 33
0.0
 14
-0.0000000000002558
 24
-80.0
 34
0.0
100
AcDbRotatedDimension
  0
DIMENSION
  5
8877
330
1F
100
AcDbEntity
  8
AM_5
100
AcDbDimension
  2
*D9
 10
20.50699442689253
 20
-80.0
 30
0.0
 11
17.40699442689255
 21
-0.0000000000000009
 31
0.0
 70
    32
  1
%%c<>
  3
AM_JIS
100
AcDbAlignedDimension
 13
-0.0000000000002558
 23
80.0
 33
0.0
 14
-0.0000000000002558
 24
-80.0
 34
0.0
 50
90.0
100
AcDbRotatedDimension
1001
GENIUS_GENDTOL_13
1000

1000
h7
1000

1040
0.0
  0
LINE
  5
8ABD
330
1F
100
AcDbEntity
  8
AM_11
100
AcDbLine
 10
-0.0000000000002558
 20
80.0
 30
0.0
 11
0.0000000000002558
 21
-80.0
 31
0.0
  0
LINE
  5
8BA9
330
1F
100
AcDbEntity
  8
AM_0
100
AcDbLine
 10
-22.61828100000028
 20
74.06496299999992
 30
0.0
 11
-15.97086200000026
 21
67.13445999999999
 31
0.0
  0
LINE
  5
8BAA
330
1F
100
AcDbEntity
  8
AM_0
100
AcDbLine
 10
-17.08687900000026
 20
81.11646000000007
 30
0.0
 11
-22.61828100000028
 21
74.06496299999992
 31
0.0
  0
LINE
  5
8BAB
330
1F
100
AcDbEntity
  8
AM_0
100
AcDbLine
 10
-17.16949800000023
 20
81.53032799999994
 30
0.0
 11
-22.77532700000026
 21
74.38395099999991
 31
0.0
  0
LINE
  5
8BAC
330
1F
100
AcDbEntity
  8
AM_0
100
AcDbLine
 10
-18.82801700000024
 20
83.88859200000002
 30
0.0
 11
-24.33544800000024
 21
76.86765500000001
 31
0.0
  0
LINE
  5
8BAD
330
1F
100
AcDbEntity
  8
AM_0
100
AcDbLine
 10
-22.61828100000028
 20
74.06496299999992
 30
0.0
 11
-22.77532700000026
 21
74.38395099999991
 31
0.0
  0
ELLIPSE
  5
8BAE
330
1F
100
AcDbEntity
  8
AM_0
100
AcDbEllipse
 10
-21.37272200000026
 20
74.16365200000007
 30
0.0
 11
-2.954186418877
 21
2.714057903162999
 31
0.0
210
0.0
220
0.0
230
1.0
 40
0.20521137317846
 41
0.016016318775099
 42
1.271735474371949
  0
LINE
  5
8BAF
330
1F
100
AcDbEntity
  8
AM_0
100
AcDbLine
 10
-10.86218400000027
 20
83.95450900000003
 30
0.0
 11
-8.444028000000258
 21
86.565287
 31
0.0
  0
LINE
  5
8BB0
330
1F
100
AcDbEntity
  8
AM_0
100
AcDbLine
 10
-6.336428000000267
 20
86.60626800000001
 30
0.0
 11
-0.0000000000002558
 21
80.0
 31
0.0
  0
LINE
  5
8BB1
330
1F
100
AcDbEntity
  8
AM_0
100
AcDbLine
 10
-9.857336000000287
 20
73.90677400000004
 30
0.0
 11
-5.367723000000268
 21
69.22596799999997
 31
0.0
  0
LINE
  5
8BB2
330
1F
100
AcDbEntity
  8
AM_0
100
AcDbLine
 10
-10.16510500000029
 20
83.40411900000004
 30
0.0
 11
-2.954923000000263
 21
75.88688799999999
 31
0.0
  0
LINE
  5
8BB3
330
1F
100
AcDbEntity
  8
AM_0
100
AcDbLine
 10
-9.59430700000027
 20
83.13674400000001
 30
0.0
 11
-2.868752000000228
 21
76.12477799999999
 31
0.0
  0
LINE
  5
8BB4
330
1F
100
AcDbEntity
  8
AM_0
100
AcDbLine
 10
-5.281552000000289
 20
69.46385799999996
 30
0.0
 11
-18.20701300000021
 21
82.93975699999998
 31
0.0
  0
LINE
  5
8BB5
330
1F
100
AcDbEntity
  8
AM_0
100
AcDbLine
 10
-11.85815400000026
 20
63.00186499999995
 30
0.0
 11
-5.367723000000268
 21
69.22596799999997
 31
0.0
  0
LINE
  5
8BB6
330
1F
100
AcDbEntity
  8
AM_0
100
AcDbLine
 10
-9.857336000000287
 20
73.90677400000004
 30
0.0
 11
-15.46316500000026
 21
66.76039700000001
 31
0.0
  0
LINE
  5
8BB7
330
1F
100
AcDbEntity
  8
AM_0
100
AcDbLine
 10
-15.97086200000026
 20
67.13445999999999
 30
0.0
 11
-10.43945900000025
 21
74.18595600000003
 31
0.0
  0
LINE
  5
8BB8
330
1F
100
AcDbEntity
  8
AM_0
100
AcDbLine
 10
-11.85815400000026
 20
63.00186499999995
 30
0.0
 11
-15.46316500000026
 21
66.76039700000001
 31
0.0
  0
LINE
  5
8BB9
330
1F
100
AcDbEntity
  8
AM_0
100
AcDbLine
 10
-15.46316500000026
 20
66.76039700000001
 30
0.0
 11
-15.97086200000026
 21
67.13445999999999
 31
0.0
  0
LINE
  5
8BBA
330
1F
100
AcDbEntity
  8
AM_0
100
AcDbLine
 10
-17.08687900000026
 20
81.11646000000007
 30
0.0
 11
-10.43945900000025
 21
74.18595600000003
 31
0.0
  0
SPLINE
  5
8BBB
330
1F
100
AcDbEntity
  8
AM_0
100
AcDbSpline
210
0.0
220
0.0
230
1.0
 70
     8
 71
     3
 72
    11
 73
     7
 74
     5
 42
0.0000000001
 43
0.0000000001
 44
0.0000000001
 40
0.0
 40
0.0
 40
0.0
 40
0.0
 40
1.680671175277545
 40
3.344850029815181
 40
4.850853623663756
 40
6.080831076820138
 40
6.080831076820138
 40
6.080831076820138
 40
6.080831076820138
 10
-10.19230900000027
 20
83.40592000000004
 30
0.0
 10
-10.63987352736313
 20
83.75477698192769
 30
0.0
 10
-11.53061065947741
 20
84.44906763411863
 30
0.0
 10
-13.14337478959357
 20
84.79792760487553
 30
0.0
 10
-14.62123907841771
 20
84.89879517602318
 30
0.0
 10
-15.50791380920675
 20
84.66164179225895
 30
0.0
 10
-15.90652400000024
 20
84.55502799999999
 30
0.0
 11
-10.19230900000027
 21
83.40592000000004
 31
0.0
 11
-11.59088100000022
 21
84.33793500000001
 31
0.0
 11
-13.19893000000027
 21
84.76650200000007
 31
0.0
 11
-14.70417600000021
 21
84.81426499999997
 31
0.0
 11
-15.90652400000024
 21
84.55502799999999
 31
0.0
  0
SPLINE
  5
8BBC
330
1F
100
AcDbEntity
  8
AM_0
100
AcDbSpline
210
0.0
220
0.0
230
1.0
 70
     8
 71
     3
 72
    11
 73
     7
 74
     5
 42
0.0000000001
 43
0.0000000001
 44
0.0000000001
 40
0.0
 40
0.0
 40
0.0
 40
0.0
 40
1.26302428990457
 40
3.44038497790212
 40
5.647743376351408
 40
6.79710210163485
 40
6.79710210163485
 40
6.79710210163485
 40
6.79710210163485
 10
-9.011470000000286
 20
76.19323399999996
 30
0.0
 10
-9.443554162860992
 20
76.09427966553031
 30
0.0
 10
-10.62051954268572
 20
75.82473535943198
 30
0.0
 10
-12.05847920823611
 20
77.34185683211143
 30
0.0
 10
-13.60830561119486
 20
78.48014054817006
 30
0.0
 10
-13.7754394413704
 20
79.62091980080214
 30
0.0
 10
-13.83266700000027
 20
80.01152899999999
 30
0.0
 11
-9.011470000000286
 21
76.19323399999996
 31
0.0
 11
-10.26715300000026
 21
76.05725399999994
 31
0.0
 11
-12.07835200000025
 21
77.26574800000003
 31
0.0
 11
-13.57036600000023
 21
78.89250099999992
 31
0.0
 11
-13.83266700000027
 21
80.01152899999999
 31
0.0
  0
ELLIPSE
  5
8BBD
330
1F
100
AcDbEntity
  8
AM_0
100
AcDbEllipse
 10
-15.17147900000023
 20
82.06907000000001
 30
0.0
 11
-3.147236006137
 21
2.46878624463
 31
0.0
210
0.0
220
0.0
230
1.0
 40
0.43571325
 41
0.750360750764375
 42
1.25572155047507
  0
ELLIPSE
  5
8BBE
330
1F
100
AcDbEntity
  8
AM_0
100
AcDbEllipse
 10
-8.76550000000023
 20
94.76558299999998
 30
0.0
 11
10.82538812414099
 21
10.383206246709
 31
0.0
210
0.0
220
0.0
230
1.0
 40
0.2789252
 41
3.394128618333349
 42
3.760060757170899
  0
SPLINE
  5
8BBF
330
1F
100
AcDbEntity
  8
AM_0
100
AcDbSpline
210
0.0
220
0.0
230
1.0
 70
     8
 71
     3
 72
    11
 73
     7
 74
     5
 42
0.0000000001
 43
0.0000000001
 44
0.0000000001
 40
0.0
 40
0.0
 40
0.0
 40
0.0
 40
0.1088933382030651
 40
0.196680848778262
 40
0.2658380826442638
 40
0.3215235334730896
 40
0.3215235334730896
 40
0.3215235334730896
 40
0.3215235334730896
 10
-18.52389000000025
 20
83.95726200000002
 30
0.0
 10
-18.56026185236046
 20
83.95865628900301
 30
0.0
 10
-18.62595592430181
 20
83.9611746243675
 30
0.0
 10
-18.71375047640606
 20
83.95042055679125
 30
0.0
 10
-18.78370334166479
 20
83.93014520097432
 30
0.0
 10
-18.81441100251489
 20
83.90132922221489
 30
0.0
 10
-18.82810800000029
 20
83.88847599999996
 30
0.0
 11
-18.52389000000025
 21
83.95726200000002
 31
0.0
 11
-18.63277900000028
 21
83.95823399999995
 31
0.0
 11
-18.71984100000022
 21
83.94697099999996
 31
0.0
 11
-18.78495500000022
 21
83.92367100000001
 31
0.0
 11
-18.82810800000029
 21
83.88847599999996
 31
0.0
  0
SPLINE
  5
8BC0
330
1F
100
AcDbEntity
  8
AM_0
100
AcDbSpline
210
0.0
220
0.0
230
1.0
 70
     8
 71
     3
 72
    11
 73
     7
 74
     5
 42
0.0000000001
 43
0.0000000001
 44
0.0000000001
 40
0.0
 40
0.0
 40
0.0
 40
0.0
 40
0.1338890705622002
 40
0.3606003701327783
 40
0.7070161066113383
 40
1.173939637002622
 40
1.173939637002622
 40
1.173939637002622
 40
1.173939637002622
 10
-18.82810800000029
 20
83.88847599999996
 30
0.0
 10
-18.8380714029313
 20
83.84338162333724
 30
0.0
 10
-18.86490560806556
 20
83.7219299705085
 30
0.0
 10
-18.71149344481685
 20
83.51627512115813
 30
0.0
 10
-18.50411182425776
 20
83.25055340523149
 30
0.0
 10
-18.31536765358712
 20
83.05310728642092
 30
0.0
 10
-18.20701300000021
 20
82.93975699999998
 30
0.0
 11
-18.82810800000029
 21
83.88847599999996
 31
0.0
 11
-18.84351200000028
 21
83.75547599999993
 31
0.0
 11
-18.73904500000028
 21
83.55426799999998
 31
0.0
 11
-18.52332100000026
 21
83.28322000000003
 31
0.0
 11
-18.20701300000021
 21
82.93975699999998
 31
0.0
  0
LINE
  5
8BC1
330
1F
100
AcDbEntity
  8
AM_0
100
AcDbLine
 10
-17.16949800000023
 20
81.53032799999994
 30
0.0
 11
-17.08687900000026
 21
81.11646000000007
 31
0.0
  0
SPLINE
  5
8BC2
330
1F
100
AcDbEntity
  8
AM_0
100
AcDbSpline
210
0.0
220
0.0
230
1.0
 70
     8
 71
     3
 72
    11
 73
     7
 74
     5
 42
0.0000000001
 43
0.0000000001
 44
0.0000000001
 40
0.0
 40
0.0
 40
0.0
 40
0.0
 40
1.523560773772081
 40
3.002751148215152
 40
4.210777899195902
 40
5.055305487676606
 40
5.055305487676606
 40
5.055305487676606
 40
5.055305487676606
 10
-11.66970200000028
 20
79.94364199999996
 30
0.0
 10
-11.20725001484423
 20
79.72068023848617
 30
0.0
 10
-10.29581395444756
 20
79.28124999263123
 30
0.0
 10
-9.327938132786288
 20
78.26418103884049
 30
0.0
 10
-8.715021966835745
 20
77.14540600021951
 30
0.0
 10
-8.925052512064025
 20
76.47080140857354
 30
0.0
 10
-9.011470000000286
 20
76.19323399999996
 30
0.0
 11
-11.66970200000028
 21
79.94364199999996
 31
0.0
 11
-10.33930100000023
 21
79.20116600000006
 31
0.0
 11
-9.311460000000266
 21
78.13742400000001
 31
0.0
 11
-8.848078000000242
 21
77.02180499999997
 31
0.0
 11
-9.011470000000286
 21
76.19323399999996
 31
0.0
  0
LINE
  5
8BC3
330
1F
100
AcDbEntity
  8
AM_0
100
AcDbLine
 10
-10.43945900000025
 20
74.18595600000003
 30
0.0
 11
-9.857336000000287
 21
73.90677400000004
 31
0.0
  0
LINE
  5
8BC4
330
1F
100
AcDbEntity
  8
AM_0
100
AcDbLine
 10
-10.31824500000024
 20
85.12272599999993
 30
0.0
 11
-9.711666000000235
 21
85.19667300000003
 31
0.0
  0
LINE
  5
8BC5
330
1F
100
AcDbEntity
  8
AM_0
100
AcDbLine
 10
-11.21118900000024
 20
84.15865299999996
 30
0.0
 11
-10.31824500000024
 21
85.12272599999993
 31
0.0
  0
SPLINE
  5
8BC6
330
1F
100
AcDbEntity
  8
AM_0
100
AcDbSpline
210
0.0
220
0.0
230
1.0
 70
     8
 71
     3
 72
    11
 73
     7
 74
     5
 42
0.0000000001
 43
0.0000000001
 44
0.0000000001
 40
0.0
 40
0.0
 40
0.0
 40
0.0
 40
0.3528712242972182
 40
0.8471483172157228
 40
1.493385898231439
 40
2.258829522849199
 40
2.258829522849199
 40
2.258829522849199
 40
2.258829522849199
 10
-13.83266700000027
 20
80.01152899999999
 30
0.0
 10
-13.73660681083427
 20
80.08345590082583
 30
0.0
 10
-13.50599229199537
 20
80.25613292519498
 30
0.0
 10
-12.98440859830016
 20
80.26394336049929
 30
0.0
 10
-12.35850383065642
 20
80.18446741626457
 30
0.0
 10
-11.91187413573397
 20
80.02831251450801
 30
0.0
 10
-11.66970200000028
 20
79.94364199999996
 30
0.0
 11
-13.83266700000027
 21
80.01152899999999
 31
0.0
 11
-13.53316300000025
 21
80.19811800000002
 31
0.0
 11
-13.04195300000029
 21
80.25309600000003
 31
0.0
 11
-12.40120400000026
 21
80.16904999999997
 31
0.0
 11
-11.66970200000028
 21
79.94364199999996
 31
0.0
  0
LINE
  5
8BC7
330
1F
100
AcDbEntity
  8
AM_0
100
AcDbLine
 10
-10.16510500000029
 20
83.40411900000004
 30
0.0
 11
-9.59430700000027
 21
83.13674400000001
 31
0.0
  0
SPLINE
  5
8BC8
330
1F
100
AcDbEntity
  8
AM_0
100
AcDbSpline
210
0.0
220
0.0
230
1.0
 70
     8
 71
     3
 72
    11
 73
     7
 74
     5
 42
0.0000000001
 43
0.0000000001
 44
0.0000000001
 40
0.0
 40
0.0
 40
0.0
 40
0.0
 40
0.0068166716951835
 40
0.0136324770034244
 40
0.0204474827994582
 40
0.0272635527814962
 40
0.0272635527814962
 40
0.0272635527814962
 40
0.0272635527814962
 10
-10.16510500000029
 20
83.40411900000004
 30
0.0
 10
-10.16737234098372
 20
83.40426788349679
 30
0.0
 10
-10.17190673477554
 20
83.40456563156745
 30
0.0
 10
-10.17870777776843
 20
83.40501432341545
 30
0.0
 10
-10.1855083584828
 20
83.40546695596607
 30
0.0
 10
-10.19004200151307
 20
83.40576897746236
 30
0.0
 10
-10.19230900000027
 20
83.40592000000004
 30
0.0
 11
-10.16510500000029
 21
83.40411900000004
 31
0.0
 11
-10.17190700000028
 21
83.40456600000004
 31
0.0
 11
-10.17870800000028
 21
83.40501499999993
 31
0.0
 11
-10.18550800000028
 21
83.40546699999993
 31
0.0
 11
-10.19230900000027
 21
83.40592000000004
 31
0.0
  0
LINE
  5
8BC9
330
1F
100
AcDbEntity
  8
AM_0
100
AcDbLine
 10
-5.060672000000266
 20
68.20029899999997
 30
0.0
 11
-1.214198000000266
 21
72.35317099999997
 31
0.0
  0
ELLIPSE
  5
8BCA
330
1F
100
AcDbEntity
  8
AM_0
100
AcDbEllipse
 10
4.49759899999978
 20
80.93766800000002
 30
0.0
 11
9.725129601224999
 21
11.525590336806
 31
0.0
210
0.0
220
0.0
230
1.0
 40
0.19759403685481
 41
2.182997531215409
 42
3.116527845121599
  0
LINE
  5
8BCB
330
1F
100
AcDbEntity
  8
AM_0
100
AcDbLine
 10
-5.281552000000289
 20
69.46385799999996
 30
0.0
 11
-5.367723000000268
 21
69.22596799999997
 31
0.0
  0
LINE
  5
8BCC
330
1F
100
AcDbEntity
  8
AM_0
100
AcDbLine
 10
-6.243543000000244
 20
68.38608599999997
 30
0.0
 11
-5.060672000000266
 21
68.20029899999997
 31
0.0
  0
LINE
  5
8BCD
330
1F
100
AcDbEntity
  8
AM_0
100
AcDbLine
 10
-0.0018050000002461
 20
77.76354700000002
 30
0.0
 11
-0.0000000000002558
 21
80.0
 31
0.0
  0
LINE
  5
8BCE
330
1F
100
AcDbEntity
  8
AM_0
100
AcDbLine
 10
-0.0018050000002461
 20
77.76354700000002
 30
0.0
 11
-4.764790000000203
 21
72.62115900000003
 31
0.0
  0
LINE
  5
8BCF
330
1F
100
AcDbEntity
  8
AM_0
100
AcDbLine
 10
-2.868752000000228
 20
76.12477799999999
 30
0.0
 11
-2.954923000000263
 21
75.88688799999999
 31
0.0
  0
LINE
  5
8BD0
330
1F
100
AcDbEntity
  8
AM_0
100
AcDbLine
 10
-0.6166860000002714
 20
77.09968700000001
 30
0.0
 11
-1.214198000000266
 21
72.35317099999997
 31
0.0
  0
LINE
  5
8BD1
330
1F
100
AcDbEntity
  8
AM_0
100
AcDbLine
 10
-6.336428000000267
 20
86.60626800000001
 30
0.0
 11
-8.444028000000258
 21
86.565287
 31
0.0
  0
LINE
  5
8BD3
330
1F
100
AcDbEntity
  8
AM_0
100
AcDbLine
 10
-9.023151545523461
 20
85.99999999999997
 30
0.0
 11
-8.995772472200016
 21
85.96959245852266
 31
0.0
  0
LINE
  5
8BD4
330
1F
100
AcDbEntity
  8
AM_0
100
AcDbLine
 10
-25.00000000000014
 20
51.20000000000008
 30
0.0
 11
-12.51417600527555
 21
63.68582399472463
 31
0.0
  0
LINE
  5
8BD5
330
1F
100
AcDbEntity
  8
AM_0
100
AcDbLine
 10
-2.000000000000028
 20
71.50477448845641
 30
0.0
 11
-1.999999999999971
 21
0.0
 31
0.0
  0
LINE
  5
8BD6
330
1F
100
AcDbEntity
  8
AM_3
100
AcDbLine
 10
-12.51417600527555
 20
-63.68582399472463
 30
0.0
 11
-2.000000000000028
 21
-74.20000000000013
 31
0.0
  0
SPLINE
  5
8BD7
330
1F
100
AcDbEntity
  8
AM_0
100
AcDbSpline
210
0.0
220
0.0
230
1.0
 70
     8
 71
     3
 72
    11
 73
     7
 74
     5
 42
0.0000000001
 43
0.0000000001
 44
0.0000000001
 40
0.0
 40
0.0
 40
0.0
 40
0.0
 40
0.3528712242972182
 40
0.8471483172157228
 40
1.493385898231439
 40
2.258829522849199
 40
2.258829522849199
 40
2.258829522849199
 40
2.258829522849199
 10
-13.83266700000027
 20
-80.01152899999999
 30
0.0
 10
-13.73660681083427
 20
-80.08345590082583
 30
0.0
 10
-13.50599229199537
 20
-80.25613292519498
 30
0.0
 10
-12.98440859830016
 20
-80.26394336049929
 30
0.0
 10
-12.35850383065642
 20
-80.18446741626457
 30
0.0
 10
-11.91187413573397
 20
-80.02831251450801
 30
0.0
 10
-11.66970200000028
 20
-79.94364199999996
 30
0.0
 11
-13.83266700000027
 21
-80.01152899999999
 31
0.0
 11
-13.53316300000025
 21
-80.19811800000002
 31
0.0
 11
-13.04195300000029
 21
-80.25309600000003
 31
0.0
 11
-12.40120400000026
 21
-80.16904999999997
 31
0.0
 11
-11.66970200000028
 21
-79.94364199999996
 31
0.0
  0
SPLINE
  5
8BD8
330
1F
100
AcDbEntity
  8
AM_0
100
AcDbSpline
210
0.0
220
0.0
230
1.0
 70
     8
 71
     3
 72
    11
 73
     7
 74
     5
 42
0.0000000001
 43
0.0000000001
 44
0.0000000001
 40
0.0
 40
0.0
 40
0.0
 40
0.0
 40
1.523560773772081
 40
3.002751148215152
 40
4.210777899195902
 40
5.055305487676606
 40
5.055305487676606
 40
5.055305487676606
 40
5.055305487676606
 10
-11.66970200000028
 20
-79.94364199999996
 30
0.0
 10
-11.20725001484423
 20
-79.72068023848617
 30
0.0
 10
-10.29581395444756
 20
-79.28124999263123
 30
0.0
 10
-9.327938132786288
 20
-78.26418103884049
 30
0.0
 10
-8.715021966835745
 20
-77.14540600021951
 30
0.0
 10
-8.925052512064025
 20
-76.47080140857354
 30
0.0
 10
-9.011470000000286
 20
-76.19323399999996
 30
0.0
 11
-11.66970200000028
 21
-79.94364199999996
 31
0.0
 11
-10.33930100000023
 21
-79.20116600000006
 31
0.0
 11
-9.311460000000266
 21
-78.13742400000001
 31
0.0
 11
-8.848078000000242
 21
-77.02180499999997
 31
0.0
 11
-9.011470000000286
 21
-76.19323399999996
 31
0.0
  0
SPLINE
  5
8BD9
330
1F
100
AcDbEntity
  8
AM_0
100
AcDbSpline
210
0.0
220
0.0
230
1.0
 70
     8
 71
     3
 72
    11
 73
     7
 74
     5
 42
0.0000000001
 43
0.0000000001
 44
0.0000000001
 40
0.0
 40
0.0
 40
0.0
 40
0.0
 40
1.26302428990457
 40
3.44038497790212
 40
5.647743376351408
 40
6.79710210163485
 40
6.79710210163485
 40
6.79710210163485
 40
6.79710210163485
 10
-9.011470000000286
 20
-76.19323399999996
 30
0.0
 10
-9.443554162860992
 20
-76.09427966553031
 30
0.0
 10
-10.62051954268572
 20
-75.82473535943198
 30
0.0
 10
-12.05847920823611
 20
-77.34185683211143
 30
0.0
 10
-13.60830561119486
 20
-78.48014054817006
 30
0.0
 10
-13.7754394413704
 20
-79.62091980080214
 30
0.0
 10
-13.83266700000027
 20
-80.01152899999999
 30
0.0
 11
-9.011470000000286
 21
-76.19323399999996
 31
0.0
 11
-10.26715300000026
 21
-76.05725399999994
 31
0.0
 11
-12.07835200000025
 21
-77.26574800000003
 31
0.0
 11
-13.57036600000023
 21
-78.89250099999992
 31
0.0
 11
-13.83266700000027
 21
-80.01152899999999
 31
0.0
  0
SPLINE
  5
8BDA
330
1F
100
AcDbEntity
  8
AM_0
100
AcDbSpline
210
0.0
220
0.0
230
1.0
 70
     8
 71
     3
 72
    11
 73
     7
 74
     5
 42
0.0000000001
 43
0.0000000001
 44
0.0000000001
 40
0.0
 40
0.0
 40
0.0
 40
0.0
 40
1.680671175277545
 40
3.344850029815181
 40
4.850853623663756
 40
6.080831076820138
 40
6.080831076820138
 40
6.080831076820138
 40
6.080831076820138
 10
-10.19230900000027
 20
-83.40592000000004
 30
0.0
 10
-10.63987352736313
 20
-83.75477698192769
 30
0.0
 10
-11.53061065947741
 20
-84.44906763411863
 30
0.0
 10
-13.14337478959357
 20
-84.79792760487553
 30
0.0
 10
-14.62123907841771
 20
-84.89879517602318
 30
0.0
 10
-15.50791380920675
 20
-84.66164179225895
 30
0.0
 10
-15.90652400000024
 20
-84.55502799999999
 30
0.0
 11
-10.19230900000027
 21
-83.40592000000004
 31
0.0
 11
-11.59088100000022
 21
-84.33793500000001
 31
0.0
 11
-13.19893000000027
 21
-84.76650200000007
 31
0.0
 11
-14.70417600000021
 21
-84.81426499999997
 31
0.0
 11
-15.90652400000024
 21
-84.55502799999999
 31
0.0
  0
LINE
  5
8BDB
330
1F
100
AcDbEntity
  8
AM_0
100
AcDbLine
 10
-17.08687900000026
 20
-81.11646000000007
 30
0.0
 11
-10.43945900000025
 21
-74.18595600000003
 31
0.0
  0
LINE
  5
8BDC
330
1F
100
AcDbEntity
  8
AM_0
100
AcDbLine
 10
-15.97086200000026
 20
-67.13445999999999
 30
0.0
 11
-10.43945900000025
 21
-74.18595600000003
 31
0.0
  0
LINE
  5
8BDD
330
1F
100
AcDbEntity
  8
AM_0
100
AcDbLine
 10
-9.857336000000287
 20
-73.90677400000004
 30
0.0
 11
-15.46316500000026
 21
-66.76039700000001
 31
0.0
  0
LINE
  5
8BDE
330
1F
100
AcDbEntity
  8
AM_0
100
AcDbLine
 10
-11.85815400000026
 20
-63.00186499999995
 30
0.0
 11
-5.367723000000268
 21
-69.22596799999997
 31
0.0
  0
LINE
  5
8BDF
330
1F
100
AcDbEntity
  8
AM_0
100
AcDbLine
 10
-5.281552000000289
 20
-69.46385799999996
 30
0.0
 11
-18.20701300000021
 21
-82.93975699999998
 31
0.0
  0
LINE
  5
8BE0
330
1F
100
AcDbEntity
  8
AM_0
100
AcDbLine
 10
-22.61828100000028
 20
-74.06496299999992
 30
0.0
 11
-15.97086200000026
 21
-67.13445999999999
 31
0.0
  0
LINE
  5
8BE1
330
1F
100
AcDbEntity
  8
AM_0
100
AcDbLine
 10
-11.85815400000026
 20
-63.00186499999995
 30
0.0
 11
-15.46316500000026
 21
-66.76039700000001
 31
0.0
  0
LINE
  5
8BE2
330
1F
100
AcDbEntity
  8
AM_0
100
AcDbLine
 10
-15.46316500000026
 20
-66.76039700000001
 30
0.0
 11
-15.97086200000026
 21
-67.13445999999999
 31
0.0
  0
ELLIPSE
  5
8BE3
330
1F
100
AcDbEntity
  8
AM_0
100
AcDbEllipse
 10
-8.76550000000023
 20
-94.76558299999998
 30
0.0
 11
10.82538812414099
 21
-10.383206246709
 31
0.0
210
0.0
220
0.0
230
-1.0
 40
0.2789252
 41
3.394128618333349
 42
3.760060757170899
  0
LINE
  5
8BE4
330
1F
100
AcDbEntity
  8
AM_0
100
AcDbLine
 10
-18.82801700000024
 20
-83.88859200000002
 30
0.0
 11
-24.33544800000024
 21
-76.86765500000001
 31
0.0
  0
LINE
  5
8BE5
330
1F
100
AcDbEntity
  8
AM_0
100
AcDbLine
 10
-17.16949800000023
 20
-81.53032799999994
 30
0.0
 11
-22.77532700000026
 21
-74.38395099999991
 31
0.0
  0
LINE
  5
8BE6
330
1F
100
AcDbEntity
  8
AM_0
100
AcDbLine
 10
-17.08687900000026
 20
-81.11646000000007
 30
0.0
 11
-22.61828100000028
 21
-74.06496299999992
 31
0.0
  0
ELLIPSE
  5
8BE7
330
1F
100
AcDbEntity
  8
AM_0
100
AcDbEllipse
 10
-21.37272200000026
 20
-74.16365200000007
 30
0.0
 11
-2.954186418877
 21
-2.714057903162999
 31
0.0
210
0.0
220
0.0
230
-1.0
 40
0.20521137317846
 41
0.016016318775099
 42
1.271735474371949
  0
LINE
  5
8BE8
330
1F
100
AcDbEntity
  8
AM_0
100
AcDbLine
 10
-22.61828100000028
 20
-74.06496299999992
 30
0.0
 11
-22.77532700000026
 21
-74.38395099999991
 31
0.0
  0
LINE
  5
8BE9
330
1F
100
AcDbEntity
  8
AM_0
100
AcDbLine
 10
-17.16949800000023
 20
-81.53032799999994
 30
0.0
 11
-17.08687900000026
 21
-81.11646000000007
 31
0.0
  0
SPLINE
  5
8BEA
330
1F
100
AcDbEntity
  8
AM_0
100
AcDbSpline
210
0.0
220
0.0
230
1.0
 70
     8
 71
     3
 72
    11
 73
     7
 74
     5
 42
0.0000000001
 43
0.0000000001
 44
0.0000000001
 40
0.0
 40
0.0
 40
0.0
 40
0.0
 40
0.1338890705622002
 40
0.3606003701327783
 40
0.7070161066113383
 40
1.173939637002622
 40
1.173939637002622
 40
1.173939637002622
 40
1.173939637002622
 10
-18.82810800000029
 20
-83.88847599999996
 30
0.0
 10
-18.8380714029313
 20
-83.84338162333724
 30
0.0
 10
-18.86490560806556
 20
-83.7219299705085
 30
0.0
 10
-18.71149344481685
 20
-83.51627512115813
 30
0.0
 10
-18.50411182425776
 20
-83.25055340523149
 30
0.0
 10
-18.31536765358712
 20
-83.05310728642092
 30
0.0
 10
-18.20701300000021
 20
-82.93975699999998
 30
0.0
 11
-18.82810800000029
 21
-83.88847599999996
 31
0.0
 11
-18.84351200000028
 21
-83.75547599999993
 31
0.0
 11
-18.73904500000028
 21
-83.55426799999998
 31
0.0
 11
-18.52332100000026
 21
-83.28322000000003
 31
0.0
 11
-18.20701300000021
 21
-82.93975699999998
 31
0.0
  0
SPLINE
  5
8BEB
330
1F
100
AcDbEntity
  8
AM_0
100
AcDbSpline
210
0.0
220
0.0
230
1.0
 70
     8
 71
     3
 72
    11
 73
     7
 74
     5
 42
0.0000000001
 43
0.0000000001
 44
0.0000000001
 40
0.0
 40
0.0
 40
0.0
 40
0.0
 40
0.1088933382030651
 40
0.196680848778262
 40
0.2658380826442638
 40
0.3215235334730896
 40
0.3215235334730896
 40
0.3215235334730896
 40
0.3215235334730896
 10
-18.52389000000025
 20
-83.95726200000002
 30
0.0
 10
-18.56026185236046
 20
-83.95865628900301
 30
0.0
 10
-18.62595592430181
 20
-83.9611746243675
 30
0.0
 10
-18.71375047640606
 20
-83.95042055679125
 30
0.0
 10
-18.78370334166479
 20
-83.93014520097432
 30
0.0
 10
-18.81441100251489
 20
-83.90132922221489
 30
0.0
 10
-18.82810800000029
 20
-83.88847599999996
 30
0.0
 11
-18.52389000000025
 21
-83.95726200000002
 31
0.0
 11
-18.63277900000028
 21
-83.95823399999995
 31
0.0
 11
-18.71984100000022
 21
-83.94697099999996
 31
0.0
 11
-18.78495500000022
 21
-83.92367100000001
 31
0.0
 11
-18.82810800000029
 21
-83.88847599999996
 31
0.0
  0
ELLIPSE
  5
8BEC
330
1F
100
AcDbEntity
  8
AM_0
100
AcDbEllipse
 10
-15.17147900000023
 20
-82.06907000000001
 30
0.0
 11
-3.147236006137
 21
-2.46878624463
 31
0.0
210
0.0
220
0.0
230
-1.0
 40
0.43571325
 41
0.750360750764375
 42
1.25572155047507
  0
ELLIPSE
  5
8BED
330
1F
100
AcDbEntity
  8
AM_0
100
AcDbEllipse
 10
4.49759899999978
 20
-80.93766800000002
 30
0.0
 11
9.725129601224999
 21
-11.525590336806
 31
0.0
210
0.0
220
0.0
230
-1.0
 40
0.19759403685481
 41
2.182997531215409
 42
3.116527845121599
  0
LINE
  5
8BEE
330
1F
100
AcDbEntity
  8
AM_0
100
AcDbLine
 10
-5.060672000000266
 20
-68.20029899999997
 30
0.0
 11
-1.214198000000266
 21
-72.35317099999997
 31
0.0
  0
LINE
  5
8BEF
330
1F
100
AcDbEntity
  8
AM_0
100
AcDbLine
 10
-9.857336000000287
 20
-73.90677400000004
 30
0.0
 11
-5.367723000000268
 21
-69.22596799999997
 31
0.0
  0
LINE
  5
8BF0
330
1F
100
AcDbEntity
  8
AM_0
100
AcDbLine
 10
-6.243543000000244
 20
-68.38608599999997
 30
0.0
 11
-5.060672000000266
 21
-68.20029899999997
 31
0.0
  0
LINE
  5
8BF1
330
1F
100
AcDbEntity
  8
AM_0
100
AcDbLine
 10
-5.281552000000289
 20
-69.46385799999996
 30
0.0
 11
-5.367723000000268
 21
-69.22596799999997
 31
0.0
  0
LINE
  5
8BF2
330
1F
100
AcDbEntity
  8
AM_3
100
AcDbLine
 10
-2.000000000000369
 20
-78.20000000000016
 30
0.0
 11
-8.995772472200016
 21
-85.96959245852266
 31
0.0
  0
LINE
  5
8BF3
330
1F
100
AcDbEntity
  8
AM_0
100
AcDbLine
 10
-11.21118900000024
 20
-84.15865299999996
 30
0.0
 11
-10.31824500000024
 21
-85.12272599999993
 31
0.0
  0
LINE
  5
8BF4
330
1F
100
AcDbEntity
  8
AM_0
100
AcDbLine
 10
-6.336428000000267
 20
-86.60626800000001
 30
0.0
 11
-0.0000000000002558
 21
-80.0
 31
0.0
  0
LINE
  5
8BF5
330
1F
100
AcDbEntity
  8
AM_0
100
AcDbLine
 10
-10.86218400000027
 20
-83.95450900000003
 30
0.0
 11
-8.444028000000258
 21
-86.565287
 31
0.0
  0
LINE
  5
8BF6
330
1F
100
AcDbEntity
  8
AM_0
100
AcDbLine
 10
-0.0018050000002461
 20
-77.76354700000002
 30
0.0
 11
-4.764790000000203
 21
-72.62115900000003
 31
0.0
  0
LINE
  5
8BF7
330
1F
100
AcDbEntity
  8
AM_0
100
AcDbLine
 10
-9.59430700000027
 20
-83.13674400000001
 30
0.0
 11
-2.868752000000228
 21
-76.12477799999999
 31
0.0
  0
LINE
  5
8BF8
330
1F
100
AcDbEntity
  8
AM_0
100
AcDbLine
 10
-10.16510500000029
 20
-83.40411900000004
 30
0.0
 11
-2.954923000000263
 21
-75.88688799999999
 31
0.0
  0
LINE
  5
8BF9
330
1F
100
AcDbEntity
  8
AM_0
100
AcDbLine
 10
-10.43945900000025
 20
-74.18595600000003
 30
0.0
 11
-9.857336000000287
 21
-73.90677400000004
 31
0.0
  0
SPLINE
  5
8BFA
330
1F
100
AcDbEntity
  8
AM_0
100
AcDbSpline
210
0.0
220
0.0
230
1.0
 70
     8
 71
     3
 72
    11
 73
     7
 74
     5
 42
0.0000000001
 43
0.0000000001
 44
0.0000000001
 40
0.0
 40
0.0
 40
0.0
 40
0.0
 40
0.0068166716951835
 40
0.0136324770034244
 40
0.0204474827994582
 40
0.0272635527814962
 40
0.0272635527814962
 40
0.0272635527814962
 40
0.0272635527814962
 10
-10.16510500000029
 20
-83.40411900000004
 30
0.0
 10
-10.16737234098372
 20
-83.40426788349679
 30
0.0
 10
-10.17190673477554
 20
-83.40456563156745
 30
0.0
 10
-10.17870777776843
 20
-83.40501432341545
 30
0.0
 10
-10.1855083584828
 20
-83.40546695596607
 30
0.0
 10
-10.19004200151307
 20
-83.40576897746236
 30
0.0
 10
-10.19230900000027
 20
-83.40592000000004
 30
0.0
 11
-10.16510500000029
 21
-83.40411900000004
 31
0.0
 11
-10.17190700000028
 21
-83.40456600000004
 31
0.0
 11
-10.17870800000028
 21
-83.40501499999993
 31
0.0
 11
-10.18550800000028
 21
-83.40546699999993
 31
0.0
 11
-10.19230900000027
 21
-83.40592000000004
 31
0.0
  0
LINE
  5
8BFB
330
1F
100
AcDbEntity
  8
AM_0
100
AcDbLine
 10
-10.16510500000029
 20
-83.40411900000004
 30
0.0
 11
-9.59430700000027
 21
-83.13674400000001
 31
0.0
  0
LINE
  5
8BFC
330
1F
100
AcDbEntity
  8
AM_3
100
AcDbLine
 10
-2.000000000000255
 20
-78.20000000000002
 30
0.0
 11
-2.000000000000142
 21
-74.20000000000013
 31
0.0
  0
LINE
  5
8BFD
330
1F
100
AcDbEntity
  8
AM_3
100
AcDbLine
 10
-2.000000000000028
 20
-74.20000000000013
 30
0.0
 11
-2.000000000000028
 21
-71.50477448845641
 31
0.0
  0
LINE
  5
8BFE
330
1F
100
AcDbEntity
  8
AM_0
100
AcDbLine
 10
-0.6166860000002714
 20
-77.09968700000001
 30
0.0
 11
-1.214198000000266
 21
-72.35317099999997
 31
0.0
  0
LINE
  5
8BFF
330
1F
100
AcDbEntity
  8
AM_0
100
AcDbLine
 10
-2.868752000000228
 20
-76.12477799999999
 30
0.0
 11
-2.954923000000263
 21
-75.88688799999999
 31
0.0
  0
LINE
  5
8C00
330
1F
100
AcDbEntity
  8
AM_0
100
AcDbLine
 10
-0.0018050000002461
 20
-77.76354700000002
 30
0.0
 11
-0.0000000000002558
 21
-80.0
 31
0.0
  0
LINE
  5
8C01
330
1F
100
AcDbEntity
  8
AM_0
100
AcDbLine
 10
-6.336428000000267
 20
-86.60626800000001
 30
0.0
 11
-8.444028000000258
 21
-86.565287
 31
0.0
  0
LINE
  5
8C02
330
1F
100
AcDbEntity
  8
AM_0
100
AcDbLine
 10
-10.31824500000024
 20
-85.12272599999993
 30
0.0
 11
-9.711666000000235
 21
-85.19667300000003
 31
0.0
  0
DIMENSION
  5
8C3B
330
1F
100
AcDbEntity
  8
AM_5
100
AcDbDimension
  2
*D13
 10
-0.0000000000002558
 20
-80.0
 30
0.0
 11
-8.609979963635762
 21
-101.4149612160007
 31
0.0
 70
    34
  1
45%%d
  3
AM_JIS$2
100
AcDb2LineAngularDimension
 13
-0.0000000000002558
 23
80.0
 33
0.0
 14
0.0000000000002558
 24
-80.0
 34
0.0
 15
-6.336428000000267
 25
-86.60626800000001
 35
0.0
 16
-12.77414650522439
 26
-102.8531325510959
 36
0.0
1001
ACAD
1000
DSTYLE
1002
{
1070
   179
1070
     3
1002
}
1001
GENIUS_GENDTOL_13
1000

1000
h7
1000

1040
0.0
  0
LINE
  5
8D89
330
1F
100
AcDbEntity
  8
AM_0
100
AcDbLine
 10
-24.49999999999969
 20
41.2000000000001
 30
0.0
 11
-24.49999999999965
 21
0.0
 31
0.0
  0
LINE
  5
8D8A
330
1F
100
AcDbEntity
  8
AM_0
100
AcDbLine
 10
-24.49999999999965
 20
0.0
 30
0.0
 11
-24.49999999999969
 21
-41.2000000000001
 31
0.0
  0
VIEWPORT
  5
110
330
101
100
AcDbEntity
 67
     1
  8
0
100
AcDbViewport
 10
420.5
 20
297.0
 30
0.0
 40
948.9782706766916
 41
628.452
 68
     1
 69
     1
1001
ACAD
1000
MVIEW
1002
{
1070
    16
1010
0.0
1020
0.0
1030
0.0
1010
0.0
1020
0.0
1030
1.0
1040
0.0
1040
628.452
1040
420.5
1040
297.0
1040
50.0
1040
0.0
1040
0.0
1070
     0
1070
   100
1070
     1
1070
     1
1070
     0
1070
     0
1070
     0
1070
     0
1040
0.0
1040
0.0
1040
0.0
1040
10.0
1040
10.0
1040
10.0
1040
10.0
1070
     0
1002
{
1002
}
1002
}
  0
ENDSEC
  0
SECTION
  2
OBJECTS
  0
DICTIONARY
  5
C
330
0
100
AcDbDictionary
  3
ACAD_GROUP
350
D
  3
ACAD_LAYOUT
350
1A
  3
ACAD_MLINESTYLE
350
17
  3
ACAD_PLOTSETTINGS
350
19
  3
ACAD_PLOTSTYLENAME
350
E
  3
ACDBVARIABLEDICTIONARY
350
34
  3
ACMDICTIONARY
350
43
  3
AMG
350
2B
  3
AMGSNAPSETTINGS
350
6E
  3
DWGPROPS
350
8DC1
  3
ACDBHEADERROUNDTRIPXREC
350
8DCE
  0
DICTIONARY
  5
74
330
1F
100
AcDbDictionary
280
     1
  3
ACAD_INDEX
360
8DC3
  3
ACAD_LAYOUTSELFREF
360
8DF1
  0
DICTIONARY
  5
8DF6
330
101
100
AcDbDictionary
280
     1
  3
ACAD_LAYOUTSELFREF
360
8DF7
  0
DICTIONARY
  5
D
102
{ACAD_REACTORS
330
C
102
}
330
C
100
AcDbDictionary
  0
DICTIONARY
  5
1A
102
{ACAD_REACTORS
330
C
102
}
330
C
100
AcDbDictionary
  0
DICTIONARY
  5
17
102
{ACAD_REACTORS
330
C
102
}
330
C
100
AcDbDictionary
  3
STANDARD
350
18
  0
DICTIONARY
  5
19
102
{ACAD_REACTORS
330
C
102
}
330
C
100
AcDbDictionary
  0
ACDBDICTIONARYWDFLT
  5
E
102
{ACAD_REACTORS
330
C
102
}
330
C
100
AcDbDictionary
281
     1
  3
Normal
350
F
100
AcDbDictionaryWithDefault
340
F
  0
DICTIONARY
  5
34
102
{ACAD_REACTORS
330
C
102
}
330
C
100
AcDbDictionary
  3
INDEXCTL
350
35
  3
SORTENTS
350
B5E
  0
DICTIONARY
  5
43
102
{ACAD_REACTORS
330
C
102
}
330
C
100
AcDbDictionary
  3
ACMSTDDICTIONARY
350
260
  0
DICTIONARY
  5
2B
102
{ACAD_REACTORS
330
C
102
}
330
C
100
AcDbDictionary
  3
ACMGSETTINGS
350
2C
  0
DICTIONARY
  5
6E
102
{ACAD_REACTORS
330
C
102
}
330
C
100
AcDbDictionary
  0
XRECORD
  5
8DC1
102
{ACAD_REACTORS
330
C
102
}
330
C
100
AcDbXrecord
  1
DWGPROPS COOKIE
  2

  3

  4

  6

  7

  8

  9

300
AmdtFileType=82
301
=
302
=
303
=
304
=
305
=
306
=
307
=
308
=
309
=
 40
0.1138065972222222
 41
2452836.771637361
 42
2452913.45769331
  1

 90
        1
  0
DICTIONARY
  5
8DCE
102
{ACAD_REACTORS
330
C
102
}
330
C
100
AcDbDictionary
  3
TSTACKALIGN
350
8DCF
  3
TSTACKSIZE
350
8DD0
  3
HYPERLINKBASE
350
8DD1
  3
STYLESHEET
350
8DD2
  3
LAYOUTDICT
350
8DD3
  3
PLOTSETDICT
350
8DD4
  3
PLOTSTYLNAMDICT
350
8DD5
  3
LWETCUNION
350
8DD6
  3
INSUNITS
350
8DD7
  3
CEPSNTYPE
350
8DD8
  3
FINGERPRINTGUID
350
8DD9
  3
VERSIONGUID
350
8DDA
  3
PSVPSCALE
350
8DDB
  3
DIMSTYLEDATA
350
8DDC
  3
PUCSORTHOREF
350
8DDD
  3
PUCSORTHOVIEW
350
8DDE
  3
PUCSBASE
350
8DDF
  3
PUCSORGTOP
350
8DE0
  3
PUCSORGBOTTOM
350
8DE1
  3
PUCSORGLEFT
350
8DE2
  3
PUCSORGRIGHT
350
8DE3
  3
PUCSORGFRONT
350
8DE4
  3
PUCSORGBACK
350
8DE5
  3
UCSORTHOREF
350
8DE6
  3
UCSORTHOVIEW
350
8DE7
  3
UCSBASE
350
8DE8
  3
UCSORGTOP
350
8DE9
  3
UCSORGBOTTOM
350
8DEA
  3
UCSORGLEFT
350
8DEB
  3
UCSORGRIGHT
350
8DEC
  3
UCSORGFRONT
350
8DED
  3
UCSORGBACK
350
8DEE
  0
DICTIONARY
  5
8DC3
102
{ACAD_REACTORS
330
74
102
}
330
74
100
AcDbDictionary
  3
*A1
350
8DC4
  0
XRECORD
  5
8DF1
102
{ACAD_REACTORS
330
74
102
}
330
74
100
AcDbXrecord
340
1F
  0
XRECORD
  5
8DF7
102
{ACAD_REACTORS
330
8DF6
102
}
330
8DF6
100
AcDbXrecord
340
101
  0
MLINESTYLE
  5
18
102
{ACAD_REACTORS
330
17
102
}
330
17
100
AcDbMlineStyle
  2
STANDARD
 70
     0
  3

 62
   256
 51
90.0
 52
90.0
 71
     2
 49
0.5
 62
   256
  6
BYLAYER
 49
-0.5
 62
   256
  6
BYLAYER
  0
ACDBPLACEHOLDER
  5
F
102
{ACAD_REACTORS
330
E
102
}
330
E
100
AcDbPlaceHolder
280
     0
  0
DICTIONARYVAR
  5
35
102
{ACAD_REACTORS
330
34
102
}
330
34
100
DictionaryVariables
280
     0
  1
1
  0
DICTIONARYVAR
  5
B5E
102
{ACAD_REACTORS
330
34
102
}
330
34
100
DictionaryVariables
280
     0
  1
96
  0
DICTIONARY
  5
260
102
{ACAD_REACTORS
330
43
102
}
330
43
100
AcDbDictionary
  0
DICTIONARY
  5
2C
102
{ACAD_REACTORS
330
2B
102
}
330
2B
100
AcDbDictionary
  3
DWGSETTINGS
350
2D
  0
XRECORD
  5
8DCF
102
{ACAD_REACTORS
330
8DCE
102
}
330
8DCE
100
AcDbXrecord
 90
        1
  0
XRECORD
  5
8DD0
102
{ACAD_REACTORS
330
8DCE
102
}
330
8DCE
100
AcDbXrecord
 90
       70
  0
XRECORD
  5
8DD1
102
{ACAD_REACTORS
330
8DCE
102
}
330
8DCE
100
AcDbXrecord
  1

  0
XRECORD
  5
8DD2
102
{ACAD_REACTORS
330
8DCE
102
}
330
8DCE
100
AcDbXrecord
  1
ASAMI.ctb
  0
XRECORD
  5
8DD3
102
{ACAD_REACTORS
330
8DCE
102
}
330
8DCE
100
AcDbXrecord
340
1A
  0
XRECORD
  5
8DD4
102
{ACAD_REACTORS
330
8DCE
102
}
330
8DCE
100
AcDbXrecord
340
19
  0
XRECORD
  5
8DD5
102
{ACAD_REACTORS
330
8DCE
102
}
330
8DCE
100
AcDbXrecord
340
E
  0
XRECORD
  5
8DD6
102
{ACAD_REACTORS
330
8DCE
102
}
330
8DCE
100
AcDbXrecord
 90
    10781
  0
XRECORD
  5
8DD7
102
{ACAD_REACTORS
330
8DCE
102
}
330
8DCE
100
AcDbXrecord
 90
        4
  0
XRECORD
  5
8DD8
102
{ACAD_REACTORS
330
8DCE
102
}
330
8DCE
100
AcDbXrecord
 90
        0
  0
XRECORD
  5
8DD9
102
{ACAD_REACTORS
330
8DCE
102
}
330
8DCE
100
AcDbXrecord
  1
{AFB28963-8C59-40AE-9337-C84526B81ACE}
  0
XRECORD
  5
8DDA
102
{ACAD_REACTORS
330
8DCE
102
}
330
8DCE
100
AcDbXrecord
  1
{71C1E02C-36D8-4306-9948-9AE119EFD770}
  0
XRECORD
  5
8DDB
102
{ACAD_REACTORS
330
8DCE
102
}
330
8DCE
100
AcDbXrecord
 40
0.0
  0
XRECORD
  5
8DDC
102
{ACAD_REACTORS
330
8DCE
102
}
330
8DCE
100
AcDbXrecord
1000
DSTYLE
1002
{
1070
    79
 70
     2
1070
   341
340
59
1070
   342
340
59
1070
   371
 70
    -1
1070
   372
 70
    -1
1002
}
  0
XRECORD
  5
8DDD
102
{ACAD_REACTORS
330
8DCE
102
}
330
8DCE
100
AcDbXrecord
340
0
  0
XRECORD
  5
8DDE
102
{ACAD_REACTORS
330
8DCE
102
}
330
8DCE
100
AcDbXrecord
 70
     0
  0
XRECORD
  5
8DDF
102
{ACAD_REACTORS
330
8DCE
102
}
330
8DCE
100
AcDbXrecord
340
0
  0
XRECORD
  5
8DE0
102
{ACAD_REACTORS
330
8DCE
102
}
330
8DCE
100
AcDbXrecord
 10
0.0
 20
0.0
 30
0.0
  0
XRECORD
  5
8DE1
102
{ACAD_REACTORS
330
8DCE
102
}
330
8DCE
100
AcDbXrecord
 10
0.0
 20
0.0
 30
0.0
  0
XRECORD
  5
8DE2
102
{ACAD_REACTORS
330
8DCE
102
}
330
8DCE
100
AcDbXrecord
 10
0.0
 20
0.0
 30
0.0
  0
XRECORD
  5
8DE3
102
{ACAD_REACTORS
330
8DCE
102
}
330
8DCE
100
AcDbXrecord
 10
0.0
 20
0.0
 30
0.0
  0
XRECORD
  5
8DE4
102
{ACAD_REACTORS
330
8DCE
102
}
330
8DCE
100
AcDbXrecord
 10
0.0
 20
0.0
 30
0.0
  0
XRECORD
  5
8DE5
102
{ACAD_REACTORS
330
8DCE
102
}
330
8DCE
100
AcDbXrecord
 10
0.0
 20
0.0
 30
0.0
  0
XRECORD
  5
8DE6
102
{ACAD_REACTORS
330
8DCE
102
}
330
8DCE
100
AcDbXrecord
340
0
  0
XRECORD
  5
8DE7
102
{ACAD_REACTORS
330
8DCE
102
}
330
8DCE
100
AcDbXrecord
 70
     0
  0
XRECORD
  5
8DE8
102
{ACAD_REACTORS
330
8DCE
102
}
330
8DCE
100
AcDbXrecord
340
0
  0
XRECORD
  5
8DE9
102
{ACAD_REACTORS
330
8DCE
102
}
330
8DCE
100
AcDbXrecord
 10
0.0
 20
0.0
 30
0.0
  0
XRECORD
  5
8DEA
102
{ACAD_REACTORS
330
8DCE
102
}
330
8DCE
100
AcDbXrecord
 10
0.0
 20
0.0
 30
0.0
  0
XRECORD
  5
8DEB
102
{ACAD_REACTORS
330
8DCE
102
}
330
8DCE
100
AcDbXrecord
 10
0.0
 20
0.0
 30
0.0
  0
XRECORD
  5
8DEC
102
{ACAD_REACTORS
330
8DCE
102
}
330
8DCE
100
AcDbXrecord
 10
0.0
 20
0.0
 30
0.0
  0
XRECORD
  5
8DED
102
{ACAD_REACTORS
330
8DCE
102
}
330
8DCE
100
AcDbXrecord
 10
0.0
 20
0.0
 30
0.0
  0
XRECORD
  5
8DEE
102
{ACAD_REACTORS
330
8DCE
102
}
330
8DCE
100
AcDbXrecord
 10
0.0
 20
0.0
 30
0.0
  0
LAYER_INDEX
  5
8DC4
102
{ACAD_REACTORS
330
8DC3
102
}
330
8DC3
100
AcDbIndex
 40
2453152.368699178
100
AcDbLayerIndex
  8
0
360
8DC5
 90
        0
  8
AM_0
360
8DC6
 90
      140
  8
AM_7
360
8DC7
 90
        1
  8
AM_5
360
8DC8
 90
        9
  8
Defpoints
360
8DC9
 90
        0
  8
AM_6
360
8DCA
 90
        1
  8
AM_11
360
8DCB
 90
        1
  8
AM_3
360
8DCC
 90
        8
  0
XRECORD
  5
2D
102
{ACAD_REACTORS
330
2C
102
}
330
2C
100
AcDbXrecord
  1
VERSION
140
15.0
  1
PRODUCT
  2
AutoCAD Mechanical 2000
  0
IDBUFFER
  5
8DC5
330
0
100
AcDbIdBuffer
  0
IDBUFFER
  5
8DC6
330
0
100
AcDbIdBuffer
330
8BE6
330
8BE7
330
8BE8
330
8BE9
330
8BEA
330
8BEB
330
8BEC
330
8BED
330
8BEE
330
8BEF
330
8BF0
330
8BF1
330
8BF3
330
8BF4
330
8BF5
330
8BF6
330
8BF7
330
8BF8
330
8BF9
330
8BFA
330
8BFB
330
8BFE
330
8BFF
330
8C00
330
8C01
330
8C02
330
8D89
330
8D8A
330
7C12
330
7C13
330
7C14
330
7C15
330
7C16
330
7C17
330
7C18
330
7C19
330
7C1A
330
7C1B
330
7C1C
330
7C1D
330
7C1E
330
7C1F
330
7C20
330
7C21
330
7C23
330
883F
330
8842
330
8845
330
8848
330
884B
330
884E
330
884F
330
8850
330
8851
330
8852
330
8853
330
8854
330
8855
330
8856
330
8857
330
8858
330
8859
330
885A
330
885B
330
885C
330
885D
330
885E
330
885F
330
8860
330
8861
330
8862
330
8863
330
8864
330
8865
330
8866
330
8867
330
8868
330
8869
330
886A
330
886B
330
886C
330
8BA9
330
8BAA
330
8BAB
330
8BAC
330
8BAD
330
8BAE
330
8BAF
330
8BB0
330
8BB1
330
8BB2
330
8BB3
330
8BB4
330
8BB5
330
8BB6
330
8BB7
330
8BB8
330
8BB9
330
8BBA
330
8BBB
330
8BBC
330
8BBD
330
8BBE
330
8BBF
330
8BC0
330
8BC1
330
8BC2
330
8BC3
330
8BC4
330
8BC5
330
8BC6
330
8BC7
330
8BC8
330
8BC9
330
8BCA
330
8BCB
330
8BCC
330
8BCD
330
8BCE
330
8BCF
330
8BD0
330
8BD1
330
8BD3
330
8BD4
330
8BD5
330
8BD7
330
8BD8
330
8BD9
330
8BDA
330
8BDB
330
8BDC
330
8BDD
330
8BDE
330
8BDF
330
8BE0
330
8BE1
330
8BE2
330
8BE3
330
8BE4
330
8BE5
  0
IDBUFFER
  5
8DC7
330
0
100
AcDbIdBuffer
330
7C10
  0
IDBUFFER
  5
8DC8
330
0
100
AcDbIdBuffer
330
8870
330
8871
330
8872
330
8873
330
8874
330
8875
330
8876
330
8877
330
8C3B
  0
IDBUFFER
  5
8DC9
330
0
100
AcDbIdBuffer
  0
IDBUFFER
  5
8DCA
330
0
100
AcDbIdBuffer
330
E5A
  0
IDBUFFER
  5
8DCB
330
0
100
AcDbIdBuffer
330
8ABD
  0
IDBUFFER
  5
8DCC
330
0
100
AcDbIdBuffer
330
7C11
330
7C22
330
7C24
330
7C25
330
8BD6
330
8BF2
330
8BFC
330
8BFD
  0
ENDSEC
  0
EOF
