  0
SECTION
  2
HEADER
  9
$ACADVER
  1
AC1014
  9
$ACADMAINTVER
 70
     9
  9
$DWGCODEPAGE
  3
ANSI_932
  9
$INSBASE
 10
0.0
 20
0.0
 30
0.0
  9
$EXTMIN
 10
-103.0240963311683
 20
-107.0944781008948
 30
-0.00000001
  9
$EXTMAX
 10
51.63520046574873
 20
53.52205842277015
 30
0.00000001
  9
$LIMMIN
 10
-129.0117119513315
 20
-127.3331425399088
  9
$LIMMAX
 10
71.86535925074418
 20
61.75973977137459
  9
$ORTHOMODE
 70
     0
  9
$REGENMODE
 70
     1
  9
$FILLMODE
 70
     1
  9
$QTEXTMODE
 70
     0
  9
$MIRRTEXT
 70
     0
  9
$DRAGMODE
 70
     2
  9
$LTSCALE
 40
1.0
  9
$OSMODE
 70
    55
  9
$ATTMODE
 70
     1
  9
$TEXTSIZE
 40
2.5
  9
$TRACEWID
 40
1.0
  9
$TEXTSTYLE
  7
STANDARD
  9
$CLAYER
  8
AM_0
  9
$CELTYPE
  6
BYLAYER
  9
$CECOLOR
 62
   256
  9
$CELTSCALE
 40
1.0
  9
$DELOBJ
 70
     1
  9
$DISPSILH
 70
     0
  9
$DIMSCALE
 40
1.0
  9
$DIMASZ
 40
2.5
  9
$DIMEXO
 40
1.0
  9
$DIMDLI
 40
12.0
  9
$DIMRND
 40
0.0
  9
$DIMDLE
 40
0.0
  9
$DIMEXE
 40
1.0
  9
$DIMTP
 40
0.1
  9
$DIMTM
 40
0.1
  9
$DIMTXT
 40
3.2
  9
$DIMCEN
 40
0.0
  9
$DIMTSZ
 40
0.0
  9
$DIMTOL
 70
     0
  9
$DIMLIM
 70
     0
  9
$DIMTIH
 70
     0
  9
$DIMTOH
 70
     0
  9
$DIMSE1
 70
     0
  9
$DIMSE2
 70
     0
  9
$DIMTAD
 70
     3
  9
$DIMZIN
 70
     8
  9
$DIMBLK
  1
OPEN30
  9
$DIMASO
 70
     1
  9
$DIMSHO
 70
     1
  9
$DIMPOST
  1

  9
$DIMAPOST
  1
"
  9
$DIMALT
 70
     0
  9
$DIMALTD
 70
     2
  9
$DIMALTF
 40
0.0393701
  9
$DIMLFAC
 40
1.0
  9
$DIMTOFL
 70
     1
  9
$DIMTVP
 40
0.0
  9
$DIMTIX
 70
     0
  9
$DIMSOXD
 70
     0
  9
$DIMSAH
 70
     0
  9
$DIMBLK1
  1

  9
$DIMBLK2
  1

  9
$DIMSTYLE
  2
AM_JIS
  9
$DIMCLRD
 70
   256
  9
$DIMCLRE
 70
   256
  9
$DIMCLRT
 70
     2
  9
$DIMTFAC
 40
0.71
  9
$DIMGAP
 40
1.5
  9
$DIMJUST
 70
     0
  9
$DIMSD1
 70
     0
  9
$DIMSD2
 70
     0
  9
$DIMTOLJ
 70
     0
  9
$DIMTZIN
 70
     0
  9
$DIMALTZ
 70
     0
  9
$DIMALTTZ
 70
     0
  9
$DIMFIT
 70
     3
  9
$DIMUPT
 70
     0
  9
$DIMUNIT
 70
     2
  9
$DIMDEC
 70
     3
  9
$DIMTDEC
 70
     3
  9
$DIMALTU
 70
     2
  9
$DIMALTTD
 70
     2
  9
$DIMTXSTY
  7
ASAMI
  9
$DIMAUNIT
 70
     0
  9
$LUNITS
 70
     2
  9
$LUPREC
 70
     2
  9
$SKETCHINC
 40
1.0
  9
$FILLETRAD
 40
2.0
  9
$AUNITS
 70
     0
  9
$AUPREC
 70
     0
  9
$MENU
  1
.
  9
$ELEVATION
 40
0.0
  9
$PELEVATION
 40
0.0
  9
$THICKNESS
 40
0.0
  9
$LIMCHECK
 70
     0
  9
$BLIPMODE
 70
     0
  9
$CHAMFERA
 40
1.199999999999999
  9
$CHAMFERB
 40
1.199999999999999
  9
$CHAMFERC
 40
20.0
  9
$CHAMFERD
 40
0.0
  9
$SKPOLY
 70
     0
  9
$TDCREATE
 40
2452836.771637361
  9
$TDUPDATE
 40
2453152.367473020
  9
$TDINDWG
 40
0.1205427083
  9
$TDUSRTIMER
 40
0.1205427083
  9
$USRTIMER
 70
     1
  9
$ANGBASE
 50
0.0
  9
$ANGDIR
 70
     0
  9
$PDMODE
 70
     0
  9
$PDSIZE
 40
0.0
  9
$PLINEWID
 40
0.0
  9
$COORDS
 70
     1
  9
$SPLFRAME
 70
     0
  9
$SPLINETYPE
 70
     6
  9
$SPLINESEGS
 70
     8
  9
$ATTDIA
 70
     1
  9
$ATTREQ
 70
     1
  9
$HANDLING
 70
 12289
  9
$HANDSEED
  5
417E
  9
$SURFTAB1
 70
     6
  9
$SURFTAB2
 70
     6
  9
$SURFTYPE
 70
     6
  9
$SURFU
 70
     6
  9
$SURFV
 70
     6
  9
$UCSNAME
  2

  9
$UCSORG
 10
0.0
 20
0.0
 30
0.0
  9
$UCSXDIR
 10
1.0
 20
0.0
 30
0.0
  9
$UCSYDIR
 10
0.0
 20
1.0
 30
0.0
  9
$PUCSNAME
  2

  9
$PUCSORG
 10
0.0
 20
0.0
 30
0.0
  9
$PUCSXDIR
 10
1.0
 20
0.0
 30
0.0
  9
$PUCSYDIR
 10
0.0
 20
1.0
 30
0.0
  9
$USERI1
 70
     0
  9
$USERI2
 70
     0
  9
$USERI3
 70
     0
  9
$USERI4
 70
     0
  9
$USERI5
 70
     0
  9
$USERR1
 40
0.0
  9
$USERR2
 40
0.0
  9
$USERR3
 40
0.0
  9
$USERR4
 40
0.0
  9
$USERR5
 40
0.0
  9
$WORLDVIEW
 70
     1
  9
$SHADEDGE
 70
     3
  9
$SHADEDIF
 70
    70
  9
$TILEMODE
 70
     1
  9
$MAXACTVP
 70
    64
  9
$PINSBASE
 10
0.0
 20
0.0
 30
0.0
  9
$PLIMCHECK
 70
     0
  9
$PEXTMIN
 10
1.000000000000000E+20
 20
1.000000000000000E+20
 30
1.000000000000000E+20
  9
$PEXTMAX
 10
-1.000000000000000E+20
 20
-1.000000000000000E+20
 30
-1.000000000000000E+20
  9
$PLIMMIN
 10
0.0
 20
0.0
  9
$PLIMMAX
 10
841.0
 20
594.0
  9
$UNITMODE
 70
     0
  9
$VISRETAIN
 70
     1
  9
$PLINEGEN
 70
     0
  9
$PSLTSCALE
 70
     0
  9
$TREEDEPTH
 70
  3020
  9
$PICKSTYLE
 70
     0
  9
$CMLSTYLE
  2
STANDARD
  9
$CMLJUST
 70
     0
  9
$CMLSCALE
 40
20.0
  9
$PROXYGRAPHICS
 70
     1
  9
$MEASUREMENT
 70
     1
  0
ENDSEC
  0
SECTION
  2
CLASSES
  0
CLASS
  1
ACDBDICTIONARYWDFLT
  2
AcDbDictionaryWithDefault
  3
AutoCAD 2000
 90
        0
280
     0
281
     0
  0
CLASS
  1
ACDBPLACEHOLDER
  2
AcDbPlaceHolder
  3
AutoCAD 2000
 90
        0
280
     0
281
     0
  0
CLASS
  1
LAYOUT
  2
AcDbLayout
  3
AutoCAD 2000
 90
        0
280
     0
281
     0
  0
CLASS
  1
AMGSETTINGSOBJ
  2
AmgSettingsObj
  3
"AcadM|Product Description: AutoCAD Mechanical 2000|Company: Autodesk"
 90
        0
280
     0
281
     0
  0
CLASS
  1
ACME_DOCUMENT
  2
AcMeDbDoc
  3
AcMeServices
 90
        0
280
     0
281
     0
  0
CLASS
  1
ACMESCOPE
  2
AcMeScope
  3
AcMeServices
 90
        0
280
     0
281
     0
  0
CLASS
  1
ACMECOMMANDHISTORY
  2
AcMeCommandHistory
  3
AcMeServices
 90
        0
280
     0
281
     0
  0
CLASS
  1
DICTIONARYVAR
  2
AcDbDictionaryVar
  3
AutoCAD 2000
 90
        0
280
     0
281
     0
  0
CLASS
  1
ACIMSYSVARMAN
  2
AcImSysVarManager
  3
AcMeServices
 90
        0
280
     0
281
     0
  0
CLASS
  1
ACIMREALSYSVAR
  2
AcImRealSysVar
  3
AcMeServices
 90
        0
280
     0
281
     0
  0
CLASS
  1
ACIMINTSYSVAR
  2
AcImIntSysVar
  3
AcMeServices
 90
        0
280
     0
281
     0
  0
CLASS
  1
ACMEDRAWINGMAN
  2
AcMeDrawingMan
  3
AcMeServices
 90
        0
280
     0
281
     0
  0
CLASS
  1
ACMEVIEW
  2
AcMeView
  3
AcMeServices
 90
        0
280
     0
281
     0
  0
CLASS
  1
ACDBENTITYCACHE
  2
AcMeEntityCache
  3
AcMeServices
 90
        0
280
     0
281
     0
  0
CLASS
  1
GSMANAGER
  2
AcMeGSManager
  3
AcMeServices
 90
        0
280
     0
281
     0
  0
CLASS
  1
AmdtInternalReactor
  2
AmdtInternalReactor
  3
AcMeServices
 90
        0
280
     0
281
     0
  0
CLASS
  1
ACMESTATEMGR
  2
AcMeStateMgr
  3
AcMeServices
 90
        0
280
     0
281
     0
  0
CLASS
  1
ACME_DATABASE
  2
AcMeDbDatabase
  3
AcMeServices
 90
        0
280
     0
281
     0
  0
CLASS
  1
ACRFINSADJUSTERMGR
  2
AcRfInsAdjusterMgr
  3
AcMeServices
 90
        0
280
     0
281
     0
  0
CLASS
  1
ACMDATADICTIONARY
  2
AcmDataDictionary
  3
"AcmSymBB|Product Description: AutoCAD Mechanical 2000|Company: Autodesk"
 90
        0
280
     0
281
     0
  0
CLASS
  1
ACMDATAENTRYBLOCK
  2
AcmDataEntryBlock
  3
"AcmSymBB|Product Description: AutoCAD Mechanical 2000|Company: Autodesk"
 90
        0
280
     0
281
     0
  0
CLASS
  1
AMGOBJPROPCFG
  2
AmgObjPropCfg
  3
"AmgLay|Product Description: AutoCAD Mechanical 2000|Company: Autodesk"
 90
        1
280
     0
281
     0
  0
CLASS
  1
ACAMGFILTERDAT
  2
AcAmgFilterDat
  3
"AcadM|Product Description: AutoCAD Mechanical 2000|Company: Autodesk"
 90
        0
280
     0
281
     0
  0
CLASS
  1
LAYER_INDEX
  2
AcDbLayerIndex
  3
AutoCAD 2000
 90
        0
280
     0
281
     0
  0
CLASS
  1
IDBUFFER
  2
AcDbIdBuffer
  3
AutoCAD 2000
 90
        0
280
     0
281
     0
  0
CLASS
  1
ACIMSTRSYSVAR
  2
AcImStrSysVar
  3
AcMeServices
 90
        0
280
     0
281
     0
  0
CLASS
  1
ACMSTANDARDJIS
  2
AcmStandardJIS
  3
"AcmSymBB|Product Description: AutoCAD Mechanical 2000|Company: Autodesk"
 90
        0
280
     0
281
     0
  0
CLASS
  1
ACMSURFSTANDARDJIS
  2
AcmSurfTextStdJIS
  3
"AcmSymBB|Product Description: AutoCAD Mechanical 2000|Company: Autodesk"
 90
        0
280
     0
281
     0
  0
CLASS
  1
ACMFCFSTANDARDJIS
  2
AcmFCFStdJIS
  3
"AcmSymBB|Product Description: AutoCAD Mechanical 2000|Company: Autodesk"
 90
        0
280
     0
281
     0
  0
CLASS
  1
ACMWELDSTANDARDJIS
  2
AcmWeldingStdJIS
  3
"AcmSymBB|Product Description: AutoCAD Mechanical 2000|Company: Autodesk"
 90
        0
280
     0
281
     0
  0
CLASS
  1
ACMIDSTANDARDJIS
  2
AcmIdStdJIS
  3
"AcmSymBB|Product Description: AutoCAD Mechanical 2000|Company: Autodesk"
 90
        0
280
     0
281
     0
  0
CLASS
  1
ACMDATUMSTANDARDJIS
  2
AcmDatumStdJIS
  3
"AcmSymBB|Product Description: AutoCAD Mechanical 2000|Company: Autodesk"
 90
        0
280
     0
281
     0
  0
CLASS
  1
ACMBOMSTANDARDJIS
  2
AcmBOMStdJIS
  3
"AcmSymBB|Product Description: AutoCAD Mechanical 2000|Company: Autodesk"
 90
        0
280
     0
281
     0
  0
CLASS
  1
ACMSTANDARDANSI
  2
AcmStandardANSI
  3
"AcmSymBB|Product Description: AutoCAD Mechanical 2000|Company: Autodesk"
 90
        0
280
     0
281
     0
  0
CLASS
  1
ACMSURFSTANDARDANSI
  2
AcmSurfTextStdANSI
  3
"AcmSymBB|Product Description: AutoCAD Mechanical 2000|Company: Autodesk"
 90
        0
280
     0
281
     0
  0
CLASS
  1
ACMFCFSTANDARDANSI
  2
AcmFCFStdANSI
  3
"AcmSymBB|Product Description: AutoCAD Mechanical 2000|Company: Autodesk"
 90
        0
280
     0
281
     0
  0
CLASS
  1
ACMWELDSTANDARDANSI
  2
AcmWeldingStdANSI
  3
"AcmSymBB|Product Description: AutoCAD Mechanical 2000|Company: Autodesk"
 90
        0
280
     0
281
     0
  0
CLASS
  1
ACMIDSTANDARDANSI
  2
AcmIdStdANSI
  3
"AcmSymBB|Product Description: AutoCAD Mechanical 2000|Company: Autodesk"
 90
        0
280
     0
281
     0
  0
CLASS
  1
ACMDATUMSTANDARDANSI
  2
AcmDatumStdANSI
  3
"AcmSymBB|Product Description: AutoCAD Mechanical 2000|Company: Autodesk"
 90
        0
280
     0
281
     0
  0
CLASS
  1
ACMBOMSTANDARDANSI
  2
AcmBOMStdANSI
  3
"AcmSymBB|Product Description: AutoCAD Mechanical 2000|Company: Autodesk"
 90
        0
280
     0
281
     0
  0
CLASS
  1
ACMSTANDARDBSI
  2
AcmStandardBSI
  3
"AcmSymBB|Product Description: AutoCAD Mechanical 2000|Company: Autodesk"
 90
        0
280
     0
281
     0
  0
CLASS
  1
ACMSURFSTANDARDBSI
  2
AcmSurfTextStdBSI
  3
"AcmSymBB|Product Description: AutoCAD Mechanical 2000|Company: Autodesk"
 90
        0
280
     0
281
     0
  0
CLASS
  1
ACMFCFSTANDARDBSI
  2
AcmFCFStdBSI
  3
"AcmSymBB|Product Description: AutoCAD Mechanical 2000|Company: Autodesk"
 90
        0
280
     0
281
     0
  0
CLASS
  1
ACMWELDSTANDARDBSI
  2
AcmWeldingStdBSI
  3
"AcmSymBB|Product Description: AutoCAD Mechanical 2000|Company: Autodesk"
 90
        0
280
     0
281
     0
  0
CLASS
  1
ACMIDSTANDARDBSI
  2
AcmIdStdBSI
  3
"AcmSymBB|Product Description: AutoCAD Mechanical 2000|Company: Autodesk"
 90
        0
280
     0
281
     0
  0
CLASS
  1
ACMDATUMSTANDARDBSI
  2
AcmDatumStdBSI
  3
"AcmSymBB|Product Description: AutoCAD Mechanical 2000|Company: Autodesk"
 90
        0
280
     0
281
     0
  0
CLASS
  1
ACMBOMSTANDARDBSI
  2
AcmBOMStdBSI
  3
"AcmSymBB|Product Description: AutoCAD Mechanical 2000|Company: Autodesk"
 90
        0
280
     0
281
     0
  0
CLASS
  1
LONG_TRANSACTION
  2
AcDbLongTransaction
  3
AutoCAD 2000
 90
        0
280
     0
281
     0
  0
CLASS
  1
LWPOLYLINE
  2
AcDbPolyline
  3
AutoCAD 2000
 90
        0
280
     0
281
     1
  0
CLASS
  1
HATCH
  2
AcDbHatch
  3
AutoCAD 2000
 90
        0
280
     0
281
     1
  0
CLASS
  1
XRECORD
  2
AcDbXrecord
  3
AutoCAD 2000
 90
        0
280
     0
281
     0
  0
ENDSEC
  0
SECTION
  2
TABLES
  0
TABLE
  2
VPORT
  5
8
330
0
100
AcDbSymbolTable
 70
     3
  0
VPORT
  5
4153
330
8
100
AcDbSymbolTableRecord
100
AcDbViewportTableRecord
  2
*ACTIVE
 70
     0
 10
0.0
 20
0.0
 11
1.0
 21
1.0
 12
-17.04223836495543
 22
-27.85067472666298
 13
0.0
 23
0.0
 14
2.5
 24
2.5
 15
10.0
 25
10.0
 16
0.0
 26
0.0
 36
1.0
 17
0.0
 27
0.0
 37
0.0
 40
184.3546118370735
 41
1.56570841889117
 42
50.0
 43
0.0
 44
0.0
 50
0.0
 51
0.0
 71
     0
 72
   100
 73
     1
 74
     3
 75
     0
 76
     0
 77
     0
 78
     0
  0
ENDTAB
  0
TABLE
  2
LTYPE
  5
5
330
0
100
AcDbSymbolTable
 70
    10
  0
LTYPE
  5
14
330
5
100
AcDbSymbolTableRecord
100
AcDbLinetypeTableRecord
  2
BYBLOCK
 70
     0
  3

 72
    65
 73
     0
 40
0.0
  0
LTYPE
  5
15
330
5
100
AcDbSymbolTableRecord
100
AcDbLinetypeTableRecord
  2
BYLAYER
 70
     0
  3

 72
    65
 73
     0
 40
0.0
  0
LTYPE
  5
16
330
5
100
AcDbSymbolTableRecord
100
AcDbLinetypeTableRecord
  2
CONTINUOUS
 70
     0
  3
Solid line
 72
    65
 73
     0
 40
0.0
  0
LTYPE
  5
4B
330
5
100
AcDbSymbolTableRecord
100
AcDbLinetypeTableRecord
  2
AM_ISO02W050
 70
     0
  3
__ __ __ __ __ __ __ __ __ __ __ __ __ __ __
 72
    65
 73
     2
 40
7.5
 49
6.0
 74
     0
 49
-1.5
 74
     0
  0
LTYPE
  5
4C
330
5
100
AcDbSymbolTableRecord
100
AcDbLinetypeTableRecord
  2
AM_ISO08W050
 70
     0
  3
____ . ____ . ____ . ____ . ____ . ____ . ____
 72
    65
 73
     4
 40
18.0
 49
12.0
 74
     0
 49
-1.5
 74
     0
 49
3.0
 74
     0
 49
-1.5
 74
     0
  0
LTYPE
  5
4D
330
5
100
AcDbSymbolTableRecord
100
AcDbLinetypeTableRecord
  2
AM_ISO09W050
 70
     0
  3
_____ . . _____ . . _____ . . ____ .. ____
 72
    65
 73
     6
 40
22.5
 49
12.0
 74
     0
 49
-1.5
 74
     0
 49
3.0
 74
     0
 49
-1.5
 74
     0
 49
3.0
 74
     0
 49
-1.5
 74
     0
  0
LTYPE
  5
4E
330
5
100
AcDbSymbolTableRecord
100
AcDbLinetypeTableRecord
  2
AMCONSTR
 70
     0
  3
_______________________
 72
    65
 73
     2
 40
9999.0
 49
9999.0
 74
     0
 49
0.0
 74
     0
  0
LTYPE
  5
4F
330
5
100
AcDbSymbolTableRecord
100
AcDbLinetypeTableRecord
  2
AM_ISO02W050X2
 70
     0
  3
 _ _ _ _ _ _ _ _ _ _ _ _
 72
    65
 73
     2
 40
3.75
 49
3.0
 74
     0
 49
-0.75
 74
     0
  0
LTYPE
  5
50
330
5
100
AcDbSymbolTableRecord
100
AcDbLinetypeTableRecord
  2
AM_ISO08W050X2
 70
     0
  3
__ . __ . __ . __ . __ . __
 72
    65
 73
     4
 40
9.0
 49
6.0
 74
     0
 49
-0.75
 74
     0
 49
1.5
 74
     0
 49
-0.75
 74
     0
  0
LTYPE
  5
53
330
5
100
AcDbSymbolTableRecord
100
AcDbLinetypeTableRecord
  2
AMZIGZAG
 70
     0
  3
/\/-/\/-/\/-/\/-/\/-/\/
 72
    65
 73
     2
 40
11.00009999999999
 49
0.0001
 74
     4
 75
   135
340
52
 46
0.04
 50
0.0
 44
0.0
 45
0.0
 49
-11.0
 74
     0
  0
LTYPE
  5
166
330
5
100
AcDbSymbolTableRecord
100
AcDbLinetypeTableRecord
  2
ACJISTGL
 70
     0
  3
_ _ _ _ _
 72
    65
 73
     2
 40
3.0
 49
2.0
 74
     0
 49
-1.0
 74
     0
  0
LTYPE
  5
26A
330
5
100
AcDbSymbolTableRecord
100
AcDbLinetypeTableRecord
  2
ACJISTGB
 70
     0
  3
__ . . __ . .
 72
    65
 73
     6
 40
9.0
 49
4.0
 74
     0
 49
-1.0
 74
     0
 49
1.0
 74
     0
 49
-1.0
 74
     0
 49
1.0
 74
     0
 49
-1.0
 74
     0
  0
ENDTAB
  0
TABLE
  2
LAYER
  5
2
330
0
100
AcDbSymbolTable
 70
     8
  0
LAYER
  5
10
330
2
100
AcDbSymbolTableRecord
100
AcDbLayerTableRecord
  2
0
 70
     0
 62
     7
  6
CONTINUOUS
  0
LAYER
  5
3F9
330
2
100
AcDbSymbolTableRecord
100
AcDbLayerTableRecord
  2
AM_0
 70
     0
 62
     7
  6
CONTINUOUS
  0
LAYER
  5
BD5
330
2
100
AcDbSymbolTableRecord
100
AcDbLayerTableRecord
  2
AM_7
 70
     0
 62
     4
  6
AM_ISO08W050
  0
LAYER
  5
BD6
330
2
100
AcDbSymbolTableRecord
100
AcDbLayerTableRecord
  2
AM_5
 70
     0
 62
     3
  6
CONTINUOUS
  0
LAYER
  5
BD7
330
2
100
AcDbSymbolTableRecord
100
AcDbLayerTableRecord
  2
DEFPOINTS
 70
     0
 62
     7
  6
CONTINUOUS
  0
LAYER
  5
E59
330
2
100
AcDbSymbolTableRecord
100
AcDbLayerTableRecord
  2
AM_6
 70
     0
 62
     2
  6
CONTINUOUS
  0
LAYER
  5
1E31
330
2
100
AcDbSymbolTableRecord
100
AcDbLayerTableRecord
  2
AM_11
 70
     0
 62
     3
  6
AM_ISO09W050
  0
LAYER
  5
1E41
330
2
100
AcDbSymbolTableRecord
100
AcDbLayerTableRecord
  2
AM_3
 70
     0
 62
     6
  6
ACJISTGL
  0
ENDTAB
  0
TABLE
  2
STYLE
  5
3
330
0
100
AcDbSymbolTable
 70
     5
  0
STYLE
  5
11
330
3
100
AcDbSymbolTableRecord
100
AcDbTextStyleTableRecord
  2
STANDARD
 70
     0
 40
0.0
 41
1.0
 50
0.0
 71
     0
 42
2.5
  3
simplex.shx
  4
EXTFONT.SHX
  0
STYLE
  5
52
330
3
100
AcDbSymbolTableRecord
100
AcDbTextStyleTableRecord
  2

 70
     1
 40
0.0
 41
1.0
 50
0.0
 71
     0
 42
2.5
  3
ltypeshp.shx
  4

  0
STYLE
  5
6B
330
3
100
AcDbSymbolTableRecord
100
AcDbTextStyleTableRecord
  2
ASAMI
 70
     0
 40
0.0
 41
1.0
 50
0.0
 71
     0
 42
2.5
  3
simplex.shx
  4
EXTFONT.SHX
  0
STYLE
  5
262
330
3
100
AcDbSymbolTableRecord
100
AcDbTextStyleTableRecord
  2
ACJISTS
 70
     0
 40
1.0
 41
1.0
 50
0.0
 71
     0
 42
2.5
  3
simplex.shx
  4
bigfont.shx
  0
STYLE
  5
269
330
3
100
AcDbSymbolTableRecord
100
AcDbTextStyleTableRecord
  2
ACJISGDT
 70
     0
 40
0.0
 41
1.0
 50
0.0
 71
     0
 42
2.5
  3
amgdtans.shx
  4

  0
ENDTAB
  0
TABLE
  2
VIEW
  5
6
330
0
100
AcDbSymbolTable
 70
     0
  0
ENDTAB
  0
TABLE
  2
UCS
  5
7
330
0
100
AcDbSymbolTable
 70
     0
  0
ENDTAB
  0
TABLE
  2
APPID
  5
9
330
0
100
AcDbSymbolTable
 70
    13
  0
APPID
  5
12
330
9
100
AcDbSymbolTableRecord
100
AcDbRegAppTableRecord
  2
ACAD
 70
     0
  0
APPID
  5
30
330
9
100
AcDbSymbolTableRecord
100
AcDbRegAppTableRecord
  2
MCAD_NO_VIS
 70
     0
  0
APPID
  5
31
330
9
100
AcDbSymbolTableRecord
100
AcDbRegAppTableRecord
  2
ACAD_TEMP_GRAPHIC
 70
     0
  0
APPID
  5
2C2
330
9
100
AcDbSymbolTableRecord
100
AcDbRegAppTableRecord
  2
GENIUS_GENDTOL_13
 70
     0
  0
APPID
  5
339
330
9
100
AcDbSymbolTableRecord
100
AcDbRegAppTableRecord
  2
GENIUS_GENODEF_13
 70
     0
  0
APPID
  5
33A
330
9
100
AcDbSymbolTableRecord
100
AcDbRegAppTableRecord
  2
GENIUS_GENOBJ-N-RSBK_13
 70
     0
  0
APPID
  5
33B
330
9
100
AcDbSymbolTableRecord
100
AcDbRegAppTableRecord
  2
GENIUS_GENOBJ-N-LIB_13
 70
     0
  0
APPID
  5
33C
330
9
100
AcDbSymbolTableRecord
100
AcDbRegAppTableRecord
  2
GENIUS_GENSCALE_13
 70
     0
  0
APPID
  5
378
330
9
100
AcDbSymbolTableRecord
100
AcDbRegAppTableRecord
  2
GENIUS_GENDIMSH_14
 70
     0
  0
APPID
  5
BD8
330
9
100
AcDbSymbolTableRecord
100
AcDbRegAppTableRecord
  2
GENIUS_GENOBJ-N-CEN_13
 70
     0
  0
APPID
  5
BD9
330
9
100
AcDbSymbolTableRecord
100
AcDbRegAppTableRecord
  2
GENIUS_GENFIL_13
 70
     0
  0
APPID
  5
BDA
330
9
100
AcDbSymbolTableRecord
100
AcDbRegAppTableRecord
  2
GENIUS_GENOBJ-N-CHA_13
 70
     0
  0
APPID
  5
2BC1
330
9
100
AcDbSymbolTableRecord
100
AcDbRegAppTableRecord
  2
GENIUS_GENOBJ-N-FIL_13
 70
     0
  0
ENDTAB
  0
TABLE
  2
DIMSTYLE
  5
A
330
0
100
AcDbSymbolTable
 70
     9
  0
DIMSTYLE
105
58
102
{ACAD_REACTORS
330
3927
330
3926
330
3928
330
39B1
330
39B0
330
39B2
330
3A0A
330
3A0B
330
3A0C
330
3B45
330
3DA5
102
}
330
A
100
AcDbSymbolTableRecord
100
AcDbDimStyleTableRecord
  2
AM_JIS
 70
     0
  3

  4
"
  5
OPEN30
  6

  7

 40
1.0
 41
2.5
 42
1.0
 43
12.0
 44
1.0
 45
0.0
 46
0.0
 47
0.1
 48
0.1
140
3.2
141
0.0
142
0.0
143
0.0393701
144
1.0
145
0.0
146
0.71
147
1.5
 71
     0
 72
     0
 73
     0
 74
     0
 75
     0
 76
     0
 77
     3
 78
     8
170
     0
171
     2
172
     1
173
     0
174
     0
175
     0
176
   256
177
   256
178
     2
270
     2
271
     3
272
     3
273
     2
274
     2
340
6B
275
     0
280
     0
281
     0
282
     0
283
     0
284
     0
285
     0
286
     0
287
     3
288
     0
  0
DIMSTYLE
105
5F
330
A
100
AcDbSymbolTableRecord
100
AcDbDimStyleTableRecord
  2
AM_JIS$3
 70
     0
  3

  4
"
  5
OPEN30
  6

  7

 40
1.0
 41
2.5
 42
1.0
 43
10.0
 44
1.0
 45
0.0
 46
0.0
 47
0.1
 48
0.1
140
3.2
141
0.0
142
0.0
143
0.0393701
144
1.0
145
0.0
146
0.71
147
1.5
 71
     0
 72
     0
 73
     0
 74
     1
 75
     0
 76
     0
 77
     3
 78
     8
170
     0
171
     2
172
     0
173
     0
174
     0
175
     0
176
   256
177
   256
178
     2
270
     2
271
     2
272
     3
273
     2
274
     2
340
6B
275
     0
280
     0
281
     0
282
     0
283
     0
284
     0
285
     0
286
     0
287
     0
288
     1
  0
DIMSTYLE
105
60
330
A
100
AcDbSymbolTableRecord
100
AcDbDimStyleTableRecord
  2
AM_JIS$4
 70
     0
  3

  4
"
  5
OPEN30
  6

  7

 40
1.0
 41
2.5
 42
1.0
 43
10.0
 44
1.0
 45
0.0
 46
0.0
 47
0.1
 48
0.1
140
3.2
141
0.0
142
0.0
143
0.0393701
144
1.0
145
0.0
146
0.71
147
1.5
 71
     0
 72
     0
 73
     0
 74
     1
 75
     0
 76
     0
 77
     3
 78
     8
170
     0
171
     2
172
     0
173
     0
174
     0
175
     0
176
   256
177
   256
178
     2
270
     2
271
     2
272
     3
273
     2
274
     2
340
6B
275
     0
280
     0
281
     0
282
     0
283
     0
284
     0
285
     0
286
     0
287
     0
288
     1
  0
DIMSTYLE
105
61
330
A
100
AcDbSymbolTableRecord
100
AcDbDimStyleTableRecord
  2
AM_JIS$6
 70
     0
  3

  4
"
  5
OPEN30
  6

  7

 40
1.0
 41
2.5
 42
1.0
 43
10.0
 44
1.0
 45
0.0
 46
0.0
 47
0.1
 48
0.1
140
3.2
141
0.0
142
0.0
143
0.0393701
144
1.0
145
0.0
146
0.71
147
1.5
 71
     0
 72
     0
 73
     0
 74
     0
 75
     0
 76
     0
 77
     0
 78
     8
170
     0
171
     2
172
     1
173
     0
174
     0
175
     0
176
   256
177
   256
178
     2
270
     2
271
     2
272
     2
273
     2
274
     2
340
6B
275
     0
280
     0
281
     0
282
     0
283
     0
284
     0
285
     0
286
     0
287
     3
288
     0
  0
DIMSTYLE
105
62
330
A
100
AcDbSymbolTableRecord
100
AcDbDimStyleTableRecord
  2
AM_JIS$7
 70
     0
  3

  4
"
  5
OPEN30
  6

  7

 40
1.0
 41
2.5
 42
1.0
 43
10.0
 44
1.0
 45
0.0
 46
0.0
 47
0.1
 48
0.1
140
3.2
141
0.0
142
0.0
143
0.0393701
144
1.0
145
0.0
146
0.71
147
1.5
 71
     0
 72
     0
 73
     0
 74
     0
 75
     0
 76
     0
 77
     3
 78
     8
170
     0
171
     2
172
     1
173
     0
174
     0
175
     0
176
   256
177
   256
178
     2
270
     2
271
     2
272
     3
273
     2
274
     2
340
6B
275
     0
280
     0
281
     0
282
     0
283
     0
284
     0
285
     0
286
     0
287
     3
288
     0
  0
DIMSTYLE
105
63
330
A
100
AcDbSymbolTableRecord
100
AcDbDimStyleTableRecord
  2
AM_JIS$SF
 70
     0
  3

  4
"
  5
OPEN30
  6

  7

 40
1.0
 41
2.5
 42
1.0
 43
10.0
 44
1.0
 45
0.0
 46
0.0
 47
0.1
 48
0.1
140
3.2
141
0.0
142
0.0
143
0.0393701
144
1.0
145
0.0
146
0.71
147
1.5
 71
     0
 72
     0
 73
     0
 74
     0
 75
     1
 76
     1
 77
     3
 78
     8
170
     0
171
     2
172
     1
173
     0
174
     0
175
     0
176
   256
177
   256
178
     2
270
     2
271
     2
272
     2
273
     2
274
     2
340
6B
275
     0
280
     0
281
     0
282
     0
283
     0
284
     0
285
     0
286
     0
287
     3
288
     0
  0
DIMSTYLE
105
68
330
A
100
AcDbSymbolTableRecord
100
AcDbDimStyleTableRecord
  2
AM_JIS$SH
 70
     0
  3

  4
"
  5

  6
GENAXEH
  7
OPEN30
 40
1.0
 41
2.5
 42
1.0
 43
10.0
 44
1.0
 45
0.0
 46
0.0
 47
0.1
 48
0.1
140
3.2
141
0.0
142
0.0
143
0.0393701
144
2.0
145
0.0
146
0.71
147
1.5
 71
     0
 72
     0
 73
     0
 74
     0
 75
     1
 76
     1
 77
     3
 78
     8
170
     0
171
     2
172
     1
173
     1
174
     0
175
     0
176
   256
177
   256
178
     2
270
     2
271
     2
272
     2
273
     2
274
     2
340
6B
275
     0
280
     0
281
     0
282
     0
283
     0
284
     0
285
     0
286
     0
287
     3
288
     0
  0
DIMSTYLE
105
B34
330
A
100
AcDbSymbolTableRecord
100
AcDbDimStyleTableRecord
  2
AM_JIS$2
 70
     0
  3

  4
"
  5
OPEN30
  6

  7

 40
1.0
 41
2.5
 42
1.0
 43
12.0
 44
1.0
 45
0.0
 46
0.0
 47
0.1
 48
0.1
140
3.2
141
0.0
142
0.0
143
0.0393701
144
1.0
145
0.0
146
0.71
147
1.5
 71
     0
 72
     0
 73
     0
 74
     0
 75
     0
 76
     0
 77
     3
 78
     8
170
     0
171
     2
172
     1
173
     0
174
     0
175
     0
176
   256
177
   256
178
     2
270
     2
271
     3
272
     3
273
     2
274
     2
340
6B
275
     0
280
     0
281
     0
282
     0
283
     0
284
     0
285
     0
286
     0
287
     3
288
     0
  0
DIMSTYLE
105
1E42
330
A
100
AcDbSymbolTableRecord
100
AcDbDimStyleTableRecord
  2
AM_JIS$0
 70
     0
  3

  4
"
  5
OPEN30
  6

  7

 40
2.0
 41
2.5
 42
1.0
 43
10.0
 44
1.0
 45
0.0
 46
0.0
 47
0.1
 48
0.1
140
2.5
141
0.0
142
0.0
143
0.0393701
144
1.0
145
0.0
146
0.71
147
1.0
 71
     0
 72
     0
 73
     0
 74
     0
 75
     0
 76
     0
 77
     3
 78
     8
170
     0
171
     2
172
     1
173
     0
174
     0
175
     0
176
   256
177
   256
178
     4
270
     2
271
     3
272
     3
273
     2
274
     2
340
6B
275
     0
280
     0
281
     0
282
     0
283
     0
284
     0
285
     0
286
     0
287
     3
288
     0
  0
ENDTAB
  0
TABLE
  2
BLOCK_RECORD
  5
1
330
0
100
AcDbSymbolTable
 70
    16
  0
BLOCK_RECORD
  5
1F
102
{ACAD_XDICTIONARY
360
74
102
}
330
1
100
AcDbSymbolTableRecord
100
AcDbBlockTableRecord
  2
*MODEL_SPACE
  0
BLOCK_RECORD
  5
101
102
{ACAD_XDICTIONARY
360
417C
102
}
330
1
100
AcDbSymbolTableRecord
100
AcDbBlockTableRecord
  2
*PAPER_SPACE
  0
BLOCK_RECORD
  5
59
330
1
100
AcDbSymbolTableRecord
100
AcDbBlockTableRecord
  2
_OPEN30
  0
BLOCK_RECORD
  5
64
330
1
100
AcDbSymbolTableRecord
100
AcDbBlockTableRecord
  2
GENAXEH
  0
BLOCK_RECORD
  5
3929
330
1
100
AcDbSymbolTableRecord
100
AcDbBlockTableRecord
  2
*D5
  0
BLOCK_RECORD
  5
3935
330
1
100
AcDbSymbolTableRecord
100
AcDbBlockTableRecord
  2
*D6
  0
BLOCK_RECORD
  5
3941
330
1
100
AcDbSymbolTableRecord
100
AcDbBlockTableRecord
  2
*D7
  0
BLOCK_RECORD
  5
39B3
330
1
100
AcDbSymbolTableRecord
100
AcDbBlockTableRecord
  2
*D8
  0
BLOCK_RECORD
  5
39BF
330
1
100
AcDbSymbolTableRecord
100
AcDbBlockTableRecord
  2
*D9
  0
BLOCK_RECORD
  5
39CB
330
1
100
AcDbSymbolTableRecord
100
AcDbBlockTableRecord
  2
*D10
  0
BLOCK_RECORD
  5
3A0D
330
1
100
AcDbSymbolTableRecord
100
AcDbBlockTableRecord
  2
*D11
  0
BLOCK_RECORD
  5
3A19
330
1
100
AcDbSymbolTableRecord
100
AcDbBlockTableRecord
  2
*D12
  0
BLOCK_RECORD
  5
3A25
330
1
100
AcDbSymbolTableRecord
100
AcDbBlockTableRecord
  2
*D13
  0
BLOCK_RECORD
  5
3B46
330
1
100
AcDbSymbolTableRecord
100
AcDbBlockTableRecord
  2
*D14
  0
BLOCK_RECORD
  5
3DA6
330
1
100
AcDbSymbolTableRecord
100
AcDbBlockTableRecord
  2
*D15
  0
ENDTAB
  0
ENDSEC
  0
SECTION
  2
BLOCKS
  0
BLOCK
  5
20
330
1F
100
AcDbEntity
  8
0
100
AcDbBlockBegin
  2
*MODEL_SPACE
 70
     0
 10
0.0
 20
0.0
 30
0.0
  3
*MODEL_SPACE
  1

  0
ENDBLK
  5
21
330
1F
100
AcDbEntity
  8
0
100
AcDbBlockEnd
  0
BLOCK
  5
103
330
101
100
AcDbEntity
 67
     1
  8
0
100
AcDbBlockBegin
  2
*PAPER_SPACE
 70
     0
 10
0.0
 20
0.0
 30
0.0
  3
*PAPER_SPACE
  1

  0
ENDBLK
  5
104
330
101
100
AcDbEntity
 67
     1
  8
0
100
AcDbBlockEnd
  0
BLOCK
  5
5D
330
59
100
AcDbEntity
  8
0
100
AcDbBlockBegin
  2
_OPEN30
 70
     0
 10
0.0
 20
0.0
 30
0.0
  3
_OPEN30
  1

  0
LINE
  5
5A
330
59
100
AcDbEntity
  8
0
 62
     0
100
AcDbLine
 10
-1.0
 20
0.26794919
 30
0.0
 11
0.0
 21
0.0
 31
0.0
  0
LINE
  5
5B
330
59
100
AcDbEntity
  8
0
 62
     0
100
AcDbLine
 10
0.0
 20
0.0
 30
0.0
 11
-1.0
 21
-0.26794919
 31
0.0
  0
LINE
  5
5C
330
59
100
AcDbEntity
  8
0
 62
     0
100
AcDbLine
 10
0.0
 20
0.0
 30
0.0
 11
-1.0
 21
0.0
 31
0.0
  0
ENDBLK
  5
5E
330
59
100
AcDbEntity
  8
0
100
AcDbBlockEnd
  0
BLOCK
  5
66
330
64
100
AcDbEntity
  8
0
100
AcDbBlockBegin
  2
GENAXEH
 70
     0
 10
0.0
 20
0.0
 30
0.0
  3
GENAXEH
  1

  0
LINE
  5
65
330
64
100
AcDbEntity
  8
0
100
AcDbLine
 10
-1.0
 20
0.0
 30
0.0
 11
1.0
 21
0.0
 31
0.0
  0
ENDBLK
  5
67
330
64
100
AcDbEntity
  8
0
100
AcDbBlockEnd
  0
BLOCK
  5
3933
330
3929
100
AcDbEntity
  8
0
100
AcDbBlockBegin
  2
*D5
 70
     1
 10
0.0
 20
0.0
 30
0.0
  3
*D5
  1

  0
LINE
  5
3E10
330
3929
100
AcDbEntity
  8
AM_5
100
AcDbLine
 10
-49.80000000000015
 20
29.99999999999999
 30
0.0
 11
-89.32409633116836
 21
30.0
 31
0.0
  0
LINE
  5
3E11
330
3929
100
AcDbEntity
  8
AM_5
100
AcDbLine
 10
-49.80000000000015
 20
-29.99999999999999
 30
0.0
 11
-89.32409633116836
 21
-29.99999999999998
 31
0.0
  0
LINE
  5
3E12
330
3929
100
AcDbEntity
  8
AM_5
100
AcDbLine
 10
-88.32409633116837
 20
27.5
 30
0.0
 11
-88.32409633116837
 21
-27.49999999999998
 31
0.0
  0
INSERT
  5
3E13
330
3929
100
AcDbEntity
  8
AM_5
100
AcDbBlockReference
  2
_OPEN30
 10
-88.32409633116837
 20
30.0
 30
0.0
 41
2.5
 42
2.5
 43
2.5
 50
90.0
  0
INSERT
  5
3E14
330
3929
100
AcDbEntity
  8
AM_5
100
AcDbBlockReference
  2
_OPEN30
 10
-88.32409633116837
 20
-29.99999999999998
 30
0.0
 41
2.5
 42
2.5
 43
2.5
 50
270.0
  0
MTEXT
  5
3E15
330
3929
100
AcDbEntity
  8
AM_5
 62
     2
100
AcDbMText
 10
-91.42409633116836
 20
-0.0000000000000013
 30
0.0
 40
3.2
 41
0.0
 71
     5
 72
     1
  1
%%c60
  7
ASAMI
 11
0.0000000000000001
 21
1.0
 31
0.0
1001
ACAD
1000
MTEXTBEGIN
1070
    73
1070
     1
1070
    44
1040
1.0
1070
    74
1070
     0
1000
MTEXTEND
  0
POINT
  5
3E16
330
3929
100
AcDbEntity
  8
DEFPOINTS
 62
     0
100
AcDbPoint
 10
-48.80000000000015
 20
29.99999999999999
 30
0.0
  0
POINT
  5
3E17
330
3929
100
AcDbEntity
  8
DEFPOINTS
 62
     0
100
AcDbPoint
 10
-48.80000000000015
 20
-29.99999999999999
 30
0.0
  0
POINT
  5
3E18
330
3929
100
AcDbEntity
  8
DEFPOINTS
 62
     0
100
AcDbPoint
 10
-88.32409633116837
 20
-29.99999999999998
 30
0.0
  0
ENDBLK
  5
3934
330
3929
100
AcDbEntity
  8
0
100
AcDbBlockEnd
  0
BLOCK
  5
393F
330
3935
100
AcDbEntity
  8
0
100
AcDbBlockBegin
  2
*D6
 70
     1
 10
0.0
 20
0.0
 30
0.0
  3
*D6
  1

  0
LINE
  5
3E2B
330
3935
100
AcDbEntity
  8
AM_5
100
AcDbLine
 10
-49.3000000000001
 20
12.70000000000002
 30
0.0
 11
-79.32409633116836
 21
12.70000000000003
 31
0.0
  0
LINE
  5
3E2C
330
3935
100
AcDbEntity
  8
AM_5
100
AcDbLine
 10
-49.3000000000001
 20
-12.70000000000002
 30
0.0
 11
-79.32409633116836
 21
-12.70000000000001
 31
0.0
  0
LINE
  5
3E2D
330
3935
100
AcDbEntity
  8
AM_5
100
AcDbLine
 10
-78.32409633116836
 20
10.20000000000003
 30
0.0
 11
-78.32409633116836
 21
-10.20000000000001
 31
0.0
  0
INSERT
  5
3E2E
330
3935
100
AcDbEntity
  8
AM_5
100
AcDbBlockReference
  2
_OPEN30
 10
-78.32409633116836
 20
12.70000000000003
 30
0.0
 41
2.5
 42
2.5
 43
2.5
 50
90.0
  0
INSERT
  5
3E2F
330
3935
100
AcDbEntity
  8
AM_5
100
AcDbBlockReference
  2
_OPEN30
 10
-78.32409633116836
 20
-12.70000000000001
 30
0.0
 41
2.5
 42
2.5
 43
2.5
 50
270.0
  0
MTEXT
  5
3E30
330
3935
100
AcDbEntity
  8
AM_5
 62
     2
100
AcDbMText
 10
-81.42409633116836
 20
-0.0000000000000046
 30
0.0
 40
3.2
 41
0.0
 71
     5
 72
     1
  1
%%c25.4
  7
ASAMI
 11
0.0000000000000001
 21
1.0
 31
0.0
1001
ACAD
1000
MTEXTBEGIN
1070
    73
1070
     1
1070
    44
1040
1.0
1070
    74
1070
     0
1000
MTEXTEND
  0
POINT
  5
3E31
330
3935
100
AcDbEntity
  8
DEFPOINTS
 62
     0
100
AcDbPoint
 10
-48.30000000000009
 20
12.70000000000002
 30
0.0
  0
POINT
  5
3E32
330
3935
100
AcDbEntity
  8
DEFPOINTS
 62
     0
100
AcDbPoint
 10
-48.30000000000009
 20
-12.70000000000002
 30
0.0
  0
POINT
  5
3E33
330
3935
100
AcDbEntity
  8
DEFPOINTS
 62
     0
100
AcDbPoint
 10
-78.32409633116836
 20
-12.70000000000001
 30
0.0
  0
ENDBLK
  5
3940
330
3935
100
AcDbEntity
  8
0
100
AcDbBlockEnd
  0
BLOCK
  5
394B
330
3941
100
AcDbEntity
  8
0
100
AcDbBlockBegin
  2
*D7
 70
     1
 10
0.0
 20
0.0
 30
0.0
  3
*D7
  1

  0
LINE
  5
3E22
330
3941
100
AcDbEntity
  8
AM_5
100
AcDbLine
 10
-49.8000000000001
 20
4.750000000000001
 30
0.0
 11
-69.32409633116836
 21
4.750000000000007
 31
0.0
  0
LINE
  5
3E23
330
3941
100
AcDbEntity
  8
AM_5
100
AcDbLine
 10
-49.8000000000001
 20
-4.75
 30
0.0
 11
-69.32409633116836
 21
-4.749999999999994
 31
0.0
  0
LINE
  5
3E24
330
3941
100
AcDbEntity
  8
AM_5
100
AcDbLine
 10
-68.32409633116836
 20
2.250000000000007
 30
0.0
 11
-68.32409633116836
 21
-2.249999999999994
 31
0.0
  0
INSERT
  5
3E25
330
3941
100
AcDbEntity
  8
AM_5
100
AcDbBlockReference
  2
_OPEN30
 10
-68.32409633116836
 20
4.750000000000007
 30
0.0
 41
2.5
 42
2.5
 43
2.5
 50
90.0
  0
INSERT
  5
3E26
330
3941
100
AcDbEntity
  8
AM_5
100
AcDbBlockReference
  2
_OPEN30
 10
-68.32409633116836
 20
-4.749999999999994
 30
0.0
 41
2.5
 42
2.5
 43
2.5
 50
270.0
  0
MTEXT
  5
3E27
330
3941
100
AcDbEntity
  8
AM_5
 62
     2
100
AcDbMText
 10
-71.42409633116836
 20
-0.0000000000000043
 30
0.0
 40
3.2
 41
0.0
 71
     5
 72
     1
  1
9.5
  7
ASAMI
 11
0.0000000000000001
 21
1.0
 31
0.0
1001
ACAD
1000
MTEXTBEGIN
1070
    73
1070
     1
1070
    44
1040
1.0
1070
    74
1070
     0
1000
MTEXTEND
  0
POINT
  5
3E28
330
3941
100
AcDbEntity
  8
DEFPOINTS
 62
     0
100
AcDbPoint
 10
-48.80000000000009
 20
4.750000000000001
 30
0.0
  0
POINT
  5
3E29
330
3941
100
AcDbEntity
  8
DEFPOINTS
 62
     0
100
AcDbPoint
 10
-48.80000000000009
 20
-4.75
 30
0.0
  0
POINT
  5
3E2A
330
3941
100
AcDbEntity
  8
DEFPOINTS
 62
     0
100
AcDbPoint
 10
-68.32409633116836
 20
-4.749999999999994
 30
0.0
  0
ENDBLK
  5
394C
330
3941
100
AcDbEntity
  8
0
100
AcDbBlockEnd
  0
BLOCK
  5
39BD
330
39B3
100
AcDbEntity
  8
0
100
AcDbBlockBegin
  2
*D8
 70
     1
 10
0.0
 20
0.0
 30
0.0
  3
*D8
  1

  0
LINE
  5
3FC3
330
39B3
100
AcDbEntity
  8
AM_5
100
AcDbLine
 10
-50.00000000000014
 20
-29.8
 30
0.0
 11
-50.00000000000014
 21
-85.59447810089478
 31
0.0
  0
LINE
  5
3FC4
330
39B3
100
AcDbEntity
  8
AM_5
100
AcDbLine
 10
-0.0000000000002517
 20
-51.59447709089487
 30
0.0
 11
-0.0000000000002538
 21
-85.59447810089478
 31
0.0
  0
LINE
  5
3FC5
330
39B3
100
AcDbEntity
  8
AM_5
100
AcDbLine
 10
-47.50000000000014
 20
-84.59447810089477
 30
0.0
 11
-2.500000000000253
 21
-84.59447810089477
 31
0.0
  0
INSERT
  5
3FC6
330
39B3
100
AcDbEntity
  8
AM_5
100
AcDbBlockReference
  2
_OPEN30
 10
-50.00000000000014
 20
-84.59447810089477
 30
0.0
 41
2.5
 42
2.5
 43
2.5
 50
180.0
  0
INSERT
  5
3FC7
330
39B3
100
AcDbEntity
  8
AM_5
100
AcDbBlockReference
  2
_OPEN30
 10
-0.0000000000002537
 20
-84.59447810089477
 30
0.0
 41
2.5
 42
2.5
 43
2.5
  0
MTEXT
  5
3FC8
330
39B3
100
AcDbEntity
  8
AM_5
 62
     2
100
AcDbMText
 10
-25.00000000000019
 20
-81.49447810089478
 30
0.0
 40
3.2
 41
0.0
 71
     5
 72
     1
  1
50
  7
ASAMI
1001
ACAD
1000
MTEXTBEGIN
1070
    73
1070
     1
1070
    44
1040
1.0
1070
    74
1070
     0
1000
MTEXTEND
  0
POINT
  5
3FC9
330
39B3
100
AcDbEntity
  8
DEFPOINTS
 62
     0
100
AcDbPoint
 10
-50.00000000000014
 20
-28.79999999999999
 30
0.0
  0
POINT
  5
3FCA
330
39B3
100
AcDbEntity
  8
DEFPOINTS
 62
     0
100
AcDbPoint
 10
-0.0000000000002516
 20
-50.59447709089487
 30
0.0
  0
POINT
  5
3FCB
330
39B3
100
AcDbEntity
  8
DEFPOINTS
 62
     0
100
AcDbPoint
 10
-0.0000000000002537
 20
-84.59447810089477
 30
0.0
  0
ENDBLK
  5
39BE
330
39B3
100
AcDbEntity
  8
0
100
AcDbBlockEnd
  0
BLOCK
  5
39C9
330
39BF
100
AcDbEntity
  8
0
100
AcDbBlockBegin
  2
*D9
 70
     1
 10
0.0
 20
0.0
 30
0.0
  3
*D9
  1

  0
LINE
  5
3FBA
330
39BF
100
AcDbEntity
  8
AM_5
100
AcDbLine
 10
-50.00000000000014
 20
-29.8
 30
0.0
 11
-50.00000000000014
 21
-75.59447810089477
 31
0.0
  0
LINE
  5
3FBB
330
39BF
100
AcDbEntity
  8
AM_5
100
AcDbLine
 10
-25.00000000000014
 20
-13.99999999999998
 30
0.0
 11
-25.00000000000014
 21
-75.59447810089477
 31
0.0
  0
LINE
  5
3FBC
330
39BF
100
AcDbEntity
  8
AM_5
100
AcDbLine
 10
-47.50000000000014
 20
-74.59447810089478
 30
0.0
 11
-27.50000000000014
 21
-74.59447810089478
 31
0.0
  0
INSERT
  5
3FBD
330
39BF
100
AcDbEntity
  8
AM_5
100
AcDbBlockReference
  2
_OPEN30
 10
-50.00000000000014
 20
-74.59447810089478
 30
0.0
 41
2.5
 42
2.5
 43
2.5
 50
180.0
  0
INSERT
  5
3FBE
330
39BF
100
AcDbEntity
  8
AM_5
100
AcDbBlockReference
  2
_OPEN30
 10
-25.00000000000014
 20
-74.59447810089478
 30
0.0
 41
2.5
 42
2.5
 43
2.5
  0
MTEXT
  5
3FBF
330
39BF
100
AcDbEntity
  8
AM_5
 62
     2
100
AcDbMText
 10
-37.50000000000014
 20
-71.49447810089478
 30
0.0
 40
3.2
 41
0.0
 71
     5
 72
     1
  1
25
  7
ASAMI
1001
ACAD
1000
MTEXTBEGIN
1070
    73
1070
     1
1070
    44
1040
1.0
1070
    74
1070
     0
1000
MTEXTEND
  0
POINT
  5
3FC0
330
39BF
100
AcDbEntity
  8
DEFPOINTS
 62
     0
100
AcDbPoint
 10
-50.00000000000014
 20
-28.79999999999999
 30
0.0
  0
POINT
  5
3FC1
330
39BF
100
AcDbEntity
  8
DEFPOINTS
 62
     0
100
AcDbPoint
 10
-25.00000000000014
 20
-12.99999999999998
 30
0.0
  0
POINT
  5
3FC2
330
39BF
100
AcDbEntity
  8
DEFPOINTS
 62
     0
100
AcDbPoint
 10
-25.00000000000014
 20
-74.59447810089478
 30
0.0
  0
ENDBLK
  5
39CA
330
39BF
100
AcDbEntity
  8
0
100
AcDbBlockEnd
  0
BLOCK
  5
39D7
330
39CB
100
AcDbEntity
  8
0
100
AcDbBlockBegin
  2
*D10
 70
     1
 10
0.0
 20
0.0
 30
0.0
  3
*D10
  1

  0
LINE
  5
3FAF
330
39CB
100
AcDbEntity
  8
AM_5
100
AcDbLine
 10
-50.00000000000014
 20
-29.8
 30
0.0
 11
-50.00000000000014
 21
-65.59447810089477
 31
0.0
  0
LINE
  5
3FB0
330
39CB
100
AcDbEntity
  8
AM_5
100
AcDbLine
 10
-44.00000000000014
 20
-4.75
 30
0.0
 11
-44.00000000000015
 21
-65.59447810089477
 31
0.0
  0
LINE
  5
3FB1
330
39CB
100
AcDbEntity
  8
AM_5
100
AcDbLine
 10
-52.50000000000014
 20
-64.59447810089478
 30
0.0
 11
-55.00000000000014
 21
-64.59447810089478
 31
0.0
  0
LINE
  5
3FB2
330
39CB
100
AcDbEntity
  8
AM_5
100
AcDbLine
 10
-41.50000000000015
 20
-64.59447810089478
 30
0.0
 11
-39.00000000000014
 21
-64.59447810089478
 31
0.0
  0
LINE
  5
3FB3
330
39CB
100
AcDbEntity
  8
AM_5
100
AcDbLine
 10
-50.00000000000014
 20
-64.59447810089478
 30
0.0
 11
-44.00000000000015
 21
-64.59447810089478
 31
0.0
  0
INSERT
  5
3FB4
330
39CB
100
AcDbEntity
  8
AM_5
100
AcDbBlockReference
  2
_OPEN30
 10
-50.00000000000014
 20
-64.59447810089478
 30
0.0
 41
2.5
 42
2.5
 43
2.5
  0
INSERT
  5
3FB5
330
39CB
100
AcDbEntity
  8
AM_5
100
AcDbBlockReference
  2
_OPEN30
 10
-44.00000000000015
 20
-64.59447810089478
 30
0.0
 41
2.5
 42
2.5
 43
2.5
 50
180.0
  0
MTEXT
  5
3FB6
330
39CB
100
AcDbEntity
  8
AM_5
 62
     2
100
AcDbMText
 10
-47.00000000000014
 20
-61.49447810089477
 30
0.0
 40
3.2
 41
0.0
 71
     5
 72
     1
  1
6
  7
ASAMI
1001
ACAD
1000
MTEXTBEGIN
1070
    73
1070
     1
1070
    44
1040
1.0
1070
    74
1070
     0
1000
MTEXTEND
  0
POINT
  5
3FB7
330
39CB
100
AcDbEntity
  8
DEFPOINTS
 62
     0
100
AcDbPoint
 10
-50.00000000000014
 20
-28.79999999999999
 30
0.0
  0
POINT
  5
3FB8
330
39CB
100
AcDbEntity
  8
DEFPOINTS
 62
     0
100
AcDbPoint
 10
-44.00000000000014
 20
-3.75
 30
0.0
  0
POINT
  5
3FB9
330
39CB
100
AcDbEntity
  8
DEFPOINTS
 62
     0
100
AcDbPoint
 10
-44.00000000000015
 20
-64.59447810089478
 30
0.0
  0
ENDBLK
  5
39D8
330
39CB
100
AcDbEntity
  8
0
100
AcDbBlockEnd
  0
BLOCK
  5
3A17
330
3A0D
100
AcDbEntity
  8
0
100
AcDbBlockBegin
  2
*D11
 70
     1
 10
0.0
 20
0.0
 30
0.0
  3
*D11
  1

  0
LINE
  5
3DEA
330
3A0D
100
AcDbEntity
  8
AM_5
100
AcDbLine
 10
0.999999999999801
 20
39.99999999999999
 30
0.0
 11
41.63520046574872
 21
39.99999999999998
 31
0.0
  0
LINE
  5
3DEB
330
3A0D
100
AcDbEntity
  8
AM_5
100
AcDbLine
 10
0.999999999999801
 20
-39.99999999999999
 30
0.0
 11
41.63520046574871
 21
-40.0
 31
0.0
  0
LINE
  5
3DEC
330
3A0D
100
AcDbEntity
  8
AM_5
100
AcDbLine
 10
40.63520046574872
 20
37.49999999999998
 30
0.0
 11
40.63520046574871
 21
-37.5
 31
0.0
  0
INSERT
  5
3DED
330
3A0D
100
AcDbEntity
  8
AM_5
100
AcDbBlockReference
  2
_OPEN30
 10
40.63520046574872
 20
39.99999999999998
 30
0.0
 41
2.5
 42
2.5
 43
2.5
 50
90.0
  0
INSERT
  5
3DEE
330
3A0D
100
AcDbEntity
  8
AM_5
100
AcDbBlockReference
  2
_OPEN30
 10
40.63520046574871
 20
-40.0
 30
0.0
 41
2.5
 42
2.5
 43
2.5
 50
270.0
  0
MTEXT
  5
3DEF
330
3A0D
100
AcDbEntity
  8
AM_5
 62
     2
100
AcDbMText
 10
37.53520046574871
 20
-0.0000000000000021
 30
0.0
 40
3.2
 41
0.0
 71
     5
 72
     1
  1
%%c80
  7
ASAMI
 11
0.0000000000000001
 21
1.0
 31
0.0
1001
ACAD
1000
MTEXTBEGIN
1070
    73
1070
     1
1070
    44
1040
1.0
1070
    74
1070
     0
1000
MTEXTEND
  0
POINT
  5
3DF0
330
3A0D
100
AcDbEntity
  8
DEFPOINTS
 62
     0
100
AcDbPoint
 10
-0.000000000000199
 20
39.99999999999999
 30
0.0
  0
POINT
  5
3DF1
330
3A0D
100
AcDbEntity
  8
DEFPOINTS
 62
     0
100
AcDbPoint
 10
-0.000000000000199
 20
-39.99999999999999
 30
0.0
  0
POINT
  5
3DF2
330
3A0D
100
AcDbEntity
  8
DEFPOINTS
 62
     0
100
AcDbPoint
 10
40.63520046574871
 20
-40.0
 30
0.0
  0
ENDBLK
  5
3A18
330
3A0D
100
AcDbEntity
  8
0
100
AcDbBlockEnd
  0
BLOCK
  5
3A23
330
3A19
100
AcDbEntity
  8
0
100
AcDbBlockBegin
  2
*D12
 70
     1
 10
0.0
 20
0.0
 30
0.0
  3
*D12
  1

  0
LINE
  5
3E34
330
3A19
100
AcDbEntity
  8
AM_5
100
AcDbLine
 10
-1.70000000000013
 20
10.0
 30
0.0
 11
31.63520046574868
 21
10.0
 31
0.0
  0
LINE
  5
3E35
330
3A19
100
AcDbEntity
  8
AM_5
100
AcDbLine
 10
-1.70000000000013
 20
-10.0
 30
0.0
 11
31.63520046574868
 21
-10.0
 31
0.0
  0
LINE
  5
3E36
330
3A19
100
AcDbEntity
  8
AM_5
100
AcDbLine
 10
30.63520046574868
 20
7.5
 30
0.0
 11
30.63520046574868
 21
-7.500000000000008
 31
0.0
  0
INSERT
  5
3E37
330
3A19
100
AcDbEntity
  8
AM_5
100
AcDbBlockReference
  2
_OPEN30
 10
30.63520046574868
 20
10.0
 30
0.0
 41
2.5
 42
2.5
 43
2.5
 50
90.0
  0
INSERT
  5
3E38
330
3A19
100
AcDbEntity
  8
AM_5
100
AcDbBlockReference
  2
_OPEN30
 10
30.63520046574868
 20
-10.0
 30
0.0
 41
2.5
 42
2.5
 43
2.5
 50
270.0
  0
MTEXT
  5
3E39
330
3A19
100
AcDbEntity
  8
AM_5
 62
     2
100
AcDbMText
 10
27.53520046574868
 20
0.0000000000000012
 30
0.0
 40
3.2
 41
0.0
 71
     5
 72
     1
  1
%%c20
  7
ASAMI
 11
0.0000000000000001
 21
1.0
 31
0.0
1001
ACAD
1000
MTEXTBEGIN
1070
    73
1070
     1
1070
    44
1040
1.0
1070
    74
1070
     0
1000
MTEXTEND
  0
POINT
  5
3E3A
330
3A19
100
AcDbEntity
  8
DEFPOINTS
 62
     0
100
AcDbPoint
 10
-2.70000000000013
 20
10.0
 30
0.0
  0
POINT
  5
3E3B
330
3A19
100
AcDbEntity
  8
DEFPOINTS
 62
     0
100
AcDbPoint
 10
-2.70000000000013
 20
-10.0
 30
0.0
  0
POINT
  5
3E3C
330
3A19
100
AcDbEntity
  8
DEFPOINTS
 62
     0
100
AcDbPoint
 10
30.63520046574868
 20
-10.0
 30
0.0
  0
ENDBLK
  5
3A24
330
3A19
100
AcDbEntity
  8
0
100
AcDbBlockEnd
  0
BLOCK
  5
3A2F
330
3A25
100
AcDbEntity
  8
0
100
AcDbBlockBegin
  2
*D13
 70
     1
 10
0.0
 20
0.0
 30
0.0
  3
*D13
  1

  0
LINE
  5
3E3D
330
3A25
100
AcDbEntity
  8
AM_5
100
AcDbLine
 10
-15.00000000000019
 20
6.499999999999925
 30
0.0
 11
21.63520046574868
 21
6.499999999999914
 31
0.0
  0
LINE
  5
3E3E
330
3A25
100
AcDbEntity
  8
AM_5
100
AcDbLine
 10
-15.00000000000014
 20
-6.499999999999904
 30
0.0
 11
21.63520046574868
 21
-6.499999999999914
 31
0.0
  0
LINE
  5
3E3F
330
3A25
100
AcDbEntity
  8
AM_5
100
AcDbLine
 10
20.63520046574868
 20
3.999999999999914
 30
0.0
 11
20.63520046574868
 21
-3.999999999999914
 31
0.0
  0
INSERT
  5
3E40
330
3A25
100
AcDbEntity
  8
AM_5
100
AcDbBlockReference
  2
_OPEN30
 10
20.63520046574868
 20
6.499999999999914
 30
0.0
 41
2.5
 42
2.5
 43
2.5
 50
90.0
  0
INSERT
  5
3E41
330
3A25
100
AcDbEntity
  8
AM_5
100
AcDbBlockReference
  2
_OPEN30
 10
20.63520046574868
 20
-6.499999999999914
 30
0.0
 41
2.5
 42
2.5
 43
2.5
 50
270.0
  0
MTEXT
  5
3E42
330
3A25
100
AcDbEntity
  8
AM_5
 62
     2
100
AcDbMText
 10
17.53520046574868
 20
0.0000000000000036
 30
0.0
 40
3.2
 41
0.0
 71
     5
 72
     1
  1
%%c13
  7
ASAMI
 11
0.0000000000000001
 21
1.0
 31
0.0
1001
ACAD
1000
MTEXTBEGIN
1070
    73
1070
     1
1070
    44
1040
1.0
1070
    74
1070
     0
1000
MTEXTEND
  0
POINT
  5
3E43
330
3A25
100
AcDbEntity
  8
DEFPOINTS
 62
     0
100
AcDbPoint
 10
-16.0000000000002
 20
6.499999999999925
 30
0.0
  0
POINT
  5
3E44
330
3A25
100
AcDbEntity
  8
DEFPOINTS
 62
     0
100
AcDbPoint
 10
-16.00000000000014
 20
-6.499999999999904
 30
0.0
  0
POINT
  5
3E45
330
3A25
100
AcDbEntity
  8
DEFPOINTS
 62
     0
100
AcDbPoint
 10
20.63520046574868
 20
-6.499999999999914
 30
0.0
  0
ENDBLK
  5
3A30
330
3A25
100
AcDbEntity
  8
0
100
AcDbBlockEnd
  0
BLOCK
  5
3B50
330
3B46
100
AcDbEntity
  8
0
100
AcDbBlockBegin
  2
*D14
 70
     1
 10
0.0
 20
0.0
 30
0.0
  3
*D14
  1

  0
LINE
  5
3F9D
330
3B46
100
AcDbEntity
  8
AM_5
100
AcDbLine
 10
-38.0393748773119
 20
50.24999999999996
 30
0.0
 11
-99.32409633116833
 21
50.24999999999998
 31
0.0
  0
LINE
  5
3F9E
330
3B46
100
AcDbEntity
  8
AM_5
100
AcDbLine
 10
-38.0393748773119
 20
-50.24999999999996
 30
0.0
 11
-99.32409633116836
 21
-50.24999999999995
 31
0.0
  0
LINE
  5
3F9F
330
3B46
100
AcDbEntity
  8
AM_5
100
AcDbLine
 10
-98.32409633116833
 20
47.74999999999998
 30
0.0
 11
-98.32409633116837
 21
-47.74999999999994
 31
0.0
  0
INSERT
  5
3FA0
330
3B46
100
AcDbEntity
  8
AM_5
100
AcDbBlockReference
  2
_OPEN30
 10
-98.32409633116833
 20
50.24999999999998
 30
0.0
 41
2.5
 42
2.5
 43
2.5
 50
90.0
  0
INSERT
  5
3FA1
330
3B46
100
AcDbEntity
  8
AM_5
100
AcDbBlockReference
  2
_OPEN30
 10
-98.32409633116837
 20
-50.24999999999995
 30
0.0
 41
2.5
 42
2.5
 43
2.5
 50
270.0
  0
MTEXT
  5
3FA2
330
3B46
100
AcDbEntity
  8
AM_5
 62
     2
100
AcDbMText
 10
-101.4240963311683
 20
0.0000000000000064
 30
0.0
 40
3.2
 41
0.0
 71
     5
 72
     1
  1
%%c100.5
  7
ASAMI
 11
0.0000000000000001
 21
1.0
 31
0.0
1001
ACAD
1000
MTEXTBEGIN
1070
    73
1070
     1
1070
    44
1040
1.0
1070
    74
1070
     0
1000
MTEXTEND
  0
POINT
  5
3FA3
330
3B46
100
AcDbEntity
  8
DEFPOINTS
 62
     0
100
AcDbPoint
 10
-37.0393748773119
 20
50.24999999999996
 30
0.0
  0
POINT
  5
3FA4
330
3B46
100
AcDbEntity
  8
DEFPOINTS
 62
     0
100
AcDbPoint
 10
-37.0393748773119
 20
-50.24999999999996
 30
0.0
  0
POINT
  5
3FA5
330
3B46
100
AcDbEntity
  8
DEFPOINTS
 62
     0
100
AcDbPoint
 10
-98.32409633116837
 20
-50.24999999999995
 30
0.0
  0
ENDBLK
  5
3B51
330
3B46
100
AcDbEntity
  8
0
100
AcDbBlockEnd
  0
BLOCK
  5
3DB0
330
3DA6
100
AcDbEntity
  8
0
100
AcDbBlockBegin
  2
*D15
 70
     1
 10
0.0
 20
0.0
 30
0.0
  3
*D15
  1

  0
LINE
  5
412D
330
3DA6
100
AcDbEntity
  8
AM_5
100
AcDbLine
 10
0.9999999999997477
 20
50.64999999999999
 30
0.0
 11
51.63520046574873
 21
50.64999999999997
 31
0.0
  0
LINE
  5
412E
330
3DA6
100
AcDbEntity
  8
AM_5
100
AcDbLine
 10
1.000000000000252
 20
-50.64999999999999
 30
0.0
 11
51.63520046574871
 21
-50.65000000000001
 31
0.0
  0
LINE
  5
412F
330
3DA6
100
AcDbEntity
  8
AM_5
100
AcDbLine
 10
50.63520046574874
 20
48.14999999999997
 30
0.0
 11
50.63520046574871
 21
-48.15000000000001
 31
0.0
  0
INSERT
  5
4130
330
3DA6
100
AcDbEntity
  8
AM_5
100
AcDbBlockReference
  2
_OPEN30
 10
50.63520046574874
 20
50.64999999999997
 30
0.0
 41
2.5
 42
2.5
 43
2.5
 50
90.0
  0
INSERT
  5
4131
330
3DA6
100
AcDbEntity
  8
AM_5
100
AcDbBlockReference
  2
_OPEN30
 10
50.63520046574871
 20
-50.65000000000001
 30
0.0
 41
2.5
 42
2.5
 43
2.5
 50
270.0
  0
MTEXT
  5
4132
330
3DA6
100
AcDbEntity
  8
AM_5
 62
     2
100
AcDbMText
 10
46.69710522765348
 20
-0.0000000000000026
 30
0.0
 40
3.2
 41
0.0
 71
     5
 72
     1
  1
(%%c101.30)
  7
ASAMI
 11
0.0000000000000001
 21
1.0
 31
0.0
1001
ACAD
1000
MTEXTBEGIN
1070
    73
1070
     1
1070
    44
1040
1.0
1070
    74
1070
     0
1000
MTEXTEND
  0
POINT
  5
4133
330
3DA6
100
AcDbEntity
  8
DEFPOINTS
 62
     0
100
AcDbPoint
 10
-0.0000000000002522
 20
50.64999999999999
 30
0.0
  0
POINT
  5
4134
330
3DA6
100
AcDbEntity
  8
DEFPOINTS
 62
     0
100
AcDbPoint
 10
0.0000000000002522
 20
-50.64999999999999
 30
0.0
  0
POINT
  5
4135
330
3DA6
100
AcDbEntity
  8
DEFPOINTS
 62
     0
100
AcDbPoint
 10
50.63520046574871
 20
-50.65000000000001
 30
0.0
  0
ENDBLK
  5
3DB1
330
3DA6
100
AcDbEntity
  8
0
100
AcDbBlockEnd
  0
ENDSEC
  0
SECTION
  2
ENTITIES
  0
TEXT
  5
E5A
330
1F
100
AcDbEntity
  8
AM_6
100
AcDbText
 10
-43.69047619047637
 20
-107.0944781008947
 30
0.0
 40
5.0
  1
GRC6080R
 72
     4
 11
-25.00000000000018
 21
-104.5944781008947
 31
0.0
100
AcDbText
  0
LINE
  5
2FA0
330
1F
100
AcDbEntity
  8
AM_7
100
AcDbLine
 10
-54.32409533116836
 20
0.0
 30
0.0
 11
6.635199465748684
 21
0.0
 31
0.0
  0
LINE
  5
2FA1
330
1F
100
AcDbEntity
  8
AM_0
100
AcDbLine
 10
-48.80000000000009
 20
4.75
 30
0.0
 11
-45.00000000000014
 21
4.75
 31
0.0
  0
LINE
  5
2FA2
330
1F
100
AcDbEntity
  8
AM_0
100
AcDbLine
 10
-48.30000000000009
 20
12.70000000000002
 30
0.0
 11
-30.00000000000014
 21
12.70000000000002
 31
0.0
  0
LINE
  5
2FA3
330
1F
100
AcDbEntity
  8
AM_0
100
AcDbLine
 10
-48.80000000000015
 20
30.0
 30
0.0
 11
-45.53465397595803
 21
29.99999999999997
 31
0.0
  0
LINE
  5
2FA4
330
1F
100
AcDbEntity
  8
AM_0
100
AcDbLine
 10
-50.00000000000014
 20
28.80000000000001
 30
0.0
 11
-50.00000000000003
 21
5.949999999999945
 31
0.0
  0
LINE
  5
2FA5
330
1F
100
AcDbEntity
  8
AM_3
100
AcDbLine
 10
-13.55439164642535
 20
49.68988091451881
 30
0.0
 11
-4.606999535956348
 21
47.6406545618889
 31
0.0
  0
LINE
  5
2FA6
330
1F
100
AcDbEntity
  8
AM_0
100
AcDbLine
 10
-38.97122652989004
 20
48.76763809020501
 30
0.0
 11
-43.6028023233799
 21
31.48236190979494
 31
0.0
  0
LINE
  5
2FA7
330
1F
100
AcDbEntity
  8
AM_0
100
AcDbLine
 10
-15.50000000000014
 20
10.0
 30
0.0
 11
-2.70000000000013
 21
10.0
 31
0.0
  0
LINE
  5
2FA8
330
1F
100
AcDbEntity
  8
AM_0
100
AcDbLine
 10
-25.00000000000014
 20
13.10000000000005
 30
0.0
 11
-25.00000000000014
 21
0.0
 31
0.0
  0
LINE
  5
2FA9
330
1F
100
AcDbEntity
  8
AM_0
100
AcDbLine
 10
-30.00000000000014
 20
13.10000000000005
 30
0.0
 11
-30.00000000000014
 21
0.0
 31
0.0
  0
LINE
  5
2FAA
330
1F
100
AcDbEntity
  8
AM_0
100
AcDbLine
 10
-15.50000000000014
 20
10.0
 30
0.0
 11
-15.50000000000014
 21
0.0
 31
0.0
  0
LINE
  5
2FAB
330
1F
100
AcDbEntity
  8
AM_0
100
AcDbLine
 10
-44.00000000000014
 20
3.75
 30
0.0
 11
-44.00000000000014
 21
0.0
 31
0.0
  0
LINE
  5
2FAC
330
1F
100
AcDbEntity
  8
AM_0
100
AcDbLine
 10
-25.00000000000014
 20
6.5
 30
0.0
 11
-16.00000000000014
 21
6.499999999999971
 31
0.0
  0
LINE
  5
2FAD
330
1F
100
AcDbEntity
  8
AM_0
100
AcDbLine
 10
-30.00000000000014
 20
13.10000000000005
 30
0.0
 11
-25.00000000000017
 21
13.10000000000002
 31
0.0
  0
LINE
  5
2FAE
330
1F
100
AcDbEntity
  8
AM_3
100
AcDbLine
 10
-1.500000000000142
 20
43.74160978512401
 30
0.0
 11
-1.500000000000141
 21
24.76264698945299
 31
0.0
  0
LINE
  5
2FAF
330
1F
100
AcDbEntity
  8
AM_0
100
AcDbLine
 10
-37.0393748773119
 20
50.24999999999996
 30
0.0
 11
-16.00000000000014
 21
50.24999999999997
 31
0.0
  0
ARC
  5
38E5
330
1F
100
AcDbEntity
  8
AM_0
100
AcDbCircle
 10
-45.00000000000014
 20
3.75
 30
0.0
 40
1.0
100
AcDbArc
 50
0.0
 51
90.0
1001
GENIUS_GENODEF_13
1002
{
1000
HIER
1070
     0
1002
}
1002
{
1000
MANEDIT
1070
     0
1002
}
1002
{
1000
NOSEL
1070
     0
1002
}
1002
{
1000
BEHIND
1070
     0
1002
}
1002
{
1000
REACTOR
1002
}
1001
GENIUS_GENOBJ-N-FIL_13
1002
{
1000
OWNER
1000
GEN
1002
}
  0
LINE
  5
38E8
330
1F
100
AcDbEntity
  8
AM_0
100
AcDbLine
 10
-50.00000000000008
 20
5.950000000000002
 30
0.0
 11
-48.80000000000009
 21
4.75
 31
0.0
1001
GENIUS_GENFIL_13
1070
     0
1040
1.199999999999999
1040
1.199999999999999
1040
20.0
1040
0.0
1002
{
1002
}
1001
GENIUS_GENODEF_13
1002
{
1000
HIER
1070
     0
1002
}
1002
{
1000
MANEDIT
1070
     0
1002
}
1002
{
1000
NOSEL
1070
     0
1002
}
1002
{
1000
BEHIND
1070
     0
1002
}
1002
{
1000
REACTOR
1002
}
1001
GENIUS_GENOBJ-N-CHA_13
1002
{
1000
OWNER
1000
GEN
1002
}
  0
LINE
  5
38EB
330
1F
100
AcDbEntity
  8
AM_0
100
AcDbLine
 10
-50.00000000000003
 20
14.40000000000002
 30
0.0
 11
-48.30000000000009
 21
12.70000000000002
 31
0.0
1001
GENIUS_GENFIL_13
1070
     0
1040
1.7
1040
1.7
1040
20.0
1040
0.0
1002
{
1002
}
1001
GENIUS_GENODEF_13
1002
{
1000
HIER
1070
     0
1002
}
1002
{
1000
MANEDIT
1070
     0
1002
}
1002
{
1000
NOSEL
1070
     0
1002
}
1002
{
1000
BEHIND
1070
     0
1002
}
1002
{
1000
REACTOR
1002
}
1001
GENIUS_GENOBJ-N-CHA_13
1002
{
1000
OWNER
1000
GEN
1002
}
  0
LINE
  5
38EF
330
1F
100
AcDbEntity
  8
AM_0
100
AcDbLine
 10
-48.80000000000015
 20
30.0
 30
0.0
 11
-50.00000000000014
 21
28.80000000000001
 31
0.0
1001
GENIUS_GENFIL_13
1070
     0
1040
1.199999999999999
1040
1.199999999999999
1040
20.0
1040
0.0
1002
{
1002
}
1001
GENIUS_GENODEF_13
1002
{
1000
HIER
1070
     0
1002
}
1002
{
1000
MANEDIT
1070
     0
1002
}
1002
{
1000
NOSEL
1070
     0
1002
}
1002
{
1000
BEHIND
1070
     0
1002
}
1002
{
1000
REACTOR
1002
}
1001
GENIUS_GENOBJ-N-CHA_13
1002
{
1000
OWNER
1000
GEN
1002
}
  0
ARC
  5
38F7
330
1F
100
AcDbEntity
  8
AM_0
100
AcDbCircle
 10
-45.53465397595803
 20
31.99999999999997
 30
0.0
 40
2.0
100
AcDbArc
 50
269.9999999999997
 51
345.0
1001
GENIUS_GENODEF_13
1002
{
1000
HIER
1070
     0
1002
}
1002
{
1000
MANEDIT
1070
     0
1002
}
1002
{
1000
NOSEL
1070
     0
1002
}
1002
{
1000
BEHIND
1070
     0
1002
}
1002
{
1000
REACTOR
1002
}
1001
GENIUS_GENOBJ-N-FIL_13
1002
{
1000
OWNER
1000
GEN
1002
}
  0
LINE
  5
3900
330
1F
100
AcDbEntity
  8
AM_0
100
AcDbLine
 10
-15.50000000000014
 20
6.999999999999971
 30
0.0
 11
-16.00000000000014
 21
6.499999999999971
 31
0.0
1001
GENIUS_GENFIL_13
1070
     0
1040
0.5
1040
0.5
1040
20.0
1040
0.0
1002
{
1002
}
1001
GENIUS_GENODEF_13
1002
{
1000
HIER
1070
     0
1002
}
1002
{
1000
MANEDIT
1070
     0
1002
}
1002
{
1000
NOSEL
1070
     0
1002
}
1002
{
1000
BEHIND
1070
     0
1002
}
1002
{
1000
REACTOR
1002
}
1001
GENIUS_GENOBJ-N-CHA_13
1002
{
1000
OWNER
1000
GEN
1002
}
  0
LINE
  5
3903
330
1F
100
AcDbEntity
  8
AM_0
100
AcDbLine
 10
-1.500000000000142
 20
11.2
 30
0.0
 11
-2.70000000000013
 21
10.0
 31
0.0
1001
GENIUS_GENFIL_13
1070
     0
1040
1.199999999999999
1040
1.199999999999999
1040
20.0
1040
0.0
1002
{
1002
}
1001
GENIUS_GENODEF_13
1002
{
1000
HIER
1070
     0
1002
}
1002
{
1000
MANEDIT
1070
     0
1002
}
1002
{
1000
NOSEL
1070
     0
1002
}
1002
{
1000
BEHIND
1070
     0
1002
}
1002
{
1000
REACTOR
1002
}
1001
GENIUS_GENOBJ-N-CHA_13
1002
{
1000
OWNER
1000
GEN
1002
}
  0
LINE
  5
3904
330
1F
100
AcDbEntity
  8
AM_0
100
AcDbLine
 10
-2.70000000000013
 20
10.0
 30
0.0
 11
-2.70000000000013
 21
0.0
 31
0.0
  0
LINE
  5
3905
330
1F
100
AcDbEntity
  8
AM_0
100
AcDbLine
 10
-16.00000000000014
 20
6.499999999999971
 30
0.0
 11
-16.00000000000014
 21
0.0
 31
0.0
  0
LINE
  5
3906
330
1F
100
AcDbEntity
  8
AM_0
100
AcDbLine
 10
-48.30000000000009
 20
12.70000000000002
 30
0.0
 11
-48.30000000000009
 21
4.75
 31
0.0
  0
LINE
  5
3909
330
1F
100
AcDbEntity
  8
AM_0
100
AcDbLine
 10
-48.30000000000009
 20
-12.70000000000002
 30
0.0
 11
-30.00000000000014
 21
-12.70000000000002
 31
0.0
  0
LINE
  5
390A
330
1F
100
AcDbEntity
  8
AM_0
100
AcDbLine
 10
-48.80000000000009
 20
-4.75
 30
0.0
 11
-45.00000000000014
 21
-4.75
 31
0.0
  0
LINE
  5
390B
330
1F
100
AcDbEntity
  8
AM_0
100
AcDbLine
 10
-50.00000000000014
 20
-28.79999999999999
 30
0.0
 11
-50.00000000000003
 21
-5.949999999999945
 31
0.0
  0
LINE
  5
390C
330
1F
100
AcDbEntity
  8
AM_0
100
AcDbLine
 10
-48.30000000000009
 20
-12.70000000000002
 30
0.0
 11
-48.30000000000009
 21
-4.75
 31
0.0
  0
LINE
  5
390D
330
1F
100
AcDbEntity
  8
AM_0
100
AcDbLine
 10
-50.00000000000008
 20
-5.950000000000002
 30
0.0
 11
-48.80000000000009
 21
-4.75
 31
0.0
1001
GENIUS_GENFIL_13
1070
     0
1040
1.199999999999999
1040
1.199999999999999
1040
20.0
1040
0.0
1002
{
1002
}
1001
GENIUS_GENODEF_13
1002
{
1000
HIER
1070
     0
1002
}
1002
{
1000
MANEDIT
1070
     0
1002
}
1002
{
1000
NOSEL
1070
     0
1002
}
1002
{
1000
BEHIND
1070
     0
1002
}
1002
{
1000
REACTOR
1002
}
1001
GENIUS_GENOBJ-N-CHA_13
1002
{
1000
OWNER
1000
GEN
1002
}
  0
LINE
  5
390E
330
1F
100
AcDbEntity
  8
AM_0
100
AcDbLine
 10
-50.00000000000003
 20
-14.40000000000002
 30
0.0
 11
-48.30000000000009
 21
-12.70000000000002
 31
0.0
1001
GENIUS_GENFIL_13
1070
     0
1040
1.7
1040
1.7
1040
20.0
1040
0.0
1002
{
1002
}
1001
GENIUS_GENODEF_13
1002
{
1000
HIER
1070
     0
1002
}
1002
{
1000
MANEDIT
1070
     0
1002
}
1002
{
1000
NOSEL
1070
     0
1002
}
1002
{
1000
BEHIND
1070
     0
1002
}
1002
{
1000
REACTOR
1002
}
1001
GENIUS_GENOBJ-N-CHA_13
1002
{
1000
OWNER
1000
GEN
1002
}
  0
LINE
  5
390F
330
1F
100
AcDbEntity
  8
AM_0
100
AcDbLine
 10
-48.80000000000015
 20
-30.0
 30
0.0
 11
-45.53465397595803
 21
-29.99999999999997
 31
0.0
  0
LINE
  5
3910
330
1F
100
AcDbEntity
  8
AM_0
100
AcDbLine
 10
-48.80000000000015
 20
-30.0
 30
0.0
 11
-50.00000000000014
 21
-28.79999999999999
 31
0.0
1001
GENIUS_GENFIL_13
1070
     0
1040
1.199999999999999
1040
1.199999999999999
1040
20.0
1040
0.0
1002
{
1002
}
1001
GENIUS_GENODEF_13
1002
{
1000
HIER
1070
     0
1002
}
1002
{
1000
MANEDIT
1070
     0
1002
}
1002
{
1000
NOSEL
1070
     0
1002
}
1002
{
1000
BEHIND
1070
     0
1002
}
1002
{
1000
REACTOR
1002
}
1001
GENIUS_GENOBJ-N-CHA_13
1002
{
1000
OWNER
1000
GEN
1002
}
  0
LINE
  5
3913
330
1F
100
AcDbEntity
  8
AM_0
100
AcDbLine
 10
-25.00000000000014
 20
-6.5
 30
0.0
 11
-16.00000000000014
 21
-6.499999999999971
 31
0.0
  0
LINE
  5
3914
330
1F
100
AcDbEntity
  8
AM_0
100
AcDbLine
 10
-44.00000000000014
 20
-3.75
 30
0.0
 11
-44.00000000000014
 21
0.0
 31
0.0
  0
ARC
  5
3915
330
1F
100
AcDbEntity
  8
AM_0
100
AcDbCircle
 10
-45.00000000000014
 20
-3.75
 30
0.0
 40
1.0
100
AcDbArc
 50
270.0
 51
0.0
1001
GENIUS_GENODEF_13
1002
{
1000
HIER
1070
     0
1002
}
1002
{
1000
MANEDIT
1070
     0
1002
}
1002
{
1000
NOSEL
1070
     0
1002
}
1002
{
1000
BEHIND
1070
     0
1002
}
1002
{
1000
REACTOR
1002
}
1001
GENIUS_GENOBJ-N-FIL_13
1002
{
1000
OWNER
1000
GEN
1002
}
  0
LINE
  5
3916
330
1F
100
AcDbEntity
  8
AM_0
100
AcDbLine
 10
-30.00000000000014
 20
-13.10000000000005
 30
0.0
 11
-30.00000000000014
 21
0.0
 31
0.0
  0
LINE
  5
3917
330
1F
100
AcDbEntity
  8
AM_0
100
AcDbLine
 10
-25.00000000000014
 20
-13.10000000000005
 30
0.0
 11
-25.00000000000014
 21
0.0
 31
0.0
  0
LINE
  5
3918
330
1F
100
AcDbEntity
  8
AM_0
100
AcDbLine
 10
-30.00000000000014
 20
-13.10000000000005
 30
0.0
 11
-25.00000000000017
 21
-13.10000000000002
 31
0.0
  0
LINE
  5
3919
330
1F
100
AcDbEntity
  8
AM_0
100
AcDbLine
 10
-1.500000000000141
 20
-24.762646989453
 30
0.0
 11
-1.500000000000142
 21
0.0
 31
0.0
  0
LINE
  5
391A
330
1F
100
AcDbEntity
  8
AM_0
100
AcDbLine
 10
-15.50000000000014
 20
-10.0
 30
0.0
 11
-2.70000000000013
 21
-10.0
 31
0.0
  0
LINE
  5
391B
330
1F
100
AcDbEntity
  8
AM_0
100
AcDbLine
 10
-16.00000000000014
 20
-6.499999999999971
 30
0.0
 11
-16.00000000000014
 21
0.0
 31
0.0
  0
LINE
  5
391C
330
1F
100
AcDbEntity
  8
AM_0
100
AcDbLine
 10
-15.50000000000014
 20
-10.0
 30
0.0
 11
-15.50000000000014
 21
0.0
 31
0.0
  0
LINE
  5
391D
330
1F
100
AcDbEntity
  8
AM_0
100
AcDbLine
 10
-15.50000000000014
 20
-6.999999999999971
 30
0.0
 11
-16.00000000000014
 21
-6.499999999999971
 31
0.0
1001
GENIUS_GENFIL_13
1070
     0
1040
0.5
1040
0.5
1040
20.0
1040
0.0
1002
{
1002
}
1001
GENIUS_GENODEF_13
1002
{
1000
HIER
1070
     0
1002
}
1002
{
1000
MANEDIT
1070
     0
1002
}
1002
{
1000
NOSEL
1070
     0
1002
}
1002
{
1000
BEHIND
1070
     0
1002
}
1002
{
1000
REACTOR
1002
}
1001
GENIUS_GENOBJ-N-CHA_13
1002
{
1000
OWNER
1000
GEN
1002
}
  0
LINE
  5
391E
330
1F
100
AcDbEntity
  8
AM_0
100
AcDbLine
 10
-2.70000000000013
 20
-10.0
 30
0.0
 11
-2.70000000000013
 21
0.0
 31
0.0
  0
LINE
  5
391F
330
1F
100
AcDbEntity
  8
AM_0
100
AcDbLine
 10
-1.500000000000142
 20
-11.2
 30
0.0
 11
-2.70000000000013
 21
-10.0
 31
0.0
1001
GENIUS_GENFIL_13
1070
     0
1040
1.199999999999999
1040
1.199999999999999
1040
20.0
1040
0.0
1002
{
1002
}
1001
GENIUS_GENODEF_13
1002
{
1000
HIER
1070
     0
1002
}
1002
{
1000
MANEDIT
1070
     0
1002
}
1002
{
1000
NOSEL
1070
     0
1002
}
1002
{
1000
BEHIND
1070
     0
1002
}
1002
{
1000
REACTOR
1002
}
1001
GENIUS_GENOBJ-N-CHA_13
1002
{
1000
OWNER
1000
GEN
1002
}
  0
DIMENSION
  5
3926
330
1F
100
AcDbEntity
  8
AM_5
100
AcDbDimension
  2
*D6
 10
-78.32409633116836
 20
-12.70000000000001
 30
0.0
 11
-81.42409633116836
 21
-0.0000000000000046
 31
0.0
 70
    32
  1
%%c<>
  3
AM_JIS
100
AcDbAlignedDimension
 13
-48.30000000000009
 23
12.70000000000002
 33
0.0
 14
-48.30000000000009
 24
-12.70000000000002
 34
0.0
 50
90.0
100
AcDbRotatedDimension
1001
GENIUS_GENDTOL_13
1000

1000
h7
1000

1040
0.0
  0
DIMENSION
  5
3927
330
1F
100
AcDbEntity
  8
AM_5
100
AcDbDimension
  2
*D5
 10
-88.32409633116837
 20
-29.99999999999998
 30
0.0
 11
-91.42409633116836
 21
-0.0000000000000013
 31
0.0
 70
    32
  1
%%c<>
  3
AM_JIS
100
AcDbAlignedDimension
 13
-48.80000000000015
 23
29.99999999999999
 33
0.0
 14
-48.80000000000015
 24
-29.99999999999999
 34
0.0
 50
90.0
100
AcDbRotatedDimension
1001
GENIUS_GENDTOL_13
1000

1000
h7
1000

1040
0.0
  0
DIMENSION
  5
3928
330
1F
100
AcDbEntity
  8
AM_5
100
AcDbDimension
  2
*D7
 10
-68.32409633116836
 20
-4.749999999999994
 30
0.0
 11
-68.32409633116836
 21
-0.0000000000000047
 31
0.0
 70
   160
  3
AM_JIS
100
AcDbAlignedDimension
 13
-48.80000000000009
 23
4.750000000000001
 33
0.0
 14
-48.80000000000009
 24
-4.75
 34
0.0
 50
90.0
100
AcDbRotatedDimension
  0
DIMENSION
  5
39B0
330
1F
100
AcDbEntity
  8
AM_5
100
AcDbDimension
  2
*D9
 10
-25.00000000000014
 20
-74.59447810089478
 30
0.0
 11
-37.50000000000014
 21
-71.49447810089478
 31
0.0
 70
    32
  3
AM_JIS
100
AcDbAlignedDimension
 13
-50.00000000000014
 23
-28.79999999999999
 33
0.0
 14
-25.00000000000014
 24
-12.99999999999998
 34
0.0
100
AcDbRotatedDimension
  0
DIMENSION
  5
39B1
330
1F
100
AcDbEntity
  8
AM_5
100
AcDbDimension
  2
*D8
 10
-0.0000000000002537
 20
-84.59447810089477
 30
0.0
 11
-25.00000000000019
 21
-81.49447810089478
 31
0.0
 70
    32
  3
AM_JIS
100
AcDbAlignedDimension
 13
-50.00000000000014
 23
-28.79999999999999
 33
0.0
 14
-0.0000000000002516
 24
-50.59447709089487
 34
0.0
100
AcDbRotatedDimension
  0
DIMENSION
  5
39B2
330
1F
100
AcDbEntity
  8
AM_5
100
AcDbDimension
  2
*D10
 10
-44.00000000000015
 20
-64.59447810089478
 30
0.0
 11
-47.00000000000014
 21
-61.49447810089477
 31
0.0
 70
    32
  3
AM_JIS
100
AcDbAlignedDimension
 13
-50.00000000000014
 23
-28.79999999999999
 33
0.0
 14
-44.00000000000014
 24
-3.75
 34
0.0
100
AcDbRotatedDimension
  0
DIMENSION
  5
3A0A
330
1F
100
AcDbEntity
  8
AM_5
100
AcDbDimension
  2
*D11
 10
40.63520046574871
 20
-40.0
 30
0.0
 11
37.53520046574871
 21
-0.0000000000000021
 31
0.0
 70
    32
  1
%%c<>
  3
AM_JIS
100
AcDbAlignedDimension
 13
-0.000000000000199
 23
39.99999999999999
 33
0.0
 14
-0.000000000000199
 24
-39.99999999999999
 34
0.0
 50
90.0
100
AcDbRotatedDimension
1001
GENIUS_GENDTOL_13
1000

1000
h7
1000

1040
0.0
  0
DIMENSION
  5
3A0B
330
1F
100
AcDbEntity
  8
AM_5
100
AcDbDimension
  2
*D12
 10
30.63520046574868
 20
-10.0
 30
0.0
 11
27.53520046574868
 21
0.0000000000000012
 31
0.0
 70
    32
  1
%%c<>
  3
AM_JIS
100
AcDbAlignedDimension
 13
-2.70000000000013
 23
10.0
 33
0.0
 14
-2.70000000000013
 24
-10.0
 34
0.0
 50
90.0
100
AcDbRotatedDimension
1001
GENIUS_GENDTOL_13
1000

1000
h7
1000

1040
0.0
  0
DIMENSION
  5
3A0C
330
1F
100
AcDbEntity
  8
AM_5
100
AcDbDimension
  2
*D13
 10
20.63520046574868
 20
-6.499999999999914
 30
0.0
 11
17.53520046574868
 21
0.0000000000000036
 31
0.0
 70
    32
  1
%%c<>
  3
AM_JIS
100
AcDbAlignedDimension
 13
-16.0000000000002
 23
6.499999999999925
 33
0.0
 14
-16.00000000000014
 24
-6.499999999999904
 34
0.0
 50
90.0
100
AcDbRotatedDimension
1001
GENIUS_GENDTOL_13
1000

1000
h7
1000

1040
0.0
  0
DIMENSION
  5
3B45
330
1F
100
AcDbEntity
  8
AM_5
100
AcDbDimension
  2
*D14
 10
-98.32409633116837
 20
-50.24999999999995
 30
0.0
 11
-101.4240963311683
 21
0.0000000000000064
 31
0.0
 70
    32
  1
%%c<>
  3
AM_JIS
100
AcDbAlignedDimension
 13
-37.0393748773119
 23
50.24999999999996
 33
0.0
 14
-37.0393748773119
 24
-50.24999999999996
 34
0.0
 50
90.0
100
AcDbRotatedDimension
1001
GENIUS_GENDTOL_13
1000

1000
h7
1000

1040
0.0
  0
LINE
  5
3D80
330
1F
100
AcDbEntity
  8
AM_11
100
AcDbLine
 10
-0.0000000000002522
 20
50.64999999999999
 30
0.0
 11
0.0000000000002522
 21
-50.64999999999999
 31
0.0
  0
DIMENSION
  5
3DA5
330
1F
100
AcDbEntity
  8
AM_5
100
AcDbDimension
  2
*D15
 10
50.63520046574871
 20
-50.65000000000001
 30
0.0
 11
46.69710522765348
 21
-0.0000000000000026
 31
0.0
 70
    32
  1
(%%c<>0)
  3
AM_JIS
100
AcDbAlignedDimension
 13
-0.0000000000002522
 23
50.64999999999999
 33
0.0
 14
0.0000000000002522
 24
-50.64999999999999
 34
0.0
 50
90.0
100
AcDbRotatedDimension
1001
ACAD
1000
DSTYLE
1002
{
1070
   271
1070
     2
1002
}
1001
GENIUS_GENDTOL_13
1000

1000
h7
1000

1040
0.0
  0
LINE
  5
3ECF
330
1F
100
AcDbEntity
  8
0
100
AcDbLine
 10
-21.52797427178731
 20
30.82758968781073
 30
0.0
 11
-1.504902271787358
 21
16.73185268781075
 31
0.0
  0
LINE
  5
3ED0
330
1F
100
AcDbEntity
  8
0
100
AcDbLine
 10
-21.67201027178734
 20
26.24435768781078
 30
0.0
 11
-14.17466827178734
 21
25.65104768781069
 31
0.0
  0
LINE
  5
3ED1
330
1F
100
AcDbEntity
  8
0
100
AcDbLine
 10
-17.43855627178729
 20
39.27718768781077
 30
0.0
 11
-21.52797427178731
 21
30.82758968781073
 31
0.0
  0
LINE
  5
3ED2
330
1F
100
AcDbEntity
  8
0
100
AcDbLine
 10
-21.17674227178733
 20
26.99914168781075
 30
0.0
 11
-15.44536027178739
 21
26.54558268781071
 31
0.0
  0
LINE
  5
3ED3
330
1F
100
AcDbEntity
  8
0
100
AcDbLine
 10
-21.1121802717873
 20
48.65980368781076
 30
0.0
 11
-15.5409532717874
 21
48.67678368781074
 31
0.0
  0
LINE
  5
3ED4
330
1F
100
AcDbEntity
  8
0
100
AcDbLine
 10
-21.1121802717873
 20
48.65980368781076
 30
0.0
 11
-16.53594027178732
 21
48.2976576878107
 31
0.0
  0
SPLINE
  5
3ED5
330
1F
100
AcDbEntity
  8
0
100
AcDbSpline
210
0.0
220
0.0
230
1.0
 70
     8
 71
     3
 72
    11
 73
     7
 74
     5
 42
0.0000000001
 43
0.0000000001
 44
0.0000000001
 40
0.0
 40
0.0
 40
0.0
 40
0.0
 40
0.3226455887579409
 40
0.7179142747387381
 40
1.248862075917951
 40
1.930451242437631
 40
1.930451242437631
 40
1.930451242437631
 40
1.930451242437631
 10
-19.86823627178736
 20
42.1863006878107
 30
0.0
 10
-19.89439592185833
 20
42.07855932526554
 30
0.0
 10
-19.95260340047415
 20
41.83882549704637
 30
0.0
 10
-19.73917166891056
 20
41.45035196471836
 30
0.0
 10
-19.39283279005404
 20
41.04901973516531
 30
0.0
 10
-19.08526227406227
 20
40.78398471264548
 30
0.0
 10
-18.91237127178735
 20
40.63500368781073
 30
0.0
 11
-19.86823627178736
 21
42.1863006878107
 31
0.0
 11
-19.91017727178731
 21
41.86639268781076
 31
0.0
 11
-19.75485127178737
 21
41.50292168781076
 31
0.0
 11
-19.41639027178732
 21
41.09383768781075
 31
0.0
 11
-18.91237127178735
 21
40.63500368781073
 31
0.0
  0
ELLIPSE
  5
3ED6
330
1F
100
AcDbEntity
  8
AM_0
100
AcDbEllipse
 10
-12.99391827178735
 20
54.65988868781077
 30
0.0
 11
8.634621024814
 21
12.26553381463
 31
0.0
210
0.0
220
0.0
230
1.0
 40
0.26685473333333
 41
3.582944421059309
 42
4.115060304102669
  0
ELLIPSE
  5
3ED7
330
1F
100
AcDbEntity
  8
AM_0
100
AcDbEllipse
 10
-15.00155827178739
 20
40.76448368781078
 30
0.0
 11
-4.500608235856998
 21
2.178193174936
 31
0.0
210
0.0
220
0.0
230
1.0
 40
0.504806
 41
0.805486963134504
 42
1.25651358234124
  0
ELLIPSE
  5
3ED8
330
1F
100
AcDbEntity
  8
AM_0
100
AcDbEllipse
 10
-19.4225212717873
 20
31.6298436878108
 30
0.0
 11
-4.382070057823
 21
2.420956911830999
 31
0.0
210
0.0
220
0.0
230
1.0
 40
0.35913708042561
 41
0.019405509230591
 42
1.275919727251189
  0
LINE
  5
3ED9
330
1F
100
AcDbEntity
  8
0
100
AcDbLine
 10
-22.91018027178731
 20
26.81941768781079
 30
0.0
 11
-22.91018027178731
 21
31.98543368781069
 31
0.0
  0
LINE
  5
3EDA
330
1F
100
AcDbEntity
  8
0
100
AcDbLine
 10
-21.17674227178733
 20
30.58033168781074
 30
0.0
 11
-21.17674227178733
 21
26.99914168781075
 31
0.0
  0
LINE
  5
3EDB
330
1F
100
AcDbEntity
  8
0
100
AcDbLine
 10
-21.67201027178734
 20
26.24435768781078
 30
0.0
 11
-22.91018027178731
 21
26.81941768781079
 31
0.0
  0
LINE
  5
3EDC
330
1F
100
AcDbEntity
  8
0
100
AcDbLine
 10
-21.17674227178733
 20
26.99914168781075
 30
0.0
 11
-21.67201027178734
 21
26.24435768781078
 31
0.0
  0
LINE
  5
3EDD
330
1F
100
AcDbEntity
  8
0
100
AcDbLine
 10
-19.86816327178732
 20
42.18645068781078
 30
0.0
 11
-23.82063727178737
 21
34.01980768781076
 31
0.0
  0
LINE
  5
3EDE
330
1F
100
AcDbEntity
  8
0
100
AcDbLine
 10
-22.91018027178731
 20
35.90100268781069
 30
0.0
 11
-22.91018027178731
 21
47.57601068781074
 31
0.0
  0
LINE
  5
3EDF
330
1F
100
AcDbEntity
  8
0
100
AcDbLine
 10
-21.17674227178733
 20
48.65259168781078
 30
0.0
 11
-21.17674227178733
 21
39.48265068781078
 31
0.0
  0
SPLINE
  5
3EE0
330
1F
100
AcDbEntity
  8
0
100
AcDbSpline
210
0.0
220
0.0
230
1.0
 70
     8
 71
     3
 72
    11
 73
     7
 74
     5
 42
0.0000000001
 43
0.0000000001
 44
0.0000000001
 40
0.0
 40
0.0
 40
0.0
 40
0.0
 40
0.1840746892459088
 40
0.347223406264993
 40
0.4922368509692649
 40
0.6237974334019397
 40
0.6237974334019397
 40
0.6237974334019397
 40
0.6237974334019397
 10
-19.40297927178741
 20
42.5854386878107
 30
0.0
 10
-19.45775930129795
 20
42.55756842967081
 30
0.0
 10
-19.56109185896717
 20
42.50499625907822
 30
0.0
 10
-19.69395503222307
 20
42.40797462547019
 30
0.0
 10
-19.79991262458162
 20
42.30458833248194
 30
0.0
 10
-19.84621241345839
 20
42.22443024375292
 30
0.0
 10
-19.86823627178736
 20
42.1863006878107
 30
0.0
 11
-19.40297927178741
 21
42.5854386878107
 31
0.0
 11
-19.56461827178733
 21
42.49736868781068
 31
0.0
 11
-19.69634927178728
 21
42.40111668781074
 31
0.0
 11
-19.79756127178731
 21
42.29726568781078
 31
0.0
 11
-19.86823627178736
 21
42.1863006878107
 31
0.0
  0
LINE
  5
3EE1
330
1F
100
AcDbEntity
  8
0
100
AcDbLine
 10
-22.91018027178731
 20
47.57601068781074
 30
0.0
 11
-21.17674227178733
 21
48.65259168781078
 31
0.0
  0
LINE
  5
3EE2
330
1F
100
AcDbEntity
  8
0
100
AcDbLine
 10
-21.17674227178733
 20
48.65259168781078
 30
0.0
 11
-21.1121802717873
 21
48.65980368781076
 31
0.0
  0
LINE
  5
3EE3
330
1F
100
AcDbEntity
  8
0
100
AcDbLine
 10
-0.9883112717872961
 20
35.61468968781074
 30
0.0
 11
-1.136867271787394
 21
32.82174168781072
 31
0.0
  0
LINE
  5
3EE4
330
1F
100
AcDbEntity
  8
0
100
AcDbLine
 10
-1.134752271787391
 20
35.32740268781075
 30
0.0
 11
-1.345067271787428
 21
32.74240968781081
 31
0.0
  0
LINE
  5
3EE5
330
1F
100
AcDbEntity
  8
0
100
AcDbLine
 10
-1.504902271787358
 20
28.38058568781074
 30
0.0
 11
-18.91237127178735
 21
40.63500368781073
 31
0.0
  0
LINE
  5
3EE6
330
1F
100
AcDbEntity
  8
0
100
AcDbLine
 10
-17.43855627178729
 20
39.27718768781077
 30
0.0
 11
-1.504902271787358
 21
28.06029768781074
 31
0.0
  0
LINE
  5
3EE7
330
1F
100
AcDbEntity
  8
0
100
AcDbLine
 10
-1.504902271787358
 20
36.25455068781074
 30
0.0
 11
-1.504902271787358
 21
28.38058568781074
 31
0.0
  0
SPLINE
  5
3EE8
330
1F
100
AcDbEntity
  8
0
100
AcDbSpline
210
0.0
220
0.0
230
1.0
 70
     8
 71
     3
 72
    11
 73
     7
 74
     5
 42
0.0000000001
 43
0.0000000001
 44
0.0000000001
 40
0.0
 40
0.0
 40
0.0
 40
0.0
 40
1.60375044924891
 40
4.417982561719052
 40
7.315827424289766
 40
8.754123095884803
 40
8.754123095884803
 40
8.754123095884803
 40
8.754123095884803
 10
-7.953959271787397
 20
35.22917168781081
 30
0.0
 10
-8.471448650198432
 20
35.00203831200676
 30
0.0
 10
-9.897018975535219
 20
34.37633542041496
 30
0.0
 10
-12.04541286120734
 20
36.08958158171101
 30
0.0
 10
-14.27428178434652
 20
37.11126227594831
 30
0.0
 10
-14.85821268177788
 20
38.47485924670884
 30
0.0
 10
-15.05190227178738
 20
38.92716368781069
 30
0.0
 11
-7.953959271787397
 21
35.22917168781081
 31
0.0
 11
-9.489538271787381
 21
34.76655668781067
 31
0.0
 11
-12.04588527178734
 21
35.94341368781082
 31
0.0
 11
-14.38636727178729
 21
37.65211168781073
 31
0.0
 11
-15.05190227178738
 21
38.92716368781069
 31
0.0
  0
LINE
  5
3EE9
330
1F
100
AcDbEntity
  8
0
100
AcDbLine
 10
-1.504902271787358
 20
28.06029768781074
 30
0.0
 11
-1.504902271787358
 21
16.73185268781075
 31
0.0
  0
LINE
  5
3EEA
330
1F
100
AcDbEntity
  8
0
100
AcDbLine
 10
-1.136867271787394
 20
32.82174168781072
 30
0.0
 11
-1.473731271787272
 21
25.13407168781081
 31
0.0
  0
LINE
  5
3EEB
330
1F
100
AcDbEntity
  8
0
100
AcDbLine
 10
-1.504902271787358
 20
24.69333168781069
 30
0.0
 11
-1.473731271787272
 21
25.13407168781081
 31
0.0
  0
LINE
  5
3EEC
330
1F
100
AcDbEntity
  8
0
100
AcDbLine
 10
-1.504902271787358
 20
25.17605368781077
 30
0.0
 11
-1.473731271787272
 21
25.13407168781081
 31
0.0
  0
LINE
  5
3EED
330
1F
100
AcDbEntity
  8
0
100
AcDbLine
 10
-1.504902271787358
 20
28.38058568781074
 30
0.0
 11
-1.504902271787358
 21
28.06029768781074
 31
0.0
  0
LINE
  5
3EEE
330
1F
100
AcDbEntity
  8
0
100
AcDbLine
 10
-1.136867271787394
 20
32.82174168781072
 30
0.0
 11
-1.345067271787428
 21
32.74240968781081
 31
0.0
  0
LINE
  5
3EEF
330
1F
100
AcDbEntity
  8
0
100
AcDbLine
 10
-1.504902271787358
 20
32.7550586878107
 30
0.0
 11
-1.345067271787428
 21
32.74240968781081
 31
0.0
  0
LINE
  5
3EF0
330
1F
100
AcDbEntity
  8
0
100
AcDbLine
 10
-1.345067271787428
 20
32.74240968781081
 30
0.0
 11
-1.504902271787358
 21
32.68150668781076
 31
0.0
  0
ELLIPSE
  5
3EF1
330
1F
100
AcDbEntity
  8
AM_0
100
AcDbEllipse
 10
-9.099612271787322
 20
40.72010668781073
 30
0.0
 11
-3.560632795107999
 21
9.344618456544999
 31
0.0
210
0.0
220
0.0
230
1.0
 40
0.8961368999999999
 41
3.726994524603959
 42
7.24874404242889
  0
LINE
  5
3EF2
330
1F
100
AcDbEntity
  8
0
100
AcDbLine
 10
-14.94902827178734
 20
45.97510568781073
 30
0.0
 11
-1.504902271787358
 21
36.5107806878107
 31
0.0
  0
LINE
  5
3EF3
330
1F
100
AcDbEntity
  8
0
100
AcDbLine
 10
-15.14398827178726
 20
45.85612268781077
 30
0.0
 11
-1.504902271787358
 21
36.25455068781074
 31
0.0
  0
SPLINE
  5
3EF4
330
1F
100
AcDbEntity
  8
0
100
AcDbSpline
210
0.0
220
0.0
230
1.0
 70
     8
 71
     3
 72
    11
 73
     7
 74
     5
 42
0.0000000001
 43
0.0000000001
 44
0.0000000001
 40
0.0
 40
0.0
 40
0.0
 40
0.0
 40
1.989152561375067
 40
3.932154703795412
 40
5.547989454283595
 40
6.690485118493207
 40
6.690485118493207
 40
6.690485118493207
 40
6.690485118493207
 10
-12.34861427178734
 20
39.40787468781074
 30
0.0
 10
-11.69631982846977
 20
39.25298639038675
 30
0.0
 10
-10.40686485485141
 20
38.94680336596474
 30
0.0
 10
-8.886095650395876
 20
37.87920573645063
 30
0.0
 10
-7.823406166398193
 20
36.5627189544695
 30
0.0
 10
-7.915722151280336
 20
35.61974843728815
 30
0.0
 10
-7.953959271787397
 20
35.22917168781081
 30
0.0
 11
-12.34861427178734
 21
39.40787468781074
 31
0.0
 11
-10.44588127178732
 21
38.82793068781078
 31
0.0
 11
-8.84741027178731
 21
37.72332768781078
 31
0.0
 11
-7.962052271787314
 21
36.37163868781071
 31
0.0
 11
-7.953959271787397
 21
35.22917168781081
 31
0.0
  0
SPLINE
  5
3EF5
330
1F
100
AcDbEntity
  8
0
100
AcDbSpline
210
0.0
220
0.0
230
1.0
 70
     8
 71
     3
 72
    11
 73
     7
 74
     5
 42
0.0000000001
 43
0.0000000001
 44
0.0000000001
 40
0.0
 40
0.0
 40
0.0
 40
0.0
 40
0.429030876778162
 40
1.05014132858696
 40
1.875394668284442
 40
2.859051641889621
 40
2.859051641889621
 40
2.859051641889621
 40
2.859051641889621
 10
-15.05190227178738
 20
38.92716368781069
 30
0.0
 10
-14.95504004781752
 20
39.03616731937525
 30
0.0
 10
-14.71794982873242
 20
39.30297613120627
 30
0.0
 10
-14.0787513611834
 20
39.4455371401654
 30
0.0
 10
-13.2781413955016
 20
39.51826869297676
 30
0.0
 10
-12.67603192853756
 20
39.44675999364915
 30
0.0
 10
-12.34861427178734
 20
39.40787468781074
 30
0.0
 11
-15.05190227178738
 21
38.92716368781069
 31
0.0
 11
-14.74114727178741
 21
39.22296568781079
 31
0.0
 11
-14.15136227178729
 21
39.41772668781076
 31
0.0
 11
-13.32905327178738
 21
39.48737568781078
 31
0.0
 11
-12.34861427178734
 21
39.40787468781074
 31
0.0
  0
LINE
  5
3EF6
330
1F
100
AcDbEntity
  8
0
100
AcDbLine
 10
-15.14398827178726
 20
45.85612268781077
 30
0.0
 11
-14.94902827178734
 21
45.97510568781073
 31
0.0
  0
LINE
  5
3EF7
330
1F
100
AcDbEntity
  8
0
100
AcDbLine
 10
-15.5409532717874
 20
48.67678368781074
 30
0.0
 11
-16.53594027178732
 21
48.2976576878107
 31
0.0
  0
LINE
  5
3EF8
330
1F
100
AcDbEntity
  8
0
100
AcDbLine
 10
-16.53594027178732
 20
46.98437768781074
 30
0.0
 11
-16.53594027178732
 21
48.2976576878107
 31
0.0
  0
LINE
  5
3EF9
330
1F
100
AcDbEntity
  8
0
100
AcDbLine
 10
-15.5409532717874
 20
48.67678368781074
 30
0.0
 11
-15.20192227178731
 21
48.50840468781079
 31
0.0
  0
LINE
  5
3EFA
330
1F
100
AcDbEntity
  8
0
100
AcDbLine
 10
-1.504902271787358
 20
36.5107806878107
 30
0.0
 11
-1.504902271787358
 21
36.25455068781074
 31
0.0
  0
LINE
  5
3F08
330
1F
100
AcDbEntity
  8
AM_0
100
AcDbLine
 10
-16.00000000000014
 20
50.24999999999997
 30
0.0
 11
-13.55439164642535
 21
49.68988091451881
 31
0.0
  0
LINE
  5
3F09
330
1F
100
AcDbEntity
  8
AM_0
100
AcDbLine
 10
-1.500000000000141
 20
24.76264698945299
 30
0.0
 11
-1.500000000000127
 21
0.0
 31
0.0
  0
SPLINE
  5
3F17
330
1F
100
AcDbEntity
  8
0
100
AcDbSpline
210
0.0
220
0.0
230
1.0
 70
     8
 71
     3
 72
    11
 73
     7
 74
     5
 42
0.0000000001
 43
0.0000000001
 44
0.0000000001
 40
0.0
 40
0.0
 40
0.0
 40
0.0
 40
1.989152561375067
 40
3.932154703795412
 40
5.547989454283595
 40
6.690485118493207
 40
6.690485118493207
 40
6.690485118493207
 40
6.690485118493207
 10
-12.34861427178734
 20
-39.40787468781074
 30
0.0
 10
-11.69631982846977
 20
-39.25298639038675
 30
0.0
 10
-10.40686485485141
 20
-38.94680336596474
 30
0.0
 10
-8.886095650395876
 20
-37.87920573645063
 30
0.0
 10
-7.823406166398193
 20
-36.5627189544695
 30
0.0
 10
-7.915722151280336
 20
-35.61974843728815
 30
0.0
 10
-7.953959271787397
 20
-35.22917168781081
 30
0.0
 11
-12.34861427178734
 21
-39.40787468781074
 31
0.0
 11
-10.44588127178732
 21
-38.82793068781078
 31
0.0
 11
-8.84741027178731
 21
-37.72332768781078
 31
0.0
 11
-7.962052271787314
 21
-36.37163868781071
 31
0.0
 11
-7.953959271787397
 21
-35.22917168781081
 31
0.0
  0
LINE
  5
3F18
330
1F
100
AcDbEntity
  8
0
100
AcDbLine
 10
-15.14398827178726
 20
-45.85612268781077
 30
0.0
 11
-1.504902271787358
 21
-36.25455068781074
 31
0.0
  0
LINE
  5
3F19
330
1F
100
AcDbEntity
  8
0
100
AcDbLine
 10
-14.94902827178734
 20
-45.97510568781073
 30
0.0
 11
-1.504902271787358
 21
-36.5107806878107
 31
0.0
  0
ELLIPSE
  5
3F1A
330
1F
100
AcDbEntity
  8
AM_0
100
AcDbEllipse
 10
-9.099612271787322
 20
-40.72010668781073
 30
0.0
 11
-3.560632795107999
 21
-9.344618456544999
 31
0.0
210
0.0
220
0.0
230
-1.0
 40
0.8961368999999999
 41
3.726994524603959
 42
7.24874404242889
  0
SPLINE
  5
3F1B
330
1F
100
AcDbEntity
  8
0
100
AcDbSpline
210
0.0
220
0.0
230
1.0
 70
     8
 71
     3
 72
    11
 73
     7
 74
     5
 42
0.0000000001
 43
0.0000000001
 44
0.0000000001
 40
0.0
 40
0.0
 40
0.0
 40
0.0
 40
1.60375044924891
 40
4.417982561719052
 40
7.315827424289766
 40
8.754123095884803
 40
8.754123095884803
 40
8.754123095884803
 40
8.754123095884803
 10
-7.953959271787397
 20
-35.22917168781081
 30
0.0
 10
-8.471448650198432
 20
-35.00203831200676
 30
0.0
 10
-9.897018975535219
 20
-34.37633542041496
 30
0.0
 10
-12.04541286120734
 20
-36.08958158171101
 30
0.0
 10
-14.27428178434652
 20
-37.11126227594831
 30
0.0
 10
-14.85821268177788
 20
-38.47485924670884
 30
0.0
 10
-15.05190227178738
 20
-38.92716368781069
 30
0.0
 11
-7.953959271787397
 21
-35.22917168781081
 31
0.0
 11
-9.489538271787381
 21
-34.76655668781067
 31
0.0
 11
-12.04588527178734
 21
-35.94341368781082
 31
0.0
 11
-14.38636727178729
 21
-37.65211168781073
 31
0.0
 11
-15.05190227178738
 21
-38.92716368781069
 31
0.0
  0
LINE
  5
3F1C
330
1F
100
AcDbEntity
  8
0
100
AcDbLine
 10
-17.43855627178729
 20
-39.27718768781077
 30
0.0
 11
-1.504902271787358
 21
-28.06029768781074
 31
0.0
  0
LINE
  5
3F1D
330
1F
100
AcDbEntity
  8
0
100
AcDbLine
 10
-1.504902271787358
 20
-28.38058568781074
 30
0.0
 11
-18.91237127178735
 21
-40.63500368781073
 31
0.0
  0
LINE
  5
3F1E
330
1F
100
AcDbEntity
  8
0
100
AcDbLine
 10
-21.52797427178731
 20
-30.82758968781073
 30
0.0
 11
-1.504902271787358
 21
-16.73185268781075
 31
0.0
  0
LINE
  5
3F1F
330
1F
100
AcDbEntity
  8
0
100
AcDbLine
 10
-21.17674227178733
 20
-30.58033168781074
 30
0.0
 11
-21.17674227178733
 21
-26.99914168781075
 31
0.0
  0
LINE
  5
3F20
330
1F
100
AcDbEntity
  8
0
100
AcDbLine
 10
-22.91018027178731
 20
-26.81941768781079
 30
0.0
 11
-22.91018027178731
 21
-31.98543368781069
 31
0.0
  0
LINE
  5
3F21
330
1F
100
AcDbEntity
  8
0
100
AcDbLine
 10
-21.17674227178733
 20
-26.99914168781075
 30
0.0
 11
-15.44536027178739
 21
-26.54558268781071
 31
0.0
  0
LINE
  5
3F22
330
1F
100
AcDbEntity
  8
0
100
AcDbLine
 10
-21.67201027178734
 20
-26.24435768781078
 30
0.0
 11
-14.17466827178734
 21
-25.65104768781069
 31
0.0
  0
LINE
  5
3F23
330
1F
100
AcDbEntity
  8
0
100
AcDbLine
 10
-21.17674227178733
 20
-26.99914168781075
 30
0.0
 11
-21.67201027178734
 21
-26.24435768781078
 31
0.0
  0
LINE
  5
3F24
330
1F
100
AcDbEntity
  8
0
100
AcDbLine
 10
-21.67201027178734
 20
-26.24435768781078
 30
0.0
 11
-22.91018027178731
 21
-26.81941768781079
 31
0.0
  0
LINE
  5
3F25
330
1F
100
AcDbEntity
  8
0
100
AcDbLine
 10
-21.17674227178733
 20
-48.65259168781078
 30
0.0
 11
-21.17674227178733
 21
-39.48265068781078
 31
0.0
  0
LINE
  5
3F26
330
1F
100
AcDbEntity
  8
0
100
AcDbLine
 10
-22.91018027178731
 20
-35.90100268781069
 30
0.0
 11
-22.91018027178731
 21
-47.57601068781074
 31
0.0
  0
ELLIPSE
  5
3F27
330
1F
100
AcDbEntity
  8
AM_0
100
AcDbEllipse
 10
-12.99391827178735
 20
-54.65988868781077
 30
0.0
 11
8.634621024814
 21
-12.26553381463
 31
0.0
210
0.0
220
0.0
230
-1.0
 40
0.26685473333333
 41
3.582944421059309
 42
4.115060304102669
  0
LINE
  5
3F28
330
1F
100
AcDbEntity
  8
0
100
AcDbLine
 10
-19.86816327178732
 20
-42.18645068781078
 30
0.0
 11
-23.82063727178737
 21
-34.01980768781076
 31
0.0
  0
LINE
  5
3F29
330
1F
100
AcDbEntity
  8
0
100
AcDbLine
 10
-17.43855627178729
 20
-39.27718768781077
 30
0.0
 11
-21.52797427178731
 21
-30.82758968781073
 31
0.0
  0
ELLIPSE
  5
3F2A
330
1F
100
AcDbEntity
  8
AM_0
100
AcDbEllipse
 10
-19.4225212717873
 20
-31.6298436878108
 30
0.0
 11
-4.382070057823
 21
-2.420956911830999
 31
0.0
210
0.0
220
0.0
230
-1.0
 40
0.35913708042561
 41
0.019405509230591
 42
1.275919727251189
  0
SPLINE
  5
3F2B
330
1F
100
AcDbEntity
  8
0
100
AcDbSpline
210
0.0
220
0.0
230
1.0
 70
     8
 71
     3
 72
    11
 73
     7
 74
     5
 42
0.0000000001
 43
0.0000000001
 44
0.0000000001
 40
0.0
 40
0.0
 40
0.0
 40
0.0
 40
0.1840746892459088
 40
0.347223406264993
 40
0.4922368509692649
 40
0.6237974334019397
 40
0.6237974334019397
 40
0.6237974334019397
 40
0.6237974334019397
 10
-19.40297927178741
 20
-42.5854386878107
 30
0.0
 10
-19.45775930129795
 20
-42.55756842967081
 30
0.0
 10
-19.56109185896717
 20
-42.50499625907822
 30
0.0
 10
-19.69395503222307
 20
-42.40797462547019
 30
0.0
 10
-19.79991262458162
 20
-42.30458833248194
 30
0.0
 10
-19.84621241345839
 20
-42.22443024375292
 30
0.0
 10
-19.86823627178736
 20
-42.1863006878107
 30
0.0
 11
-19.40297927178741
 21
-42.5854386878107
 31
0.0
 11
-19.56461827178733
 21
-42.49736868781068
 31
0.0
 11
-19.69634927178728
 21
-42.40111668781074
 31
0.0
 11
-19.79756127178731
 21
-42.29726568781078
 31
0.0
 11
-19.86823627178736
 21
-42.1863006878107
 31
0.0
  0
SPLINE
  5
3F2C
330
1F
100
AcDbEntity
  8
0
100
AcDbSpline
210
0.0
220
0.0
230
1.0
 70
     8
 71
     3
 72
    11
 73
     7
 74
     5
 42
0.0000000001
 43
0.0000000001
 44
0.0000000001
 40
0.0
 40
0.0
 40
0.0
 40
0.0
 40
0.3226455887579409
 40
0.7179142747387381
 40
1.248862075917951
 40
1.930451242437631
 40
1.930451242437631
 40
1.930451242437631
 40
1.930451242437631
 10
-19.86823627178736
 20
-42.1863006878107
 30
0.0
 10
-19.89439592185833
 20
-42.07855932526554
 30
0.0
 10
-19.95260340047415
 20
-41.83882549704637
 30
0.0
 10
-19.73917166891056
 20
-41.45035196471836
 30
0.0
 10
-19.39283279005404
 20
-41.04901973516531
 30
0.0
 10
-19.08526227406227
 20
-40.78398471264548
 30
0.0
 10
-18.91237127178735
 20
-40.63500368781073
 30
0.0
 11
-19.86823627178736
 21
-42.1863006878107
 31
0.0
 11
-19.91017727178731
 21
-41.86639268781076
 31
0.0
 11
-19.75485127178737
 21
-41.50292168781076
 31
0.0
 11
-19.41639027178732
 21
-41.09383768781075
 31
0.0
 11
-18.91237127178735
 21
-40.63500368781073
 31
0.0
  0
ELLIPSE
  5
3F2D
330
1F
100
AcDbEntity
  8
AM_0
100
AcDbEllipse
 10
-15.00155827178739
 20
-40.76448368781078
 30
0.0
 11
-4.500608235856998
 21
-2.178193174936
 31
0.0
210
0.0
220
0.0
230
-1.0
 40
0.504806
 41
0.805486963134504
 42
1.25651358234124
  0
SPLINE
  5
3F2E
330
1F
100
AcDbEntity
  8
0
100
AcDbSpline
210
0.0
220
0.0
230
1.0
 70
     8
 71
     3
 72
    11
 73
     7
 74
     5
 42
0.0000000001
 43
0.0000000001
 44
0.0000000001
 40
0.0
 40
0.0
 40
0.0
 40
0.0
 40
0.429030876778162
 40
1.05014132858696
 40
1.875394668284442
 40
2.859051641889621
 40
2.859051641889621
 40
2.859051641889621
 40
2.859051641889621
 10
-15.05190227178738
 20
-38.92716368781069
 30
0.0
 10
-14.95504004781752
 20
-39.03616731937525
 30
0.0
 10
-14.71794982873242
 20
-39.30297613120627
 30
0.0
 10
-14.0787513611834
 20
-39.4455371401654
 30
0.0
 10
-13.2781413955016
 20
-39.51826869297676
 30
0.0
 10
-12.67603192853756
 20
-39.44675999364915
 30
0.0
 10
-12.34861427178734
 20
-39.40787468781074
 30
0.0
 11
-15.05190227178738
 21
-38.92716368781069
 31
0.0
 11
-14.74114727178741
 21
-39.22296568781079
 31
0.0
 11
-14.15136227178729
 21
-39.41772668781076
 31
0.0
 11
-13.32905327178738
 21
-39.48737568781078
 31
0.0
 11
-12.34861427178734
 21
-39.40787468781074
 31
0.0
  0
LINE
  5
3F2F
330
1F
100
AcDbEntity
  8
0
100
AcDbLine
 10
-21.1121802717873
 20
-48.65980368781076
 30
0.0
 11
-16.53594027178732
 21
-48.2976576878107
 31
0.0
  0
LINE
  5
3F30
330
1F
100
AcDbEntity
  8
0
100
AcDbLine
 10
-21.1121802717873
 20
-48.65980368781076
 30
0.0
 11
-15.5409532717874
 21
-48.67678368781074
 31
0.0
  0
LINE
  5
3F31
330
1F
100
AcDbEntity
  8
0
100
AcDbLine
 10
-21.17674227178733
 20
-48.65259168781078
 30
0.0
 11
-21.1121802717873
 21
-48.65980368781076
 31
0.0
  0
LINE
  5
3F32
330
1F
100
AcDbEntity
  8
0
100
AcDbLine
 10
-22.91018027178731
 20
-47.57601068781074
 30
0.0
 11
-21.17674227178733
 21
-48.65259168781078
 31
0.0
  0
LINE
  5
3F33
330
1F
100
AcDbEntity
  8
0
100
AcDbLine
 10
-15.5409532717874
 20
-48.67678368781074
 30
0.0
 11
-16.53594027178732
 21
-48.2976576878107
 31
0.0
  0
LINE
  5
3F34
330
1F
100
AcDbEntity
  8
0
100
AcDbLine
 10
-16.53594027178732
 20
-46.98437768781074
 30
0.0
 11
-16.53594027178732
 21
-48.2976576878107
 31
0.0
  0
LINE
  5
3F35
330
1F
100
AcDbEntity
  8
0
100
AcDbLine
 10
-15.5409532717874
 20
-48.67678368781074
 30
0.0
 11
-15.20192227178731
 21
-48.50840468781079
 31
0.0
  0
LINE
  5
3F36
330
1F
100
AcDbEntity
  8
0
100
AcDbLine
 10
-15.14398827178726
 20
-45.85612268781077
 30
0.0
 11
-14.94902827178734
 21
-45.97510568781073
 31
0.0
  0
LINE
  5
3F38
330
1F
100
AcDbEntity
  8
AM_3
100
AcDbLine
 10
-1.500000000000142
 20
-43.71160978512404
 30
0.0
 11
-1.500000000000141
 21
-24.76264698945299
 31
0.0
  0
LINE
  5
3F39
330
1F
100
AcDbEntity
  8
0
100
AcDbLine
 10
-1.136867271787394
 20
-32.82174168781072
 30
0.0
 11
-1.473731271787272
 21
-25.13407168781081
 31
0.0
  0
LINE
  5
3F3A
330
1F
100
AcDbEntity
  8
0
100
AcDbLine
 10
-1.504902271787358
 20
-36.25455068781074
 30
0.0
 11
-1.504902271787358
 21
-28.38058568781074
 31
0.0
  0
LINE
  5
3F3B
330
1F
100
AcDbEntity
  8
0
100
AcDbLine
 10
-1.504902271787358
 20
-28.06029768781074
 30
0.0
 11
-1.504902271787358
 21
-16.73185268781075
 31
0.0
  0
LINE
  5
3F3C
330
1F
100
AcDbEntity
  8
0
100
AcDbLine
 10
-1.504902271787358
 20
-25.17605368781077
 30
0.0
 11
-1.473731271787272
 21
-25.13407168781081
 31
0.0
  0
LINE
  5
3F3D
330
1F
100
AcDbEntity
  8
0
100
AcDbLine
 10
-1.504902271787358
 20
-24.69333168781069
 30
0.0
 11
-1.473731271787272
 21
-25.13407168781081
 31
0.0
  0
LINE
  5
3F3E
330
1F
100
AcDbEntity
  8
0
100
AcDbLine
 10
-1.504902271787358
 20
-28.38058568781074
 30
0.0
 11
-1.504902271787358
 21
-28.06029768781074
 31
0.0
  0
LINE
  5
3F40
330
1F
100
AcDbEntity
  8
0
100
AcDbLine
 10
-1.134752271787391
 20
-35.32740268781075
 30
0.0
 11
-1.345067271787428
 21
-32.74240968781081
 31
0.0
  0
LINE
  5
3F41
330
1F
100
AcDbEntity
  8
0
100
AcDbLine
 10
-0.9883112717872961
 20
-35.61468968781074
 30
0.0
 11
-1.136867271787394
 21
-32.82174168781072
 31
0.0
  0
LINE
  5
3F42
330
1F
100
AcDbEntity
  8
0
100
AcDbLine
 10
-1.345067271787428
 20
-32.74240968781081
 30
0.0
 11
-1.504902271787358
 21
-32.68150668781076
 31
0.0
  0
LINE
  5
3F43
330
1F
100
AcDbEntity
  8
0
100
AcDbLine
 10
-1.504902271787358
 20
-32.7550586878107
 30
0.0
 11
-1.345067271787428
 21
-32.74240968781081
 31
0.0
  0
LINE
  5
3F44
330
1F
100
AcDbEntity
  8
0
100
AcDbLine
 10
-1.136867271787394
 20
-32.82174168781072
 30
0.0
 11
-1.345067271787428
 21
-32.74240968781081
 31
0.0
  0
LINE
  5
3F45
330
1F
100
AcDbEntity
  8
0
100
AcDbLine
 10
-1.504902271787358
 20
-36.5107806878107
 30
0.0
 11
-1.504902271787358
 21
-36.25455068781074
 31
0.0
  0
ARC
  5
3F78
330
1F
100
AcDbEntity
  8
AM_3
100
AcDbCircle
 10
-5.500000000000142
 20
43.74160978512401
 30
0.0
 40
4.0
100
AcDbArc
 50
0.0
 51
77.10000000000016
1001
GENIUS_GENODEF_13
1002
{
1000
HIER
1070
     0
1002
}
1002
{
1000
MANEDIT
1070
     0
1002
}
1002
{
1000
NOSEL
1070
     0
1002
}
1002
{
1000
BEHIND
1070
     0
1002
}
1002
{
1000
REACTOR
1002
}
1001
GENIUS_GENOBJ-N-FIL_13
1002
{
1000
OWNER
1000
GEN
1002
}
  0
ARC
  5
3F7D
330
1F
100
AcDbEntity
  8
AM_0
100
AcDbCircle
 10
-37.0393748773119
 20
48.24999999999996
 30
0.0
 40
2.0
100
AcDbArc
 50
90.0
 51
164.9999999999998
1001
GENIUS_GENODEF_13
1002
{
1000
HIER
1070
     0
1002
}
1002
{
1000
MANEDIT
1070
     0
1002
}
1002
{
1000
NOSEL
1070
     0
1002
}
1002
{
1000
BEHIND
1070
     0
1002
}
1002
{
1000
REACTOR
1002
}
1001
GENIUS_GENOBJ-N-FIL_13
1002
{
1000
OWNER
1000
GEN
1002
}
  0
LINE
  5
3F8C
330
1F
100
AcDbEntity
  8
AM_0
100
AcDbLine
 10
-38.97122652989004
 20
-48.76763809020501
 30
0.0
 11
-43.6028023233799
 21
-31.48236190979494
 31
0.0
  0
ARC
  5
3F8D
330
1F
100
AcDbEntity
  8
AM_0
100
AcDbCircle
 10
-45.53465397595803
 20
-31.99999999999997
 30
0.0
 40
2.0
100
AcDbArc
 50
14.99999999999994
 51
90.00000000000026
1001
GENIUS_GENODEF_13
1002
{
1000
HIER
1070
     0
1002
}
1002
{
1000
MANEDIT
1070
     0
1002
}
1002
{
1000
NOSEL
1070
     0
1002
}
1002
{
1000
BEHIND
1070
     0
1002
}
1002
{
1000
REACTOR
1002
}
1001
GENIUS_GENOBJ-N-FIL_13
1002
{
1000
OWNER
1000
GEN
1002
}
  0
LINE
  5
3F8E
330
1F
100
AcDbEntity
  8
AM_0
100
AcDbLine
 10
-37.0393748773119
 20
-50.24999999999996
 30
0.0
 11
-16.00000000000014
 21
-50.24999999999997
 31
0.0
  0
ARC
  5
3F8F
330
1F
100
AcDbEntity
  8
AM_0
100
AcDbCircle
 10
-37.0393748773119
 20
-48.24999999999996
 30
0.0
 40
2.0
100
AcDbArc
 50
195.0000000000001
 51
270.0
1001
GENIUS_GENODEF_13
1002
{
1000
HIER
1070
     0
1002
}
1002
{
1000
MANEDIT
1070
     0
1002
}
1002
{
1000
NOSEL
1070
     0
1002
}
1002
{
1000
BEHIND
1070
     0
1002
}
1002
{
1000
REACTOR
1002
}
1001
GENIUS_GENOBJ-N-FIL_13
1002
{
1000
OWNER
1000
GEN
1002
}
  0
LINE
  5
3F90
330
1F
100
AcDbEntity
  8
AM_0
100
AcDbLine
 10
-16.00000000000014
 20
-50.24999999999997
 30
0.0
 11
-13.55439164642535
 21
-49.68988091451881
 31
0.0
  0
LINE
  5
3F91
330
1F
100
AcDbEntity
  8
AM_3
100
AcDbLine
 10
-13.55439164642535
 20
-49.68988091451881
 30
0.0
 11
-4.606999535956348
 21
-47.6406545618889
 31
0.0
  0
ARC
  5
3F92
330
1F
100
AcDbEntity
  8
AM_3
100
AcDbCircle
 10
-5.500000000000142
 20
-43.74160978512401
 30
0.0
 40
4.0
100
AcDbArc
 50
282.8999999999997
 51
0.0
1001
GENIUS_GENODEF_13
1002
{
1000
HIER
1070
     0
1002
}
1002
{
1000
MANEDIT
1070
     0
1002
}
1002
{
1000
NOSEL
1070
     0
1002
}
1002
{
1000
BEHIND
1070
     0
1002
}
1002
{
1000
REACTOR
1002
}
1001
GENIUS_GENOBJ-N-FIL_13
1002
{
1000
OWNER
1000
GEN
1002
}
  0
LINE
  5
40AA
330
1F
100
AcDbEntity
  8
AM_11
100
AcDbLine
 10
-9.763218292820695
 20
-50.64999999999999
 30
0.0
 11
0.0000000000002522
 21
-50.64999999999999
 31
0.0
  0
LINE
  5
40AE
330
1F
100
AcDbEntity
  8
AM_11
100
AcDbLine
 10
-9.76321829282066
 20
50.64999999999999
 30
0.0
 11
-0.0000000000002522
 21
50.64999999999999
 31
0.0
  0
VIEWPORT
  5
110
330
101
100
AcDbEntity
 67
     1
  8
0
100
AcDbViewport
 10
420.5
 20
297.0
 30
0.0
 40
948.9782706766916
 41
628.452
 68
     1
 69
     1
1001
ACAD
1000
MVIEW
1002
{
1070
    16
1010
0.0
1020
0.0
1030
0.0
1010
0.0
1020
0.0
1030
1.0
1040
0.0
1040
628.452
1040
420.5
1040
297.0
1040
50.0
1040
0.0
1040
0.0
1070
     0
1070
   100
1070
     1
1070
     1
1070
     0
1070
     0
1070
     0
1070
     0
1040
0.0
1040
0.0
1040
0.0
1040
10.0
1040
10.0
1040
10.0
1040
10.0
1070
     0
1002
{
1002
}
1002
}
  0
ENDSEC
  0
SECTION
  2
OBJECTS
  0
DICTIONARY
  5
C
330
0
100
AcDbDictionary
  3
ACAD_GROUP
350
D
  3
ACAD_LAYOUT
350
1A
  3
ACAD_MLINESTYLE
350
17
  3
ACAD_PLOTSETTINGS
350
19
  3
ACAD_PLOTSTYLENAME
350
E
  3
ACDBVARIABLEDICTIONARY
350
34
  3
ACMDICTIONARY
350
43
  3
AMG
350
2B
  3
AMGSNAPSETTINGS
350
6E
  3
DWGPROPS
350
4147
  3
ACDBHEADERROUNDTRIPXREC
350
4154
  0
DICTIONARY
  5
74
330
1F
100
AcDbDictionary
280
     1
  3
ACAD_INDEX
360
4149
  3
ACAD_LAYOUTSELFREF
360
4177
  0
DICTIONARY
  5
417C
330
101
100
AcDbDictionary
280
     1
  3
ACAD_LAYOUTSELFREF
360
417D
  0
DICTIONARY
  5
D
102
{ACAD_REACTORS
330
C
102
}
330
C
100
AcDbDictionary
  0
DICTIONARY
  5
1A
102
{ACAD_REACTORS
330
C
102
}
330
C
100
AcDbDictionary
  0
DICTIONARY
  5
17
102
{ACAD_REACTORS
330
C
102
}
330
C
100
AcDbDictionary
  3
STANDARD
350
18
  0
DICTIONARY
  5
19
102
{ACAD_REACTORS
330
C
102
}
330
C
100
AcDbDictionary
  0
ACDBDICTIONARYWDFLT
  5
E
102
{ACAD_REACTORS
330
C
102
}
330
C
100
AcDbDictionary
281
     1
  3
Normal
350
F
100
AcDbDictionaryWithDefault
340
F
  0
DICTIONARY
  5
34
102
{ACAD_REACTORS
330
C
102
}
330
C
100
AcDbDictionary
  3
INDEXCTL
350
35
  3
SORTENTS
350
B5E
  0
DICTIONARY
  5
43
102
{ACAD_REACTORS
330
C
102
}
330
C
100
AcDbDictionary
  3
ACMSTDDICTIONARY
350
260
  0
DICTIONARY
  5
2B
102
{ACAD_REACTORS
330
C
102
}
330
C
100
AcDbDictionary
  3
ACMGSETTINGS
350
2C
  0
DICTIONARY
  5
6E
102
{ACAD_REACTORS
330
C
102
}
330
C
100
AcDbDictionary
  0
XRECORD
  5
4147
102
{ACAD_REACTORS
330
C
102
}
330
C
100
AcDbXrecord
  1
DWGPROPS COOKIE
  2

  3

  4

  6

  7

  8

  9

300
AmdtFileType=82
301
=
302
=
303
=
304
=
305
=
306
=
307
=
308
=
309
=
 40
0.1204853819444444
 41
2452836.771637361
 42
2453076.431959444
  1

 90
        1
  0
DICTIONARY
  5
4154
102
{ACAD_REACTORS
330
C
102
}
330
C
100
AcDbDictionary
  3
TSTACKALIGN
350
4155
  3
TSTACKSIZE
350
4156
  3
HYPERLINKBASE
350
4157
  3
STYLESHEET
350
4158
  3
LAYOUTDICT
350
4159
  3
PLOTSETDICT
350
415A
  3
PLOTSTYLNAMDICT
350
415B
  3
LWETCUNION
350
415C
  3
INSUNITS
350
415D
  3
CEPSNTYPE
350
415E
  3
FINGERPRINTGUID
350
415F
  3
VERSIONGUID
350
4160
  3
PSVPSCALE
350
4161
  3
DIMSTYLEDATA
350
4162
  3
PUCSORTHOREF
350
4163
  3
PUCSORTHOVIEW
350
4164
  3
PUCSBASE
350
4165
  3
PUCSORGTOP
350
4166
  3
PUCSORGBOTTOM
350
4167
  3
PUCSORGLEFT
350
4168
  3
PUCSORGRIGHT
350
4169
  3
PUCSORGFRONT
350
416A
  3
PUCSORGBACK
350
416B
  3
UCSORTHOREF
350
416C
  3
UCSORTHOVIEW
350
416D
  3
UCSBASE
350
416E
  3
UCSORGTOP
350
416F
  3
UCSORGBOTTOM
350
4170
  3
UCSORGLEFT
350
4171
  3
UCSORGRIGHT
350
4172
  3
UCSORGFRONT
350
4173
  3
UCSORGBACK
350
4174
  0
DICTIONARY
  5
4149
102
{ACAD_REACTORS
330
74
102
}
330
74
100
AcDbDictionary
  3
*A1
350
414A
  0
XRECORD
  5
4177
102
{ACAD_REACTORS
330
74
102
}
330
74
100
AcDbXrecord
340
1F
  0
XRECORD
  5
417D
102
{ACAD_REACTORS
330
417C
102
}
330
417C
100
AcDbXrecord
340
101
  0
MLINESTYLE
  5
18
102
{ACAD_REACTORS
330
17
102
}
330
17
100
AcDbMlineStyle
  2
STANDARD
 70
     0
  3

 62
   256
 51
90.0
 52
90.0
 71
     2
 49
0.5
 62
   256
  6
BYLAYER
 49
-0.5
 62
   256
  6
BYLAYER
  0
ACDBPLACEHOLDER
  5
F
102
{ACAD_REACTORS
330
E
102
}
330
E
100
AcDbPlaceHolder
280
     0
  0
DICTIONARYVAR
  5
35
102
{ACAD_REACTORS
330
34
102
}
330
34
100
DictionaryVariables
280
     0
  1
1
  0
DICTIONARYVAR
  5
B5E
102
{ACAD_REACTORS
330
34
102
}
330
34
100
DictionaryVariables
280
     0
  1
96
  0
DICTIONARY
  5
260
102
{ACAD_REACTORS
330
43
102
}
330
43
100
AcDbDictionary
  0
DICTIONARY
  5
2C
102
{ACAD_REACTORS
330
2B
102
}
330
2B
100
AcDbDictionary
  3
DWGSETTINGS
350
2D
  0
XRECORD
  5
4155
102
{ACAD_REACTORS
330
4154
102
}
330
4154
100
AcDbXrecord
 90
        1
  0
XRECORD
  5
4156
102
{ACAD_REACTORS
330
4154
102
}
330
4154
100
AcDbXrecord
 90
       70
  0
XRECORD
  5
4157
102
{ACAD_REACTORS
330
4154
102
}
330
4154
100
AcDbXrecord
  1

  0
XRECORD
  5
4158
102
{ACAD_REACTORS
330
4154
102
}
330
4154
100
AcDbXrecord
  1
ASAMI.ctb
  0
XRECORD
  5
4159
102
{ACAD_REACTORS
330
4154
102
}
330
4154
100
AcDbXrecord
340
1A
  0
XRECORD
  5
415A
102
{ACAD_REACTORS
330
4154
102
}
330
4154
100
AcDbXrecord
340
19
  0
XRECORD
  5
415B
102
{ACAD_REACTORS
330
4154
102
}
330
4154
100
AcDbXrecord
340
E
  0
XRECORD
  5
415C
102
{ACAD_REACTORS
330
4154
102
}
330
4154
100
AcDbXrecord
 90
    10781
  0
XRECORD
  5
415D
102
{ACAD_REACTORS
330
4154
102
}
330
4154
100
AcDbXrecord
 90
        4
  0
XRECORD
  5
415E
102
{ACAD_REACTORS
330
4154
102
}
330
4154
100
AcDbXrecord
 90
        0
  0
XRECORD
  5
415F
102
{ACAD_REACTORS
330
4154
102
}
330
4154
100
AcDbXrecord
  1
{AFB28963-8C59-40AE-9337-C84526B81ACE}
  0
XRECORD
  5
4160
102
{ACAD_REACTORS
330
4154
102
}
330
4154
100
AcDbXrecord
  1
{184A3D0D-53FC-4902-844C-E6B177C42C5D}
  0
XRECORD
  5
4161
102
{ACAD_REACTORS
330
4154
102
}
330
4154
100
AcDbXrecord
 40
0.0
  0
XRECORD
  5
4162
102
{ACAD_REACTORS
330
4154
102
}
330
4154
100
AcDbXrecord
1000
DSTYLE
1002
{
1070
    79
 70
     2
1070
   341
340
59
1070
   342
340
59
1070
   371
 70
    -1
1070
   372
 70
    -1
1002
}
  0
XRECORD
  5
4163
102
{ACAD_REACTORS
330
4154
102
}
330
4154
100
AcDbXrecord
340
0
  0
XRECORD
  5
4164
102
{ACAD_REACTORS
330
4154
102
}
330
4154
100
AcDbXrecord
 70
     0
  0
XRECORD
  5
4165
102
{ACAD_REACTORS
330
4154
102
}
330
4154
100
AcDbXrecord
340
0
  0
XRECORD
  5
4166
102
{ACAD_REACTORS
330
4154
102
}
330
4154
100
AcDbXrecord
 10
0.0
 20
0.0
 30
0.0
  0
XRECORD
  5
4167
102
{ACAD_REACTORS
330
4154
102
}
330
4154
100
AcDbXrecord
 10
0.0
 20
0.0
 30
0.0
  0
XRECORD
  5
4168
102
{ACAD_REACTORS
330
4154
102
}
330
4154
100
AcDbXrecord
 10
0.0
 20
0.0
 30
0.0
  0
XRECORD
  5
4169
102
{ACAD_REACTORS
330
4154
102
}
330
4154
100
AcDbXrecord
 10
0.0
 20
0.0
 30
0.0
  0
XRECORD
  5
416A
102
{ACAD_REACTORS
330
4154
102
}
330
4154
100
AcDbXrecord
 10
0.0
 20
0.0
 30
0.0
  0
XRECORD
  5
416B
102
{ACAD_REACTORS
330
4154
102
}
330
4154
100
AcDbXrecord
 10
0.0
 20
0.0
 30
0.0
  0
XRECORD
  5
416C
102
{ACAD_REACTORS
330
4154
102
}
330
4154
100
AcDbXrecord
340
0
  0
XRECORD
  5
416D
102
{ACAD_REACTORS
330
4154
102
}
330
4154
100
AcDbXrecord
 70
     0
  0
XRECORD
  5
416E
102
{ACAD_REACTORS
330
4154
102
}
330
4154
100
AcDbXrecord
340
0
  0
XRECORD
  5
416F
102
{ACAD_REACTORS
330
4154
102
}
330
4154
100
AcDbXrecord
 10
0.0
 20
0.0
 30
0.0
  0
XRECORD
  5
4170
102
{ACAD_REACTORS
330
4154
102
}
330
4154
100
AcDbXrecord
 10
0.0
 20
0.0
 30
0.0
  0
XRECORD
  5
4171
102
{ACAD_REACTORS
330
4154
102
}
330
4154
100
AcDbXrecord
 10
0.0
 20
0.0
 30
0.0
  0
XRECORD
  5
4172
102
{ACAD_REACTORS
330
4154
102
}
330
4154
100
AcDbXrecord
 10
0.0
 20
0.0
 30
0.0
  0
XRECORD
  5
4173
102
{ACAD_REACTORS
330
4154
102
}
330
4154
100
AcDbXrecord
 10
0.0
 20
0.0
 30
0.0
  0
XRECORD
  5
4174
102
{ACAD_REACTORS
330
4154
102
}
330
4154
100
AcDbXrecord
 10
0.0
 20
0.0
 30
0.0
  0
LAYER_INDEX
  5
414A
102
{ACAD_REACTORS
330
4149
102
}
330
4149
100
AcDbIndex
 40
2453152.36747302
100
AcDbLayerIndex
  8
0
360
414B
 90
       80
  8
AM_0
360
414C
 90
       60
  8
AM_7
360
414D
 90
        1
  8
AM_5
360
414E
 90
       11
  8
Defpoints
360
414F
 90
        0
  8
AM_6
360
4150
 90
        1
  8
AM_11
360
4151
 90
        3
  8
AM_3
360
4152
 90
        6
  0
XRECORD
  5
2D
102
{ACAD_REACTORS
330
2C
102
}
330
2C
100
AcDbXrecord
  1
VERSION
140
15.0
  1
PRODUCT
  2
AutoCAD Mechanical 2000
  0
IDBUFFER
  5
414B
330
0
100
AcDbIdBuffer
330
3F20
330
3F21
330
3F22
330
3F23
330
3F24
330
3F25
330
3F26
330
3F28
330
3F29
330
3F2B
330
3F2C
330
3F2E
330
3F2F
330
3F30
330
3F31
330
3F32
330
3F33
330
3F34
330
3F35
330
3F36
330
3F39
330
3F3A
330
3F3B
330
3F3C
330
3F3D
330
3F3E
330
3F40
330
3F41
330
3F42
330
3F43
330
3F44
330
3F45
330
3ECF
330
3ED0
330
3ED1
330
3ED2
330
3ED3
330
3ED4
330
3ED5
330
3ED9
330
3EDA
330
3EDB
330
3EDC
330
3EDD
330
3EDE
330
3EDF
330
3EE0
330
3EE1
330
3EE2
330
3EE3
330
3EE4
330
3EE5
330
3EE6
330
3EE7
330
3EE8
330
3EE9
330
3EEA
330
3EEB
330
3EEC
330
3EED
330
3EEE
330
3EEF
330
3EF0
330
3EF2
330
3EF3
330
3EF4
330
3EF5
330
3EF6
330
3EF7
330
3EF8
330
3EF9
330
3EFA
330
3F17
330
3F18
330
3F19
330
3F1B
330
3F1C
330
3F1D
330
3F1E
330
3F1F
  0
IDBUFFER
  5
414C
330
0
100
AcDbIdBuffer
330
3F08
330
3F09
330
3F1A
330
3F27
330
3F2A
330
3F2D
330
3F7D
330
3F8C
330
3F8D
330
3F8E
330
3F8F
330
3F90
330
2FA1
330
2FA2
330
2FA3
330
2FA4
330
2FA6
330
2FA7
330
2FA8
330
2FA9
330
2FAA
330
2FAB
330
2FAC
330
2FAD
330
2FAF
330
38E5
330
38E8
330
38EB
330
38EF
330
38F7
330
3900
330
3903
330
3904
330
3905
330
3906
330
3909
330
390A
330
390B
330
390C
330
390D
330
390E
330
390F
330
3910
330
3913
330
3914
330
3915
330
3916
330
3917
330
3918
330
3919
330
391A
330
391B
330
391C
330
391D
330
391E
330
391F
330
3ED6
330
3ED7
330
3ED8
330
3EF1
  0
IDBUFFER
  5
414D
330
0
100
AcDbIdBuffer
330
2FA0
  0
IDBUFFER
  5
414E
330
0
100
AcDbIdBuffer
330
3926
330
3927
330
3928
330
39B0
330
39B1
330
39B2
330
3A0A
330
3A0B
330
3A0C
330
3B45
330
3DA5
  0
IDBUFFER
  5
414F
330
0
100
AcDbIdBuffer
  0
IDBUFFER
  5
4150
330
0
100
AcDbIdBuffer
330
E5A
  0
IDBUFFER
  5
4151
330
0
100
AcDbIdBuffer
330
3D80
330
40AA
330
40AE
  0
IDBUFFER
  5
4152
330
0
100
AcDbIdBuffer
330
2FA5
330
2FAE
330
3F38
330
3F78
330
3F91
330
3F92
  0
ENDSEC
  0
EOF
