  0
SECTION
  2
HEADER
  9
$ACADVER
  1
AC1014
  9
$ACADMAINTVER
 70
     9
  9
$DWGCODEPAGE
  3
ANSI_932
  9
$INSBASE
 10
0.0
 20
0.0
 30
0.0
  9
$EXTMIN
 10
-116.0240963311681
 20
-129.5944781008948
 30
-0.00000001
  9
$EXTMAX
 10
39.72194283186277
 20
76.02205842277015
 30
0.00000001
  9
$LIMMIN
 10
-143.1060246019712
 20
-167.308942678012
  9
$LIMMAX
 10
74.07318310226537
 20
113.2413289322494
  9
$ORTHOMODE
 70
     0
  9
$REGENMODE
 70
     1
  9
$FILLMODE
 70
     1
  9
$QTEXTMODE
 70
     0
  9
$MIRRTEXT
 70
     0
  9
$DRAGMODE
 70
     2
  9
$LTSCALE
 40
1.0
  9
$OSMODE
 70
    55
  9
$ATTMODE
 70
     1
  9
$TEXTSIZE
 40
2.5
  9
$TRACEWID
 40
1.0
  9
$TEXTSTYLE
  7
STANDARD
  9
$CLAYER
  8
AM_0
  9
$CELTYPE
  6
BYLAYER
  9
$CECOLOR
 62
   256
  9
$CELTSCALE
 40
1.0
  9
$DELOBJ
 70
     1
  9
$DISPSILH
 70
     0
  9
$DIMSCALE
 40
1.0
  9
$DIMASZ
 40
2.5
  9
$DIMEXO
 40
1.0
  9
$DIMDLI
 40
12.0
  9
$DIMRND
 40
0.0
  9
$DIMDLE
 40
0.0
  9
$DIMEXE
 40
1.0
  9
$DIMTP
 40
0.1
  9
$DIMTM
 40
0.1
  9
$DIMTXT
 40
3.2
  9
$DIMCEN
 40
0.0
  9
$DIMTSZ
 40
0.0
  9
$DIMTOL
 70
     0
  9
$DIMLIM
 70
     0
  9
$DIMTIH
 70
     0
  9
$DIMTOH
 70
     0
  9
$DIMSE1
 70
     0
  9
$DIMSE2
 70
     0
  9
$DIMTAD
 70
     3
  9
$DIMZIN
 70
     8
  9
$DIMBLK
  1
OPEN30
  9
$DIMASO
 70
     1
  9
$DIMSHO
 70
     1
  9
$DIMPOST
  1

  9
$DIMAPOST
  1
"
  9
$DIMALT
 70
     0
  9
$DIMALTD
 70
     2
  9
$DIMALTF
 40
0.0393701
  9
$DIMLFAC
 40
1.0
  9
$DIMTOFL
 70
     1
  9
$DIMTVP
 40
0.0
  9
$DIMTIX
 70
     0
  9
$DIMSOXD
 70
     0
  9
$DIMSAH
 70
     0
  9
$DIMBLK1
  1

  9
$DIMBLK2
  1

  9
$DIMSTYLE
  2
AM_JIS
  9
$DIMCLRD
 70
   256
  9
$DIMCLRE
 70
   256
  9
$DIMCLRT
 70
     2
  9
$DIMTFAC
 40
0.71
  9
$DIMGAP
 40
1.5
  9
$DIMJUST
 70
     0
  9
$DIMSD1
 70
     0
  9
$DIMSD2
 70
     0
  9
$DIMTOLJ
 70
     0
  9
$DIMTZIN
 70
     0
  9
$DIMALTZ
 70
     0
  9
$DIMALTTZ
 70
     0
  9
$DIMFIT
 70
     3
  9
$DIMUPT
 70
     0
  9
$DIMUNIT
 70
     2
  9
$DIMDEC
 70
     3
  9
$DIMTDEC
 70
     3
  9
$DIMALTU
 70
     2
  9
$DIMALTTD
 70
     2
  9
$DIMTXSTY
  7
ASAMI
  9
$DIMAUNIT
 70
     0
  9
$LUNITS
 70
     2
  9
$LUPREC
 70
     2
  9
$SKETCHINC
 40
1.0
  9
$FILLETRAD
 40
3.0
  9
$AUNITS
 70
     0
  9
$AUPREC
 70
     0
  9
$MENU
  1
.
  9
$ELEVATION
 40
0.0
  9
$PELEVATION
 40
0.0
  9
$THICKNESS
 40
0.0
  9
$LIMCHECK
 70
     0
  9
$BLIPMODE
 70
     0
  9
$CHAMFERA
 40
1.199999999999999
  9
$CHAMFERB
 40
1.199999999999999
  9
$CHAMFERC
 40
20.0
  9
$CHAMFERD
 40
0.0
  9
$SKPOLY
 70
     0
  9
$TDCREATE
 40
2452836.771637361
  9
$TDUPDATE
 40
2453152.367647720
  9
$TDINDWG
 40
0.1156656481
  9
$TDUSRTIMER
 40
0.1156656481
  9
$USRTIMER
 70
     1
  9
$ANGBASE
 50
0.0
  9
$ANGDIR
 70
     0
  9
$PDMODE
 70
     0
  9
$PDSIZE
 40
0.0
  9
$PLINEWID
 40
0.0
  9
$COORDS
 70
     1
  9
$SPLFRAME
 70
     0
  9
$SPLINETYPE
 70
     6
  9
$SPLINESEGS
 70
     8
  9
$ATTDIA
 70
     1
  9
$ATTREQ
 70
     1
  9
$HANDLING
 70
 12289
  9
$HANDSEED
  5
5721
  9
$SURFTAB1
 70
     6
  9
$SURFTAB2
 70
     6
  9
$SURFTYPE
 70
     6
  9
$SURFU
 70
     6
  9
$SURFV
 70
     6
  9
$UCSNAME
  2

  9
$UCSORG
 10
0.0
 20
0.0
 30
0.0
  9
$UCSXDIR
 10
1.0
 20
0.0
 30
0.0
  9
$UCSYDIR
 10
0.0
 20
1.0
 30
0.0
  9
$PUCSNAME
  2

  9
$PUCSORG
 10
0.0
 20
0.0
 30
0.0
  9
$PUCSXDIR
 10
1.0
 20
0.0
 30
0.0
  9
$PUCSYDIR
 10
0.0
 20
1.0
 30
0.0
  9
$USERI1
 70
     0
  9
$USERI2
 70
     0
  9
$USERI3
 70
     0
  9
$USERI4
 70
     0
  9
$USERI5
 70
     0
  9
$USERR1
 40
0.0
  9
$USERR2
 40
0.0
  9
$USERR3
 40
0.0
  9
$USERR4
 40
0.0
  9
$USERR5
 40
0.0
  9
$WORLDVIEW
 70
     1
  9
$SHADEDGE
 70
     3
  9
$SHADEDIF
 70
    70
  9
$TILEMODE
 70
     1
  9
$MAXACTVP
 70
    64
  9
$PINSBASE
 10
0.0
 20
0.0
 30
0.0
  9
$PLIMCHECK
 70
     0
  9
$PEXTMIN
 10
1.000000000000000E+20
 20
1.000000000000000E+20
 30
1.000000000000000E+20
  9
$PEXTMAX
 10
-1.000000000000000E+20
 20
-1.000000000000000E+20
 30
-1.000000000000000E+20
  9
$PLIMMIN
 10
0.0
 20
0.0
  9
$PLIMMAX
 10
841.0
 20
594.0
  9
$UNITMODE
 70
     0
  9
$VISRETAIN
 70
     1
  9
$PLINEGEN
 70
     0
  9
$PSLTSCALE
 70
     0
  9
$TREEDEPTH
 70
  3020
  9
$PICKSTYLE
 70
     0
  9
$CMLSTYLE
  2
STANDARD
  9
$CMLJUST
 70
     0
  9
$CMLSCALE
 40
20.0
  9
$PROXYGRAPHICS
 70
     1
  9
$MEASUREMENT
 70
     1
  0
ENDSEC
  0
SECTION
  2
CLASSES
  0
CLASS
  1
ACDBDICTIONARYWDFLT
  2
AcDbDictionaryWithDefault
  3
AutoCAD 2000
 90
        0
280
     0
281
     0
  0
CLASS
  1
ACDBPLACEHOLDER
  2
AcDbPlaceHolder
  3
AutoCAD 2000
 90
        0
280
     0
281
     0
  0
CLASS
  1
LAYOUT
  2
AcDbLayout
  3
AutoCAD 2000
 90
        0
280
     0
281
     0
  0
CLASS
  1
AMGSETTINGSOBJ
  2
AmgSettingsObj
  3
"AcadM|Product Description: AutoCAD Mechanical 2000|Company: Autodesk"
 90
        0
280
     0
281
     0
  0
CLASS
  1
ACME_DOCUMENT
  2
AcMeDbDoc
  3
AcMeServices
 90
        0
280
     0
281
     0
  0
CLASS
  1
ACMESCOPE
  2
AcMeScope
  3
AcMeServices
 90
        0
280
     0
281
     0
  0
CLASS
  1
ACMECOMMANDHISTORY
  2
AcMeCommandHistory
  3
AcMeServices
 90
        0
280
     0
281
     0
  0
CLASS
  1
DICTIONARYVAR
  2
AcDbDictionaryVar
  3
AutoCAD 2000
 90
        0
280
     0
281
     0
  0
CLASS
  1
ACIMSYSVARMAN
  2
AcImSysVarManager
  3
AcMeServices
 90
        0
280
     0
281
     0
  0
CLASS
  1
ACIMREALSYSVAR
  2
AcImRealSysVar
  3
AcMeServices
 90
        0
280
     0
281
     0
  0
CLASS
  1
ACIMINTSYSVAR
  2
AcImIntSysVar
  3
AcMeServices
 90
        0
280
     0
281
     0
  0
CLASS
  1
ACMEDRAWINGMAN
  2
AcMeDrawingMan
  3
AcMeServices
 90
        0
280
     0
281
     0
  0
CLASS
  1
ACMEVIEW
  2
AcMeView
  3
AcMeServices
 90
        0
280
     0
281
     0
  0
CLASS
  1
ACDBENTITYCACHE
  2
AcMeEntityCache
  3
AcMeServices
 90
        0
280
     0
281
     0
  0
CLASS
  1
GSMANAGER
  2
AcMeGSManager
  3
AcMeServices
 90
        0
280
     0
281
     0
  0
CLASS
  1
AmdtInternalReactor
  2
AmdtInternalReactor
  3
AcMeServices
 90
        0
280
     0
281
     0
  0
CLASS
  1
ACMESTATEMGR
  2
AcMeStateMgr
  3
AcMeServices
 90
        0
280
     0
281
     0
  0
CLASS
  1
ACME_DATABASE
  2
AcMeDbDatabase
  3
AcMeServices
 90
        0
280
     0
281
     0
  0
CLASS
  1
ACRFINSADJUSTERMGR
  2
AcRfInsAdjusterMgr
  3
AcMeServices
 90
        0
280
     0
281
     0
  0
CLASS
  1
ACMDATADICTIONARY
  2
AcmDataDictionary
  3
"AcmSymBB|Product Description: AutoCAD Mechanical 2000|Company: Autodesk"
 90
        0
280
     0
281
     0
  0
CLASS
  1
ACMDATAENTRYBLOCK
  2
AcmDataEntryBlock
  3
"AcmSymBB|Product Description: AutoCAD Mechanical 2000|Company: Autodesk"
 90
        0
280
     0
281
     0
  0
CLASS
  1
AMGOBJPROPCFG
  2
AmgObjPropCfg
  3
"AmgLay|Product Description: AutoCAD Mechanical 2000|Company: Autodesk"
 90
        1
280
     0
281
     0
  0
CLASS
  1
ACAMGFILTERDAT
  2
AcAmgFilterDat
  3
"AcadM|Product Description: AutoCAD Mechanical 2000|Company: Autodesk"
 90
        0
280
     0
281
     0
  0
CLASS
  1
LAYER_INDEX
  2
AcDbLayerIndex
  3
AutoCAD 2000
 90
        0
280
     0
281
     0
  0
CLASS
  1
IDBUFFER
  2
AcDbIdBuffer
  3
AutoCAD 2000
 90
        0
280
     0
281
     0
  0
CLASS
  1
ACIMSTRSYSVAR
  2
AcImStrSysVar
  3
AcMeServices
 90
        0
280
     0
281
     0
  0
CLASS
  1
ACMSTANDARDJIS
  2
AcmStandardJIS
  3
"AcmSymBB|Product Description: AutoCAD Mechanical 2000|Company: Autodesk"
 90
        0
280
     0
281
     0
  0
CLASS
  1
ACMSURFSTANDARDJIS
  2
AcmSurfTextStdJIS
  3
"AcmSymBB|Product Description: AutoCAD Mechanical 2000|Company: Autodesk"
 90
        0
280
     0
281
     0
  0
CLASS
  1
ACMFCFSTANDARDJIS
  2
AcmFCFStdJIS
  3
"AcmSymBB|Product Description: AutoCAD Mechanical 2000|Company: Autodesk"
 90
        0
280
     0
281
     0
  0
CLASS
  1
ACMWELDSTANDARDJIS
  2
AcmWeldingStdJIS
  3
"AcmSymBB|Product Description: AutoCAD Mechanical 2000|Company: Autodesk"
 90
        0
280
     0
281
     0
  0
CLASS
  1
ACMIDSTANDARDJIS
  2
AcmIdStdJIS
  3
"AcmSymBB|Product Description: AutoCAD Mechanical 2000|Company: Autodesk"
 90
        0
280
     0
281
     0
  0
CLASS
  1
ACMDATUMSTANDARDJIS
  2
AcmDatumStdJIS
  3
"AcmSymBB|Product Description: AutoCAD Mechanical 2000|Company: Autodesk"
 90
        0
280
     0
281
     0
  0
CLASS
  1
ACMBOMSTANDARDJIS
  2
AcmBOMStdJIS
  3
"AcmSymBB|Product Description: AutoCAD Mechanical 2000|Company: Autodesk"
 90
        0
280
     0
281
     0
  0
CLASS
  1
ACMSTANDARDANSI
  2
AcmStandardANSI
  3
"AcmSymBB|Product Description: AutoCAD Mechanical 2000|Company: Autodesk"
 90
        0
280
     0
281
     0
  0
CLASS
  1
ACMSURFSTANDARDANSI
  2
AcmSurfTextStdANSI
  3
"AcmSymBB|Product Description: AutoCAD Mechanical 2000|Company: Autodesk"
 90
        0
280
     0
281
     0
  0
CLASS
  1
ACMFCFSTANDARDANSI
  2
AcmFCFStdANSI
  3
"AcmSymBB|Product Description: AutoCAD Mechanical 2000|Company: Autodesk"
 90
        0
280
     0
281
     0
  0
CLASS
  1
ACMWELDSTANDARDANSI
  2
AcmWeldingStdANSI
  3
"AcmSymBB|Product Description: AutoCAD Mechanical 2000|Company: Autodesk"
 90
        0
280
     0
281
     0
  0
CLASS
  1
ACMIDSTANDARDANSI
  2
AcmIdStdANSI
  3
"AcmSymBB|Product Description: AutoCAD Mechanical 2000|Company: Autodesk"
 90
        0
280
     0
281
     0
  0
CLASS
  1
ACMDATUMSTANDARDANSI
  2
AcmDatumStdANSI
  3
"AcmSymBB|Product Description: AutoCAD Mechanical 2000|Company: Autodesk"
 90
        0
280
     0
281
     0
  0
CLASS
  1
ACMBOMSTANDARDANSI
  2
AcmBOMStdANSI
  3
"AcmSymBB|Product Description: AutoCAD Mechanical 2000|Company: Autodesk"
 90
        0
280
     0
281
     0
  0
CLASS
  1
ACMSTANDARDBSI
  2
AcmStandardBSI
  3
"AcmSymBB|Product Description: AutoCAD Mechanical 2000|Company: Autodesk"
 90
        0
280
     0
281
     0
  0
CLASS
  1
ACMSURFSTANDARDBSI
  2
AcmSurfTextStdBSI
  3
"AcmSymBB|Product Description: AutoCAD Mechanical 2000|Company: Autodesk"
 90
        0
280
     0
281
     0
  0
CLASS
  1
ACMFCFSTANDARDBSI
  2
AcmFCFStdBSI
  3
"AcmSymBB|Product Description: AutoCAD Mechanical 2000|Company: Autodesk"
 90
        0
280
     0
281
     0
  0
CLASS
  1
ACMWELDSTANDARDBSI
  2
AcmWeldingStdBSI
  3
"AcmSymBB|Product Description: AutoCAD Mechanical 2000|Company: Autodesk"
 90
        0
280
     0
281
     0
  0
CLASS
  1
ACMIDSTANDARDBSI
  2
AcmIdStdBSI
  3
"AcmSymBB|Product Description: AutoCAD Mechanical 2000|Company: Autodesk"
 90
        0
280
     0
281
     0
  0
CLASS
  1
ACMDATUMSTANDARDBSI
  2
AcmDatumStdBSI
  3
"AcmSymBB|Product Description: AutoCAD Mechanical 2000|Company: Autodesk"
 90
        0
280
     0
281
     0
  0
CLASS
  1
ACMBOMSTANDARDBSI
  2
AcmBOMStdBSI
  3
"AcmSymBB|Product Description: AutoCAD Mechanical 2000|Company: Autodesk"
 90
        0
280
     0
281
     0
  0
CLASS
  1
LONG_TRANSACTION
  2
AcDbLongTransaction
  3
AutoCAD 2000
 90
        0
280
     0
281
     0
  0
CLASS
  1
LWPOLYLINE
  2
AcDbPolyline
  3
AutoCAD 2000
 90
        0
280
     0
281
     1
  0
CLASS
  1
HATCH
  2
AcDbHatch
  3
AutoCAD 2000
 90
        0
280
     0
281
     1
  0
CLASS
  1
XRECORD
  2
AcDbXrecord
  3
AutoCAD 2000
 90
        0
280
     0
281
     0
  0
ENDSEC
  0
SECTION
  2
TABLES
  0
TABLE
  2
VPORT
  5
8
330
0
100
AcDbSymbolTable
 70
     3
  0
VPORT
  5
56F6
330
8
100
AcDbSymbolTableRecord
100
AcDbViewportTableRecord
  2
*ACTIVE
 70
     0
 10
0.0
 20
0.0
 11
1.0
 21
1.0
 12
-15.84406338105643
 22
-26.43944847214196
 13
0.0
 23
0.0
 14
2.5
 24
2.5
 15
10.0
 25
10.0
 16
0.0
 26
0.0
 36
1.0
 17
0.0
 27
0.0
 37
0.0
 40
235.610985207467
 41
1.56570841889117
 42
50.0
 43
0.0
 44
0.0
 50
0.0
 51
0.0
 71
     0
 72
   100
 73
     1
 74
     3
 75
     0
 76
     0
 77
     0
 78
     0
  0
ENDTAB
  0
TABLE
  2
LTYPE
  5
5
330
0
100
AcDbSymbolTable
 70
    10
  0
LTYPE
  5
14
330
5
100
AcDbSymbolTableRecord
100
AcDbLinetypeTableRecord
  2
BYBLOCK
 70
     0
  3

 72
    65
 73
     0
 40
0.0
  0
LTYPE
  5
15
330
5
100
AcDbSymbolTableRecord
100
AcDbLinetypeTableRecord
  2
BYLAYER
 70
     0
  3

 72
    65
 73
     0
 40
0.0
  0
LTYPE
  5
16
330
5
100
AcDbSymbolTableRecord
100
AcDbLinetypeTableRecord
  2
CONTINUOUS
 70
     0
  3
Solid line
 72
    65
 73
     0
 40
0.0
  0
LTYPE
  5
4B
330
5
100
AcDbSymbolTableRecord
100
AcDbLinetypeTableRecord
  2
AM_ISO02W050
 70
     0
  3
__ __ __ __ __ __ __ __ __ __ __ __ __ __ __
 72
    65
 73
     2
 40
7.5
 49
6.0
 74
     0
 49
-1.5
 74
     0
  0
LTYPE
  5
4C
330
5
100
AcDbSymbolTableRecord
100
AcDbLinetypeTableRecord
  2
AM_ISO08W050
 70
     0
  3
____ . ____ . ____ . ____ . ____ . ____ . ____
 72
    65
 73
     4
 40
18.0
 49
12.0
 74
     0
 49
-1.5
 74
     0
 49
3.0
 74
     0
 49
-1.5
 74
     0
  0
LTYPE
  5
4D
330
5
100
AcDbSymbolTableRecord
100
AcDbLinetypeTableRecord
  2
AM_ISO09W050
 70
     0
  3
_____ . . _____ . . _____ . . ____ .. ____
 72
    65
 73
     6
 40
22.5
 49
12.0
 74
     0
 49
-1.5
 74
     0
 49
3.0
 74
     0
 49
-1.5
 74
     0
 49
3.0
 74
     0
 49
-1.5
 74
     0
  0
LTYPE
  5
4E
330
5
100
AcDbSymbolTableRecord
100
AcDbLinetypeTableRecord
  2
AMCONSTR
 70
     0
  3
_______________________
 72
    65
 73
     2
 40
9999.0
 49
9999.0
 74
     0
 49
0.0
 74
     0
  0
LTYPE
  5
4F
330
5
100
AcDbSymbolTableRecord
100
AcDbLinetypeTableRecord
  2
AM_ISO02W050X2
 70
     0
  3
 _ _ _ _ _ _ _ _ _ _ _ _
 72
    65
 73
     2
 40
3.75
 49
3.0
 74
     0
 49
-0.75
 74
     0
  0
LTYPE
  5
50
330
5
100
AcDbSymbolTableRecord
100
AcDbLinetypeTableRecord
  2
AM_ISO08W050X2
 70
     0
  3
__ . __ . __ . __ . __ . __
 72
    65
 73
     4
 40
9.0
 49
6.0
 74
     0
 49
-0.75
 74
     0
 49
1.5
 74
     0
 49
-0.75
 74
     0
  0
LTYPE
  5
53
330
5
100
AcDbSymbolTableRecord
100
AcDbLinetypeTableRecord
  2
AMZIGZAG
 70
     0
  3
/\/-/\/-/\/-/\/-/\/-/\/
 72
    65
 73
     2
 40
11.00009999999999
 49
0.0001
 74
     4
 75
   135
340
52
 46
0.04
 50
0.0
 44
0.0
 45
0.0
 49
-11.0
 74
     0
  0
LTYPE
  5
166
330
5
100
AcDbSymbolTableRecord
100
AcDbLinetypeTableRecord
  2
ACJISTGL
 70
     0
  3
_ _ _ _ _
 72
    65
 73
     2
 40
3.0
 49
2.0
 74
     0
 49
-1.0
 74
     0
  0
LTYPE
  5
26A
330
5
100
AcDbSymbolTableRecord
100
AcDbLinetypeTableRecord
  2
ACJISTGB
 70
     0
  3
__ . . __ . .
 72
    65
 73
     6
 40
9.0
 49
4.0
 74
     0
 49
-1.0
 74
     0
 49
1.0
 74
     0
 49
-1.0
 74
     0
 49
1.0
 74
     0
 49
-1.0
 74
     0
  0
ENDTAB
  0
TABLE
  2
LAYER
  5
2
330
0
100
AcDbSymbolTable
 70
     8
  0
LAYER
  5
10
330
2
100
AcDbSymbolTableRecord
100
AcDbLayerTableRecord
  2
0
 70
     0
 62
     7
  6
CONTINUOUS
  0
LAYER
  5
3F9
330
2
100
AcDbSymbolTableRecord
100
AcDbLayerTableRecord
  2
AM_0
 70
     0
 62
     7
  6
CONTINUOUS
  0
LAYER
  5
BD5
330
2
100
AcDbSymbolTableRecord
100
AcDbLayerTableRecord
  2
AM_7
 70
     0
 62
     4
  6
AM_ISO08W050
  0
LAYER
  5
BD6
330
2
100
AcDbSymbolTableRecord
100
AcDbLayerTableRecord
  2
AM_5
 70
     0
 62
     3
  6
CONTINUOUS
  0
LAYER
  5
BD7
330
2
100
AcDbSymbolTableRecord
100
AcDbLayerTableRecord
  2
DEFPOINTS
 70
     0
 62
     7
  6
CONTINUOUS
  0
LAYER
  5
E59
330
2
100
AcDbSymbolTableRecord
100
AcDbLayerTableRecord
  2
AM_6
 70
     0
 62
     2
  6
CONTINUOUS
  0
LAYER
  5
1E31
330
2
100
AcDbSymbolTableRecord
100
AcDbLayerTableRecord
  2
AM_11
 70
     0
 62
     3
  6
AM_ISO09W050
  0
LAYER
  5
1E41
330
2
100
AcDbSymbolTableRecord
100
AcDbLayerTableRecord
  2
AM_3
 70
     0
 62
     6
  6
ACJISTGL
  0
ENDTAB
  0
TABLE
  2
STYLE
  5
3
330
0
100
AcDbSymbolTable
 70
     5
  0
STYLE
  5
11
330
3
100
AcDbSymbolTableRecord
100
AcDbTextStyleTableRecord
  2
STANDARD
 70
     0
 40
0.0
 41
1.0
 50
0.0
 71
     0
 42
2.5
  3
simplex.shx
  4
EXTFONT.SHX
  0
STYLE
  5
52
330
3
100
AcDbSymbolTableRecord
100
AcDbTextStyleTableRecord
  2

 70
     1
 40
0.0
 41
1.0
 50
0.0
 71
     0
 42
2.5
  3
ltypeshp.shx
  4

  0
STYLE
  5
6B
330
3
100
AcDbSymbolTableRecord
100
AcDbTextStyleTableRecord
  2
ASAMI
 70
     0
 40
0.0
 41
1.0
 50
0.0
 71
     0
 42
2.5
  3
simplex.shx
  4
EXTFONT.SHX
  0
STYLE
  5
262
330
3
100
AcDbSymbolTableRecord
100
AcDbTextStyleTableRecord
  2
ACJISTS
 70
     0
 40
1.0
 41
1.0
 50
0.0
 71
     0
 42
2.5
  3
simplex.shx
  4
bigfont.shx
  0
STYLE
  5
269
330
3
100
AcDbSymbolTableRecord
100
AcDbTextStyleTableRecord
  2
ACJISGDT
 70
     0
 40
0.0
 41
1.0
 50
0.0
 71
     0
 42
2.5
  3
amgdtans.shx
  4

  0
ENDTAB
  0
TABLE
  2
VIEW
  5
6
330
0
100
AcDbSymbolTable
 70
     0
  0
ENDTAB
  0
TABLE
  2
UCS
  5
7
330
0
100
AcDbSymbolTable
 70
     0
  0
ENDTAB
  0
TABLE
  2
APPID
  5
9
330
0
100
AcDbSymbolTable
 70
    13
  0
APPID
  5
12
330
9
100
AcDbSymbolTableRecord
100
AcDbRegAppTableRecord
  2
ACAD
 70
     0
  0
APPID
  5
30
330
9
100
AcDbSymbolTableRecord
100
AcDbRegAppTableRecord
  2
MCAD_NO_VIS
 70
     0
  0
APPID
  5
31
330
9
100
AcDbSymbolTableRecord
100
AcDbRegAppTableRecord
  2
ACAD_TEMP_GRAPHIC
 70
     0
  0
APPID
  5
2C2
330
9
100
AcDbSymbolTableRecord
100
AcDbRegAppTableRecord
  2
GENIUS_GENDTOL_13
 70
     0
  0
APPID
  5
339
330
9
100
AcDbSymbolTableRecord
100
AcDbRegAppTableRecord
  2
GENIUS_GENODEF_13
 70
     0
  0
APPID
  5
33A
330
9
100
AcDbSymbolTableRecord
100
AcDbRegAppTableRecord
  2
GENIUS_GENOBJ-N-RSBK_13
 70
     0
  0
APPID
  5
33B
330
9
100
AcDbSymbolTableRecord
100
AcDbRegAppTableRecord
  2
GENIUS_GENOBJ-N-LIB_13
 70
     0
  0
APPID
  5
33C
330
9
100
AcDbSymbolTableRecord
100
AcDbRegAppTableRecord
  2
GENIUS_GENSCALE_13
 70
     0
  0
APPID
  5
378
330
9
100
AcDbSymbolTableRecord
100
AcDbRegAppTableRecord
  2
GENIUS_GENDIMSH_14
 70
     0
  0
APPID
  5
BD8
330
9
100
AcDbSymbolTableRecord
100
AcDbRegAppTableRecord
  2
GENIUS_GENOBJ-N-CEN_13
 70
     0
  0
APPID
  5
BD9
330
9
100
AcDbSymbolTableRecord
100
AcDbRegAppTableRecord
  2
GENIUS_GENFIL_13
 70
     0
  0
APPID
  5
BDA
330
9
100
AcDbSymbolTableRecord
100
AcDbRegAppTableRecord
  2
GENIUS_GENOBJ-N-CHA_13
 70
     0
  0
APPID
  5
2BC1
330
9
100
AcDbSymbolTableRecord
100
AcDbRegAppTableRecord
  2
GENIUS_GENOBJ-N-FIL_13
 70
     0
  0
ENDTAB
  0
TABLE
  2
DIMSTYLE
  5
A
330
0
100
AcDbSymbolTable
 70
     9
  0
DIMSTYLE
105
58
102
{ACAD_REACTORS
330
51EF
330
51F0
330
51F1
330
51F2
330
51F3
330
51F4
330
51F5
330
5355
330
5357
330
5356
102
}
330
A
100
AcDbSymbolTableRecord
100
AcDbDimStyleTableRecord
  2
AM_JIS
 70
     0
  3

  4
"
  5
OPEN30
  6

  7

 40
1.0
 41
2.5
 42
1.0
 43
12.0
 44
1.0
 45
0.0
 46
0.0
 47
0.1
 48
0.1
140
3.2
141
0.0
142
0.0
143
0.0393701
144
1.0
145
0.0
146
0.71
147
1.5
 71
     0
 72
     0
 73
     0
 74
     0
 75
     0
 76
     0
 77
     3
 78
     8
170
     0
171
     2
172
     1
173
     0
174
     0
175
     0
176
   256
177
   256
178
     2
270
     2
271
     3
272
     3
273
     2
274
     2
340
6B
275
     0
280
     0
281
     0
282
     0
283
     0
284
     0
285
     0
286
     0
287
     3
288
     0
  0
DIMSTYLE
105
5F
330
A
100
AcDbSymbolTableRecord
100
AcDbDimStyleTableRecord
  2
AM_JIS$3
 70
     0
  3

  4
"
  5
OPEN30
  6

  7

 40
1.0
 41
2.5
 42
1.0
 43
10.0
 44
1.0
 45
0.0
 46
0.0
 47
0.1
 48
0.1
140
3.2
141
0.0
142
0.0
143
0.0393701
144
1.0
145
0.0
146
0.71
147
1.5
 71
     0
 72
     0
 73
     0
 74
     1
 75
     0
 76
     0
 77
     3
 78
     8
170
     0
171
     2
172
     0
173
     0
174
     0
175
     0
176
   256
177
   256
178
     2
270
     2
271
     2
272
     3
273
     2
274
     2
340
6B
275
     0
280
     0
281
     0
282
     0
283
     0
284
     0
285
     0
286
     0
287
     0
288
     1
  0
DIMSTYLE
105
60
330
A
100
AcDbSymbolTableRecord
100
AcDbDimStyleTableRecord
  2
AM_JIS$4
 70
     0
  3

  4
"
  5
OPEN30
  6

  7

 40
1.0
 41
2.5
 42
1.0
 43
10.0
 44
1.0
 45
0.0
 46
0.0
 47
0.1
 48
0.1
140
3.2
141
0.0
142
0.0
143
0.0393701
144
1.0
145
0.0
146
0.71
147
1.5
 71
     0
 72
     0
 73
     0
 74
     1
 75
     0
 76
     0
 77
     3
 78
     8
170
     0
171
     2
172
     0
173
     0
174
     0
175
     0
176
   256
177
   256
178
     2
270
     2
271
     2
272
     3
273
     2
274
     2
340
6B
275
     0
280
     0
281
     0
282
     0
283
     0
284
     0
285
     0
286
     0
287
     0
288
     1
  0
DIMSTYLE
105
61
330
A
100
AcDbSymbolTableRecord
100
AcDbDimStyleTableRecord
  2
AM_JIS$6
 70
     0
  3

  4
"
  5
OPEN30
  6

  7

 40
1.0
 41
2.5
 42
1.0
 43
10.0
 44
1.0
 45
0.0
 46
0.0
 47
0.1
 48
0.1
140
3.2
141
0.0
142
0.0
143
0.0393701
144
1.0
145
0.0
146
0.71
147
1.5
 71
     0
 72
     0
 73
     0
 74
     0
 75
     0
 76
     0
 77
     0
 78
     8
170
     0
171
     2
172
     1
173
     0
174
     0
175
     0
176
   256
177
   256
178
     2
270
     2
271
     2
272
     2
273
     2
274
     2
340
6B
275
     0
280
     0
281
     0
282
     0
283
     0
284
     0
285
     0
286
     0
287
     3
288
     0
  0
DIMSTYLE
105
62
330
A
100
AcDbSymbolTableRecord
100
AcDbDimStyleTableRecord
  2
AM_JIS$7
 70
     0
  3

  4
"
  5
OPEN30
  6

  7

 40
1.0
 41
2.5
 42
1.0
 43
10.0
 44
1.0
 45
0.0
 46
0.0
 47
0.1
 48
0.1
140
3.2
141
0.0
142
0.0
143
0.0393701
144
1.0
145
0.0
146
0.71
147
1.5
 71
     0
 72
     0
 73
     0
 74
     0
 75
     0
 76
     0
 77
     3
 78
     8
170
     0
171
     2
172
     1
173
     0
174
     0
175
     0
176
   256
177
   256
178
     2
270
     2
271
     2
272
     3
273
     2
274
     2
340
6B
275
     0
280
     0
281
     0
282
     0
283
     0
284
     0
285
     0
286
     0
287
     3
288
     0
  0
DIMSTYLE
105
63
330
A
100
AcDbSymbolTableRecord
100
AcDbDimStyleTableRecord
  2
AM_JIS$SF
 70
     0
  3

  4
"
  5
OPEN30
  6

  7

 40
1.0
 41
2.5
 42
1.0
 43
10.0
 44
1.0
 45
0.0
 46
0.0
 47
0.1
 48
0.1
140
3.2
141
0.0
142
0.0
143
0.0393701
144
1.0
145
0.0
146
0.71
147
1.5
 71
     0
 72
     0
 73
     0
 74
     0
 75
     1
 76
     1
 77
     3
 78
     8
170
     0
171
     2
172
     1
173
     0
174
     0
175
     0
176
   256
177
   256
178
     2
270
     2
271
     2
272
     2
273
     2
274
     2
340
6B
275
     0
280
     0
281
     0
282
     0
283
     0
284
     0
285
     0
286
     0
287
     3
288
     0
  0
DIMSTYLE
105
68
330
A
100
AcDbSymbolTableRecord
100
AcDbDimStyleTableRecord
  2
AM_JIS$SH
 70
     0
  3

  4
"
  5

  6
GENAXEH
  7
OPEN30
 40
1.0
 41
2.5
 42
1.0
 43
10.0
 44
1.0
 45
0.0
 46
0.0
 47
0.1
 48
0.1
140
3.2
141
0.0
142
0.0
143
0.0393701
144
2.0
145
0.0
146
0.71
147
1.5
 71
     0
 72
     0
 73
     0
 74
     0
 75
     1
 76
     1
 77
     3
 78
     8
170
     0
171
     2
172
     1
173
     1
174
     0
175
     0
176
   256
177
   256
178
     2
270
     2
271
     2
272
     2
273
     2
274
     2
340
6B
275
     0
280
     0
281
     0
282
     0
283
     0
284
     0
285
     0
286
     0
287
     3
288
     0
  0
DIMSTYLE
105
B34
330
A
100
AcDbSymbolTableRecord
100
AcDbDimStyleTableRecord
  2
AM_JIS$2
 70
     0
  3

  4
"
  5
OPEN30
  6

  7

 40
1.0
 41
2.5
 42
1.0
 43
12.0
 44
1.0
 45
0.0
 46
0.0
 47
0.1
 48
0.1
140
3.2
141
0.0
142
0.0
143
0.0393701
144
1.0
145
0.0
146
0.71
147
1.5
 71
     0
 72
     0
 73
     0
 74
     0
 75
     0
 76
     0
 77
     3
 78
     8
170
     0
171
     2
172
     1
173
     0
174
     0
175
     0
176
   256
177
   256
178
     2
270
     2
271
     3
272
     3
273
     2
274
     2
340
6B
275
     0
280
     0
281
     0
282
     0
283
     0
284
     0
285
     0
286
     0
287
     3
288
     0
  0
DIMSTYLE
105
1E42
330
A
100
AcDbSymbolTableRecord
100
AcDbDimStyleTableRecord
  2
AM_JIS$0
 70
     0
  3

  4
"
  5
OPEN30
  6

  7

 40
2.0
 41
2.5
 42
1.0
 43
10.0
 44
1.0
 45
0.0
 46
0.0
 47
0.1
 48
0.1
140
2.5
141
0.0
142
0.0
143
0.0393701
144
1.0
145
0.0
146
0.71
147
1.0
 71
     0
 72
     0
 73
     0
 74
     0
 75
     0
 76
     0
 77
     3
 78
     8
170
     0
171
     2
172
     1
173
     0
174
     0
175
     0
176
   256
177
   256
178
     4
270
     2
271
     3
272
     3
273
     2
274
     2
340
6B
275
     0
280
     0
281
     0
282
     0
283
     0
284
     0
285
     0
286
     0
287
     3
288
     0
  0
ENDTAB
  0
TABLE
  2
BLOCK_RECORD
  5
1
330
0
100
AcDbSymbolTable
 70
    15
  0
BLOCK_RECORD
  5
1F
102
{ACAD_XDICTIONARY
360
74
102
}
330
1
100
AcDbSymbolTableRecord
100
AcDbBlockTableRecord
  2
*MODEL_SPACE
  0
BLOCK_RECORD
  5
101
102
{ACAD_XDICTIONARY
360
571F
102
}
330
1
100
AcDbSymbolTableRecord
100
AcDbBlockTableRecord
  2
*PAPER_SPACE
  0
BLOCK_RECORD
  5
59
330
1
100
AcDbSymbolTableRecord
100
AcDbBlockTableRecord
  2
_OPEN30
  0
BLOCK_RECORD
  5
64
330
1
100
AcDbSymbolTableRecord
100
AcDbBlockTableRecord
  2
GENAXEH
  0
BLOCK_RECORD
  5
51F7
330
1
100
AcDbSymbolTableRecord
100
AcDbBlockTableRecord
  2
*D5
  0
BLOCK_RECORD
  5
5203
330
1
100
AcDbSymbolTableRecord
100
AcDbBlockTableRecord
  2
*D6
  0
BLOCK_RECORD
  5
520F
330
1
100
AcDbSymbolTableRecord
100
AcDbBlockTableRecord
  2
*D7
  0
BLOCK_RECORD
  5
521B
330
1
100
AcDbSymbolTableRecord
100
AcDbBlockTableRecord
  2
*D8
  0
BLOCK_RECORD
  5
5229
330
1
100
AcDbSymbolTableRecord
100
AcDbBlockTableRecord
  2
*D9
  0
BLOCK_RECORD
  5
5235
330
1
100
AcDbSymbolTableRecord
100
AcDbBlockTableRecord
  2
*D10
  0
BLOCK_RECORD
  5
5243
330
1
100
AcDbSymbolTableRecord
100
AcDbBlockTableRecord
  2
*D11
  0
BLOCK_RECORD
  5
5358
330
1
100
AcDbSymbolTableRecord
100
AcDbBlockTableRecord
  2
*D12
  0
BLOCK_RECORD
  5
5364
330
1
100
AcDbSymbolTableRecord
100
AcDbBlockTableRecord
  2
*D13
  0
BLOCK_RECORD
  5
5370
330
1
100
AcDbSymbolTableRecord
100
AcDbBlockTableRecord
  2
*D14
  0
ENDTAB
  0
ENDSEC
  0
SECTION
  2
BLOCKS
  0
BLOCK
  5
20
330
1F
100
AcDbEntity
  8
0
100
AcDbBlockBegin
  2
*MODEL_SPACE
 70
     0
 10
0.0
 20
0.0
 30
0.0
  3
*MODEL_SPACE
  1

  0
ENDBLK
  5
21
330
1F
100
AcDbEntity
  8
0
100
AcDbBlockEnd
  0
BLOCK
  5
103
330
101
100
AcDbEntity
 67
     1
  8
0
100
AcDbBlockBegin
  2
*PAPER_SPACE
 70
     0
 10
0.0
 20
0.0
 30
0.0
  3
*PAPER_SPACE
  1

  0
ENDBLK
  5
104
330
101
100
AcDbEntity
 67
     1
  8
0
100
AcDbBlockEnd
  0
BLOCK
  5
5D
330
59
100
AcDbEntity
  8
0
100
AcDbBlockBegin
  2
_OPEN30
 70
     0
 10
0.0
 20
0.0
 30
0.0
  3
_OPEN30
  1

  0
LINE
  5
5A
330
59
100
AcDbEntity
  8
0
 62
     0
100
AcDbLine
 10
-1.0
 20
0.26794919
 30
0.0
 11
0.0
 21
0.0
 31
0.0
  0
LINE
  5
5B
330
59
100
AcDbEntity
  8
0
 62
     0
100
AcDbLine
 10
0.0
 20
0.0
 30
0.0
 11
-1.0
 21
-0.26794919
 31
0.0
  0
LINE
  5
5C
330
59
100
AcDbEntity
  8
0
 62
     0
100
AcDbLine
 10
0.0
 20
0.0
 30
0.0
 11
-1.0
 21
0.0
 31
0.0
  0
ENDBLK
  5
5E
330
59
100
AcDbEntity
  8
0
100
AcDbBlockEnd
  0
BLOCK
  5
66
330
64
100
AcDbEntity
  8
0
100
AcDbBlockBegin
  2
GENAXEH
 70
     0
 10
0.0
 20
0.0
 30
0.0
  3
GENAXEH
  1

  0
LINE
  5
65
330
64
100
AcDbEntity
  8
0
100
AcDbLine
 10
-1.0
 20
0.0
 30
0.0
 11
1.0
 21
0.0
 31
0.0
  0
ENDBLK
  5
67
330
64
100
AcDbEntity
  8
0
100
AcDbBlockEnd
  0
BLOCK
  5
5201
330
51F7
100
AcDbEntity
  8
0
100
AcDbBlockBegin
  2
*D5
 70
     1
 10
0.0
 20
0.0
 30
0.0
  3
*D5
  1

  0
LINE
  5
5670
330
51F7
100
AcDbEntity
  8
AM_5
100
AcDbLine
 10
-35.41611649427216
 20
71.55000000000004
 30
0.0
 11
-112.3240963311681
 21
71.55000000000005
 31
0.0
  0
LINE
  5
5671
330
51F7
100
AcDbEntity
  8
AM_5
100
AcDbLine
 10
-35.41611649427216
 20
-71.55000000000004
 30
0.0
 11
-112.3240963311681
 21
-71.55000000000002
 31
0.0
  0
LINE
  5
5672
330
51F7
100
AcDbEntity
  8
AM_5
100
AcDbLine
 10
-111.3240963311681
 20
69.05000000000005
 30
0.0
 11
-111.3240963311681
 21
-69.05000000000002
 31
0.0
  0
INSERT
  5
5673
330
51F7
100
AcDbEntity
  8
AM_5
100
AcDbBlockReference
  2
_OPEN30
 10
-111.3240963311681
 20
71.55000000000005
 30
0.0
 41
2.5
 42
2.5
 43
2.5
 50
90.0
  0
INSERT
  5
5674
330
51F7
100
AcDbEntity
  8
AM_5
100
AcDbBlockReference
  2
_OPEN30
 10
-111.3240963311681
 20
-71.55000000000002
 30
0.0
 41
2.5
 42
2.5
 43
2.5
 50
270.0
  0
MTEXT
  5
5675
330
51F7
100
AcDbEntity
  8
AM_5
 62
     2
100
AcDbMText
 10
-114.4240963311681
 20
-0.000000000000007
 30
0.0
 40
3.2
 41
0.0
 71
     5
 72
     1
  1
%%c143.1
  7
ASAMI
 11
0.0000000000000001
 21
1.0
 31
0.0
1001
ACAD
1000
MTEXTBEGIN
1070
    73
1070
     1
1070
    44
1040
1.0
1070
    74
1070
     0
1000
MTEXTEND
  0
POINT
  5
5676
330
51F7
100
AcDbEntity
  8
DEFPOINTS
 62
     0
100
AcDbPoint
 10
-34.41611649427215
 20
71.55000000000004
 30
0.0
  0
POINT
  5
5677
330
51F7
100
AcDbEntity
  8
DEFPOINTS
 62
     0
100
AcDbPoint
 10
-34.41611649427215
 20
-71.55000000000004
 30
0.0
  0
POINT
  5
5678
330
51F7
100
AcDbEntity
  8
DEFPOINTS
 62
     0
100
AcDbPoint
 10
-111.3240963311681
 20
-71.55000000000002
 30
0.0
  0
ENDBLK
  5
5202
330
51F7
100
AcDbEntity
  8
0
100
AcDbBlockEnd
  0
BLOCK
  5
520D
330
5203
100
AcDbEntity
  8
0
100
AcDbBlockBegin
  2
*D6
 70
     1
 10
0.0
 20
0.0
 30
0.0
  3
*D6
  1

  0
LINE
  5
549A
330
5203
100
AcDbEntity
  8
AM_5
100
AcDbLine
 10
-62.79999999999995
 20
39.99999999999996
 30
0.0
 11
-102.3240963311681
 21
39.99999999999996
 31
0.0
  0
LINE
  5
549B
330
5203
100
AcDbEntity
  8
AM_5
100
AcDbLine
 10
-62.79999999999995
 20
-39.99999999999996
 30
0.0
 11
-102.3240963311681
 21
-39.99999999999995
 31
0.0
  0
LINE
  5
549C
330
5203
100
AcDbEntity
  8
AM_5
100
AcDbLine
 10
-101.3240963311681
 20
37.49999999999996
 30
0.0
 11
-101.3240963311681
 21
-37.49999999999995
 31
0.0
  0
INSERT
  5
549D
330
5203
100
AcDbEntity
  8
AM_5
100
AcDbBlockReference
  2
_OPEN30
 10
-101.3240963311681
 20
39.99999999999996
 30
0.0
 41
2.5
 42
2.5
 43
2.5
 50
90.0
  0
INSERT
  5
549E
330
5203
100
AcDbEntity
  8
AM_5
100
AcDbBlockReference
  2
_OPEN30
 10
-101.3240963311681
 20
-39.99999999999995
 30
0.0
 41
2.5
 42
2.5
 43
2.5
 50
270.0
  0
MTEXT
  5
549F
330
5203
100
AcDbEntity
  8
AM_5
 62
     2
100
AcDbMText
 10
-104.4240963311681
 20
-0.0000000000000076
 30
0.0
 40
3.2
 41
0.0
 71
     5
 72
     1
  1
%%c80
  7
ASAMI
 11
0.0000000000000001
 21
1.0
 31
0.0
1001
ACAD
1000
MTEXTBEGIN
1070
    73
1070
     1
1070
    44
1040
1.0
1070
    74
1070
     0
1000
MTEXTEND
  0
POINT
  5
54A0
330
5203
100
AcDbEntity
  8
DEFPOINTS
 62
     0
100
AcDbPoint
 10
-61.79999999999996
 20
39.99999999999996
 30
0.0
  0
POINT
  5
54A1
330
5203
100
AcDbEntity
  8
DEFPOINTS
 62
     0
100
AcDbPoint
 10
-61.79999999999996
 20
-39.99999999999996
 30
0.0
  0
POINT
  5
54A2
330
5203
100
AcDbEntity
  8
DEFPOINTS
 62
     0
100
AcDbPoint
 10
-101.3240963311681
 20
-39.99999999999995
 30
0.0
  0
ENDBLK
  5
520E
330
5203
100
AcDbEntity
  8
0
100
AcDbBlockEnd
  0
BLOCK
  5
5219
330
520F
100
AcDbEntity
  8
0
100
AcDbBlockBegin
  2
*D7
 70
     1
 10
0.0
 20
0.0
 30
0.0
  3
*D7
  1

  0
LINE
  5
54B5
330
520F
100
AcDbEntity
  8
AM_5
100
AcDbLine
 10
-62.80000000000001
 20
19.05000000000001
 30
0.0
 11
-92.32409633116816
 21
19.05000000000002
 31
0.0
  0
LINE
  5
54B6
330
520F
100
AcDbEntity
  8
AM_5
100
AcDbLine
 10
-62.80000000000001
 20
-19.05
 30
0.0
 11
-92.32409633116816
 21
-19.04999999999999
 31
0.0
  0
LINE
  5
54B7
330
520F
100
AcDbEntity
  8
AM_5
100
AcDbLine
 10
-91.32409633116816
 20
16.55000000000002
 30
0.0
 11
-91.32409633116816
 21
-16.54999999999999
 31
0.0
  0
INSERT
  5
54B8
330
520F
100
AcDbEntity
  8
AM_5
100
AcDbBlockReference
  2
_OPEN30
 10
-91.32409633116816
 20
19.05000000000002
 30
0.0
 41
2.5
 42
2.5
 43
2.5
 50
90.0
  0
INSERT
  5
54B9
330
520F
100
AcDbEntity
  8
AM_5
100
AcDbBlockReference
  2
_OPEN30
 10
-91.32409633116816
 20
-19.04999999999999
 30
0.0
 41
2.5
 42
2.5
 43
2.5
 50
270.0
  0
MTEXT
  5
54BA
330
520F
100
AcDbEntity
  8
AM_5
 62
     2
100
AcDbMText
 10
-94.42409633116815
 20
-0.0000000000000011
 30
0.0
 40
3.2
 41
0.0
 71
     5
 72
     1
  1
%%c38.1
  7
ASAMI
 11
0.0000000000000001
 21
1.0
 31
0.0
1001
ACAD
1000
MTEXTBEGIN
1070
    73
1070
     1
1070
    44
1040
1.0
1070
    74
1070
     0
1000
MTEXTEND
  0
POINT
  5
54BB
330
520F
100
AcDbEntity
  8
DEFPOINTS
 62
     0
100
AcDbPoint
 10
-61.80000000000001
 20
19.05000000000001
 30
0.0
  0
POINT
  5
54BC
330
520F
100
AcDbEntity
  8
DEFPOINTS
 62
     0
100
AcDbPoint
 10
-61.80000000000001
 20
-19.05
 30
0.0
  0
POINT
  5
54BD
330
520F
100
AcDbEntity
  8
DEFPOINTS
 62
     0
100
AcDbPoint
 10
-91.32409633116816
 20
-19.04999999999999
 30
0.0
  0
ENDBLK
  5
521A
330
520F
100
AcDbEntity
  8
0
100
AcDbBlockEnd
  0
BLOCK
  5
5227
330
521B
100
AcDbEntity
  8
0
100
AcDbBlockBegin
  2
*D8
 70
     1
 10
0.0
 20
0.0
 30
0.0
  3
*D8
  1

  0
LINE
  5
54BE
330
521B
100
AcDbEntity
  8
AM_5
100
AcDbLine
 10
-62.79999999999995
 20
7.949999999999975
 30
0.0
 11
-82.32409633116816
 21
7.94999999999998
 31
0.0
  0
LINE
  5
54BF
330
521B
100
AcDbEntity
  8
AM_5
100
AcDbLine
 10
-62.79999999999995
 20
-7.949999999999973
 30
0.0
 11
-82.32409633116816
 21
-7.949999999999968
 31
0.0
  0
LINE
  5
54C0
330
521B
100
AcDbEntity
  8
AM_5
100
AcDbLine
 10
-81.32409633116816
 20
10.44999999999997
 30
0.0
 11
-81.32409633116816
 21
12.94999999999998
 31
0.0
  0
LINE
  5
54C1
330
521B
100
AcDbEntity
  8
AM_5
100
AcDbLine
 10
-81.32409633116816
 20
-10.44999999999997
 30
0.0
 11
-81.32409633116816
 21
-12.94999999999997
 31
0.0
  0
LINE
  5
54C2
330
521B
100
AcDbEntity
  8
AM_5
100
AcDbLine
 10
-81.32409633116816
 20
7.949999999999979
 30
0.0
 11
-81.32409633116816
 21
-7.949999999999969
 31
0.0
  0
INSERT
  5
54C3
330
521B
100
AcDbEntity
  8
AM_5
100
AcDbBlockReference
  2
_OPEN30
 10
-81.32409633116816
 20
7.949999999999979
 30
0.0
 41
2.5
 42
2.5
 43
2.5
 50
270.0
  0
INSERT
  5
54C4
330
521B
100
AcDbEntity
  8
AM_5
100
AcDbBlockReference
  2
_OPEN30
 10
-81.32409633116816
 20
-7.949999999999969
 30
0.0
 41
2.5
 42
2.5
 43
2.5
 50
90.0
  0
MTEXT
  5
54C5
330
521B
100
AcDbEntity
  8
AM_5
 62
     2
100
AcDbMText
 10
-84.42409633116815
 20
-0.0000000000000707
 30
0.0
 40
3.2
 41
0.0
 71
     5
 72
     1
  1
15.9
  7
ASAMI
 11
0.0000000000000001
 21
1.0
 31
0.0
1001
ACAD
1000
MTEXTBEGIN
1070
    73
1070
     1
1070
    44
1040
1.0
1070
    74
1070
     0
1000
MTEXTEND
  0
POINT
  5
54C6
330
521B
100
AcDbEntity
  8
DEFPOINTS
 62
     0
100
AcDbPoint
 10
-61.79999999999996
 20
7.949999999999974
 30
0.0
  0
POINT
  5
54C7
330
521B
100
AcDbEntity
  8
DEFPOINTS
 62
     0
100
AcDbPoint
 10
-61.79999999999996
 20
-7.949999999999974
 30
0.0
  0
POINT
  5
54C8
330
521B
100
AcDbEntity
  8
DEFPOINTS
 62
     0
100
AcDbPoint
 10
-81.32409633116816
 20
-7.949999999999969
 30
0.0
  0
ENDBLK
  5
5228
330
521B
100
AcDbEntity
  8
0
100
AcDbBlockEnd
  0
BLOCK
  5
5233
330
5229
100
AcDbEntity
  8
0
100
AcDbBlockBegin
  2
*D9
 70
     1
 10
0.0
 20
0.0
 30
0.0
  3
*D9
  1

  0
LINE
  5
5630
330
5229
100
AcDbEntity
  8
AM_5
100
AcDbLine
 10
-62.99999999999994
 20
-39.79999999999995
 30
0.0
 11
-62.99999999999995
 21
-98.09447810089478
 31
0.0
  0
LINE
  5
5631
330
5229
100
AcDbEntity
  8
AM_5
100
AcDbLine
 10
-24.99999999999988
 20
-29.0
 30
0.0
 11
-24.99999999999989
 21
-98.09447810089478
 31
0.0
  0
LINE
  5
5632
330
5229
100
AcDbEntity
  8
AM_5
100
AcDbLine
 10
-60.49999999999995
 20
-97.09447810089478
 30
0.0
 11
-27.49999999999989
 21
-97.09447810089478
 31
0.0
  0
INSERT
  5
5633
330
5229
100
AcDbEntity
  8
AM_5
100
AcDbBlockReference
  2
_OPEN30
 10
-62.99999999999995
 20
-97.09447810089478
 30
0.0
 41
2.5
 42
2.5
 43
2.5
 50
180.0
  0
INSERT
  5
5634
330
5229
100
AcDbEntity
  8
AM_5
100
AcDbBlockReference
  2
_OPEN30
 10
-24.99999999999989
 20
-97.09447810089478
 30
0.0
 41
2.5
 42
2.5
 43
2.5
  0
MTEXT
  5
5635
330
5229
100
AcDbEntity
  8
AM_5
 62
     2
100
AcDbMText
 10
-43.99999999999992
 20
-93.99447810089478
 30
0.0
 40
3.2
 41
0.0
 71
     5
 72
     1
  1
38
  7
ASAMI
1001
ACAD
1000
MTEXTBEGIN
1070
    73
1070
     1
1070
    44
1040
1.0
1070
    74
1070
     0
1000
MTEXTEND
  0
POINT
  5
5636
330
5229
100
AcDbEntity
  8
DEFPOINTS
 62
     0
100
AcDbPoint
 10
-62.99999999999994
 20
-38.79999999999995
 30
0.0
  0
POINT
  5
5637
330
5229
100
AcDbEntity
  8
DEFPOINTS
 62
     0
100
AcDbPoint
 10
-24.99999999999988
 20
-28.0
 30
0.0
  0
POINT
  5
5638
330
5229
100
AcDbEntity
  8
DEFPOINTS
 62
     0
100
AcDbPoint
 10
-24.99999999999989
 20
-97.09447810089478
 30
0.0
  0
ENDBLK
  5
5234
330
5229
100
AcDbEntity
  8
0
100
AcDbBlockEnd
  0
BLOCK
  5
5241
330
5235
100
AcDbEntity
  8
0
100
AcDbBlockBegin
  2
*D10
 70
     1
 10
0.0
 20
0.0
 30
0.0
  3
*D10
  1

  0
LINE
  5
5639
330
5235
100
AcDbEntity
  8
AM_5
100
AcDbLine
 10
-62.99999999999994
 20
-39.79999999999995
 30
0.0
 11
-62.99999999999994
 21
-88.09447810089478
 31
0.0
  0
LINE
  5
563A
330
5235
100
AcDbEntity
  8
AM_5
100
AcDbLine
 10
-52.99999999999994
 20
-7.950000000000002
 30
0.0
 11
-52.99999999999995
 21
-88.09447810089478
 31
0.0
  0
LINE
  5
563B
330
5235
100
AcDbEntity
  8
AM_5
100
AcDbLine
 10
-60.49999999999994
 20
-87.09447810089477
 30
0.0
 11
-55.49999999999995
 21
-87.09447810089477
 31
0.0
  0
INSERT
  5
563C
330
5235
100
AcDbEntity
  8
AM_5
100
AcDbBlockReference
  2
_OPEN30
 10
-62.99999999999994
 20
-87.09447810089477
 30
0.0
 41
2.5
 42
2.5
 43
2.5
 50
180.0
  0
INSERT
  5
563D
330
5235
100
AcDbEntity
  8
AM_5
100
AcDbBlockReference
  2
_OPEN30
 10
-52.99999999999995
 20
-87.09447810089477
 30
0.0
 41
2.5
 42
2.5
 43
2.5
  0
MTEXT
  5
563E
330
5235
100
AcDbEntity
  8
AM_5
 62
     2
100
AcDbMText
 10
-57.99999999999994
 20
-83.99447810089478
 30
0.0
 40
3.2
 41
0.0
 71
     5
 72
     1
  1
10
  7
ASAMI
1001
ACAD
1000
MTEXTBEGIN
1070
    73
1070
     1
1070
    44
1040
1.0
1070
    74
1070
     0
1000
MTEXTEND
  0
POINT
  5
563F
330
5235
100
AcDbEntity
  8
DEFPOINTS
 62
     0
100
AcDbPoint
 10
-62.99999999999994
 20
-38.79999999999995
 30
0.0
  0
POINT
  5
5640
330
5235
100
AcDbEntity
  8
DEFPOINTS
 62
     0
100
AcDbPoint
 10
-52.99999999999994
 20
-6.950000000000002
 30
0.0
  0
POINT
  5
5641
330
5235
100
AcDbEntity
  8
DEFPOINTS
 62
     0
100
AcDbPoint
 10
-52.99999999999995
 20
-87.09447810089477
 30
0.0
  0
ENDBLK
  5
5242
330
5235
100
AcDbEntity
  8
0
100
AcDbBlockEnd
  0
BLOCK
  5
524D
330
5243
100
AcDbEntity
  8
0
100
AcDbBlockBegin
  2
*D11
 70
     1
 10
0.0
 20
0.0
 30
0.0
  3
*D11
  1

  0
LINE
  5
5627
330
5243
100
AcDbEntity
  8
AM_5
100
AcDbLine
 10
-62.99999999999994
 20
-39.79999999999995
 30
0.0
 11
-62.99999999999995
 21
-108.0944781008947
 31
0.0
  0
LINE
  5
5628
330
5243
100
AcDbEntity
  8
AM_5
100
AcDbLine
 10
-0.0000000000000291
 20
-74.09447709089494
 30
0.0
 11
-0.0000000000000312
 21
-108.0944781008947
 31
0.0
  0
LINE
  5
5629
330
5243
100
AcDbEntity
  8
AM_5
100
AcDbLine
 10
-60.49999999999995
 20
-107.0944781008947
 30
0.0
 11
-2.500000000000031
 21
-107.0944781008947
 31
0.0
  0
INSERT
  5
562A
330
5243
100
AcDbEntity
  8
AM_5
100
AcDbBlockReference
  2
_OPEN30
 10
-62.99999999999995
 20
-107.0944781008947
 30
0.0
 41
2.5
 42
2.5
 43
2.5
 50
180.0
  0
INSERT
  5
562B
330
5243
100
AcDbEntity
  8
AM_5
100
AcDbBlockReference
  2
_OPEN30
 10
-0.0000000000000312
 20
-107.0944781008947
 30
0.0
 41
2.5
 42
2.5
 43
2.5
  0
MTEXT
  5
562C
330
5243
100
AcDbEntity
  8
AM_5
 62
     2
100
AcDbMText
 10
-31.49999999999999
 20
-103.9944781008947
 30
0.0
 40
3.2
 41
0.0
 71
     5
 72
     1
  1
63
  7
ASAMI
1001
ACAD
1000
MTEXTBEGIN
1070
    73
1070
     1
1070
    44
1040
1.0
1070
    74
1070
     0
1000
MTEXTEND
  0
POINT
  5
562D
330
5243
100
AcDbEntity
  8
DEFPOINTS
 62
     0
100
AcDbPoint
 10
-62.99999999999994
 20
-38.79999999999995
 30
0.0
  0
POINT
  5
562E
330
5243
100
AcDbEntity
  8
DEFPOINTS
 62
     0
100
AcDbPoint
 10
-0.0000000000000291
 20
-73.09447709089494
 30
0.0
  0
POINT
  5
562F
330
5243
100
AcDbEntity
  8
DEFPOINTS
 62
     0
100
AcDbPoint
 10
-0.0000000000000312
 20
-107.0944781008947
 30
0.0
  0
ENDBLK
  5
524E
330
5243
100
AcDbEntity
  8
0
100
AcDbBlockEnd
  0
BLOCK
  5
5362
330
5358
100
AcDbEntity
  8
0
100
AcDbBlockBegin
  2
*D12
 70
     1
 10
0.0
 20
0.0
 30
0.0
  3
*D12
  1

  0
LINE
  5
56C7
330
5358
100
AcDbEntity
  8
AM_5
100
AcDbLine
 10
1.000000000000045
 20
73.10500000000001
 30
0.0
 11
39.72194283186277
 21
73.10500000000001
 31
0.0
  0
LINE
  5
56C8
330
5358
100
AcDbEntity
  8
AM_5
100
AcDbLine
 10
1.000000000000045
 20
-73.10500000000001
 30
0.0
 11
39.72194283186274
 21
-73.10500000000003
 31
0.0
  0
LINE
  5
56C9
330
5358
100
AcDbEntity
  8
AM_5
100
AcDbLine
 10
38.72194283186276
 20
70.60500000000001
 30
0.0
 11
38.72194283186274
 21
-70.60500000000003
 31
0.0
  0
INSERT
  5
56CA
330
5358
100
AcDbEntity
  8
AM_5
100
AcDbBlockReference
  2
_OPEN30
 10
38.72194283186276
 20
73.10500000000001
 30
0.0
 41
2.5
 42
2.5
 43
2.5
 50
90.0
  0
INSERT
  5
56CB
330
5358
100
AcDbEntity
  8
AM_5
100
AcDbBlockReference
  2
_OPEN30
 10
38.72194283186274
 20
-73.10500000000003
 30
0.0
 41
2.5
 42
2.5
 43
2.5
 50
270.0
  0
MTEXT
  5
56CC
330
5358
100
AcDbEntity
  8
AM_5
 62
     2
100
AcDbMText
 10
34.78384759376751
 20
-0.0000000000000019
 30
0.0
 40
3.2
 41
0.0
 71
     5
 72
     1
  1
(%%c146.21)
  7
ASAMI
 11
0.0000000000000001
 21
1.0
 31
0.0
1001
ACAD
1000
MTEXTBEGIN
1070
    73
1070
     1
1070
    44
1040
1.0
1070
    74
1070
     0
1000
MTEXTEND
  0
POINT
  5
56CD
330
5358
100
AcDbEntity
  8
DEFPOINTS
 62
     0
100
AcDbPoint
 10
0.0000000000000459
 20
73.10500000000001
 30
0.0
  0
POINT
  5
56CE
330
5358
100
AcDbEntity
  8
DEFPOINTS
 62
     0
100
AcDbPoint
 10
0.0000000000000459
 20
-73.10500000000001
 30
0.0
  0
POINT
  5
56CF
330
5358
100
AcDbEntity
  8
DEFPOINTS
 62
     0
100
AcDbPoint
 10
38.72194283186274
 20
-73.10500000000003
 30
0.0
  0
ENDBLK
  5
5363
330
5358
100
AcDbEntity
  8
0
100
AcDbBlockEnd
  0
BLOCK
  5
536E
330
5364
100
AcDbEntity
  8
0
100
AcDbBlockBegin
  2
*D13
 70
     1
 10
0.0
 20
0.0
 30
0.0
  3
*D13
  1

  0
LINE
  5
5615
330
5364
100
AcDbEntity
  8
AM_5
100
AcDbLine
 10
-24.0
 20
27.99999999999997
 30
0.0
 11
19.72194283186276
 21
27.99999999999995
 31
0.0
  0
LINE
  5
5616
330
5364
100
AcDbEntity
  8
AM_5
100
AcDbLine
 10
-24.0
 20
-27.99999999999997
 30
0.0
 11
19.72194283186274
 21
-27.99999999999998
 31
0.0
  0
LINE
  5
5617
330
5364
100
AcDbEntity
  8
AM_5
100
AcDbLine
 10
18.72194283186276
 20
25.49999999999995
 30
0.0
 11
18.72194283186275
 21
-25.49999999999998
 31
0.0
  0
INSERT
  5
5618
330
5364
100
AcDbEntity
  8
AM_5
100
AcDbBlockReference
  2
_OPEN30
 10
18.72194283186276
 20
27.99999999999995
 30
0.0
 41
2.5
 42
2.5
 43
2.5
 50
90.0
  0
INSERT
  5
5619
330
5364
100
AcDbEntity
  8
AM_5
100
AcDbBlockReference
  2
_OPEN30
 10
18.72194283186275
 20
-27.99999999999998
 30
0.0
 41
2.5
 42
2.5
 43
2.5
 50
270.0
  0
MTEXT
  5
561A
330
5364
100
AcDbEntity
  8
AM_5
 62
     2
100
AcDbMText
 10
15.62194283186275
 20
-0.0000000000000079
 30
0.0
 40
3.2
 41
0.0
 71
     5
 72
     1
  1
%%c56
  7
ASAMI
 11
0.0000000000000001
 21
1.0
 31
0.0
1001
ACAD
1000
MTEXTBEGIN
1070
    73
1070
     1
1070
    44
1040
1.0
1070
    74
1070
     0
1000
MTEXTEND
  0
POINT
  5
561B
330
5364
100
AcDbEntity
  8
DEFPOINTS
 62
     0
100
AcDbPoint
 10
-25.0
 20
27.99999999999997
 30
0.0
  0
POINT
  5
561C
330
5364
100
AcDbEntity
  8
DEFPOINTS
 62
     0
100
AcDbPoint
 10
-25.0
 20
-27.99999999999996
 30
0.0
  0
POINT
  5
561D
330
5364
100
AcDbEntity
  8
DEFPOINTS
 62
     0
100
AcDbPoint
 10
18.72194283186275
 20
-27.99999999999998
 30
0.0
  0
ENDBLK
  5
536F
330
5364
100
AcDbEntity
  8
0
100
AcDbBlockEnd
  0
BLOCK
  5
537A
330
5370
100
AcDbEntity
  8
0
100
AcDbBlockBegin
  2
*D14
 70
     1
 10
0.0
 20
0.0
 30
0.0
  3
*D14
  1

  0
LINE
  5
561E
330
5370
100
AcDbEntity
  8
AM_5
100
AcDbLine
 10
1.000000000000056
 20
62.5
 30
0.0
 11
29.72194283186277
 21
62.5
 31
0.0
  0
LINE
  5
561F
330
5370
100
AcDbEntity
  8
AM_5
100
AcDbLine
 10
0.9999999999999715
 20
-62.50000000000004
 30
0.0
 11
29.72194283186274
 21
-62.50000000000005
 31
0.0
  0
LINE
  5
5620
330
5370
100
AcDbEntity
  8
AM_5
100
AcDbLine
 10
28.72194283186277
 20
60.0
 30
0.0
 11
28.72194283186274
 21
-60.00000000000005
 31
0.0
  0
INSERT
  5
5621
330
5370
100
AcDbEntity
  8
AM_5
100
AcDbBlockReference
  2
_OPEN30
 10
28.72194283186277
 20
62.5
 30
0.0
 41
2.5
 42
2.5
 43
2.5
 50
90.0
  0
INSERT
  5
5622
330
5370
100
AcDbEntity
  8
AM_5
100
AcDbBlockReference
  2
_OPEN30
 10
28.72194283186274
 20
-62.50000000000005
 30
0.0
 41
2.5
 42
2.5
 43
2.5
 50
270.0
  0
MTEXT
  5
5623
330
5370
100
AcDbEntity
  8
AM_5
 62
     2
100
AcDbMText
 10
25.62194283186276
 20
-0.0000000000000227
 30
0.0
 40
3.2
 41
0.0
 71
     5
 72
     1
  1
%%c125
  7
ASAMI
 11
0.0000000000000001
 21
1.0
 31
0.0
1001
ACAD
1000
MTEXTBEGIN
1070
    73
1070
     1
1070
    44
1040
1.0
1070
    74
1070
     0
1000
MTEXTEND
  0
POINT
  5
5624
330
5370
100
AcDbEntity
  8
DEFPOINTS
 62
     0
100
AcDbPoint
 10
0.0000000000000568
 20
62.5
 30
0.0
  0
POINT
  5
5625
330
5370
100
AcDbEntity
  8
DEFPOINTS
 62
     0
100
AcDbPoint
 10
-0.0000000000000284
 20
-62.50000000000004
 30
0.0
  0
POINT
  5
5626
330
5370
100
AcDbEntity
  8
DEFPOINTS
 62
     0
100
AcDbPoint
 10
28.72194283186274
 20
-62.50000000000005
 30
0.0
  0
ENDBLK
  5
537B
330
5370
100
AcDbEntity
  8
0
100
AcDbBlockEnd
  0
ENDSEC
  0
SECTION
  2
ENTITIES
  0
LINE
  5
498C
330
1F
100
AcDbEntity
  8
AM_7
100
AcDbLine
 10
-67.32409533116817
 20
0.0
 30
0.0
 11
4.72194183186275
 21
0.0
 31
0.0
  0
LINE
  5
498D
330
1F
100
AcDbEntity
  8
AM_0
100
AcDbLine
 10
-37.23519435662989
 20
69.57606042997702
 30
0.0
 11
-46.08411933939033
 21
45.26383885339464
 31
0.0
  0
LINE
  5
498E
330
1F
100
AcDbEntity
  8
AM_3
100
AcDbLine
 10
-1.499999999999943
 20
65.56956933548177
 30
0.0
 11
-1.49999999999995
 21
47.26264698945208
 31
0.0
  0
LINE
  5
498F
330
1F
100
AcDbEntity
  8
AM_0
100
AcDbLine
 10
-61.80000000000001
 20
19.05000000000001
 30
0.0
 11
-25.99999999999983
 21
19.04999999999999
 31
0.0
  0
LINE
  5
4990
330
1F
100
AcDbEntity
  8
AM_0
100
AcDbLine
 10
-62.99999999999994
 20
38.79999999999995
 30
0.0
 11
-63.00000000000006
 21
9.150000000000119
 31
0.0
  0
LINE
  5
4991
330
1F
100
AcDbEntity
  8
AM_0
100
AcDbLine
 10
-61.79999999999996
 20
7.949999999999974
 30
0.0
 11
-53.99999999999995
 21
7.949999999999988
 31
0.0
  0
LINE
  5
4992
330
1F
100
AcDbEntity
  8
AM_0
100
AcDbLine
 10
-52.99999999999994
 20
6.950000000000002
 30
0.0
 11
-52.99999999999989
 21
0.0
 31
0.0
  0
LINE
  5
4993
330
1F
100
AcDbEntity
  8
AM_0
100
AcDbLine
 10
-61.79999999999996
 20
39.99999999999996
 30
0.0
 11
-53.60166030567757
 21
39.99999999999998
 31
0.0
  0
LINE
  5
4994
330
1F
100
AcDbEntity
  8
AM_11
100
AcDbLine
 10
-24.99999999999988
 20
28.0
 30
0.0
 11
-24.99999999999983
 21
27.41341573099052
 31
0.0
  0
LINE
  5
4995
330
1F
100
AcDbEntity
  8
AM_11
100
AcDbLine
 10
-24.99999999999988
 20
28.0
 30
0.0
 11
-24.44056463960328
 21
28.17638929158913
 31
0.0
  0
LINE
  5
4996
330
1F
100
AcDbEntity
  8
AM_0
100
AcDbLine
 10
-34.41611649427215
 20
71.55000000000002
 30
0.0
 11
-15.99999999999994
 21
71.55
 31
0.0
  0
LINE
  5
4997
330
1F
100
AcDbEntity
  8
AM_3
100
AcDbLine
 10
-14.81668092397378
 20
71.33424323897663
 30
0.0
 11
-4.782501655792231
 21
69.50469272948852
 31
0.0
  0
ARC
  5
51CC
330
1F
100
AcDbEntity
  8
AM_0
100
AcDbCircle
 10
-24.19999999999982
 20
27.41341573099052
 30
0.0
 40
0.8
100
AcDbArc
 50
107.4999999999999
 51
179.9999999999997
1001
GENIUS_GENODEF_13
1002
{
1000
HIER
1070
     0
1002
}
1002
{
1000
MANEDIT
1070
     0
1002
}
1002
{
1000
NOSEL
1070
     0
1002
}
1002
{
1000
BEHIND
1070
     0
1002
}
1002
{
1000
REACTOR
1002
}
1001
GENIUS_GENOBJ-N-FIL_13
1002
{
1000
OWNER
1000
GEN
1002
}
  0
ARC
  5
51D0
330
1F
100
AcDbEntity
  8
AM_0
100
AcDbCircle
 10
-2.499999999999943
 20
36.14275187491787
 30
0.0
 40
1.0
100
AcDbArc
 50
287.5
 51
0.0
1001
GENIUS_GENODEF_13
1002
{
1000
HIER
1070
     0
1002
}
1002
{
1000
MANEDIT
1070
     0
1002
}
1002
{
1000
NOSEL
1070
     0
1002
}
1002
{
1000
BEHIND
1070
     0
1002
}
1002
{
1000
REACTOR
1002
}
1001
GENIUS_GENOBJ-N-FIL_13
1002
{
1000
OWNER
1000
GEN
1002
}
  0
ARC
  5
51D3
330
1F
100
AcDbEntity
  8
AM_0
100
AcDbCircle
 10
-53.99999999999995
 20
6.949999999999988
 30
0.0
 40
1.0
100
AcDbArc
 50
0.0000000000004071
 51
90.0
1001
GENIUS_GENODEF_13
1002
{
1000
HIER
1070
     0
1002
}
1002
{
1000
MANEDIT
1070
     0
1002
}
1002
{
1000
NOSEL
1070
     0
1002
}
1002
{
1000
BEHIND
1070
     0
1002
}
1002
{
1000
REACTOR
1002
}
1001
GENIUS_GENOBJ-N-FIL_13
1002
{
1000
OWNER
1000
GEN
1002
}
  0
ARC
  5
51DC
330
1F
100
AcDbEntity
  8
AM_0
100
AcDbCircle
 10
-53.60166030567757
 20
47.99999999999998
 30
0.0
 40
8.0
100
AcDbArc
 50
270.0000000000001
 51
340.0
1001
GENIUS_GENODEF_13
1002
{
1000
HIER
1070
     0
1002
}
1002
{
1000
MANEDIT
1070
     0
1002
}
1002
{
1000
NOSEL
1070
     0
1002
}
1002
{
1000
BEHIND
1070
     0
1002
}
1002
{
1000
REACTOR
1002
}
1001
GENIUS_GENOBJ-N-FIL_13
1002
{
1000
OWNER
1000
GEN
1002
}
  0
LINE
  5
51DF
330
1F
100
AcDbEntity
  8
AM_0
100
AcDbLine
 10
-24.44056463960322
 20
28.17638929158912
 30
0.0
 11
-2.199294200495671
 21
35.18903492416964
 31
0.0
  0
LINE
  5
51E0
330
1F
100
AcDbEntity
  8
AM_0
100
AcDbLine
 10
-24.99999999999983
 20
27.41341573099051
 30
0.0
 11
-24.99999999999983
 21
-0.0000000000000142
 31
0.0
  0
LINE
  5
51E3
330
1F
100
AcDbEntity
  8
AM_0
100
AcDbLine
 10
-24.99999999999983
 20
20.04999999999999
 30
0.0
 11
-25.99999999999983
 21
19.04999999999999
 31
0.0
1001
GENIUS_GENFIL_13
1070
     0
1040
1.0
1040
1.0
1040
20.0
1040
0.0
1002
{
1002
}
1001
GENIUS_GENODEF_13
1002
{
1000
HIER
1070
     0
1002
}
1002
{
1000
MANEDIT
1070
     0
1002
}
1002
{
1000
NOSEL
1070
     0
1002
}
1002
{
1000
BEHIND
1070
     0
1002
}
1002
{
1000
REACTOR
1002
}
1001
GENIUS_GENOBJ-N-CHA_13
1002
{
1000
OWNER
1000
GEN
1002
}
  0
LINE
  5
51E6
330
1F
100
AcDbEntity
  8
AM_0
100
AcDbLine
 10
-62.99999999999994
 20
9.149999999999977
 30
0.0
 11
-61.79999999999996
 21
7.949999999999974
 31
0.0
1001
GENIUS_GENFIL_13
1070
     0
1040
1.199999999999999
1040
1.199999999999999
1040
20.0
1040
0.0
1002
{
1002
}
1001
GENIUS_GENODEF_13
1002
{
1000
HIER
1070
     0
1002
}
1002
{
1000
MANEDIT
1070
     0
1002
}
1002
{
1000
NOSEL
1070
     0
1002
}
1002
{
1000
BEHIND
1070
     0
1002
}
1002
{
1000
REACTOR
1002
}
1001
GENIUS_GENOBJ-N-CHA_13
1002
{
1000
OWNER
1000
GEN
1002
}
  0
LINE
  5
51E9
330
1F
100
AcDbEntity
  8
AM_0
100
AcDbLine
 10
-63.0
 20
20.25000000000001
 30
0.0
 11
-61.80000000000001
 21
19.05000000000001
 31
0.0
1001
GENIUS_GENFIL_13
1070
     0
1040
1.199999999999999
1040
1.199999999999999
1040
20.0
1040
0.0
1002
{
1002
}
1001
GENIUS_GENODEF_13
1002
{
1000
HIER
1070
     0
1002
}
1002
{
1000
MANEDIT
1070
     0
1002
}
1002
{
1000
NOSEL
1070
     0
1002
}
1002
{
1000
BEHIND
1070
     0
1002
}
1002
{
1000
REACTOR
1002
}
1001
GENIUS_GENOBJ-N-CHA_13
1002
{
1000
OWNER
1000
GEN
1002
}
  0
LINE
  5
51EA
330
1F
100
AcDbEntity
  8
AM_0
100
AcDbLine
 10
-25.99999999999983
 20
19.04999999999999
 30
0.0
 11
-25.99999999999983
 21
0.0
 31
0.0
  0
LINE
  5
51EB
330
1F
100
AcDbEntity
  8
AM_0
100
AcDbLine
 10
-61.80000000000001
 20
19.05000000000001
 30
0.0
 11
-61.79999999999996
 21
7.949999999999974
 31
0.0
  0
LINE
  5
51EE
330
1F
100
AcDbEntity
  8
AM_0
100
AcDbLine
 10
-61.79999999999996
 20
39.99999999999996
 30
0.0
 11
-62.99999999999994
 21
38.79999999999995
 31
0.0
1001
GENIUS_GENFIL_13
1070
     0
1040
1.199999999999999
1040
1.199999999999999
1040
20.0
1040
0.0
1002
{
1002
}
1001
GENIUS_GENODEF_13
1002
{
1000
HIER
1070
     0
1002
}
1002
{
1000
MANEDIT
1070
     0
1002
}
1002
{
1000
NOSEL
1070
     0
1002
}
1002
{
1000
BEHIND
1070
     0
1002
}
1002
{
1000
REACTOR
1002
}
1001
GENIUS_GENOBJ-N-CHA_13
1002
{
1000
OWNER
1000
GEN
1002
}
  0
DIMENSION
  5
51EF
330
1F
100
AcDbEntity
  8
AM_5
100
AcDbDimension
  2
*D5
 10
-111.3240963311681
 20
-71.55000000000002
 30
0.0
 11
-114.4240963311681
 21
-0.000000000000007
 31
0.0
 70
    32
  1
%%c<>
  3
AM_JIS
100
AcDbAlignedDimension
 13
-34.41611649427215
 23
71.55000000000004
 33
0.0
 14
-34.41611649427215
 24
-71.55000000000004
 34
0.0
 50
90.0
100
AcDbRotatedDimension
1001
GENIUS_GENDTOL_13
1000

1000
h7
1000

1040
0.0
  0
DIMENSION
  5
51F0
330
1F
100
AcDbEntity
  8
AM_5
100
AcDbDimension
  2
*D6
 10
-101.3240963311681
 20
-39.99999999999995
 30
0.0
 11
-104.4240963311681
 21
-0.0000000000000076
 31
0.0
 70
    32
  1
%%c<>
  3
AM_JIS
100
AcDbAlignedDimension
 13
-61.79999999999996
 23
39.99999999999996
 33
0.0
 14
-61.79999999999996
 24
-39.99999999999996
 34
0.0
 50
90.0
100
AcDbRotatedDimension
1001
GENIUS_GENDTOL_13
1000

1000
h7
1000

1040
0.0
  0
DIMENSION
  5
51F1
330
1F
100
AcDbEntity
  8
AM_5
100
AcDbDimension
  2
*D7
 10
-91.32409633116816
 20
-19.04999999999999
 30
0.0
 11
-94.42409633116815
 21
-0.0000000000000011
 31
0.0
 70
    32
  1
%%c<>
  3
AM_JIS
100
AcDbAlignedDimension
 13
-61.80000000000001
 23
19.05000000000001
 33
0.0
 14
-61.80000000000001
 24
-19.05
 34
0.0
 50
90.0
100
AcDbRotatedDimension
1001
GENIUS_GENDTOL_13
1000

1000
h7
1000

1040
0.0
  0
DIMENSION
  5
51F2
330
1F
100
AcDbEntity
  8
AM_5
100
AcDbDimension
  2
*D8
 10
-81.32409633116816
 20
-7.949999999999969
 30
0.0
 11
-81.32409633116816
 21
-0.0000000000000711
 31
0.0
 70
   160
  3
AM_JIS
100
AcDbAlignedDimension
 13
-61.79999999999996
 23
7.949999999999974
 33
0.0
 14
-61.79999999999996
 24
-7.949999999999974
 34
0.0
 50
90.0
100
AcDbRotatedDimension
  0
DIMENSION
  5
51F3
330
1F
100
AcDbEntity
  8
AM_5
100
AcDbDimension
  2
*D9
 10
-24.99999999999989
 20
-97.09447810089478
 30
0.0
 11
-43.99999999999992
 21
-93.99447810089478
 31
0.0
 70
    32
  3
AM_JIS
100
AcDbAlignedDimension
 13
-62.99999999999994
 23
-38.79999999999995
 33
0.0
 14
-24.99999999999988
 24
-28.0
 34
0.0
100
AcDbRotatedDimension
  0
DIMENSION
  5
51F4
330
1F
100
AcDbEntity
  8
AM_5
100
AcDbDimension
  2
*D10
 10
-52.99999999999995
 20
-87.09447810089477
 30
0.0
 11
-57.99999999999994
 21
-83.99447810089478
 31
0.0
 70
    32
  3
AM_JIS
100
AcDbAlignedDimension
 13
-62.99999999999994
 23
-38.79999999999995
 33
0.0
 14
-52.99999999999994
 24
-6.950000000000002
 34
0.0
100
AcDbRotatedDimension
  0
DIMENSION
  5
51F5
330
1F
100
AcDbEntity
  8
AM_5
100
AcDbDimension
  2
*D11
 10
-0.0000000000000312
 20
-107.0944781008947
 30
0.0
 11
-31.49999999999999
 21
-103.9944781008947
 31
0.0
 70
    32
  3
AM_JIS
100
AcDbAlignedDimension
 13
-62.99999999999994
 23
-38.79999999999995
 33
0.0
 14
-0.0000000000000291
 24
-73.09447709089494
 34
0.0
100
AcDbRotatedDimension
  0
TEXT
  5
51F6
330
1F
100
AcDbEntity
  8
AM_6
100
AcDbText
 10
-49.71428571428569
 20
-129.5944781008947
 30
0.0
 40
5.0
  1
GRC6125R
 72
     4
 11
-31.49999999999997
 21
-127.0944781008947
 31
0.0
100
AcDbText
  0
LINE
  5
52AD
330
1F
100
AcDbEntity
  8
AM_0
100
AcDbLine
 10
-62.99999999999994
 20
-38.79999999999995
 30
0.0
 11
-63.00000000000006
 21
-9.150000000000119
 31
0.0
  0
LINE
  5
52AE
330
1F
100
AcDbEntity
  8
AM_0
100
AcDbLine
 10
-24.44056463960322
 20
-28.17638929158912
 30
0.0
 11
-2.199294200495671
 21
-35.18903492416964
 31
0.0
  0
LINE
  5
52AF
330
1F
100
AcDbEntity
  8
AM_0
100
AcDbLine
 10
-1.49999999999995
 20
-47.2626469894521
 30
0.0
 11
-1.499999999999971
 21
0.0
 31
0.0
  0
LINE
  5
52B0
330
1F
100
AcDbEntity
  8
AM_0
100
AcDbLine
 10
-61.80000000000001
 20
-19.05
 30
0.0
 11
-25.99999999999983
 21
-19.04999999999999
 31
0.0
  0
LINE
  5
52B1
330
1F
100
AcDbEntity
  8
AM_0
100
AcDbLine
 10
-61.79999999999996
 20
-7.949999999999974
 30
0.0
 11
-53.99999999999995
 21
-7.949999999999988
 31
0.0
  0
LINE
  5
52B2
330
1F
100
AcDbEntity
  8
AM_0
100
AcDbLine
 10
-61.80000000000001
 20
-19.05
 30
0.0
 11
-61.79999999999996
 21
-7.949999999999974
 31
0.0
  0
LINE
  5
52B3
330
1F
100
AcDbEntity
  8
AM_0
100
AcDbLine
 10
-62.99999999999994
 20
-9.149999999999977
 30
0.0
 11
-61.79999999999996
 21
-7.949999999999974
 31
0.0
1001
GENIUS_GENFIL_13
1070
     0
1040
1.199999999999999
1040
1.199999999999999
1040
20.0
1040
0.0
1002
{
1002
}
1001
GENIUS_GENODEF_13
1002
{
1000
HIER
1070
     0
1002
}
1002
{
1000
MANEDIT
1070
     0
1002
}
1002
{
1000
NOSEL
1070
     0
1002
}
1002
{
1000
BEHIND
1070
     0
1002
}
1002
{
1000
REACTOR
1002
}
1001
GENIUS_GENOBJ-N-CHA_13
1002
{
1000
OWNER
1000
GEN
1002
}
  0
LINE
  5
52B4
330
1F
100
AcDbEntity
  8
AM_0
100
AcDbLine
 10
-63.0
 20
-20.25
 30
0.0
 11
-61.80000000000001
 21
-19.05
 31
0.0
1001
GENIUS_GENFIL_13
1070
     0
1040
1.199999999999999
1040
1.199999999999999
1040
20.0
1040
0.0
1002
{
1002
}
1001
GENIUS_GENODEF_13
1002
{
1000
HIER
1070
     0
1002
}
1002
{
1000
MANEDIT
1070
     0
1002
}
1002
{
1000
NOSEL
1070
     0
1002
}
1002
{
1000
BEHIND
1070
     0
1002
}
1002
{
1000
REACTOR
1002
}
1001
GENIUS_GENOBJ-N-CHA_13
1002
{
1000
OWNER
1000
GEN
1002
}
  0
LINE
  5
52B5
330
1F
100
AcDbEntity
  8
AM_0
100
AcDbLine
 10
-52.99999999999994
 20
-6.950000000000002
 30
0.0
 11
-52.99999999999989
 21
0.0
 31
0.0
  0
ARC
  5
52B6
330
1F
100
AcDbEntity
  8
AM_0
100
AcDbCircle
 10
-53.99999999999995
 20
-6.949999999999988
 30
0.0
 40
1.0
100
AcDbArc
 50
270.0
 51
359.9999999999996
1001
GENIUS_GENODEF_13
1002
{
1000
HIER
1070
     0
1002
}
1002
{
1000
MANEDIT
1070
     0
1002
}
1002
{
1000
NOSEL
1070
     0
1002
}
1002
{
1000
BEHIND
1070
     0
1002
}
1002
{
1000
REACTOR
1002
}
1001
GENIUS_GENOBJ-N-FIL_13
1002
{
1000
OWNER
1000
GEN
1002
}
  0
LINE
  5
52B7
330
1F
100
AcDbEntity
  8
AM_0
100
AcDbLine
 10
-25.99999999999983
 20
-19.04999999999999
 30
0.0
 11
-25.99999999999983
 21
0.0
 31
0.0
  0
LINE
  5
52B8
330
1F
100
AcDbEntity
  8
AM_0
100
AcDbLine
 10
-24.99999999999983
 20
-27.41341573099051
 30
0.0
 11
-24.99999999999983
 21
0.0000000000000142
 31
0.0
  0
LINE
  5
52B9
330
1F
100
AcDbEntity
  8
AM_0
100
AcDbLine
 10
-24.99999999999983
 20
-20.04999999999999
 30
0.0
 11
-25.99999999999983
 21
-19.04999999999999
 31
0.0
1001
GENIUS_GENFIL_13
1070
     0
1040
1.0
1040
1.0
1040
20.0
1040
0.0
1002
{
1002
}
1001
GENIUS_GENODEF_13
1002
{
1000
HIER
1070
     0
1002
}
1002
{
1000
MANEDIT
1070
     0
1002
}
1002
{
1000
NOSEL
1070
     0
1002
}
1002
{
1000
BEHIND
1070
     0
1002
}
1002
{
1000
REACTOR
1002
}
1001
GENIUS_GENOBJ-N-CHA_13
1002
{
1000
OWNER
1000
GEN
1002
}
  0
LINE
  5
52BA
330
1F
100
AcDbEntity
  8
AM_11
100
AcDbLine
 10
-24.99999999999988
 20
-28.0
 30
0.0
 11
-24.44056463960328
 21
-28.17638929158913
 31
0.0
  0
LINE
  5
52BB
330
1F
100
AcDbEntity
  8
AM_11
100
AcDbLine
 10
-24.99999999999988
 20
-28.0
 30
0.0
 11
-24.99999999999983
 21
-27.41341573099052
 31
0.0
  0
ARC
  5
52BC
330
1F
100
AcDbEntity
  8
AM_0
100
AcDbCircle
 10
-24.19999999999982
 20
-27.41341573099052
 30
0.0
 40
0.8
100
AcDbArc
 50
180.0000000000002
 51
252.5
1001
GENIUS_GENODEF_13
1002
{
1000
HIER
1070
     0
1002
}
1002
{
1000
MANEDIT
1070
     0
1002
}
1002
{
1000
NOSEL
1070
     0
1002
}
1002
{
1000
BEHIND
1070
     0
1002
}
1002
{
1000
REACTOR
1002
}
1001
GENIUS_GENOBJ-N-FIL_13
1002
{
1000
OWNER
1000
GEN
1002
}
  0
LINE
  5
52BD
330
1F
100
AcDbEntity
  8
AM_0
100
AcDbLine
 10
-61.79999999999996
 20
-39.99999999999996
 30
0.0
 11
-53.60166030567757
 21
-39.99999999999998
 31
0.0
  0
LINE
  5
52BE
330
1F
100
AcDbEntity
  8
AM_0
100
AcDbLine
 10
-61.79999999999996
 20
-39.99999999999996
 30
0.0
 11
-62.99999999999994
 21
-38.79999999999995
 31
0.0
1001
GENIUS_GENFIL_13
1070
     0
1040
1.199999999999999
1040
1.199999999999999
1040
20.0
1040
0.0
1002
{
1002
}
1001
GENIUS_GENODEF_13
1002
{
1000
HIER
1070
     0
1002
}
1002
{
1000
MANEDIT
1070
     0
1002
}
1002
{
1000
NOSEL
1070
     0
1002
}
1002
{
1000
BEHIND
1070
     0
1002
}
1002
{
1000
REACTOR
1002
}
1001
GENIUS_GENOBJ-N-CHA_13
1002
{
1000
OWNER
1000
GEN
1002
}
  0
LINE
  5
52C0
330
1F
100
AcDbEntity
  8
AM_0
100
AcDbLine
 10
-37.22791495194456
 20
-69.59606042997703
 30
0.0
 11
-46.08411933939033
 21
-45.26383885339464
 31
0.0
  0
ARC
  5
52C1
330
1F
100
AcDbEntity
  8
AM_0
100
AcDbCircle
 10
-53.60166030567757
 20
-47.99999999999998
 30
0.0
 40
8.0
100
AcDbArc
 50
19.99999999999993
 51
89.99999999999991
1001
GENIUS_GENODEF_13
1002
{
1000
HIER
1070
     0
1002
}
1002
{
1000
MANEDIT
1070
     0
1002
}
1002
{
1000
NOSEL
1070
     0
1002
}
1002
{
1000
BEHIND
1070
     0
1002
}
1002
{
1000
REACTOR
1002
}
1001
GENIUS_GENOBJ-N-FIL_13
1002
{
1000
OWNER
1000
GEN
1002
}
  0
ARC
  5
52C3
330
1F
100
AcDbEntity
  8
AM_0
100
AcDbCircle
 10
-2.499999999999943
 20
-36.14275187491787
 30
0.0
 40
1.0
100
AcDbArc
 50
0.0
 51
72.49999999999999
1001
GENIUS_GENODEF_13
1002
{
1000
HIER
1070
     0
1002
}
1002
{
1000
MANEDIT
1070
     0
1002
}
1002
{
1000
NOSEL
1070
     0
1002
}
1002
{
1000
BEHIND
1070
     0
1002
}
1002
{
1000
REACTOR
1002
}
1001
GENIUS_GENOBJ-N-FIL_13
1002
{
1000
OWNER
1000
GEN
1002
}
  0
DIMENSION
  5
5355
330
1F
100
AcDbEntity
  8
AM_5
100
AcDbDimension
  2
*D12
 10
38.72194283186274
 20
-73.10500000000003
 30
0.0
 11
34.78384759376751
 21
-0.0000000000000019
 31
0.0
 70
    32
  1
(%%c<>)
  3
AM_JIS
100
AcDbAlignedDimension
 13
0.0000000000000459
 23
73.10500000000001
 33
0.0
 14
0.0000000000000459
 24
-73.10500000000001
 34
0.0
 50
90.0
100
AcDbRotatedDimension
1001
ACAD
1000
DSTYLE
1002
{
1070
   271
1070
     2
1002
}
1001
GENIUS_GENDTOL_13
1000

1000
h7
1000

1040
0.0
  0
DIMENSION
  5
5356
330
1F
100
AcDbEntity
  8
AM_5
100
AcDbDimension
  2
*D14
 10
28.72194283186274
 20
-62.50000000000005
 30
0.0
 11
25.62194283186276
 21
-0.0000000000000227
 31
0.0
 70
    32
  1
%%c<>
  3
AM_JIS
100
AcDbAlignedDimension
 13
0.0000000000000568
 23
62.5
 33
0.0
 14
-0.0000000000000284
 24
-62.50000000000004
 34
0.0
 50
90.0
100
AcDbRotatedDimension
1001
GENIUS_GENDTOL_13
1000

1000
h7
1000

1040
0.0
  0
DIMENSION
  5
5357
330
1F
100
AcDbEntity
  8
AM_5
100
AcDbDimension
  2
*D13
 10
18.72194283186275
 20
-27.99999999999998
 30
0.0
 11
15.62194283186275
 21
-0.0000000000000079
 31
0.0
 70
    32
  1
%%c<>
  3
AM_JIS
100
AcDbAlignedDimension
 13
-25.0
 23
27.99999999999997
 33
0.0
 14
-25.0
 24
-27.99999999999996
 34
0.0
 50
90.0
100
AcDbRotatedDimension
1001
GENIUS_GENDTOL_13
1000

1000
h7
1000

1040
0.0
  0
LINE
  5
543E
330
1F
100
AcDbEntity
  8
AM_11
100
AcDbLine
 10
0.0000000000000426
 20
73.10500000000001
 30
0.0
 11
-0.0000000000000284
 21
-73.10500000000001
 31
0.0
  0
LINE
  5
5446
330
1F
100
AcDbEntity
  8
AM_11
100
AcDbLine
 10
-9.763218292820438
 20
73.10500000000001
 30
0.0
 11
0.0000000000000459
 21
73.10500000000001
 31
0.0
  0
ELLIPSE
  5
555E
330
1F
100
AcDbEntity
  8
AM_0
100
AcDbEllipse
 10
-15.00155827178713
 20
63.26448368781079
 30
0.0
 11
-4.500608235856998
 21
2.178193174936
 31
0.0
210
0.0
220
0.0
230
1.0
 40
0.504806
 41
0.805486963134504
 42
1.25651358234124
  0
ELLIPSE
  5
555F
330
1F
100
AcDbEntity
  8
AM_0
100
AcDbEllipse
 10
-12.99391827178709
 20
77.15988868781078
 30
0.0
 11
8.634621024814
 21
12.26553381463
 31
0.0
210
0.0
220
0.0
230
1.0
 40
0.26685473333333
 41
3.582944421059309
 42
4.115060304102669
  0
ELLIPSE
  5
5560
330
1F
100
AcDbEntity
  8
AM_0
100
AcDbEllipse
 10
-19.42252127178704
 20
54.12984368781081
 30
0.0
 11
-4.382070057823
 21
2.420956911830999
 31
0.0
210
0.0
220
0.0
230
1.0
 40
0.35913708042561
 41
0.019405509230591
 42
1.275919727251189
  0
ELLIPSE
  5
5561
330
1F
100
AcDbEntity
  8
AM_0
100
AcDbEllipse
 10
-9.099612271787066
 20
63.22010668781074
 30
0.0
 11
-3.560632795107999
 21
9.344618456544999
 31
0.0
210
0.0
220
0.0
230
0.9999999999999998
 40
0.8961368999999999
 41
3.726994524603959
 42
7.24874404242889
  0
SPLINE
  5
5562
330
1F
100
AcDbEntity
  8
AM_0
100
AcDbSpline
210
0.0
220
0.0
230
1.0
 70
     8
 71
     3
 72
    11
 73
     7
 74
     5
 42
0.0000000001
 43
0.0000000001
 44
0.0000000001
 40
0.0
 40
0.0
 40
0.0
 40
0.0
 40
0.1840746892459088
 40
0.347223406264993
 40
0.4922368509692649
 40
0.6237974334019397
 40
0.6237974334019397
 40
0.6237974334019397
 40
0.6237974334019397
 10
-19.40297927178716
 20
65.08543868781071
 30
0.0
 10
-19.45775930129769
 20
65.05756842967082
 30
0.0
 10
-19.56109185896691
 20
65.00499625907824
 30
0.0
 10
-19.69395503222281
 20
64.90797462547019
 30
0.0
 10
-19.79991262458136
 20
64.80458833248196
 30
0.0
 10
-19.84621241345814
 20
64.72443024375293
 30
0.0
 10
-19.86823627178711
 20
64.68630068781071
 30
0.0
 11
-19.40297927178716
 21
65.08543868781071
 31
0.0
 11
-19.56461827178708
 21
64.99736868781069
 31
0.0
 11
-19.69634927178702
 21
64.90111668781075
 31
0.0
 11
-19.79756127178706
 21
64.79726568781079
 31
0.0
 11
-19.86823627178711
 21
64.68630068781071
 31
0.0
  0
SPLINE
  5
5563
330
1F
100
AcDbEntity
  8
AM_0
100
AcDbSpline
210
0.0
220
0.0
230
1.0
 70
     8
 71
     3
 72
    11
 73
     7
 74
     5
 42
0.0000000001
 43
0.0000000001
 44
0.0000000001
 40
0.0
 40
0.0
 40
0.0
 40
0.0
 40
1.989152561375067
 40
3.932154703795412
 40
5.547989454283595
 40
6.690485118493207
 40
6.690485118493207
 40
6.690485118493207
 40
6.690485118493207
 10
-12.34861427178708
 20
61.90787468781074
 30
0.0
 10
-11.69631982846951
 20
61.75298639038676
 30
0.0
 10
-10.40686485485115
 20
61.44680336596477
 30
0.0
 10
-8.88609565039562
 20
60.37920573645064
 30
0.0
 10
-7.823406166397938
 20
59.06271895446951
 30
0.0
 10
-7.91572215128008
 20
58.11974843728816
 30
0.0
 10
-7.953959271787141
 20
57.72917168781082
 30
0.0
 11
-12.34861427178708
 21
61.90787468781074
 31
0.0
 11
-10.44588127178707
 21
61.32793068781079
 31
0.0
 11
-8.847410271787055
 21
60.2233276878108
 31
0.0
 11
-7.962052271787058
 21
58.87163868781072
 31
0.0
 11
-7.953959271787141
 21
57.72917168781082
 31
0.0
  0
SPLINE
  5
5564
330
1F
100
AcDbEntity
  8
AM_0
100
AcDbSpline
210
0.0
220
0.0
230
1.0
 70
     8
 71
     3
 72
    11
 73
     7
 74
     5
 42
0.0000000001
 43
0.0000000001
 44
0.0000000001
 40
0.0
 40
0.0
 40
0.0
 40
0.0
 40
0.429030876778162
 40
1.05014132858696
 40
1.875394668284442
 40
2.859051641889621
 40
2.859051641889621
 40
2.859051641889621
 40
2.859051641889621
 10
-15.05190227178712
 20
61.4271636878107
 30
0.0
 10
-14.95504004781726
 20
61.53616731937527
 30
0.0
 10
-14.71794982873216
 20
61.80297613120629
 30
0.0
 10
-14.07875136118314
 20
61.9455371401654
 30
0.0
 10
-13.27814139550134
 20
62.01826869297676
 30
0.0
 10
-12.67603192853731
 20
61.94675999364917
 30
0.0
 10
-12.34861427178708
 20
61.90787468781074
 30
0.0
 11
-15.05190227178712
 21
61.4271636878107
 31
0.0
 11
-14.74114727178715
 21
61.7229656878108
 31
0.0
 11
-14.15136227178703
 21
61.91772668781077
 31
0.0
 11
-13.32905327178713
 21
61.9873756878108
 31
0.0
 11
-12.34861427178708
 21
61.90787468781074
 31
0.0
  0
SPLINE
  5
5565
330
1F
100
AcDbEntity
  8
AM_0
100
AcDbSpline
210
0.0
220
0.0
230
1.0
 70
     8
 71
     3
 72
    11
 73
     7
 74
     5
 42
0.0000000001
 43
0.0000000001
 44
0.0000000001
 40
0.0
 40
0.0
 40
0.0
 40
0.0
 40
1.60375044924891
 40
4.417982561719052
 40
7.315827424289766
 40
8.754123095884803
 40
8.754123095884803
 40
8.754123095884803
 40
8.754123095884803
 10
-7.953959271787141
 20
57.72917168781082
 30
0.0
 10
-8.471448650198176
 20
57.50203831200676
 30
0.0
 10
-9.897018975534962
 20
56.87633542041496
 30
0.0
 10
-12.04541286120708
 20
58.58958158171102
 30
0.0
 10
-14.27428178434626
 20
59.61126227594833
 30
0.0
 10
-14.85821268177763
 20
60.97485924670884
 30
0.0
 10
-15.05190227178712
 20
61.4271636878107
 30
0.0
 11
-7.953959271787141
 21
57.72917168781082
 31
0.0
 11
-9.489538271787125
 21
57.26655668781067
 31
0.0
 11
-12.04588527178708
 21
58.44341368781083
 31
0.0
 11
-14.38636727178703
 21
60.15211168781075
 31
0.0
 11
-15.05190227178712
 21
61.4271636878107
 31
0.0
  0
SPLINE
  5
5566
330
1F
100
AcDbEntity
  8
AM_0
100
AcDbSpline
210
0.0
220
0.0
230
1.0
 70
     8
 71
     3
 72
    11
 73
     7
 74
     5
 42
0.0000000001
 43
0.0000000001
 44
0.0000000001
 40
0.0
 40
0.0
 40
0.0
 40
0.0
 40
0.3226455887579409
 40
0.7179142747387381
 40
1.248862075917951
 40
1.930451242437631
 40
1.930451242437631
 40
1.930451242437631
 40
1.930451242437631
 10
-19.86823627178711
 20
64.68630068781071
 30
0.0
 10
-19.89439592185807
 20
64.57855932526555
 30
0.0
 10
-19.95260340047389
 20
64.33882549704638
 30
0.0
 10
-19.7391716689103
 20
63.95035196471837
 30
0.0
 10
-19.39283279005379
 20
63.5490197351653
 30
0.0
 10
-19.08526227406202
 20
63.2839847126455
 30
0.0
 10
-18.91237127178709
 20
63.13500368781074
 30
0.0
 11
-19.86823627178711
 21
64.68630068781071
 31
0.0
 11
-19.91017727178706
 21
64.36639268781077
 31
0.0
 11
-19.75485127178711
 21
64.00292168781077
 31
0.0
 11
-19.41639027178706
 21
63.59383768781076
 31
0.0
 11
-18.91237127178709
 21
63.13500368781074
 31
0.0
  0
LINE
  5
5567
330
1F
100
AcDbEntity
  8
AM_0
100
AcDbLine
 10
-1.136867271787139
 20
55.32174168781073
 30
0.0
 11
-1.473731271787016
 21
47.63407168781081
 31
0.0
  0
LINE
  5
5568
330
1F
100
AcDbEntity
  8
AM_0
100
AcDbLine
 10
-1.504902271787102
 20
58.75455068781075
 30
0.0
 11
-1.504902271787102
 21
50.88058568781075
 31
0.0
  0
LINE
  5
5569
330
1F
100
AcDbEntity
  8
AM_0
100
AcDbLine
 10
-21.17674227178707
 20
53.08033168781076
 30
0.0
 11
-21.17674227178707
 21
49.49914168781076
 31
0.0
  0
LINE
  5
556A
330
1F
100
AcDbEntity
  8
AM_0
100
AcDbLine
 10
-22.91018027178705
 20
49.31941768781079
 30
0.0
 11
-22.91018027178705
 21
54.4854336878107
 31
0.0
  0
LINE
  5
556B
330
1F
100
AcDbEntity
  8
AM_0
100
AcDbLine
 10
-17.43855627178703
 20
61.77718768781078
 30
0.0
 11
-1.504902271787102
 21
50.56029768781074
 31
0.0
  0
LINE
  5
556C
330
1F
100
AcDbEntity
  8
AM_0
100
AcDbLine
 10
-1.504902271787102
 20
50.88058568781075
 30
0.0
 11
-18.91237127178709
 21
63.13500368781074
 31
0.0
  0
LINE
  5
556D
330
1F
100
AcDbEntity
  8
AM_0
100
AcDbLine
 10
-21.52797427178705
 20
53.32758968781075
 30
0.0
 11
-1.504902271787102
 21
39.23185268781075
 31
0.0
  0
LINE
  5
556E
330
1F
100
AcDbEntity
  8
AM_0
100
AcDbLine
 10
-21.17674227178707
 20
49.49914168781076
 30
0.0
 11
-15.44536027178713
 21
49.04558268781072
 31
0.0
  0
LINE
  5
556F
330
1F
100
AcDbEntity
  8
AM_0
100
AcDbLine
 10
-21.67201027178708
 20
48.74435768781079
 30
0.0
 11
-14.17466827178708
 21
48.1510476878107
 31
0.0
  0
LINE
  5
5570
330
1F
100
AcDbEntity
  8
AM_0
100
AcDbLine
 10
-21.67201027178708
 20
48.74435768781079
 30
0.0
 11
-22.91018027178705
 21
49.31941768781079
 31
0.0
  0
LINE
  5
5571
330
1F
100
AcDbEntity
  8
AM_0
100
AcDbLine
 10
-21.17674227178707
 20
49.49914168781076
 30
0.0
 11
-21.67201027178708
 21
48.74435768781079
 31
0.0
  0
LINE
  5
5572
330
1F
100
AcDbEntity
  8
AM_0
100
AcDbLine
 10
-1.504902271787102
 20
50.56029768781074
 30
0.0
 11
-1.504902271787102
 21
39.23185268781075
 31
0.0
  0
LINE
  5
5573
330
1F
100
AcDbEntity
  8
AM_0
100
AcDbLine
 10
-1.504902271787102
 20
50.88058568781075
 30
0.0
 11
-1.504902271787102
 21
50.56029768781074
 31
0.0
  0
LINE
  5
5574
330
1F
100
AcDbEntity
  8
AM_0
100
AcDbLine
 10
-1.504902271787102
 20
47.67605368781078
 30
0.0
 11
-1.473731271787016
 21
47.63407168781081
 31
0.0
  0
LINE
  5
5575
330
1F
100
AcDbEntity
  8
AM_0
100
AcDbLine
 10
-1.504902271787102
 20
47.19333168781069
 30
0.0
 11
-1.473731271787016
 21
47.63407168781081
 31
0.0
  0
LINE
  5
5576
330
1F
100
AcDbEntity
  8
AM_0
100
AcDbLine
 10
-15.14398827178701
 20
68.35612268781078
 30
0.0
 11
-1.504902271787102
 21
58.75455068781075
 31
0.0
  0
LINE
  5
5577
330
1F
100
AcDbEntity
  8
AM_0
100
AcDbLine
 10
-14.94902827178708
 20
68.47510568781074
 30
0.0
 11
-1.504902271787102
 21
59.01078068781071
 31
0.0
  0
LINE
  5
5578
330
1F
100
AcDbEntity
  8
AM_0
100
AcDbLine
 10
-21.17674227178707
 20
71.15259168781078
 30
0.0
 11
-21.17674227178707
 21
61.98265068781079
 31
0.0
  0
LINE
  5
5579
330
1F
100
AcDbEntity
  8
AM_0
100
AcDbLine
 10
-22.91018027178705
 20
58.4010026878107
 30
0.0
 11
-22.91018027178705
 21
70.07601068781075
 31
0.0
  0
LINE
  5
557A
330
1F
100
AcDbEntity
  8
AM_0
100
AcDbLine
 10
-19.86816327178706
 20
64.68645068781079
 30
0.0
 11
-23.82063727178711
 21
56.51980768781077
 31
0.0
  0
LINE
  5
557B
330
1F
100
AcDbEntity
  8
AM_0
100
AcDbLine
 10
-17.43855627178703
 20
61.77718768781078
 30
0.0
 11
-21.52797427178705
 21
53.32758968781075
 31
0.0
  0
LINE
  5
557C
330
1F
100
AcDbEntity
  8
AM_0
100
AcDbLine
 10
-21.11218027178705
 20
71.15980368781077
 30
0.0
 11
-16.53594027178707
 21
70.79765768781071
 31
0.0
  0
LINE
  5
557D
330
1F
100
AcDbEntity
  8
AM_0
100
AcDbLine
 10
-21.11218027178705
 20
71.15980368781077
 30
0.0
 11
-15.54095327178714
 21
71.17678368781075
 31
0.0
  0
LINE
  5
557E
330
1F
100
AcDbEntity
  8
AM_0
100
AcDbLine
 10
-22.91018027178705
 20
70.07601068781075
 30
0.0
 11
-21.17674227178707
 21
71.15259168781078
 31
0.0
  0
LINE
  5
557F
330
1F
100
AcDbEntity
  8
AM_0
100
AcDbLine
 10
-21.17674227178707
 20
71.15259168781078
 30
0.0
 11
-21.11218027178705
 21
71.15980368781077
 31
0.0
  0
LINE
  5
5580
330
1F
100
AcDbEntity
  8
AM_0
100
AcDbLine
 10
-15.54095327178714
 20
71.17678368781075
 30
0.0
 11
-16.53594027178707
 21
70.79765768781071
 31
0.0
  0
LINE
  5
5581
330
1F
100
AcDbEntity
  8
AM_0
100
AcDbLine
 10
-15.54095327178714
 20
71.17678368781075
 30
0.0
 11
-15.20192227178705
 21
71.00840468781079
 31
0.0
  0
LINE
  5
5582
330
1F
100
AcDbEntity
  8
AM_0
100
AcDbLine
 10
-16.53594027178707
 20
69.48437768781075
 30
0.0
 11
-16.53594027178707
 21
70.79765768781071
 31
0.0
  0
LINE
  5
5583
330
1F
100
AcDbEntity
  8
AM_0
100
AcDbLine
 10
-15.14398827178701
 20
68.35612268781078
 30
0.0
 11
-14.94902827178708
 21
68.47510568781074
 31
0.0
  0
LINE
  5
5585
330
1F
100
AcDbEntity
  8
AM_0
100
AcDbLine
 10
-1.504902271787102
 20
59.01078068781071
 30
0.0
 11
-1.504902271787102
 21
58.75455068781075
 31
0.0
  0
LINE
  5
5586
330
1F
100
AcDbEntity
  8
AM_0
100
AcDbLine
 10
-1.345067271787172
 20
55.24240968781082
 30
0.0
 11
-1.504902271787102
 21
55.18150668781077
 31
0.0
  0
LINE
  5
5587
330
1F
100
AcDbEntity
  8
AM_0
100
AcDbLine
 10
-1.504902271787102
 20
55.25505868781071
 30
0.0
 11
-1.345067271787172
 21
55.24240968781082
 31
0.0
  0
LINE
  5
5588
330
1F
100
AcDbEntity
  8
AM_0
100
AcDbLine
 10
-1.136867271787139
 20
55.32174168781073
 30
0.0
 11
-1.345067271787172
 21
55.24240968781082
 31
0.0
  0
LINE
  5
5589
330
1F
100
AcDbEntity
  8
AM_0
100
AcDbLine
 10
-1.134752271787135
 20
57.82740268781076
 30
0.0
 11
-1.345067271787172
 21
55.24240968781082
 31
0.0
  0
LINE
  5
558A
330
1F
100
AcDbEntity
  8
AM_0
100
AcDbLine
 10
-0.9883112717870403
 20
58.11468968781075
 30
0.0
 11
-1.136867271787139
 21
55.32174168781073
 31
0.0
  0
ARC
  5
559D
330
1F
100
AcDbEntity
  8
AM_3
100
AcDbCircle
 10
-5.499999999999943
 20
65.56956933548177
 30
0.0
 40
4.0
100
AcDbArc
 50
0.0
 51
79.66666665999986
1001
GENIUS_GENODEF_13
1002
{
1000
HIER
1070
     0
1002
}
1002
{
1000
MANEDIT
1070
     0
1002
}
1002
{
1000
NOSEL
1070
     0
1002
}
1002
{
1000
BEHIND
1070
     0
1002
}
1002
{
1000
REACTOR
1002
}
1001
GENIUS_GENOBJ-N-FIL_13
1002
{
1000
OWNER
1000
GEN
1002
}
  0
ARC
  5
55A0
330
1F
100
AcDbEntity
  8
AM_0
100
AcDbCircle
 10
-34.41611649427216
 20
68.55000000000003
 30
0.0
 40
3.0
100
AcDbArc
 50
89.99999999999991
 51
160.0000000000001
1001
GENIUS_GENODEF_13
1002
{
1000
HIER
1070
     0
1002
}
1002
{
1000
MANEDIT
1070
     0
1002
}
1002
{
1000
NOSEL
1070
     0
1002
}
1002
{
1000
BEHIND
1070
     0
1002
}
1002
{
1000
REACTOR
1002
}
1001
GENIUS_GENOBJ-N-FIL_13
1002
{
1000
OWNER
1000
GEN
1002
}
  0
LINE
  5
55B6
330
1F
100
AcDbEntity
  8
AM_0
100
AcDbLine
 10
-15.99999999999994
 20
71.55
 30
0.0
 11
-14.81668092397379
 21
71.33424323897663
 31
0.0
  0
LINE
  5
55B7
330
1F
100
AcDbEntity
  8
AM_0
100
AcDbLine
 10
-1.49999999999995
 20
47.26264698945208
 30
0.0
 11
-1.499999999999971
 21
0.0
 31
0.0
  0
ARC
  5
55BC
330
1F
100
AcDbEntity
  8
AM_0
100
AcDbCircle
 10
-34.41611649427216
 20
-68.55000000000003
 30
0.0
 40
3.0
100
AcDbArc
 50
199.9999999999998
 51
270.0000000000001
1001
GENIUS_GENODEF_13
1002
{
1000
HIER
1070
     0
1002
}
1002
{
1000
MANEDIT
1070
     0
1002
}
1002
{
1000
NOSEL
1070
     0
1002
}
1002
{
1000
BEHIND
1070
     0
1002
}
1002
{
1000
REACTOR
1002
}
1001
GENIUS_GENOBJ-N-FIL_13
1002
{
1000
OWNER
1000
GEN
1002
}
  0
LINE
  5
55BD
330
1F
100
AcDbEntity
  8
AM_0
100
AcDbLine
 10
-34.41611649427215
 20
-71.55000000000002
 30
0.0
 11
-15.99999999999994
 21
-71.55
 31
0.0
  0
SPLINE
  5
55BE
330
1F
100
AcDbEntity
  8
AM_0
100
AcDbSpline
210
0.0
220
0.0
230
1.0
 70
     8
 71
     3
 72
    11
 73
     7
 74
     5
 42
0.0000000001
 43
0.0000000001
 44
0.0000000001
 40
0.0
 40
0.0
 40
0.0
 40
0.0
 40
0.3226455887579409
 40
0.7179142747387381
 40
1.248862075917951
 40
1.930451242437631
 40
1.930451242437631
 40
1.930451242437631
 40
1.930451242437631
 10
-19.86823627178711
 20
-64.68630068781071
 30
0.0
 10
-19.89439592185807
 20
-64.57855932526555
 30
0.0
 10
-19.95260340047389
 20
-64.33882549704638
 30
0.0
 10
-19.7391716689103
 20
-63.95035196471837
 30
0.0
 10
-19.39283279005379
 20
-63.5490197351653
 30
0.0
 10
-19.08526227406202
 20
-63.2839847126455
 30
0.0
 10
-18.91237127178709
 20
-63.13500368781074
 30
0.0
 11
-19.86823627178711
 21
-64.68630068781071
 31
0.0
 11
-19.91017727178706
 21
-64.36639268781077
 31
0.0
 11
-19.75485127178711
 21
-64.00292168781077
 31
0.0
 11
-19.41639027178706
 21
-63.59383768781076
 31
0.0
 11
-18.91237127178709
 21
-63.13500368781074
 31
0.0
  0
SPLINE
  5
55BF
330
1F
100
AcDbEntity
  8
AM_0
100
AcDbSpline
210
0.0
220
0.0
230
1.0
 70
     8
 71
     3
 72
    11
 73
     7
 74
     5
 42
0.0000000001
 43
0.0000000001
 44
0.0000000001
 40
0.0
 40
0.0
 40
0.0
 40
0.0
 40
1.60375044924891
 40
4.417982561719052
 40
7.315827424289766
 40
8.754123095884803
 40
8.754123095884803
 40
8.754123095884803
 40
8.754123095884803
 10
-7.953959271787141
 20
-57.72917168781082
 30
0.0
 10
-8.471448650198176
 20
-57.50203831200676
 30
0.0
 10
-9.897018975534962
 20
-56.87633542041496
 30
0.0
 10
-12.04541286120708
 20
-58.58958158171102
 30
0.0
 10
-14.27428178434626
 20
-59.61126227594833
 30
0.0
 10
-14.85821268177763
 20
-60.97485924670884
 30
0.0
 10
-15.05190227178712
 20
-61.4271636878107
 30
0.0
 11
-7.953959271787141
 21
-57.72917168781082
 31
0.0
 11
-9.489538271787125
 21
-57.26655668781067
 31
0.0
 11
-12.04588527178708
 21
-58.44341368781083
 31
0.0
 11
-14.38636727178703
 21
-60.15211168781075
 31
0.0
 11
-15.05190227178712
 21
-61.4271636878107
 31
0.0
  0
SPLINE
  5
55C0
330
1F
100
AcDbEntity
  8
AM_0
100
AcDbSpline
210
0.0
220
0.0
230
1.0
 70
     8
 71
     3
 72
    11
 73
     7
 74
     5
 42
0.0000000001
 43
0.0000000001
 44
0.0000000001
 40
0.0
 40
0.0
 40
0.0
 40
0.0
 40
0.429030876778162
 40
1.05014132858696
 40
1.875394668284442
 40
2.859051641889621
 40
2.859051641889621
 40
2.859051641889621
 40
2.859051641889621
 10
-15.05190227178712
 20
-61.4271636878107
 30
0.0
 10
-14.95504004781726
 20
-61.53616731937527
 30
0.0
 10
-14.71794982873216
 20
-61.80297613120629
 30
0.0
 10
-14.07875136118314
 20
-61.9455371401654
 30
0.0
 10
-13.27814139550134
 20
-62.01826869297676
 30
0.0
 10
-12.67603192853731
 20
-61.94675999364917
 30
0.0
 10
-12.34861427178708
 20
-61.90787468781074
 30
0.0
 11
-15.05190227178712
 21
-61.4271636878107
 31
0.0
 11
-14.74114727178715
 21
-61.7229656878108
 31
0.0
 11
-14.15136227178703
 21
-61.91772668781077
 31
0.0
 11
-13.32905327178713
 21
-61.9873756878108
 31
0.0
 11
-12.34861427178708
 21
-61.90787468781074
 31
0.0
  0
SPLINE
  5
55C1
330
1F
100
AcDbEntity
  8
AM_0
100
AcDbSpline
210
0.0
220
0.0
230
1.0
 70
     8
 71
     3
 72
    11
 73
     7
 74
     5
 42
0.0000000001
 43
0.0000000001
 44
0.0000000001
 40
0.0
 40
0.0
 40
0.0
 40
0.0
 40
1.989152561375067
 40
3.932154703795412
 40
5.547989454283595
 40
6.690485118493207
 40
6.690485118493207
 40
6.690485118493207
 40
6.690485118493207
 10
-12.34861427178708
 20
-61.90787468781074
 30
0.0
 10
-11.69631982846951
 20
-61.75298639038676
 30
0.0
 10
-10.40686485485115
 20
-61.44680336596477
 30
0.0
 10
-8.88609565039562
 20
-60.37920573645064
 30
0.0
 10
-7.823406166397938
 20
-59.06271895446951
 30
0.0
 10
-7.91572215128008
 20
-58.11974843728816
 30
0.0
 10
-7.953959271787141
 20
-57.72917168781082
 30
0.0
 11
-12.34861427178708
 21
-61.90787468781074
 31
0.0
 11
-10.44588127178707
 21
-61.32793068781079
 31
0.0
 11
-8.847410271787055
 21
-60.2233276878108
 31
0.0
 11
-7.962052271787058
 21
-58.87163868781072
 31
0.0
 11
-7.953959271787141
 21
-57.72917168781082
 31
0.0
  0
SPLINE
  5
55C2
330
1F
100
AcDbEntity
  8
AM_0
100
AcDbSpline
210
0.0
220
0.0
230
1.0
 70
     8
 71
     3
 72
    11
 73
     7
 74
     5
 42
0.0000000001
 43
0.0000000001
 44
0.0000000001
 40
0.0
 40
0.0
 40
0.0
 40
0.0
 40
0.1840746892459088
 40
0.347223406264993
 40
0.4922368509692649
 40
0.6237974334019397
 40
0.6237974334019397
 40
0.6237974334019397
 40
0.6237974334019397
 10
-19.40297927178716
 20
-65.08543868781071
 30
0.0
 10
-19.45775930129769
 20
-65.05756842967082
 30
0.0
 10
-19.56109185896691
 20
-65.00499625907824
 30
0.0
 10
-19.69395503222281
 20
-64.90797462547019
 30
0.0
 10
-19.79991262458136
 20
-64.80458833248196
 30
0.0
 10
-19.84621241345814
 20
-64.72443024375293
 30
0.0
 10
-19.86823627178711
 20
-64.68630068781071
 30
0.0
 11
-19.40297927178716
 21
-65.08543868781071
 31
0.0
 11
-19.56461827178708
 21
-64.99736868781069
 31
0.0
 11
-19.69634927178702
 21
-64.90111668781075
 31
0.0
 11
-19.79756127178706
 21
-64.79726568781079
 31
0.0
 11
-19.86823627178711
 21
-64.68630068781071
 31
0.0
  0
ELLIPSE
  5
55C3
330
1F
100
AcDbEntity
  8
AM_0
100
AcDbEllipse
 10
-9.099612271787066
 20
-63.22010668781074
 30
0.0
 11
-3.560632795107999
 21
-9.344618456544999
 31
0.0
210
0.0
220
0.0
230
-0.9999999999999998
 40
0.8961368999999999
 41
3.726994524603959
 42
7.24874404242889
  0
ELLIPSE
  5
55C4
330
1F
100
AcDbEntity
  8
AM_0
100
AcDbEllipse
 10
-19.42252127178704
 20
-54.12984368781081
 30
0.0
 11
-4.382070057823
 21
-2.420956911830999
 31
0.0
210
0.0
220
0.0
230
-1.0
 40
0.35913708042561
 41
0.019405509230591
 42
1.275919727251189
  0
ELLIPSE
  5
55C5
330
1F
100
AcDbEntity
  8
AM_0
100
AcDbEllipse
 10
-12.99391827178709
 20
-77.15988868781078
 30
0.0
 11
8.634621024814
 21
-12.26553381463
 31
0.0
210
0.0
220
0.0
230
-1.0
 40
0.26685473333333
 41
3.582944421059309
 42
4.115060304102669
  0
ELLIPSE
  5
55C6
330
1F
100
AcDbEntity
  8
AM_0
100
AcDbEllipse
 10
-15.00155827178713
 20
-63.26448368781079
 30
0.0
 11
-4.500608235856998
 21
-2.178193174936
 31
0.0
210
0.0
220
0.0
230
-1.0
 40
0.504806
 41
0.805486963134504
 42
1.25651358234124
  0
ARC
  5
55C7
330
1F
100
AcDbEntity
  8
AM_3
100
AcDbCircle
 10
-5.499999999999943
 20
-65.56956933548177
 30
0.0
 40
4.0
100
AcDbArc
 50
280.3333333400001
 51
0.0
1001
GENIUS_GENODEF_13
1002
{
1000
HIER
1070
     0
1002
}
1002
{
1000
MANEDIT
1070
     0
1002
}
1002
{
1000
NOSEL
1070
     0
1002
}
1002
{
1000
BEHIND
1070
     0
1002
}
1002
{
1000
REACTOR
1002
}
1001
GENIUS_GENOBJ-N-FIL_13
1002
{
1000
OWNER
1000
GEN
1002
}
  0
LINE
  5
55C8
330
1F
100
AcDbEntity
  8
AM_0
100
AcDbLine
 10
-22.91018027178705
 20
-58.4010026878107
 30
0.0
 11
-22.91018027178705
 21
-70.07601068781075
 31
0.0
  0
LINE
  5
55C9
330
1F
100
AcDbEntity
  8
AM_0
100
AcDbLine
 10
-21.17674227178707
 20
-71.15259168781078
 30
0.0
 11
-21.17674227178707
 21
-61.98265068781079
 31
0.0
  0
LINE
  5
55CA
330
1F
100
AcDbEntity
  8
AM_0
100
AcDbLine
 10
-14.94902827178708
 20
-68.47510568781074
 30
0.0
 11
-1.504902271787102
 21
-59.01078068781071
 31
0.0
  0
LINE
  5
55CB
330
1F
100
AcDbEntity
  8
AM_0
100
AcDbLine
 10
-15.14398827178701
 20
-68.35612268781078
 30
0.0
 11
-1.504902271787102
 21
-58.75455068781075
 31
0.0
  0
LINE
  5
55CC
330
1F
100
AcDbEntity
  8
AM_0
100
AcDbLine
 10
-21.52797427178705
 20
-53.32758968781075
 30
0.0
 11
-1.504902271787102
 21
-39.23185268781075
 31
0.0
  0
LINE
  5
55CD
330
1F
100
AcDbEntity
  8
AM_0
100
AcDbLine
 10
-1.504902271787102
 20
-50.88058568781075
 30
0.0
 11
-18.91237127178709
 21
-63.13500368781074
 31
0.0
  0
LINE
  5
55CE
330
1F
100
AcDbEntity
  8
AM_0
100
AcDbLine
 10
-17.43855627178703
 20
-61.77718768781078
 30
0.0
 11
-1.504902271787102
 21
-50.56029768781074
 31
0.0
  0
LINE
  5
55CF
330
1F
100
AcDbEntity
  8
AM_0
100
AcDbLine
 10
-17.43855627178703
 20
-61.77718768781078
 30
0.0
 11
-21.52797427178705
 21
-53.32758968781075
 31
0.0
  0
LINE
  5
55D0
330
1F
100
AcDbEntity
  8
AM_0
100
AcDbLine
 10
-21.17674227178707
 20
-49.49914168781076
 30
0.0
 11
-21.67201027178708
 21
-48.74435768781079
 31
0.0
  0
LINE
  5
55D1
330
1F
100
AcDbEntity
  8
AM_0
100
AcDbLine
 10
-21.67201027178708
 20
-48.74435768781079
 30
0.0
 11
-22.91018027178705
 21
-49.31941768781079
 31
0.0
  0
LINE
  5
55D2
330
1F
100
AcDbEntity
  8
AM_0
100
AcDbLine
 10
-21.17674227178707
 20
-49.49914168781076
 30
0.0
 11
-15.44536027178713
 21
-49.04558268781072
 31
0.0
  0
LINE
  5
55D3
330
1F
100
AcDbEntity
  8
AM_0
100
AcDbLine
 10
-21.67201027178708
 20
-48.74435768781079
 30
0.0
 11
-14.17466827178708
 21
-48.1510476878107
 31
0.0
  0
LINE
  5
55D4
330
1F
100
AcDbEntity
  8
AM_0
100
AcDbLine
 10
-22.91018027178705
 20
-49.31941768781079
 30
0.0
 11
-22.91018027178705
 21
-54.4854336878107
 31
0.0
  0
LINE
  5
55D5
330
1F
100
AcDbEntity
  8
AM_0
100
AcDbLine
 10
-21.17674227178707
 20
-53.08033168781076
 30
0.0
 11
-21.17674227178707
 21
-49.49914168781076
 31
0.0
  0
LINE
  5
55D6
330
1F
100
AcDbEntity
  8
AM_0
100
AcDbLine
 10
-19.86816327178706
 20
-64.68645068781079
 30
0.0
 11
-23.82063727178711
 21
-56.51980768781077
 31
0.0
  0
LINE
  5
55D7
330
1F
100
AcDbEntity
  8
AM_0
100
AcDbLine
 10
-1.504902271787102
 20
-50.56029768781074
 30
0.0
 11
-1.504902271787102
 21
-39.23185268781075
 31
0.0
  0
LINE
  5
55D8
330
1F
100
AcDbEntity
  8
AM_3
100
AcDbLine
 10
-1.499999999999943
 20
-65.56956933548177
 30
0.0
 11
-1.49999999999995
 21
-47.26264698945208
 31
0.0
  0
LINE
  5
55D9
330
1F
100
AcDbEntity
  8
AM_0
100
AcDbLine
 10
-1.504902271787102
 20
-58.75455068781075
 30
0.0
 11
-1.504902271787102
 21
-50.88058568781075
 31
0.0
  0
LINE
  5
55DA
330
1F
100
AcDbEntity
  8
AM_0
100
AcDbLine
 10
-1.136867271787139
 20
-55.32174168781073
 30
0.0
 11
-1.473731271787016
 21
-47.63407168781081
 31
0.0
  0
LINE
  5
55DB
330
1F
100
AcDbEntity
  8
AM_0
100
AcDbLine
 10
-1.504902271787102
 20
-47.19333168781069
 30
0.0
 11
-1.473731271787016
 21
-47.63407168781081
 31
0.0
  0
LINE
  5
55DC
330
1F
100
AcDbEntity
  8
AM_0
100
AcDbLine
 10
-1.504902271787102
 20
-47.67605368781078
 30
0.0
 11
-1.473731271787016
 21
-47.63407168781081
 31
0.0
  0
LINE
  5
55DD
330
1F
100
AcDbEntity
  8
AM_0
100
AcDbLine
 10
-1.504902271787102
 20
-50.88058568781075
 30
0.0
 11
-1.504902271787102
 21
-50.56029768781074
 31
0.0
  0
LINE
  5
55DE
330
1F
100
AcDbEntity
  8
AM_0
100
AcDbLine
 10
-0.9883112717870403
 20
-58.11468968781075
 30
0.0
 11
-1.136867271787139
 21
-55.32174168781073
 31
0.0
  0
LINE
  5
55DF
330
1F
100
AcDbEntity
  8
AM_0
100
AcDbLine
 10
-1.134752271787135
 20
-57.82740268781076
 30
0.0
 11
-1.345067271787172
 21
-55.24240968781082
 31
0.0
  0
LINE
  5
55E0
330
1F
100
AcDbEntity
  8
AM_0
100
AcDbLine
 10
-1.136867271787139
 20
-55.32174168781073
 30
0.0
 11
-1.345067271787172
 21
-55.24240968781082
 31
0.0
  0
LINE
  5
55E1
330
1F
100
AcDbEntity
  8
AM_0
100
AcDbLine
 10
-1.504902271787102
 20
-55.25505868781071
 30
0.0
 11
-1.345067271787172
 21
-55.24240968781082
 31
0.0
  0
LINE
  5
55E2
330
1F
100
AcDbEntity
  8
AM_0
100
AcDbLine
 10
-1.345067271787172
 20
-55.24240968781082
 30
0.0
 11
-1.504902271787102
 21
-55.18150668781077
 31
0.0
  0
LINE
  5
55E3
330
1F
100
AcDbEntity
  8
AM_0
100
AcDbLine
 10
-1.504902271787102
 20
-59.01078068781071
 30
0.0
 11
-1.504902271787102
 21
-58.75455068781075
 31
0.0
  0
LINE
  5
55E4
330
1F
100
AcDbEntity
  8
AM_11
100
AcDbLine
 10
-9.763218292820438
 20
-73.10500000000001
 30
0.0
 11
0.0000000000000459
 21
-73.10500000000001
 31
0.0
  0
LINE
  5
55E5
330
1F
100
AcDbEntity
  8
AM_3
100
AcDbLine
 10
-14.81668092397378
 20
-71.33424323897663
 30
0.0
 11
-4.782501655792231
 21
-69.50469272948852
 31
0.0
  0
LINE
  5
55E6
330
1F
100
AcDbEntity
  8
AM_0
100
AcDbLine
 10
-21.11218027178705
 20
-71.15980368781077
 30
0.0
 11
-15.54095327178714
 21
-71.17678368781075
 31
0.0
  0
LINE
  5
55E7
330
1F
100
AcDbEntity
  8
AM_0
100
AcDbLine
 10
-21.11218027178705
 20
-71.15980368781077
 30
0.0
 11
-16.53594027178707
 21
-70.79765768781071
 31
0.0
  0
LINE
  5
55E8
330
1F
100
AcDbEntity
  8
AM_0
100
AcDbLine
 10
-21.17674227178707
 20
-71.15259168781078
 30
0.0
 11
-21.11218027178705
 21
-71.15980368781077
 31
0.0
  0
LINE
  5
55E9
330
1F
100
AcDbEntity
  8
AM_0
100
AcDbLine
 10
-22.91018027178705
 20
-70.07601068781075
 30
0.0
 11
-21.17674227178707
 21
-71.15259168781078
 31
0.0
  0
LINE
  5
55EA
330
1F
100
AcDbEntity
  8
AM_0
100
AcDbLine
 10
-15.99999999999994
 20
-71.55
 30
0.0
 11
-14.81668092397379
 21
-71.33424323897663
 31
0.0
  0
LINE
  5
55EB
330
1F
100
AcDbEntity
  8
AM_0
100
AcDbLine
 10
-15.14398827178701
 20
-68.35612268781078
 30
0.0
 11
-14.94902827178708
 21
-68.47510568781074
 31
0.0
  0
LINE
  5
55EC
330
1F
100
AcDbEntity
  8
AM_0
100
AcDbLine
 10
-16.53594027178707
 20
-69.48437768781075
 30
0.0
 11
-16.53594027178707
 21
-70.79765768781071
 31
0.0
  0
LINE
  5
55ED
330
1F
100
AcDbEntity
  8
AM_0
100
AcDbLine
 10
-15.54095327178714
 20
-71.17678368781075
 30
0.0
 11
-15.20192227178705
 21
-71.00840468781079
 31
0.0
  0
LINE
  5
55EE
330
1F
100
AcDbEntity
  8
AM_0
100
AcDbLine
 10
-15.54095327178714
 20
-71.17678368781075
 30
0.0
 11
-16.53594027178707
 21
-70.79765768781071
 31
0.0
  0
VIEWPORT
  5
110
330
101
100
AcDbEntity
 67
     1
  8
0
100
AcDbViewport
 10
420.5
 20
297.0
 30
0.0
 40
948.9782706766916
 41
628.452
 68
     1
 69
     1
1001
ACAD
1000
MVIEW
1002
{
1070
    16
1010
0.0
1020
0.0
1030
0.0
1010
0.0
1020
0.0
1030
1.0
1040
0.0
1040
628.452
1040
420.5
1040
297.0
1040
50.0
1040
0.0
1040
0.0
1070
     0
1070
   100
1070
     1
1070
     1
1070
     0
1070
     0
1070
     0
1070
     0
1040
0.0
1040
0.0
1040
0.0
1040
10.0
1040
10.0
1040
10.0
1040
10.0
1070
     0
1002
{
1002
}
1002
}
  0
ENDSEC
  0
SECTION
  2
OBJECTS
  0
DICTIONARY
  5
C
330
0
100
AcDbDictionary
  3
ACAD_GROUP
350
D
  3
ACAD_LAYOUT
350
1A
  3
ACAD_MLINESTYLE
350
17
  3
ACAD_PLOTSETTINGS
350
19
  3
ACAD_PLOTSTYLENAME
350
E
  3
ACDBVARIABLEDICTIONARY
350
34
  3
ACMDICTIONARY
350
43
  3
AMG
350
2B
  3
AMGSNAPSETTINGS
350
6E
  3
DWGPROPS
350
56EA
  3
ACDBHEADERROUNDTRIPXREC
350
56F7
  0
DICTIONARY
  5
74
330
1F
100
AcDbDictionary
280
     1
  3
ACAD_INDEX
360
56EC
  3
ACAD_LAYOUTSELFREF
360
571A
  0
DICTIONARY
  5
571F
330
101
100
AcDbDictionary
280
     1
  3
ACAD_LAYOUTSELFREF
360
5720
  0
DICTIONARY
  5
D
102
{ACAD_REACTORS
330
C
102
}
330
C
100
AcDbDictionary
  0
DICTIONARY
  5
1A
102
{ACAD_REACTORS
330
C
102
}
330
C
100
AcDbDictionary
  0
DICTIONARY
  5
17
102
{ACAD_REACTORS
330
C
102
}
330
C
100
AcDbDictionary
  3
STANDARD
350
18
  0
DICTIONARY
  5
19
102
{ACAD_REACTORS
330
C
102
}
330
C
100
AcDbDictionary
  0
ACDBDICTIONARYWDFLT
  5
E
102
{ACAD_REACTORS
330
C
102
}
330
C
100
AcDbDictionary
281
     1
  3
Normal
350
F
100
AcDbDictionaryWithDefault
340
F
  0
DICTIONARY
  5
34
102
{ACAD_REACTORS
330
C
102
}
330
C
100
AcDbDictionary
  3
INDEXCTL
350
35
  3
SORTENTS
350
B5E
  0
DICTIONARY
  5
43
102
{ACAD_REACTORS
330
C
102
}
330
C
100
AcDbDictionary
  3
ACMSTDDICTIONARY
350
260
  0
DICTIONARY
  5
2B
102
{ACAD_REACTORS
330
C
102
}
330
C
100
AcDbDictionary
  3
ACMGSETTINGS
350
2C
  0
DICTIONARY
  5
6E
102
{ACAD_REACTORS
330
C
102
}
330
C
100
AcDbDictionary
  0
XRECORD
  5
56EA
102
{ACAD_REACTORS
330
C
102
}
330
C
100
AcDbXrecord
  1
DWGPROPS COOKIE
  2

  3

  4

  6

  7

  8

  9

300
AmdtFileType=82
301
=
302
=
303
=
304
=
305
=
306
=
307
=
308
=
309
=
 40
0.1156081365740741
 41
2452836.771637361
 42
2453076.431644768
  1

 90
        1
  0
DICTIONARY
  5
56F7
102
{ACAD_REACTORS
330
C
102
}
330
C
100
AcDbDictionary
  3
TSTACKALIGN
350
56F8
  3
TSTACKSIZE
350
56F9
  3
HYPERLINKBASE
350
56FA
  3
STYLESHEET
350
56FB
  3
LAYOUTDICT
350
56FC
  3
PLOTSETDICT
350
56FD
  3
PLOTSTYLNAMDICT
350
56FE
  3
LWETCUNION
350
56FF
  3
INSUNITS
350
5700
  3
CEPSNTYPE
350
5701
  3
FINGERPRINTGUID
350
5702
  3
VERSIONGUID
350
5703
  3
PSVPSCALE
350
5704
  3
DIMSTYLEDATA
350
5705
  3
PUCSORTHOREF
350
5706
  3
PUCSORTHOVIEW
350
5707
  3
PUCSBASE
350
5708
  3
PUCSORGTOP
350
5709
  3
PUCSORGBOTTOM
350
570A
  3
PUCSORGLEFT
350
570B
  3
PUCSORGRIGHT
350
570C
  3
PUCSORGFRONT
350
570D
  3
PUCSORGBACK
350
570E
  3
UCSORTHOREF
350
570F
  3
UCSORTHOVIEW
350
5710
  3
UCSBASE
350
5711
  3
UCSORGTOP
350
5712
  3
UCSORGBOTTOM
350
5713
  3
UCSORGLEFT
350
5714
  3
UCSORGRIGHT
350
5715
  3
UCSORGFRONT
350
5716
  3
UCSORGBACK
350
5717
  0
DICTIONARY
  5
56EC
102
{ACAD_REACTORS
330
74
102
}
330
74
100
AcDbDictionary
  3
*A1
350
56ED
  0
XRECORD
  5
571A
102
{ACAD_REACTORS
330
74
102
}
330
74
100
AcDbXrecord
340
1F
  0
XRECORD
  5
5720
102
{ACAD_REACTORS
330
571F
102
}
330
571F
100
AcDbXrecord
340
101
  0
MLINESTYLE
  5
18
102
{ACAD_REACTORS
330
17
102
}
330
17
100
AcDbMlineStyle
  2
STANDARD
 70
     0
  3

 62
   256
 51
90.0
 52
90.0
 71
     2
 49
0.5
 62
   256
  6
BYLAYER
 49
-0.5
 62
   256
  6
BYLAYER
  0
ACDBPLACEHOLDER
  5
F
102
{ACAD_REACTORS
330
E
102
}
330
E
100
AcDbPlaceHolder
280
     0
  0
DICTIONARYVAR
  5
35
102
{ACAD_REACTORS
330
34
102
}
330
34
100
DictionaryVariables
280
     0
  1
1
  0
DICTIONARYVAR
  5
B5E
102
{ACAD_REACTORS
330
34
102
}
330
34
100
DictionaryVariables
280
     0
  1
96
  0
DICTIONARY
  5
260
102
{ACAD_REACTORS
330
43
102
}
330
43
100
AcDbDictionary
  0
DICTIONARY
  5
2C
102
{ACAD_REACTORS
330
2B
102
}
330
2B
100
AcDbDictionary
  3
DWGSETTINGS
350
2D
  0
XRECORD
  5
56F8
102
{ACAD_REACTORS
330
56F7
102
}
330
56F7
100
AcDbXrecord
 90
        1
  0
XRECORD
  5
56F9
102
{ACAD_REACTORS
330
56F7
102
}
330
56F7
100
AcDbXrecord
 90
       70
  0
XRECORD
  5
56FA
102
{ACAD_REACTORS
330
56F7
102
}
330
56F7
100
AcDbXrecord
  1

  0
XRECORD
  5
56FB
102
{ACAD_REACTORS
330
56F7
102
}
330
56F7
100
AcDbXrecord
  1
ASAMI.ctb
  0
XRECORD
  5
56FC
102
{ACAD_REACTORS
330
56F7
102
}
330
56F7
100
AcDbXrecord
340
1A
  0
XRECORD
  5
56FD
102
{ACAD_REACTORS
330
56F7
102
}
330
56F7
100
AcDbXrecord
340
19
  0
XRECORD
  5
56FE
102
{ACAD_REACTORS
330
56F7
102
}
330
56F7
100
AcDbXrecord
340
E
  0
XRECORD
  5
56FF
102
{ACAD_REACTORS
330
56F7
102
}
330
56F7
100
AcDbXrecord
 90
    10781
  0
XRECORD
  5
5700
102
{ACAD_REACTORS
330
56F7
102
}
330
56F7
100
AcDbXrecord
 90
        4
  0
XRECORD
  5
5701
102
{ACAD_REACTORS
330
56F7
102
}
330
56F7
100
AcDbXrecord
 90
        0
  0
XRECORD
  5
5702
102
{ACAD_REACTORS
330
56F7
102
}
330
56F7
100
AcDbXrecord
  1
{AFB28963-8C59-40AE-9337-C84526B81ACE}
  0
XRECORD
  5
5703
102
{ACAD_REACTORS
330
56F7
102
}
330
56F7
100
AcDbXrecord
  1
{92673139-68A0-4D8A-B1D8-98B963FF63AD}
  0
XRECORD
  5
5704
102
{ACAD_REACTORS
330
56F7
102
}
330
56F7
100
AcDbXrecord
 40
0.0
  0
XRECORD
  5
5705
102
{ACAD_REACTORS
330
56F7
102
}
330
56F7
100
AcDbXrecord
1000
DSTYLE
1002
{
1070
    79
 70
     2
1070
   341
340
59
1070
   342
340
59
1070
   371
 70
    -1
1070
   372
 70
    -1
1002
}
  0
XRECORD
  5
5706
102
{ACAD_REACTORS
330
56F7
102
}
330
56F7
100
AcDbXrecord
340
0
  0
XRECORD
  5
5707
102
{ACAD_REACTORS
330
56F7
102
}
330
56F7
100
AcDbXrecord
 70
     0
  0
XRECORD
  5
5708
102
{ACAD_REACTORS
330
56F7
102
}
330
56F7
100
AcDbXrecord
340
0
  0
XRECORD
  5
5709
102
{ACAD_REACTORS
330
56F7
102
}
330
56F7
100
AcDbXrecord
 10
0.0
 20
0.0
 30
0.0
  0
XRECORD
  5
570A
102
{ACAD_REACTORS
330
56F7
102
}
330
56F7
100
AcDbXrecord
 10
0.0
 20
0.0
 30
0.0
  0
XRECORD
  5
570B
102
{ACAD_REACTORS
330
56F7
102
}
330
56F7
100
AcDbXrecord
 10
0.0
 20
0.0
 30
0.0
  0
XRECORD
  5
570C
102
{ACAD_REACTORS
330
56F7
102
}
330
56F7
100
AcDbXrecord
 10
0.0
 20
0.0
 30
0.0
  0
XRECORD
  5
570D
102
{ACAD_REACTORS
330
56F7
102
}
330
56F7
100
AcDbXrecord
 10
0.0
 20
0.0
 30
0.0
  0
XRECORD
  5
570E
102
{ACAD_REACTORS
330
56F7
102
}
330
56F7
100
AcDbXrecord
 10
0.0
 20
0.0
 30
0.0
  0
XRECORD
  5
570F
102
{ACAD_REACTORS
330
56F7
102
}
330
56F7
100
AcDbXrecord
340
0
  0
XRECORD
  5
5710
102
{ACAD_REACTORS
330
56F7
102
}
330
56F7
100
AcDbXrecord
 70
     0
  0
XRECORD
  5
5711
102
{ACAD_REACTORS
330
56F7
102
}
330
56F7
100
AcDbXrecord
340
0
  0
XRECORD
  5
5712
102
{ACAD_REACTORS
330
56F7
102
}
330
56F7
100
AcDbXrecord
 10
0.0
 20
0.0
 30
0.0
  0
XRECORD
  5
5713
102
{ACAD_REACTORS
330
56F7
102
}
330
56F7
100
AcDbXrecord
 10
0.0
 20
0.0
 30
0.0
  0
XRECORD
  5
5714
102
{ACAD_REACTORS
330
56F7
102
}
330
56F7
100
AcDbXrecord
 10
0.0
 20
0.0
 30
0.0
  0
XRECORD
  5
5715
102
{ACAD_REACTORS
330
56F7
102
}
330
56F7
100
AcDbXrecord
 10
0.0
 20
0.0
 30
0.0
  0
XRECORD
  5
5716
102
{ACAD_REACTORS
330
56F7
102
}
330
56F7
100
AcDbXrecord
 10
0.0
 20
0.0
 30
0.0
  0
XRECORD
  5
5717
102
{ACAD_REACTORS
330
56F7
102
}
330
56F7
100
AcDbXrecord
 10
0.0
 20
0.0
 30
0.0
  0
LAYER_INDEX
  5
56ED
102
{ACAD_REACTORS
330
56EC
102
}
330
56EC
100
AcDbIndex
 40
2453152.36764772
100
AcDbLayerIndex
  8
0
360
56EE
 90
        0
  8
AM_0
360
56EF
 90
      132
  8
AM_7
360
56F0
 90
        1
  8
AM_5
360
56F1
 90
       10
  8
Defpoints
360
56F2
 90
        0
  8
AM_6
360
56F3
 90
        1
  8
AM_11
360
56F4
 90
        7
  8
AM_3
360
56F5
 90
        6
  0
XRECORD
  5
2D
102
{ACAD_REACTORS
330
2C
102
}
330
2C
100
AcDbXrecord
  1
VERSION
140
15.0
  1
PRODUCT
  2
AutoCAD Mechanical 2000
  0
IDBUFFER
  5
56EE
330
0
100
AcDbIdBuffer
  0
IDBUFFER
  5
56EF
330
0
100
AcDbIdBuffer
330
55D9
330
55DA
330
55DB
330
55DC
330
55DD
330
55DE
330
55DF
330
55E0
330
55E1
330
55E2
330
55E3
330
55E6
330
55E7
330
55E8
330
55E9
330
55EA
330
55EB
330
55EC
330
55ED
330
55EE
330
498D
330
498F
330
4990
330
4991
330
4992
330
4993
330
4996
330
51CC
330
51D0
330
51D3
330
51DC
330
51DF
330
51E0
330
51E3
330
51E6
330
51E9
330
51EA
330
51EB
330
51EE
330
52AD
330
52AE
330
52AF
330
52B0
330
52B1
330
52B2
330
52B3
330
52B4
330
52B5
330
52B6
330
52B7
330
52B8
330
52B9
330
52BC
330
52BD
330
52BE
330
52C0
330
52C1
330
52C3
330
555E
330
555F
330
5560
330
5561
330
5562
330
5563
330
5564
330
5565
330
5566
330
5567
330
5568
330
5569
330
556A
330
556B
330
556C
330
556D
330
556E
330
556F
330
5570
330
5571
330
5572
330
5573
330
5574
330
5575
330
5576
330
5577
330
5578
330
5579
330
557A
330
557B
330
557C
330
557D
330
557E
330
557F
330
5580
330
5581
330
5582
330
5583
330
5585
330
5586
330
5587
330
5588
330
5589
330
558A
330
55A0
330
55B6
330
55B7
330
55BC
330
55BD
330
55BE
330
55BF
330
55C0
330
55C1
330
55C2
330
55C3
330
55C4
330
55C5
330
55C6
330
55C8
330
55C9
330
55CA
330
55CB
330
55CC
330
55CD
330
55CE
330
55CF
330
55D0
330
55D1
330
55D2
330
55D3
330
55D4
330
55D5
330
55D6
330
55D7
  0
IDBUFFER
  5
56F0
330
0
100
AcDbIdBuffer
330
498C
  0
IDBUFFER
  5
56F1
330
0
100
AcDbIdBuffer
330
51EF
330
51F0
330
51F1
330
51F2
330
51F3
330
51F4
330
51F5
330
5355
330
5356
330
5357
  0
IDBUFFER
  5
56F2
330
0
100
AcDbIdBuffer
  0
IDBUFFER
  5
56F3
330
0
100
AcDbIdBuffer
330
51F6
  0
IDBUFFER
  5
56F4
330
0
100
AcDbIdBuffer
330
4994
330
4995
330
52BA
330
52BB
330
543E
330
5446
330
55E4
  0
IDBUFFER
  5
56F5
330
0
100
AcDbIdBuffer
330
498E
330
4997
330
559D
330
55C7
330
55D8
330
55E5
  0
ENDSEC
  0
EOF
