  0
SECTION
  2
HEADER
  9
$ACADVER
  1
AC1015
  9
$ACADMAINTVER
 70
     6
  9
$DWGCODEPAGE
  3
ANSI_932
  9
$INSBASE
 10
0.0
 20
0.0
 30
0.0
  9
$EXTMIN
 10
-127.2805521779994
 20
-48.74153592586749
 30
0.0
  9
$EXTMAX
 10
22.95288180053388
 20
8.243285776951041
 30
0.0
  9
$LIMMIN
 10
0.0
 20
0.0
  9
$LIMMAX
 10
0.0
 20
0.0
  9
$ORTHOMODE
 70
     1
  9
$REGENMODE
 70
     1
  9
$FILLMODE
 70
     1
  9
$QTEXTMODE
 70
     0
  9
$MIRRTEXT
 70
     1
  9
$LTSCALE
 40
1.0
  9
$ATTMODE
 70
     1
  9
$TEXTSIZE
 40
3.8
  9
$TRACEWID
 40
1.0
  9
$TEXTSTYLE
  7
ACISOTS
  9
$CLAYER
  8
AM_0
  9
$CELTYPE
  6
ByLayer
  9
$CECOLOR
 62
   256
  9
$CELTSCALE
 40
1.0
  9
$DISPSILH
 70
     0
  9
$DIMSCALE
 40
1.0
  9
$DIMASZ
 40
2.5
  9
$DIMEXO
 40
1.0
  9
$DIMDLI
 40
10.0
  9
$DIMRND
 40
0.0
  9
$DIMDLE
 40
0.0
  9
$DIMEXE
 40
1.0
  9
$DIMTP
 40
0.1
  9
$DIMTM
 40
0.1000000001
  9
$DIMTXT
 40
3.8
  9
$DIMCEN
 40
0.0
  9
$DIMTSZ
 40
0.0
  9
$DIMTOL
 70
     0
  9
$DIMLIM
 70
     0
  9
$DIMTIH
 70
     0
  9
$DIMTOH
 70
     0
  9
$DIMSE1
 70
     0
  9
$DIMSE2
 70
     0
  9
$DIMTAD
 70
     3
  9
$DIMZIN
 70
     8
  9
$DIMBLK
  1
Open30
  9
$DIMASO
 70
     1
  9
$DIMSHO
 70
     1
  9
$DIMPOST
  1

  9
$DIMAPOST
  1
"
  9
$DIMALT
 70
     0
  9
$DIMALTD
 70
     2
  9
$DIMALTF
 40
0.0393701
  9
$DIMLFAC
 40
1.0
  9
$DIMTOFL
 70
     1
  9
$DIMTVP
 40
0.0
  9
$DIMTIX
 70
     0
  9
$DIMSOXD
 70
     0
  9
$DIMSAH
 70
     0
  9
$DIMBLK1
  1

  9
$DIMBLK2
  1

  9
$DIMSTYLE
  2
AM_JIS
  9
$DIMCLRD
 70
   256
  9
$DIMCLRE
 70
   256
  9
$DIMCLRT
 70
     2
  9
$DIMTFAC
 40
0.71
  9
$DIMGAP
 40
1.5
  9
$DIMJUST
 70
     0
  9
$DIMSD1
 70
     0
  9
$DIMSD2
 70
     0
  9
$DIMTOLJ
 70
     0
  9
$DIMTZIN
 70
     8
  9
$DIMALTZ
 70
     0
  9
$DIMALTTZ
 70
     0
  9
$DIMUPT
 70
     0
  9
$DIMDEC
 70
     0
  9
$DIMTDEC
 70
     2
  9
$DIMALTU
 70
     2
  9
$DIMALTTD
 70
     2
  9
$DIMTXSTY
  7
STANDARD
  9
$DIMAUNIT
 70
     1
  9
$DIMADEC
 70
     0
  9
$DIMALTRND
 40
0.0
  9
$DIMAZIN
 70
     2
  9
$DIMDSEP
 70
    46
  9
$DIMATFIT
 70
     3
  9
$DIMFRAC
 70
     0
  9
$DIMLDRBLK
  1
Open30
  9
$DIMLUNIT
 70
     2
  9
$DIMLWD
 70
    -1
  9
$DIMLWE
 70
    -1
  9
$DIMTMOVE
 70
     0
  9
$LUNITS
 70
     2
  9
$LUPREC
 70
     2
  9
$SKETCHINC
 40
1.0
  9
$FILLETRAD
 40
2.0
  9
$AUNITS
 70
     0
  9
$AUPREC
 70
     0
  9
$MENU
  1
.
  9
$ELEVATION
 40
0.0
  9
$PELEVATION
 40
0.0
  9
$THICKNESS
 40
0.0
  9
$LIMCHECK
 70
     0
  9
$CHAMFERA
 40
2.5
  9
$CHAMFERB
 40
2.5
  9
$CHAMFERC
 40
20.0
  9
$CHAMFERD
 40
0.0
  9
$SKPOLY
 70
     0
  9
$TDCREATE
 40
2453853.58522044
  9
$TDUCREATE
 40
2453853.21022044
  9
$TDUPDATE
 40
2455432.582430266
  9
$TDUUPDATE
 40
2455432.207430266
  9
$TDINDWG
 40
0.4931931944
  9
$TDUSRTIMER
 40
0.4931931944
  9
$USRTIMER
 70
     1
  9
$ANGBASE
 50
0.0
  9
$ANGDIR
 70
     0
  9
$PDMODE
 70
     0
  9
$PDSIZE
 40
0.0
  9
$PLINEWID
 40
0.0
  9
$SPLFRAME
 70
     0
  9
$SPLINETYPE
 70
     6
  9
$SPLINESEGS
 70
    80
  9
$HANDSEED
  5
3CF3
  9
$SURFTAB1
 70
     6
  9
$SURFTAB2
 70
     6
  9
$SURFTYPE
 70
     6
  9
$SURFU
 70
     6
  9
$SURFV
 70
     6
  9
$UCSBASE
  2

  9
$UCSNAME
  2

  9
$UCSORG
 10
0.0
 20
0.0
 30
0.0
  9
$UCSXDIR
 10
1.0
 20
0.0
 30
0.0
  9
$UCSYDIR
 10
0.0
 20
1.0
 30
0.0
  9
$UCSORTHOREF
  2

  9
$UCSORTHOVIEW
 70
     0
  9
$UCSORGTOP
 10
0.0
 20
0.0
 30
0.0
  9
$UCSORGBOTTOM
 10
0.0
 20
0.0
 30
0.0
  9
$UCSORGLEFT
 10
0.0
 20
0.0
 30
0.0
  9
$UCSORGRIGHT
 10
0.0
 20
0.0
 30
0.0
  9
$UCSORGFRONT
 10
0.0
 20
0.0
 30
0.0
  9
$UCSORGBACK
 10
0.0
 20
0.0
 30
0.0
  9
$PUCSBASE
  2

  9
$PUCSNAME
  2

  9
$PUCSORG
 10
0.0
 20
0.0
 30
0.0
  9
$PUCSXDIR
 10
1.0
 20
0.0
 30
0.0
  9
$PUCSYDIR
 10
0.0
 20
1.0
 30
0.0
  9
$PUCSORTHOREF
  2

  9
$PUCSORTHOVIEW
 70
     0
  9
$PUCSORGTOP
 10
0.0
 20
0.0
 30
0.0
  9
$PUCSORGBOTTOM
 10
0.0
 20
0.0
 30
0.0
  9
$PUCSORGLEFT
 10
0.0
 20
0.0
 30
0.0
  9
$PUCSORGRIGHT
 10
0.0
 20
0.0
 30
0.0
  9
$PUCSORGFRONT
 10
0.0
 20
0.0
 30
0.0
  9
$PUCSORGBACK
 10
0.0
 20
0.0
 30
0.0
  9
$USERI1
 70
     0
  9
$USERI2
 70
     0
  9
$USERI3
 70
     0
  9
$USERI4
 70
     0
  9
$USERI5
 70
     0
  9
$USERR1
 40
0.0
  9
$USERR2
 40
0.0
  9
$USERR3
 40
0.0
  9
$USERR4
 40
0.0
  9
$USERR5
 40
0.0
  9
$WORLDVIEW
 70
     1
  9
$SHADEDGE
 70
     3
  9
$SHADEDIF
 70
    70
  9
$TILEMODE
 70
     1
  9
$MAXACTVP
 70
    64
  9
$PINSBASE
 10
0.0
 20
0.0
 30
0.0
  9
$PLIMCHECK
 70
     0
  9
$PEXTMIN
 10
1.000000000000000E+20
 20
1.000000000000000E+20
 30
1.000000000000000E+20
  9
$PEXTMAX
 10
-1.000000000000000E+20
 20
-1.000000000000000E+20
 30
-1.000000000000000E+20
  9
$PLIMMIN
 10
0.0
 20
0.0
  9
$PLIMMAX
 10
420.0
 20
297.0
  9
$UNITMODE
 70
     0
  9
$VISRETAIN
 70
     1
  9
$PLINEGEN
 70
     0
  9
$PSLTSCALE
 70
     1
  9
$TREEDEPTH
 70
  3020
  9
$CMLSTYLE
  2
Standard
  9
$CMLJUST
 70
     0
  9
$CMLSCALE
 40
20.0
  9
$PROXYGRAPHICS
 70
     1
  9
$MEASUREMENT
 70
     1
  9
$CELWEIGHT
370
    -1
  9
$ENDCAPS
280
     0
  9
$JOINSTYLE
280
     0
  9
$LWDISPLAY
290
     0
  9
$INSUNITS
 70
     4
  9
$HYPERLINKBASE
  1

  9
$STYLESHEET
  1

  9
$XEDIT
290
     1
  9
$CEPSNTYPE
380
     0
  9
$PSTYLEMODE
290
     1
  9
$FINGERPRINTGUID
  2
{D5CD5245-272E-46D9-A97D-BA87CA099A84}
  9
$VERSIONGUID
  2
{2C46BB38-DCDA-46A2-A020-B12983C9641F}
  9
$EXTNAMES
290
     1
  9
$PSVPSCALE
 40
0.0
  9
$OLESTARTUP
290
     0
  0
ENDSEC
  0
SECTION
  2
CLASSES
  0
CLASS
  1
ACDBDICTIONARYWDFLT
  2
AcDbDictionaryWithDefault
  3
ObjectDBX Classes
 90
        0
280
     0
281
     0
  0
CLASS
  1
ACDBPLACEHOLDER
  2
AcDbPlaceHolder
  3
ObjectDBX Classes
 90
        0
280
     0
281
     0
  0
CLASS
  1
LAYOUT
  2
AcDbLayout
  3
ObjectDBX Classes
 90
        0
280
     0
281
     0
  0
CLASS
  1
ACME_DOCUMENT
  2
AcMeDbDoc
  3
AcMeServices
 90
        0
280
     1
281
     0
  0
CLASS
  1
AMGSETTINGSOBJ
  2
AmgSettingsObj
  3
"AcadM|Product Description: AutoCAD Mechanical 2000|Company: Autodesk"
 90
        0
280
     1
281
     0
  0
CLASS
  1
ACMESCOPE
  2
AcMeScope
  3
AcMeServices
 90
        0
280
     1
281
     0
  0
CLASS
  1
ACMECOMMANDHISTORY
  2
AcMeCommandHistory
  3
AcMeServices
 90
        0
280
     1
281
     0
  0
CLASS
  1
ACIMSYSVARMAN
  2
AcImSysVarManager
  3
AcMeServices
 90
        0
280
     1
281
     0
  0
CLASS
  1
ACIMREALSYSVAR
  2
AcImRealSysVar
  3
AcMeServices
 90
        0
280
     1
281
     0
  0
CLASS
  1
ACIMINTSYSVAR
  2
AcImIntSysVar
  3
AcMeServices
 90
        0
280
     1
281
     0
  0
CLASS
  1
ACMEDRAWINGMAN
  2
AcMeDrawingMan
  3
AcMeServices
 90
        0
280
     1
281
     0
  0
CLASS
  1
ACMEVIEW
  2
AcMeView
  3
AcMeServices
 90
        0
280
     1
281
     0
  0
CLASS
  1
ACDBENTITYCACHE
  2
AcMeEntityCache
  3
AcMeServices
 90
        0
280
     1
281
     0
  0
CLASS
  1
GSMANAGER
  2
AcMeGSManager
  3
AcMeServices
 90
        0
280
     1
281
     0
  0
CLASS
  1
AMDTINTERNALREACTOR
  2
AmdtInternalReactor
  3
AcMeServices
 90
        0
280
     1
281
     0
  0
CLASS
  1
ACMESTATEMGR
  2
AcMeStateMgr
  3
AcMeServices
 90
        0
280
     1
281
     0
  0
CLASS
  1
ACGREFMASTER
  2
AcGrefMaster
  3
AcAttribServices
 90
        0
280
     1
281
     0
  0
CLASS
  1
ACME_DATABASE
  2
AcMeDbDatabase
  3
AcMeServices
 90
        0
280
     1
281
     0
  0
CLASS
  1
ACRFINSADJUSTERMGR
  2
AcRfInsAdjusterMgr
  3
AcMeServices
 90
        0
280
     1
281
     0
  0
CLASS
  1
ACGREFACADMASTER
  2
AcGrefacadMaster
  3
AcGrefServices
 90
        0
280
     1
281
     0
  0
CLASS
  1
AMIMASTER
  2
AmiMaster
  3
AmiServices
 90
        0
280
     1
281
     0
  0
CLASS
  1
ACMDATADICTIONARY
  2
AcmDataDictionary
  3
"AcmSymBB|Product Description: AutoCAD Mechanical 2004 DX|Company: Autodesk"
 90
        0
280
     1
281
     0
  0
CLASS
  1
ACMDATAENTRYBLOCK
  2
AcmDataEntryBlock
  3
"AcmSymBB|Product Description: AutoCAD Mechanical 2004 DX|Company: Autodesk"
 90
        0
280
     1
281
     0
  0
CLASS
  1
ACIMSTRSYSVAR
  2
AcImStrSysVar
  3
AcMeServices
 90
        0
280
     1
281
     0
  0
CLASS
  1
ACMSTANDARDISO
  2
AcmStandardISO
  3
"Amdt_StdImp|Product Description: AutoCAD Mechanical 2004 DX|Company: Autodesk"
 90
        0
280
     1
281
     0
  0
CLASS
  1
AMGOBJPROPCFG
  2
AmgObjPropCfg
  3
"AmgLay|Product Description: AutoCAD Mechanical 2000|Company: Autodesk"
 90
        1
280
     1
281
     0
  0
CLASS
  1
AMDTEDGESTANDARDISO
  2
AmdtEdgeStdISO
  3
"Amdt_StdImp|Product Description: AutoCAD Mechanical 2004 DX|Company: Autodesk"
 90
        0
280
     1
281
     0
  0
CLASS
  1
ACMSURFSTANDARDISO
  2
AcmSurfTextStdISO
  3
"Amdt_StdImp|Product Description: AutoCAD Mechanical 2004 DX|Company: Autodesk"
 90
        0
280
     1
281
     0
  0
CLASS
  1
ACMFCFSTANDARDISO
  2
AcmFCFStdISO
  3
"Amdt_StdImp|Product Description: AutoCAD Mechanical 2004 DX|Company: Autodesk"
 90
        0
280
     1
281
     0
  0
CLASS
  1
ACMWELDSTANDARDISO
  2
AcmWeldingStdISO
  3
"Amdt_StdImp|Product Description: AutoCAD Mechanical 2004 DX|Company: Autodesk"
 90
        0
280
     1
281
     0
  0
CLASS
  1
ACMIDSTANDARDISO
  2
AcmIdStdISO
  3
"Amdt_StdImp|Product Description: AutoCAD Mechanical 2004 DX|Company: Autodesk"
 90
        0
280
     1
281
     0
  0
CLASS
  1
ACMDATUMSTANDARDISO
  2
AcmDatumStdISO
  3
"Amdt_StdImp|Product Description: AutoCAD Mechanical 2004 DX|Company: Autodesk"
 90
        0
280
     1
281
     0
  0
CLASS
  1
ACMBOMSTANDARDISO
  2
AcmBOMStdISO
  3
"Amdt_StdImp|Product Description: AutoCAD Mechanical 2004 DX|Company: Autodesk"
 90
        0
280
     1
281
     0
  0
CLASS
  1
ACMDETAILSTANDARDISO
  2
AmdtDetailSymStdISO
  3
"Amdt_StdImp|Product Description: AutoCAD Mechanical 2004 DX|Company: Autodesk"
 90
        0
280
     1
281
     0
  0
CLASS
  1
ACMSECTIONSTANDARDISO
  2
AmdtSectionSymStdISO
  3
"Amdt_StdImp|Product Description: AutoCAD Mechanical 2004 DX|Company: Autodesk"
 90
        0
280
     1
281
     0
  0
CLASS
  1
ACMCENTERLINESTANDARDISO
  2
AmdtCenterLineStdISO
  3
"Amdt_StdImp|Product Description: AutoCAD Mechanical 2004 DX|Company: Autodesk"
 90
        0
280
     1
281
     0
  0
CLASS
  1
ACMNOTESTANDARDISO
  2
AmdtNoteStdISO
  3
"Amdt_StdImp|Product Description: AutoCAD Mechanical 2004 DX|Company: Autodesk"
 90
        0
280
     1
281
     0
  0
CLASS
  1
ACAMGLAYSTD
  2
AcAmgLayStd
  3
"AcAmgLayStd|Product Description: AutoCAD Mechanical 2000|Company: Autodesk"
 90
        0
280
     1
281
     0
  0
CLASS
  1
ACAMGDIMSTD
  2
AcAmgDimStd
  3
"AcAmgDimStd|Product Description: AutoCAD Mechanical 2000|Company: Autodesk"
 90
        0
280
     1
281
     0
  0
CLASS
  1
ACAMGHOLECHARTSTDISO
  2
AcAmgHoleChartStdISO
  3
ACMSYMBB_MODULE_NAME
 90
        0
280
     1
281
     0
  0
CLASS
  1
ACAMGTITLESTD
  2
AcAmgTitleStd
  3
"TITLEAPP"
 90
        0
280
     1
281
     0
  0
CLASS
  1
LAYER_INDEX
  2
AcDbLayerIndex
  3
ObjectDBX Classes
 90
        0
280
     0
281
     0
  0
CLASS
  1
IDBUFFER
  2
AcDbIdBuffer
  3
ObjectDBX Classes
 90
        0
280
     0
281
     0
  0
CLASS
  1
DICTIONARYVAR
  2
AcDbDictionaryVar
  3
ObjectDBX Classes
 90
        0
280
     0
281
     0
  0
CLASS
  1
AM_DRAWING_MGR
  2
AcDmDwgMgr
  3
AcMechDwgViewMgmt
 90
        0
280
     1
281
     0
  0
CLASS
  1
AM_DWG_DOCUMENT
  2
AcDmDwgDocument
  3
AcMechDwgViewMgmt
 90
        0
280
     1
281
     0
  0
CLASS
  1
AM_DWG_SHEET
  2
AcDmSheet
  3
AcMechDwgViewMgmt
 90
        0
280
     1
281
     0
  0
CLASS
  1
AM_VIEWDIMPARMAP
  2
AcDmViewDimParMap
  3
AcMechDwgViewMgmt
 90
        0
280
     1
281
     0
  0
CLASS
  1
AM_DWGMGR_NAME
  2
AcDmDwgMgrName
  3
AcMechDwgViewMgmt
 90
        0
280
     1
281
     0
  0
CLASS
  1
AMDTMENUSTATEMGR
  2
AmdtMenuStateMgr
  3
McadcomServices
 90
        0
280
     1
281
     0
  0
CLASS
  1
AMDTMCOMMENUSTATE
  2
AmdtMcomMenuState
  3
McadcomServices
 90
        0
280
     1
281
     0
  0
CLASS
  1
MAPIAMMOUDLE
  2
MApiAmModule
  3
MApiAmServices
 90
        0
280
     1
281
     0
  0
CLASS
  1
AMDTADMENUSTATE
  2
AmdtAdMenuState
  3
DesignerServices
 90
        0
280
     1
281
     0
  0
CLASS
  1
ADAPPL
  2
AcAdAppl
  3
DesignerServices
 90
        0
280
     1
281
     0
  0
CLASS
  1
DEPMGR
  2
AcAdDepMgr
  3
DesignerServices
 90
        0
280
     1
281
     0
  0
CLASS
  1
PARAMMGR
  2
AcAdParamMgr
  3
DesignerServices
 90
        0
280
     1
281
     0
  0
CLASS
  1
PARAMSCOPE
  2
AcAdParamScope
  3
DesignerServices
 90
        0
280
     1
281
     0
  0
CLASS
  1
NAMEDAPPL
  2
AcAdNamedAppl
  3
DesignerServices
 90
        0
280
     1
281
     0
  0
CLASS
  1
AMDTDMMENUSTATE
  2
AmdtDmMenuState
  3
AcMechDwgViewMgmt
 90
        0
280
     1
281
     0
  0
CLASS
  1
AMDTAMMENUSTATE
  2
AmdtAmMenuState
  3
DesignerAssemblies
 90
        0
280
     1
281
     0
  0
CLASS
  1
ACAMPROJECT
  2
AcAmProject
  3
DesignerAssemblies
 90
        0
280
     1
281
     0
  0
CLASS
  1
ACAMGRCOMPDEF
  2
AcAmGrCompDef
  3
DesignerAssemblies
 90
        0
280
     1
281
     0
  0
CLASS
  1
ACCMCONTEXT
  2
AcCmContext
  3
DesignerAssemblies
 90
        0
280
     1
281
     0
  0
CLASS
  1
ACAMCOMPDEF
  2
AcAmCompDef
  3
DesignerAssemblies
 90
        0
280
     1
281
     0
  0
CLASS
  1
ACAMCOMPDEFMGR
  2
AcAmCompDefMgr
  3
DesignerAssemblies
 90
        0
280
     1
281
     0
  0
CLASS
  1
AMCONTEXTMGR
  2
AcAmContextMgr
  3
DesignerAssemblies
 90
        0
280
     1
281
     0
  0
CLASS
  1
ACAMCONTEXTMODELER
  2
AcAmContextModeler
  3
DesignerAssemblies
 90
        0
280
     1
281
     0
  0
CLASS
  1
ACMTHREADLINESTANDARDISO
  2
AmdtThreadLineStdISO
  3
"Amdt_StdImp|Product Description: AutoCAD Mechanical 2004 DX|Company: Autodesk"
 90
        0
280
     1
281
     0
  0
CLASS
  1
CATALOGSTATE
  2
AcAmCatalogState
  3
DesignerAssemblies
 90
        0
280
     1
281
     0
  0
CLASS
  1
ACAMGRCOMPDEFSET
  2
AcAmGrCompDefSet
  3
DesignerAssemblies
 90
        0
280
     1
281
     0
  0
CLASS
  1
AMDTBROWSERDBTAB
  2
AmdtBrowserDbTab
  3
McadcomServices
 90
        0
280
     1
281
     0
  0
CLASS
  1
CBROWSERAPPOBJECT
  2
CBrowserAppObject
  3
McadcomServices
 90
        0
280
     1
281
     0
  0
CLASS
  1
DM_PLACEHOLDER
  2
AcDmSelsetPlaceholder
  3
AcMechDwgViewMgmt
 90
        0
280
     1
281
     0
  0
CLASS
  1
TABLESTYLE
  2
AcDbTableStyle
  3
ObjectDBX Classes
 90
     2047
280
     0
281
     0
  0
CLASS
  1
VAACXREFPANELOBJECT
  2
VaAcXREFPanelObject
  3
VAAC_ADDIN
 90
        0
280
     1
281
     0
  0
CLASS
  1
VAACIMAGEINVENTORY
  2
VaAcImageInventory
  3
VAAC_ADDIN
 90
        0
280
     1
281
     0
  0
CLASS
  1
AMDTNOTETEMPLATEDB
  2
AmdtNoteTemplateDB
  3
AMDT_STDIMP_MODULE_NAME
 90
        0
280
     1
281
     0
  0
CLASS
  1
ACMBOM
  2
AcmBom
  3
"AcmSymBB|Product Description: AutoCAD Mechanical 2004 DX|Company: Autodesk"
 90
        0
280
     1
281
     0
  0
CLASS
  1
AMDTFORMULAUPDATEDISPATCHER
  2
AmdtFormulaUpdateDispatcher
  3
AcMeServices
 90
        0
280
     1
281
     0
  0
CLASS
  1
ACMPARTLIST
  2
AcmPartList
  3
"AcmSymBB|Product Description: AutoCAD Mechanical 2004 DX|Company: Autodesk"
 90
     1023
280
     1
281
     1
  0
CLASS
  1
ACAMGFILTERDAT
  2
AcAmgFilterDat
  3
"AcadM|Product Description: AutoCAD Mechanical 2000|Company: Autodesk"
 90
        0
280
     1
281
     0
  0
CLASS
  1
ACMSTANDARDJIS
  2
AcmStandardJIS
  3
"Amdt_StdImp|Product Description: AutoCAD Mechanical 2004 DX|Company: Autodesk"
 90
        0
280
     1
281
     0
  0
CLASS
  1
ACMSURFSTANDARDJIS
  2
AcmSurfTextStdJIS
  3
"Amdt_StdImp|Product Description: AutoCAD Mechanical 2004 DX|Company: Autodesk"
 90
        0
280
     1
281
     0
  0
CLASS
  1
ACMFCFSTANDARDJIS98
  2
AcmFCFStdJIS98
  3
"Amdt_StdImp|Product Description: AutoCAD Mechanical 2004 DX|Company: Autodesk"
 90
        0
280
     1
281
     0
  0
CLASS
  1
ACMWELDSTANDARDJIS
  2
AcmWeldingStdJIS
  3
"Amdt_StdImp|Product Description: AutoCAD Mechanical 2004 DX|Company: Autodesk"
 90
        0
280
     1
281
     0
  0
CLASS
  1
ACMIDSTANDARDJIS
  2
AcmIdStdJIS
  3
"Amdt_StdImp|Product Description: AutoCAD Mechanical 2004 DX|Company: Autodesk"
 90
        0
280
     1
281
     0
  0
CLASS
  1
ACMDATUMSTANDARDJIS
  2
AcmDatumStdJIS
  3
"Amdt_StdImp|Product Description: AutoCAD Mechanical 2004 DX|Company: Autodesk"
 90
        0
280
     1
281
     0
  0
CLASS
  1
ACMBOMSTANDARDJIS
  2
AcmBOMStdJIS
  3
"Amdt_StdImp|Product Description: AutoCAD Mechanical 2004 DX|Company: Autodesk"
 90
        0
280
     1
281
     0
  0
CLASS
  1
ACMDETAILSTANDARDJIS
  2
AmdtDetailSymStdJIS
  3
"Amdt_StdImp|Product Description: AutoCAD Mechanical 2004 DX|Company: Autodesk"
 90
        0
280
     1
281
     0
  0
CLASS
  1
ACMSECTIONSTANDARDJIS
  2
AmdtSectionSymStdJIS
  3
"Amdt_StdImp|Product Description: AutoCAD Mechanical 2004 DX|Company: Autodesk"
 90
        0
280
     1
281
     0
  0
CLASS
  1
ACMCENTERLINESTANDARDJIS
  2
AmdtCenterLineStdJIS
  3
"Amdt_StdImp|Product Description: AutoCAD Mechanical 2004 DX|Company: Autodesk"
 90
        0
280
     1
281
     0
  0
CLASS
  1
ACMTHREADLINESTANDARDJIS
  2
AmdtThreadLineStdJIS
  3
"Amdt_StdImp|Product Description: AutoCAD Mechanical 2004 DX|Company: Autodesk"
 90
        0
280
     1
281
     0
  0
CLASS
  1
ACMNOTESTANDARDJIS
  2
AmdtNoteStdJIS
  3
"Amdt_StdImp|Product Description: AutoCAD Mechanical 2004 DX|Company: Autodesk"
 90
        0
280
     1
281
     0
  0
CLASS
  1
ACAMGHOLECHARTSTDJIS
  2
AcAmgHoleChartStdJIS
  3
ACMSYMBB_MODULE_NAME
 90
        0
280
     1
281
     0
  0
CLASS
  1
SORTENTSTABLE
  2
AcDbSortentsTable
  3
ObjectDBX Classes
 90
        0
280
     0
281
     0
  0
CLASS
  1
DIMASSOC
  2
AcDbDimAssoc
  3
"AcDbDimAssoc|Product Desc:     AcDim ARX App For Dimension|Company:          Autodesk, Inc.|WEB Address:      www.autodesk.com"
 90
        0
280
     0
281
     0
  0
CLASS
  1
AMDTNOTE
  2
AmdtNote
  3
"AcmSymBB|Product Description: AutoCAD Mechanical 2004 DX|Company: Autodesk"
 90
     1023
280
     1
281
     1
  0
CLASS
  1
ACRFATTGENMGR
  2
AcRfAttGeneralMgr
  3
AcAttribServices
 90
        0
280
     1
281
     0
  0
CLASS
  1
ACMSTANDARDANSI
  2
AcmStandardANSI
  3
"Amdt_StdImp|Product Description: AutoCAD Mechanical 2004 DX|Company: Autodesk"
 90
        0
280
     1
281
     0
  0
CLASS
  1
ACMSURFSTANDARDANSI
  2
AcmSurfTextStdANSI
  3
"Amdt_StdImp|Product Description: AutoCAD Mechanical 2004 DX|Company: Autodesk"
 90
        0
280
     1
281
     0
  0
CLASS
  1
ACMFCFSTANDARDANSI
  2
AcmFCFStdANSI
  3
"Amdt_StdImp|Product Description: AutoCAD Mechanical 2004 DX|Company: Autodesk"
 90
        0
280
     1
281
     0
  0
CLASS
  1
ACMWELDSTANDARDANSI
  2
AcmWeldingStdANSI
  3
"Amdt_StdImp|Product Description: AutoCAD Mechanical 2004 DX|Company: Autodesk"
 90
        0
280
     1
281
     0
  0
CLASS
  1
ACMIDSTANDARDANSI
  2
AcmIdStdANSI
  3
"Amdt_StdImp|Product Description: AutoCAD Mechanical 2004 DX|Company: Autodesk"
 90
        0
280
     1
281
     0
  0
CLASS
  1
ACMDATUMSTANDARDANSI
  2
AcmDatumStdANSI
  3
"Amdt_StdImp|Product Description: AutoCAD Mechanical 2004 DX|Company: Autodesk"
 90
        0
280
     1
281
     0
  0
CLASS
  1
ACMBOMSTANDARDANSI
  2
AcmBOMStdANSI
  3
"Amdt_StdImp|Product Description: AutoCAD Mechanical 2004 DX|Company: Autodesk"
 90
        0
280
     1
281
     0
  0
CLASS
  1
ACMDETAILSTANDARDANSI
  2
AmdtDetailSymStdANSI
  3
"Amdt_StdImp|Product Description: AutoCAD Mechanical 2004 DX|Company: Autodesk"
 90
        0
280
     1
281
     0
  0
CLASS
  1
ACMSECTIONSTANDARDANSI
  2
AmdtSectionSymStdANSI
  3
"Amdt_StdImp|Product Description: AutoCAD Mechanical 2004 DX|Company: Autodesk"
 90
        0
280
     1
281
     0
  0
CLASS
  1
ACMCENTERLINESTANDARDANSI
  2
AmdtCenterLineStdANSI
  3
"Amdt_StdImp|Product Description: AutoCAD Mechanical 2004 DX|Company: Autodesk"
 90
        0
280
     1
281
     0
  0
CLASS
  1
ACMTHREADLINESTANDARDANSI
  2
AmdtThreadLineStdANSI
  3
"Amdt_StdImp|Product Description: AutoCAD Mechanical 2004 DX|Company: Autodesk"
 90
        0
280
     1
281
     0
  0
CLASS
  1
ACMNOTESTANDARDANSI
  2
AmdtNoteStdANSI
  3
"Amdt_StdImp|Product Description: AutoCAD Mechanical 2004 DX|Company: Autodesk"
 90
        0
280
     1
281
     0
  0
CLASS
  1
ACAMGHOLECHARTSTDANSI
  2
AcAmgHoleChartStdANSI
  3
ACMSYMBB_MODULE_NAME
 90
        0
280
     1
281
     0
  0
ENDSEC
  0
SECTION
  2
TABLES
  0
TABLE
  2
VPORT
  5
8
330
0
100
AcDbSymbolTable
 70
     3
  0
VPORT
  5
3CED
330
8
100
AcDbSymbolTableRecord
100
AcDbViewportTableRecord
  2
*Active
 70
     0
 10
0.0
 20
0.0
 11
1.0
 21
1.0
 12
-52.1644468410266
 22
-20.2497529847151
 13
0.0
 23
0.0
 14
2.5
 24
2.5
 15
10.0
 25
10.0
 16
0.0
 26
0.0
 36
1.0
 17
0.0
 27
0.0
 37
0.0
 40
92.93720516466756
 41
1.62534435261708
 42
50.0
 43
0.0
 44
0.0
 50
0.0
 51
0.0
 71
    16
 72
 20000
 73
     1
 74
     3
 75
     0
 76
     0
 77
     0
 78
     0
281
     0
 65
     1
110
0.0
120
0.0
130
0.0
111
1.0
121
0.0
131
0.0
112
0.0
122
1.0
132
0.0
 79
     0
146
0.0
  0
ENDTAB
  0
TABLE
  2
LTYPE
  5
5
330
0
100
AcDbSymbolTable
 70
    14
  0
LTYPE
  5
14
330
5
100
AcDbSymbolTableRecord
100
AcDbLinetypeTableRecord
  2
ByBlock
 70
     0
  3

 72
    65
 73
     0
 40
0.0
  0
LTYPE
  5
15
330
5
100
AcDbSymbolTableRecord
100
AcDbLinetypeTableRecord
  2
ByLayer
 70
     0
  3

 72
    65
 73
     0
 40
0.0
  0
LTYPE
  5
16
330
5
100
AcDbSymbolTableRecord
100
AcDbLinetypeTableRecord
  2
Continuous
 70
     0
  3
Solid line
 72
    65
 73
     0
 40
0.0
  0
LTYPE
  5
64
330
5
100
AcDbSymbolTableRecord
100
AcDbLinetypeTableRecord
  2
AM_ISO02W050
 70
     0
  3
__ __ __ __ __ __ __ __ __ __ __ __ __ __ __
 72
    65
 73
     2
 40
7.5
 49
6.0
 74
     0
 49
-1.5
 74
     0
  0
LTYPE
  5
65
330
5
100
AcDbSymbolTableRecord
100
AcDbLinetypeTableRecord
  2
AM_ISO08W050
 70
     0
  3
____ . ____ . ____ . ____ . ____ . ____ . ____
 72
    65
 73
     4
 40
18.0
 49
12.0
 74
     0
 49
-1.5
 74
     0
 49
3.0
 74
     0
 49
-1.5
 74
     0
  0
LTYPE
  5
66
330
5
100
AcDbSymbolTableRecord
100
AcDbLinetypeTableRecord
  2
AM_ISO09W050
 70
     0
  3
_____ . . _____ . . _____ . . ____ .. ____
 72
    65
 73
     6
 40
22.5
 49
12.0
 74
     0
 49
-1.5
 74
     0
 49
3.0
 74
     0
 49
-1.5
 74
     0
 49
3.0
 74
     0
 49
-1.5
 74
     0
  0
LTYPE
  5
67
330
5
100
AcDbSymbolTableRecord
100
AcDbLinetypeTableRecord
  2
Amconstr
 70
     0
  3
_______________________
 72
    65
 73
     2
 40
9999.0
 49
9999.0
 74
     0
 49
0.0
 74
     0
  0
LTYPE
  5
68
330
5
100
AcDbSymbolTableRecord
100
AcDbLinetypeTableRecord
  2
AM_ISO08W050x2
 70
     0
  3
__ . __ . __ . __ . __ . __
 72
    65
 73
     4
 40
9.0
 49
6.0
 74
     0
 49
-0.75
 74
     0
 49
1.5
 74
     0
 49
-0.75
 74
     0
  0
LTYPE
  5
69
330
5
100
AcDbSymbolTableRecord
100
AcDbLinetypeTableRecord
  2
AM_ISO02W050x2
 70
     0
  3
 _ _ _ _ _ _ _ _ _ _ _ _
 72
    65
 73
     2
 40
3.75
 49
3.0
 74
     0
 49
-0.75
 74
     0
  0
LTYPE
  5
6C
330
5
100
AcDbSymbolTableRecord
100
AcDbLinetypeTableRecord
  2
Amzigzag
 70
     0
  3
/\/-/\/-/\/-/\/-/\/-/\/
 72
    65
 73
     2
 40
11.0001
 49
0.0001
 74
     4
 75
   135
340
6B
 46
0.04
 50
0.0
 44
0.0
 45
0.0
 49
-11.0
 74
     0
  0
LTYPE
  5
7A
330
5
100
AcDbSymbolTableRecord
100
AcDbLinetypeTableRecord
  2
ACISOWELD
 70
     0
  3
_ _ _ _ _
 72
    65
 73
     2
 40
2.0
 49
2.0
 74
     0
 49
-1.0
 74
     0
  0
LTYPE
  5
7B
330
5
100
AcDbSymbolTableRecord
100
AcDbLinetypeTableRecord
  2
ACISOTGB
 70
     0
  3
__ . . __ . .
 72
    65
 73
     6
 40
9.0
 49
4.0
 74
     0
 49
-1.0
 74
     0
 49
1.0
 74
     0
 49
-1.0
 74
     0
 49
1.0
 74
     0
 49
-1.0
 74
     0
  0
LTYPE
  5
7C
330
5
100
AcDbSymbolTableRecord
100
AcDbLinetypeTableRecord
  2
ACISOTGL
 70
     0
  3
_ _ _ _ _
 72
    65
 73
     2
 40
3.0
 49
2.0
 74
     0
 49
-1.0
 74
     0
  0
LTYPE
  5
7E
330
5
100
AcDbSymbolTableRecord
100
AcDbLinetypeTableRecord
  2
CENTER
 70
     0
  3
__ . __
 72
    65
 73
     4
 40
7.0
 49
4.0
 74
     0
 49
-1.0
 74
     0
 49
1.0
 74
     0
 49
-1.0
 74
     0
  0
LTYPE
  5
D8
330
5
100
AcDbSymbolTableRecord
100
AcDbLinetypeTableRecord
  2
HIDDEN
 70
     0
  3
Hidden __ __ __ __ __ __ __ __ __ __ __ __ __ _
 72
    65
 73
     2
 40
9.524999999999999
 49
6.35
 74
     0
 49
-3.175
 74
     0
  0
LTYPE
  5
D9
330
5
100
AcDbSymbolTableRecord
100
AcDbLinetypeTableRecord
  2
PHANTOM2
 70
     0
  3
Phantom (.5x) ___ _ _ ___ _ _ ___ _ _ ___ _ _
 72
    65
 73
     6
 40
31.75
 49
15.875
 74
     0
 49
-3.175
 74
     0
 49
3.175
 74
     0
 49
-3.175
 74
     0
 49
3.175
 74
     0
 49
-3.175
 74
     0
  0
ENDTAB
  0
TABLE
  2
LAYER
  5
2
102
{ACAD_XDICTIONARY
360
34B
102
}
330
0
100
AcDbSymbolTable
 70
    16
  0
LAYER
  5
10
330
2
100
AcDbSymbolTableRecord
100
AcDbLayerTableRecord
  2
0
 70
     0
 62
     7
  6
Continuous
370
    -3
390
F
  0
LAYER
  5
34A
330
2
100
AcDbSymbolTableRecord
100
AcDbLayerTableRecord
  2
AM_0
 70
     0
 62
     7
  6
Continuous
370
    30
390
F
  0
LAYER
  5
3AC
330
2
100
AcDbSymbolTableRecord
100
AcDbLayerTableRecord
  2
AM_5
 70
     0
 62
     3
  6
Continuous
370
    13
390
F
  0
LAYER
  5
7F2
330
2
100
AcDbSymbolTableRecord
100
AcDbLayerTableRecord
  2
AM_4
 70
     0
 62
     3
  6
Continuous
370
    13
390
F
  0
LAYER
  5
99D
330
2
100
AcDbSymbolTableRecord
100
AcDbLayerTableRecord
  2
Defpoints
 70
     0
 62
     7
  6
Continuous
290
     0
370
    -3
390
F
  0
LAYER
  5
30AC
330
2
100
AcDbSymbolTableRecord
100
AcDbLayerTableRecord
  2
AM_7
 70
     0
 62
     4
  6
AM_ISO08W050
370
    25
390
F
  0
ENDTAB
  0
TABLE
  2
STYLE
  5
3
330
0
100
AcDbSymbolTable
 70
     4
  0
STYLE
  5
11
330
3
100
AcDbSymbolTableRecord
100
AcDbTextStyleTableRecord
  2
STANDARD
 70
     0
 40
0.0
 41
1.0
 50
0.0
 71
     0
 42
3.8
  3
ISOCP.SHX
  4
EXTFONT.SHX
  0
STYLE
  5
6B
330
3
100
AcDbSymbolTableRecord
100
AcDbTextStyleTableRecord
  2

 70
     1
 40
0.0
 41
1.0
 50
0.0
 71
     0
 42
2.5
  3
ltypeshp.shx
  4

  0
STYLE
  5
6D
330
3
100
AcDbSymbolTableRecord
100
AcDbTextStyleTableRecord
  2
ACISOTS
 70
     0
 40
1.0
 41
1.0
 50
0.0
 71
     0
 42
1.0
  3
isocp.shx
  4
extfont.shx
  0
STYLE
  5
79
330
3
100
AcDbSymbolTableRecord
100
AcDbTextStyleTableRecord
  2
ACISOGDT
 70
     0
 40
0.0
 41
1.0
 50
0.0
 71
     0
 42
2.5
  3
amgdt.shx
  4
extfont.shx
  0
ENDTAB
  0
TABLE
  2
VIEW
  5
6
330
0
100
AcDbSymbolTable
 70
     6
  0
VIEW
  5
882
330
6
100
AcDbSymbolTableRecord
100
AcDbViewTableRecord
  2
AM_VIEW1
 70
     0
 40
1.0
 10
0.0
 20
0.0
 41
1.0
 11
0.0
 21
0.0
 31
1.0
 12
0.0
 22
0.0
 32
0.0
 42
50.0
 43
0.0
 44
0.0
 50
0.0
 71
    16
281
     0
 72
     0
  0
VIEW
  5
883
330
6
100
AcDbSymbolTableRecord
100
AcDbViewTableRecord
  2
AM_VIEW2
 70
     0
 40
1.0
 10
0.0
 20
0.0
 41
1.0
 11
0.0
 21
0.0
 31
1.0
 12
0.0
 22
0.0
 32
0.0
 42
50.0
 43
0.0
 44
0.0
 50
0.0
 71
    16
281
     0
 72
     0
  0
VIEW
  5
884
330
6
100
AcDbSymbolTableRecord
100
AcDbViewTableRecord
  2
AM_VIEW3
 70
     0
 40
1.0
 10
0.0
 20
0.0
 41
1.0
 11
0.0
 21
0.0
 31
1.0
 12
0.0
 22
0.0
 32
0.0
 42
50.0
 43
0.0
 44
0.0
 50
0.0
 71
    16
281
     0
 72
     0
  0
VIEW
  5
885
330
6
100
AcDbSymbolTableRecord
100
AcDbViewTableRecord
  2
AM_VIEW4
 70
     0
 40
1.0
 10
0.0
 20
0.0
 41
1.0
 11
0.0
 21
0.0
 31
1.0
 12
0.0
 22
0.0
 32
0.0
 42
50.0
 43
0.0
 44
0.0
 50
0.0
 71
    16
281
     0
 72
     0
  0
VIEW
  5
886
330
6
100
AcDbSymbolTableRecord
100
AcDbViewTableRecord
  2
AM_VIEW5
 70
     0
 40
1.0
 10
0.0
 20
0.0
 41
1.0
 11
0.0
 21
0.0
 31
1.0
 12
0.0
 22
0.0
 32
0.0
 42
50.0
 43
0.0
 44
0.0
 50
0.0
 71
    16
281
     0
 72
     0
  0
VIEW
  5
887
330
6
100
AcDbSymbolTableRecord
100
AcDbViewTableRecord
  2
AM_VIEW6
 70
     0
 40
1.0
 10
0.0
 20
0.0
 41
1.0
 11
0.0
 21
0.0
 31
1.0
 12
0.0
 22
0.0
 32
0.0
 42
50.0
 43
0.0
 44
0.0
 50
0.0
 71
    16
281
     0
 72
     0
  0
ENDTAB
  0
TABLE
  2
UCS
  5
7
330
0
100
AcDbSymbolTable
 70
     0
  0
ENDTAB
  0
TABLE
  2
APPID
  5
9
330
0
100
AcDbSymbolTable
 70
    42
  0
APPID
  5
12
330
9
100
AcDbSymbolTableRecord
100
AcDbRegAppTableRecord
  2
ACAD
 70
     0
  0
APPID
  5
46
330
9
100
AcDbSymbolTableRecord
100
AcDbRegAppTableRecord
  2
MCAD_NO_VIS
 70
     0
  0
APPID
  5
47
330
9
100
AcDbSymbolTableRecord
100
AcDbRegAppTableRecord
  2
ACAD_TEMP_GRAPHIC
 70
     0
  0
APPID
  5
58
330
9
100
AcDbSymbolTableRecord
100
AcDbRegAppTableRecord
  2
ACATTRIBSERVICES
 70
     0
  0
APPID
  5
EE
330
9
100
AcDbSymbolTableRecord
100
AcDbRegAppTableRecord
  2
AD_DRAW
 70
     0
  0
APPID
  5
10C
330
9
100
AcDbSymbolTableRecord
100
AcDbRegAppTableRecord
  2
DESIGNERASSEMBLIES
 70
     0
  0
APPID
  5
111
330
9
100
AcDbSymbolTableRecord
100
AcDbRegAppTableRecord
  2
ACADM_DIM_EDIT
 70
     0
  0
APPID
  5
112
330
9
100
AcDbSymbolTableRecord
100
AcDbRegAppTableRecord
  2
AMDT_DM_ADJ
 70
     0
  0
APPID
  5
243
330
9
100
AcDbSymbolTableRecord
100
AcDbRegAppTableRecord
  2
ACAD_DSTYLE_DIMTEXT_FILL
 70
     0
  0
APPID
  5
7F4
330
9
100
AcDbSymbolTableRecord
100
AcDbRegAppTableRecord
  2
GENIUS_GENREC_14
 70
     0
  0
APPID
  5
7F5
330
9
100
AcDbSymbolTableRecord
100
AcDbRegAppTableRecord
  2
GENIUS_GENODEF_13
 70
     0
  0
APPID
  5
7F6
330
9
100
AcDbSymbolTableRecord
100
AcDbRegAppTableRecord
  2
GENIUS_GENOBJ-N-REC_13
 70
     0
  0
APPID
  5
7F7
330
9
100
AcDbSymbolTableRecord
100
AcDbRegAppTableRecord
  2
GENIUS_GENOBJ-N-HTC_13
 70
     0
  0
APPID
  5
7F8
330
9
100
AcDbSymbolTableRecord
100
AcDbRegAppTableRecord
  2
GENIUS_GENHATCH_13
 70
     0
  0
APPID
  5
85E
330
9
100
AcDbSymbolTableRecord
100
AcDbRegAppTableRecord
  2
GENIUS_GENCFG_13
 70
     0
  0
APPID
  5
85F
330
9
100
AcDbSymbolTableRecord
100
AcDbRegAppTableRecord
  2
GENIUS_GENCFG0_13
 70
     0
  0
APPID
  5
860
330
9
100
AcDbSymbolTableRecord
100
AcDbRegAppTableRecord
  2
GENIUS_GENCFG1_13
 70
     0
  0
APPID
  5
861
330
9
100
AcDbSymbolTableRecord
100
AcDbRegAppTableRecord
  2
GENIUS_GENCFG2_13
 70
     0
  0
APPID
  5
862
330
9
100
AcDbSymbolTableRecord
100
AcDbRegAppTableRecord
  2
GENIUS_GENCFG3_13
 70
     0
  0
APPID
  5
863
330
9
100
AcDbSymbolTableRecord
100
AcDbRegAppTableRecord
  2
GENIUS_GENCFG4_13
 70
     0
  0
APPID
  5
864
330
9
100
AcDbSymbolTableRecord
100
AcDbRegAppTableRecord
  2
GENIUS_GENBLLY_14
 70
     0
  0
APPID
  5
865
330
9
100
AcDbSymbolTableRecord
100
AcDbRegAppTableRecord
  2
GENIUS_GENOBJ-N-CEN_13
 70
     0
  0
APPID
  5
873
330
9
100
AcDbSymbolTableRecord
100
AcDbRegAppTableRecord
  2
GENIUS_GENTRA_14
 70
     0
  0
APPID
  5
87D
330
9
100
AcDbSymbolTableRecord
100
AcDbRegAppTableRecord
  2
GENIUS_GENOENT_13
 70
     0
  0
APPID
  5
87E
330
9
100
AcDbSymbolTableRecord
100
AcDbRegAppTableRecord
  2
GENIUS_GENOLIS_13
 70
     0
  0
APPID
  5
87F
330
9
100
AcDbSymbolTableRecord
100
AcDbRegAppTableRecord
  2
GENIUS_GENOBJ-N-TIT_13
 70
     0
  0
APPID
  5
880
330
9
100
AcDbSymbolTableRecord
100
AcDbRegAppTableRecord
  2
GENIUS_GENTITLE_13
 70
     0
  0
APPID
  5
881
330
9
100
AcDbSymbolTableRecord
100
AcDbRegAppTableRecord
  2
GENIUS_GENOREF_13
 70
     0
  0
APPID
  5
888
330
9
100
AcDbSymbolTableRecord
100
AcDbRegAppTableRecord
  2
GENIUS_GENSCREG_15
 70
     0
  0
APPID
  5
889
330
9
100
AcDbSymbolTableRecord
100
AcDbRegAppTableRecord
  2
GENIUS_GENOBJ-N-SDF_13
 70
     0
  0
APPID
  5
91E
330
9
100
AcDbSymbolTableRecord
100
AcDbRegAppTableRecord
  2
ACAD_PSEXT
 70
     0
  0
APPID
  5
989
330
9
100
AcDbSymbolTableRecord
100
AcDbRegAppTableRecord
  2
GENIUS_GENOBJ-N-FIL_13
 70
     0
  0
APPID
  5
B18
330
9
100
AcDbSymbolTableRecord
100
AcDbRegAppTableRecord
  2
GENIUS_GENDTOL_13
 70
     0
  0
APPID
  5
B19
330
9
100
AcDbSymbolTableRecord
100
AcDbRegAppTableRecord
  2
GENIUS_GENOBJ-N-RSBK_13
 70
     0
  0
APPID
  5
B1A
330
9
100
AcDbSymbolTableRecord
100
AcDbRegAppTableRecord
  2
GENIUS_GENOBJ-N-LIB_13
 70
     0
  0
APPID
  5
B1B
330
9
100
AcDbSymbolTableRecord
100
AcDbRegAppTableRecord
  2
GENIUS_GENSCALE_13
 70
     0
  0
APPID
  5
B1C
330
9
100
AcDbSymbolTableRecord
100
AcDbRegAppTableRecord
  2
GENIUS_AMGTXT_16
 70
     0
  0
APPID
  5
15C8
330
9
100
AcDbSymbolTableRecord
100
AcDbRegAppTableRecord
  2
ACAD_DIMASSOC_DIMLFAC
 70
     0
  0
APPID
  5
15C9
330
9
100
AcDbSymbolTableRecord
100
AcDbRegAppTableRecord
  2
ACAD_DIMASSOC_CALC_DIMLFAC
 70
     0
  0
APPID
  5
15CA
330
9
100
AcDbSymbolTableRecord
100
AcDbRegAppTableRecord
  2
ACAD_DIMASSOC_OVERRIDDEN_DIMLFAC
 70
     0
  0
APPID
  5
30AE
330
9
100
AcDbSymbolTableRecord
100
AcDbRegAppTableRecord
  2
GENIUS_GENCEN_19
 70
     0
  0
APPID
  5
37D3
330
9
100
AcDbSymbolTableRecord
100
AcDbRegAppTableRecord
  2
GENIUS_GENOBJ-N-CRS_13
 70
     0
  0
ENDTAB
  0
TABLE
  2
DIMSTYLE
  5
A
330
0
100
AcDbSymbolTable
 70
    17
100
AcDbDimStyleTable
  0
DIMSTYLE
105
81
330
A
100
AcDbSymbolTableRecord
100
AcDbDimStyleTableRecord
  2
AM_ISO
 70
     0
  4
"
 41
2.5
 42
1.0
 43
10.0
 44
1.0
 47
0.1
 48
0.1
 73
     0
 74
     0
 77
     1
 78
     8
 79
     2
140
3.5
141
0.0
143
0.0393701
146
0.71
147
1.5
172
     1
176
   256
177
   256
178
     2
271
     2
272
     3
274
     4
283
     0
284
     8
340
11
371
    -1
372
    -1
  0
DIMSTYLE
105
82
330
A
100
AcDbSymbolTableRecord
100
AcDbDimStyleTableRecord
  2
AM_ISO$3
 70
     0
  4
"
 41
2.5
 42
1.0
 43
10.0
 44
1.0
 47
0.1
 48
0.1
 73
     0
 77
     1
 78
     8
 79
     2
140
3.5
141
0.0
143
0.0393701
146
0.71
147
1.5
176
   256
177
   256
178
     2
271
     2
272
     3
274
     4
283
     0
284
     8
288
     1
289
     0
340
11
371
    -1
372
    -1
  0
DIMSTYLE
105
83
330
A
100
AcDbSymbolTableRecord
100
AcDbDimStyleTableRecord
  2
AM_ISO$4
 70
     0
  4
"
 41
2.5
 42
1.0
 43
10.0
 44
1.0
 47
0.1
 48
0.1
 73
     0
 77
     1
 78
     8
 79
     2
140
3.5
141
0.0
143
0.0393701
146
0.71
147
1.5
176
   256
177
   256
178
     2
271
     2
272
     3
274
     4
283
     0
284
     8
288
     1
289
     0
340
11
371
    -1
372
    -1
  0
DIMSTYLE
105
84
330
A
100
AcDbSymbolTableRecord
100
AcDbDimStyleTableRecord
  2
AM_ISO$6
 70
     0
  4
"
 41
2.5
 42
1.0
 43
10.0
 44
1.0
 47
0.1
 48
0.1
 73
     0
 74
     0
 78
     8
 79
     2
140
3.5
141
0.0
143
0.0393701
146
0.71
147
1.5
172
     1
176
   256
177
   256
178
     2
271
     2
272
     3
274
     4
283
     0
284
     8
340
11
371
    -1
372
    -1
  0
DIMSTYLE
105
85
330
A
100
AcDbSymbolTableRecord
100
AcDbDimStyleTableRecord
  2
AM_ISO$7
 70
     0
  4
"
 41
2.5
 42
1.0
 43
10.0
 44
1.0
 47
0.1
 48
0.1
 73
     0
 74
     0
 77
     1
 78
     8
 79
     2
140
5.0
141
0.0
143
0.0393701
146
0.71
147
1.5
172
     1
176
   256
177
   256
178
     2
271
     2
272
     3
274
     4
283
     0
284
     8
340
11
371
    -1
372
    -1
  0
DIMSTYLE
105
86
330
A
100
AcDbSymbolTableRecord
100
AcDbDimStyleTableRecord
  2
AM_ISO$SF
 70
     0
  4
"
 41
2.5
 42
1.0
 43
10.0
 44
1.0
 47
0.1
 48
0.1
 73
     0
 74
     0
 75
     1
 76
     1
 77
     1
 78
     8
 79
     2
140
3.5
141
0.0
143
0.0393701
146
0.71
147
1.5
172
     1
176
   256
177
   256
178
     2
271
     2
272
     3
274
     4
283
     0
284
     8
340
11
371
    -1
372
    -1
  0
DIMSTYLE
105
8B
330
A
100
AcDbSymbolTableRecord
100
AcDbDimStyleTableRecord
  2
AM_ISO$SH
 70
     0
  4
"
 41
2.5
 42
1.0
 43
10.0
 44
1.0
 47
0.1
 48
0.1
 73
     0
 74
     0
 75
     1
 76
     1
 77
     1
 78
     8
 79
     2
140
3.5
141
0.0
143
0.0393701
144
2.0
146
0.71
147
1.5
172
     1
173
     1
176
   256
177
   256
178
     2
271
     2
272
     3
274
     4
283
     0
284
     8
340
11
343
87
371
    -1
372
    -1
  0
DIMSTYLE
105
216
330
A
100
AcDbSymbolTableRecord
100
AcDbDimStyleTableRecord
  2
AM_JIS
 70
     0
  4
"
 41
2.5
 42
1.0
 43
10.0
 44
1.0
 47
0.1
 48
0.1000000001
 73
     0
 74
     0
 77
     3
 78
     8
 79
     2
140
3.8
141
0.0
143
0.0393701
146
0.71
147
1.5
172
     1
176
   256
177
   256
178
     2
271
     2
272
     2
275
     1
283
     0
284
     8
340
11
341
217
342
217
371
    -1
372
    -1
  0
DIMSTYLE
105
7F3
102
{ACAD_REACTORS
330
3A89
330
3AC6
330
3B02
330
3B2F
330
3B64
102
}
330
A
100
AcDbSymbolTableRecord
100
AcDbDimStyleTableRecord
  2
AM_JIS$0
 70
     0
  4
"
 41
2.5
 42
0.0
 43
10.0
 44
1.0
 48
0.000000001
 73
     0
 74
     0
 77
     3
 78
     1
 79
     2
140
3.8
141
0.0
143
0.0393701
146
0.71
147
1.5
172
     1
176
   256
177
   256
178
     2
179
     1
271
     3
272
     3
275
     1
283
     0
284
     8
340
11
341
217
342
217
371
    -1
372
    -1
  0
DIMSTYLE
105
856
330
A
100
AcDbSymbolTableRecord
100
AcDbDimStyleTableRecord
  2
STANDARD
 70
     0
340
11
  0
ENDTAB
  0
TABLE
  2
BLOCK_RECORD
  5
1
330
0
100
AcDbSymbolTable
 70
    19
  0
BLOCK_RECORD
  5
1F
102
{ACAD_XDICTIONARY
360
8F
102
}
330
1
100
AcDbSymbolTableRecord
100
AcDbBlockTableRecord
  2
*Model_Space
340
22
  0
BLOCK_RECORD
  5
1B
330
1
100
AcDbSymbolTableRecord
100
AcDbBlockTableRecord
  2
*Paper_Space
340
1E
  0
BLOCK_RECORD
  5
23
330
1
100
AcDbSymbolTableRecord
100
AcDbBlockTableRecord
  2
*Paper_Space0
340
26
  0
BLOCK_RECORD
  5
87
330
1
100
AcDbSymbolTableRecord
100
AcDbBlockTableRecord
  2
GENAXEH
340
0
  0
BLOCK_RECORD
  5
217
330
1
100
AcDbSymbolTableRecord
100
AcDbBlockTableRecord
  2
_Open30
340
0
102
{BLKREFS
331
3AB1
331
3AB2
331
3AE8
331
3AE9
331
3B1B
331
3B1C
331
3B48
331
3B49
331
3B91
331
3B92
102
}
  0
BLOCK_RECORD
  5
3A8A
330
1
100
AcDbSymbolTableRecord
100
AcDbBlockTableRecord
  2
*D14
340
0
  0
BLOCK_RECORD
  5
3AC7
330
1
100
AcDbSymbolTableRecord
100
AcDbBlockTableRecord
  2
*D15
340
0
  0
BLOCK_RECORD
  5
3B03
330
1
100
AcDbSymbolTableRecord
100
AcDbBlockTableRecord
  2
*D16
340
0
  0
BLOCK_RECORD
  5
3B30
330
1
100
AcDbSymbolTableRecord
100
AcDbBlockTableRecord
  2
*D17
340
0
  0
BLOCK_RECORD
  5
3B65
330
1
100
AcDbSymbolTableRecord
100
AcDbBlockTableRecord
  2
*D18
340
0
  0
ENDTAB
  0
ENDSEC
  0
SECTION
  2
BLOCKS
  0
BLOCK
  5
20
330
1F
100
AcDbEntity
  8
0
100
AcDbBlockBegin
  2
*Model_Space
 70
     0
 71
     0
 10
0.0
 20
0.0
 30
0.0
  3
*Model_Space
  1

  0
ENDBLK
  5
21
330
1F
100
AcDbEntity
  8
0
100
AcDbBlockEnd
  0
BLOCK
  5
1C
330
1B
100
AcDbEntity
 67
     1
  8
0
100
AcDbBlockBegin
  2
*Paper_Space
 70
     0
 71
     0
 10
0.0
 20
0.0
 30
0.0
  3
*Paper_Space
  1

  0
ENDBLK
  5
1D
330
1B
100
AcDbEntity
 67
     1
  8
0
100
AcDbBlockEnd
  0
BLOCK
  5
24
330
23
100
AcDbEntity
  8
0
100
AcDbBlockBegin
  2
*Paper_Space0
 70
     0
 71
     0
 10
0.0
 20
0.0
 30
0.0
  3
*Paper_Space0
  1

  0
ENDBLK
  5
25
330
23
100
AcDbEntity
  8
0
100
AcDbBlockEnd
  0
BLOCK
  5
3CDB
330
87
100
AcDbEntity
  8
0
100
AcDbBlockBegin
  2
GENAXEH
 70
     0
 71
     0
 10
0.0
 20
0.0
 30
0.0
  3
GENAXEH
  1

  0
LINE
  5
3CDC
330
87
100
AcDbEntity
  8
0
100
AcDbLine
 10
-1.0
 20
0.0
 30
0.0
 11
1.0
 21
0.0
 31
0.0
  0
ENDBLK
  5
3CDD
330
87
100
AcDbEntity
  8
0
100
AcDbBlockEnd
  0
BLOCK
  5
21B
330
217
100
AcDbEntity
  8
0
100
AcDbBlockBegin
  2
_Open30
 70
     0
 71
     0
 10
0.0
 20
0.0
 30
0.0
  3
_Open30
  1

  0
LINE
  5
218
330
217
100
AcDbEntity
  8
0
  6
ByBlock
 62
     0
370
    -2
100
AcDbLine
 10
-1.0
 20
0.26794919
 30
0.0
 11
0.0
 21
0.0
 31
0.0
  0
LINE
  5
219
330
217
100
AcDbEntity
  8
0
  6
ByBlock
 62
     0
370
    -2
100
AcDbLine
 10
0.0
 20
0.0
 30
0.0
 11
-1.0
 21
-0.26794919
 31
0.0
  0
LINE
  5
21A
330
217
100
AcDbEntity
  8
0
  6
ByBlock
 62
     0
370
    -2
100
AcDbLine
 10
0.0
 20
0.0
 30
0.0
 11
-1.0
 21
0.0
 31
0.0
  0
ENDBLK
  5
21C
330
217
100
AcDbEntity
  8
0
100
AcDbBlockEnd
  0
BLOCK
  5
3AAB
330
3A8A
100
AcDbEntity
  8
0
100
AcDbBlockBegin
  2
*D14
 70
     1
 71
     0
 10
0.0
 20
0.0
 30
0.0
  3
*D14
  1

  0
LINE
  5
3AAE
330
3A8A
100
AcDbEntity
  8
AM_5
100
AcDbLine
 10
-106.999999986897
 20
8.000000000278607
 30
0.0
 11
-123.0000009968971
 21
8.000000000278613
 31
0.0
  0
LINE
  5
3AAF
330
3A8A
100
AcDbEntity
  8
AM_5
100
AcDbLine
 10
-106.999999986897
 20
-7.999999999721386
 30
0.0
 11
-123.0000009968971
 21
-7.999999999721381
 31
0.0
  0
LINE
  5
3AB0
330
3A8A
100
AcDbEntity
  8
AM_5
100
AcDbLine
 10
-122.0000009968971
 20
5.500000000278614
 30
0.0
 11
-122.0000009968971
 21
-5.499999999721381
 31
0.0
  0
INSERT
  5
3AB1
330
3A8A
100
AcDbEntity
  8
AM_5
100
AcDbBlockReference
  2
_Open30
 10
-122.0000009968971
 20
8.000000000278613
 30
0.0
 41
2.5
 42
2.5
 43
2.5
 50
90.0
  0
INSERT
  5
3AB2
330
3A8A
100
AcDbEntity
  8
AM_5
100
AcDbBlockReference
  2
_Open30
 10
-122.0000009968971
 20
-7.999999999721381
 30
0.0
 41
2.5
 42
2.5
 43
2.5
 50
270.0
  0
MTEXT
  5
3AB3
330
3A8A
100
AcDbEntity
  8
AM_5
 62
     2
100
AcDbMText
 10
-125.4000009968971
 20
0.0000000002785966
 30
0.0
 40
3.8
 41
0.0
 71
     5
 72
     1
  1
%%c16
 11
6.123031769111886E-17
 21
1.0
 31
0.0
 73
     1
 44
1.0
  0
POINT
  5
3AB4
330
3A8A
100
AcDbEntity
  8
Defpoints
 62
     0
100
AcDbPoint
 10
-106.999999986897
 20
8.000000000278607
 30
0.0
  0
POINT
  5
3AB5
330
3A8A
100
AcDbEntity
  8
Defpoints
 62
     0
100
AcDbPoint
 10
-106.999999986897
 20
-7.999999999721386
 30
0.0
  0
POINT
  5
3AB6
330
3A8A
100
AcDbEntity
  8
Defpoints
 62
     0
100
AcDbPoint
 10
-122.0000009968971
 20
-7.999999999721381
 30
0.0
  0
ENDBLK
  5
3AAC
330
3A8A
100
AcDbEntity
  8
0
100
AcDbBlockEnd
  0
BLOCK
  5
3AF1
330
3AC7
100
AcDbEntity
  8
0
100
AcDbBlockBegin
  2
*D15
 70
     1
 71
     0
 10
0.0
 20
0.0
 30
0.0
  3
*D15
  1

  0
LINE
  5
3AE5
330
3AC7
100
AcDbEntity
  8
AM_5
100
AcDbLine
 10
-2.092063840392569
 20
8.000000000278682
 30
0.0
 11
22.95288180053388
 21
8.000000000278675
 31
0.0
  0
LINE
  5
3AE6
330
3AC7
100
AcDbEntity
  8
AM_5
100
AcDbLine
 10
-2.09206384039257
 20
-7.999999999721466
 30
0.0
 11
22.95288180053387
 21
-7.999999999721474
 31
0.0
  0
LINE
  5
3AE7
330
3AC7
100
AcDbEntity
  8
AM_5
100
AcDbLine
 10
21.95288180053387
 20
5.500000000278676
 30
0.0
 11
21.95288180053387
 21
-5.499999999721474
 31
0.0
  0
INSERT
  5
3AE8
330
3AC7
100
AcDbEntity
  8
AM_5
100
AcDbBlockReference
  2
_Open30
 10
21.95288180053388
 20
8.000000000278675
 30
0.0
 41
2.5
 42
2.5
 43
2.5
 50
90.0
  0
INSERT
  5
3AE9
330
3AC7
100
AcDbEntity
  8
AM_5
100
AcDbBlockReference
  2
_Open30
 10
21.95288180053387
 20
-7.999999999721474
 30
0.0
 41
2.5
 42
2.5
 43
2.5
 50
270.0
  0
MTEXT
  5
3AEA
330
3AC7
100
AcDbEntity
  8
AM_5
 62
     2
100
AcDbMText
 10
18.55288180053388
 20
0.0000000002786047
 30
0.0
 40
3.8
 41
0.0
 71
     5
 72
     1
  1
%%c16
 11
6.123031769111886E-17
 21
1.0
 31
0.0
 73
     1
 44
1.0
  0
POINT
  5
3AEB
330
3AC7
100
AcDbEntity
  8
Defpoints
 62
     0
100
AcDbPoint
 10
-2.092063840392569
 20
8.000000000278682
 30
0.0
  0
POINT
  5
3AEC
330
3AC7
100
AcDbEntity
  8
Defpoints
 62
     0
100
AcDbPoint
 10
-2.09206384039257
 20
-7.999999999721466
 30
0.0
  0
POINT
  5
3AED
330
3AC7
100
AcDbEntity
  8
Defpoints
 62
     0
100
AcDbPoint
 10
21.95288180053387
 20
-7.999999999721474
 30
0.0
  0
ENDBLK
  5
3AF2
330
3AC7
100
AcDbEntity
  8
0
100
AcDbBlockEnd
  0
BLOCK
  5
3B51
330
3B03
100
AcDbEntity
  8
0
100
AcDbBlockBegin
  2
*D16
 70
     1
 71
     0
 10
0.0
 20
0.0
 30
0.0
  3
*D16
  1

  0
LINE
  5
3B18
102
{ACAD_REACTORS
330
3B70
102
}
330
3B03
100
AcDbEntity
  8
AM_5
100
AcDbLine
 10
-29.99999998689702
 20
-7.999999999721386
 30
0.0
 11
-29.99999998689702
 21
-27.86377174434699
 31
0.0
  0
LINE
  5
3B19
330
3B03
100
AcDbEntity
  8
AM_5
100
AcDbLine
 10
-109.999999986897
 20
-5.661498446470082
 30
0.0
 11
-109.999999986897
 21
-27.86377174434699
 31
0.0
  0
LINE
  5
3B1A
330
3B03
100
AcDbEntity
  8
AM_5
100
AcDbLine
 10
-32.49999998689702
 20
-26.86377174434699
 30
0.0
 11
-107.499999986897
 21
-26.86377174434699
 31
0.0
  0
INSERT
  5
3B1B
330
3B03
100
AcDbEntity
  8
AM_5
100
AcDbBlockReference
  2
_Open30
 10
-29.99999998689702
 20
-26.86377174434699
 30
0.0
 41
2.5
 42
2.5
 43
2.5
  0
INSERT
  5
3B1C
330
3B03
100
AcDbEntity
  8
AM_5
100
AcDbBlockReference
  2
_Open30
 10
-109.999999986897
 20
-26.86377174434699
 30
0.0
 41
2.5
 42
2.5
 43
2.5
 50
180.0
  0
MTEXT
  5
3B1D
330
3B03
100
AcDbEntity
  8
AM_5
 62
     2
100
AcDbMText
 10
-69.99999998689702
 20
-23.46377174434699
 30
0.0
 40
3.8
 41
0.0
 71
     5
 72
     1
  1
80
 73
     1
 44
1.0
  0
POINT
  5
3B1E
330
3B03
100
AcDbEntity
  8
Defpoints
 62
     0
100
AcDbPoint
 10
-29.99999998689702
 20
-7.999999999721386
 30
0.0
  0
POINT
  5
3B1F
330
3B03
100
AcDbEntity
  8
Defpoints
 62
     0
100
AcDbPoint
 10
-109.999999986897
 20
-5.661498446470082
 30
0.0
  0
POINT
  5
3B20
330
3B03
100
AcDbEntity
  8
Defpoints
 62
     0
100
AcDbPoint
 10
-109.999999986897
 20
-26.86377174434699
 30
0.0
  0
ENDBLK
  5
3B52
330
3B03
100
AcDbEntity
  8
0
100
AcDbBlockEnd
  0
BLOCK
  5
3B53
330
3B30
100
AcDbEntity
  8
0
100
AcDbBlockBegin
  2
*D17
 70
     1
 71
     0
 10
0.0
 20
0.0
 30
0.0
  3
*D17
  1

  0
LINE
  5
3B45
330
3B30
100
AcDbEntity
  8
AM_5
100
AcDbLine
 10
-109.999999986897
 20
-5.661498446470082
 30
0.0
 11
-109.999999986897
 21
-38.03087867549476
 31
0.0
  0
LINE
  5
3B46
330
3B30
100
AcDbEntity
  8
AM_5
100
AcDbLine
 10
0.0000000131029667
 20
-4.873317931367218
 30
0.0
 11
0.0000000131029647
 21
-38.03087867549476
 31
0.0
  0
LINE
  5
3B47
330
3B30
100
AcDbEntity
  8
AM_5
100
AcDbLine
 10
-107.499999986897
 20
-37.03087867549476
 30
0.0
 11
-2.499999986897035
 21
-37.03087867549476
 31
0.0
  0
INSERT
  5
3B48
330
3B30
100
AcDbEntity
  8
AM_5
100
AcDbBlockReference
  2
_Open30
 10
-109.999999986897
 20
-37.03087867549476
 30
0.0
 41
2.5
 42
2.5
 43
2.5
 50
180.0
  0
INSERT
  5
3B49
330
3B30
100
AcDbEntity
  8
AM_5
100
AcDbBlockReference
  2
_Open30
 10
0.0000000131029647
 20
-37.03087867549476
 30
0.0
 41
2.5
 42
2.5
 43
2.5
  0
MTEXT
  5
3B4A
330
3B30
100
AcDbEntity
  8
AM_5
 62
     2
100
AcDbMText
 10
-54.99999998689703
 20
-33.63087867549476
 30
0.0
 40
3.8
 41
0.0
 71
     5
 72
     1
  1
110
 73
     1
 44
1.0
  0
POINT
  5
3B4B
330
3B30
100
AcDbEntity
  8
Defpoints
 62
     0
100
AcDbPoint
 10
-109.999999986897
 20
-5.661498446470082
 30
0.0
  0
POINT
  5
3B4C
330
3B30
100
AcDbEntity
  8
Defpoints
 62
     0
100
AcDbPoint
 10
0.0000000131029667
 20
-4.873317931367218
 30
0.0
  0
POINT
  5
3B4D
330
3B30
100
AcDbEntity
  8
Defpoints
 62
     0
100
AcDbPoint
 10
0.0000000131029647
 20
-37.03087867549476
 30
0.0
  0
ENDBLK
  5
3B54
330
3B30
100
AcDbEntity
  8
0
100
AcDbBlockEnd
  0
BLOCK
  5
3B8C
330
3B65
100
AcDbEntity
  8
0
100
AcDbBlockBegin
  2
*D18
 70
     1
 71
     0
 10
0.0
 20
0.0
 30
0.0
  3
*D18
  1

  0
LINE
  5
3B8E
330
3B65
100
AcDbEntity
  8
AM_5
100
AcDbLine
 10
0.0000000131029667
 20
-4.89849523297363
 30
0.0
 11
0.0000000131029653
 21
-27.86377174434676
 31
0.0
  0
LINE
  5
3B8F
330
3B65
100
AcDbEntity
  8
AM_5
100
AcDbLine
 10
-29.99999998689702
 20
-7.999999999721386
 30
0.0
 11
-29.99999998689702
 21
-27.86377174434676
 31
0.0
  0
LINE
  5
3B90
330
3B65
100
AcDbEntity
  8
AM_5
100
AcDbLine
 10
-2.499999986897035
 20
-26.86377174434676
 30
0.0
 11
-27.49999998689702
 21
-26.86377174434676
 31
0.0
  0
INSERT
  5
3B91
330
3B65
100
AcDbEntity
  8
AM_5
100
AcDbBlockReference
  2
_Open30
 10
0.0000000131029654
 20
-26.86377174434676
 30
0.0
 41
2.5
 42
2.5
 43
2.5
  0
INSERT
  5
3B92
330
3B65
100
AcDbEntity
  8
AM_5
100
AcDbBlockReference
  2
_Open30
 10
-29.99999998689702
 20
-26.86377174434676
 30
0.0
 41
2.5
 42
2.5
 43
2.5
 50
180.0
  0
MTEXT
  5
3B93
330
3B65
100
AcDbEntity
  8
AM_5
 62
     2
100
AcDbMText
 10
-14.99999998689703
 20
-23.46377174434676
 30
0.0
 40
3.8
 41
0.0
 71
     5
 72
     1
  1
30
 73
     1
 44
1.0
  0
POINT
  5
3B94
330
3B65
100
AcDbEntity
  8
Defpoints
 62
     0
100
AcDbPoint
 10
0.0000000131029667
 20
-4.89849523297363
 30
0.0
  0
POINT
  5
3B95
330
3B65
100
AcDbEntity
  8
Defpoints
 62
     0
100
AcDbPoint
 10
-29.99999998689702
 20
-7.999999999721386
 30
0.0
  0
POINT
  5
3B96
330
3B65
100
AcDbEntity
  8
Defpoints
 62
     0
100
AcDbPoint
 10
-29.99999998689702
 20
-26.86377174434676
 30
0.0
  0
ENDBLK
  5
3B8D
330
3B65
100
AcDbEntity
  8
0
100
AcDbBlockEnd
  0
ENDSEC
  0
SECTION
  2
ENTITIES
  0
LINE
  5
30AD
330
1F
100
AcDbEntity
  8
AM_7
100
AcDbLine
 10
-114.7967877889097
 20
0.0000000002786136
 30
0.0
 11
3.000000013102977
 21
0.0000000002786072
 31
0.0
1001
GENIUS_GENODEF_13
1002
{
1000
HIER
1070
     0
1002
}
1002
{
1000
MANEDIT
1070
     0
1002
}
1002
{
1000
NOSEL
1070
     0
1002
}
1002
{
1000
BEHIND
1070
     0
1002
}
1002
{
1000
OTHER
1070
     0
1002
}
1002
{
1000
REACTOR
1002
}
1001
GENIUS_GENOBJ-N-CEN_13
1002
{
1000
OWNER
1000
GEN
1002
}
1001
GENIUS_GENCEN_19
1002
{
1040
3.0
1002
}
  0
TEXT
  5
36DC
330
1F
100
AcDbEntity
  8
AM_0
100
AcDbText
 10
-32.57783319490847
 20
-48.79689025657615
 30
0.0
 40
3.8
  1
MSX06016ES
  7
ACISOTS
100
AcDbText
  0
LINE
  5
37D0
102
{ACAD_REACTORS
330
3B3B
102
}
330
1F
100
AcDbEntity
  8
AM_0
100
AcDbLine
 10
-109.999999986897
 20
5.66149844702732
 30
0.0
 11
-109.999999986897
 21
-5.661498446470095
 31
0.0
  0
LINE
  5
37F9
330
1F
100
AcDbEntity
  8
AM_0
100
AcDbLine
 10
-0.1314370919175758
 20
3.648032995018141
 30
0.0
 11
-0.755554054109723
 21
2.031786069931584
 31
0.0
  0
CIRCLE
  5
37FA
330
1F
100
AcDbEntity
  8
AM_0
100
AcDbCircle
 10
-3.185342445208192
 20
4.606385909909889
 30
0.0
 40
1.9
  0
ARC
  5
37FB
102
{ACAD_REACTORS
330
3AD2
102
}
330
1F
100
AcDbEntity
  8
AM_0
100
AcDbCircle
 10
-2.092063840392569
 20
6.500000000278718
 30
0.0
 40
1.499999999999964
100
AcDbArc
 50
19.99999999999713
 51
92.99999999998767
  0
ARC
  5
37FC
330
1F
100
AcDbEntity
  8
AM_0
100
AcDbCircle
 10
-1.499999986896995
 20
4.873317931924433
 30
0.0
 40
1.499999999999962
100
AcDbArc
 50
358.000000000042
 51
19.99999999999713
  0
ARC
  5
37FD
330
1F
100
AcDbEntity
  8
AM_0
100
AcDbCircle
 10
-1.523255951229288
 20
4.207354246951539
 30
0.0
 40
1.499999999999993
100
AcDbArc
 50
338.1066041010997
 51
358.000000000042
  0
LINE
  5
37FE
330
1F
100
AcDbEntity
  8
AM_0
100
AcDbLine
 10
-0.6825249092136687
 20
7.013030215267193
 30
0.0
 11
-0.0904610557180945
 21
5.386348146912795
 31
0.0
  0
LINE
  5
37FF
330
1F
100
AcDbEntity
  8
AM_0
100
AcDbLine
 10
-0.000913746368326
 20
4.820968686871723
 30
0.0
 11
-0.0241697107006189
 21
4.155005001898829
 31
0.0
  0
LINE
  5
3800
330
1F
100
AcDbEntity
  8
AM_0
100
AcDbLine
 10
-3.882337151766421
 20
7.730321984058676
 30
0.0
 11
-2.170567774756876
 21
7.997944302411
 31
0.0
  0
ARC
  5
3801
330
1F
100
AcDbEntity
  8
AM_0
100
AcDbCircle
 10
-5.37189965483978
 20
4.606385909909776
 30
0.0
 40
1.499999999999964
100
AcDbArc
 50
139.9999999999973
 51
212.9999999999865
  0
ARC
  5
3802
330
1F
100
AcDbEntity
  8
AM_0
100
AcDbCircle
 10
-4.25918358651208
 20
5.93246928187655
 30
0.0
 40
1.499999999999962
100
AcDbArc
 50
118.0000000000428
 51
139.9999999999973
  0
ARC
  5
3803
330
1F
100
AcDbEntity
  8
AM_0
100
AcDbCircle
 10
-3.670814135161521
 20
6.2453108684618
 30
0.0
 40
1.499999999999993
100
AcDbArc
 50
98.10660410109799
 51
118.0000000000428
  0
LINE
  5
3804
330
1F
100
AcDbEntity
  8
AM_0
100
AcDbLine
 10
-6.520966319518095
 20
5.570567324439665
 30
0.0
 11
-5.408250251190282
 21
6.896650696406553
 31
0.0
  0
LINE
  5
3805
330
1F
100
AcDbEntity
  8
AM_0
100
AcDbLine
 10
-4.963390930691674
 20
7.256890671164641
 30
0.0
 11
-4.375021479341115
 21
7.569732257749777
 31
0.0
  0
LINE
  5
3806
330
1F
100
AcDbEntity
  8
AM_0
100
AcDbLine
 10
-5.542253091940495
 20
2.440802750652395
 30
0.0
 11
-6.629905506758007
 21
3.78942735738697
 31
0.0
  0
ARC
  5
3807
330
1F
100
AcDbEntity
  8
AM_0
100
AcDbCircle
 10
-2.092063840392569
 20
2.712771819540834
 30
0.0
 40
1.499999999999964
100
AcDbArc
 50
259.9999999999982
 51
332.9999999999902
  0
ARC
  5
3808
330
1F
100
AcDbEntity
  8
AM_0
100
AcDbCircle
 10
-3.796843762215843
 20
3.013370515928457
 30
0.0
 40
1.499999999999962
100
AcDbArc
 50
238.0000000000445
 51
259.9999999999998
  0
ARC
  5
3809
330
1F
100
AcDbEntity
  8
AM_0
100
AcDbCircle
 10
-4.361957249234223
 20
3.366492614316215
 30
0.0
 40
1.499999999999993
100
AcDbArc
 50
218.1066041010979
 51
238.0000000000445
  0
LINE
  5
380A
330
1F
100
AcDbEntity
  8
AM_0
100
AcDbLine
 10
-2.352536106892842
 20
1.235560190022582
 30
0.0
 11
-4.057316028716116
 21
1.536158886409979
 31
0.0
  0
LINE
  5
380B
330
1F
100
AcDbEntity
  8
AM_0
100
AcDbLine
 10
-4.591722658564606
 20
1.741298371693304
 30
0.0
 11
-5.156836145582872
 21
2.094420470080834
 31
0.0
  0
LINE
  5
380F
330
1F
100
AcDbEntity
  8
AM_0
  6
ACISOTGL
370
    20
100
AcDbLine
 10
-0.1314370919175758
 20
-3.648032994460927
 30
0.0
 11
-0.755554054109723
 21
-2.03178606937437
 31
0.0
  0
ARC
  5
3811
102
{ACAD_REACTORS
330
3AD2
102
}
330
1F
100
AcDbEntity
  8
AM_0
  6
ACISOTGL
370
    20
100
AcDbCircle
 10
-2.092063840392569
 20
-6.499999999721503
 30
0.0
 40
1.499999999999964
100
AcDbArc
 50
267.0000000000123
 51
340.0000000000029
  0
ARC
  5
3812
102
{ACAD_REACTORS
330
3B3B
102
}
330
1F
100
AcDbEntity
  8
AM_0
  6
ACISOTGL
370
    20
100
AcDbCircle
 10
-1.499999986896995
 20
-4.873317931367218
 30
0.0
 40
1.499999999999962
100
AcDbArc
 50
340.0000000000029
 51
1.999999999958008
  0
ARC
  5
3813
330
1F
100
AcDbEntity
  8
AM_0
  6
ACISOTGL
370
    20
100
AcDbCircle
 10
-1.523255951229288
 20
-4.207354246394324
 30
0.0
 40
1.499999999999993
100
AcDbArc
 50
1.999999999958008
 51
21.89339589890031
  0
LINE
  5
3814
330
1F
100
AcDbEntity
  8
AM_0
  6
ACISOTGL
370
    20
100
AcDbLine
 10
-0.6825249092136687
 20
-7.013030214709978
 30
0.0
 11
-0.0904610557180945
 21
-5.38634814635558
 31
0.0
  0
LINE
  5
3815
330
1F
100
AcDbEntity
  8
AM_0
  6
ACISOTGL
370
    20
100
AcDbLine
 10
-0.000913746368326
 20
-4.820968686314508
 30
0.0
 11
-0.0241697107006189
 21
-4.155005001341614
 31
0.0
  0
LINE
  5
3816
330
1F
100
AcDbEntity
  8
AM_0
  6
ACISOTGL
370
    20
100
AcDbLine
 10
-3.882337151766421
 20
-7.730321983501462
 30
0.0
 11
-2.170567774756876
 21
-7.997944301853785
 31
0.0
  0
ARC
  5
3817
330
1F
100
AcDbEntity
  8
AM_0
  6
ACISOTGL
370
    20
100
AcDbCircle
 10
-5.37189965483978
 20
-4.606385909352561
 30
0.0
 40
1.499999999999964
100
AcDbArc
 50
147.0000000000135
 51
220.0000000000027
  0
ARC
  5
3818
330
1F
100
AcDbEntity
  8
AM_0
  6
ACISOTGL
370
    20
100
AcDbCircle
 10
-4.25918358651208
 20
-5.932469281319335
 30
0.0
 40
1.499999999999962
100
AcDbArc
 50
220.0000000000027
 51
241.9999999999572
  0
ARC
  5
3819
330
1F
100
AcDbEntity
  8
AM_0
  6
ACISOTGL
370
    20
100
AcDbCircle
 10
-3.670814135161521
 20
-6.245310867904586
 30
0.0
 40
1.499999999999993
100
AcDbArc
 50
241.9999999999572
 51
261.893395898902
  0
LINE
  5
381A
330
1F
100
AcDbEntity
  8
AM_0
  6
ACISOTGL
370
    20
100
AcDbLine
 10
-6.520966319518095
 20
-5.57056732388245
 30
0.0
 11
-5.408250251190282
 21
-6.896650695849338
 31
0.0
  0
LINE
  5
381B
330
1F
100
AcDbEntity
  8
AM_0
  6
ACISOTGL
370
    20
100
AcDbLine
 10
-4.963390930691674
 20
-7.256890670607426
 30
0.0
 11
-4.375021479341115
 21
-7.569732257192563
 31
0.0
  0
LINE
  5
381C
330
1F
100
AcDbEntity
  8
AM_0
  6
ACISOTGL
370
    20
100
AcDbLine
 10
-5.542253091940495
 20
-2.44080275009518
 30
0.0
 11
-6.629905506758007
 21
-3.789427356829755
 31
0.0
  0
ARC
  5
381D
330
1F
100
AcDbEntity
  8
AM_0
  6
ACISOTGL
370
    20
100
AcDbCircle
 10
-2.092063840392569
 20
-2.712771818983619
 30
0.0
 40
1.499999999999964
100
AcDbArc
 50
27.00000000000979
 51
100.0000000000019
  0
ARC
  5
381E
330
1F
100
AcDbEntity
  8
AM_0
  6
ACISOTGL
370
    20
100
AcDbCircle
 10
-3.796843762215843
 20
-3.013370515371243
 30
0.0
 40
1.499999999999962
100
AcDbArc
 50
100.0000000000002
 51
121.9999999999555
  0
ARC
  5
381F
330
1F
100
AcDbEntity
  8
AM_0
  6
ACISOTGL
370
    20
100
AcDbCircle
 10
-4.361957249234223
 20
-3.366492613759
 30
0.0
 40
1.499999999999993
100
AcDbArc
 50
121.9999999999555
 51
141.8933958989021
  0
LINE
  5
3820
330
1F
100
AcDbEntity
  8
AM_0
  6
ACISOTGL
370
    20
100
AcDbLine
 10
-2.352536106892842
 20
-1.235560189465367
 30
0.0
 11
-4.057316028716116
 21
-1.536158885852764
 31
0.0
  0
LINE
  5
3821
330
1F
100
AcDbEntity
  8
AM_0
  6
ACISOTGL
370
    20
100
AcDbLine
 10
-4.591722658564606
 20
-1.741298371136089
 30
0.0
 11
-5.156836145582872
 21
-2.09442046952362
 31
0.0
  0
LINE
  5
38D9
330
1F
100
AcDbEntity
  8
AM_0
100
AcDbLine
 10
-106.999999986897
 20
-7.999999999721386
 30
0.0
 11
-106.999999986897
 21
8.000000000278607
 31
0.0
  0
LINE
  5
38E3
330
1F
100
AcDbEntity
  8
AM_0
100
AcDbLine
 10
-108.5176380771021
 20
7.593350099605453
 30
0.0
 11
-106.999999986897
 21
8.000000000278607
 31
0.0
  0
LINE
  5
38EC
102
{ACAD_REACTORS
330
3A95
102
}
330
1F
100
AcDbEntity
  8
AM_0
100
AcDbLine
 10
-108.5176380771021
 20
-7.593350099048231
 30
0.0
 11
-106.999999986897
 21
-7.999999999721386
 31
0.0
  0
ARC
  5
38F2
330
1F
100
AcDbEntity
  8
AM_0
100
AcDbCircle
 10
-107.9999999868971
 20
5.661498447027305
 30
0.0
 40
2.0
100
AcDbArc
 50
104.9999999999991
 51
179.9999999999997
1001
GENIUS_GENODEF_13
1002
{
1000
HIER
1070
     0
1002
}
1002
{
1000
MANEDIT
1070
     0
1002
}
1002
{
1000
NOSEL
1070
     0
1002
}
1002
{
1000
BEHIND
1070
     0
1002
}
1002
{
1000
OTHER
1070
     0
1002
}
1002
{
1000
REACTOR
1002
}
1001
GENIUS_GENOBJ-N-FIL_13
1002
{
1000
OWNER
1000
GEN
1002
}
  0
ARC
  5
38F4
102
{ACAD_REACTORS
330
3B0E
330
3B3B
102
}
330
1F
100
AcDbEntity
  8
AM_0
100
AcDbCircle
 10
-107.999999986897
 20
-5.661498446470082
 30
0.0
 40
2.0
100
AcDbArc
 50
180.0000000000004
 51
255.0000000000005
1001
GENIUS_GENOBJ-N-FIL_13
1002
{
1000
OWNER
1000
GEN
1002
}
1001
GENIUS_GENODEF_13
1002
{
1000
HIER
1070
     0
1002
}
1002
{
1000
MANEDIT
1070
     0
1002
}
1002
{
1000
NOSEL
1070
     0
1002
}
1002
{
1000
BEHIND
1070
     0
1002
}
1002
{
1000
OTHER
1070
     0
1002
}
1002
{
1000
REACTOR
1002
}
  0
LINE
  5
392C
330
1F
100
AcDbEntity
  8
AM_0
100
AcDbLine
 10
-15.43914747110085
 20
7.000000000278608
 30
0.0
 11
-29.74999998689703
 21
7.750000000278608
 31
0.0
  0
LINE
  5
392D
330
1F
100
AcDbEntity
  8
AM_0
100
AcDbLine
 10
-29.74999998689703
 20
7.750000000278608
 30
0.0
 11
-29.99999998689702
 21
8.000000000278604
 31
0.0
  0
LINE
  5
392E
330
1F
100
AcDbEntity
  8
AM_0
100
AcDbLine
 10
-29.99999998689702
 20
8.000000000278604
 30
0.0
 11
-29.99999998689702
 21
-7.999999999721386
 31
0.0
  0
LINE
  5
3939
330
1F
100
AcDbEntity
  8
AM_0
100
AcDbLine
 10
-15.43914747110085
 20
7.000000000278608
 30
0.0
 11
-9.699999986897041
 21
7.000000000278608
 31
0.0
  0
LINE
  5
394A
330
1F
100
AcDbEntity
  8
AM_0
100
AcDbLine
 10
-15.43914747110085
 20
-6.99999999972139
 30
0.0
 11
-29.74999998689703
 21
-7.74999999972139
 31
0.0
  0
LINE
  5
394B
330
1F
100
AcDbEntity
  8
AM_0
100
AcDbLine
 10
-29.74999998689703
 20
-7.74999999972139
 30
0.0
 11
-29.99999998689702
 21
-7.999999999721386
 31
0.0
  0
LINE
  5
394C
330
1F
100
AcDbEntity
  8
AM_0
100
AcDbLine
 10
-15.43914747110085
 20
-6.99999999972139
 30
0.0
 11
-9.699999986897044
 21
-6.999999999721391
 31
0.0
  0
LINE
  5
394F
102
{ACAD_REACTORS
330
3A95
102
}
330
1F
100
AcDbEntity
  8
AM_0
100
AcDbLine
 10
-106.999999986897
 20
8.000000000278607
 30
0.0
 11
-29.99999998689702
 21
8.000000000278607
 31
0.0
  0
LINE
  5
3950
102
{ACAD_REACTORS
330
3B0E
102
}
330
1F
100
AcDbEntity
  8
AM_0
100
AcDbLine
 10
-29.99999998689702
 20
-7.999999999721386
 30
0.0
 11
-106.999999986897
 21
-7.999999999721386
 31
0.0
  0
LINE
  5
3988
330
1F
100
AcDbEntity
  8
AM_0
100
AcDbLine
 10
-1.499999986897041
 20
1.334562694123389
 30
0.0
 11
-1.499999986897041
 21
-2.352018064157694
 31
0.0
  0
LINE
  5
3989
330
1F
100
AcDbEntity
  8
AM_0
100
AcDbLine
 10
-1.499999986897041
 20
-2.352018064157694
 30
0.0
 11
-0.6999999868970406
 21
-4.549999999721393
 31
0.0
  0
LINE
  5
39CE
330
1F
100
AcDbEntity
  8
AM_0
100
AcDbLine
 10
-0.6999999868970402
 20
-4.549999999721393
 30
0.0
 11
-0.6999999868970406
 21
-4.74999999972139
 31
0.0
  0
LINE
  5
39E6
330
1F
100
AcDbEntity
  8
AM_0
100
AcDbLine
 10
-5.199999986897041
 20
-6.849999999721391
 30
0.0
 11
-2.705694503318814
 21
-6.849999999721391
 31
0.0
  0
LINE
  5
39E7
330
1F
100
AcDbEntity
  8
AM_0
100
AcDbLine
 10
-2.705694503318814
 20
-6.849999999721391
 30
0.0
 11
-1.999999986897041
 21
-6.999999999721393
 31
0.0
  0
LINE
  5
39E8
330
1F
100
AcDbEntity
  8
AM_0
100
AcDbLine
 10
-1.999999986897041
 20
-6.999999999721393
 30
0.0
 11
-1.563694065726727
 21
-6.999999999721393
 31
0.0
  0
LINE
  5
39E9
330
1F
100
AcDbEntity
  8
AM_0
100
AcDbLine
 10
-1.563694065726727
 20
-6.999999999721393
 30
0.0
 11
-0.6999999868970406
 21
-4.74999999972139
 31
0.0
  0
ARC
  5
3A55
330
1F
100
AcDbEntity
  8
AM_0
100
AcDbCircle
 10
-7.122991470660718
 20
-16.73525548681121
 30
0.0
 40
10.07055968115313
100
AcDbArc
 50
78.99166472121665
 51
104.8266401447762
  0
ARC
  5
3A6E
330
1F
100
AcDbEntity
  8
AM_0
100
AcDbCircle
 10
-7.122991470660718
 20
16.73525548736843
 30
0.0
 40
10.07055968115313
100
AcDbArc
 50
255.1733598552239
 51
279.3249955843259
  0
LINE
  5
3A6F
330
1F
100
AcDbEntity
  8
AM_4
100
AcDbLine
 10
-0.0009137463683513
 20
4.820968686871781
 30
0.0
 11
0.0000000064395087
 21
-4.873176544048063
 31
0.0
  0
DIMENSION
  5
3A89
102
{ACAD_REACTORS
330
3A95
102
}
102
{ACAD_XDICTIONARY
360
3A94
102
}
330
1F
100
AcDbEntity
  8
AM_5
100
AcDbDimension
  2
*D14
 10
-122.0000009968971
 20
-7.999999999721381
 30
0.0
 11
-125.4000009968971
 21
0.0000000002785966
 31
0.0
 70
    32
  1
%%c<>
 71
     5
 42
15.99999999999999
  3
AM_JIS$0
100
AcDbAlignedDimension
 13
-106.999999986897
 23
8.000000000278607
 33
0.0
 14
-106.999999986897
 24
-7.999999999721386
 34
0.0
 50
90.00000000000003
100
AcDbRotatedDimension
1001
ACAD
1000
DSTYLE
1002
{
1070
   179
1070
     0
1070
   271
1070
     0
1002
}
  0
DIMENSION
  5
3AC6
102
{ACAD_REACTORS
330
3AD2
102
}
102
{ACAD_XDICTIONARY
360
3AD1
102
}
330
1F
100
AcDbEntity
  8
AM_5
100
AcDbDimension
  2
*D15
 10
21.95288180053387
 20
-7.999999999721474
 30
0.0
 11
18.55288180053388
 21
0.0000000002786047
 31
0.0
 70
    32
  1
%%c<>
 71
     5
 42
16.00000000000015
  3
AM_JIS$0
100
AcDbAlignedDimension
 13
-2.092063840392569
 23
8.000000000278682
 33
0.0
 14
-2.09206384039257
 24
-7.999999999721466
 34
0.0
 50
90.00000000000003
100
AcDbRotatedDimension
1001
ACAD
1000
DSTYLE
1002
{
1070
   179
1070
     0
1070
   271
1070
     0
1002
}
  0
DIMENSION
  5
3B02
102
{ACAD_REACTORS
330
3B0E
330
3B70
102
}
102
{ACAD_XDICTIONARY
360
3B0D
102
}
330
1F
100
AcDbEntity
  8
AM_5
100
AcDbDimension
  2
*D16
 10
-109.999999986897
 20
-26.86377174434699
 30
0.0
 11
-69.99999998689702
 21
-23.46377174434699
 31
0.0
 70
    32
 71
     5
 42
80.00000000000001
  3
AM_JIS$0
100
AcDbAlignedDimension
 13
-29.99999998689702
 23
-7.999999999721386
 33
0.0
 14
-109.999999986897
 24
-5.661498446470082
 34
0.0
 50
0.0000000000001132
100
AcDbRotatedDimension
1001
ACAD
1000
DSTYLE
1002
{
1070
   179
1070
     0
1070
   271
1070
     0
1002
}
  0
DIMENSION
  5
3B2F
102
{ACAD_REACTORS
330
3B3B
102
}
102
{ACAD_XDICTIONARY
360
3B3A
102
}
330
1F
100
AcDbEntity
  8
AM_5
100
AcDbDimension
  2
*D17
 10
0.0000000131029647
 20
-37.03087867549476
 30
0.0
 11
-54.99999998689703
 21
-33.63087867549476
 31
0.0
 70
    32
 71
     5
 42
110.0
  3
AM_JIS$0
100
AcDbAlignedDimension
 13
-109.999999986897
 23
-5.661498446470082
 33
0.0
 14
0.0000000131029667
 24
-4.873317931367218
 34
0.0
 50
0.0000000000001132
100
AcDbRotatedDimension
1001
ACAD
1000
DSTYLE
1002
{
1070
   179
1070
     0
1070
   271
1070
     0
1002
}
  0
DIMENSION
  5
3B64
102
{ACAD_REACTORS
330
3B70
102
}
102
{ACAD_XDICTIONARY
360
3B6F
102
}
330
1F
100
AcDbEntity
  8
AM_5
100
AcDbDimension
  2
*D18
 10
-29.99999998689702
 20
-26.86377174434676
 30
0.0
 11
-14.99999998689703
 21
-23.46377174434676
 31
0.0
 70
    32
 71
     5
 42
29.99999999999999
  3
AM_JIS$0
100
AcDbAlignedDimension
 13
0.0000000131029667
 23
-4.89849523297363
 33
0.0
 14
-29.99999998689702
 24
-7.999999999721386
 34
0.0
 50
0.0000000000001132
100
AcDbRotatedDimension
1001
ACAD
1000
DSTYLE
1002
{
1070
   179
1070
     0
1070
   271
1070
     0
1002
}
  0
ENDSEC
  0
SECTION
  2
OBJECTS
  0
DICTIONARY
  5
C
330
0
100
AcDbDictionary
281
     1
  3
ACAD_COLOR
350
BE
  3
ACAD_GROUP
350
D
  3
ACAD_LAYOUT
350
1A
  3
ACAD_MATERIAL
350
BD
  3
ACAD_MLINESTYLE
350
17
  3
ACAD_PLOTSETTINGS
350
19
  3
ACAD_PLOTSTYLENAME
350
E
  3
ACAD_TABLESTYLE
350
11A
  3
ACDBHEADERROUNDTRIPXREC
350
3CEF
  3
AcDbVariableDictionary
350
94
  3
AcmDictionary
350
5B
  3
AMG
350
41
  3
AMGSNAPSETTINGS
350
1B8
  3
DWGPROPS
350
3CF2
  0
DICTIONARY
  5
34B
330
2
100
AcDbDictionary
280
     1
281
     1
  3
ACAD_LAYERSTATES
360
36D3
  3
AMLAYER_GROUPCOLORS
360
34C
  0
DICTIONARY
  5
8F
330
1F
100
AcDbDictionary
280
     1
281
     1
  3
ACAD_SORTENTS
360
14F8
  0
DICTIONARY
  5
3A94
330
3A89
100
AcDbDictionary
280
     1
281
     1
  3
ACAD_DIMASSOC
360
3A95
  0
DICTIONARY
  5
3AD1
330
3AC6
100
AcDbDictionary
280
     1
281
     1
  3
ACAD_DIMASSOC
360
3AD2
  0
DICTIONARY
  5
3B0D
330
3B02
100
AcDbDictionary
280
     1
281
     1
  3
ACAD_DIMASSOC
360
3B0E
  0
DICTIONARY
  5
3B3A
330
3B2F
100
AcDbDictionary
280
     1
281
     1
  3
ACAD_DIMASSOC
360
3B3B
  0
DICTIONARY
  5
3B6F
330
3B64
100
AcDbDictionary
280
     1
281
     1
  3
ACAD_DIMASSOC
360
3B70
  0
DICTIONARY
  5
BE
102
{ACAD_REACTORS
330
C
102
}
330
C
100
AcDbDictionary
281
     1
  0
DICTIONARY
  5
D
102
{ACAD_REACTORS
330
C
102
}
330
C
100
AcDbDictionary
281
     1
  0
DICTIONARY
  5
1A
102
{ACAD_REACTORS
330
C
102
}
330
C
100
AcDbDictionary
281
     1
  3
Model
350
22
  3
レイアウト1
350
1E
  3
レイアウト2
350
26
  0
DICTIONARY
  5
BD
102
{ACAD_REACTORS
330
C
102
}
330
C
100
AcDbDictionary
281
     1
  0
DICTIONARY
  5
17
102
{ACAD_REACTORS
330
C
102
}
330
C
100
AcDbDictionary
281
     1
  3
Standard
350
18
  0
DICTIONARY
  5
19
102
{ACAD_REACTORS
330
C
102
}
330
C
100
AcDbDictionary
281
     1
  0
ACDBDICTIONARYWDFLT
  5
E
102
{ACAD_REACTORS
330
C
102
}
330
C
100
AcDbDictionary
281
     1
  3
Normal
350
F
100
AcDbDictionaryWithDefault
340
F
  0
DICTIONARY
  5
11A
102
{ACAD_REACTORS
330
C
102
}
330
C
100
AcDbDictionary
281
     1
  3
Standard
350
11B
  0
DICTIONARY
  5
3CEF
102
{ACAD_REACTORS
330
C
102
}
330
C
100
AcDbDictionary
281
     1
  3
COLORDICT
350
3CF0
  3
MATERIALDICT
350
3CF1
  0
DICTIONARY
  5
94
102
{ACAD_REACTORS
330
C
102
}
330
C
100
AcDbDictionary
281
     1
  3
CTABLESTYLE
350
138
  3
DIMASSOC
350
96
  3
HIDETEXT
350
3CEE
  3
INDEXCTL
350
95
  3
PROJECTNAME
350
1694
  0
DICTIONARY
  5
5B
102
{ACAD_REACTORS
330
C
102
}
330
C
100
AcDbDictionary
281
     1
  3
AcmBOM
350
1B5
  3
AcmStdDictionary
350
61
  3
AMDTSECTSYM_ARROWCOLOR
350
123
  0
DICTIONARY
  5
41
102
{ACAD_REACTORS
330
C
102
}
330
C
100
AcDbDictionary
281
     1
  3
AMGLAYCFG
350
3C59
  0
DICTIONARY
  5
1B8
102
{ACAD_REACTORS
330
C
102
}
330
C
100
AcDbDictionary
281
     1
  0
XRECORD
  5
3CF2
102
{ACAD_REACTORS
330
C
102
}
330
C
100
AcDbXrecord
280
     1
  1
DWGPROPS COOKIE
  2

  3

  4

  6

  7

  8

  9

300
AmdtFileType=84
301
=
302
=
303
=
304
=
305
=
306
=
307
=
308
=
309
=
 40
0.0
 41
2453853.21022044
 42
2455432.207430266
  1

 90
        1
  0
DICTIONARY
  5
36D3
102
{ACAD_REACTORS
330
34B
102
}
330
34B
100
AcDbDictionary
281
     1
  0
DICTIONARY
  5
34C
102
{ACAD_REACTORS
330
34B
102
}
330
34B
100
AcDbDictionary
280
     1
281
     1
  0
SORTENTSTABLE
  5
14F8
102
{ACAD_REACTORS
330
8F
102
}
330
8F
100
AcDbSortentsTable
330
1F
  0
DIMASSOC
  5
3A95
102
{ACAD_REACTORS
330
3A94
102
}
330
3A94
100
AcDbDimAssoc
330
3A89
 90
        3
 70
     0
 71
     0
  1
AcDbOsnapPointRef
 72
    13
331
394F
 73
     0
 91
        0
 40
0.0
 10
0.0
 20
0.0
 30
2.000000000000000E+50
 75
     0
  1
AcDbOsnapPointRef
 72
     1
331
38EC
 73
     0
 91
        0
 40
0.0
 10
0.0
 20
0.0
 30
2.000000000000000E+50
 75
     0
  0
DIMASSOC
  5
3AD2
102
{ACAD_REACTORS
330
3AD1
102
}
330
3AD1
100
AcDbDimAssoc
330
3AC6
 90
        3
 70
     0
 71
     0
  1
AcDbOsnapPointRef
 72
     5
331
37FB
 73
     0
 91
        0
 40
1.570796326794897
 10
0.0
 20
0.0
 30
0.0
 75
     0
  1
AcDbOsnapPointRef
 72
     5
331
3811
 73
     0
 91
        0
 40
4.71238898038469
 10
0.0
 20
0.0
 30
0.0
 75
     0
  0
DIMASSOC
  5
3B0E
102
{ACAD_REACTORS
330
3B0D
102
}
330
3B0D
100
AcDbDimAssoc
330
3B02
 90
        3
 70
     0
 71
     0
  1
AcDbOsnapPointRef
 72
    13
331
3950
 73
     0
 91
        0
 40
0.0
 10
0.0
 20
0.0
 30
2.000000000000000E+50
 75
     0
  1
AcDbOsnapPointRef
 72
     5
331
38F4
 73
     0
 91
        0
 40
3.141592653589793
 10
0.0
 20
0.0
 30
0.0
 75
     0
  0
DIMASSOC
  5
3B3B
102
{ACAD_REACTORS
330
3B3A
102
}
330
3B3A
100
AcDbDimAssoc
330
3B2F
 90
        3
 70
     0
 71
     0
  1
AcDbOsnapPointRef
 72
    11
331
37D0
 73
     0
 91
        0
 40
0.9999999999999989
 10
0.0
 20
0.0
 30
0.0
332
38F4
 74
     0
 92
        0
 75
     0
  1
AcDbOsnapPointRef
 72
     5
331
3812
 73
     0
 91
        0
 40
6.283185307179586
 10
0.0
 20
0.0
 30
0.0
 75
     0
  0
DIMASSOC
  5
3B70
102
{ACAD_REACTORS
330
3B6F
102
}
330
3B6F
100
AcDbDimAssoc
330
3B64
 90
        2
 70
     0
 71
     0
  1
AcDbOsnapPointRef
 72
    13
331
3B02
331
3B18
 73
     0
 91
        0
 40
0.0
 10
0.0
 20
0.0
 30
2.000000000000000E+50
 75
     0
  0
LAYOUT
  5
22
102
{ACAD_REACTORS
330
1A
102
}
330
1A
100
AcDbPlotSettings
  1

  2
SII LP-1010 (C2 VR)2R
  4
A4
  6

 40
5.789083480834961
 41
5.789072036743164
 42
5.789093017578125
 43
5.789093017578125
 44
209.9733276367188
 45
296.9259948730469
 46
0.0
 47
0.0
 48
1752.153931125263
 49
844.862975770846
140
2049.153931125263
141
1054.862975770846
142
1.0
143
1.058493611336319
 70
 11952
 72
     1
 73
     1
 74
     4
  7
sei_cad.ctb
 75
     0
147
0.9447388149443132
148
-1752.153931125263
149
-844.862975770846
100
AcDbLayout
  1
Model
 70
     1
 71
     0
 10
0.0
 20
0.0
 11
12.0
 21
9.0
 12
0.0
 22
0.0
 32
0.0
 14
0.0
 24
0.0
 34
0.0
 15
0.0
 25
0.0
 35
0.0
146
0.0
 13
0.0
 23
0.0
 33
0.0
 16
1.0
 26
0.0
 36
0.0
 17
0.0
 27
1.0
 37
0.0
 76
     0
330
1F
1001
ACAD_PSEXT
1000
SII LP-1010 (C2 VR)2R
1000
SII LP-1010 (C2 VR)2R
1000
133.153.16.130#9100
1000

1070
     0
  0
LAYOUT
  5
1E
102
{ACAD_REACTORS
330
1A
102
}
330
1A
100
AcDbPlotSettings
  1

  2

  4

  6

 40
0.0
 41
0.0
 42
0.0
 43
0.0
 44
0.0
 45
0.0
 46
0.0
 47
0.0
 48
0.0
 49
0.0
140
0.0
141
0.0
142
1.0
143
1.0
 70
   688
 72
     0
 73
     0
 74
     5
  7
sei_cad.ctb
 75
    16
147
1.0
148
0.0
149
0.0
100
AcDbLayout
  1
レイアウト1
 70
     1
 71
     1
 10
0.0
 20
0.0
 11
420.0
 21
297.0
 12
0.0
 22
0.0
 32
0.0
 14
1.000000000000000E+20
 24
1.000000000000000E+20
 34
1.000000000000000E+20
 15
-1.000000000000000E+20
 25
-1.000000000000000E+20
 35
-1.000000000000000E+20
146
0.0
 13
0.0
 23
0.0
 33
0.0
 16
1.0
 26
0.0
 36
0.0
 17
0.0
 27
1.0
 37
0.0
 76
     0
330
1B
  0
LAYOUT
  5
26
102
{ACAD_REACTORS
330
1A
102
}
330
1A
100
AcDbPlotSettings
  1

  2

  4

  6

 40
0.0
 41
0.0
 42
0.0
 43
0.0
 44
0.0
 45
0.0
 46
0.0
 47
0.0
 48
0.0
 49
0.0
140
0.0
141
0.0
142
1.0
143
1.0
 70
   688
 72
     0
 73
     0
 74
     5
  7
sei_cad.ctb
 75
    16
147
1.0
148
0.0
149
0.0
100
AcDbLayout
  1
レイアウト2
 70
     1
 71
     2
 10
0.0
 20
0.0
 11
12.0
 21
9.0
 12
0.0
 22
0.0
 32
0.0
 14
0.0
 24
0.0
 34
0.0
 15
0.0
 25
0.0
 35
0.0
146
0.0
 13
0.0
 23
0.0
 33
0.0
 16
1.0
 26
0.0
 36
0.0
 17
0.0
 27
1.0
 37
0.0
 76
     0
330
23
  0
MLINESTYLE
  5
18
102
{ACAD_REACTORS
330
17
102
}
330
17
100
AcDbMlineStyle
  2
STANDARD
 70
     0
  3

 62
   256
 51
90.0
 52
90.0
 71
     2
 49
0.5
 62
   256
  6
BYLAYER
 49
-0.5
 62
   256
  6
BYLAYER
  0
ACDBPLACEHOLDER
  5
F
102
{ACAD_REACTORS
330
E
102
}
330
E
  0
TABLESTYLE
  5
11B
102
{ACAD_REACTORS
330
11A
102
}
330
11A
100
AcDbTableStyle
  3
Standard
 70
     0
 71
     0
 40
1.5
 41
1.5
280
     0
281
     0
  7
STANDARD
140
4.5
170
     2
 62
     0
 63
     7
283
     0
274
    -2
284
     1
 64
     0
275
    -2
285
     1
 65
     0
276
    -2
286
     1
 66
     0
277
    -2
287
     1
 67
     0
278
    -2
288
     1
 68
     0
279
    -2
289
     1
 69
     0
  7
STANDARD
140
6.0
170
     5
 62
     0
 63
     7
283
     0
274
    -2
284
     1
 64
     0
275
    -2
285
     1
 65
     0
276
    -2
286
     1
 66
     0
277
    -2
287
     1
 67
     0
278
    -2
288
     1
 68
     0
279
    -2
289
     1
 69
     0
  7
STANDARD
140
4.5
170
     5
 62
     0
 63
     7
283
     0
274
    -2
284
     1
 64
     0
275
    -2
285
     1
 65
     0
276
    -2
286
     1
 66
     0
277
    -2
287
     1
 67
     0
278
    -2
288
     1
 68
     0
279
    -2
289
     1
 69
     0
  0
XRECORD
  5
3CF0
102
{ACAD_REACTORS
330
3CEF
102
}
330
3CEF
100
AcDbXrecord
280
     1
340
BE
  0
XRECORD
  5
3CF1
102
{ACAD_REACTORS
330
3CEF
102
}
330
3CEF
100
AcDbXrecord
280
     1
340
BD
  0
DICTIONARYVAR
  5
138
102
{ACAD_REACTORS
330
94
102
}
330
94
100
DictionaryVariables
280
     0
  1
STANDARD
  0
DICTIONARYVAR
  5
96
102
{ACAD_REACTORS
330
94
102
}
330
94
100
DictionaryVariables
280
     0
  1
2
  0
DICTIONARYVAR
  5
3CEE
102
{ACAD_REACTORS
330
94
102
}
330
94
100
DictionaryVariables
280
     0
  1
0
  0
DICTIONARYVAR
  5
95
102
{ACAD_REACTORS
330
94
102
}
330
94
100
DictionaryVariables
280
     0
  1
0
  0
DICTIONARYVAR
  5
1694
102
{ACAD_REACTORS
330
94
102
}
330
94
100
DictionaryVariables
280
     0
  1

  0
DICTIONARY
  5
1B5
102
{ACAD_REACTORS
330
5B
102
}
330
5B
100
AcDbDictionary
281
     1
  0
DICTIONARY
  5
61
102
{ACAD_REACTORS
330
5B
102
}
330
5B
100
AcDbDictionary
281
     1
  0
XRECORD
  5
123
102
{ACAD_REACTORS
330
5B
102
}
330
5B
100
AcDbXrecord
280
     1
 90
-1023410169
  0
ACAD_PROXY_OBJECT
  5
3C59
102
{ACAD_REACTORS
330
41
102
}
330
41
100
AcDbProxyObject
 90
      499
 91
      525
 95
       25
 70
     0
 93
    17944
310
41102491013041105357CC201C00030C0132441013141105357CC603800030C0132441013241105357CCA01400030C0132441013341105357CCE01800030C01199013441105357CD200C00030C01199013541105357CD600C00030C01199013641105357CDA00800030C01239013741105357CDE01000030C0119901384110
310
5357CE200400030C01199013941105357CE63F400030C0241102324141505357CC4C201C00030C0132902344141505357CC4C600C00030C0119902495041505357CC4CA01C00030C013240902304E41505357CC13A01C00030C0132902314E41505357CC53A03800030C0132902324E41505357CC93A01400030C013290233
310
4E41505357CCD3A01800030C0119902344E41505357CD13A00C00030C0119902354E41505357CD53A00C00030C0119902364E41505357CD93A00800030C0123902374E41505357CDD3A01000030C0119902384E41505357CE13A00400030C0119902394E41505357CE53A3F400030C024110332414E41905357CC4C13A01C0
310
0030C013290334414E41905357CC4C53A00C00030C011990349504E41905357CC4C93A01C00030C0132409044B4C494E41505357D0D3200400030C011942504494E464F42105357D410549151A01000030C011942D055241484D3541905357D093D4A01C00030C0132425045649455742105357D5925155D4E00400030C011
310
942D06424548494E4441905357D25395A3F400030C0243505545241494C41505357D514A00C00030C01194250348494441905357D21251201C00030C01194250356495341905357D59254E01C00030C01324250650415244494D42505357D41054911253600C00030C01194250652454644494D42505357D49151911253601
310
000030C0119425534110921395901398000000C0003FFFFFFFE415092139594D06424548494E448000000C0003FFFFFFFE411093D48C9055241484D358010000C300466411093D48CD055241484D358020000C30048E411093D48D5055241484D358000000C0003FFFFFFFE4110D0530C901348000000C0003FFFFFFFE4110
310
D0530CD01348020000C30048E4110D0530D501348070000C3004CA4110D0530DD013481E0000C30051A4110D15393901378000000C0003FFFFFFFE4110D15395D01378000000C0003FFFFFFFE4110D312539044B4C494E8000000C0003FFFFFFFE4110D3D38C501308000000C0003FFFFFFFD034110D3D38C901318000000C
310
0003FFFFFFFD034110D3D38CD01328000000C0003FFFFFFFD034110D3D38D101328000000C0003FFFFFFFD034111115510501348000000C0003FFFFFFFE4111125051D01358000000C0003FFFFFFFE4111125312501358000000C0003FFFFFFFE411112535410650415244494D8000000C0003FFFFFFFE4111125354906524
310
54644494D8000000C0003FFFFFFFE4111915353901388000000C0003FFFFFFFE415191535413901388030000C3003FFFFFFFE4151915354D410234418000000C0003FFFFFFFE4151915354D510234418030000C300466415191535593901328000000C0003FFFFFFFE415191535595101328030000C3004664112105510D01
310
388000000C0003FFFFFFFD014112125113901338000000C0003FFFFFFFD034112125115D01338000000C0003FFFFFFFD034112131253901348000000C0003FFFFFFFD01411213D0D3901378000000C0003FFFFFFFE411213D0D5D01378000000C0003FFFFFFFE4112539193D04494E464F8000000C0003FFFFFFFE41131150
310
51101358000000C0003FFFFFFFE419397D0921395902394E8000000C0003FFFFFFFE419397D0D3D38C502304E8000000C0003FFFFFFFD03419397D0D3D38C902314E8000000C0003FFFFFFFD03419397D0D3D38CD02324E8000000C0003FFFFFFFD03419397D0D3D38D102324E8000000C0003FFFFFFFD03419397D0D15393
310
902374E8000000C0003FFFFFFFE419397D0D15395D02374E8000000C0003FFFFFFFE419397D1125312502354E8000000C0003FFFFFFFE419397D2105510D02384E8000000C0003FFFFFFFD01419397D2125113902334E8000000C0003FFFFFFFD03419397D2125115D02334E8000000C0003FFFFFFFD03419397D311505110
310
2354E8000000C0003FFFFFFFE419397D391D25410349504E8000000C0003FFFFFFFE419397D412105390334414E8000000C0003FFFFFFFE419397D510D3D3902304E8000000C0003FFFFFFFD03419397D5121312502344E8000000C0003FFFFFFFD01419397D5131153902304E8000000C0003FFFFFFFD03419397D5941312
310
50332414E8000000C0003FFFFFFFE411391D25410249508000000C0003FFFFFFFE411410530C9055241484D358010000C300466411410530CD055241484D358020000C30048E411410530D5055241484D358000000C0003FFFFFFFE411412105390234418000000C0003FFFFFFFE411413D4D3901358000000C0003FFFFFFF
310
E411490D1D3901378000000C0003FFFFFFFE411490D1D5D01378000000C0003FFFFFFFE4114D09492D01348000000C0003FFFFFFFD014114D150D5101348000000C0003FFFFFFFD014114D6508CD01358020000C30048E411354D653501358020000C30048E411510D3D3901308000000C0003FFFFFFFD0341151213125013
310
48000000C0003FFFFFFFD01411512550C9055241484D358010000C300466411512550CD055241484D358020000C30048E411512550D5055241484D358000000C0003FFFFFFFE4115131153901308000000C0003FFFFFFFD03415514905253105545241494C8000000C0003FFFFFFFE4115149312501348000000C0003FFFFF
310
FFD01411516150C501368030000C300466411516150C901368030000C300466411516150CD01368000000C0003FFFFFFFE411516150D501368070000C3004CA411516150DD013681E0000C30051A4115925155D04564945578000000C0003FFFFFFFE41159151121034849448000000C0003FFFFFFFD024115915115903564
310
9538000000C0003FFFFFFFD02411594131250232418000000C0003FFFFFFFE4116925690501348000000C0003FFFFFFFD01AAA3F400030C01013F90A405194092340D1941119415324191941D3243932479467F6
340
16
340
16
340
16
340
64
340
16
340
16
340
16
340
65
340
16
340
16
340
65
340
66
340
16
340
16
340
16
340
16
340
64
340
16
340
16
340
16
340
65
340
16
340
16
340
65
340
66
340
16
340
67
340
16
340
16
340
16
340
16
340
16
340
64
340
16
340
16
340
16
340
15
340
15
340
15
340
15
340
15
340
15
340
15
340
15
340
15
340
68
340
15
340
15
340
15
340
15
340
15
340
15
340
15
340
15
340
15
340
15
340
15
340
15
340
15
340
16
340
15
340
15
340
15
340
15
340
69
340
15
340
15
340
68
340
15
340
15
340
15
340
15
340
15
340
15
340
15
340
15
340
68
340
15
340
15
340
15
340
69
340
15
340
15
340
15
340
15
340
15
340
15
340
15
340
15
340
15
340
15
340
15
340
15
340
15
340
15
340
68
340
15
340
15
340
15
340
15
340
15
340
15
340
15
340
15
340
15
340
15
340
15
340
15
340
15
340
15
340
15
340
15
340
15
340
15
340
15
340
15
340
15
340
15
340
6C
 94
        0
  0
ENDSEC
  0
EOF
