  0
SECTION
  2
HEADER
  9
$ACADVER
  1
AC1015
  9
$ACADMAINTVER
 70
    20
  9
$DWGCODEPAGE
  3
ANSI_932
  9
$INSBASE
 10
0.0
 20
0.0
 30
0.0
  9
$EXTMIN
 10
-83.65148468804484
 20
-77.69879844760836
 30
0.0
  9
$EXTMAX
 10
14.22124610716811
 20
340.0
 30
0.0
  9
$LIMMIN
 10
0.0
 20
0.0
  9
$LIMMAX
 10
0.0
 20
0.0
  9
$ORTHOMODE
 70
     0
  9
$REGENMODE
 70
     1
  9
$FILLMODE
 70
     1
  9
$QTEXTMODE
 70
     0
  9
$MIRRTEXT
 70
     1
  9
$LTSCALE
 40
1.0
  9
$ATTMODE
 70
     1
  9
$TEXTSIZE
 40
3.799999999999999
  9
$TRACEWID
 40
1.0
  9
$TEXTSTYLE
  7
ACISOTS
  9
$CLAYER
  8
0
  9
$CELTYPE
  6
ByLayer
  9
$CECOLOR
 62
   256
  9
$CELTSCALE
 40
1.0
  9
$DISPSILH
 70
     0
  9
$DIMSCALE
 40
1.0
  9
$DIMASZ
 40
2.5
  9
$DIMEXO
 40
0.5
  9
$DIMDLI
 40
1.0
  9
$DIMRND
 40
0.0
  9
$DIMDLE
 40
0.0
  9
$DIMEXE
 40
1.0
  9
$DIMTP
 40
0.1
  9
$DIMTM
 40
0.1
  9
$DIMTXT
 40
3.799999999999999
  9
$DIMCEN
 40
0.0
  9
$DIMTSZ
 40
0.0
  9
$DIMTOL
 70
     0
  9
$DIMLIM
 70
     0
  9
$DIMTIH
 70
     0
  9
$DIMTOH
 70
     0
  9
$DIMSE1
 70
     0
  9
$DIMSE2
 70
     0
  9
$DIMTAD
 70
     3
  9
$DIMZIN
 70
     8
  9
$DIMBLK
  1
Open30
  9
$DIMASO
 70
     1
  9
$DIMSHO
 70
     1
  9
$DIMPOST
  1

  9
$DIMAPOST
  1
"
  9
$DIMALT
 70
     0
  9
$DIMALTD
 70
     2
  9
$DIMALTF
 40
0.0393701
  9
$DIMLFAC
 40
1.0
  9
$DIMTOFL
 70
     1
  9
$DIMTVP
 40
0.0
  9
$DIMTIX
 70
     0
  9
$DIMSOXD
 70
     0
  9
$DIMSAH
 70
     0
  9
$DIMBLK1
  1

  9
$DIMBLK2
  1

  9
$DIMSTYLE
  2
AM_JIS
  9
$DIMCLRD
 70
   256
  9
$DIMCLRE
 70
   256
  9
$DIMCLRT
 70
     2
  9
$DIMTFAC
 40
0.71
  9
$DIMGAP
 40
1.5
  9
$DIMJUST
 70
     0
  9
$DIMSD1
 70
     0
  9
$DIMSD2
 70
     0
  9
$DIMTOLJ
 70
     0
  9
$DIMTZIN
 70
     8
  9
$DIMALTZ
 70
     0
  9
$DIMALTTZ
 70
     0
  9
$DIMUPT
 70
     0
  9
$DIMDEC
 70
     2
  9
$DIMTDEC
 70
     2
  9
$DIMALTU
 70
     2
  9
$DIMALTTD
 70
     2
  9
$DIMTXSTY
  7
STANDARD
  9
$DIMAUNIT
 70
     1
  9
$DIMADEC
 70
     0
  9
$DIMALTRND
 40
0.0
  9
$DIMAZIN
 70
     2
  9
$DIMDSEP
 70
    46
  9
$DIMATFIT
 70
     3
  9
$DIMFRAC
 70
     0
  9
$DIMLDRBLK
  1
Open30
  9
$DIMLUNIT
 70
     2
  9
$DIMLWD
 70
    -1
  9
$DIMLWE
 70
    -1
  9
$DIMTMOVE
 70
     0
  9
$LUNITS
 70
     2
  9
$LUPREC
 70
     2
  9
$SKETCHINC
 40
1.0
  9
$FILLETRAD
 40
12.0
  9
$AUNITS
 70
     0
  9
$AUPREC
 70
     0
  9
$MENU
  1
.
  9
$ELEVATION
 40
0.0
  9
$PELEVATION
 40
0.0
  9
$THICKNESS
 40
0.0
  9
$LIMCHECK
 70
     0
  9
$CHAMFERA
 40
0.3
  9
$CHAMFERB
 40
0.3
  9
$CHAMFERC
 40
20.0
  9
$CHAMFERD
 40
0.0
  9
$SKPOLY
 70
     0
  9
$TDCREATE
 40
2453784.696885660
  9
$TDUCREATE
 40
2453784.321885660
  9
$TDUPDATE
 40
2455540.369812280
  9
$TDUUPDATE
 40
2455539.994812280
  9
$TDINDWG
 40
2.9098296759
  9
$TDUSRTIMER
 40
2.9097732523
  9
$USRTIMER
 70
     1
  9
$ANGBASE
 50
0.0
  9
$ANGDIR
 70
     0
  9
$PDMODE
 70
     0
  9
$PDSIZE
 40
0.0
  9
$PLINEWID
 40
0.0
  9
$SPLFRAME
 70
     0
  9
$SPLINETYPE
 70
     6
  9
$SPLINESEGS
 70
     8
  9
$HANDSEED
  5
177CA
  9
$SURFTAB1
 70
     6
  9
$SURFTAB2
 70
     6
  9
$SURFTYPE
 70
     6
  9
$SURFU
 70
     6
  9
$SURFV
 70
     6
  9
$UCSBASE
  2

  9
$UCSNAME
  2

  9
$UCSORG
 10
0.0
 20
0.0
 30
0.0
  9
$UCSXDIR
 10
1.0
 20
0.0
 30
0.0
  9
$UCSYDIR
 10
0.0
 20
1.0
 30
0.0
  9
$UCSORTHOREF
  2

  9
$UCSORTHOVIEW
 70
     0
  9
$UCSORGTOP
 10
0.0
 20
0.0
 30
0.0
  9
$UCSORGBOTTOM
 10
0.0
 20
0.0
 30
0.0
  9
$UCSORGLEFT
 10
0.0
 20
0.0
 30
0.0
  9
$UCSORGRIGHT
 10
0.0
 20
0.0
 30
0.0
  9
$UCSORGFRONT
 10
0.0
 20
0.0
 30
0.0
  9
$UCSORGBACK
 10
0.0
 20
0.0
 30
0.0
  9
$PUCSBASE
  2

  9
$PUCSNAME
  2

  9
$PUCSORG
 10
0.0
 20
0.0
 30
0.0
  9
$PUCSXDIR
 10
1.0
 20
0.0
 30
0.0
  9
$PUCSYDIR
 10
0.0
 20
1.0
 30
0.0
  9
$PUCSORTHOREF
  2

  9
$PUCSORTHOVIEW
 70
     0
  9
$PUCSORGTOP
 10
0.0
 20
0.0
 30
0.0
  9
$PUCSORGBOTTOM
 10
0.0
 20
0.0
 30
0.0
  9
$PUCSORGLEFT
 10
0.0
 20
0.0
 30
0.0
  9
$PUCSORGRIGHT
 10
0.0
 20
0.0
 30
0.0
  9
$PUCSORGFRONT
 10
0.0
 20
0.0
 30
0.0
  9
$PUCSORGBACK
 10
0.0
 20
0.0
 30
0.0
  9
$USERI1
 70
     0
  9
$USERI2
 70
     0
  9
$USERI3
 70
     0
  9
$USERI4
 70
     0
  9
$USERI5
 70
     0
  9
$USERR1
 40
0.0
  9
$USERR2
 40
0.0
  9
$USERR3
 40
0.0
  9
$USERR4
 40
0.0
  9
$USERR5
 40
0.0
  9
$WORLDVIEW
 70
     1
  9
$SHADEDGE
 70
     3
  9
$SHADEDIF
 70
    70
  9
$TILEMODE
 70
     1
  9
$MAXACTVP
 70
    64
  9
$PINSBASE
 10
0.0
 20
0.0
 30
0.0
  9
$PLIMCHECK
 70
     0
  9
$PEXTMIN
 10
1.000000000000000E+20
 20
1.000000000000000E+20
 30
1.000000000000000E+20
  9
$PEXTMAX
 10
-1.000000000000000E+20
 20
-1.000000000000000E+20
 30
-1.000000000000000E+20
  9
$PLIMMIN
 10
0.0
 20
0.0
  9
$PLIMMAX
 10
420.0
 20
297.0
  9
$UNITMODE
 70
     0
  9
$VISRETAIN
 70
     1
  9
$PLINEGEN
 70
     0
  9
$PSLTSCALE
 70
     1
  9
$TREEDEPTH
 70
  3020
  9
$CMLSTYLE
  2
Standard
  9
$CMLJUST
 70
     0
  9
$CMLSCALE
 40
20.0
  9
$PROXYGRAPHICS
 70
     1
  9
$MEASUREMENT
 70
     1
  9
$CELWEIGHT
370
    -1
  9
$ENDCAPS
280
     0
  9
$JOINSTYLE
280
     0
  9
$LWDISPLAY
290
     0
  9
$INSUNITS
 70
     4
  9
$HYPERLINKBASE
  1

  9
$STYLESHEET
  1
sei_cad.ctb
  9
$XEDIT
290
     1
  9
$CEPSNTYPE
380
     0
  9
$PSTYLEMODE
290
     1
  9
$FINGERPRINTGUID
  2
{27FF56CF-005B-439C-8419-0719A49BF054}
  9
$VERSIONGUID
  2
{6F7BAB71-5B62-4B67-AB91-744F7BACBC76}
  9
$EXTNAMES
290
     1
  9
$PSVPSCALE
 40
0.0
  9
$OLESTARTUP
290
     0
  0
ENDSEC
  0
SECTION
  2
CLASSES
  0
CLASS
  1
ACDBDICTIONARYWDFLT
  2
AcDbDictionaryWithDefault
  3
ObjectDBX Classes
 90
        0
280
     0
281
     0
  0
CLASS
  1
ACDBPLACEHOLDER
  2
AcDbPlaceHolder
  3
ObjectDBX Classes
 90
        0
280
     0
281
     0
  0
CLASS
  1
LAYOUT
  2
AcDbLayout
  3
ObjectDBX Classes
 90
        0
280
     0
281
     0
  0
CLASS
  1
ACME_DOCUMENT
  2
AcMeDbDoc
  3
AcMeServices
 90
        0
280
     0
281
     0
  0
CLASS
  1
AMGSETTINGSOBJ
  2
AmgSettingsObj
  3
"AcadM|Product Description: AutoCAD Mechanical 2000|Company: Autodesk"
 90
        0
280
     0
281
     0
  0
CLASS
  1
ACMESCOPE
  2
AcMeScope
  3
AcMeServices
 90
        0
280
     0
281
     0
  0
CLASS
  1
ACMECOMMANDHISTORY
  2
AcMeCommandHistory
  3
AcMeServices
 90
        0
280
     0
281
     0
  0
CLASS
  1
ACIMSYSVARMAN
  2
AcImSysVarManager
  3
AcMeServices
 90
        0
280
     0
281
     0
  0
CLASS
  1
ACIMREALSYSVAR
  2
AcImRealSysVar
  3
AcMeServices
 90
        0
280
     0
281
     0
  0
CLASS
  1
ACIMINTSYSVAR
  2
AcImIntSysVar
  3
AcMeServices
 90
        0
280
     0
281
     0
  0
CLASS
  1
ACMEDRAWINGMAN
  2
AcMeDrawingMan
  3
AcMeServices
 90
        0
280
     0
281
     0
  0
CLASS
  1
ACMEVIEW
  2
AcMeView
  3
AcMeServices
 90
        0
280
     0
281
     0
  0
CLASS
  1
ACDBENTITYCACHE
  2
AcMeEntityCache
  3
AcMeServices
 90
        0
280
     0
281
     0
  0
CLASS
  1
GSMANAGER
  2
AcMeGSManager
  3
AcMeServices
 90
        0
280
     0
281
     0
  0
CLASS
  1
AMDTINTERNALREACTOR
  2
AmdtInternalReactor
  3
AcMeServices
 90
        0
280
     0
281
     0
  0
CLASS
  1
ACMESTATEMGR
  2
AcMeStateMgr
  3
AcMeServices
 90
        0
280
     0
281
     0
  0
CLASS
  1
ACGREFMASTER
  2
AcGrefMaster
  3
AcAttribServices
 90
        0
280
     0
281
     0
  0
CLASS
  1
ACME_DATABASE
  2
AcMeDbDatabase
  3
AcMeServices
 90
        0
280
     0
281
     0
  0
CLASS
  1
ACRFINSADJUSTERMGR
  2
AcRfInsAdjusterMgr
  3
AcMeServices
 90
        0
280
     0
281
     0
  0
CLASS
  1
ACGREFACADMASTER
  2
AcGrefacadMaster
  3
AcGrefServices
 90
        0
280
     0
281
     0
  0
CLASS
  1
AMIMASTER
  2
AmiMaster
  3
AmiServices
 90
        0
280
     0
281
     0
  0
CLASS
  1
ACMDATADICTIONARY
  2
AcmDataDictionary
  3
"AcmSymBB|Product Description: AutoCAD Mechanical 2004 DX|Company: Autodesk"
 90
        0
280
     0
281
     0
  0
CLASS
  1
ACMDATAENTRYBLOCK
  2
AcmDataEntryBlock
  3
"AcmSymBB|Product Description: AutoCAD Mechanical 2004 DX|Company: Autodesk"
 90
        0
280
     0
281
     0
  0
CLASS
  1
ACIMSTRSYSVAR
  2
AcImStrSysVar
  3
AcMeServices
 90
        0
280
     0
281
     0
  0
CLASS
  1
ACMSTANDARDISO
  2
AcmStandardISO
  3
"Amdt_StdImp|Product Description: AutoCAD Mechanical 2004 DX|Company: Autodesk"
 90
        0
280
     0
281
     0
  0
CLASS
  1
AMGOBJPROPCFG
  2
AmgObjPropCfg
  3
"AmgLay|Product Description: AutoCAD Mechanical 2000|Company: Autodesk"
 90
        1
280
     0
281
     0
  0
CLASS
  1
AMDTEDGESTANDARDISO
  2
AmdtEdgeStdISO
  3
"Amdt_StdImp|Product Description: AutoCAD Mechanical 2004 DX|Company: Autodesk"
 90
        0
280
     0
281
     0
  0
CLASS
  1
ACMSURFSTANDARDISO
  2
AcmSurfTextStdISO
  3
"Amdt_StdImp|Product Description: AutoCAD Mechanical 2004 DX|Company: Autodesk"
 90
        0
280
     0
281
     0
  0
CLASS
  1
ACMFCFSTANDARDISO
  2
AcmFCFStdISO
  3
"Amdt_StdImp|Product Description: AutoCAD Mechanical 2004 DX|Company: Autodesk"
 90
        0
280
     0
281
     0
  0
CLASS
  1
ACMWELDSTANDARDISO
  2
AcmWeldingStdISO
  3
"Amdt_StdImp|Product Description: AutoCAD Mechanical 2004 DX|Company: Autodesk"
 90
        0
280
     0
281
     0
  0
CLASS
  1
ACMIDSTANDARDISO
  2
AcmIdStdISO
  3
"Amdt_StdImp|Product Description: AutoCAD Mechanical 2004 DX|Company: Autodesk"
 90
        0
280
     0
281
     0
  0
CLASS
  1
ACMDATUMSTANDARDISO
  2
AcmDatumStdISO
  3
"Amdt_StdImp|Product Description: AutoCAD Mechanical 2004 DX|Company: Autodesk"
 90
        0
280
     0
281
     0
  0
CLASS
  1
ACMBOMSTANDARDISO
  2
AcmBOMStdISO
  3
"Amdt_StdImp|Product Description: AutoCAD Mechanical 2004 DX|Company: Autodesk"
 90
        0
280
     0
281
     0
  0
CLASS
  1
ACMDETAILSTANDARDISO
  2
AmdtDetailSymStdISO
  3
"Amdt_StdImp|Product Description: AutoCAD Mechanical 2004 DX|Company: Autodesk"
 90
        0
280
     0
281
     0
  0
CLASS
  1
ACMSECTIONSTANDARDISO
  2
AmdtSectionSymStdISO
  3
"Amdt_StdImp|Product Description: AutoCAD Mechanical 2004 DX|Company: Autodesk"
 90
        0
280
     0
281
     0
  0
CLASS
  1
ACMCENTERLINESTANDARDISO
  2
AmdtCenterLineStdISO
  3
"Amdt_StdImp|Product Description: AutoCAD Mechanical 2004 DX|Company: Autodesk"
 90
        0
280
     0
281
     0
  0
CLASS
  1
ACMNOTESTANDARDISO
  2
AmdtNoteStdISO
  3
"Amdt_StdImp|Product Description: AutoCAD Mechanical 2004 DX|Company: Autodesk"
 90
        0
280
     0
281
     0
  0
CLASS
  1
ACAMGLAYSTD
  2
AcAmgLayStd
  3
"AcAmgLayStd|Product Description: AutoCAD Mechanical 2000|Company: Autodesk"
 90
        0
280
     0
281
     0
  0
CLASS
  1
ACAMGDIMSTD
  2
AcAmgDimStd
  3
"AcAmgDimStd|Product Description: AutoCAD Mechanical 2000|Company: Autodesk"
 90
        0
280
     0
281
     0
  0
CLASS
  1
ACAMGHOLECHARTSTDISO
  2
AcAmgHoleChartStdISO
  3
ACMSYMBB_MODULE_NAME
 90
        0
280
     0
281
     0
  0
CLASS
  1
ACAMGTITLESTD
  2
AcAmgTitleStd
  3
"TITLEAPP"
 90
        0
280
     0
281
     0
  0
CLASS
  1
LAYER_INDEX
  2
AcDbLayerIndex
  3
ObjectDBX Classes
 90
    32768
280
     0
281
     0
  0
CLASS
  1
IDBUFFER
  2
AcDbIdBuffer
  3
ObjectDBX Classes
 90
    32768
280
     0
281
     0
  0
CLASS
  1
DICTIONARYVAR
  2
AcDbDictionaryVar
  3
ObjectDBX Classes
 90
        0
280
     0
281
     0
  0
CLASS
  1
AM_DRAWING_MGR
  2
AcDmDwgMgr
  3
AcMechDwgViewMgmt
 90
        0
280
     0
281
     0
  0
CLASS
  1
AM_DWG_DOCUMENT
  2
AcDmDwgDocument
  3
AcMechDwgViewMgmt
 90
        0
280
     0
281
     0
  0
CLASS
  1
AM_DWG_SHEET
  2
AcDmSheet
  3
AcMechDwgViewMgmt
 90
        0
280
     0
281
     0
  0
CLASS
  1
AM_VIEWDIMPARMAP
  2
AcDmViewDimParMap
  3
AcMechDwgViewMgmt
 90
        0
280
     0
281
     0
  0
CLASS
  1
AM_DWGMGR_NAME
  2
AcDmDwgMgrName
  3
AcMechDwgViewMgmt
 90
        0
280
     0
281
     0
  0
CLASS
  1
AMDTMENUSTATEMGR
  2
AmdtMenuStateMgr
  3
McadcomServices
 90
        0
280
     0
281
     0
  0
CLASS
  1
AMDTMCOMMENUSTATE
  2
AmdtMcomMenuState
  3
McadcomServices
 90
        0
280
     0
281
     0
  0
CLASS
  1
MAPIAMMOUDLE
  2
MApiAmModule
  3
MApiAmServices
 90
        0
280
     0
281
     0
  0
CLASS
  1
AMDTADMENUSTATE
  2
AmdtAdMenuState
  3
DesignerServices
 90
        0
280
     0
281
     0
  0
CLASS
  1
ADAPPL
  2
AcAdAppl
  3
DesignerServices
 90
        0
280
     0
281
     0
  0
CLASS
  1
DEPMGR
  2
AcAdDepMgr
  3
DesignerServices
 90
        0
280
     0
281
     0
  0
CLASS
  1
PARAMMGR
  2
AcAdParamMgr
  3
DesignerServices
 90
        0
280
     0
281
     0
  0
CLASS
  1
PARAMSCOPE
  2
AcAdParamScope
  3
DesignerServices
 90
        0
280
     0
281
     0
  0
CLASS
  1
NAMEDAPPL
  2
AcAdNamedAppl
  3
DesignerServices
 90
        0
280
     0
281
     0
  0
CLASS
  1
AMDTDMMENUSTATE
  2
AmdtDmMenuState
  3
AcMechDwgViewMgmt
 90
        0
280
     0
281
     0
  0
CLASS
  1
AMDTAMMENUSTATE
  2
AmdtAmMenuState
  3
DesignerAssemblies
 90
        0
280
     0
281
     0
  0
CLASS
  1
ACAMPROJECT
  2
AcAmProject
  3
DesignerAssemblies
 90
        0
280
     0
281
     0
  0
CLASS
  1
ACAMGRCOMPDEF
  2
AcAmGrCompDef
  3
DesignerAssemblies
 90
        0
280
     0
281
     0
  0
CLASS
  1
ACCMCONTEXT
  2
AcCmContext
  3
DesignerAssemblies
 90
        0
280
     0
281
     0
  0
CLASS
  1
ACAMCOMPDEF
  2
AcAmCompDef
  3
DesignerAssemblies
 90
        0
280
     0
281
     0
  0
CLASS
  1
ACAMCOMPDEFMGR
  2
AcAmCompDefMgr
  3
DesignerAssemblies
 90
        0
280
     0
281
     0
  0
CLASS
  1
AMCONTEXTMGR
  2
AcAmContextMgr
  3
DesignerAssemblies
 90
        0
280
     0
281
     0
  0
CLASS
  1
ACAMCONTEXTMODELER
  2
AcAmContextModeler
  3
DesignerAssemblies
 90
        0
280
     0
281
     0
  0
CLASS
  1
ACMTHREADLINESTANDARDISO
  2
AmdtThreadLineStdISO
  3
"Amdt_StdImp|Product Description: AutoCAD Mechanical 2004 DX|Company: Autodesk"
 90
        0
280
     0
281
     0
  0
CLASS
  1
CATALOGSTATE
  2
AcAmCatalogState
  3
DesignerAssemblies
 90
        0
280
     0
281
     0
  0
CLASS
  1
ACAMGRCOMPDEFSET
  2
AcAmGrCompDefSet
  3
DesignerAssemblies
 90
        0
280
     0
281
     0
  0
CLASS
  1
AMDTBROWSERDBTAB
  2
AmdtBrowserDbTab
  3
McadcomServices
 90
        0
280
     0
281
     0
  0
CLASS
  1
CBROWSERAPPOBJECT
  2
CBrowserAppObject
  3
McadcomServices
 90
        0
280
     0
281
     0
  0
CLASS
  1
DM_PLACEHOLDER
  2
AcDmSelsetPlaceholder
  3
AcMechDwgViewMgmt
 90
        0
280
     0
281
     0
  0
CLASS
  1
TABLESTYLE
  2
AcDbTableStyle
  3
ObjectDBX Classes
 90
     2047
280
     0
281
     0
  0
CLASS
  1
VAACXREFPANELOBJECT
  2
VaAcXREFPanelObject
  3
VAAC_ADDIN
 90
    32768
280
     0
281
     0
  0
CLASS
  1
VAACIMAGEINVENTORY
  2
VaAcImageInventory
  3
VAAC_ADDIN
 90
    32768
280
     0
281
     0
  0
CLASS
  1
AMDTNOTETEMPLATEDB
  2
AmdtNoteTemplateDB
  3
AMDT_STDIMP_MODULE_NAME
 90
        0
280
     0
281
     0
  0
CLASS
  1
ACMBOM
  2
AcmBom
  3
"AcmSymBB|Product Description: AutoCAD Mechanical 2004 DX|Company: Autodesk"
 90
    32768
280
     0
281
     0
  0
CLASS
  1
AMDTFORMULAUPDATEDISPATCHER
  2
AmdtFormulaUpdateDispatcher
  3
AcMeServices
 90
    32768
280
     0
281
     0
  0
CLASS
  1
ACMPARTLIST
  2
AcmPartList
  3
"AcmSymBB|Product Description: AutoCAD Mechanical 2004 DX|Company: Autodesk"
 90
    33791
280
     0
281
     1
  0
CLASS
  1
ACAMGFILTERDAT
  2
AcAmgFilterDat
  3
"AcadM|Product Description: AutoCAD Mechanical 2000|Company: Autodesk"
 90
        0
280
     0
281
     0
  0
CLASS
  1
ACMSTANDARDJIS
  2
AcmStandardJIS
  3
"Amdt_StdImp|Product Description: AutoCAD Mechanical 2004 DX|Company: Autodesk"
 90
        0
280
     0
281
     0
  0
CLASS
  1
ACMSURFSTANDARDJIS
  2
AcmSurfTextStdJIS
  3
"Amdt_StdImp|Product Description: AutoCAD Mechanical 2004 DX|Company: Autodesk"
 90
        0
280
     0
281
     0
  0
CLASS
  1
ACMFCFSTANDARDJIS98
  2
AcmFCFStdJIS98
  3
"Amdt_StdImp|Product Description: AutoCAD Mechanical 2004 DX|Company: Autodesk"
 90
        0
280
     0
281
     0
  0
CLASS
  1
ACMWELDSTANDARDJIS
  2
AcmWeldingStdJIS
  3
"Amdt_StdImp|Product Description: AutoCAD Mechanical 2004 DX|Company: Autodesk"
 90
        0
280
     0
281
     0
  0
CLASS
  1
ACMIDSTANDARDJIS
  2
AcmIdStdJIS
  3
"Amdt_StdImp|Product Description: AutoCAD Mechanical 2004 DX|Company: Autodesk"
 90
        0
280
     0
281
     0
  0
CLASS
  1
ACMDATUMSTANDARDJIS
  2
AcmDatumStdJIS
  3
"Amdt_StdImp|Product Description: AutoCAD Mechanical 2004 DX|Company: Autodesk"
 90
        0
280
     0
281
     0
  0
CLASS
  1
ACMBOMSTANDARDJIS
  2
AcmBOMStdJIS
  3
"Amdt_StdImp|Product Description: AutoCAD Mechanical 2004 DX|Company: Autodesk"
 90
        0
280
     0
281
     0
  0
CLASS
  1
ACMDETAILSTANDARDJIS
  2
AmdtDetailSymStdJIS
  3
"Amdt_StdImp|Product Description: AutoCAD Mechanical 2004 DX|Company: Autodesk"
 90
        0
280
     0
281
     0
  0
CLASS
  1
ACMSECTIONSTANDARDJIS
  2
AmdtSectionSymStdJIS
  3
"Amdt_StdImp|Product Description: AutoCAD Mechanical 2004 DX|Company: Autodesk"
 90
        0
280
     0
281
     0
  0
CLASS
  1
ACMCENTERLINESTANDARDJIS
  2
AmdtCenterLineStdJIS
  3
"Amdt_StdImp|Product Description: AutoCAD Mechanical 2004 DX|Company: Autodesk"
 90
        0
280
     0
281
     0
  0
CLASS
  1
ACMTHREADLINESTANDARDJIS
  2
AmdtThreadLineStdJIS
  3
"Amdt_StdImp|Product Description: AutoCAD Mechanical 2004 DX|Company: Autodesk"
 90
        0
280
     0
281
     0
  0
CLASS
  1
ACMNOTESTANDARDJIS
  2
AmdtNoteStdJIS
  3
"Amdt_StdImp|Product Description: AutoCAD Mechanical 2004 DX|Company: Autodesk"
 90
        0
280
     0
281
     0
  0
CLASS
  1
ACAMGHOLECHARTSTDJIS
  2
AcAmgHoleChartStdJIS
  3
ACMSYMBB_MODULE_NAME
 90
        0
280
     0
281
     0
  0
CLASS
  1
SORTENTSTABLE
  2
AcDbSortentsTable
  3
ObjectDBX Classes
 90
        0
280
     0
281
     0
  0
CLASS
  1
DIMASSOC
  2
AcDbDimAssoc
  3
"AcDbDimAssoc|Product Desc:     AcDim ARX App For Dimension|Company:          Autodesk, Inc.|WEB Address:      www.autodesk.com"
 90
        0
280
     0
281
     0
  0
CLASS
  1
ACDBCIRCARCRES
  2
AcDbCircArcRes
  3
AcGrefServices
 90
    32768
280
     0
281
     0
  0
CLASS
  1
AMDTNOTE
  2
AmdtNote
  3
"AcmSymBB|Product Description: AutoCAD Mechanical 2004 DX|Company: Autodesk"
 90
    33791
280
     0
281
     1
  0
CLASS
  1
ACDBLINERES
  2
AcDbLineRes
  3
AcGrefServices
 90
        0
280
     0
281
     0
  0
CLASS
  1
ACMSURFSYM
  2
AcmSurfaceTexture
  3
"AcmSymBB|Product Description: AutoCAD Mechanical 2004 DX|Company: Autodesk"
 90
    33791
280
     0
281
     1
  0
CLASS
  1
ACMWELDSYM
  2
AcmWelding
  3
"AcmSymBB|Product Description: AutoCAD Mechanical 2004 DX|Company: Autodesk"
 90
    33791
280
     0
281
     1
  0
CLASS
  1
ACMDATUMID
  2
AcmDatumId
  3
"AcmSymBB|Product Description: AutoCAD Mechanical 2004 DX|Company: Autodesk"
 90
    33791
280
     0
281
     1
  0
CLASS
  1
ACDBNURBCURVERES
  2
AcDbNurbCurveRes
  3
AcGrefServices
 90
    32768
280
     0
281
     0
  0
CLASS
  1
ACDBDIMENSIONRES
  2
AcDbDimensionRes
  3
"AcDbDimensionRes|Product Description: AutoCAD Mechanical 2000|Company: Autodesk"
 90
        0
280
     0
281
     0
  0
CLASS
  1
AMDTDETAILSYM
  2
AmdtDetailSym
  3
"AcmSymBB|Product Description: AutoCAD Mechanical 2004 DX|Company: Autodesk"
 90
    33791
280
     0
281
     1
  0
CLASS
  1
AMDTDETAILSYMLABEL
  2
AmdtDetailSymLabel
  3
"AcmSymBB|Product Description: AutoCAD Mechanical 2004 DX|Company: Autodesk"
 90
    33791
280
     0
281
     1
  0
ENDSEC
  0
SECTION
  2
TABLES
  0
TABLE
  2
VPORT
  5
8
330
0
100
AcDbSymbolTable
 70
     5
  0
VPORT
  5
177C1
330
8
100
AcDbSymbolTableRecord
100
AcDbViewportTableRecord
  2
*Active
 70
     0
 10
0.0
 20
0.0
 11
1.0
 21
1.0
 12
-13.79033441869529
 22
-3.345406527166872
 13
0.0
 23
0.0
 14
2.5
 24
2.5
 15
10.0
 25
10.0
 16
0.0
 26
0.0
 36
1.0
 17
0.0
 27
0.0
 37
0.0
 40
163.5749933219791
 41
1.618655692729766
 42
50.0
 43
0.0
 44
0.0
 50
0.0
 51
0.0
 71
    16
 72
  2000
 73
     1
 74
     3
 75
     0
 76
     0
 77
     0
 78
     0
281
     0
 65
     1
110
0.0
120
0.0
130
0.0
111
1.0
121
0.0
131
0.0
112
0.0
122
1.0
132
0.0
 79
     0
146
0.0
  0
ENDTAB
  0
TABLE
  2
LTYPE
  5
5
330
0
100
AcDbSymbolTable
 70
    17
  0
LTYPE
  5
14
330
5
100
AcDbSymbolTableRecord
100
AcDbLinetypeTableRecord
  2
ByBlock
 70
     0
  3

 72
    65
 73
     0
 40
0.0
  0
LTYPE
  5
15
330
5
100
AcDbSymbolTableRecord
100
AcDbLinetypeTableRecord
  2
ByLayer
 70
     0
  3

 72
    65
 73
     0
 40
0.0
  0
LTYPE
  5
16
330
5
100
AcDbSymbolTableRecord
100
AcDbLinetypeTableRecord
  2
Continuous
 70
     0
  3
Solid line
 72
    65
 73
     0
 40
0.0
  0
LTYPE
  5
64
330
5
100
AcDbSymbolTableRecord
100
AcDbLinetypeTableRecord
  2
AM_ISO02W050
 70
     0
  3
__ __ __ __ __ __ __ __ __ __ __ __ __ __ __
 72
    65
 73
     2
 40
7.5
 49
6.0
 74
     0
 49
-1.5
 74
     0
  0
LTYPE
  5
65
330
5
100
AcDbSymbolTableRecord
100
AcDbLinetypeTableRecord
  2
AM_ISO08W050
 70
     0
  3
____ . ____ . ____ . ____ . ____ . ____ . ____
 72
    65
 73
     4
 40
18.0
 49
12.0
 74
     0
 49
-1.5
 74
     0
 49
3.0
 74
     0
 49
-1.5
 74
     0
  0
LTYPE
  5
66
330
5
100
AcDbSymbolTableRecord
100
AcDbLinetypeTableRecord
  2
AM_ISO09W050
 70
     0
  3
_____ . . _____ . . _____ . . ____ .. ____
 72
    65
 73
     6
 40
22.5
 49
12.0
 74
     0
 49
-1.5
 74
     0
 49
3.0
 74
     0
 49
-1.5
 74
     0
 49
3.0
 74
     0
 49
-1.5
 74
     0
  0
LTYPE
  5
67
330
5
100
AcDbSymbolTableRecord
100
AcDbLinetypeTableRecord
  2
Amconstr
 70
     0
  3
_______________________
 72
    65
 73
     2
 40
9999.0
 49
9999.0
 74
     0
 49
0.0
 74
     0
  0
LTYPE
  5
68
330
5
100
AcDbSymbolTableRecord
100
AcDbLinetypeTableRecord
  2
AM_ISO08W050x2
 70
     0
  3
__ . __ . __ . __ . __ . __
 72
    65
 73
     4
 40
9.0
 49
6.0
 74
     0
 49
-0.75
 74
     0
 49
1.5
 74
     0
 49
-0.75
 74
     0
  0
LTYPE
  5
69
330
5
100
AcDbSymbolTableRecord
100
AcDbLinetypeTableRecord
  2
AM_ISO02W050x2
 70
     0
  3
 _ _ _ _ _ _ _ _ _ _ _ _
 72
    65
 73
     2
 40
3.75
 49
3.0
 74
     0
 49
-0.75
 74
     0
  0
LTYPE
  5
6C
330
5
100
AcDbSymbolTableRecord
100
AcDbLinetypeTableRecord
  2
Amzigzag
 70
     0
  3
/\/-/\/-/\/-/\/-/\/-/\/
 72
    65
 73
     2
 40
11.0001
 49
0.0001
 74
     4
 75
   135
340
6B
 46
0.04
 50
0.0
 44
0.0
 45
0.0
 49
-11.0
 74
     0
  0
LTYPE
  5
7A
330
5
100
AcDbSymbolTableRecord
100
AcDbLinetypeTableRecord
  2
ACISOWELD
 70
     0
  3
_ _ _ _ _
 72
    65
 73
     2
 40
2.0
 49
2.0
 74
     0
 49
-1.0
 74
     0
  0
LTYPE
  5
7B
330
5
100
AcDbSymbolTableRecord
100
AcDbLinetypeTableRecord
  2
ACISOTGB
 70
     0
  3
__ . . __ . .
 72
    65
 73
     6
 40
9.0
 49
4.0
 74
     0
 49
-1.0
 74
     0
 49
1.0
 74
     0
 49
-1.0
 74
     0
 49
1.0
 74
     0
 49
-1.0
 74
     0
  0
LTYPE
  5
7C
330
5
100
AcDbSymbolTableRecord
100
AcDbLinetypeTableRecord
  2
ACISOTGL
 70
     0
  3
_ _ _ _ _
 72
    65
 73
     2
 40
3.0
 49
2.0
 74
     0
 49
-1.0
 74
     0
  0
LTYPE
  5
7E
330
5
100
AcDbSymbolTableRecord
100
AcDbLinetypeTableRecord
  2
CENTER
 70
     0
  3
__ . __
 72
    65
 73
     4
 40
7.0
 49
4.0
 74
     0
 49
-1.0
 74
     0
 49
1.0
 74
     0
 49
-1.0
 74
     0
  0
LTYPE
  5
D8
330
5
100
AcDbSymbolTableRecord
100
AcDbLinetypeTableRecord
  2
HIDDEN
 70
     0
  3
Hidden __ __ __ __ __ __ __ __ __ __ __ __ __ _
 72
    65
 73
     2
 40
9.524999999999998
 49
6.349999999999999
 74
     0
 49
-3.174999999999999
 74
     0
  0
LTYPE
  5
D9
330
5
100
AcDbSymbolTableRecord
100
AcDbLinetypeTableRecord
  2
PHANTOM2
 70
     0
  3
Phantom (.5x) ___ _ _ ___ _ _ ___ _ _ ___ _ _
 72
    65
 73
     6
 40
31.75
 49
15.875
 74
     0
 49
-3.174999999999999
 74
     0
 49
3.174999999999999
 74
     0
 49
-3.174999999999999
 74
     0
 49
3.174999999999999
 74
     0
 49
-3.174999999999999
 74
     0
  0
LTYPE
  5
20C
330
5
100
AcDbSymbolTableRecord
100
AcDbLinetypeTableRecord
  2
ACJISWELD
 70
     0
  3
_ _ _ _ _
 72
    65
 73
     2
 40
2.0
 49
2.0
 74
     0
 49
-1.0
 74
     0
  0
LTYPE
  5
20D
330
5
100
AcDbSymbolTableRecord
100
AcDbLinetypeTableRecord
  2
ACJISTGB
 70
     0
  3
__ . . __ . .
 72
    65
 73
     6
 40
9.0
 49
4.0
 74
     0
 49
-1.0
 74
     0
 49
1.0
 74
     0
 49
-1.0
 74
     0
 49
1.0
 74
     0
 49
-1.0
 74
     0
  0
LTYPE
  5
20E
330
5
100
AcDbSymbolTableRecord
100
AcDbLinetypeTableRecord
  2
ACJISTGL
 70
     0
  3
_ _ _ _ _
 72
    65
 73
     2
 40
3.0
 49
2.0
 74
     0
 49
-1.0
 74
     0
  0
ENDTAB
  0
TABLE
  2
LAYER
  5
2
102
{ACAD_XDICTIONARY
360
34B
102
}
330
0
100
AcDbSymbolTable
 70
     8
  0
LAYER
  5
10
330
2
100
AcDbSymbolTableRecord
100
AcDbLayerTableRecord
  2
0
 70
     0
 62
     7
  6
Continuous
370
    -3
390
F
  0
LAYER
  5
34A
330
2
100
AcDbSymbolTableRecord
100
AcDbLayerTableRecord
  2
AM_0
 70
     0
 62
     7
  6
Continuous
370
    30
390
F
  0
LAYER
  5
863
330
2
100
AcDbSymbolTableRecord
100
AcDbLayerTableRecord
  2
AM_6
 70
     0
 62
     2
  6
Continuous
370
    30
390
F
  0
LAYER
  5
8FD
330
2
100
AcDbSymbolTableRecord
100
AcDbLayerTableRecord
  2
1
 70
     0
 62
     7
  6
Continuous
370
    -3
390
F
  0
LAYER
  5
DCC
330
2
100
AcDbSymbolTableRecord
100
AcDbLayerTableRecord
  2
AM_5
 70
     0
 62
     3
  6
Continuous
370
    13
390
F
1001
AcAecLayerStandard
1000

1000

  0
LAYER
  5
DE2
330
2
100
AcDbSymbolTableRecord
100
AcDbLayerTableRecord
  2
Defpoints
 70
     0
 62
     1
  6
Continuous
290
     0
370
    -3
390
F
  0
LAYER
  5
10F3
330
2
100
AcDbSymbolTableRecord
100
AcDbLayerTableRecord
  2
AM_7
 70
     0
 62
     4
  6
AM_ISO08W050
370
    13
390
F
  0
LAYER
  5
175CB
330
2
100
AcDbSymbolTableRecord
100
AcDbLayerTableRecord
  2
AM_CL
 70
     0
 62
     1
  6
Amconstr
370
    30
390
F
  0
ENDTAB
  0
TABLE
  2
STYLE
  5
3
330
0
100
AcDbSymbolTable
 70
     6
  0
STYLE
  5
11
330
3
100
AcDbSymbolTableRecord
100
AcDbTextStyleTableRecord
  2
STANDARD
 70
     0
 40
0.0
 41
1.0
 50
0.0
 71
     0
 42
3.799999999999999
  3
ISOCP.SHX
  4
EXTFONT.SHX
  0
STYLE
  5
6B
330
3
100
AcDbSymbolTableRecord
100
AcDbTextStyleTableRecord
  2

 70
     1
 40
0.0
 41
1.0
 50
0.0
 71
     0
 42
2.5
  3
ltypeshp.shx
  4

  0
STYLE
  5
6D
330
3
100
AcDbSymbolTableRecord
100
AcDbTextStyleTableRecord
  2
ACISOTS
 70
     0
 40
3.799999999999999
 41
1.0
 50
0.0
 71
     0
 42
3.799999999999999
  3
isocp.shx
  4
extfont.shx
  0
STYLE
  5
79
330
3
100
AcDbSymbolTableRecord
100
AcDbTextStyleTableRecord
  2
ACISOGDT
 70
     0
 40
0.0
 41
1.0
 50
0.0
 71
     0
 42
2.5
  3
amgdt.shx
  4
extfont.shx
  0
STYLE
  5
1FF
330
3
100
AcDbSymbolTableRecord
100
AcDbTextStyleTableRecord
  2
ACJISTS
 70
     0
 40
1.0
 41
1.0
 50
0.0
 71
     0
 42
1.0
  3
isocp.shx
  4
extfont.shx
  0
STYLE
  5
20B
330
3
100
AcDbSymbolTableRecord
100
AcDbTextStyleTableRecord
  2
ACJISGDT
 70
     0
 40
0.0
 41
1.0
 50
0.0
 71
     0
 42
1.0
  3
amgdt.shx
  4

  0
ENDTAB
  0
TABLE
  2
VIEW
  5
6
330
0
100
AcDbSymbolTable
 70
     6
  0
VIEW
  5
8F5
330
6
100
AcDbSymbolTableRecord
100
AcDbViewTableRecord
  2
AM_VIEW1
 70
     0
 40
0.0
 10
0.0
 20
0.0
 41
0.0
 11
0.0
 21
0.0
 31
1.0
 12
0.0
 22
0.0
 32
0.0
 42
50.0
 43
0.0
 44
0.0
 50
0.0
 71
    16
281
     0
 72
     0
  0
VIEW
  5
8F6
330
6
100
AcDbSymbolTableRecord
100
AcDbViewTableRecord
  2
AM_VIEW2
 70
     0
 40
0.0
 10
0.0
 20
0.0
 41
0.0
 11
0.0
 21
0.0
 31
1.0
 12
0.0
 22
0.0
 32
0.0
 42
50.0
 43
0.0
 44
0.0
 50
0.0
 71
    16
281
     0
 72
     0
  0
VIEW
  5
8F7
330
6
100
AcDbSymbolTableRecord
100
AcDbViewTableRecord
  2
AM_VIEW3
 70
     0
 40
0.0
 10
0.0
 20
0.0
 41
0.0
 11
0.0
 21
0.0
 31
1.0
 12
0.0
 22
0.0
 32
0.0
 42
50.0
 43
0.0
 44
0.0
 50
0.0
 71
    16
281
     0
 72
     0
  0
VIEW
  5
8F8
330
6
100
AcDbSymbolTableRecord
100
AcDbViewTableRecord
  2
AM_VIEW4
 70
     0
 40
0.0
 10
0.0
 20
0.0
 41
0.0
 11
0.0
 21
0.0
 31
1.0
 12
0.0
 22
0.0
 32
0.0
 42
50.0
 43
0.0
 44
0.0
 50
0.0
 71
    16
281
     0
 72
     0
  0
VIEW
  5
8F9
330
6
100
AcDbSymbolTableRecord
100
AcDbViewTableRecord
  2
AM_VIEW5
 70
     0
 40
0.0
 10
0.0
 20
0.0
 41
0.0
 11
0.0
 21
0.0
 31
1.0
 12
0.0
 22
0.0
 32
0.0
 42
50.0
 43
0.0
 44
0.0
 50
0.0
 71
    16
281
     0
 72
     0
  0
VIEW
  5
8FA
330
6
100
AcDbSymbolTableRecord
100
AcDbViewTableRecord
  2
AM_VIEW6
 70
     0
 40
0.0
 10
0.0
 20
0.0
 41
0.0
 11
0.0
 21
0.0
 31
1.0
 12
0.0
 22
0.0
 32
0.0
 42
50.0
 43
0.0
 44
0.0
 50
0.0
 71
    16
281
     0
 72
     0
  0
ENDTAB
  0
TABLE
  2
UCS
  5
7
330
0
100
AcDbSymbolTable
 70
     0
  0
ENDTAB
  0
TABLE
  2
APPID
  5
9
330
0
100
AcDbSymbolTable
 70
    47
  0
APPID
  5
12
330
9
100
AcDbSymbolTableRecord
100
AcDbRegAppTableRecord
  2
ACAD
 70
     0
  0
APPID
  5
46
330
9
100
AcDbSymbolTableRecord
100
AcDbRegAppTableRecord
  2
MCAD_NO_VIS
 70
     0
  0
APPID
  5
47
330
9
100
AcDbSymbolTableRecord
100
AcDbRegAppTableRecord
  2
ACAD_TEMP_GRAPHIC
 70
     0
  0
APPID
  5
58
330
9
100
AcDbSymbolTableRecord
100
AcDbRegAppTableRecord
  2
ACATTRIBSERVICES
 70
     0
  0
APPID
  5
EE
330
9
100
AcDbSymbolTableRecord
100
AcDbRegAppTableRecord
  2
AD_DRAW
 70
     0
  0
APPID
  5
10C
330
9
100
AcDbSymbolTableRecord
100
AcDbRegAppTableRecord
  2
DESIGNERASSEMBLIES
 70
     0
  0
APPID
  5
111
330
9
100
AcDbSymbolTableRecord
100
AcDbRegAppTableRecord
  2
ACADM_DIM_EDIT
 70
     0
  0
APPID
  5
112
330
9
100
AcDbSymbolTableRecord
100
AcDbRegAppTableRecord
  2
AMDT_DM_ADJ
 70
     0
  0
APPID
  5
243
330
9
100
AcDbSymbolTableRecord
100
AcDbRegAppTableRecord
  2
ACAD_DSTYLE_DIMTEXT_FILL
 70
     0
  0
APPID
  5
413
330
9
100
AcDbSymbolTableRecord
100
AcDbRegAppTableRecord
  2
ACAD_PSEXT
 70
     0
  0
APPID
  5
866
330
9
100
AcDbSymbolTableRecord
100
AcDbRegAppTableRecord
  2
GENIUS_GENREC_14
 70
     0
  0
APPID
  5
867
330
9
100
AcDbSymbolTableRecord
100
AcDbRegAppTableRecord
  2
GENIUS_GENODEF_13
 70
     0
  0
APPID
  5
868
330
9
100
AcDbSymbolTableRecord
100
AcDbRegAppTableRecord
  2
GENIUS_GENOBJ-N-REC_13
 70
     0
  0
APPID
  5
869
330
9
100
AcDbSymbolTableRecord
100
AcDbRegAppTableRecord
  2
GENIUS_GENOBJ-N-HTC_13
 70
     0
  0
APPID
  5
86A
330
9
100
AcDbSymbolTableRecord
100
AcDbRegAppTableRecord
  2
GENIUS_GENHATCH_13
 70
     0
  0
APPID
  5
8D0
330
9
100
AcDbSymbolTableRecord
100
AcDbRegAppTableRecord
  2
GENIUS_GENCFG_13
 70
     0
  0
APPID
  5
8D1
330
9
100
AcDbSymbolTableRecord
100
AcDbRegAppTableRecord
  2
GENIUS_GENCFG0_13
 70
     0
  0
APPID
  5
8D2
330
9
100
AcDbSymbolTableRecord
100
AcDbRegAppTableRecord
  2
GENIUS_GENCFG1_13
 70
     0
  0
APPID
  5
8D3
330
9
100
AcDbSymbolTableRecord
100
AcDbRegAppTableRecord
  2
GENIUS_GENCFG2_13
 70
     0
  0
APPID
  5
8D4
330
9
100
AcDbSymbolTableRecord
100
AcDbRegAppTableRecord
  2
GENIUS_GENCFG3_13
 70
     0
  0
APPID
  5
8D5
330
9
100
AcDbSymbolTableRecord
100
AcDbRegAppTableRecord
  2
GENIUS_GENCFG4_13
 70
     0
  0
APPID
  5
8D6
330
9
100
AcDbSymbolTableRecord
100
AcDbRegAppTableRecord
  2
GENIUS_GENBLLY_14
 70
     0
  0
APPID
  5
8D7
330
9
100
AcDbSymbolTableRecord
100
AcDbRegAppTableRecord
  2
GENIUS_GENOBJ-N-CEN_13
 70
     0
  0
APPID
  5
8E5
330
9
100
AcDbSymbolTableRecord
100
AcDbRegAppTableRecord
  2
GENIUS_GENTRA_14
 70
     0
  0
APPID
  5
8F0
330
9
100
AcDbSymbolTableRecord
100
AcDbRegAppTableRecord
  2
GENIUS_GENOENT_13
 70
     0
  0
APPID
  5
8F1
330
9
100
AcDbSymbolTableRecord
100
AcDbRegAppTableRecord
  2
GENIUS_GENOBJ-N-TIT_13
 70
     0
  0
APPID
  5
8F2
330
9
100
AcDbSymbolTableRecord
100
AcDbRegAppTableRecord
  2
GENIUS_GENOLIS_13
 70
     0
  0
APPID
  5
8F3
330
9
100
AcDbSymbolTableRecord
100
AcDbRegAppTableRecord
  2
GENIUS_GENTITLE_13
 70
     0
  0
APPID
  5
8F4
330
9
100
AcDbSymbolTableRecord
100
AcDbRegAppTableRecord
  2
GENIUS_GENOREF_13
 70
     0
  0
APPID
  5
8FB
330
9
100
AcDbSymbolTableRecord
100
AcDbRegAppTableRecord
  2
GENIUS_GENSCREG_15
 70
     0
  0
APPID
  5
8FC
330
9
100
AcDbSymbolTableRecord
100
AcDbRegAppTableRecord
  2
GENIUS_GENOBJ-N-SDF_13
 70
     0
  0
APPID
  5
DCD
330
9
100
AcDbSymbolTableRecord
100
AcDbRegAppTableRecord
  2
AcAecLayerStandard
 70
     0
  0
APPID
  5
F52
330
9
100
AcDbSymbolTableRecord
100
AcDbRegAppTableRecord
  2
BASE_TYPE
 70
     0
  0
APPID
  5
10F9
330
9
100
AcDbSymbolTableRecord
100
AcDbRegAppTableRecord
  2
GENIUS_GENOBJ-N-CRS_13
 70
     0
  0
APPID
  5
1138
330
9
100
AcDbSymbolTableRecord
100
AcDbRegAppTableRecord
  2
GENIUS_GENOBJ-N-RSBK_13
 70
     0
  0
APPID
  5
1139
330
9
100
AcDbSymbolTableRecord
100
AcDbRegAppTableRecord
  2
GENIUS_GENOBJ-N-LIB_13
 70
     0
  0
APPID
  5
113A
330
9
100
AcDbSymbolTableRecord
100
AcDbRegAppTableRecord
  2
GENIUS_GENSCALE_13
 70
     0
  0
APPID
  5
1E1F
330
9
100
AcDbSymbolTableRecord
100
AcDbRegAppTableRecord
  2
GENIUS_GENDTOL_13
 70
     0
  0
APPID
  5
65E6
330
9
100
AcDbSymbolTableRecord
100
AcDbRegAppTableRecord
  2
GENIUS_GENCEN_19
 70
     0
  0
APPID
  5
13374
330
9
100
AcDbSymbolTableRecord
100
AcDbRegAppTableRecord
  2
ACAD_DIMASSOC_DIMLFAC
 70
     0
  0
APPID
  5
13375
330
9
100
AcDbSymbolTableRecord
100
AcDbRegAppTableRecord
  2
ACAD_DIMASSOC_CALC_DIMLFAC
 70
     0
  0
APPID
  5
13376
330
9
100
AcDbSymbolTableRecord
100
AcDbRegAppTableRecord
  2
ACAD_DIMASSOC_OVERRIDDEN_DIMLFAC
 70
     0
  0
APPID
  5
14CD8
330
9
100
AcDbSymbolTableRecord
100
AcDbRegAppTableRecord
  2
GENIUS_GENFIL_13
 70
     0
  0
APPID
  5
14CD9
330
9
100
AcDbSymbolTableRecord
100
AcDbRegAppTableRecord
  2
GENIUS_GENOBJ-N-CHA_13
 70
     0
  0
APPID
  5
14CDA
330
9
100
AcDbSymbolTableRecord
100
AcDbRegAppTableRecord
  2
GENIUS_GENOBJ-N-ZOO_13
 70
     0
  0
APPID
  5
14CDB
330
9
100
AcDbSymbolTableRecord
100
AcDbRegAppTableRecord
  2
GENIUS_GENZOO_17
 70
     0
  0
APPID
  5
1728E
330
9
100
AcDbSymbolTableRecord
100
AcDbRegAppTableRecord
  2
GENIUS_GENOBJ-N-FIL_13
 70
     0
  0
ENDTAB
  0
TABLE
  2
DIMSTYLE
  5
A
330
0
100
AcDbSymbolTable
 70
    17
100
AcDbDimStyleTable
 71
     2
340
216
340
81
  0
DIMSTYLE
105
81
330
A
100
AcDbSymbolTableRecord
100
AcDbDimStyleTableRecord
  2
AM_ISO
 70
     0
  4
"
 41
2.5
 42
1.0
 43
10.0
 44
1.0
 47
0.1
 48
0.1
 73
     0
 74
     0
 77
     1
 78
     8
 79
     2
140
3.5
141
0.0
143
0.0393701
146
0.71
147
1.5
172
     1
176
   256
177
   256
178
     2
271
     2
272
     3
274
     4
283
     0
284
     8
340
11
371
    -1
372
    -1
  0
DIMSTYLE
105
82
330
A
100
AcDbSymbolTableRecord
100
AcDbDimStyleTableRecord
  2
AM_ISO$3
 70
     0
  4
"
 41
2.5
 42
1.0
 43
10.0
 44
1.0
 47
0.1
 48
0.1
 73
     0
 77
     1
 78
     8
 79
     2
140
3.5
141
0.0
143
0.0393701
146
0.71
147
1.5
176
   256
177
   256
178
     2
271
     2
272
     3
274
     4
283
     0
284
     8
288
     1
289
     0
340
11
371
    -1
372
    -1
  0
DIMSTYLE
105
83
330
A
100
AcDbSymbolTableRecord
100
AcDbDimStyleTableRecord
  2
AM_ISO$4
 70
     0
  4
"
 41
2.5
 42
1.0
 43
10.0
 44
1.0
 47
0.1
 48
0.1
 73
     0
 77
     1
 78
     8
 79
     2
140
3.5
141
0.0
143
0.0393701
146
0.71
147
1.5
176
   256
177
   256
178
     2
271
     2
272
     3
274
     4
283
     0
284
     8
288
     1
289
     0
340
11
371
    -1
372
    -1
  0
DIMSTYLE
105
84
330
A
100
AcDbSymbolTableRecord
100
AcDbDimStyleTableRecord
  2
AM_ISO$6
 70
     0
  4
"
 41
2.5
 42
1.0
 43
10.0
 44
1.0
 47
0.1
 48
0.1
 73
     0
 74
     0
 78
     8
 79
     2
140
3.5
141
0.0
143
0.0393701
146
0.71
147
1.5
172
     1
176
   256
177
   256
178
     2
271
     2
272
     3
274
     4
283
     0
284
     8
340
11
371
    -1
372
    -1
  0
DIMSTYLE
105
85
330
A
100
AcDbSymbolTableRecord
100
AcDbDimStyleTableRecord
  2
AM_ISO$7
 70
     0
  4
"
 41
2.5
 42
1.0
 43
10.0
 44
1.0
 47
0.1
 48
0.1
 73
     0
 74
     0
 77
     1
 78
     8
 79
     2
140
5.0
141
0.0
143
0.0393701
146
0.71
147
1.5
172
     1
176
   256
177
   256
178
     2
271
     2
272
     3
274
     4
283
     0
284
     8
340
11
371
    -1
372
    -1
  0
DIMSTYLE
105
86
330
A
100
AcDbSymbolTableRecord
100
AcDbDimStyleTableRecord
  2
AM_ISO$SF
 70
     0
  4
"
 41
2.5
 42
1.0
 43
10.0
 44
1.0
 47
0.1
 48
0.1
 73
     0
 74
     0
 75
     1
 76
     1
 77
     1
 78
     8
 79
     2
140
3.5
141
0.0
143
0.0393701
146
0.71
147
1.5
172
     1
176
   256
177
   256
178
     2
271
     2
272
     3
274
     4
283
     0
284
     8
340
11
371
    -1
372
    -1
  0
DIMSTYLE
105
8B
330
A
100
AcDbSymbolTableRecord
100
AcDbDimStyleTableRecord
  2
AM_ISO$SH
 70
     0
  4
"
 41
2.5
 42
1.0
 43
10.0
 44
1.0
 47
0.1
 48
0.1
 73
     0
 74
     0
 75
     1
 76
     1
 77
     1
 78
     8
 79
     2
140
3.5
141
0.0
143
0.0393701
144
2.0
146
0.71
147
1.5
172
     1
173
     1
176
   256
177
   256
178
     2
271
     2
272
     3
274
     4
283
     0
284
     8
340
11
343
87
371
    -1
372
    -1
  0
DIMSTYLE
105
216
330
A
100
AcDbSymbolTableRecord
100
AcDbDimStyleTableRecord
  2
AM_JIS
 70
     0
  4
"
 41
2.5
 42
0.5
 43
1.0
 44
1.0
 47
0.1
 48
0.1
 73
     0
 74
     0
 77
     3
 78
     8
 79
     2
140
3.799999999999999
141
0.0
143
0.0393701
146
0.71
147
1.5
172
     1
176
   256
177
   256
178
     2
271
     2
272
     2
275
     1
283
     0
284
     8
340
11
341
217
342
217
371
    -1
372
    -1
  0
DIMSTYLE
105
21D
330
A
100
AcDbSymbolTableRecord
100
AcDbDimStyleTableRecord
  2
AM_JIS$3
 70
     0
  4
"
 41
2.5
 42
0.5
 43
1.0
 44
1.0
 47
0.1
 48
0.1
 73
     0
 77
     3
 78
     8
 79
     2
140
3.799999999999999
141
0.0
143
0.0393701
146
0.71
147
1.5
176
   256
177
   256
178
     2
271
     2
272
     2
275
     1
283
     0
284
     8
288
     1
289
     0
340
11
341
217
342
217
371
    -1
372
    -1
  0
DIMSTYLE
105
21E
330
A
100
AcDbSymbolTableRecord
100
AcDbDimStyleTableRecord
  2
AM_JIS$4
 70
     0
  4
"
 41
2.5
 42
0.5
 43
1.0
 44
1.0
 47
0.1
 48
0.1
 73
     0
 77
     3
 78
     8
 79
     2
140
3.799999999999999
141
0.0
143
0.0393701
146
0.71
147
1.5
176
   256
177
   256
178
     2
271
     2
272
     2
275
     1
283
     0
284
     8
288
     1
289
     0
340
11
341
217
342
217
371
    -1
372
    -1
  0
DIMSTYLE
105
21F
330
A
100
AcDbSymbolTableRecord
100
AcDbDimStyleTableRecord
  2
AM_JIS$6
 70
     0
  4
"
 41
2.5
 42
0.5
 43
1.0
 44
1.0
 47
0.1
 48
0.1
 73
     0
 74
     0
 78
     8
 79
     2
140
3.799999999999999
141
0.0
143
0.0393701
146
0.71
147
1.5
172
     1
176
   256
177
   256
178
     2
271
     2
272
     2
275
     1
283
     0
284
     8
340
11
341
217
342
217
371
    -1
372
    -1
  0
DIMSTYLE
105
220
330
A
100
AcDbSymbolTableRecord
100
AcDbDimStyleTableRecord
  2
AM_JIS$7
 70
     0
  4
"
 41
2.5
 42
0.5
 43
1.0
 44
1.0
 47
0.1
 48
0.1
 73
     0
 74
     0
 77
     3
 78
     8
 79
     2
140
5.0
141
0.0
143
0.0393701
146
0.71
147
1.5
172
     1
176
   256
177
   256
178
     2
271
     2
272
     2
275
     1
283
     0
284
     8
340
11
341
217
342
217
371
    -1
372
    -1
  0
DIMSTYLE
105
221
330
A
100
AcDbSymbolTableRecord
100
AcDbDimStyleTableRecord
  2
AM_JIS$SF
 70
     0
  4
"
 41
2.5
 42
1.0
 43
10.0
 44
1.0
 47
0.1
 48
0.1
 73
     0
 74
     0
 75
     1
 76
     1
 77
     3
 78
     8
 79
     2
140
3.5
141
0.0
143
0.0393701
146
0.71
147
1.5
172
     1
176
   256
177
   256
178
     2
271
     2
272
     3
274
     4
283
     0
284
     8
340
11
341
217
342
217
343
217
344
217
371
    -1
372
    -1
  0
DIMSTYLE
105
222
330
A
100
AcDbSymbolTableRecord
100
AcDbDimStyleTableRecord
  2
AM_JIS$SH
 70
     0
  4
"
 41
2.5
 42
1.0
 43
10.0
 44
1.0
 47
0.1
 48
0.1
 73
     0
 74
     0
 75
     1
 76
     1
 77
     3
 78
     8
 79
     2
140
3.5
141
0.0
143
0.0393701
144
2.0
146
0.71
147
1.5
172
     1
173
     1
176
   256
177
   256
178
     2
271
     2
272
     3
274
     4
283
     0
284
     8
340
11
341
217
342
217
343
87
344
217
371
    -1
372
    -1
  0
DIMSTYLE
105
865
102
{ACAD_REACTORS
330
16D4E
330
16D52
330
16D5B
330
16D5E
330
16D61
330
16D64
330
16D68
330
17537
330
1753A
102
}
330
A
100
AcDbSymbolTableRecord
100
AcDbDimStyleTableRecord
  2
AM_JIS$0
 70
     0
  4
"
 41
2.5
 42
0.0
 43
1.0
 44
1.0
 48
0.000000001
 73
     0
 74
     0
 77
     3
 78
     1
 79
     2
140
3.799999999999999
141
0.0
143
0.0393701
146
0.71
147
1.5
172
     1
176
   256
177
   256
178
     2
179
     1
271
     3
272
     3
275
     1
283
     0
284
     8
340
11
341
217
342
217
371
    -1
372
    -1
  0
DIMSTYLE
105
8C8
330
A
100
AcDbSymbolTableRecord
100
AcDbDimStyleTableRecord
  2
STANDARD
 70
     0
340
11
  0
DIMSTYLE
105
A82D
102
{ACAD_REACTORS
330
1769C
102
}
330
A
100
AcDbSymbolTableRecord
100
AcDbDimStyleTableRecord
  2
AM_JIS$2
 70
     0
  4
"
 41
2.5
 42
0.0
 43
10.0
 44
1.0
 47
0.1
 48
0.1
 73
     0
 74
     0
 77
     3
 78
     1
 79
     2
140
3.799999999999999
141
0.0
143
0.0393701
146
0.71
147
1.5
172
     1
176
   256
177
   256
178
     2
179
     1
271
     2
272
     2
275
     1
283
     0
284
     8
340
11
341
217
342
217
371
    -1
372
    -1
  0
ENDTAB
  0
TABLE
  2
BLOCK_RECORD
  5
1
330
0
100
AcDbSymbolTable
 70
    15
  0
BLOCK_RECORD
  5
1F
102
{ACAD_XDICTIONARY
360
8F
102
}
330
1
100
AcDbSymbolTableRecord
100
AcDbBlockTableRecord
  2
*Model_Space
340
22
  0
BLOCK_RECORD
  5
1B
330
1
100
AcDbSymbolTableRecord
100
AcDbBlockTableRecord
  2
*Paper_Space
340
1E
  0
BLOCK_RECORD
  5
23
330
1
100
AcDbSymbolTableRecord
100
AcDbBlockTableRecord
  2
*Paper_Space0
340
26
  0
BLOCK_RECORD
  5
87
330
1
100
AcDbSymbolTableRecord
100
AcDbBlockTableRecord
  2
GENAXEH
340
0
  0
BLOCK_RECORD
  5
217
330
1
100
AcDbSymbolTableRecord
100
AcDbBlockTableRecord
  2
_Open30
340
0
102
{BLKREFS
331
175A1
331
175A2
331
17732
331
17733
331
1773B
331
1773C
331
17746
331
17747
331
1774F
331
17750
331
17758
331
17759
331
17761
331
17762
331
17771
331
17772
331
1777A
331
1777B
331
17793
331
17794
331
1779D
102
}
  0
BLOCK_RECORD
  5
16D7C
330
1
100
AcDbSymbolTableRecord
100
AcDbBlockTableRecord
  2
*D4
340
0
  0
BLOCK_RECORD
  5
16D99
330
1
100
AcDbSymbolTableRecord
100
AcDbBlockTableRecord
  2
*D5
340
0
  0
BLOCK_RECORD
  5
16DB7
330
1
100
AcDbSymbolTableRecord
100
AcDbBlockTableRecord
  2
*D6
340
0
  0
BLOCK_RECORD
  5
16DC3
330
1
100
AcDbSymbolTableRecord
100
AcDbBlockTableRecord
  2
*D7
340
0
  0
BLOCK_RECORD
  5
16DCD
330
1
100
AcDbSymbolTableRecord
100
AcDbBlockTableRecord
  2
*D8
340
0
  0
BLOCK_RECORD
  5
16DD7
330
1
100
AcDbSymbolTableRecord
100
AcDbBlockTableRecord
  2
*D9
340
0
  0
BLOCK_RECORD
  5
16DEA
330
1
100
AcDbSymbolTableRecord
100
AcDbBlockTableRecord
  2
*D10
340
0
  0
BLOCK_RECORD
  5
1753D
330
1
100
AcDbSymbolTableRecord
100
AcDbBlockTableRecord
  2
*D12
340
0
  0
BLOCK_RECORD
  5
17547
330
1
100
AcDbSymbolTableRecord
100
AcDbBlockTableRecord
  2
*D13
340
0
  0
BLOCK_RECORD
  5
1769D
330
1
100
AcDbSymbolTableRecord
100
AcDbBlockTableRecord
  2
*D14
340
0
  0
ENDTAB
  0
ENDSEC
  0
SECTION
  2
BLOCKS
  0
BLOCK
  5
20
330
1F
100
AcDbEntity
  8
0
100
AcDbBlockBegin
  2
*Model_Space
 70
     0
 10
0.0
 20
0.0
 30
0.0
  3
*Model_Space
  1

  0
ENDBLK
  5
21
330
1F
100
AcDbEntity
  8
0
100
AcDbBlockEnd
  0
BLOCK
  5
1C
330
1B
100
AcDbEntity
 67
     1
  8
0
100
AcDbBlockBegin
  2
*Paper_Space
 70
     0
 10
0.0
 20
0.0
 30
0.0
  3
*Paper_Space
  1

  0
ENDBLK
  5
1D
330
1B
100
AcDbEntity
 67
     1
  8
0
100
AcDbBlockEnd
  0
BLOCK
  5
24
330
23
100
AcDbEntity
  8
0
100
AcDbBlockBegin
  2
*Paper_Space0
 70
     0
 10
0.0
 20
0.0
 30
0.0
  3
*Paper_Space0
  1

  0
ENDBLK
  5
25
330
23
100
AcDbEntity
  8
0
100
AcDbBlockEnd
  0
BLOCK
  5
89
330
87
100
AcDbEntity
  8
0
100
AcDbBlockBegin
  2
GENAXEH
 70
     0
 10
0.0
 20
0.0
 30
0.0
  3
GENAXEH
  1

  0
LINE
  5
88
330
87
100
AcDbEntity
  8
0
100
AcDbLine
 10
-1.0
 20
0.0
 30
0.0
 11
1.0
 21
0.0
 31
0.0
  0
ENDBLK
  5
8A
330
87
100
AcDbEntity
  8
0
100
AcDbBlockEnd
  0
BLOCK
  5
21B
330
217
100
AcDbEntity
  8
0
100
AcDbBlockBegin
  2
_Open30
 70
     0
 10
0.0
 20
0.0
 30
0.0
  3
_Open30
  1

  0
LINE
  5
218
330
217
100
AcDbEntity
  8
0
  6
ByBlock
 62
     0
370
    -2
100
AcDbLine
 10
-1.0
 20
0.26794919
 30
0.0
 11
0.0
 21
0.0
 31
0.0
  0
LINE
  5
219
330
217
100
AcDbEntity
  8
0
  6
ByBlock
 62
     0
370
    -2
100
AcDbLine
 10
0.0
 20
0.0
 30
0.0
 11
-1.0
 21
-0.26794919
 31
0.0
  0
LINE
  5
21A
330
217
100
AcDbEntity
  8
0
  6
ByBlock
 62
     0
370
    -2
100
AcDbLine
 10
0.0
 20
0.0
 30
0.0
 11
-1.0
 21
0.0
 31
0.0
  0
ENDBLK
  5
21C
330
217
100
AcDbEntity
  8
0
100
AcDbBlockEnd
  0
BLOCK
  5
16DFE
330
16D7C
100
AcDbEntity
  8
0
100
AcDbBlockBegin
  2
*D4
 70
     1
 10
0.0
 20
0.0
 30
0.0
  3
*D4
  1

  0
LINE
  5
1772F
330
16D7C
100
AcDbEntity
  8
AM_5
100
AcDbLine
 10
-50.02100765551222
 20
27.85302854141674
 30
0.0
 11
-50.02100765551222
 21
70.9778737062793
 31
0.0
  0
LINE
  5
17730
330
16D7C
100
AcDbEntity
  8
AM_5
100
AcDbLine
 10
0.0
 20
40.0
 30
0.0
 11
0.0000000000000019
 21
70.9778737062793
 31
0.0
  0
LINE
  5
17731
330
16D7C
100
AcDbEntity
  8
AM_5
100
AcDbLine
 10
-47.52100765551221
 20
69.97787370627929
 30
0.0
 11
-2.499999999999998
 21
69.97787370627929
 31
0.0
  0
INSERT
  5
17732
330
16D7C
100
AcDbEntity
  8
AM_5
100
AcDbBlockReference
  2
_Open30
 10
-50.02100765551222
 20
69.97787370627929
 30
0.0
 41
2.5
 42
2.5
 43
2.5
 50
180.0
  0
INSERT
  5
17733
330
16D7C
100
AcDbEntity
  8
AM_5
100
AcDbBlockReference
  2
_Open30
 10
0.0000000000000018
 20
69.97787370627929
 30
0.0
 41
2.5
 42
2.5
 43
2.5
  0
MTEXT
  5
17734
330
16D7C
100
AcDbEntity
  8
AM_5
 62
     2
100
AcDbMText
 10
-25.01050382775611
 20
73.3778737062793
 30
0.0
 40
3.799999999999999
 41
0.0
 71
     5
 72
     1
  1
50.0
 73
     1
 44
1.0
1001
ACAD
1000
MTEXTBEGIN
1070
    73
1070
     1
1070
    44
1040
1.0
1070
    74
1070
     0
1000
MTEXTEND
  0
POINT
  5
17735
330
16D7C
100
AcDbEntity
  8
Defpoints
 62
     0
100
AcDbPoint
 10
-50.02100765551222
 20
27.85302854141674
 30
0.0
  0
POINT
  5
17736
330
16D7C
100
AcDbEntity
  8
Defpoints
 62
     0
100
AcDbPoint
 10
0.0
 20
40.0
 30
0.0
  0
POINT
  5
17737
330
16D7C
100
AcDbEntity
  8
Defpoints
 62
     0
100
AcDbPoint
 10
0.0000000000000018
 20
69.97787370627929
 30
0.0
  0
ENDBLK
  5
16DFF
330
16D7C
100
AcDbEntity
  8
0
100
AcDbBlockEnd
  0
BLOCK
  5
16E02
330
16D99
100
AcDbEntity
  8
0
100
AcDbBlockBegin
  2
*D5
 70
     1
 10
0.0
 20
0.0
 30
0.0
  3
*D5
  1

  0
LINE
  5
17738
330
16D99
100
AcDbEntity
  8
AM_5
100
AcDbLine
 10
-48.02100765551222
 20
30.0
 30
0.0
 11
-79.37093350694249
 21
30.00000000000001
 31
0.0
  0
LINE
  5
17739
330
16D99
100
AcDbEntity
  8
AM_5
100
AcDbLine
 10
-48.02100765551222
 20
-30.0
 30
0.0
 11
-79.37093350694249
 21
-29.99999999999999
 31
0.0
  0
LINE
  5
1773A
330
16D99
100
AcDbEntity
  8
AM_5
100
AcDbLine
 10
-78.37093350694249
 20
27.50000000000001
 30
0.0
 11
-78.37093350694249
 21
-27.49999999999999
 31
0.0
  0
INSERT
  5
1773B
330
16D99
100
AcDbEntity
  8
AM_5
100
AcDbBlockReference
  2
_Open30
 10
-78.37093350694249
 20
30.00000000000001
 30
0.0
 41
2.5
 42
2.5
 43
2.5
 50
90.0
  0
INSERT
  5
1773C
330
16D99
100
AcDbEntity
  8
AM_5
100
AcDbBlockReference
  2
_Open30
 10
-78.37093350694249
 20
-29.99999999999999
 30
0.0
 41
2.5
 42
2.5
 43
2.5
 50
270.0
  0
MTEXT
  5
1773D
330
16D99
100
AcDbEntity
  8
AM_5
 62
     2
100
AcDbMText
 10
-81.77093350694249
 20
0.1132415095053152
 30
0.0
 40
3.799999999999999
 41
0.0
 71
     5
 72
     1
  1
%%c60
 11
0.0000000000000001
 21
1.0
 31
0.0
 73
     1
 44
1.0
1001
ACAD
1000
MTEXTBEGIN
1070
    73
1070
     1
1070
    44
1040
1.0
1070
    74
1070
     0
1000
MTEXTEND
  0
POINT
  5
1773E
330
16D99
100
AcDbEntity
  8
Defpoints
 62
     0
100
AcDbPoint
 10
-48.02100765551222
 20
30.0
 30
0.0
  0
POINT
  5
1773F
330
16D99
100
AcDbEntity
  8
Defpoints
 62
     0
100
AcDbPoint
 10
-48.02100765551222
 20
-30.0
 30
0.0
  0
POINT
  5
17740
330
16D99
100
AcDbEntity
  8
Defpoints
 62
     0
100
AcDbPoint
 10
-78.37093350694249
 20
-29.99999999999999
 30
0.0
  0
ENDBLK
  5
16E03
330
16D99
100
AcDbEntity
  8
0
100
AcDbBlockEnd
  0
BLOCK
  5
16E08
330
16DB7
100
AcDbEntity
  8
0
100
AcDbBlockBegin
  2
*D6
 70
     1
 10
0.0
 20
0.0
 30
0.0
  3
*D6
  1

  0
LINE
  5
17741
330
16DB7
100
AcDbEntity
  8
AM_5
100
AcDbLine
 10
-44.02100765551222
 20
-4.764999999999872
 30
0.0
 11
-44.02100765551222
 21
-45.41949696396727
 31
0.0
  0
LINE
  5
17742
330
16DB7
100
AcDbEntity
  8
AM_5
100
AcDbLine
 10
-50.02100765551245
 20
-25.64272017355825
 30
0.0
 11
-50.02100765551245
 21
-45.41949696396727
 31
0.0
  0
LINE
  5
17743
330
16DB7
100
AcDbEntity
  8
AM_5
100
AcDbLine
 10
-41.52100765551222
 20
-44.41949696396727
 30
0.0
 11
-39.02100765551222
 21
-44.41949696396727
 31
0.0
  0
LINE
  5
17744
330
16DB7
100
AcDbEntity
  8
AM_5
100
AcDbLine
 10
-52.52100765551245
 20
-44.41949696396727
 30
0.0
 11
-55.02100765551245
 21
-44.41949696396727
 31
0.0
  0
LINE
  5
17745
330
16DB7
100
AcDbEntity
  8
AM_5
100
AcDbLine
 10
-44.02100765551222
 20
-44.41949696396727
 30
0.0
 11
-50.02100765551245
 21
-44.41949696396727
 31
0.0
  0
INSERT
  5
17746
330
16DB7
100
AcDbEntity
  8
AM_5
100
AcDbBlockReference
  2
_Open30
 10
-44.02100765551222
 20
-44.41949696396727
 30
0.0
 41
2.5
 42
2.5
 43
2.5
 50
180.0
  0
INSERT
  5
17747
330
16DB7
100
AcDbEntity
  8
AM_5
100
AcDbBlockReference
  2
_Open30
 10
-50.02100765551245
 20
-44.41949696396727
 30
0.0
 41
2.5
 42
2.5
 43
2.5
  0
MTEXT
  5
17748
330
16DB7
100
AcDbEntity
  8
AM_5
 62
     2
100
AcDbMText
 10
-47.02100765551233
 20
-41.01949696396728
 30
0.0
 40
3.799999999999999
 41
0.0
 71
     5
 72
     1
  1
6
 73
     1
 44
1.0
1001
ACAD
1000
MTEXTBEGIN
1070
    73
1070
     1
1070
    44
1040
1.0
1070
    74
1070
     0
1000
MTEXTEND
  0
POINT
  5
17749
330
16DB7
100
AcDbEntity
  8
Defpoints
 62
     0
100
AcDbPoint
 10
-44.02100765551222
 20
-4.764999999999872
 30
0.0
  0
POINT
  5
1774A
330
16DB7
100
AcDbEntity
  8
Defpoints
 62
     0
100
AcDbPoint
 10
-50.02100765551245
 20
-25.64272017355825
 30
0.0
  0
POINT
  5
1774B
330
16DB7
100
AcDbEntity
  8
Defpoints
 62
     0
100
AcDbPoint
 10
-50.02100765551245
 20
-44.41949696396727
 30
0.0
  0
ENDBLK
  5
16E09
330
16DB7
100
AcDbEntity
  8
0
100
AcDbBlockEnd
  0
BLOCK
  5
16E0A
330
16DC3
100
AcDbEntity
  8
0
100
AcDbBlockBegin
  2
*D7
 70
     1
 10
0.0
 20
0.0
 30
0.0
  3
*D7
  1

  0
LINE
  5
1774C
330
16DC3
100
AcDbEntity
  8
AM_5
100
AcDbLine
 10
-25.02100765551222
 20
-13.40000000000009
 30
0.0
 11
-25.02100765551223
 21
-56.23922842666934
 31
0.0
  0
LINE
  5
1774D
330
16DC3
100
AcDbEntity
  8
AM_5
100
AcDbLine
 10
-50.02100765551245
 20
-25.72445830412744
 30
0.0
 11
-50.02100765551245
 21
-56.23922842666934
 31
0.0
  0
LINE
  5
1774E
330
16DC3
100
AcDbEntity
  8
AM_5
100
AcDbLine
 10
-27.52100765551223
 20
-55.23922842666934
 30
0.0
 11
-47.52100765551245
 21
-55.23922842666934
 31
0.0
  0
INSERT
  5
1774F
330
16DC3
100
AcDbEntity
  8
AM_5
100
AcDbBlockReference
  2
_Open30
 10
-25.02100765551223
 20
-55.23922842666934
 30
0.0
 41
2.5
 42
2.5
 43
2.5
  0
INSERT
  5
17750
330
16DC3
100
AcDbEntity
  8
AM_5
100
AcDbBlockReference
  2
_Open30
 10
-50.02100765551245
 20
-55.23922842666934
 30
0.0
 41
2.5
 42
2.5
 43
2.5
 50
180.0
  0
MTEXT
  5
17751
330
16DC3
100
AcDbEntity
  8
AM_5
 62
     2
100
AcDbMText
 10
-37.52100765551233
 20
-51.83885441092131
 30
0.0
 40
3.799999999999999
 41
0.0
 71
     5
 72
     1
  1
25
 73
     1
 44
1.0
1001
ACAD
1000
MTEXTBEGIN
1070
    73
1070
     1
1070
    44
1040
1.0
1070
    74
1070
     0
1000
MTEXTEND
  0
POINT
  5
17752
330
16DC3
100
AcDbEntity
  8
Defpoints
 62
     0
100
AcDbPoint
 10
-25.02100765551222
 20
-13.40000000000009
 30
0.0
  0
POINT
  5
17753
330
16DC3
100
AcDbEntity
  8
Defpoints
 62
     0
100
AcDbPoint
 10
-50.02100765551245
 20
-25.72445830412744
 30
0.0
  0
POINT
  5
17754
330
16DC3
100
AcDbEntity
  8
Defpoints
 62
     0
100
AcDbPoint
 10
-50.02100765551245
 20
-55.23922842666934
 30
0.0
  0
ENDBLK
  5
16E0B
330
16DC3
100
AcDbEntity
  8
0
100
AcDbBlockEnd
  0
BLOCK
  5
16E0C
330
16DCD
100
AcDbEntity
  8
0
100
AcDbBlockBegin
  2
*D8
 70
     1
 10
0.0
 20
0.0
 30
0.0
  3
*D8
  1

  0
LINE
  5
17755
330
16DCD
100
AcDbEntity
  8
AM_5
100
AcDbLine
 10
-19.02100765551245
 20
-14.76597850774647
 30
0.0
 11
-19.02100765551245
 21
-67.33214575945726
 31
0.0
  0
LINE
  5
17756
330
16DCD
100
AcDbEntity
  8
AM_5
100
AcDbLine
 10
-50.02100765551245
 20
-25.50554837781351
 30
0.0
 11
-50.02100765551245
 21
-67.33214575945726
 31
0.0
  0
LINE
  5
17757
330
16DCD
100
AcDbEntity
  8
AM_5
100
AcDbLine
 10
-21.52100765551245
 20
-66.33214575945726
 30
0.0
 11
-47.52100765551245
 21
-66.33214575945726
 31
0.0
  0
INSERT
  5
17758
330
16DCD
100
AcDbEntity
  8
AM_5
100
AcDbBlockReference
  2
_Open30
 10
-19.02100765551245
 20
-66.33214575945726
 30
0.0
 41
2.5
 42
2.5
 43
2.5
  0
INSERT
  5
17759
330
16DCD
100
AcDbEntity
  8
AM_5
100
AcDbBlockReference
  2
_Open30
 10
-50.02100765551245
 20
-66.33214575945726
 30
0.0
 41
2.5
 42
2.5
 43
2.5
 50
180.0
  0
MTEXT
  5
1775A
330
16DCD
100
AcDbEntity
  8
AM_5
 62
     2
100
AcDbMText
 10
-34.52100765551245
 20
-62.93214575945726
 30
0.0
 40
3.799999999999999
 41
0.0
 71
     5
 72
     1
  1
31
 73
     1
 44
1.0
1001
ACAD
1000
MTEXTBEGIN
1070
    73
1070
     1
1070
    44
1040
1.0
1070
    74
1070
     0
1000
MTEXTEND
  0
POINT
  5
1775B
330
16DCD
100
AcDbEntity
  8
Defpoints
 62
     0
100
AcDbPoint
 10
-19.02100765551245
 20
-14.76597850774647
 30
0.0
  0
POINT
  5
1775C
330
16DCD
100
AcDbEntity
  8
Defpoints
 62
     0
100
AcDbPoint
 10
-50.02100765551245
 20
-25.50554837781351
 30
0.0
  0
POINT
  5
1775D
330
16DCD
100
AcDbEntity
  8
Defpoints
 62
     0
100
AcDbPoint
 10
-50.02100765551245
 20
-66.33214575945726
 30
0.0
  0
ENDBLK
  5
16E0D
330
16DCD
100
AcDbEntity
  8
0
100
AcDbBlockEnd
  0
BLOCK
  5
16E0E
330
16DD7
100
AcDbEntity
  8
0
100
AcDbBlockBegin
  2
*D9
 70
     1
 10
0.0
 20
0.0
 30
0.0
  3
*D9
  1

  0
LINE
  5
1775E
330
16DD7
100
AcDbEntity
  8
AM_5
100
AcDbLine
 10
-19.02100765551222
 20
6.5
 30
0.0
 11
4.620822283653071
 21
6.499999999999992
 31
0.0
  0
LINE
  5
1775F
330
16DD7
100
AcDbEntity
  8
AM_5
100
AcDbLine
 10
-19.02100765551222
 20
-6.5
 30
0.0
 11
4.620822283653067
 21
-6.500000000000007
 31
0.0
  0
LINE
  5
17760
330
16DD7
100
AcDbEntity
  8
AM_5
100
AcDbLine
 10
3.62082228365307
 20
3.999999999999992
 30
0.0
 11
3.620822283653068
 21
-4.000000000000007
 31
0.0
  0
INSERT
  5
17761
330
16DD7
100
AcDbEntity
  8
AM_5
100
AcDbBlockReference
  2
_Open30
 10
3.62082228365307
 20
6.499999999999992
 30
0.0
 41
2.5
 42
2.5
 43
2.5
 50
90.0
  0
INSERT
  5
17762
330
16DD7
100
AcDbEntity
  8
AM_5
100
AcDbBlockReference
  2
_Open30
 10
3.620822283653068
 20
-6.500000000000007
 30
0.0
 41
2.5
 42
2.5
 43
2.5
 50
270.0
  0
MTEXT
  5
17763
330
16DD7
100
AcDbEntity
  8
AM_5
 62
     2
100
AcDbMText
 10
0.2208222836530696
 20
0.8502796963407494
 30
0.0
 40
3.799999999999999
 41
0.0
 71
     5
 72
     1
  1
%%c13
 11
0.0000000000000001
 21
1.0
 31
0.0
 73
     1
 44
1.0
1001
ACAD
1000
MTEXTBEGIN
1070
    73
1070
     1
1070
    44
1040
1.0
1070
    74
1070
     0
1000
MTEXTEND
  0
POINT
  5
17764
330
16DD7
100
AcDbEntity
  8
Defpoints
 62
     0
100
AcDbPoint
 10
-19.02100765551222
 20
6.5
 30
0.0
  0
POINT
  5
17765
330
16DD7
100
AcDbEntity
  8
Defpoints
 62
     0
100
AcDbPoint
 10
-19.02100765551222
 20
-6.5
 30
0.0
  0
POINT
  5
17766
330
16DD7
100
AcDbEntity
  8
Defpoints
 62
     0
100
AcDbPoint
 10
3.620822283653068
 20
-6.500000000000007
 30
0.0
  0
ENDBLK
  5
16E0F
330
16DD7
100
AcDbEntity
  8
0
100
AcDbBlockEnd
  0
BLOCK
  5
16E10
330
16DEA
100
AcDbEntity
  8
0
100
AcDbBlockBegin
  2
*D10
 70
     1
 10
0.0
 20
0.0
 30
0.0
  3
*D10
  1

  0
LINE
  5
1779B
330
16DEA
100
AcDbEntity
  8
AM_5
100
AcDbLine
 10
0.0
 20
40.0
 30
0.0
 11
14.22124610716811
 21
40.0
 31
0.0
  0
LINE
  5
1779C
330
16DEA
100
AcDbEntity
  8
AM_5
100
AcDbLine
 10
13.22124610716811
 20
37.5
 30
0.0
 11
13.2212461071681
 21
-4.120311724068666
 31
0.0
  0
INSERT
  5
1779D
330
16DEA
100
AcDbEntity
  8
AM_5
100
AcDbBlockReference
  2
_Open30
 10
13.22124610716811
 20
40.0
 30
0.0
 41
2.5
 42
2.5
 43
2.5
 50
90.0
  0
MTEXT
  5
1779E
330
16DEA
100
AcDbEntity
  8
AM_5
 62
     2
100
AcDbMText
 10
9.821246107168098
 20
1.18118433892346
 30
0.0
 40
3.799999999999999
 41
0.0
 71
     5
 72
     1
  1
%%c80
 11
0.0000000000000001
 21
1.0
 31
0.0
 73
     1
 44
1.0
1001
ACAD
1000
MTEXTBEGIN
1070
    73
1070
     1
1070
    44
1040
1.0
1070
    74
1070
     0
1000
MTEXTEND
  0
POINT
  5
1779F
330
16DEA
100
AcDbEntity
  8
Defpoints
 62
     0
100
AcDbPoint
 10
0.0
 20
40.0
 30
0.0
  0
POINT
  5
177A0
330
16DEA
100
AcDbEntity
  8
Defpoints
 62
     0
100
AcDbPoint
 10
-13.47577632983302
 20
0.0
 30
0.0
  0
POINT
  5
177A1
330
16DEA
100
AcDbEntity
  8
Defpoints
 62
     0
100
AcDbPoint
 10
13.2212461071681
 20
-0.0000000000000076
 30
0.0
  0
ENDBLK
  5
16E11
330
16DEA
100
AcDbEntity
  8
0
100
AcDbBlockEnd
  0
BLOCK
  5
17551
330
1753D
100
AcDbEntity
  8
0
100
AcDbBlockBegin
  2
*D12
 70
     1
 10
0.0
 20
0.0
 30
0.0
  3
*D12
  1

  0
LINE
  5
1776E
330
1753D
100
AcDbEntity
  8
AM_5
100
AcDbLine
 10
-48.8210076555124
 20
4.75
 30
0.0
 11
-56.9448132829516
 21
4.750000000000002
 31
0.0
  0
LINE
  5
1776F
330
1753D
100
AcDbEntity
  8
AM_5
100
AcDbLine
 10
-48.8210076555124
 20
-4.75
 30
0.0
 11
-56.9448132829516
 21
-4.749999999999997
 31
0.0
  0
LINE
  5
17770
330
1753D
100
AcDbEntity
  8
AM_5
100
AcDbLine
 10
-55.94481328295159
 20
2.250000000000001
 30
0.0
 11
-55.94481328295159
 21
-2.249999999999998
 31
0.0
  0
INSERT
  5
17771
330
1753D
100
AcDbEntity
  8
AM_5
100
AcDbBlockReference
  2
_Open30
 10
-55.94481328295159
 20
4.750000000000001
 30
0.0
 41
2.5
 42
2.5
 43
2.5
 50
90.0
  0
INSERT
  5
17772
330
1753D
100
AcDbEntity
  8
AM_5
100
AcDbBlockReference
  2
_Open30
 10
-55.94481328295159
 20
-4.749999999999998
 30
0.0
 41
2.5
 42
2.5
 43
2.5
 50
270.0
  0
MTEXT
  5
17773
330
1753D
100
AcDbEntity
  8
AM_5
 62
     2
100
AcDbMText
 10
-59.34481328295159
 20
0.0000000000000004
 30
0.0
 40
3.799999999999999
 41
0.0
 71
     5
 72
     1
  1
9.5
 11
0.0000000000000001
 21
1.0
 31
0.0
 73
     1
 44
1.0
1001
ACAD
1000
MTEXTBEGIN
1070
    73
1070
     1
1070
    44
1040
1.0
1070
    74
1070
     0
1000
MTEXTEND
  0
POINT
  5
17774
330
1753D
100
AcDbEntity
  8
Defpoints
 62
     0
100
AcDbPoint
 10
-48.8210076555124
 20
4.75
 30
0.0
  0
POINT
  5
17775
330
1753D
100
AcDbEntity
  8
Defpoints
 62
     0
100
AcDbPoint
 10
-48.8210076555124
 20
-4.75
 30
0.0
  0
POINT
  5
17776
330
1753D
100
AcDbEntity
  8
Defpoints
 62
     0
100
AcDbPoint
 10
-55.94481328295159
 20
-4.749999999999998
 30
0.0
  0
ENDBLK
  5
17552
330
1753D
100
AcDbEntity
  8
0
100
AcDbBlockEnd
  0
BLOCK
  5
17553
330
17547
100
AcDbEntity
  8
0
100
AcDbBlockBegin
  2
*D13
 70
     1
 10
0.0
 20
0.0
 30
0.0
  3
*D13
  1

  0
LINE
  5
17777
330
17547
100
AcDbEntity
  8
AM_5
100
AcDbLine
 10
-48.52100765551245
 20
12.70000000000004
 30
0.0
 11
-66.9448132829516
 21
12.70000000000005
 31
0.0
  0
LINE
  5
17778
330
17547
100
AcDbEntity
  8
AM_5
100
AcDbLine
 10
-48.52100765551245
 20
-12.70000000000004
 30
0.0
 11
-66.9448132829516
 21
-12.70000000000004
 31
0.0
  0
LINE
  5
17779
330
17547
100
AcDbEntity
  8
AM_5
100
AcDbLine
 10
-65.94481328295159
 20
10.20000000000005
 30
0.0
 11
-65.94481328295159
 21
-10.20000000000004
 31
0.0
  0
INSERT
  5
1777A
330
17547
100
AcDbEntity
  8
AM_5
100
AcDbBlockReference
  2
_Open30
 10
-65.94481328295159
 20
12.70000000000005
 30
0.0
 41
2.5
 42
2.5
 43
2.5
 50
90.0
  0
INSERT
  5
1777B
330
17547
100
AcDbEntity
  8
AM_5
100
AcDbBlockReference
  2
_Open30
 10
-65.94481328295159
 20
-12.70000000000004
 30
0.0
 41
2.5
 42
2.5
 43
2.5
 50
270.0
  0
MTEXT
  5
1777C
330
17547
100
AcDbEntity
  8
AM_5
 62
     2
100
AcDbMText
 10
-69.34518729869963
 20
-0.0000000000000044
 30
0.0
 40
3.799999999999999
 41
0.0
 71
     5
 72
     1
  1
%%c25.4
 11
0.0000000000000001
 21
1.0
 31
0.0
 73
     1
 44
1.0
1001
ACAD
1000
MTEXTBEGIN
1070
    73
1070
     1
1070
    44
1040
1.0
1070
    74
1070
     0
1000
MTEXTEND
  0
POINT
  5
1777D
330
17547
100
AcDbEntity
  8
Defpoints
 62
     0
100
AcDbPoint
 10
-48.52100765551245
 20
12.70000000000004
 30
0.0
  0
POINT
  5
1777E
330
17547
100
AcDbEntity
  8
Defpoints
 62
     0
100
AcDbPoint
 10
-48.52100765551245
 20
-12.70000000000004
 30
0.0
  0
POINT
  5
1777F
330
17547
100
AcDbEntity
  8
Defpoints
 62
     0
100
AcDbPoint
 10
-65.94481328295159
 20
-12.70000000000004
 30
0.0
  0
ENDBLK
  5
17554
330
17547
100
AcDbEntity
  8
0
100
AcDbBlockEnd
  0
BLOCK
  5
176D4
330
1769D
100
AcDbEntity
  8
0
100
AcDbBlockBegin
  2
*D14
 70
     1
 10
0.0
 20
0.0
 30
0.0
  3
*D14
  1

  0
LINE
  5
17791
330
1769D
100
AcDbEntity
  8
AM_5
100
AcDbLine
 10
-15.06827228404245
 20
40.52619566307089
 30
0.0
 11
-22.61404879299338
 21
40.78969998517663
 31
0.0
  0
ARC
  5
17792
330
1769D
100
AcDbEntity
  8
AM_5
100
AcDbCircle
 10
0.0
 20
40.00000000000011
 30
0.0
 40
21.62783305750847
100
AcDbArc
 50
96.62661459733717
 51
171.3733854026596
  0
INSERT
  5
17793
330
1769D
100
AcDbEntity
  8
AM_5
100
AcDbBlockReference
  2
_Open30
 10
0.0
 20
61.62783305750858
 30
0.0
 41
2.5
 42
2.5
 43
2.5
 50
3.313307298668583
  0
INSERT
  5
17794
330
1769D
100
AcDbEntity
  8
AM_5
100
AcDbBlockReference
  2
_Open30
 10
-21.61465796597429
 20
40.75480048847409
 30
0.0
 41
2.5
 42
2.5
 43
2.5
 50
264.6866927013282
  0
MTEXT
  5
17795
330
1769D
100
AcDbEntity
  8
AM_5
 62
     2
100
AcDbMText
 10
-17.38579372784815
 20
58.00351643449783
 30
0.0
 40
3.799999999999999
 41
0.0
 71
     5
 72
     1
  1
88°
 11
0.7193398003386707
 21
0.6946583704589773
 31
0.0
 73
     1
 44
1.0
1001
ACAD
1000
MTEXTBEGIN
1070
    73
1070
     1
1070
    44
1040
1.0
1070
    74
1070
     0
1000
MTEXTEND
  0
POINT
  5
17796
330
1769D
100
AcDbEntity
  8
Defpoints
 62
     0
100
AcDbPoint
 10
-10.59525304264285
 20
58.85480776157179
 30
0.0
  0
POINT
  5
17797
330
1769D
100
AcDbEntity
  8
Defpoints
 62
     0
100
AcDbPoint
 10
-15.06827228404245
 20
40.52619566307089
 30
0.0
  0
POINT
  5
17798
330
1769D
100
AcDbEntity
  8
Defpoints
 62
     0
100
AcDbPoint
 10
0.0
 20
40.0
 30
0.0
  0
POINT
  5
17799
330
1769D
100
AcDbEntity
  8
Defpoints
 62
     0
100
AcDbPoint
 10
0.0
 20
340.0
 30
0.0
  0
POINT
  5
1779A
330
1769D
100
AcDbEntity
  8
Defpoints
 62
     0
100
AcDbPoint
 10
-0.9582049613009075
 20
40.0334612545796
 30
0.0
  0
ENDBLK
  5
176D5
330
1769D
100
AcDbEntity
  8
0
100
AcDbBlockEnd
  0
ENDSEC
  0
SECTION
  2
ENTITIES
  0
TEXT
  5
11653
330
1F
100
AcDbEntity
  8
AM_6
100
AcDbText
 10
1921.462030600869
 20
1013.101869540173
 30
0.0
 40
4.5
  1

 41
1.1
100
AcDbText
  0
MTEXT
  5
14985
330
1F
100
AcDbEntity
  8
AM_5
 62
     2
100
AcDbMText
 10
2419.285354703191
 20
1055.843023631948
 30
0.0
 40
5.0
 41
0.0
 71
     9
 72
     1
  1

 73
     1
 44
1.0
1001
ACAD
1000
MTEXTBEGIN
1070
    73
1070
     1
1070
    44
1040
1.0
1070
    74
1070
     0
1000
MTEXTEND
  0
TEXT
  5
1643A
330
1F
100
AcDbEntity
  8
AM_6
100
AcDbText
 10
2096.217896793447
 20
1168.308501299428
 30
0.0
 40
3.0
  1
      
 41
1.1
100
AcDbText
  0
LINE
  5
16CC9
330
1F
100
AcDbEntity
  8
0
100
AcDbLine
 10
-25.02100765551245
 20
13.29999999999995
 30
0.0
 11
-25.02100765551222
 21
0.0
 31
0.0
  0
LINE
  5
16CCA
102
{ACAD_REACTORS
330
16D66
102
}
330
1F
100
AcDbEntity
  8
0
100
AcDbLine
 10
-25.02100765551222
 20
6.5
 30
0.0
 11
-19.02100765551222
 21
6.5
 31
0.0
  0
LINE
  5
16CCB
330
1F
100
AcDbEntity
  8
0
100
AcDbLine
 10
-19.02100765551245
 20
0.0
 30
0.0
 11
-19.02100765551245
 21
14.76597850774601
 31
0.0
  0
LINE
  5
16CCC
330
1F
100
AcDbEntity
  8
0
100
AcDbLine
 10
-25.05654165551232
 20
37.53553399999987
 30
0.0
 11
-28.19867765551226
 21
34.39339799999994
 31
0.0
  0
LINE
  5
16CCD
330
1F
100
AcDbEntity
  8
0
100
AcDbLine
 10
-38.80527865551221
 20
30.0
 30
0.0
 11
-48.02100765551222
 21
30.0
 31
0.0
  0
LINE
  5
16CCE
330
1F
100
AcDbEntity
  8
0
100
AcDbLine
 10
-50.02100765551222
 20
28.0
 30
0.0
 11
-50.02100765551245
 21
5.7650000000001
 31
0.0
  0
LINE
  5
16CCF
330
1F
100
AcDbEntity
  8
0
100
AcDbLine
 10
-21.52100765551222
 20
39.0
 30
0.0
 11
-17.04353242605907
 21
39.0
 31
0.0
  0
LINE
  5
16CD1
330
1F
100
AcDbEntity
  8
0
100
AcDbLine
 10
-21.52100765551222
 20
39.0
 30
0.0
 11
-15.93403965657626
 21
39.0
 31
0.0
  0
LINE
  5
16CDA
330
1F
100
AcDbEntity
  8
0
100
AcDbLine
 10
-15.30433065551233
 20
34.29024868268903
 30
0.0
 11
-8.170506655512326
 21
33.98917368268894
 31
0.0
  0
LINE
  5
16CE2
330
1F
100
AcDbEntity
  8
0
100
AcDbLine
 10
-8.170506655512326
 20
33.98917368268894
 30
0.0
 11
-1.036682655512322
 21
33.68809968268897
 31
0.0
  0
ARC
  5
16CF3
102
{ACAD_REACTORS
330
16D54
102
}
330
1F
100
AcDbEntity
  8
1
100
AcDbCircle
 10
-48.02100765551222
 20
28.0
 30
0.0
 40
2.0
100
AcDbArc
 50
90.0
 51
180.0
  0
ARC
  5
16CF4
330
1F
100
AcDbEntity
  8
1
100
AcDbCircle
 10
-38.80527865551221
 20
45.0
 30
0.0
 40
15.0
100
AcDbArc
 50
270.0
 51
314.9999972990519
  0
ARC
  5
16CF5
330
1F
100
AcDbEntity
  8
1
100
AcDbCircle
 10
-21.52100765551222
 20
34.0
 30
0.0
 40
5.0
100
AcDbArc
 50
90.0
 51
134.9999999999908
  0
LINE
  5
16D04
330
1F
100
AcDbEntity
  8
0
100
AcDbLine
 10
-15.87534804537904
 20
39.74947631987357
 30
0.0
 11
-15.88768765551231
 21
39.60115668268918
 31
0.0
  0
LINE
  5
16D05
330
1F
100
AcDbEntity
  8
0
100
AcDbLine
 10
-15.88768765551231
 20
39.60115668268918
 30
0.0
 11
-16.04441165551225
 21
37.56854368268887
 31
0.0
  0
LINE
  5
16D06
330
1F
100
AcDbEntity
  8
0
100
AcDbLine
 10
-16.04441165551225
 20
37.56854368268887
 30
0.0
 11
-16.04666965551223
 21
37.53926268268902
 31
0.0
  0
LINE
  5
16D07
330
1F
100
AcDbEntity
  8
0
100
AcDbLine
 10
-16.04666965551223
 20
37.53926268268902
 30
0.0
 11
-16.04973265551211
 21
37.49953368268916
 31
0.0
  0
LINE
  5
16D0D
330
1F
100
AcDbEntity
  8
0
100
AcDbLine
 10
-16.0675376555123
 20
35.09522668268892
 30
0.0
 11
-16.05024265551219
 21
37.43077168268906
 31
0.0
  0
LINE
  5
16D0E
330
1F
100
AcDbEntity
  8
0
100
AcDbLine
 10
-16.05024265551219
 20
37.43077168268906
 30
0.0
 11
-16.05004965551211
 21
37.45676568268891
 31
0.0
  0
LINE
  5
16D0F
330
1F
100
AcDbEntity
  8
0
100
AcDbLine
 10
-16.05004965551211
 20
37.45676568268891
 30
0.0
 11
-16.04973265551211
 21
37.49953368268916
 31
0.0
  0
SPLINE
  5
16D16
330
1F
100
AcDbEntity
  8
0
100
AcDbSpline
210
0.0
220
0.0
230
1.0
 70
     8
 71
     3
 72
    11
 73
     7
 74
     5
 42
0.0000000001
 43
0.0000000001
 44
0.0000000001
 40
0.0
 40
0.0
 40
0.0
 40
0.0
 40
0.0407986572448457
 40
0.0814906228523796
 40
0.1221807014957717
 40
0.1629738636677969
 40
0.1629738636677969
 40
0.1629738636677969
 40
0.1629738636677969
 10
-16.0675376555123
 20
35.09522668268892
 30
0.0
 10
-16.06743944793812
 20
35.08162420682984
 30
0.0
 10
-16.06724328961014
 20
35.05445482663582
 30
0.0
 10
-16.06430305417682
 20
35.01381145307049
 30
0.0
 10
-16.05958943093698
 20
34.97333718343356
 30
0.0
 10
-16.05469830988784
 20
34.9466134522342
 30
0.0
 10
-16.05224965551224
 20
34.93323468268909
 30
0.0
 11
-16.0675376555123
 21
35.09522668268892
 31
0.0
 11
-16.06680065551222
 21
35.05443468268913
 31
0.0
 11
-16.06400765551211
 21
35.01383868268908
 31
0.0
 11
-16.05915765551231
 21
34.97343868268899
 31
0.0
 11
-16.05224965551224
 21
34.93323468268909
 31
0.0
  0
SPLINE
  5
16D17
330
1F
100
AcDbEntity
  8
0
100
AcDbSpline
210
0.0
220
0.0
230
1.0
 70
     8
 71
     3
 72
    11
 73
     7
 74
     5
 42
0.0000000001
 43
0.0000000001
 44
0.0000000001
 40
0.0
 40
0.0
 40
0.0
 40
0.0
 40
0.2650406375671344
 40
0.5297807496789189
 40
0.794200791449689
 40
1.058417038130242
 40
1.058417038130242
 40
1.058417038130242
 40
1.058417038130242
 10
-16.05224965551224
 20
34.93323468268909
 30
0.0
 10
-16.02659024456488
 20
34.84775527436835
 30
0.0
 10
-15.97530051747702
 20
34.67689338149806
 30
0.0
 10
-15.79784061765068
 20
34.47189921291472
 30
0.0
 10
-15.56876073206806
 20
34.32724596902546
 30
0.0
 10
-15.39245135796475
 20
34.30257794153608
 30
0.0
 10
-15.30433065551233
 20
34.29024868268903
 30
0.0
 11
-16.05224965551224
 21
34.93323468268909
 31
0.0
 11
-15.95848065551217
 21
34.68533568268913
 31
0.0
 11
-15.7891206555123
 21
34.48185468268912
 31
0.0
 11
-15.56277965551226
 21
34.34515168268899
 31
0.0
 11
-15.30433065551233
 21
34.29024868268903
 31
0.0
  0
SPLINE
  5
16D24
330
1F
100
AcDbEntity
  8
0
100
AcDbSpline
210
0.0
220
0.0
230
1.0
 70
     8
 71
     3
 72
    11
 73
     7
 74
     5
 42
0.0000000001
 43
0.0000000001
 44
0.0000000001
 40
0.0
 40
0.0
 40
0.0
 40
0.0
 40
0.2650406375671344
 40
0.5297807496789189
 40
0.7942007914495714
 40
1.057503521891434
 40
1.057503521891434
 40
1.057503521891434
 40
1.057503521891434
 10
-0.0210076555122214
 20
39.38946568268921
 30
0.0
 10
-0.0466602749506144
 20
39.47497831954673
 30
0.0
 10
-0.0979364267213308
 20
39.64590663181328
 30
0.0
 10
-0.2754980119393948
 20
39.85040328845954
 30
0.0
 10
-0.5039288086385181
 20
39.9967752126417
 30
0.0
 10
-0.6808491163978806
 20
40.01684478910259
 30
0.0
 10
-0.7691219796445239
 20
40.02685833136228
 30
0.0
 11
-0.0210076555122214
 21
39.38946568268921
 31
0.0
 11
-0.1147766555122871
 21
39.63736468268917
 31
0.0
 11
-0.2841366555121567
 21
39.84084568268918
 31
0.0
 11
-0.5104776555122044
 21
39.97754868268908
 31
0.0
 11
-0.7691219796445239
 21
40.02685833136228
 31
0.0
  0
SPLINE
  5
16D25
330
1F
100
AcDbEntity
  8
0
100
AcDbSpline
210
0.0
220
0.0
230
1.0
 70
     8
 71
     3
 72
    11
 73
     7
 74
     5
 42
0.0000000001
 43
0.0000000001
 44
0.0000000001
 40
0.0
 40
0.0
 40
0.0
 40
0.0
 40
0.0407986391932297
 40
0.0814906734503863
 40
0.1221807520938055
 40
0.1629737449358353
 40
0.1629737449358353
 40
0.1629737449358353
 40
0.1629737449358353
 10
-0.0057206555122775
 20
39.22747368268892
 30
0.0
 10
-0.0058183333879946
 20
39.24107616693753
 30
0.0
 10
-0.0060134339117079
 20
39.26824559277958
 30
0.0
 10
-0.0089556121238683
 20
39.30888887563915
 30
0.0
 10
-0.0136690250207175
 20
39.34936308788237
 30
0.0
 10
-0.0185593864846179
 20
39.37608690024393
 30
0.0
 10
-0.0210076555122214
 20
39.38946568268921
 30
0.0
 11
-0.0057206555122775
 21
39.22747368268892
 31
0.0
 11
-0.0064566555122383
 21
39.26826568268916
 31
0.0
 11
-0.0092506555122327
 21
39.30886168268898
 31
0.0
 11
-0.0141006555122658
 21
39.34926168268908
 31
0.0
 11
-0.0210076555122214
 21
39.38946568268921
 31
0.0
  0
SPLINE
  5
16D2A
330
1F
100
AcDbEntity
  8
0
100
AcDbSpline
210
0.0
220
0.0
230
1.0
 70
     8
 71
     3
 72
    11
 73
     7
 74
     5
 42
0.0000000001
 43
0.0000000001
 44
0.0000000001
 40
0.0
 40
0.0
 40
0.0
 40
0.0
 40
0.0407919769563973
 40
0.0814824091609289
 40
0.1221741315622981
 40
0.1629728995095772
 40
0.1629728995095772
 40
0.1629728995095772
 40
0.1629728995095772
 10
-0.2372466555123083
 20
34.26578168268907
 30
0.0
 10
-0.2336798211015786
 20
34.27890624980791
 30
0.0
 10
-0.2265550313132577
 20
34.30512271264767
 30
0.0
 10
-0.2184477236036008
 20
34.34505546862771
 30
0.0
 10
-0.2120926433500716
 20
34.38530654746145
 30
0.0
 10
-0.2096084058859484
 20
34.41236279062636
 30
0.0
 10
-0.2083646555122414
 20
34.42590868268917
 30
0.0
 11
-0.2372466555123083
 21
34.26578168268907
 31
0.0
 11
-0.2269766555123169
 21
34.30525968268921
 31
0.0
 11
-0.2187396555123087
 21
34.34510768268911
 31
0.0
 11
-0.2125356555122835
 21
34.38532368268898
 31
0.0
 11
-0.2083646555122414
 21
34.42590868268917
 31
0.0
  0
SPLINE
  5
16D2B
330
1F
100
AcDbEntity
  8
0
100
AcDbSpline
210
0.0
220
0.0
230
1.0
 70
     8
 71
     3
 72
    11
 73
     7
 74
     5
 42
0.0000000001
 43
0.0000000001
 44
0.0000000001
 40
0.0
 40
0.0
 40
0.0
 40
0.0
 40
0.2642162354909608
 40
0.5286359477517761
 40
0.7933766729015951
 40
1.058417590531383
 40
1.058417590531383
 40
1.058417590531383
 40
1.058417590531383
 10
-1.036682655512322
 20
33.68809968268897
 30
0.0
 10
-0.9478364407052184
 20
33.69296003160688
 30
0.0
 10
-0.7700755893274155
 20
33.70268447246817
 30
0.0
 10
-0.5296223078303337
 20
33.82752217881286
 30
0.0
 10
-0.3355209481806368
 20
34.01683506618772
 30
0.0
 10
-0.2700171253072472
 20
34.18276813606256
 30
0.0
 10
-0.2372466555123083
 20
34.26578168268907
 30
0.0
 11
-1.036682655512322
 21
33.68809968268897
 31
0.0
 11
-0.7745266555123181
 21
33.72103068268916
 31
0.0
 11
-0.537472655512147
 21
33.83817668268921
 31
0.0
 11
-0.3515696555123213
 21
34.02666468268899
 31
0.0
 11
-0.2372466555123083
 21
34.26578168268907
 31
0.0
  0
LINE
  5
16D2D
330
1F
100
AcDbEntity
  8
0
100
AcDbLine
 10
-0.0057206555122775
 20
39.22747368268892
 30
0.0
 11
-0.0230156555121539
 21
36.8919296826889
 31
0.0
  0
LINE
  5
16D2E
330
1F
100
AcDbEntity
  8
0
100
AcDbLine
 10
-0.0230156555121539
 20
36.8919296826889
 30
0.0
 11
-0.0232076555121239
 21
36.86593468268893
 31
0.0
  0
LINE
  5
16D2F
330
1F
100
AcDbEntity
  8
0
100
AcDbLine
 10
-0.0232076555121239
 20
36.86593468268893
 30
0.0
 11
-0.0235246555121194
 21
36.82316668268914
 31
0.0
  0
LINE
  5
16D30
330
1F
100
AcDbEntity
  8
0
100
AcDbLine
 10
-0.0265876555122304
 20
36.78343768268906
 30
0.0
 11
-0.0235246555121194
 21
36.82316668268914
 31
0.0
  0
LINE
  5
16D31
330
1F
100
AcDbEntity
  8
0
100
AcDbLine
 10
-0.0288456555122139
 20
36.75415668268897
 30
0.0
 11
-0.0265876555122304
 21
36.78343768268906
 31
0.0
  0
LINE
  5
16D32
330
1F
100
AcDbEntity
  8
0
100
AcDbLine
 10
-0.185569655512154
 20
34.72154368268912
 30
0.0
 11
-0.0288456555122139
 21
36.75415668268897
 31
0.0
  0
LINE
  5
16D33
330
1F
100
AcDbEntity
  8
0
100
AcDbLine
 10
-0.2078486555121799
 20
34.43260368268921
 30
0.0
 11
-0.185569655512154
 21
34.72154368268912
 31
0.0
  0
LINE
  5
16D34
330
1F
100
AcDbEntity
  8
0
100
AcDbLine
 10
-0.2083646555122414
 20
34.42590868268917
 30
0.0
 11
-0.2078486555121799
 21
34.43260368268921
 31
0.0
  0
LINE
  5
16D35
102
{ACAD_REACTORS
330
16D6A
102
}
330
1F
100
AcDbEntity
  8
AM_7
100
AcDbLine
 10
-56.03287024290034
 20
0.0
 30
0.0
 11
-13.47577632983302
 21
0.0
 31
0.0
1001
GENIUS_GENOBJ-N-CEN_13
1002
{
1000
OWNER
1000
GEN
1002
}
1001
GENIUS_GENODEF_13
1002
{
1000
HIER
1070
     0
1002
}
1002
{
1000
MANEDIT
1070
     0
1002
}
1002
{
1000
NOSEL
1070
     0
1002
}
1002
{
1000
BEHIND
1070
     0
1002
}
1002
{
1000
OTHER
1070
     0
1002
}
1002
{
1000
REACTOR
1002
}
1001
GENIUS_GENCEN_19
1002
{
1040
0.11
1002
}
  0
LINE
  5
16D37
330
1F
100
AcDbEntity
  8
0
100
AcDbLine
 10
-27.91884065551244
 20
-13.40000000000009
 30
0.0
 11
-25.02100765551222
 21
-13.40000000000009
 31
0.0
  0
LINE
  5
16D38
330
1F
100
AcDbEntity
  8
0
100
AcDbLine
 10
-25.02100765551222
 20
-13.40000000000009
 30
0.0
 11
-25.02100765551222
 21
0.0
 31
0.0
  0
LINE
  5
16D39
102
{ACAD_REACTORS
330
16D66
102
}
330
1F
100
AcDbEntity
  8
0
100
AcDbLine
 10
-25.02100765551222
 20
-6.5
 30
0.0
 11
-19.02100765551222
 21
-6.5
 31
0.0
  0
LINE
  5
16D3A
330
1F
100
AcDbEntity
  8
0
100
AcDbLine
 10
-19.02100765551245
 20
0.0
 30
0.0
 11
-19.02100765551245
 21
-14.76597850774647
 31
0.0
  0
LINE
  5
16D3B
330
1F
100
AcDbEntity
  8
0
100
AcDbLine
 10
-25.05654165551232
 20
-37.5355340000001
 30
0.0
 11
-28.19867765551226
 21
-34.39339800000016
 31
0.0
  0
LINE
  5
16D3C
330
1F
100
AcDbEntity
  8
0
100
AcDbLine
 10
-38.80527865551221
 20
-30.0
 30
0.0
 11
-48.02100765551222
 21
-30.0
 31
0.0
  0
LINE
  5
16D3D
102
{ACAD_REACTORS
330
16D5D
330
16D60
330
16D63
102
}
330
1F
100
AcDbEntity
  8
0
100
AcDbLine
 10
-50.02100765551222
 20
-28.0
 30
0.0
 11
-50.02100765551245
 21
-5.7650000000001
 31
0.0
  0
LINE
  5
16D3E
330
1F
100
AcDbEntity
  8
0
100
AcDbLine
 10
-21.52100765551222
 20
-39.0
 30
0.0
 11
-2.83147750959074
 21
-39.0
 31
0.0
  0
LINE
  5
16D40
330
1F
100
AcDbEntity
  8
0
100
AcDbLine
 10
-21.52100765551222
 20
-39.0
 30
0.0
 11
-2.831477509590513
 21
-39.0
 31
0.0
  0
ARC
  5
16D41
102
{ACAD_REACTORS
330
16D54
102
}
330
1F
100
AcDbEntity
  8
1
100
AcDbCircle
 10
-48.02100765551222
 20
-28.0
 30
0.0
 40
2.0
100
AcDbArc
 50
180.0
 51
270.0
  0
ARC
  5
16D42
330
1F
100
AcDbEntity
  8
1
100
AcDbCircle
 10
-38.80527865551221
 20
-45.0
 30
0.0
 40
15.0
100
AcDbArc
 50
45.00000270094802
 51
90.0
  0
ARC
  5
16D43
330
1F
100
AcDbEntity
  8
1
100
AcDbCircle
 10
-21.52100765551222
 20
-34.0
 30
0.0
 40
5.0
100
AcDbArc
 50
225.0000000000092
 51
270.0
  0
ARC
  5
16D44
330
1F
100
AcDbEntity
  8
1
100
AcDbCircle
 10
-44.0401576555123
 20
-12.10000000000013
 30
0.0
 40
0.7999998265624823
100
AcDbArc
 50
270.0
 51
311.4096080245596
  0
DIMENSION
  5
16D4E
330
1F
100
AcDbEntity
  8
AM_5
100
AcDbDimension
  2
*D4
 10
0.0000000000000018
 20
69.97787370627929
 30
0.0
 11
-25.01050382775611
 21
73.3778737062793
 31
0.0
 70
    32
  1
<>
 71
     5
 42
50.02100765551222
  3
AM_JIS$0
100
AcDbAlignedDimension
 13
-50.02100765551222
 23
27.85302854141674
 33
0.0
 14
0.0
 24
40.0
 34
0.0
100
AcDbRotatedDimension
1001
ACAD
1000
DSTYLE
1002
{
1070
    47
1040
0.1
1070
    48
1040
0.1
1070
   179
1070
     0
1070
   271
1070
     1
1070
   272
1070
     2
1002
}
  0
LINE
  5
16D4F
330
1F
100
AcDbEntity
  8
AM_5
100
AcDbLine
 10
-0.9582049613009075
 20
40.0334612545796
 30
0.0
 11
0.0
 21
40.0
 31
0.0
  0
LINE
  5
16D50
102
{ACAD_REACTORS
330
16D6A
102
}
330
1F
100
AcDbEntity
  8
AM_5
100
AcDbLine
 10
0.0
 20
40.0
 30
0.0
 11
-0.0077292079938616
 21
38.9562355967023
 31
0.0
  0
DIMENSION
  5
16D52
102
{ACAD_XDICTIONARY
360
16D53
102
}
102
{ACAD_REACTORS
330
16D54
102
}
330
1F
100
AcDbEntity
  8
AM_5
100
AcDbDimension
  2
*D5
 10
-78.37093350694249
 20
-29.99999999999999
 30
0.0
 11
-78.37093350694249
 21
0.1132415095053147
 31
0.0
 70
   160
  1
%%c<>
 71
     5
 42
60.0
  3
AM_JIS$0
100
AcDbAlignedDimension
 13
-48.02100765551222
 23
30.0
 33
0.0
 14
-48.02100765551222
 24
-30.0
 34
0.0
 50
90.0
100
AcDbRotatedDimension
1001
ACAD
1000
DSTYLE
1002
{
1070
   179
1070
     0
1070
   271
1070
     0
1002
}
  0
DIMENSION
  5
16D5B
102
{ACAD_XDICTIONARY
360
16D5C
102
}
102
{ACAD_REACTORS
330
16D5D
102
}
330
1F
100
AcDbEntity
  8
AM_5
100
AcDbDimension
  2
*D6
 10
-50.02100765551245
 20
-44.41949696396727
 30
0.0
 11
-47.02100765551233
 21
-41.01949696396728
 31
0.0
 70
    32
 71
     5
 42
6.000000000000227
  3
AM_JIS$0
100
AcDbAlignedDimension
 13
-44.02100765551222
 23
-4.764999999999872
 33
0.0
 14
-50.02100765551245
 24
-25.64272017355825
 34
0.0
100
AcDbRotatedDimension
1001
ACAD
1000
DSTYLE
1002
{
1070
    47
1040
0.1
1070
    48
1040
0.1
1070
   179
1070
     0
1070
   271
1070
     0
1070
   272
1070
     2
1002
}
  0
DIMENSION
  5
16D5E
102
{ACAD_XDICTIONARY
360
16D5F
102
}
102
{ACAD_REACTORS
330
16D60
102
}
330
1F
100
AcDbEntity
  8
AM_5
100
AcDbDimension
  2
*D7
 10
-50.02100765551245
 20
-55.23922842666934
 30
0.0
 11
-37.52100765551233
 21
-51.83885441092131
 31
0.0
 70
    32
 71
     5
 42
25.00000000000023
  3
AM_JIS$0
100
AcDbAlignedDimension
 13
-25.02100765551222
 23
-13.40000000000009
 33
0.0
 14
-50.02100765551245
 24
-25.72445830412744
 34
0.0
100
AcDbRotatedDimension
1001
ACAD
1000
DSTYLE
1002
{
1070
   179
1070
     0
1070
   271
1070
     0
1002
}
  0
DIMENSION
  5
16D61
102
{ACAD_XDICTIONARY
360
16D62
102
}
102
{ACAD_REACTORS
330
16D63
102
}
330
1F
100
AcDbEntity
  8
AM_5
100
AcDbDimension
  2
*D8
 10
-50.02100765551245
 20
-66.33214575945726
 30
0.0
 11
-34.52100765551245
 21
-62.93214575945726
 31
0.0
 70
    32
 71
     5
 42
31.0
  3
AM_JIS$0
100
AcDbAlignedDimension
 13
-19.02100765551245
 23
-14.76597850774647
 33
0.0
 14
-50.02100765551245
 24
-25.50554837781351
 34
0.0
100
AcDbRotatedDimension
1001
ACAD
1000
DSTYLE
1002
{
1070
   179
1070
     0
1070
   271
1070
     0
1002
}
  0
DIMENSION
  5
16D64
102
{ACAD_XDICTIONARY
360
16D65
102
}
102
{ACAD_REACTORS
330
16D66
102
}
330
1F
100
AcDbEntity
  8
AM_5
100
AcDbDimension
  2
*D9
 10
3.620822283653068
 20
-6.500000000000007
 30
0.0
 11
3.620822283653069
 21
0.850279696340749
 31
0.0
 70
   160
  1
%%c<>
 71
     5
 42
13.0
  3
AM_JIS$0
100
AcDbAlignedDimension
 13
-19.02100765551222
 23
6.5
 33
0.0
 14
-19.02100765551222
 24
-6.5
 34
0.0
 50
90.0
100
AcDbRotatedDimension
1001
ACAD
1000
DSTYLE
1002
{
1070
   179
1070
     0
1070
   271
1070
     0
1002
}
  0
DIMENSION
  5
16D68
102
{ACAD_XDICTIONARY
360
16D69
102
}
102
{ACAD_REACTORS
330
16D6A
102
}
330
1F
100
AcDbEntity
  8
AM_5
100
AcDbDimension
  2
*D10
 10
13.2212461071681
 20
-0.0000000000000076
 30
0.0
 11
13.2212461071681
 21
1.18118433892346
 31
0.0
 70
   160
  1
%%c<>
 71
     5
 42
80.0
  3
AM_JIS$0
100
AcDbAlignedDimension
 13
0.0
 23
40.0
 33
0.0
 14
-13.47577632983302
 24
0.0
 34
0.0
 50
90.0
100
AcDbRotatedDimension
1001
ACAD
1000
DSTYLE
1002
{
1070
    76
1070
     1
1070
   144
1040
2.0
1070
   179
1070
     0
1070
   271
1070
     0
1070
   282
1070
     1
1002
}
  0
LINE
  5
16D6B
330
1F
100
AcDbEntity
  8
AM_5
100
AcDbLine
 10
0.0
 20
40.0
 30
0.0
 11
0.0
 21
43.45270151658087
 31
0.0
  0
LINE
  5
16D74
330
1F
100
AcDbEntity
  8
AM_0
100
AcDbLine
 10
-2.704046052564308
 20
33.7584686415255
 30
0.0
 11
-3.090301976076489
 21
22.69755154378367
 31
0.0
  0
ARC
  5
16D75
330
1F
100
AcDbEntity
  8
AM_0
100
AcDbCircle
 10
-8.087256108222618
 20
22.87204911175263
 30
0.0
 40
5.0
100
AcDbArc
 50
284.9999991458277
 51
357.9999990316154
  0
LINE
  5
16D76
330
1F
100
AcDbEntity
  8
AM_0
100
AcDbLine
 10
-19.02100765551245
 20
14.76597850774601
 30
0.0
 11
-6.793160954710629
 21
18.04241996101473
 31
0.0
  0
LINE
  5
16D77
330
1F
100
AcDbEntity
  8
AM_0
100
AcDbLine
 10
-2.531483676098559
 20
-38.70000616650805
 30
0.0
 11
-3.090301976076489
 21
-22.69755154378413
 31
0.0
  0
ARC
  5
16D78
330
1F
100
AcDbEntity
  8
AM_0
100
AcDbCircle
 10
-8.087256108222618
 20
-22.87204911175308
 30
0.0
 40
5.0
100
AcDbArc
 50
2.000000968384557
 51
75.00000085417228
  0
LINE
  5
16D79
330
1F
100
AcDbEntity
  8
AM_0
100
AcDbLine
 10
-19.02100765551245
 20
-14.76597850774647
 30
0.0
 11
-6.793160954710629
 21
-18.04241996101518
 31
0.0
  0
LINE
  5
16D7A
330
1F
100
AcDbEntity
  8
AM_0
100
AcDbLine
 10
-2.531477509590558
 20
33.75118560489523
 30
0.0
 11
-2.531477509590558
 21
-38.70000000000004
 31
0.0
  0
LINE
  5
16D7B
330
1F
100
AcDbEntity
  8
AM_0
100
AcDbLine
 10
-2.831477509590513
 20
-39.0
 30
0.0
 11
-2.531477509590558
 21
-38.70000000000004
 31
0.0
  0
LINE
  5
17529
330
1F
100
AcDbEntity
  8
0
100
AcDbLine
 10
-27.91884065551244
 20
-12.70000000000004
 30
0.0
 11
-48.52100765551245
 21
-12.70000000000004
 31
0.0
  0
LINE
  5
1752A
330
1F
100
AcDbEntity
  8
0
100
AcDbLine
 10
-48.52100765551245
 20
12.70000000000004
 30
0.0
 11
-27.91884065551244
 21
12.70000000000004
 31
0.0
  0
LINE
  5
1752B
330
1F
100
AcDbEntity
  8
0
100
AcDbLine
 10
-27.91884065551244
 20
12.70000000000004
 30
0.0
 11
-27.91884065551244
 21
13.29999999999995
 31
0.0
  0
LINE
  5
1752C
330
1F
100
AcDbEntity
  8
0
100
AcDbLine
 10
-27.91884065551244
 20
13.29999999999995
 30
0.0
 11
-25.02100765551245
 21
13.29999999999995
 31
0.0
  0
LINE
  5
1752D
330
1F
100
AcDbEntity
  8
0
100
AcDbLine
 10
-25.02100765551245
 20
13.29999999999995
 30
0.0
 11
-25.02100765551245
 21
6.5
 31
0.0
  0
LINE
  5
1752E
330
1F
100
AcDbEntity
  8
AM_0
100
AcDbLine
 10
-50.02100765551245
 20
14.54999999999995
 30
0.0
 11
-50.02100765551268
 21
5.950000000000272
 31
0.0
  0
LINE
  5
1752F
330
1F
100
AcDbEntity
  8
AM_0
100
AcDbLine
 10
-50.02100765551268
 20
-5.950000000000045
 30
0.0
 11
-50.02100765551245
 21
-14.54999999999995
 31
0.0
  0
LINE
  5
17530
102
{ACAD_REACTORS
330
1753C
102
}
330
1F
100
AcDbEntity
  8
AM_0
100
AcDbLine
 10
-48.52100765551245
 20
12.70000000000004
 30
0.0
 11
-48.52100765551245
 21
4.75
 31
0.0
  0
LINE
  5
17531
102
{ACAD_REACTORS
330
1753C
102
}
330
1F
100
AcDbEntity
  8
AM_0
100
AcDbLine
 10
-48.52100765551245
 20
-4.75
 30
0.0
 11
-48.52100765551245
 21
-12.70000000000004
 31
0.0
  0
LINE
  5
17532
330
1F
100
AcDbEntity
  8
AM_0
100
AcDbLine
 10
-27.91884065551244
 20
12.70000000000004
 30
0.0
 11
-27.91884065551244
 21
-13.40000000000009
 31
0.0
  0
LINE
  5
17533
102
{ACAD_REACTORS
330
17539
102
}
330
1F
100
AcDbEntity
  8
AM_0
100
AcDbLine
 10
-48.8210076555124
 20
4.75
 30
0.0
 11
-44.02100765551245
 21
4.75
 31
0.0
  0
LINE
  5
17534
330
1F
100
AcDbEntity
  8
AM_0
100
AcDbLine
 10
-44.02100765551245
 20
4.75
 30
0.0
 11
-44.02100765551245
 21
-4.75
 31
0.0
  0
LINE
  5
17535
330
1F
100
AcDbEntity
  8
AM_0
100
AcDbLine
 10
-44.02100765551245
 20
-4.75
 30
0.0
 11
-48.8210076555124
 21
-4.75
 31
0.0
  0
LINE
  5
17536
102
{ACAD_REACTORS
330
17539
102
}
330
1F
100
AcDbEntity
  8
AM_0
100
AcDbLine
 10
-48.8210076555124
 20
-4.75
 30
0.0
 11
-50.02100765551245
 21
-5.950000000000272
 31
0.0
  0
DIMENSION
  5
17537
102
{ACAD_XDICTIONARY
360
17538
102
}
102
{ACAD_REACTORS
330
17539
102
}
330
1F
100
AcDbEntity
  8
AM_5
100
AcDbDimension
  2
*D12
 10
-55.94481328295159
 20
-4.749999999999998
 30
0.0
 11
-55.94481328295159
 21
0.0
 31
0.0
 70
   160
  1
<>
 71
     5
 42
9.5
  3
AM_JIS$0
100
AcDbAlignedDimension
 13
-48.8210076555124
 23
4.75
 33
0.0
 14
-48.8210076555124
 24
-4.75
 34
0.0
 50
90.0
100
AcDbRotatedDimension
1001
ACAD
1000
DSTYLE
1002
{
1070
   179
1070
     0
1070
   271
1070
     1
1002
}
  0
DIMENSION
  5
1753A
102
{ACAD_XDICTIONARY
360
1753B
102
}
102
{ACAD_REACTORS
330
1753C
102
}
330
1F
100
AcDbEntity
  8
AM_5
100
AcDbDimension
  2
*D13
 10
-65.94481328295159
 20
-12.70000000000004
 30
0.0
 11
-69.34518729869963
 21
-0.0000000000000044
 31
0.0
 70
    32
  1
%%c<>
 71
     5
 42
25.40000000000009
  3
AM_JIS$0
100
AcDbAlignedDimension
 13
-48.52100765551245
 23
12.70000000000004
 33
0.0
 14
-48.52100765551245
 24
-12.70000000000004
 34
0.0
 50
90.0
100
AcDbRotatedDimension
1001
ACAD
1000
DSTYLE
1002
{
1070
   179
1070
     0
1070
   271
1070
     1
1002
}
  0
TEXT
  5
1756F
330
1F
100
AcDbEntity
  8
0
370
    -3
100
AcDbText
 10
-44.6914521460244
 20
-77.50879844760834
 30
0.0
 40
3.799999999999999
  1
PWC(F)4080R
  7
ACISOTS
100
AcDbText
  0
LINE
  5
17591
330
1F
100
AcDbEntity
  8
0
100
AcDbLine
 10
-21.52100765551222
 20
-39.0
 30
0.0
 11
-17.04353242605907
 21
-39.0
 31
0.0
  0
LINE
  5
17593
330
1F
100
AcDbEntity
  8
0
  6
ACJISTGL
100
AcDbLine
 10
-15.03657465551214
 20
-40.63460068268887
 30
0.0
 11
-7.902750655512136
 21
-40.33352668268889
 31
0.0
  0
LINE
  5
17594
330
1F
100
AcDbEntity
  8
0
  6
ACJISTGL
 62
     0
 48
0.5
100
AcDbLine
 10
-2.704046052564763
 20
-33.75846864152573
 30
0.0
 11
-1.036682655512322
 21
-33.68809968268897
 31
0.0
  0
LINE
  5
17595
330
1F
100
AcDbEntity
  8
0
  6
ACJISTGL
 62
     0
 48
0.5
100
AcDbLine
 10
-7.902750655512136
 20
-40.33352668268889
 30
0.0
 11
-0.7689266555121322
 21
-40.03245168268904
 31
0.0
  0
LINE
  5
17596
330
1F
100
AcDbEntity
  8
0
  6
ACJISTGL
100
AcDbLine
 10
-15.86489265551222
 20
-39.89679168268913
 30
0.0
 11
-15.86540865551228
 21
-39.89009668268909
 31
0.0
  0
LINE
  5
17597
330
1F
100
AcDbEntity
  8
0
  6
ACJISTGL
100
AcDbLine
 10
-15.86540865551228
 20
-39.89009668268909
 30
0.0
 11
-15.88768765551231
 21
-39.60115668268918
 31
0.0
  0
LINE
  5
17598
330
1F
100
AcDbEntity
  8
0
  6
ACJISTGL
100
AcDbLine
 10
-15.88768765551231
 20
-39.60115668268918
 30
0.0
 11
-15.9340396565758
 21
-39.0
 31
0.0
  0
SPLINE
  5
17599
330
1F
100
AcDbEntity
  8
0
  6
ACJISTGL
100
AcDbSpline
210
0.0
220
0.0
230
1.0
 70
     8
 71
     3
 72
    11
 73
     7
 74
     5
 42
0.0000000001
 43
0.0000000001
 44
0.0000000001
 40
0.0
 40
0.0
 40
0.0
 40
0.0
 40
0.0407919769561772
 40
0.0814824091607088
 40
0.1221741315623028
 40
0.1629728995093557
 40
0.1629728995093557
 40
0.1629728995093557
 40
0.1629728995093557
 10
-15.83601065551215
 20
-40.056918682689
 30
0.0
 10
-15.83957748992289
 20
-40.04379411557024
 30
0.0
 10
-15.84670227971123
 20
-40.01757765273056
 30
0.0
 10
-15.85480958742088
 20
-39.97764489675052
 30
0.0
 10
-15.86116466767436
 20
-39.93739381791676
 30
0.0
 10
-15.8636489051385
 20
-39.91033757475188
 30
0.0
 10
-15.86489265551222
 20
-39.89679168268913
 30
0.0
 11
-15.83601065551215
 21
-40.056918682689
 31
0.0
 11
-15.84628065551214
 21
-40.01744068268908
 31
0.0
 11
-15.85451765551215
 21
-39.97759268268919
 31
0.0
 11
-15.86072165551218
 21
-39.93737668268909
 31
0.0
 11
-15.86489265551222
 21
-39.89679168268913
 31
0.0
  0
SPLINE
  5
1759A
330
1F
100
AcDbEntity
  8
0
  6
ACJISTGL
100
AcDbSpline
210
0.0
220
0.0
230
1.0
 70
     8
 71
     3
 72
    11
 73
     7
 74
     5
 42
0.0000000001
 43
0.0000000001
 44
0.0000000001
 40
0.0
 40
0.0
 40
0.0
 40
0.0
 40
0.2642162354909041
 40
0.5286359477517193
 40
0.7933766729017
 40
1.058417590531488
 40
1.058417590531488
 40
1.058417590531488
 40
1.058417590531488
 10
-15.03657465551214
 20
-40.63460068268887
 30
0.0
 10
-15.12542087031924
 20
-40.62974033377114
 30
0.0
 10
-15.30318172169707
 20
-40.62001589291022
 30
0.0
 10
-15.54363500319421
 20
-40.4951781865654
 30
0.0
 10
-15.73773636284376
 20
-40.30586529919037
 30
0.0
 10
-15.8032401857172
 20
-40.13993222931548
 30
0.0
 10
-15.83601065551215
 20
-40.056918682689
 30
0.0
 11
-15.03657465551214
 21
-40.63460068268887
 31
0.0
 11
-15.29873065551214
 21
-40.60166968268913
 31
0.0
 11
-15.53578465551231
 21
-40.48452368268908
 31
0.0
 11
-15.72168765551214
 21
-40.29603568268908
 31
0.0
 11
-15.83601065551215
 21
-40.056918682689
 31
0.0
  0
SPLINE
  5
1759B
330
1F
100
AcDbEntity
  8
0
  6
ACJISTGL
 62
     0
 48
0.5
100
AcDbSpline
210
0.0
220
0.0
230
1.0
 70
     8
 71
     3
 72
    11
 73
     7
 74
     5
 42
0.0000000001
 43
0.0000000001
 44
0.0000000001
 40
0.0
 40
0.0
 40
0.0
 40
0.0
 40
0.2642162354909608
 40
0.5286359477517761
 40
0.7933766729015951
 40
1.058417590531383
 40
1.058417590531383
 40
1.058417590531383
 40
1.058417590531383
 10
-1.036682655512322
 20
-33.68809968268897
 30
0.0
 10
-0.9478364407052184
 20
-33.69296003160688
 30
0.0
 10
-0.7700755893274155
 20
-33.70268447246817
 30
0.0
 10
-0.5296223078303337
 20
-33.82752217881286
 30
0.0
 10
-0.3355209481806368
 20
-34.01683506618772
 30
0.0
 10
-0.2700171253072472
 20
-34.18276813606256
 30
0.0
 10
-0.2372466555123083
 20
-34.26578168268907
 30
0.0
 11
-1.036682655512322
 21
-33.68809968268897
 31
0.0
 11
-0.7745266555123181
 21
-33.72103068268916
 31
0.0
 11
-0.537472655512147
 21
-33.83817668268921
 31
0.0
 11
-0.3515696555123213
 21
-34.02666468268899
 31
0.0
 11
-0.2372466555123083
 21
-34.26578168268907
 31
0.0
  0
LINE
  5
1759C
330
1F
100
AcDbEntity
  8
0
  6
ACJISTGL
 62
     0
 48
0.5
100
AcDbLine
 10
-0.0057206555122775
 20
-39.22747368268892
 30
0.0
 11
-0.0230156555121539
 21
-36.8919296826889
 31
0.0
  0
LINE
  5
1759D
330
1F
100
AcDbEntity
  8
0
  6
ACJISTGL
 62
     0
 48
0.5
100
AcDbLine
 10
-0.185569655512154
 20
-34.72154368268912
 30
0.0
 11
-0.0288456555122139
 21
-36.75415668268897
 31
0.0
  0
SPLINE
  5
175A9
330
1F
100
AcDbEntity
  8
0
  6
ACJISTGL
 62
     0
 48
0.5
100
AcDbSpline
210
0.0
220
0.0
230
1.0
 70
     8
 71
     3
 72
    11
 73
     7
 74
     5
 42
0.0000000001
 43
0.0000000001
 44
0.0000000001
 40
0.0
 40
0.0
 40
0.0
 40
0.0
 40
0.2650406375671344
 40
0.5297807496789189
 40
0.7942007914495714
 40
1.058417038130124
 40
1.058417038130124
 40
1.058417038130124
 40
1.058417038130124
 10
-0.0210076555122214
 20
-39.38946568268921
 30
0.0
 10
-0.0466670664595814
 20
-39.47494509100994
 30
0.0
 10
-0.0979567935474455
 20
-39.64580698388023
 30
0.0
 10
-0.2754166933737174
 20
-39.85080115246361
 30
0.0
 10
-0.5044965789564789
 20
-39.99545439635256
 30
0.0
 10
-0.6808059530597204
 20
-40.02012242384197
 30
0.0
 10
-0.7689266555121322
 20
-40.03245168268904
 30
0.0
 11
-0.0210076555122214
 21
-39.38946568268921
 31
0.0
 11
-0.1147766555122871
 21
-39.63736468268917
 31
0.0
 11
-0.2841366555121567
 21
-39.84084568268918
 31
0.0
 11
-0.5104776555122044
 21
-39.97754868268908
 31
0.0
 11
-0.7689266555121322
 21
-40.03245168268904
 31
0.0
  0
LINE
  5
175AA
330
1F
100
AcDbEntity
  8
0
  6
ACJISTGL
 62
     0
 48
0.5
100
AcDbLine
 10
-0.185569655512154
 20
-34.72154368268912
 30
0.0
 11
-0.2372466555123083
 21
-34.26578168268884
 31
0.0
  0
LINE
  5
1764E
102
{ACAD_REACTORS
330
176AD
102
}
330
1F
100
AcDbEntity
  8
0
100
AcDbLine
 10
-15.06827228404245
 20
40.52619566307089
 30
0.0
 11
-0.9582049613009075
 21
40.0334612545796
 31
0.0
  0
DIMENSION
  5
1769C
102
{ACAD_XDICTIONARY
360
176AC
102
}
102
{ACAD_REACTORS
330
176AD
102
}
330
1F
100
AcDbEntity
  8
AM_5
100
AcDbDimension
  2
*D14
 10
-0.9582049613009075
 20
40.0334612545796
 30
0.0
 11
-17.38579372784815
 21
58.00351643449783
 31
0.0
 70
    34
 71
     5
 42
1.535889741754954
  3
AM_JIS$2
100
AcDb2LineAngularDimension
 13
0.0
 23
40.0
 33
0.0
 14
0.0
 24
340.0
 34
0.0
 15
-15.06827228404245
 25
40.52619566307089
 35
0.0
 16
-10.59525304264285
 26
58.85480776157179
 36
0.0
1001
ACAD_DIMASSOC_DIMLFAC
1040
1.0
1001
ACAD_DIMASSOC_CALC_DIMLFAC
1040
1.0
1001
ACAD_DIMASSOC_OVERRIDDEN_DIMLFAC
1040
1.0
1001
ACAD
1000
DSTYLE
1002
{
1070
   144
1040
1.0
1070
    75
1070
     0
1070
    76
1070
     0
1070
   179
1070
     0
1002
}
  0
ARC
  5
17705
330
1F
100
AcDbEntity
  8
0
100
AcDbCircle
 10
-15.07555820166863
 20
39.7260973659902
 30
0.0
 40
0.8001314701891699
100
AcDbArc
 50
89.47826311719925
 51
178.3256425840164
  0
ENDSEC
  0
SECTION
  2
OBJECTS
  0
DICTIONARY
  5
C
330
0
100
AcDbDictionary
281
     1
  3
ACAD_COLOR
350
BE
  3
ACAD_GROUP
350
D
  3
ACAD_LAYOUT
350
1A
  3
ACAD_MATERIAL
350
BD
  3
ACAD_MLINESTYLE
350
17
  3
ACAD_PLOTSETTINGS
350
19
  3
ACAD_PLOTSTYLENAME
350
E
  3
ACAD_TABLESTYLE
350
11A
  3
ACDBHEADERROUNDTRIPXREC
350
177C3
  3
AcDbVariableDictionary
350
94
  3
AcmDictionary
350
5B
  3
AMG
350
41
  3
AMGSNAPSETTINGS
350
1B8
  3
DWGPROPS
350
177C2
  3
table_dic_data
350
F53
  0
DICTIONARY
  5
34B
330
2
100
AcDbDictionary
280
     1
281
     1
  3
ACAD_LAYERFILTERS
360
10734
  3
ACAD_LAYERSTATES
360
113B
  3
ACLYDICTIONARY
360
10733
  3
AMLAYER_GROUPCOLORS
360
34C
  0
DICTIONARY
  5
8F
330
1F
100
AcDbDictionary
280
     1
281
     1
  3
ACAD_SORTENTS
360
CDD
  0
DICTIONARY
  5
16D53
330
16D52
100
AcDbDictionary
280
     1
281
     1
  3
ACAD_DIMASSOC
360
16D54
  0
DICTIONARY
  5
16D5C
330
16D5B
100
AcDbDictionary
280
     1
281
     1
  3
ACAD_DIMASSOC
360
16D5D
  0
DICTIONARY
  5
16D5F
330
16D5E
100
AcDbDictionary
280
     1
281
     1
  3
ACAD_DIMASSOC
360
16D60
  0
DICTIONARY
  5
16D62
330
16D61
100
AcDbDictionary
280
     1
281
     1
  3
ACAD_DIMASSOC
360
16D63
  0
DICTIONARY
  5
16D65
330
16D64
100
AcDbDictionary
280
     1
281
     1
  3
ACAD_DIMASSOC
360
16D66
  0
DICTIONARY
  5
16D69
330
16D68
100
AcDbDictionary
280
     1
281
     1
  3
ACAD_DIMASSOC
360
16D6A
  0
DICTIONARY
  5
17538
330
17537
100
AcDbDictionary
280
     1
281
     1
  3
ACAD_DIMASSOC
360
17539
  0
DICTIONARY
  5
1753B
330
1753A
100
AcDbDictionary
280
     1
281
     1
  3
ACAD_DIMASSOC
360
1753C
  0
DICTIONARY
  5
176AC
330
1769C
100
AcDbDictionary
280
     1
281
     1
  3
ACAD_DIMASSOC
360
176AD
  0
DICTIONARY
  5
BE
102
{ACAD_REACTORS
330
C
102
}
330
C
100
AcDbDictionary
281
     1
  0
DICTIONARY
  5
D
102
{ACAD_REACTORS
330
C
102
}
330
C
100
AcDbDictionary
281
     1
  0
DICTIONARY
  5
1A
102
{ACAD_REACTORS
330
C
102
}
330
C
100
AcDbDictionary
281
     1
  3
Model
350
22
  3
レイアウト1
350
1E
  3
レイアウト2
350
26
  0
DICTIONARY
  5
BD
102
{ACAD_REACTORS
330
C
102
}
330
C
100
AcDbDictionary
281
     1
  0
DICTIONARY
  5
17
102
{ACAD_REACTORS
330
C
102
}
330
C
100
AcDbDictionary
281
     1
  3
Standard
350
18
  0
DICTIONARY
  5
19
102
{ACAD_REACTORS
330
C
102
}
330
C
100
AcDbDictionary
281
     1
  0
ACDBDICTIONARYWDFLT
  5
E
102
{ACAD_REACTORS
330
C
102
}
330
C
100
AcDbDictionary
281
     1
  3
Normal
350
F
100
AcDbDictionaryWithDefault
340
F
  0
DICTIONARY
  5
11A
102
{ACAD_REACTORS
330
C
102
}
330
C
100
AcDbDictionary
281
     1
  3
Standard
350
11B
  0
DICTIONARY
  5
177C3
102
{ACAD_REACTORS
330
C
102
}
330
C
100
AcDbDictionary
281
     1
  0
DICTIONARY
  5
94
102
{ACAD_REACTORS
330
C
102
}
330
C
100
AcDbDictionary
281
     1
  3
CTABLESTYLE
350
138
  3
DIMASSOC
350
96
  3
INDEXCTL
350
95
  3
PROJECTNAME
350
177C0
  0
DICTIONARY
  5
5B
102
{ACAD_REACTORS
330
C
102
}
330
C
100
AcDbDictionary
281
     1
  3
AcmBOM
350
1B5
  3
AcmStdDictionary
350
61
  3
AMDTSECTSYM_ARROWCOLOR
350
123
  0
DICTIONARY
  5
41
102
{ACAD_REACTORS
330
C
102
}
330
C
100
AcDbDictionary
281
     1
  0
DICTIONARY
  5
1B8
102
{ACAD_REACTORS
330
C
102
}
330
C
100
AcDbDictionary
281
     1
  0
XRECORD
  5
177C2
102
{ACAD_REACTORS
330
C
102
}
330
C
100
AcDbXrecord
280
     1
  1
DWGPROPS COOKIE
  2

  3

  4

  6

  7

  8

  9

300
AmdtFileType=84
301
=
302
=
303
=
304
=
305
=
306
=
307
=
308
=
309
=
 40
2.909828946759259
 41
2453784.69688566
 42
2455540.36981228
  1

 90
        1
  0
DICTIONARY
  5
F53
102
{ACAD_REACTORS
330
C
102
}
330
C
100
AcDbDictionary
281
     1
  3
input_data
350
F55
  3
table_data
350
F54
  0
DICTIONARY
  5
10734
102
{ACAD_REACTORS
330
34B
102
}
330
34B
100
AcDbDictionary
281
     1
  0
DICTIONARY
  5
113B
102
{ACAD_REACTORS
330
34B
102
}
330
34B
100
AcDbDictionary
281
     1
  0
DICTIONARY
  5
10733
102
{ACAD_REACTORS
330
34B
102
}
330
34B
100
AcDbDictionary
281
     1
1001
ACAD
1000
<AllUsed
  0
DICTIONARY
  5
34C
102
{ACAD_REACTORS
330
34B
102
}
330
34B
100
AcDbDictionary
280
     1
281
     1
  0
SORTENTSTABLE
  5
CDD
102
{ACAD_REACTORS
330
8F
102
}
330
8F
100
AcDbSortentsTable
330
1F
331
16CC9
  5
16CC9
331
16CCA
  5
16CCA
331
16CCB
  5
16CCB
331
16CCC
  5
16CCC
331
16CCD
  5
16CCD
331
16CF3
  5
16CF3
331
16D40
  5
16D40
331
16CCE
  5
16CCE
331
16CF4
  5
16CF4
331
16D41
  5
16D41
331
16CCF
  5
16CCF
331
16CF5
  5
16CF5
331
16D42
  5
16D42
331
16D24
  5
16D24
331
16D43
  5
16D43
331
16D25
  5
16D25
331
16CD1
  5
16CD1
331
16D78
  5
16D78
331
16D44
  5
16D44
331
16D79
  5
16D79
331
16D5B
  5
16D5B
331
16D7A
  5
16D7A
331
16D7B
  5
16D7B
331
16D5E
  5
16D5E
331
16D2A
  5
16D2A
331
16D04
  5
16D04
331
16D2B
  5
16D2B
331
16D05
  5
16D05
331
16D06
  5
16D06
331
16D61
  5
16D61
331
16D2D
  5
16D2D
331
16D07
  5
16D07
331
16D2E
  5
16D2E
331
16CDA
  5
16CDA
331
16D2F
  5
16D2F
331
16D64
  5
16D64
331
16D4E
  5
16D4E
331
16D30
  5
16D30
331
16D4F
  5
16D4F
331
16D31
  5
16D31
331
16D50
  5
16D50
331
16D32
  5
16D32
331
16D0D
  5
16D0D
331
16D33
  5
16D33
331
16D52
  5
16D52
331
16D68
  5
16D68
331
16D0E
  5
16D0E
331
16D34
  5
16D34
331
16D0F
  5
16D0F
331
16D35
  5
16D35
331
16CE2
  5
16CE2
331
16D6B
  5
16D6B
331
16D37
  5
16D37
331
16D38
  5
16D38
331
16D39
  5
16D39
331
16D3A
  5
16D3A
331
16D3B
  5
16D3B
331
16D3C
  5
16D3C
331
16D16
  5
16D16
331
16D3D
  5
16D3D
331
16D17
  5
16D17
331
16D3E
  5
16D3E
331
16D74
  5
16D74
331
16D75
  5
16D75
331
16D76
  5
16D76
331
16D77
  5
16D77
331
1643A
  5
1643A
331
14985
  5
1499F
331
11653
  5
11653
  0
DIMASSOC
  5
16D54
102
{ACAD_REACTORS
330
16D53
102
}
330
16D53
100
AcDbDimAssoc
330
16D52
 90
        3
 70
     0
 71
     0
  1
AcDbOsnapPointRef
 72
    13
331
16CF3
 73
     0
 91
        0
 40
0.0
 10
0.0
 20
0.0
 30
2.000000000000000E+50
 75
     0
  1
AcDbOsnapPointRef
 72
     1
331
16D41
 73
     0
 91
        0
 40
0.0
 10
0.0
 20
0.0
 30
2.000000000000000E+50
 75
     0
  0
DIMASSOC
  5
16D5D
102
{ACAD_REACTORS
330
16D5C
102
}
330
16D5C
100
AcDbDimAssoc
330
16D5B
 90
        2
 70
     0
 71
     0
  1
AcDbOsnapPointRef
 72
    10
331
16D3D
 73
     0
 91
        0
 40
0.106016632626124
 10
0.0
 20
0.0
 30
0.0
 75
     0
  0
DIMASSOC
  5
16D60
102
{ACAD_REACTORS
330
16D5F
102
}
330
16D5F
100
AcDbDimAssoc
330
16D5E
 90
        2
 70
     0
 71
     0
  1
AcDbOsnapPointRef
 72
    10
331
16D3D
 73
     0
 91
        0
 40
0.1023405305092275
 10
0.0
 20
0.0
 30
0.0
 75
     0
  0
DIMASSOC
  5
16D63
102
{ACAD_REACTORS
330
16D62
102
}
330
16D62
100
AcDbDimAssoc
330
16D61
 90
        2
 70
     0
 71
     0
  1
AcDbOsnapPointRef
 72
    10
331
16D3D
 73
     0
 91
        0
 40
0.1121858161541084
 10
0.0
 20
0.0
 30
0.0
 75
     0
  0
DIMASSOC
  5
16D66
102
{ACAD_REACTORS
330
16D65
102
}
330
16D65
100
AcDbDimAssoc
330
16D64
 90
        3
 70
     0
 71
     0
  1
AcDbOsnapPointRef
 72
     1
331
16CCA
 73
     0
 91
        0
 40
0.0
 10
0.0
 20
0.0
 30
2.000000000000000E+50
 75
     0
  1
AcDbOsnapPointRef
 72
     1
331
16D39
 73
     0
 91
        0
 40
0.0
 10
0.0
 20
0.0
 30
2.000000000000000E+50
 75
     0
  0
DIMASSOC
  5
16D6A
102
{ACAD_REACTORS
330
16D69
102
}
330
16D69
100
AcDbDimAssoc
330
16D68
 90
        3
 70
     0
 71
     0
  1
AcDbOsnapPointRef
 72
    13
331
16D50
 73
     0
 91
        0
 40
0.0
 10
0.0
 20
0.0
 30
2.000000000000000E+50
 75
     0
  1
AcDbOsnapPointRef
 72
     1
331
16D35
 73
     0
 91
        0
 40
0.0
 10
0.0
 20
0.0
 30
2.000000000000000E+50
 75
     0
  0
DIMASSOC
  5
17539
102
{ACAD_REACTORS
330
17538
102
}
330
17538
100
AcDbDimAssoc
330
17537
 90
        3
 70
     0
 71
     0
  1
AcDbOsnapPointRef
 72
    13
331
17533
 73
     0
 91
        0
 40
0.0
 10
0.0
 20
0.0
 30
2.000000000000000E+50
 75
     0
  1
AcDbOsnapPointRef
 72
    13
331
17536
 73
     0
 91
        0
 40
0.0
 10
0.0
 20
0.0
 30
2.000000000000000E+50
 75
     0
  0
DIMASSOC
  5
1753C
102
{ACAD_REACTORS
330
1753B
102
}
330
1753B
100
AcDbDimAssoc
330
1753A
 90
        3
 70
     0
 71
     0
  1
AcDbOsnapPointRef
 72
    13
331
17530
 73
     0
 91
        0
 40
0.0
 10
0.0
 20
0.0
 30
2.000000000000000E+50
 75
     0
  1
AcDbOsnapPointRef
 72
     1
331
17531
 73
     0
 91
        0
 40
0.0
 10
0.0
 20
0.0
 30
2.000000000000000E+50
 75
     0
  0
DIMASSOC
  5
176AD
102
{ACAD_REACTORS
330
176AC
102
}
330
176AC
100
AcDbDimAssoc
330
1769C
 90
       12
 70
     1
 71
     0
  1
AcDbOsnapPointRef
 72
    13
331
1764E
 73
     2
 91
        0
 40
0.0
 10
0.0
 20
0.0
 30
2.000000000000000E+50
 75
     0
  1
AcDbOsnapPointRef
 72
     1
331
1764E
 73
     2
 91
        0
 40
0.0
 10
0.0
 20
0.0
 30
2.000000000000000E+50
 75
     0
  0
LAYOUT
  5
22
102
{ACAD_XDICTIONARY
360
177C6
102
}
102
{ACAD_REACTORS
330
1A
102
}
330
1A
100
AcDbPlotSettings
  1

  2
SII LP-2150 (D-SCAN C2)
  4
User186
  6

 40
3.174999952316284
 41
3.174999952316284
 42
3.175003051757812
 43
3.17498779296875
 44
210.0579986572266
 45
296.9259948730469
 46
0.0
 47
0.0
 48
0.0
 49
0.0
140
0.0
141
0.0
142
1.0
143
8.618760106302893
 70
 11952
 72
     1
 73
     1
 74
     0
  7
sei_cad.ctb
 75
     0
147
0.116025969822353
148
-1186.072114919527
149
0.9083885272860925
100
AcDbLayout
  1
Model
 70
     1
 71
     0
 10
0.0
 20
0.0
 11
12.0
 21
9.0
 12
0.0
 22
0.0
 32
0.0
 14
0.0
 24
0.0
 34
0.0
 15
0.0
 25
0.0
 35
0.0
146
0.0
 13
0.0
 23
0.0
 33
0.0
 16
1.0
 26
0.0
 36
0.0
 17
0.0
 27
1.0
 37
0.0
 76
     0
330
1F
1001
ACAD_PSEXT
1000
SII LP-2150 (D-SCAN C2)
1000
SII LP-2150 (D-SCAN C2)
1000
133.153.16.130#3000
1000

1070
     0
  0
LAYOUT
  5
1E
102
{ACAD_XDICTIONARY
360
177C4
102
}
102
{ACAD_REACTORS
330
1A
102
}
330
1A
100
AcDbPlotSettings
  1

  2

  4

  6

 40
0.0
 41
0.0
 42
0.0
 43
0.0
 44
0.0
 45
0.0
 46
0.0
 47
0.0
 48
0.0
 49
0.0
140
0.0
141
0.0
142
1.0
143
1.0
 70
   688
 72
     0
 73
     0
 74
     5
  7
sei_cad.ctb
 75
    16
147
1.0
148
0.0
149
0.0
100
AcDbLayout
  1
レイアウト1
 70
     1
 71
     1
 10
0.0
 20
0.0
 11
420.0
 21
297.0
 12
0.0
 22
0.0
 32
0.0
 14
1.000000000000000E+20
 24
1.000000000000000E+20
 34
1.000000000000000E+20
 15
-1.000000000000000E+20
 25
-1.000000000000000E+20
 35
-1.000000000000000E+20
146
0.0
 13
0.0
 23
0.0
 33
0.0
 16
1.0
 26
0.0
 36
0.0
 17
0.0
 27
1.0
 37
0.0
 76
     0
330
1B
  0
LAYOUT
  5
26
102
{ACAD_XDICTIONARY
360
177C8
102
}
102
{ACAD_REACTORS
330
1A
102
}
330
1A
100
AcDbPlotSettings
  1

  2

  4

  6

 40
0.0
 41
0.0
 42
0.0
 43
0.0
 44
0.0
 45
0.0
 46
0.0
 47
0.0
 48
0.0
 49
0.0
140
0.0
141
0.0
142
1.0
143
1.0
 70
   688
 72
     0
 73
     0
 74
     5
  7
sei_cad.ctb
 75
    16
147
1.0
148
0.0
149
0.0
100
AcDbLayout
  1
レイアウト2
 70
     1
 71
     2
 10
0.0
 20
0.0
 11
12.0
 21
9.0
 12
0.0
 22
0.0
 32
0.0
 14
0.0
 24
0.0
 34
0.0
 15
0.0
 25
0.0
 35
0.0
146
0.0
 13
0.0
 23
0.0
 33
0.0
 16
1.0
 26
0.0
 36
0.0
 17
0.0
 27
1.0
 37
0.0
 76
     0
330
23
  0
MLINESTYLE
  5
18
102
{ACAD_REACTORS
330
17
102
}
330
17
100
AcDbMlineStyle
  2
STANDARD
 70
     0
  3

 62
   256
 51
90.0
 52
90.0
 71
     2
 49
0.5
 62
   256
  6
BYLAYER
 49
-0.5
 62
   256
  6
BYLAYER
  0
ACDBPLACEHOLDER
  5
F
102
{ACAD_REACTORS
330
E
102
}
330
E
  0
TABLESTYLE
  5
11B
102
{ACAD_REACTORS
330
11A
102
}
330
11A
100
AcDbTableStyle
  3
Standard
 70
     0
 71
     0
 40
1.5
 41
1.5
280
     0
281
     0
  7
STANDARD
140
4.5
170
     2
 62
     0
 63
     7
283
     0
274
    -2
284
     1
 64
     0
275
    -2
285
     1
 65
     0
276
    -2
286
     1
 66
     0
277
    -2
287
     1
 67
     0
278
    -2
288
     1
 68
     0
279
    -2
289
     1
 69
     0
  7
STANDARD
140
6.0
170
     5
 62
     0
 63
     7
283
     0
274
    -2
284
     1
 64
     0
275
    -2
285
     1
 65
     0
276
    -2
286
     1
 66
     0
277
    -2
287
     1
 67
     0
278
    -2
288
     1
 68
     0
279
    -2
289
     1
 69
     0
  7
STANDARD
140
4.5
170
     5
 62
     0
 63
     7
283
     0
274
    -2
284
     1
 64
     0
275
    -2
285
     1
 65
     0
276
    -2
286
     1
 66
     0
277
    -2
287
     1
 67
     0
278
    -2
288
     1
 68
     0
279
    -2
289
     1
 69
     0
  0
DICTIONARYVAR
  5
138
102
{ACAD_REACTORS
330
94
102
}
330
94
100
DictionaryVariables
280
     0
  1
STANDARD
  0
DICTIONARYVAR
  5
96
102
{ACAD_REACTORS
330
94
102
}
330
94
100
DictionaryVariables
280
     0
  1
2
  0
DICTIONARYVAR
  5
95
102
{ACAD_REACTORS
330
94
102
}
330
94
100
DictionaryVariables
280
     0
  1
0
  0
DICTIONARYVAR
  5
177C0
102
{ACAD_REACTORS
330
94
102
}
330
94
100
DictionaryVariables
280
     0
  1

  0
DICTIONARY
  5
1B5
102
{ACAD_REACTORS
330
5B
102
}
330
5B
100
AcDbDictionary
281
     1
  0
DICTIONARY
  5
61
102
{ACAD_REACTORS
330
5B
102
}
330
5B
100
AcDbDictionary
281
     1
  0
XRECORD
  5
123
102
{ACAD_REACTORS
330
5B
102
}
330
5B
100
AcDbXrecord
280
     1
 90
-1023410169
  0
XRECORD
  5
F55
102
{ACAD_REACTORS
330
F53
102
}
330
F53
100
AcDbXrecord
280
     1
  1
1,,,,,,,,,^M^J2,,,,,,,,,^M^J3,,,,,,,,,^M^J4,,,,,,,,,^M^J5,,,,,,,,,
  0

  0
XRECORD
  5
F54
102
{ACAD_REACTORS
330
F53
102
}
330
F53
100
AcDbXrecord
280
     1
  1
5,10
  0

  0
DICTIONARY
  5
177C6
330
22
100
AcDbDictionary
280
     1
281
     1
  3
ACAD_XREC_ROUNDTRIP
360
177C7
  0
DICTIONARY
  5
177C4
330
1E
100
AcDbDictionary
280
     1
281
     1
  3
ACAD_XREC_ROUNDTRIP
360
177C5
  0
DICTIONARY
  5
177C8
330
26
100
AcDbDictionary
280
     1
281
     1
  3
ACAD_XREC_ROUNDTRIP
360
177C9
  0
XRECORD
  5
177C7
102
{ACAD_REACTORS
330
177C6
102
}
330
177C6
100
AcDbXrecord
280
     1
102
SHADEPLOT
 70
     0
102
SHADEPLOTRESLEVEL
 70
     2
102
SHADEPLOTCUSTOMDPI
 70
   300
  0
XRECORD
  5
177C5
102
{ACAD_REACTORS
330
177C4
102
}
330
177C4
100
AcDbXrecord
280
     1
102
SHADEPLOT
 70
     0
102
SHADEPLOTRESLEVEL
 70
     2
102
SHADEPLOTCUSTOMDPI
 70
   300
  0
XRECORD
  5
177C9
102
{ACAD_REACTORS
330
177C8
102
}
330
177C8
100
AcDbXrecord
280
     1
102
SHADEPLOT
 70
     0
102
SHADEPLOTRESLEVEL
 70
     2
102
SHADEPLOTCUSTOMDPI
 70
   300
  0
ENDSEC
  0
EOF
