  0
SECTION
  2
HEADER
  9
$ACADVER
  1
AC1015
  9
$ACADMAINTVER
 70
    20
  9
$DWGCODEPAGE
  3
ANSI_932
  9
$INSBASE
 10
0.0
 20
0.0
 30
0.0
  9
$EXTMIN
 10
-86.81854160365015
 20
-74.37689148492279
 30
-0.0015258207003583
  9
$EXTMAX
 10
32.83172660138428
 20
49.88671915382929
 30
0.0000000349246037
  9
$LIMMIN
 10
0.0
 20
0.0
  9
$LIMMAX
 10
420.0
 20
297.0
  9
$ORTHOMODE
 70
     0
  9
$REGENMODE
 70
     1
  9
$FILLMODE
 70
     1
  9
$QTEXTMODE
 70
     0
  9
$MIRRTEXT
 70
     1
  9
$LTSCALE
 40
1.0
  9
$ATTMODE
 70
     1
  9
$TEXTSIZE
 40
3.799999999999999
  9
$TRACEWID
 40
1.0
  9
$TEXTSTYLE
  7
ACISOTS
  9
$CLAYER
  8
AM_0
  9
$CELTYPE
  6
ByLayer
  9
$CECOLOR
 62
   256
  9
$CELTSCALE
 40
1.0
  9
$DISPSILH
 70
     0
  9
$DIMSCALE
 40
1.0
  9
$DIMASZ
 40
2.5
  9
$DIMEXO
 40
1.0
  9
$DIMDLI
 40
10.0
  9
$DIMRND
 40
0.0
  9
$DIMDLE
 40
0.0
  9
$DIMEXE
 40
1.0
  9
$DIMTP
 40
0.1
  9
$DIMTM
 40
0.1000000001
  9
$DIMTXT
 40
3.799999999999999
  9
$DIMCEN
 40
0.0
  9
$DIMTSZ
 40
0.0
  9
$DIMTOL
 70
     0
  9
$DIMLIM
 70
     0
  9
$DIMTIH
 70
     0
  9
$DIMTOH
 70
     0
  9
$DIMSE1
 70
     0
  9
$DIMSE2
 70
     0
  9
$DIMTAD
 70
     3
  9
$DIMZIN
 70
     8
  9
$DIMBLK
  1
Open30
  9
$DIMASO
 70
     1
  9
$DIMSHO
 70
     1
  9
$DIMPOST
  1

  9
$DIMAPOST
  1
"
  9
$DIMALT
 70
     0
  9
$DIMALTD
 70
     2
  9
$DIMALTF
 40
0.0393701
  9
$DIMLFAC
 40
1.0
  9
$DIMTOFL
 70
     1
  9
$DIMTVP
 40
0.0
  9
$DIMTIX
 70
     0
  9
$DIMSOXD
 70
     0
  9
$DIMSAH
 70
     0
  9
$DIMBLK1
  1

  9
$DIMBLK2
  1

  9
$DIMSTYLE
  2
AM_JIS
  9
$DIMCLRD
 70
   256
  9
$DIMCLRE
 70
   256
  9
$DIMCLRT
 70
     2
  9
$DIMTFAC
 40
0.71
  9
$DIMGAP
 40
1.5
  9
$DIMJUST
 70
     0
  9
$DIMSD1
 70
     0
  9
$DIMSD2
 70
     0
  9
$DIMTOLJ
 70
     0
  9
$DIMTZIN
 70
     8
  9
$DIMALTZ
 70
     0
  9
$DIMALTTZ
 70
     0
  9
$DIMUPT
 70
     0
  9
$DIMDEC
 70
     0
  9
$DIMTDEC
 70
     2
  9
$DIMALTU
 70
     2
  9
$DIMALTTD
 70
     2
  9
$DIMTXSTY
  7
STANDARD
  9
$DIMAUNIT
 70
     1
  9
$DIMADEC
 70
     0
  9
$DIMALTRND
 40
0.0
  9
$DIMAZIN
 70
     2
  9
$DIMDSEP
 70
    46
  9
$DIMATFIT
 70
     3
  9
$DIMFRAC
 70
     0
  9
$DIMLDRBLK
  1
Open30
  9
$DIMLUNIT
 70
     2
  9
$DIMLWD
 70
    -1
  9
$DIMLWE
 70
    -1
  9
$DIMTMOVE
 70
     0
  9
$LUNITS
 70
     2
  9
$LUPREC
 70
     2
  9
$SKETCHINC
 40
1.0
  9
$FILLETRAD
 40
0.8
  9
$AUNITS
 70
     0
  9
$AUPREC
 70
     0
  9
$MENU
  1
.
  9
$ELEVATION
 40
0.0
  9
$PELEVATION
 40
0.0
  9
$THICKNESS
 40
0.0
  9
$LIMCHECK
 70
     0
  9
$CHAMFERA
 40
2.5
  9
$CHAMFERB
 40
2.5
  9
$CHAMFERC
 40
20.0
  9
$CHAMFERD
 40
0.0
  9
$SKPOLY
 70
     0
  9
$TDCREATE
 40
2455544.336997789
  9
$TDUCREATE
 40
2455543.961997789
  9
$TDUPDATE
 40
2455544.340936227
  9
$TDUUPDATE
 40
2455543.965936227
  9
$TDINDWG
 40
0.0039406134
  9
$TDUSRTIMER
 40
0.0039406134
  9
$USRTIMER
 70
     1
  9
$ANGBASE
 50
0.0
  9
$ANGDIR
 70
     0
  9
$PDMODE
 70
     0
  9
$PDSIZE
 40
0.0
  9
$PLINEWID
 40
0.0
  9
$SPLFRAME
 70
     0
  9
$SPLINETYPE
 70
     6
  9
$SPLINESEGS
 70
    40
  9
$HANDSEED
  5
94C
  9
$SURFTAB1
 70
     6
  9
$SURFTAB2
 70
     6
  9
$SURFTYPE
 70
     6
  9
$SURFU
 70
     6
  9
$SURFV
 70
     6
  9
$UCSBASE
  2

  9
$UCSNAME
  2

  9
$UCSORG
 10
0.0
 20
0.0
 30
0.0
  9
$UCSXDIR
 10
1.0
 20
0.0
 30
0.0
  9
$UCSYDIR
 10
0.0
 20
1.0
 30
0.0
  9
$UCSORTHOREF
  2

  9
$UCSORTHOVIEW
 70
     0
  9
$UCSORGTOP
 10
0.0
 20
0.0
 30
0.0
  9
$UCSORGBOTTOM
 10
0.0
 20
0.0
 30
0.0
  9
$UCSORGLEFT
 10
0.0
 20
0.0
 30
0.0
  9
$UCSORGRIGHT
 10
0.0
 20
0.0
 30
0.0
  9
$UCSORGFRONT
 10
0.0
 20
0.0
 30
0.0
  9
$UCSORGBACK
 10
0.0
 20
0.0
 30
0.0
  9
$PUCSBASE
  2

  9
$PUCSNAME
  2

  9
$PUCSORG
 10
0.0
 20
0.0
 30
0.0
  9
$PUCSXDIR
 10
1.0
 20
0.0
 30
0.0
  9
$PUCSYDIR
 10
0.0
 20
1.0
 30
0.0
  9
$PUCSORTHOREF
  2

  9
$PUCSORTHOVIEW
 70
     0
  9
$PUCSORGTOP
 10
0.0
 20
0.0
 30
0.0
  9
$PUCSORGBOTTOM
 10
0.0
 20
0.0
 30
0.0
  9
$PUCSORGLEFT
 10
0.0
 20
0.0
 30
0.0
  9
$PUCSORGRIGHT
 10
0.0
 20
0.0
 30
0.0
  9
$PUCSORGFRONT
 10
0.0
 20
0.0
 30
0.0
  9
$PUCSORGBACK
 10
0.0
 20
0.0
 30
0.0
  9
$USERI1
 70
     0
  9
$USERI2
 70
     0
  9
$USERI3
 70
     0
  9
$USERI4
 70
     0
  9
$USERI5
 70
     0
  9
$USERR1
 40
0.0
  9
$USERR2
 40
0.0
  9
$USERR3
 40
0.0
  9
$USERR4
 40
0.0
  9
$USERR5
 40
0.0
  9
$WORLDVIEW
 70
     1
  9
$SHADEDGE
 70
     3
  9
$SHADEDIF
 70
    70
  9
$TILEMODE
 70
     1
  9
$MAXACTVP
 70
    64
  9
$PINSBASE
 10
0.0
 20
0.0
 30
0.0
  9
$PLIMCHECK
 70
     0
  9
$PEXTMIN
 10
1.000000000000000E+20
 20
1.000000000000000E+20
 30
1.000000000000000E+20
  9
$PEXTMAX
 10
-1.000000000000000E+20
 20
-1.000000000000000E+20
 30
-1.000000000000000E+20
  9
$PLIMMIN
 10
0.0
 20
0.0
  9
$PLIMMAX
 10
420.0
 20
297.0
  9
$UNITMODE
 70
     0
  9
$VISRETAIN
 70
     1
  9
$PLINEGEN
 70
     0
  9
$PSLTSCALE
 70
     1
  9
$TREEDEPTH
 70
  3020
  9
$CMLSTYLE
  2
Standard
  9
$CMLJUST
 70
     0
  9
$CMLSCALE
 40
20.0
  9
$PROXYGRAPHICS
 70
     1
  9
$MEASUREMENT
 70
     1
  9
$CELWEIGHT
370
    -1
  9
$ENDCAPS
280
     0
  9
$JOINSTYLE
280
     0
  9
$LWDISPLAY
290
     0
  9
$INSUNITS
 70
     4
  9
$HYPERLINKBASE
  1

  9
$STYLESHEET
  1

  9
$XEDIT
290
     1
  9
$CEPSNTYPE
380
     0
  9
$PSTYLEMODE
290
     1
  9
$FINGERPRINTGUID
  2
{177E454D-540C-4CD3-A0A7-49E71D8C9430}
  9
$VERSIONGUID
  2
{B213A6B3-F711-4540-A220-9A960E138CC4}
  9
$EXTNAMES
290
     1
  9
$PSVPSCALE
 40
0.0
  9
$OLESTARTUP
290
     0
  0
ENDSEC
  0
SECTION
  2
CLASSES
  0
CLASS
  1
ACDBDICTIONARYWDFLT
  2
AcDbDictionaryWithDefault
  3
ObjectDBX Classes
 90
        0
280
     0
281
     0
  0
CLASS
  1
ACDBPLACEHOLDER
  2
AcDbPlaceHolder
  3
ObjectDBX Classes
 90
        0
280
     0
281
     0
  0
CLASS
  1
LAYOUT
  2
AcDbLayout
  3
ObjectDBX Classes
 90
        0
280
     0
281
     0
  0
CLASS
  1
ACME_DOCUMENT
  2
AcMeDbDoc
  3
AcMeServices
 90
        0
280
     0
281
     0
  0
CLASS
  1
AMGSETTINGSOBJ
  2
AmgSettingsObj
  3
"AcadM|Product Description: AutoCAD Mechanical 2000|Company: Autodesk"
 90
        0
280
     0
281
     0
  0
CLASS
  1
ACMESCOPE
  2
AcMeScope
  3
AcMeServices
 90
        0
280
     0
281
     0
  0
CLASS
  1
ACMECOMMANDHISTORY
  2
AcMeCommandHistory
  3
AcMeServices
 90
        0
280
     0
281
     0
  0
CLASS
  1
ACIMSYSVARMAN
  2
AcImSysVarManager
  3
AcMeServices
 90
        0
280
     0
281
     0
  0
CLASS
  1
ACIMREALSYSVAR
  2
AcImRealSysVar
  3
AcMeServices
 90
        0
280
     0
281
     0
  0
CLASS
  1
ACIMINTSYSVAR
  2
AcImIntSysVar
  3
AcMeServices
 90
        0
280
     0
281
     0
  0
CLASS
  1
ACMEDRAWINGMAN
  2
AcMeDrawingMan
  3
AcMeServices
 90
        0
280
     0
281
     0
  0
CLASS
  1
ACMEVIEW
  2
AcMeView
  3
AcMeServices
 90
        0
280
     0
281
     0
  0
CLASS
  1
ACDBENTITYCACHE
  2
AcMeEntityCache
  3
AcMeServices
 90
        0
280
     0
281
     0
  0
CLASS
  1
GSMANAGER
  2
AcMeGSManager
  3
AcMeServices
 90
        0
280
     0
281
     0
  0
CLASS
  1
AMDTINTERNALREACTOR
  2
AmdtInternalReactor
  3
AcMeServices
 90
        0
280
     0
281
     0
  0
CLASS
  1
ACMESTATEMGR
  2
AcMeStateMgr
  3
AcMeServices
 90
        0
280
     0
281
     0
  0
CLASS
  1
ACGREFMASTER
  2
AcGrefMaster
  3
AcAttribServices
 90
        0
280
     0
281
     0
  0
CLASS
  1
ACME_DATABASE
  2
AcMeDbDatabase
  3
AcMeServices
 90
        0
280
     0
281
     0
  0
CLASS
  1
ACRFINSADJUSTERMGR
  2
AcRfInsAdjusterMgr
  3
AcMeServices
 90
        0
280
     0
281
     0
  0
CLASS
  1
ACGREFACADMASTER
  2
AcGrefacadMaster
  3
AcGrefServices
 90
        0
280
     0
281
     0
  0
CLASS
  1
AMIMASTER
  2
AmiMaster
  3
AmiServices
 90
        0
280
     0
281
     0
  0
CLASS
  1
ACMDATADICTIONARY
  2
AcmDataDictionary
  3
"AcmSymBB|Product Description: AutoCAD Mechanical 2004 DX|Company: Autodesk"
 90
        0
280
     0
281
     0
  0
CLASS
  1
ACMDATAENTRYBLOCK
  2
AcmDataEntryBlock
  3
"AcmSymBB|Product Description: AutoCAD Mechanical 2004 DX|Company: Autodesk"
 90
        0
280
     0
281
     0
  0
CLASS
  1
ACIMSTRSYSVAR
  2
AcImStrSysVar
  3
AcMeServices
 90
        0
280
     0
281
     0
  0
CLASS
  1
ACMSTANDARDISO
  2
AcmStandardISO
  3
"Amdt_StdImp|Product Description: AutoCAD Mechanical 2004 DX|Company: Autodesk"
 90
        0
280
     0
281
     0
  0
CLASS
  1
AMGOBJPROPCFG
  2
AmgObjPropCfg
  3
"AmgLay|Product Description: AutoCAD Mechanical 2000|Company: Autodesk"
 90
        1
280
     0
281
     0
  0
CLASS
  1
AMDTEDGESTANDARDISO
  2
AmdtEdgeStdISO
  3
"Amdt_StdImp|Product Description: AutoCAD Mechanical 2004 DX|Company: Autodesk"
 90
        0
280
     0
281
     0
  0
CLASS
  1
ACMSURFSTANDARDISO
  2
AcmSurfTextStdISO
  3
"Amdt_StdImp|Product Description: AutoCAD Mechanical 2004 DX|Company: Autodesk"
 90
        0
280
     0
281
     0
  0
CLASS
  1
ACMFCFSTANDARDISO
  2
AcmFCFStdISO
  3
"Amdt_StdImp|Product Description: AutoCAD Mechanical 2004 DX|Company: Autodesk"
 90
        0
280
     0
281
     0
  0
CLASS
  1
ACMWELDSTANDARDISO
  2
AcmWeldingStdISO
  3
"Amdt_StdImp|Product Description: AutoCAD Mechanical 2004 DX|Company: Autodesk"
 90
        0
280
     0
281
     0
  0
CLASS
  1
ACMIDSTANDARDISO
  2
AcmIdStdISO
  3
"Amdt_StdImp|Product Description: AutoCAD Mechanical 2004 DX|Company: Autodesk"
 90
        0
280
     0
281
     0
  0
CLASS
  1
ACMDATUMSTANDARDISO
  2
AcmDatumStdISO
  3
"Amdt_StdImp|Product Description: AutoCAD Mechanical 2004 DX|Company: Autodesk"
 90
        0
280
     0
281
     0
  0
CLASS
  1
ACMBOMSTANDARDISO
  2
AcmBOMStdISO
  3
"Amdt_StdImp|Product Description: AutoCAD Mechanical 2004 DX|Company: Autodesk"
 90
        0
280
     0
281
     0
  0
CLASS
  1
ACMDETAILSTANDARDISO
  2
AmdtDetailSymStdISO
  3
"Amdt_StdImp|Product Description: AutoCAD Mechanical 2004 DX|Company: Autodesk"
 90
        0
280
     0
281
     0
  0
CLASS
  1
ACMSECTIONSTANDARDISO
  2
AmdtSectionSymStdISO
  3
"Amdt_StdImp|Product Description: AutoCAD Mechanical 2004 DX|Company: Autodesk"
 90
        0
280
     0
281
     0
  0
CLASS
  1
ACMCENTERLINESTANDARDISO
  2
AmdtCenterLineStdISO
  3
"Amdt_StdImp|Product Description: AutoCAD Mechanical 2004 DX|Company: Autodesk"
 90
        0
280
     0
281
     0
  0
CLASS
  1
ACMNOTESTANDARDISO
  2
AmdtNoteStdISO
  3
"Amdt_StdImp|Product Description: AutoCAD Mechanical 2004 DX|Company: Autodesk"
 90
        0
280
     0
281
     0
  0
CLASS
  1
ACAMGLAYSTD
  2
AcAmgLayStd
  3
"AcAmgLayStd|Product Description: AutoCAD Mechanical 2000|Company: Autodesk"
 90
        0
280
     0
281
     0
  0
CLASS
  1
ACAMGDIMSTD
  2
AcAmgDimStd
  3
"AcAmgDimStd|Product Description: AutoCAD Mechanical 2000|Company: Autodesk"
 90
        0
280
     0
281
     0
  0
CLASS
  1
ACAMGHOLECHARTSTDISO
  2
AcAmgHoleChartStdISO
  3
ACMSYMBB_MODULE_NAME
 90
        0
280
     0
281
     0
  0
CLASS
  1
ACAMGTITLESTD
  2
AcAmgTitleStd
  3
"TITLEAPP"
 90
        0
280
     0
281
     0
  0
CLASS
  1
LAYER_INDEX
  2
AcDbLayerIndex
  3
ObjectDBX Classes
 90
    32768
280
     0
281
     0
  0
CLASS
  1
IDBUFFER
  2
AcDbIdBuffer
  3
ObjectDBX Classes
 90
    32768
280
     0
281
     0
  0
CLASS
  1
DICTIONARYVAR
  2
AcDbDictionaryVar
  3
ObjectDBX Classes
 90
        0
280
     0
281
     0
  0
CLASS
  1
AM_DRAWING_MGR
  2
AcDmDwgMgr
  3
AcMechDwgViewMgmt
 90
        0
280
     0
281
     0
  0
CLASS
  1
AM_DWG_DOCUMENT
  2
AcDmDwgDocument
  3
AcMechDwgViewMgmt
 90
        0
280
     0
281
     0
  0
CLASS
  1
AM_DWG_SHEET
  2
AcDmSheet
  3
AcMechDwgViewMgmt
 90
        0
280
     0
281
     0
  0
CLASS
  1
AM_VIEWDIMPARMAP
  2
AcDmViewDimParMap
  3
AcMechDwgViewMgmt
 90
        0
280
     0
281
     0
  0
CLASS
  1
AM_DWGMGR_NAME
  2
AcDmDwgMgrName
  3
AcMechDwgViewMgmt
 90
        0
280
     0
281
     0
  0
CLASS
  1
AMDTMENUSTATEMGR
  2
AmdtMenuStateMgr
  3
McadcomServices
 90
        0
280
     0
281
     0
  0
CLASS
  1
AMDTMCOMMENUSTATE
  2
AmdtMcomMenuState
  3
McadcomServices
 90
        0
280
     0
281
     0
  0
CLASS
  1
MAPIAMMOUDLE
  2
MApiAmModule
  3
MApiAmServices
 90
        0
280
     0
281
     0
  0
CLASS
  1
AMDTADMENUSTATE
  2
AmdtAdMenuState
  3
DesignerServices
 90
        0
280
     0
281
     0
  0
CLASS
  1
ADAPPL
  2
AcAdAppl
  3
DesignerServices
 90
        0
280
     0
281
     0
  0
CLASS
  1
DEPMGR
  2
AcAdDepMgr
  3
DesignerServices
 90
        0
280
     0
281
     0
  0
CLASS
  1
PARAMMGR
  2
AcAdParamMgr
  3
DesignerServices
 90
        0
280
     0
281
     0
  0
CLASS
  1
PARAMSCOPE
  2
AcAdParamScope
  3
DesignerServices
 90
        0
280
     0
281
     0
  0
CLASS
  1
NAMEDAPPL
  2
AcAdNamedAppl
  3
DesignerServices
 90
        0
280
     0
281
     0
  0
CLASS
  1
AMDTDMMENUSTATE
  2
AmdtDmMenuState
  3
AcMechDwgViewMgmt
 90
        0
280
     0
281
     0
  0
CLASS
  1
AMDTAMMENUSTATE
  2
AmdtAmMenuState
  3
DesignerAssemblies
 90
        0
280
     0
281
     0
  0
CLASS
  1
ACAMPROJECT
  2
AcAmProject
  3
DesignerAssemblies
 90
        0
280
     0
281
     0
  0
CLASS
  1
ACAMGRCOMPDEF
  2
AcAmGrCompDef
  3
DesignerAssemblies
 90
        0
280
     0
281
     0
  0
CLASS
  1
ACCMCONTEXT
  2
AcCmContext
  3
DesignerAssemblies
 90
        0
280
     0
281
     0
  0
CLASS
  1
ACAMCOMPDEF
  2
AcAmCompDef
  3
DesignerAssemblies
 90
        0
280
     0
281
     0
  0
CLASS
  1
ACAMCOMPDEFMGR
  2
AcAmCompDefMgr
  3
DesignerAssemblies
 90
        0
280
     0
281
     0
  0
CLASS
  1
AMCONTEXTMGR
  2
AcAmContextMgr
  3
DesignerAssemblies
 90
        0
280
     0
281
     0
  0
CLASS
  1
ACAMCONTEXTMODELER
  2
AcAmContextModeler
  3
DesignerAssemblies
 90
        0
280
     0
281
     0
  0
CLASS
  1
ACMTHREADLINESTANDARDISO
  2
AmdtThreadLineStdISO
  3
"Amdt_StdImp|Product Description: AutoCAD Mechanical 2004 DX|Company: Autodesk"
 90
        0
280
     0
281
     0
  0
CLASS
  1
CATALOGSTATE
  2
AcAmCatalogState
  3
DesignerAssemblies
 90
        0
280
     0
281
     0
  0
CLASS
  1
ACAMGRCOMPDEFSET
  2
AcAmGrCompDefSet
  3
DesignerAssemblies
 90
        0
280
     0
281
     0
  0
CLASS
  1
AMDTBROWSERDBTAB
  2
AmdtBrowserDbTab
  3
McadcomServices
 90
        0
280
     0
281
     0
  0
CLASS
  1
CBROWSERAPPOBJECT
  2
CBrowserAppObject
  3
McadcomServices
 90
        0
280
     0
281
     0
  0
CLASS
  1
DM_PLACEHOLDER
  2
AcDmSelsetPlaceholder
  3
AcMechDwgViewMgmt
 90
        0
280
     0
281
     0
  0
CLASS
  1
TABLESTYLE
  2
AcDbTableStyle
  3
ObjectDBX Classes
 90
     2047
280
     0
281
     0
  0
CLASS
  1
VAACXREFPANELOBJECT
  2
VaAcXREFPanelObject
  3
VAAC_ADDIN
 90
    32768
280
     0
281
     0
  0
CLASS
  1
VAACIMAGEINVENTORY
  2
VaAcImageInventory
  3
VAAC_ADDIN
 90
    32768
280
     0
281
     0
  0
CLASS
  1
AMDTNOTETEMPLATEDB
  2
AmdtNoteTemplateDB
  3
AMDT_STDIMP_MODULE_NAME
 90
        0
280
     0
281
     0
  0
CLASS
  1
ACMBOM
  2
AcmBom
  3
"AcmSymBB|Product Description: AutoCAD Mechanical 2004 DX|Company: Autodesk"
 90
    32768
280
     0
281
     0
  0
CLASS
  1
AMDTFORMULAUPDATEDISPATCHER
  2
AmdtFormulaUpdateDispatcher
  3
AcMeServices
 90
    32768
280
     0
281
     0
  0
CLASS
  1
ACMPARTLIST
  2
AcmPartList
  3
"AcmSymBB|Product Description: AutoCAD Mechanical 2004 DX|Company: Autodesk"
 90
    33791
280
     0
281
     1
  0
CLASS
  1
ACAMGFILTERDAT
  2
AcAmgFilterDat
  3
"AcadM|Product Description: AutoCAD Mechanical 2000|Company: Autodesk"
 90
        0
280
     0
281
     0
  0
CLASS
  1
ACMSTANDARDJIS
  2
AcmStandardJIS
  3
"Amdt_StdImp|Product Description: AutoCAD Mechanical 2004 DX|Company: Autodesk"
 90
        0
280
     0
281
     0
  0
CLASS
  1
ACMSURFSTANDARDJIS
  2
AcmSurfTextStdJIS
  3
"Amdt_StdImp|Product Description: AutoCAD Mechanical 2004 DX|Company: Autodesk"
 90
        0
280
     0
281
     0
  0
CLASS
  1
ACMFCFSTANDARDJIS98
  2
AcmFCFStdJIS98
  3
"Amdt_StdImp|Product Description: AutoCAD Mechanical 2004 DX|Company: Autodesk"
 90
        0
280
     0
281
     0
  0
CLASS
  1
ACMWELDSTANDARDJIS
  2
AcmWeldingStdJIS
  3
"Amdt_StdImp|Product Description: AutoCAD Mechanical 2004 DX|Company: Autodesk"
 90
        0
280
     0
281
     0
  0
CLASS
  1
ACMIDSTANDARDJIS
  2
AcmIdStdJIS
  3
"Amdt_StdImp|Product Description: AutoCAD Mechanical 2004 DX|Company: Autodesk"
 90
        0
280
     0
281
     0
  0
CLASS
  1
ACMDATUMSTANDARDJIS
  2
AcmDatumStdJIS
  3
"Amdt_StdImp|Product Description: AutoCAD Mechanical 2004 DX|Company: Autodesk"
 90
        0
280
     0
281
     0
  0
CLASS
  1
ACMBOMSTANDARDJIS
  2
AcmBOMStdJIS
  3
"Amdt_StdImp|Product Description: AutoCAD Mechanical 2004 DX|Company: Autodesk"
 90
        0
280
     0
281
     0
  0
CLASS
  1
ACMDETAILSTANDARDJIS
  2
AmdtDetailSymStdJIS
  3
"Amdt_StdImp|Product Description: AutoCAD Mechanical 2004 DX|Company: Autodesk"
 90
        0
280
     0
281
     0
  0
CLASS
  1
ACMSECTIONSTANDARDJIS
  2
AmdtSectionSymStdJIS
  3
"Amdt_StdImp|Product Description: AutoCAD Mechanical 2004 DX|Company: Autodesk"
 90
        0
280
     0
281
     0
  0
CLASS
  1
ACMCENTERLINESTANDARDJIS
  2
AmdtCenterLineStdJIS
  3
"Amdt_StdImp|Product Description: AutoCAD Mechanical 2004 DX|Company: Autodesk"
 90
        0
280
     0
281
     0
  0
CLASS
  1
ACMTHREADLINESTANDARDJIS
  2
AmdtThreadLineStdJIS
  3
"Amdt_StdImp|Product Description: AutoCAD Mechanical 2004 DX|Company: Autodesk"
 90
        0
280
     0
281
     0
  0
CLASS
  1
ACMNOTESTANDARDJIS
  2
AmdtNoteStdJIS
  3
"Amdt_StdImp|Product Description: AutoCAD Mechanical 2004 DX|Company: Autodesk"
 90
        0
280
     0
281
     0
  0
CLASS
  1
ACAMGHOLECHARTSTDJIS
  2
AcAmgHoleChartStdJIS
  3
ACMSYMBB_MODULE_NAME
 90
        0
280
     0
281
     0
  0
CLASS
  1
DIMASSOC
  2
AcDbDimAssoc
  3
"AcDbDimAssoc|Product Desc:     AcDim ARX App For Dimension|Company:          Autodesk, Inc.|WEB Address:      www.autodesk.com"
 90
        0
280
     0
281
     0
  0
CLASS
  1
SORTENTSTABLE
  2
AcDbSortentsTable
  3
ObjectDBX Classes
 90
        0
280
     0
281
     0
  0
CLASS
  1
ACRFATTGENMGR
  2
AcRfAttGeneralMgr
  3
AcAttribServices
 90
        0
280
     0
281
     0
  0
ENDSEC
  0
SECTION
  2
TABLES
  0
TABLE
  2
VPORT
  5
8
330
0
100
AcDbSymbolTable
 70
   156
  0
VPORT
  5
943
330
8
100
AcDbSymbolTableRecord
100
AcDbViewportTableRecord
  2
*Active
 70
     0
 10
0.0
 20
0.0
 11
1.0
 21
1.0
 12
-26.99340750113294
 22
-12.24508616554675
 13
0.0
 23
0.0
 14
2.5
 24
2.5
 15
10.0
 25
10.0
 16
0.0
 26
0.0
 36
1.0
 17
0.0
 27
0.0
 37
0.0
 40
125.2194845667425
 41
1.514762516046213
 42
50.0
 43
0.0
 44
0.0
 50
0.0
 51
0.0
 71
     0
 72
 10000
 73
     1
 74
     3
 75
     0
 76
     0
 77
     0
 78
     0
281
     0
 65
     1
110
0.0
120
0.0
130
0.0
111
1.0
121
0.0
131
0.0
112
0.0
122
1.0
132
0.0
 79
     0
146
0.0
  0
ENDTAB
  0
TABLE
  2
LTYPE
  5
5
330
0
100
AcDbSymbolTable
 70
    18
  0
LTYPE
  5
14
330
5
100
AcDbSymbolTableRecord
100
AcDbLinetypeTableRecord
  2
ByBlock
 70
     0
  3

 72
    65
 73
     0
 40
0.0
  0
LTYPE
  5
15
330
5
100
AcDbSymbolTableRecord
100
AcDbLinetypeTableRecord
  2
ByLayer
 70
     0
  3

 72
    65
 73
     0
 40
0.0
  0
LTYPE
  5
16
330
5
100
AcDbSymbolTableRecord
100
AcDbLinetypeTableRecord
  2
Continuous
 70
     0
  3
Solid line
 72
    65
 73
     0
 40
0.0
  0
LTYPE
  5
64
330
5
100
AcDbSymbolTableRecord
100
AcDbLinetypeTableRecord
  2
AM_ISO02W050
 70
     0
  3
__ __ __ __ __ __ __ __ __ __ __ __ __ __ __
 72
    65
 73
     2
 40
7.5
 49
6.0
 74
     0
 49
-1.5
 74
     0
  0
LTYPE
  5
65
330
5
100
AcDbSymbolTableRecord
100
AcDbLinetypeTableRecord
  2
AM_ISO08W050
 70
     0
  3
____ . ____ . ____ . ____ . ____ . ____ . ____
 72
    65
 73
     4
 40
18.0
 49
12.0
 74
     0
 49
-1.5
 74
     0
 49
3.0
 74
     0
 49
-1.5
 74
     0
  0
LTYPE
  5
66
330
5
100
AcDbSymbolTableRecord
100
AcDbLinetypeTableRecord
  2
AM_ISO09W050
 70
     0
  3
_____ . . _____ . . _____ . . ____ .. ____
 72
    65
 73
     6
 40
22.5
 49
12.0
 74
     0
 49
-1.5
 74
     0
 49
3.0
 74
     0
 49
-1.5
 74
     0
 49
3.0
 74
     0
 49
-1.5
 74
     0
  0
LTYPE
  5
67
330
5
100
AcDbSymbolTableRecord
100
AcDbLinetypeTableRecord
  2
Amconstr
 70
     0
  3
_______________________
 72
    65
 73
     2
 40
9999.0
 49
9999.0
 74
     0
 49
0.0
 74
     0
  0
LTYPE
  5
68
330
5
100
AcDbSymbolTableRecord
100
AcDbLinetypeTableRecord
  2
AM_ISO08W050x2
 70
     0
  3
__ . __ . __ . __ . __ . __
 72
    65
 73
     4
 40
9.0
 49
6.0
 74
     0
 49
-0.75
 74
     0
 49
1.5
 74
     0
 49
-0.75
 74
     0
  0
LTYPE
  5
69
330
5
100
AcDbSymbolTableRecord
100
AcDbLinetypeTableRecord
  2
AM_ISO02W050x2
 70
     0
  3
 _ _ _ _ _ _ _ _ _ _ _ _
 72
    65
 73
     2
 40
3.75
 49
3.0
 74
     0
 49
-0.75
 74
     0
  0
LTYPE
  5
6C
330
5
100
AcDbSymbolTableRecord
100
AcDbLinetypeTableRecord
  2
Amzigzag
 70
     0
  3
/\/-/\/-/\/-/\/-/\/-/\/
 72
    65
 73
     2
 40
11.0001
 49
0.0001
 74
     4
 75
   135
340
6B
 46
0.04
 50
0.0
 44
0.0
 45
0.0
 49
-11.0
 74
     0
  0
LTYPE
  5
7A
330
5
100
AcDbSymbolTableRecord
100
AcDbLinetypeTableRecord
  2
ACISOWELD
 70
     0
  3
_ _ _ _ _
 72
    65
 73
     2
 40
2.0
 49
2.0
 74
     0
 49
-1.0
 74
     0
  0
LTYPE
  5
7B
330
5
100
AcDbSymbolTableRecord
100
AcDbLinetypeTableRecord
  2
ACISOTGB
 70
     0
  3
__ . . __ . .
 72
    65
 73
     6
 40
9.0
 49
4.0
 74
     0
 49
-1.0
 74
     0
 49
1.0
 74
     0
 49
-1.0
 74
     0
 49
1.0
 74
     0
 49
-1.0
 74
     0
  0
LTYPE
  5
7C
330
5
100
AcDbSymbolTableRecord
100
AcDbLinetypeTableRecord
  2
ACISOTGL
 70
     0
  3
_ _ _ _ _
 72
    65
 73
     2
 40
3.0
 49
2.0
 74
     0
 49
-1.0
 74
     0
  0
LTYPE
  5
7E
330
5
100
AcDbSymbolTableRecord
100
AcDbLinetypeTableRecord
  2
CENTER
 70
     0
  3
__ . __
 72
    65
 73
     4
 40
7.0
 49
4.0
 74
     0
 49
-1.0
 74
     0
 49
1.0
 74
     0
 49
-1.0
 74
     0
  0
LTYPE
  5
D8
330
5
100
AcDbSymbolTableRecord
100
AcDbLinetypeTableRecord
  2
HIDDEN
 70
     0
  3
Hidden __ __ __ __ __ __ __ __ __ __ __ __ __ _
 72
    65
 73
     2
 40
9.524999999999998
 49
6.349999999999999
 74
     0
 49
-3.174999999999999
 74
     0
  0
LTYPE
  5
D9
330
5
100
AcDbSymbolTableRecord
100
AcDbLinetypeTableRecord
  2
PHANTOM2
 70
     0
  3
Phantom (.5x) ___ _ _ ___ _ _ ___ _ _ ___ _ _
 72
    65
 73
     6
 40
31.75
 49
15.875
 74
     0
 49
-3.174999999999999
 74
     0
 49
3.174999999999999
 74
     0
 49
-3.174999999999999
 74
     0
 49
3.174999999999999
 74
     0
 49
-3.174999999999999
 74
     0
  0
LTYPE
  5
20C
330
5
100
AcDbSymbolTableRecord
100
AcDbLinetypeTableRecord
  2
ACJISWELD
 70
     0
  3
_ _ _ _ _
 72
    65
 73
     2
 40
2.0
 49
2.0
 74
     0
 49
-1.0
 74
     0
  0
LTYPE
  5
20D
330
5
100
AcDbSymbolTableRecord
100
AcDbLinetypeTableRecord
  2
ACJISTGB
 70
     0
  3
__ . . __ . .
 72
    65
 73
     6
 40
9.0
 49
4.0
 74
     0
 49
-1.0
 74
     0
 49
1.0
 74
     0
 49
-1.0
 74
     0
 49
1.0
 74
     0
 49
-1.0
 74
     0
  0
LTYPE
  5
20E
330
5
100
AcDbSymbolTableRecord
100
AcDbLinetypeTableRecord
  2
ACJISTGL
 70
     0
  3
_ _ _ _ _
 72
    65
 73
     2
 40
3.0
 49
2.0
 74
     0
 49
-1.0
 74
     0
  0
LTYPE
  5
473
330
5
100
AcDbSymbolTableRecord
100
AcDbLinetypeTableRecord
  2
DASHED
 70
     0
  3
__ __ __ __ __ __ __ __ __ __ __ __ __ __ __
 72
    65
 73
     2
 40
3.5
 49
2.0
 74
     0
 49
-1.5
 74
     0
  0
ENDTAB
  0
TABLE
  2
LAYER
  5
2
102
{ACAD_XDICTIONARY
360
34B
102
}
330
0
100
AcDbSymbolTable
 70
    13
  0
LAYER
  5
10
330
2
100
AcDbSymbolTableRecord
100
AcDbLayerTableRecord
  2
0
 70
     0
 62
     7
  6
Continuous
370
    -3
390
F
  0
LAYER
  5
34A
330
2
100
AcDbSymbolTableRecord
100
AcDbLayerTableRecord
  2
AM_0
 70
     0
 62
     7
  6
Continuous
370
    30
390
F
  0
LAYER
  5
3AC
330
2
100
AcDbSymbolTableRecord
100
AcDbLayerTableRecord
  2
AM_1
 70
     0
 62
    14
  6
Continuous
370
    30
390
F
  0
LAYER
  5
3AD
330
2
100
AcDbSymbolTableRecord
100
AcDbLayerTableRecord
  2
AM_2
 70
     0
 62
     5
  6
Continuous
370
    30
390
F
  0
LAYER
  5
3AE
330
2
100
AcDbSymbolTableRecord
100
AcDbLayerTableRecord
  2
AM_3
 70
     0
 62
     6
  6
AM_ISO02W050
370
    13
390
F
  0
LAYER
  5
3AF
330
2
100
AcDbSymbolTableRecord
100
AcDbLayerTableRecord
  2
AM_4
 70
     0
 62
     3
  6
Continuous
370
    13
390
F
  0
LAYER
  5
3B0
330
2
100
AcDbSymbolTableRecord
100
AcDbLayerTableRecord
  2
AM_5
 70
     0
 62
     3
  6
Continuous
370
    13
390
F
  0
LAYER
  5
3B1
330
2
100
AcDbSymbolTableRecord
100
AcDbLayerTableRecord
  2
AM_7
 70
     0
 62
     4
  6
AM_ISO08W050
370
    13
390
F
  0
LAYER
  5
3B2
330
2
100
AcDbSymbolTableRecord
100
AcDbLayerTableRecord
  2
AM_11
 70
     0
 62
     3
  6
AM_ISO09W050
370
    13
390
F
  0
LAYER
  5
474
330
2
100
AcDbSymbolTableRecord
100
AcDbLayerTableRecord
  2
Defpoints
 70
     0
 62
     7
  6
Continuous
290
     0
370
    -3
390
F
  0
LAYER
  5
475
330
2
100
AcDbSymbolTableRecord
100
AcDbLayerTableRecord
  2
AM-3
 70
     0
 62
     6
  6
DASHED
370
    13
390
F
1001
AcAecLayerStandard
1000

1000

  0
LAYER
  5
476
330
2
100
AcDbSymbolTableRecord
100
AcDbLayerTableRecord
  2
1
 70
     0
 62
     7
  6
Continuous
370
    -3
390
F
  0
LAYER
  5
760
330
2
100
AcDbSymbolTableRecord
100
AcDbLayerTableRecord
  2
AM_CL
 70
     0
 62
     1
  6
Amconstr
370
    30
390
F
  0
ENDTAB
  0
TABLE
  2
STYLE
  5
3
330
0
100
AcDbSymbolTable
 70
     9
  0
STYLE
  5
11
330
3
100
AcDbSymbolTableRecord
100
AcDbTextStyleTableRecord
  2
STANDARD
 70
     0
 40
0.0
 41
1.0
 50
0.0
 71
     0
 42
3.799999999999999
  3
ISOCP.SHX
  4
EXTFONT.SHX
  0
STYLE
  5
6B
330
3
100
AcDbSymbolTableRecord
100
AcDbTextStyleTableRecord
  2

 70
     1
 40
0.0
 41
1.0
 50
0.0
 71
     0
 42
2.5
  3
ltypeshp.shx
  4

  0
STYLE
  5
6D
330
3
100
AcDbSymbolTableRecord
100
AcDbTextStyleTableRecord
  2
ACISOTS
 70
     0
 40
3.799999999999999
 41
1.0
 50
0.0
 71
     0
 42
3.799999999999999
  3
isocp.shx
  4
extfont.shx
  0
STYLE
  5
79
330
3
100
AcDbSymbolTableRecord
100
AcDbTextStyleTableRecord
  2
ACISOGDT
 70
     0
 40
0.0
 41
1.0
 50
0.0
 71
     0
 42
2.5
  3
amgdt.shx
  4
extfont.shx
  0
STYLE
  5
1F8
330
3
100
AcDbSymbolTableRecord
100
AcDbTextStyleTableRecord
  2
USER1
 70
     0
 40
0.0
 41
1.0
 50
0.0
 71
     0
 42
1.0
  3
TXT.SHX
  4

  0
STYLE
  5
1F9
330
3
100
AcDbSymbolTableRecord
100
AcDbTextStyleTableRecord
  2
USER2
 70
     0
 40
0.0
 41
1.0
 50
0.0
 71
     0
 42
1.0
  3
SIMPLEX.SHX
  4

  0
STYLE
  5
1FA
330
3
100
AcDbSymbolTableRecord
100
AcDbTextStyleTableRecord
  2
USER3
 70
     0
 40
0.0
 41
1.0
 50
0.0
 71
     0
 42
1.0
  3
ITALIC.SHX
  4

  0
STYLE
  5
1FF
330
3
100
AcDbSymbolTableRecord
100
AcDbTextStyleTableRecord
  2
ACJISTS
 70
     0
 40
1.0
 41
1.0
 50
0.0
 71
     0
 42
1.0
  3
isocp.shx
  4
extfont.shx
  0
STYLE
  5
20B
330
3
100
AcDbSymbolTableRecord
100
AcDbTextStyleTableRecord
  2
ACJISGDT
 70
     0
 40
0.0
 41
1.0
 50
0.0
 71
     0
 42
1.0
  3
amgdt.shx
  4

  0
ENDTAB
  0
TABLE
  2
VIEW
  5
6
330
0
100
AcDbSymbolTable
 70
     0
  0
ENDTAB
  0
TABLE
  2
UCS
  5
7
330
0
100
AcDbSymbolTable
 70
     0
  0
ENDTAB
  0
TABLE
  2
APPID
  5
9
330
0
100
AcDbSymbolTable
 70
    17
  0
APPID
  5
12
330
9
100
AcDbSymbolTableRecord
100
AcDbRegAppTableRecord
  2
ACAD
 70
     0
  0
APPID
  5
46
330
9
100
AcDbSymbolTableRecord
100
AcDbRegAppTableRecord
  2
MCAD_NO_VIS
 70
     0
  0
APPID
  5
47
330
9
100
AcDbSymbolTableRecord
100
AcDbRegAppTableRecord
  2
ACAD_TEMP_GRAPHIC
 70
     0
  0
APPID
  5
58
330
9
100
AcDbSymbolTableRecord
100
AcDbRegAppTableRecord
  2
ACATTRIBSERVICES
 70
     0
  0
APPID
  5
EE
330
9
100
AcDbSymbolTableRecord
100
AcDbRegAppTableRecord
  2
AD_DRAW
 70
     0
  0
APPID
  5
10C
330
9
100
AcDbSymbolTableRecord
100
AcDbRegAppTableRecord
  2
DESIGNERASSEMBLIES
 70
     0
  0
APPID
  5
111
330
9
100
AcDbSymbolTableRecord
100
AcDbRegAppTableRecord
  2
ACADM_DIM_EDIT
 70
     0
  0
APPID
  5
112
330
9
100
AcDbSymbolTableRecord
100
AcDbRegAppTableRecord
  2
AMDT_DM_ADJ
 70
     0
  0
APPID
  5
243
330
9
100
AcDbSymbolTableRecord
100
AcDbRegAppTableRecord
  2
ACAD_DSTYLE_DIMTEXT_FILL
 70
     0
  0
APPID
  5
3B4
330
9
100
AcDbSymbolTableRecord
100
AcDbRegAppTableRecord
  2
ACAD_PSEXT
 70
     0
  0
APPID
  5
479
330
9
100
AcDbSymbolTableRecord
100
AcDbRegAppTableRecord
  2
GENIUS_GENODEF_13
 70
     0
  0
APPID
  5
47A
330
9
100
AcDbSymbolTableRecord
100
AcDbRegAppTableRecord
  2
GENIUS_GENOBJ-N-CEN_13
 70
     0
  0
APPID
  5
47B
330
9
100
AcDbSymbolTableRecord
100
AcDbRegAppTableRecord
  2
AcAecLayerStandard
 70
     0
  0
APPID
  5
47C
330
9
100
AcDbSymbolTableRecord
100
AcDbRegAppTableRecord
  2
GENIUS_GENDTOL_13
 70
     0
  0
APPID
  5
47D
330
9
100
AcDbSymbolTableRecord
100
AcDbRegAppTableRecord
  2
GENIUS_GENOBJ-N-FIL_13
 70
     0
  0
APPID
  5
793
330
9
100
AcDbSymbolTableRecord
100
AcDbRegAppTableRecord
  2
GENIUS_GENREC_14
 70
     0
  0
APPID
  5
794
330
9
100
AcDbSymbolTableRecord
100
AcDbRegAppTableRecord
  2
GENIUS_GENOBJ-N-REC_13
 70
     0
  0
ENDTAB
  0
TABLE
  2
DIMSTYLE
  5
A
330
0
100
AcDbSymbolTable
 70
    17
100
AcDbDimStyleTable
 71
     2
340
216
340
81
  0
DIMSTYLE
105
27
330
A
100
AcDbSymbolTableRecord
100
AcDbDimStyleTableRecord
  2
ISO-25
 70
     0
 41
2.5
 42
0.625
 43
3.75
 44
1.25
 73
     0
 74
     0
 77
     1
 78
     8
140
2.5
141
2.5
143
0.03937007874016
147
0.625
171
     3
172
     1
271
     2
272
     2
274
     3
278
    44
283
     0
284
     8
340
11
  0
DIMSTYLE
105
81
330
A
100
AcDbSymbolTableRecord
100
AcDbDimStyleTableRecord
  2
AM_ISO
 70
     0
  4
"
 41
2.5
 42
1.0
 43
10.0
 44
1.0
 47
0.1
 48
0.1
 73
     0
 74
     0
 77
     1
 78
     8
 79
     2
140
3.5
141
0.0
143
0.0393701
146
0.71
147
1.5
172
     1
176
   256
177
   256
178
     2
271
     2
272
     3
274
     4
283
     0
284
     8
340
11
371
    -1
372
    -1
  0
DIMSTYLE
105
82
330
A
100
AcDbSymbolTableRecord
100
AcDbDimStyleTableRecord
  2
AM_ISO$3
 70
     0
  4
"
 41
2.5
 42
1.0
 43
10.0
 44
1.0
 47
0.1
 48
0.1
 73
     0
 77
     1
 78
     8
 79
     2
140
3.5
141
0.0
143
0.0393701
146
0.71
147
1.5
176
   256
177
   256
178
     2
271
     2
272
     3
274
     4
283
     0
284
     8
288
     1
289
     0
340
11
371
    -1
372
    -1
  0
DIMSTYLE
105
83
330
A
100
AcDbSymbolTableRecord
100
AcDbDimStyleTableRecord
  2
AM_ISO$4
 70
     0
  4
"
 41
2.5
 42
1.0
 43
10.0
 44
1.0
 47
0.1
 48
0.1
 73
     0
 77
     1
 78
     8
 79
     2
140
3.5
141
0.0
143
0.0393701
146
0.71
147
1.5
176
   256
177
   256
178
     2
271
     2
272
     3
274
     4
283
     0
284
     8
288
     1
289
     0
340
11
371
    -1
372
    -1
  0
DIMSTYLE
105
84
330
A
100
AcDbSymbolTableRecord
100
AcDbDimStyleTableRecord
  2
AM_ISO$6
 70
     0
  4
"
 41
2.5
 42
1.0
 43
10.0
 44
1.0
 47
0.1
 48
0.1
 73
     0
 74
     0
 78
     8
 79
     2
140
3.5
141
0.0
143
0.0393701
146
0.71
147
1.5
172
     1
176
   256
177
   256
178
     2
271
     2
272
     3
274
     4
283
     0
284
     8
340
11
371
    -1
372
    -1
  0
DIMSTYLE
105
85
330
A
100
AcDbSymbolTableRecord
100
AcDbDimStyleTableRecord
  2
AM_ISO$7
 70
     0
  4
"
 41
2.5
 42
1.0
 43
10.0
 44
1.0
 47
0.1
 48
0.1
 73
     0
 74
     0
 77
     1
 78
     8
 79
     2
140
5.0
141
0.0
143
0.0393701
146
0.71
147
1.5
172
     1
176
   256
177
   256
178
     2
271
     2
272
     3
274
     4
283
     0
284
     8
340
11
371
    -1
372
    -1
  0
DIMSTYLE
105
86
330
A
100
AcDbSymbolTableRecord
100
AcDbDimStyleTableRecord
  2
AM_ISO$SF
 70
     0
  4
"
 41
2.5
 42
1.0
 43
10.0
 44
1.0
 47
0.1
 48
0.1
 73
     0
 74
     0
 75
     1
 76
     1
 77
     1
 78
     8
 79
     2
140
3.5
141
0.0
143
0.0393701
146
0.71
147
1.5
172
     1
176
   256
177
   256
178
     2
271
     2
272
     3
274
     4
283
     0
284
     8
340
11
371
    -1
372
    -1
  0
DIMSTYLE
105
8B
330
A
100
AcDbSymbolTableRecord
100
AcDbDimStyleTableRecord
  2
AM_ISO$SH
 70
     0
  4
"
 41
2.5
 42
1.0
 43
10.0
 44
1.0
 47
0.1
 48
0.1
 73
     0
 74
     0
 75
     1
 76
     1
 77
     1
 78
     8
 79
     2
140
3.5
141
0.0
143
0.0393701
144
2.0
146
0.71
147
1.5
172
     1
173
     1
176
   256
177
   256
178
     2
271
     2
272
     3
274
     4
283
     0
284
     8
340
11
343
87
371
    -1
372
    -1
  0
DIMSTYLE
105
216
330
A
100
AcDbSymbolTableRecord
100
AcDbDimStyleTableRecord
  2
AM_JIS
 70
     0
  4
"
 41
2.5
 42
1.0
 43
10.0
 44
1.0
 47
0.1
 48
0.1000000001
 73
     0
 74
     0
 77
     3
 78
     8
 79
     2
140
3.799999999999999
141
0.0
143
0.0393701
146
0.71
147
1.5
172
     1
176
   256
177
   256
178
     2
271
     2
272
     2
275
     1
283
     0
284
     8
340
11
341
217
342
217
371
    -1
372
    -1
  0
DIMSTYLE
105
21D
330
A
100
AcDbSymbolTableRecord
100
AcDbDimStyleTableRecord
  2
AM_JIS$3
 70
     0
  4
"
 41
2.5
 42
1.0
 43
10.0
 44
1.0
 47
0.1
 48
0.1000000001
 73
     0
 77
     3
 78
     8
 79
     2
140
3.799999999999999
141
0.0
143
0.0393701
146
0.71
147
1.5
176
   256
177
   256
178
     2
271
     2
272
     2
275
     1
283
     0
284
     8
288
     1
289
     0
340
11
341
217
342
217
371
    -1
372
    -1
  0
DIMSTYLE
105
21E
330
A
100
AcDbSymbolTableRecord
100
AcDbDimStyleTableRecord
  2
AM_JIS$4
 70
     0
  4
"
 41
2.5
 42
1.0
 43
10.0
 44
1.0
 47
0.1
 48
0.1000000001
 73
     0
 77
     3
 78
     8
 79
     2
140
3.799999999999999
141
0.0
143
0.0393701
146
0.71
147
1.5
176
   256
177
   256
178
     2
271
     2
272
     2
275
     1
283
     0
284
     8
288
     1
289
     0
340
11
341
217
342
217
371
    -1
372
    -1
  0
DIMSTYLE
105
21F
330
A
100
AcDbSymbolTableRecord
100
AcDbDimStyleTableRecord
  2
AM_JIS$6
 70
     0
  4
"
 41
2.5
 42
1.0
 43
10.0
 44
1.0
 47
0.1
 48
0.1000000001
 73
     0
 74
     0
 78
     8
 79
     2
140
3.799999999999999
141
0.0
143
0.0393701
146
0.71
147
1.5
172
     1
176
   256
177
   256
178
     2
271
     2
272
     2
275
     1
283
     0
284
     8
340
11
341
217
342
217
371
    -1
372
    -1
  0
DIMSTYLE
105
220
330
A
100
AcDbSymbolTableRecord
100
AcDbDimStyleTableRecord
  2
AM_JIS$7
 70
     0
  4
"
 41
2.5
 42
1.0
 43
10.0
 44
1.0
 47
0.1
 48
0.1000000001
 73
     0
 74
     0
 77
     3
 78
     8
 79
     2
140
5.0
141
0.0
143
0.0393701
146
0.71
147
1.5
172
     1
176
   256
177
   256
178
     2
271
     2
272
     2
275
     1
283
     0
284
     8
340
11
341
217
342
217
371
    -1
372
    -1
  0
DIMSTYLE
105
221
330
A
100
AcDbSymbolTableRecord
100
AcDbDimStyleTableRecord
  2
AM_JIS$SF
 70
     0
  4
"
 41
2.5
 42
1.0
 43
10.0
 44
1.0
 47
0.1
 48
0.1
 73
     0
 74
     0
 75
     1
 76
     1
 77
     3
 78
     8
 79
     2
140
3.5
141
0.0
143
0.0393701
146
0.71
147
1.5
172
     1
176
   256
177
   256
178
     2
271
     2
272
     3
274
     4
283
     0
284
     8
340
11
341
217
342
217
343
217
344
217
371
    -1
372
    -1
  0
DIMSTYLE
105
222
330
A
100
AcDbSymbolTableRecord
100
AcDbDimStyleTableRecord
  2
AM_JIS$SH
 70
     0
  4
"
 41
2.5
 42
1.0
 43
10.0
 44
1.0
 47
0.1
 48
0.1
 73
     0
 74
     0
 75
     1
 76
     1
 77
     3
 78
     8
 79
     2
140
3.5
141
0.0
143
0.0393701
144
2.0
146
0.71
147
1.5
172
     1
173
     1
176
   256
177
   256
178
     2
271
     2
272
     3
274
     4
283
     0
284
     8
340
11
341
217
342
217
343
87
344
217
371
    -1
372
    -1
  0
DIMSTYLE
105
477
102
{ACAD_REACTORS
330
4B4
330
4CF
330
4D2
330
4B7
330
4B8
330
4BC
330
4BD
330
4DD
330
55F
330
562
330
5A3
330
5A6
330
5A7
330
5AB
330
5AC
330
5BE
330
5C1
330
5CC
330
854
330
890
102
}
330
A
100
AcDbSymbolTableRecord
100
AcDbDimStyleTableRecord
  2
AM_JIS$0
 70
     0
  4
"
 41
2.5
 42
0.0
 43
10.0
 44
1.0
 48
0.000000001
 73
     0
 74
     0
 77
     3
 78
     1
 79
     2
140
3.799999999999999
141
0.0
143
0.0393701
146
0.71
147
1.5
172
     1
176
   256
177
   256
178
     2
179
     1
271
     3
272
     3
275
     1
283
     0
284
     8
340
11
341
217
342
217
371
    -1
372
    -1
  0
DIMSTYLE
105
478
102
{ACAD_REACTORS
330
4CE
330
565
102
}
330
A
100
AcDbSymbolTableRecord
100
AcDbDimStyleTableRecord
  2
AM_JIS$2
 70
     0
  4
"
 41
2.2
 42
0.3
 43
0.5
 44
0.3
 47
0.1
 48
0.1000000001
 73
     0
 74
     0
 77
     3
 78
     8
 79
     2
140
3.799999999999999
141
0.0
143
0.0393701
146
0.71
147
1.5
172
     1
176
     3
177
     3
178
     2
271
     2
272
     2
275
     1
283
     0
284
     8
340
11
341
217
342
217
371
    -1
372
    -1
  0
ENDTAB
  0
TABLE
  2
BLOCK_RECORD
  5
1
330
0
100
AcDbSymbolTable
 70
    33
  0
BLOCK_RECORD
  5
1F
102
{ACAD_XDICTIONARY
360
8F
102
}
330
1
100
AcDbSymbolTableRecord
100
AcDbBlockTableRecord
  2
*Model_Space
340
22
  0
BLOCK_RECORD
  5
1B
330
1
100
AcDbSymbolTableRecord
100
AcDbBlockTableRecord
  2
*Paper_Space
340
1E
  0
BLOCK_RECORD
  5
23
330
1
100
AcDbSymbolTableRecord
100
AcDbBlockTableRecord
  2
*Paper_Space0
340
26
  0
BLOCK_RECORD
  5
87
330
1
100
AcDbSymbolTableRecord
100
AcDbBlockTableRecord
  2
GENAXEH
340
0
  0
BLOCK_RECORD
  5
217
330
1
100
AcDbSymbolTableRecord
100
AcDbBlockTableRecord
  2
_Open30
340
0
102
{BLKREFS
331
3E4
331
3E5
331
417
331
418
331
423
331
424
331
431
331
432
331
43D
331
43E
331
3F2
331
3FF
331
400
331
40B
331
40C
331
449
331
44A
331
455
331
456
331
460
331
46A
331
46B
331
6ED
331
71C
331
723
331
724
331
7EA
331
7EB
331
8E0
331
8E1
331
8E9
331
8EA
331
8F4
331
8F5
331
8FD
331
8FE
331
906
331
907
331
90F
331
910
331
918
331
919
331
929
331
931
331
932
331
93A
331
93B
102
}
  0
BLOCK_RECORD
  5
3DC
330
1
100
AcDbSymbolTableRecord
100
AcDbBlockTableRecord
  2
_None
340
0
  0
BLOCK_RECORD
  5
3DF
330
1
100
AcDbSymbolTableRecord
100
AcDbBlockTableRecord
  2
*D5
340
0
  0
BLOCK_RECORD
  5
3EB
330
1
100
AcDbSymbolTableRecord
100
AcDbBlockTableRecord
  2
*D6
340
0
  0
BLOCK_RECORD
  5
3FA
330
1
100
AcDbSymbolTableRecord
100
AcDbBlockTableRecord
  2
*D7
340
0
  0
BLOCK_RECORD
  5
406
330
1
100
AcDbSymbolTableRecord
100
AcDbBlockTableRecord
  2
*D8
340
0
  0
BLOCK_RECORD
  5
412
330
1
100
AcDbSymbolTableRecord
100
AcDbBlockTableRecord
  2
*D9
340
0
  0
BLOCK_RECORD
  5
41E
330
1
100
AcDbSymbolTableRecord
100
AcDbBlockTableRecord
  2
*D10
340
0
  0
BLOCK_RECORD
  5
42A
330
1
100
AcDbSymbolTableRecord
100
AcDbBlockTableRecord
  2
*D11
340
0
  0
BLOCK_RECORD
  5
438
330
1
100
AcDbSymbolTableRecord
100
AcDbBlockTableRecord
  2
*D12
340
0
  0
BLOCK_RECORD
  5
444
330
1
100
AcDbSymbolTableRecord
100
AcDbBlockTableRecord
  2
*D13
340
0
  0
BLOCK_RECORD
  5
450
330
1
100
AcDbSymbolTableRecord
100
AcDbBlockTableRecord
  2
*D14
340
0
  0
BLOCK_RECORD
  5
45C
330
1
100
AcDbSymbolTableRecord
100
AcDbBlockTableRecord
  2
*D15
340
0
  0
BLOCK_RECORD
  5
466
330
1
100
AcDbSymbolTableRecord
100
AcDbBlockTableRecord
  2
*D16
340
0
  0
BLOCK_RECORD
  5
658
330
1
100
AcDbSymbolTableRecord
100
AcDbBlockTableRecord
  2
*D18
340
0
  0
BLOCK_RECORD
  5
662
330
1
100
AcDbSymbolTableRecord
100
AcDbBlockTableRecord
  2
*D19
340
0
  0
BLOCK_RECORD
  5
66C
330
1
100
AcDbSymbolTableRecord
100
AcDbBlockTableRecord
  2
*D20
340
0
  0
BLOCK_RECORD
  5
678
330
1
100
AcDbSymbolTableRecord
100
AcDbBlockTableRecord
  2
*D21
340
0
  0
BLOCK_RECORD
  5
682
330
1
100
AcDbSymbolTableRecord
100
AcDbBlockTableRecord
  2
*D22
340
0
  0
BLOCK_RECORD
  5
68F
330
1
100
AcDbSymbolTableRecord
100
AcDbBlockTableRecord
  2
*D23
340
0
  0
BLOCK_RECORD
  5
699
330
1
100
AcDbSymbolTableRecord
100
AcDbBlockTableRecord
  2
*D24
340
0
  0
BLOCK_RECORD
  5
6A3
330
1
100
AcDbSymbolTableRecord
100
AcDbBlockTableRecord
  2
*D25
340
0
  0
BLOCK_RECORD
  5
6AD
330
1
100
AcDbSymbolTableRecord
100
AcDbBlockTableRecord
  2
*D26
340
0
  0
BLOCK_RECORD
  5
6B8
330
1
100
AcDbSymbolTableRecord
100
AcDbBlockTableRecord
  2
*D27
340
0
  0
BLOCK_RECORD
  5
70F
330
1
100
AcDbSymbolTableRecord
100
AcDbBlockTableRecord
  2
*D28
340
0
  0
BLOCK_RECORD
  5
719
330
1
100
AcDbSymbolTableRecord
100
AcDbBlockTableRecord
  2
*D29
340
0
  0
BLOCK_RECORD
  5
855
330
1
100
AcDbSymbolTableRecord
100
AcDbBlockTableRecord
  2
*D31
340
0
  0
BLOCK_RECORD
  5
891
330
1
100
AcDbSymbolTableRecord
100
AcDbBlockTableRecord
  2
*D32
340
0
  0
ENDTAB
  0
ENDSEC
  0
SECTION
  2
BLOCKS
  0
BLOCK
  5
20
330
1F
100
AcDbEntity
  8
0
100
AcDbBlockBegin
  2
*Model_Space
 70
     0
 10
0.0
 20
0.0
 30
0.0
  3
*Model_Space
  1

  0
ENDBLK
  5
21
330
1F
100
AcDbEntity
  8
0
100
AcDbBlockEnd
  0
BLOCK
  5
1C
330
1B
100
AcDbEntity
 67
     1
  8
0
100
AcDbBlockBegin
  2
*Paper_Space
 70
     0
 10
0.0
 20
0.0
 30
0.0
  3
*Paper_Space
  1

  0
ENDBLK
  5
1D
330
1B
100
AcDbEntity
 67
     1
  8
0
100
AcDbBlockEnd
  0
BLOCK
  5
24
330
23
100
AcDbEntity
  8
0
100
AcDbBlockBegin
  2
*Paper_Space0
 70
     0
 10
0.0
 20
0.0
 30
0.0
  3
*Paper_Space0
  1

  0
ENDBLK
  5
25
330
23
100
AcDbEntity
  8
0
100
AcDbBlockEnd
  0
BLOCK
  5
89
330
87
100
AcDbEntity
  8
0
100
AcDbBlockBegin
  2
GENAXEH
 70
     0
 10
0.0
 20
0.0
 30
0.0
  3
GENAXEH
  1

  0
LINE
  5
88
330
87
100
AcDbEntity
  8
0
100
AcDbLine
 10
-1.0
 20
0.0
 30
0.0
 11
1.0
 21
0.0
 31
0.0
  0
ENDBLK
  5
8A
330
87
100
AcDbEntity
  8
0
100
AcDbBlockEnd
  0
BLOCK
  5
21B
330
217
100
AcDbEntity
  8
0
100
AcDbBlockBegin
  2
_Open30
 70
     0
 10
0.0
 20
0.0
 30
0.0
  3
_Open30
  1

  0
LINE
  5
218
330
217
100
AcDbEntity
  8
0
  6
ByBlock
 62
     0
370
    -2
100
AcDbLine
 10
-1.0
 20
0.26794919
 30
0.0
 11
0.0
 21
0.0
 31
0.0
  0
LINE
  5
219
330
217
100
AcDbEntity
  8
0
  6
ByBlock
 62
     0
370
    -2
100
AcDbLine
 10
0.0
 20
0.0
 30
0.0
 11
-1.0
 21
-0.26794919
 31
0.0
  0
LINE
  5
21A
330
217
100
AcDbEntity
  8
0
  6
ByBlock
 62
     0
370
    -2
100
AcDbLine
 10
0.0
 20
0.0
 30
0.0
 11
-1.0
 21
0.0
 31
0.0
  0
ENDBLK
  5
21C
330
217
100
AcDbEntity
  8
0
100
AcDbBlockEnd
  0
BLOCK
  5
3DD
330
3DC
100
AcDbEntity
  8
0
100
AcDbBlockBegin
  2
_None
 70
     0
 10
0.0
 20
0.0
 30
0.0
  3
_None
  1

  0
ENDBLK
  5
3DE
330
3DC
100
AcDbEntity
  8
0
100
AcDbBlockEnd
  0
BLOCK
  5
3E0
330
3DF
100
AcDbEntity
  8
0
100
AcDbBlockBegin
  2
*D5
 70
     1
 10
0.0
 20
0.0
 30
0.0
  3
*D5
  1

  0
LINE
  5
3E1
330
3DF
100
AcDbEntity
  8
AM_5
100
AcDbLine
 10
789.3725389322794
 20
141.9261515871838
 30
0.0
 11
750.6322286450879
 21
141.9261515871838
 31
0.0
  0
LINE
  5
3E2
330
3DF
100
AcDbEntity
  8
AM_5
100
AcDbLine
 10
789.5460338434446
 20
81.92615158718377
 30
0.0
 11
750.6322286450879
 21
81.92615158718377
 31
0.0
  0
LINE
  5
3E3
330
3DF
100
AcDbEntity
  8
AM_5
100
AcDbLine
 10
751.6322286450879
 20
139.4261515871837
 30
0.0
 11
751.6322286450879
 21
84.42615158718377
 31
0.0
  0
INSERT
  5
3E4
330
3DF
100
AcDbEntity
  8
AM_5
100
AcDbBlockReference
  2
_Open30
 10
751.6322286450879
 20
141.9261515871838
 30
0.0
 41
2.5
 42
2.5
 43
2.5
 50
90.0
  0
INSERT
  5
3E5
330
3DF
100
AcDbEntity
  8
AM_5
100
AcDbBlockReference
  2
_Open30
 10
751.6322286450879
 20
81.92615158718377
 30
0.0
 41
2.5
 42
2.5
 43
2.5
 50
270.0
  0
MTEXT
  5
3E6
330
3DF
100
AcDbEntity
  8
AM_5
 62
     2
100
AcDbMText
 10
748.2322286450879
 20
111.9261515871839
 30
0.0
 40
3.799999999999999
 41
0.0
 71
     5
 72
     1
  1
%%c60
 11
0.0000000000000001
 21
1.0
 31
0.0
 73
     1
 44
1.0
1001
ACAD
1000
MTEXTBEGIN
1070
    73
1070
     1
1070
    44
1040
1.0
1070
    74
1070
     0
1000
MTEXTEND
  0
POINT
  5
3E7
330
3DF
100
AcDbEntity
  8
Defpoints
 62
     0
100
AcDbPoint
 10
789.3725389322794
 20
141.9261515871838
 30
0.0
  0
POINT
  5
3E8
330
3DF
100
AcDbEntity
  8
Defpoints
 62
     0
100
AcDbPoint
 10
789.5460338434446
 20
81.92615158718377
 30
0.0
  0
POINT
  5
3E9
330
3DF
100
AcDbEntity
  8
Defpoints
 62
     0
100
AcDbPoint
 10
751.6322286450879
 20
81.92615158718377
 30
0.0
  0
ENDBLK
  5
3EA
330
3DF
100
AcDbEntity
  8
0
100
AcDbBlockEnd
  0
BLOCK
  5
3EC
330
3EB
100
AcDbEntity
  8
0
100
AcDbBlockBegin
  2
*D6
 70
     1
 10
0.0
 20
0.0
 30
0.0
  3
*D6
  1

  0
LINE
  5
3ED
330
3EB
100
AcDbEntity
  8
AM_5
 62
     3
100
AcDbLine
 10
822.9241060956795
 20
100.2989907687418
 30
0.0
 11
854.236027505931
 21
91.90898858919922
 31
0.0
  0
LINE
  5
3EE
330
3EB
100
AcDbEntity
  8
AM_5
 62
     3
100
AcDbLine
 10
829.1514573085695
 20
101.9261514038855
 30
0.0
 11
855.5548117485544
 21
101.9261510104148
 31
0.0
  0
ARC
  5
3EF
330
3EB
100
AcDbEntity
  8
AM_5
 62
     3
100
AcDbCircle
 10
816.8514578914718
 20
101.9261515871837
 30
0.0
 40
38.40335385708234
100
AcDbArc
 50
338.4345371784114
 51
341.7172701904488
  0
ARC
  5
3F0
330
3EB
100
AcDbEntity
  8
AM_5
 62
     3
100
AcDbCircle
 10
816.8514578914718
 20
101.9261515871837
 30
0.0
 40
38.40335385708234
100
AcDbArc
 50
359.9999991461612
 51
3.282732158198546
  0
ARC
  5
3F1
330
3EB
100
AcDbEntity
  8
AM_5
 62
     3
100
AcDbCircle
 10
816.8514578914718
 20
101.9261515871837
 30
0.0
 40
38.40335385708234
100
AcDbArc
 50
345.0000032024862
 51
359.9999991461612
  0
INSERT
  5
3F2
330
3EB
100
AcDbEntity
  8
AM_5
 62
     3
100
AcDbBlockReference
  2
_Open30
 10
853.9462497537044
 20
91.98663428653317
 30
0.0
 41
2.2
 42
2.2
 43
2.2
 50
73.35863669646755
  0
MTEXT
  5
3F3
330
3EB
100
AcDbEntity
  8
AM_5
 62
     2
100
AcDbMText
 10
851.5553532975678
 20
97.35729780457234
 30
0.0
 40
3.799999999999999
 41
0.0
 71
     5
 72
     1
  1
15%%d
 11
0.1305261718995825
 21
0.9914448640490507
 31
0.0
 73
     1
 44
1.0
1001
ACAD
1000
MTEXTBEGIN
1070
    73
1070
     1
1070
    44
1040
1.0
1070
    74
1070
     0
1000
MTEXTEND
  0
POINT
  5
3F4
330
3EB
100
AcDbEntity
  8
Defpoints
 62
     0
100
AcDbPoint
 10
854.6713787269638
 20
95.25748039500452
 30
0.0
  0
POINT
  5
3F5
330
3EB
100
AcDbEntity
  8
Defpoints
 62
     0
100
AcDbPoint
 10
816.8514578914718
 20
101.9261515871837
 30
0.0
  0
POINT
  5
3F6
330
3EB
100
AcDbEntity
  8
Defpoints
 62
     0
100
AcDbPoint
 10
822.6343283434527
 20
100.3766364660757
 30
0.0
  0
POINT
  5
3F7
330
3EB
100
AcDbEntity
  8
Defpoints
 62
     0
100
AcDbPoint
 10
816.8514578914718
 20
101.9261515871837
 30
0.0
  0
POINT
  5
3F8
330
3EB
100
AcDbEntity
  8
Defpoints
 62
     0
100
AcDbPoint
 10
828.8514573085695
 20
101.9261514083561
 30
0.0
  0
ENDBLK
  5
3F9
330
3EB
100
AcDbEntity
  8
0
100
AcDbBlockEnd
  0
BLOCK
  5
3FB
330
3FA
100
AcDbEntity
  8
0
100
AcDbBlockBegin
  2
*D7
 70
     1
 10
0.0
 20
0.0
 30
0.0
  3
*D7
  1

  0
LINE
  5
3FC
330
3FA
100
AcDbEntity
  8
AM_5
100
AcDbLine
 10
816.8514578914718
 20
101.9261515871837
 30
0.0
 11
856.2821577271934
 21
101.9261515871837
 31
0.0
  0
LINE
  5
3FD
330
3FA
100
AcDbEntity
  8
AM_5
100
AcDbLine
 10
816.8514578914718
 20
121.9261515871837
 30
0.0
 11
856.2821577271934
 21
121.9261515871837
 31
0.0
  0
LINE
  5
3FE
330
3FA
100
AcDbEntity
  8
AM_5
100
AcDbLine
 10
855.2821577271934
 20
104.4261515871838
 30
0.0
 11
855.2821577271934
 21
119.4261515871837
 31
0.0
  0
INSERT
  5
3FF
330
3FA
100
AcDbEntity
  8
AM_5
100
AcDbBlockReference
  2
_Open30
 10
855.2821577271934
 20
101.9261515871837
 30
0.0
 41
2.5
 42
2.5
 43
2.5
 50
270.0
  0
INSERT
  5
400
330
3FA
100
AcDbEntity
  8
AM_5
100
AcDbBlockReference
  2
_Open30
 10
855.2821577271934
 20
121.9261515871837
 30
0.0
 41
2.5
 42
2.5
 43
2.5
 50
90.0
  0
MTEXT
  5
401
330
3FA
100
AcDbEntity
  8
AM_5
 62
     2
100
AcDbMText
 10
851.8817837114452
 20
111.9261515871839
 30
0.0
 40
3.799999999999999
 41
0.0
 71
     5
 72
     1
  1
%%c20
 11
0.0000000000000001
 21
1.0
 31
0.0
 73
     1
 44
1.0
1001
ACAD
1000
MTEXTBEGIN
1070
    73
1070
     1
1070
    44
1040
1.0
1070
    74
1070
     0
1000
MTEXTEND
  0
POINT
  5
402
330
3FA
100
AcDbEntity
  8
Defpoints
 62
     0
100
AcDbPoint
 10
816.8514578914718
 20
101.9261515871837
 30
0.0
  0
POINT
  5
403
330
3FA
100
AcDbEntity
  8
Defpoints
 62
     0
100
AcDbPoint
 10
816.8514578914718
 20
121.9261515871837
 30
0.0
  0
POINT
  5
404
330
3FA
100
AcDbEntity
  8
Defpoints
 62
     0
100
AcDbPoint
 10
855.2821577271934
 20
121.9261515871837
 30
0.0
  0
ENDBLK
  5
405
330
3FA
100
AcDbEntity
  8
0
100
AcDbBlockEnd
  0
BLOCK
  5
407
330
406
100
AcDbEntity
  8
0
100
AcDbBlockBegin
  2
*D8
 70
     1
 10
0.0
 20
0.0
 30
0.0
  3
*D8
  1

  0
LINE
  5
408
330
406
100
AcDbEntity
  8
AM_5
100
AcDbLine
 10
816.8514578914718
 20
105.4261515871837
 30
0.0
 11
845.4321122282573
 21
105.4261515871837
 31
0.0
  0
LINE
  5
409
330
406
100
AcDbEntity
  8
AM_5
100
AcDbLine
 10
816.8514578914718
 20
118.4261515871837
 30
0.0
 11
845.4321122282573
 21
118.4261515871837
 31
0.0
  0
LINE
  5
40A
330
406
100
AcDbEntity
  8
AM_5
100
AcDbLine
 10
844.4321122282573
 20
107.9261515871837
 30
0.0
 11
844.4321122282573
 21
115.9261515871838
 31
0.0
  0
INSERT
  5
40B
330
406
100
AcDbEntity
  8
AM_5
100
AcDbBlockReference
  2
_Open30
 10
844.4321122282573
 20
105.4261515871837
 30
0.0
 41
2.5
 42
2.5
 43
2.5
 50
270.0
  0
INSERT
  5
40C
330
406
100
AcDbEntity
  8
AM_5
100
AcDbBlockReference
  2
_Open30
 10
844.4321122282573
 20
118.4261515871837
 30
0.0
 41
2.5
 42
2.5
 43
2.5
 50
90.0
  0
MTEXT
  5
40D
330
406
100
AcDbEntity
  8
AM_5
 62
     2
100
AcDbMText
 10
841.0321122282573
 20
111.9261515871839
 30
0.0
 40
3.799999999999999
 41
0.0
 71
     5
 72
     1
  1
%%c13
 11
0.0000000000000001
 21
1.0
 31
0.0
 73
     1
 44
1.0
1001
ACAD
1000
MTEXTBEGIN
1070
    73
1070
     1
1070
    44
1040
1.0
1070
    74
1070
     0
1000
MTEXTEND
  0
POINT
  5
40E
330
406
100
AcDbEntity
  8
Defpoints
 62
     0
100
AcDbPoint
 10
816.8514578914718
 20
105.4261515871837
 30
0.0
  0
POINT
  5
40F
330
406
100
AcDbEntity
  8
Defpoints
 62
     0
100
AcDbPoint
 10
816.8514578914718
 20
118.4261515871837
 30
0.0
  0
POINT
  5
410
330
406
100
AcDbEntity
  8
Defpoints
 62
     0
100
AcDbPoint
 10
844.4321122282573
 20
118.4261515871837
 30
0.0
  0
ENDBLK
  5
411
330
406
100
AcDbEntity
  8
0
100
AcDbBlockEnd
  0
BLOCK
  5
413
330
412
100
AcDbEntity
  8
0
100
AcDbBlockBegin
  2
*D9
 70
     1
 10
0.0
 20
0.0
 30
0.0
  3
*D9
  1

  0
LINE
  5
414
330
412
100
AcDbEntity
  8
AM_5
100
AcDbLine
 10
785.6514578914721
 20
94.45168666452422
 30
0.0
 11
785.6514578914721
 21
59.86868219609164
 31
0.0
  0
LINE
  5
415
330
412
100
AcDbEntity
  8
AM_5
100
AcDbLine
 10
810.8514578914718
 20
98.77615158718368
 30
0.0
 11
810.8514578914718
 21
59.86868219609164
 31
0.0
  0
LINE
  5
416
330
412
100
AcDbEntity
  8
AM_5
100
AcDbLine
 10
788.151457891472
 20
60.86868219609164
 30
0.0
 11
808.3514578914719
 21
60.86868219609164
 31
0.0
  0
INSERT
  5
417
330
412
100
AcDbEntity
  8
AM_5
100
AcDbBlockReference
  2
_Open30
 10
785.6514578914721
 20
60.86868219609164
 30
0.0
 41
2.5
 42
2.5
 43
2.5
 50
180.0
  0
INSERT
  5
418
330
412
100
AcDbEntity
  8
AM_5
100
AcDbBlockReference
  2
_Open30
 10
810.8514578914718
 20
60.86868219609164
 30
0.0
 41
2.5
 42
2.5
 43
2.5
  0
MTEXT
  5
419
330
412
100
AcDbEntity
  8
AM_5
 62
     2
100
AcDbMText
 10
798.3904352130194
 20
64.26905621183967
 30
0.0
 40
3.799999999999999
 41
0.0
 71
     5
 72
     1
  1
25
 73
     1
 44
1.0
1001
ACAD
1000
MTEXTBEGIN
1070
    73
1070
     1
1070
    44
1040
1.0
1070
    74
1070
     0
1000
MTEXTEND
  0
POINT
  5
41A
330
412
100
AcDbEntity
  8
Defpoints
 62
     0
100
AcDbPoint
 10
785.6514578914721
 20
94.45168666452422
 30
0.0
  0
POINT
  5
41B
330
412
100
AcDbEntity
  8
Defpoints
 62
     0
100
AcDbPoint
 10
810.8514578914718
 20
98.77615158718368
 30
0.0
  0
POINT
  5
41C
330
412
100
AcDbEntity
  8
Defpoints
 62
     0
100
AcDbPoint
 10
810.8514578914718
 20
60.86868219609164
 30
0.0
  0
ENDBLK
  5
41D
330
412
100
AcDbEntity
  8
0
100
AcDbBlockEnd
  0
BLOCK
  5
41F
330
41E
100
AcDbEntity
  8
0
100
AcDbBlockBegin
  2
*D10
 70
     1
 10
0.0
 20
0.0
 30
0.0
  3
*D10
  1

  0
LINE
  5
420
330
41E
100
AcDbEntity
  8
AM_5
100
AcDbLine
 10
785.6514578914721
 20
88.6974531295333
 30
0.0
 11
785.6514578914721
 21
47.67268019480456
 31
0.0
  0
LINE
  5
421
330
41E
100
AcDbEntity
  8
AM_5
100
AcDbLine
 10
816.8514578914718
 20
101.9261515871837
 30
0.0
 11
816.8514578914718
 21
47.67268019480456
 31
0.0
  0
LINE
  5
422
330
41E
100
AcDbEntity
  8
AM_5
100
AcDbLine
 10
788.151457891472
 20
48.67268019480457
 30
0.0
 11
814.3514578914718
 21
48.67268019480457
 31
0.0
  0
INSERT
  5
423
330
41E
100
AcDbEntity
  8
AM_5
100
AcDbBlockReference
  2
_Open30
 10
785.6514578914721
 20
48.67268019480457
 30
0.0
 41
2.5
 42
2.5
 43
2.5
 50
180.0
  0
INSERT
  5
424
330
41E
100
AcDbEntity
  8
AM_5
100
AcDbBlockReference
  2
_Open30
 10
816.8514578914718
 20
48.67268019480457
 30
0.0
 41
2.5
 42
2.5
 43
2.5
  0
MTEXT
  5
425
330
41E
100
AcDbEntity
  8
AM_5
 62
     2
100
AcDbMText
 10
801.6466052464375
 20
52.07268019480457
 30
0.0
 40
3.799999999999999
 41
0.0
 71
     5
 72
     1
  1
31
 73
     1
 44
1.0
1001
ACAD
1000
MTEXTBEGIN
1070
    73
1070
     1
1070
    44
1040
1.0
1070
    74
1070
     0
1000
MTEXTEND
  0
POINT
  5
426
330
41E
100
AcDbEntity
  8
Defpoints
 62
     0
100
AcDbPoint
 10
785.6514578914721
 20
88.6974531295333
 30
0.0
  0
POINT
  5
427
330
41E
100
AcDbEntity
  8
Defpoints
 62
     0
100
AcDbPoint
 10
816.8514578914718
 20
101.9261515871837
 30
0.0
  0
POINT
  5
428
330
41E
100
AcDbEntity
  8
Defpoints
 62
     0
100
AcDbPoint
 10
816.8514578914718
 20
48.67268019480457
 30
0.0
  0
ENDBLK
  5
429
330
41E
100
AcDbEntity
  8
0
100
AcDbBlockEnd
  0
BLOCK
  5
42B
330
42A
100
AcDbEntity
  8
0
100
AcDbBlockBegin
  2
*D11
 70
     1
 10
0.0
 20
0.0
 30
0.0
  3
*D11
  1

  0
LINE
  5
42C
330
42A
100
AcDbEntity
  8
AM_5
100
AcDbLine
 10
785.6514578914721
 20
83.92615158718378
 30
0.0
 11
785.6514578914721
 21
69.67599580883836
 31
0.0
  0
LINE
  5
42D
330
42A
100
AcDbEntity
  8
AM_5
100
AcDbLine
 10
791.8514578914718
 20
107.1761515871837
 30
0.0
 11
791.8514578914718
 21
69.67599580883836
 31
0.0
  0
LINE
  5
42E
330
42A
100
AcDbEntity
  8
AM_5
100
AcDbLine
 10
783.151457891472
 20
70.67599580883836
 30
0.0
 11
780.6514578914721
 21
70.67599580883836
 31
0.0
  0
LINE
  5
42F
330
42A
100
AcDbEntity
  8
AM_5
100
AcDbLine
 10
794.3514578914719
 20
70.67599580883836
 30
0.0
 11
796.8514578914719
 21
70.67599580883836
 31
0.0
  0
LINE
  5
430
330
42A
100
AcDbEntity
  8
AM_5
100
AcDbLine
 10
785.6514578914721
 20
70.67599580883836
 30
0.0
 11
791.8514578914718
 21
70.67599580883836
 31
0.0
  0
INSERT
  5
431
330
42A
100
AcDbEntity
  8
AM_5
100
AcDbBlockReference
  2
_Open30
 10
785.6514578914721
 20
70.67599580883836
 30
0.0
 41
2.5
 42
2.5
 43
2.5
  0
INSERT
  5
432
330
42A
100
AcDbEntity
  8
AM_5
100
AcDbBlockReference
  2
_Open30
 10
791.8514578914718
 20
70.67599580883836
 30
0.0
 41
2.5
 42
2.5
 43
2.5
 50
180.0
  0
MTEXT
  5
433
330
42A
100
AcDbEntity
  8
AM_5
 62
     2
100
AcDbMText
 10
788.751457891472
 20
74.07599580883837
 30
0.0
 40
3.799999999999999
 41
0.0
 71
     5
 72
     1
  1
6
 73
     1
 44
1.0
1001
ACAD
1000
MTEXTBEGIN
1070
    73
1070
     1
1070
    44
1040
1.0
1070
    74
1070
     0
1000
MTEXTEND
  0
POINT
  5
434
330
42A
100
AcDbEntity
  8
Defpoints
 62
     0
100
AcDbPoint
 10
785.6514578914721
 20
83.92615158718378
 30
0.0
  0
POINT
  5
435
330
42A
100
AcDbEntity
  8
Defpoints
 62
     0
100
AcDbPoint
 10
791.8514578914718
 20
107.1761515871837
 30
0.0
  0
POINT
  5
436
330
42A
100
AcDbEntity
  8
Defpoints
 62
     0
100
AcDbPoint
 10
791.8514578914718
 20
70.67599580883836
 30
0.0
  0
ENDBLK
  5
437
330
42A
100
AcDbEntity
  8
0
100
AcDbBlockEnd
  0
BLOCK
  5
439
330
438
100
AcDbEntity
  8
0
100
AcDbBlockBegin
  2
*D12
 70
     1
 10
0.0
 20
0.0
 30
0.0
  3
*D12
  1

  0
LINE
  5
43A
330
438
100
AcDbEntity
  8
AM_5
100
AcDbLine
 10
786.8514578914719
 20
107.1761515871837
 30
0.0
 11
776.6321075937847
 21
107.1761515871837
 31
0.0
  0
LINE
  5
43B
330
438
100
AcDbEntity
  8
AM_5
100
AcDbLine
 10
786.8514578914719
 20
116.6761515871837
 30
0.0
 11
776.6321075937847
 21
116.6761515871837
 31
0.0
  0
LINE
  5
43C
330
438
100
AcDbEntity
  8
AM_5
100
AcDbLine
 10
777.6321075937848
 20
109.6761515871838
 30
0.0
 11
777.6321075937848
 21
114.1761515871837
 31
0.0
  0
INSERT
  5
43D
330
438
100
AcDbEntity
  8
AM_5
100
AcDbBlockReference
  2
_Open30
 10
777.6321075937848
 20
107.1761515871837
 30
0.0
 41
2.5
 42
2.5
 43
2.5
 50
270.0
  0
INSERT
  5
43E
330
438
100
AcDbEntity
  8
AM_5
100
AcDbBlockReference
  2
_Open30
 10
777.6321075937848
 20
116.6761515871837
 30
0.0
 41
2.5
 42
2.5
 43
2.5
 50
90.0
  0
MTEXT
  5
43F
330
438
100
AcDbEntity
  8
AM_5
 62
     2
100
AcDbMText
 10
773.2521165176692
 20
111.9261515871839
 30
0.0
 40
3.799999999999999
 41
0.0
 71
     5
 72
     1
  1
9.5{\H2.698000;\S+0.4^ +0.1;}
 11
0.0000000000000001
 21
1.0
 31
0.0
 73
     1
 44
1.0
1001
ACAD
1000
MTEXTBEGIN
1070
    73
1070
     1
1070
    44
1040
1.0
1070
    74
1070
     0
1000
MTEXTEND
  0
POINT
  5
440
330
438
100
AcDbEntity
  8
Defpoints
 62
     0
100
AcDbPoint
 10
786.8514578914719
 20
107.1761515871837
 30
0.0
  0
POINT
  5
441
330
438
100
AcDbEntity
  8
Defpoints
 62
     0
100
AcDbPoint
 10
786.8514578914719
 20
116.6761515871837
 30
0.0
  0
POINT
  5
442
330
438
100
AcDbEntity
  8
Defpoints
 62
     0
100
AcDbPoint
 10
777.6321075937848
 20
116.6761515871837
 30
0.0
  0
ENDBLK
  5
443
330
438
100
AcDbEntity
  8
0
100
AcDbBlockEnd
  0
BLOCK
  5
445
330
444
100
AcDbEntity
  8
0
100
AcDbBlockBegin
  2
*D13
 70
     1
 10
0.0
 20
0.0
 30
0.0
  3
*D13
  1

  0
LINE
  5
446
330
444
100
AcDbEntity
  8
AM_5
100
AcDbLine
 10
792.680607891472
 20
124.6261515871837
 30
0.0
 11
764.6182691160936
 21
124.6261515871837
 31
0.0
  0
LINE
  5
447
330
444
100
AcDbEntity
  8
AM_5
100
AcDbLine
 10
792.6806078914716
 20
99.22615158718382
 30
0.0
 11
764.6182691160936
 21
99.22615158718382
 31
0.0
  0
LINE
  5
448
330
444
100
AcDbEntity
  8
AM_5
100
AcDbLine
 10
765.6182691160936
 20
122.1261515871837
 30
0.0
 11
765.6182691160936
 21
101.7261515871838
 31
0.0
  0
INSERT
  5
449
330
444
100
AcDbEntity
  8
AM_5
100
AcDbBlockReference
  2
_Open30
 10
765.6182691160936
 20
124.6261515871837
 30
0.0
 41
2.5
 42
2.5
 43
2.5
 50
90.0
  0
INSERT
  5
44A
330
444
100
AcDbEntity
  8
AM_5
100
AcDbBlockReference
  2
_Open30
 10
765.6182691160936
 20
99.22615158718382
 30
0.0
 41
2.5
 42
2.5
 43
2.5
 50
270.0
  0
MTEXT
  5
44B
330
444
100
AcDbEntity
  8
AM_5
 62
     2
100
AcDbMText
 10
761.0488283863195
 20
111.9261515871839
 30
0.0
 40
3.799999999999999
 41
0.0
 71
     5
 72
     1
  1
%%c25.4{\H2.698000;\S+0.025^  0;}
 11
0.0000000000000001
 21
1.0
 31
0.0
 73
     1
 44
1.0
1001
ACAD
1000
MTEXTBEGIN
1070
    73
1070
     1
1070
    44
1040
1.0
1070
    74
1070
     0
1000
MTEXTEND
  0
POINT
  5
44C
330
444
100
AcDbEntity
  8
Defpoints
 62
     0
100
AcDbPoint
 10
792.680607891472
 20
124.6261515871837
 30
0.0
  0
POINT
  5
44D
330
444
100
AcDbEntity
  8
Defpoints
 62
     0
100
AcDbPoint
 10
792.6806078914716
 20
99.22615158718382
 30
0.0
  0
POINT
  5
44E
330
444
100
AcDbEntity
  8
Defpoints
 62
     0
100
AcDbPoint
 10
765.6182691160936
 20
99.22615158718382
 30
0.0
  0
ENDBLK
  5
44F
330
444
100
AcDbEntity
  8
0
100
AcDbBlockEnd
  0
BLOCK
  5
451
330
450
100
AcDbEntity
  8
0
100
AcDbBlockBegin
  2
*D14
 70
     1
 10
0.0
 20
0.0
 30
0.0
  3
*D14
  1

  0
LINE
  5
452
330
450
100
AcDbEntity
  8
AM_5
100
AcDbLine
 10
785.6514578914721
 20
139.9261515871837
 30
0.0
 11
785.6514578914721
 21
179.8541264680673
 31
0.0
  0
LINE
  5
453
330
450
100
AcDbEntity
  8
AM_5
100
AcDbLine
 10
835.6484778914719
 20
149.8126855871838
 30
0.0
 11
835.6484778914719
 21
179.8541264680673
 31
0.0
  0
LINE
  5
454
330
450
100
AcDbEntity
  8
AM_5
100
AcDbLine
 10
788.151457891472
 20
178.8541264680673
 30
0.0
 11
833.1484778914719
 21
178.8541264680673
 31
0.0
  0
INSERT
  5
455
330
450
100
AcDbEntity
  8
AM_5
100
AcDbBlockReference
  2
_Open30
 10
785.6514578914721
 20
178.8541264680673
 30
0.0
 41
2.5
 42
2.5
 43
2.5
 50
180.0
  0
INSERT
  5
456
330
450
100
AcDbEntity
  8
AM_5
100
AcDbBlockReference
  2
_Open30
 10
835.6484778914719
 20
178.8541264680673
 30
0.0
 41
2.5
 42
2.5
 43
2.5
  0
MTEXT
  5
457
330
450
100
AcDbEntity
  8
AM_5
 62
     2
100
AcDbMText
 10
810.6499678914719
 20
182.2541264680673
 30
0.0
 40
3.799999999999999
 41
0.0
 71
     5
 72
     1
  1
50.0\A2;\H0.7x;%%p0.1
 73
     1
 44
1.0
1001
ACAD
1000
MTEXTBEGIN
1070
    73
1070
     1
1070
    44
1040
1.0
1070
    74
1070
     0
1000
MTEXTEND
  0
POINT
  5
458
330
450
100
AcDbEntity
  8
Defpoints
 62
     0
100
AcDbPoint
 10
785.6514578914721
 20
139.9261515871837
 30
0.0
  0
POINT
  5
459
330
450
100
AcDbEntity
  8
Defpoints
 62
     0
100
AcDbPoint
 10
835.6484778914719
 20
149.8126855871838
 30
0.0
  0
POINT
  5
45A
330
450
100
AcDbEntity
  8
Defpoints
 62
     0
100
AcDbPoint
 10
835.6484778914719
 20
178.8541264680673
 30
0.0
  0
ENDBLK
  5
45B
330
450
100
AcDbEntity
  8
0
100
AcDbBlockEnd
  0
BLOCK
  5
45D
330
45C
100
AcDbEntity
  8
0
100
AcDbBlockBegin
  2
*D15
 70
     1
 10
0.0
 20
0.0
 30
0.0
  3
*D15
  1

  0
LINE
  5
45E
330
45C
100
AcDbEntity
  8
AM_5
100
AcDbLine
 10
834.5626598914718
 20
150.7949325871837
 30
0.0
 11
868.8684828480939
 21
150.7949325871837
 31
0.0
  0
LINE
  5
45F
330
45C
100
AcDbEntity
  8
AM_5
100
AcDbLine
 10
867.8684828480939
 20
148.2949325871837
 30
0.0
 11
867.8684828480939
 21
102.1517157530613
 31
0.0
  0
INSERT
  5
460
330
45C
100
AcDbEntity
  8
AM_5
100
AcDbBlockReference
  2
_Open30
 10
867.8684828480939
 20
150.7949325871837
 30
0.0
 41
2.5
 42
2.5
 43
2.5
 50
90.0
  0
MTEXT
  5
461
330
45C
100
AcDbEntity
  8
AM_5
 62
     2
100
AcDbMText
 10
864.4684828480938
 20
112.3632157530614
 30
0.0
 40
3.799999999999999
 41
0.0
 71
     5
 72
     1
  1
%%c80.0\A2;\H0.7x;%%p0.1
 11
0.0000000000000001
 21
1.0
 31
0.0
 73
     1
 44
1.0
1001
ACAD
1000
MTEXTBEGIN
1070
    73
1070
     1
1070
    44
1040
1.0
1070
    74
1070
     0
1000
MTEXTEND
  0
POINT
  5
462
330
45C
100
AcDbEntity
  8
Defpoints
 62
     0
100
AcDbPoint
 10
834.5626598914718
 20
150.7949325871837
 30
0.0
  0
POINT
  5
463
330
45C
100
AcDbEntity
  8
Defpoints
 62
     0
100
AcDbPoint
 10
835.567732680745
 20
111.9261515871837
 30
0.0
  0
POINT
  5
464
330
45C
100
AcDbEntity
  8
Defpoints
 62
     0
100
AcDbPoint
 10
867.8684828480939
 20
111.9261515871837
 30
0.0
  0
ENDBLK
  5
465
330
45C
100
AcDbEntity
  8
0
100
AcDbBlockEnd
  0
BLOCK
  5
467
330
466
100
AcDbEntity
  8
0
100
AcDbBlockBegin
  2
*D16
 70
     1
 10
0.0
 20
0.0
 30
0.0
  3
*D16
  1

  0
LINE
  5
468
330
466
100
AcDbEntity
  8
AM_5
 62
     3
100
AcDbLine
 10
834.2626598914719
 20
150.7949325871838
 30
0.0
 11
815.0601521668658
 21
150.7949325871835
 31
0.0
  0
ARC
  5
469
330
466
100
AcDbEntity
  8
AM_5
 62
     3
100
AcDbCircle
 10
835.6484778914719
 20
150.7949325871836
 30
0.0
 40
20.28832572460595
100
AcDbArc
 50
96.21601583075827
 51
173.783984169242
  0
INSERT
  5
46A
330
466
100
AcDbEntity
  8
AM_5
 62
     3
100
AcDbBlockReference
  2
_Open30
 10
835.6484778914719
 20
171.0832583117895
 30
0.0
 41
2.2
 42
2.2
 43
2.2
 50
3.108007915379125
  0
INSERT
  5
46B
330
466
100
AcDbEntity
  8
AM_5
 62
     3
100
AcDbBlockReference
  2
_Open30
 10
815.3601521668658
 20
150.7949325871835
 30
0.0
 41
2.2
 42
2.2
 43
2.2
 50
266.8919920846211
  0
MTEXT
  5
46C
330
466
100
AcDbEntity
  8
AM_5
 62
     2
100
AcDbMText
 10
818.8983021366473
 20
167.5451083420082
 30
0.0
 40
3.799999999999999
 41
0.0
 71
     5
 72
     1
  1
90%%d
 11
0.7071067811865476
 21
0.7071067811865475
 31
0.0
 73
     1
 44
1.0
1001
ACAD
1000
MTEXTBEGIN
1070
    73
1070
     1
1070
    44
1040
1.0
1070
    74
1070
     0
1000
MTEXTEND
  0
POINT
  5
46D
330
466
100
AcDbEntity
  8
Defpoints
 62
     0
100
AcDbPoint
 10
825.5043150291689
 20
168.3651380649457
 30
0.0
  0
POINT
  5
46E
330
466
100
AcDbEntity
  8
Defpoints
 62
     0
100
AcDbPoint
 10
834.5626598914718
 20
150.7949325871837
 30
0.0
  0
POINT
  5
46F
330
466
100
AcDbEntity
  8
Defpoints
 62
     0
100
AcDbPoint
 10
835.6484778914719
 20
149.8126855871839
 30
0.0
  0
POINT
  5
470
330
466
100
AcDbEntity
  8
Defpoints
 62
     0
100
AcDbPoint
 10
835.6484778914719
 20
178.8353287942293
 30
0.0
  0
POINT
  5
471
330
466
100
AcDbEntity
  8
Defpoints
 62
     0
100
AcDbPoint
 10
845.1501909994412
 20
150.7949325871837
 30
0.0
  0
ENDBLK
  5
472
330
466
100
AcDbEntity
  8
0
100
AcDbBlockEnd
  0
BLOCK
  5
72B
330
658
100
AcDbEntity
  8
0
100
AcDbBlockBegin
  2
*D18
 70
     1
 10
0.0
 20
0.0
 30
0.0
  3
*D18
  1

  0
LINE
  5
8DD
330
658
100
AcDbEntity
  8
AM_5
100
AcDbLine
 10
-47.66851799999983
 20
-17.47446492265953
 30
0.0
 11
-47.66851799999983
 21
-52.05746939109213
 31
0.0
  0
LINE
  5
8DE
330
658
100
AcDbEntity
  8
AM_5
100
AcDbLine
 10
-22.46851800000002
 20
-13.15000000000009
 30
0.0
 11
-22.46851800000002
 21
-52.05746939109213
 31
0.0
  0
LINE
  5
8DF
330
658
100
AcDbEntity
  8
AM_5
100
AcDbLine
 10
-45.16851799999983
 20
-51.05746939109213
 30
0.0
 11
-24.96851800000002
 21
-51.05746939109213
 31
0.0
  0
INSERT
  5
8E0
330
658
100
AcDbEntity
  8
AM_5
100
AcDbBlockReference
  2
_Open30
 10
-47.66851799999983
 20
-51.05746939109213
 30
0.0
 41
2.5
 42
2.5
 43
2.5
 50
180.0
  0
INSERT
  5
8E1
330
658
100
AcDbEntity
  8
AM_5
100
AcDbBlockReference
  2
_Open30
 10
-22.46851800000002
 20
-51.05746939109213
 30
0.0
 41
2.5
 42
2.5
 43
2.5
  0
MTEXT
  5
8E2
330
658
100
AcDbEntity
  8
AM_5
 62
     2
100
AcDbMText
 10
-34.92954067845256
 20
-47.6570953753441
 30
0.0
 40
3.799999999999999
 41
0.0
 71
     5
 72
     1
  1
25
 73
     1
 44
1.0
1001
ACAD
1000
MTEXTBEGIN
1070
    73
1070
     1
1070
    44
1040
1.0
1070
    74
1070
     0
1000
MTEXTEND
  0
POINT
  5
8E3
330
658
100
AcDbEntity
  8
Defpoints
 62
     0
100
AcDbPoint
 10
-47.66851799999983
 20
-17.47446492265953
 30
0.0
  0
POINT
  5
8E4
330
658
100
AcDbEntity
  8
Defpoints
 62
     0
100
AcDbPoint
 10
-22.46851800000002
 20
-13.15000000000009
 30
0.0
  0
POINT
  5
8E5
330
658
100
AcDbEntity
  8
Defpoints
 62
     0
100
AcDbPoint
 10
-22.46851800000002
 20
-51.05746939109213
 30
0.0
  0
ENDBLK
  5
72C
330
658
100
AcDbEntity
  8
0
100
AcDbBlockEnd
  0
BLOCK
  5
72D
330
662
100
AcDbEntity
  8
0
100
AcDbBlockBegin
  2
*D19
 70
     1
 10
0.0
 20
0.0
 30
0.0
  3
*D19
  1

  0
LINE
  5
8E6
330
662
100
AcDbEntity
  8
AM_5
100
AcDbLine
 10
-47.66851799999983
 20
-23.22869845765047
 30
0.0
 11
-47.66851799999983
 21
-64.2534713923792
 31
0.0
  0
LINE
  5
8E7
330
662
100
AcDbEntity
  8
AM_5
100
AcDbLine
 10
-16.46851800000002
 20
-10.0
 30
0.0
 11
-16.46851800000002
 21
-64.2534713923792
 31
0.0
  0
LINE
  5
8E8
330
662
100
AcDbEntity
  8
AM_5
100
AcDbLine
 10
-45.16851799999983
 20
-63.25347139237919
 30
0.0
 11
-18.96851800000002
 21
-63.25347139237919
 31
0.0
  0
INSERT
  5
8E9
330
662
100
AcDbEntity
  8
AM_5
100
AcDbBlockReference
  2
_Open30
 10
-47.66851799999983
 20
-63.25347139237919
 30
0.0
 41
2.5
 42
2.5
 43
2.5
 50
180.0
  0
INSERT
  5
8EA
330
662
100
AcDbEntity
  8
AM_5
100
AcDbBlockReference
  2
_Open30
 10
-16.46851800000002
 20
-63.25347139237919
 30
0.0
 41
2.5
 42
2.5
 43
2.5
  0
MTEXT
  5
8EB
330
662
100
AcDbEntity
  8
AM_5
 62
     2
100
AcDbMText
 10
-31.67337064503442
 20
-59.85347139237919
 30
0.0
 40
3.799999999999999
 41
0.0
 71
     5
 72
     1
  1
31
 73
     1
 44
1.0
1001
ACAD
1000
MTEXTBEGIN
1070
    73
1070
     1
1070
    44
1040
1.0
1070
    74
1070
     0
1000
MTEXTEND
  0
POINT
  5
8EC
330
662
100
AcDbEntity
  8
Defpoints
 62
     0
100
AcDbPoint
 10
-47.66851799999983
 20
-23.22869845765047
 30
0.0
  0
POINT
  5
8ED
330
662
100
AcDbEntity
  8
Defpoints
 62
     0
100
AcDbPoint
 10
-16.46851800000002
 20
-10.0
 30
0.0
  0
POINT
  5
8EE
330
662
100
AcDbEntity
  8
Defpoints
 62
     0
100
AcDbPoint
 10
-16.46851800000002
 20
-63.25347139237919
 30
0.0
  0
ENDBLK
  5
72E
330
662
100
AcDbEntity
  8
0
100
AcDbBlockEnd
  0
BLOCK
  5
72F
330
66C
100
AcDbEntity
  8
0
100
AcDbBlockBegin
  2
*D20
 70
     1
 10
0.0
 20
0.0
 30
0.0
  3
*D20
  1

  0
LINE
  5
8EF
330
66C
100
AcDbEntity
  8
AM_5
100
AcDbLine
 10
-47.66851799999983
 20
-28.0
 30
0.0
 11
-47.66851799999983
 21
-42.2501557783454
 31
0.0
  0
LINE
  5
8F0
330
66C
100
AcDbEntity
  8
AM_5
100
AcDbLine
 10
-41.46851800000002
 20
-4.75
 30
0.0
 11
-41.46851800000002
 21
-42.2501557783454
 31
0.0
  0
LINE
  5
8F1
330
66C
100
AcDbEntity
  8
AM_5
100
AcDbLine
 10
-50.16851799999983
 20
-41.2501557783454
 30
0.0
 11
-52.66851799999983
 21
-41.2501557783454
 31
0.0
  0
LINE
  5
8F2
330
66C
100
AcDbEntity
  8
AM_5
100
AcDbLine
 10
-38.96851800000002
 20
-41.2501557783454
 30
0.0
 11
-36.46851800000002
 21
-41.2501557783454
 31
0.0
  0
LINE
  5
8F3
330
66C
100
AcDbEntity
  8
AM_5
100
AcDbLine
 10
-47.66851799999983
 20
-41.2501557783454
 30
0.0
 11
-41.46851800000002
 21
-41.2501557783454
 31
0.0
  0
INSERT
  5
8F4
330
66C
100
AcDbEntity
  8
AM_5
100
AcDbBlockReference
  2
_Open30
 10
-47.66851799999983
 20
-41.2501557783454
 30
0.0
 41
2.5
 42
2.5
 43
2.5
  0
INSERT
  5
8F5
330
66C
100
AcDbEntity
  8
AM_5
100
AcDbBlockReference
  2
_Open30
 10
-41.46851800000002
 20
-41.2501557783454
 30
0.0
 41
2.5
 42
2.5
 43
2.5
 50
180.0
  0
MTEXT
  5
8F6
330
66C
100
AcDbEntity
  8
AM_5
 62
     2
100
AcDbMText
 10
-44.56851799999992
 20
-37.85015577834541
 30
0.0
 40
3.799999999999999
 41
0.0
 71
     5
 72
     1
  1
6
 73
     1
 44
1.0
1001
ACAD
1000
MTEXTBEGIN
1070
    73
1070
     1
1070
    44
1040
1.0
1070
    74
1070
     0
1000
MTEXTEND
  0
POINT
  5
8F7
330
66C
100
AcDbEntity
  8
Defpoints
 62
     0
100
AcDbPoint
 10
-47.66851799999983
 20
-28.0
 30
0.0
  0
POINT
  5
8F8
330
66C
100
AcDbEntity
  8
Defpoints
 62
     0
100
AcDbPoint
 10
-41.46851800000002
 20
-4.75
 30
0.0
  0
POINT
  5
8F9
330
66C
100
AcDbEntity
  8
Defpoints
 62
     0
100
AcDbPoint
 10
-41.46851800000002
 20
-41.2501557783454
 30
0.0
  0
ENDBLK
  5
730
330
66C
100
AcDbEntity
  8
0
100
AcDbBlockEnd
  0
BLOCK
  5
731
330
678
100
AcDbEntity
  8
0
100
AcDbBlockBegin
  2
*D21
 70
     1
 10
0.0
 20
0.0
 30
0.0
  3
*D21
  1

  0
LINE
  5
8FA
330
678
100
AcDbEntity
  8
AM_5
100
AcDbLine
 10
-46.46851800000002
 20
-4.75
 30
0.0
 11
-56.68786829768714
 21
-4.749999999999997
 31
0.0
  0
LINE
  5
8FB
330
678
100
AcDbEntity
  8
AM_5
100
AcDbLine
 10
-46.46851800000002
 20
4.75
 30
0.0
 11
-56.68786829768714
 21
4.750000000000002
 31
0.0
  0
LINE
  5
8FC
330
678
100
AcDbEntity
  8
AM_5
100
AcDbLine
 10
-55.68786829768715
 20
-2.249999999999997
 30
0.0
 11
-55.68786829768715
 21
2.250000000000002
 31
0.0
  0
INSERT
  5
8FD
330
678
100
AcDbEntity
  8
AM_5
100
AcDbBlockReference
  2
_Open30
 10
-55.68786829768715
 20
-4.749999999999997
 30
0.0
 41
2.5
 42
2.5
 43
2.5
 50
270.0
  0
INSERT
  5
8FE
330
678
100
AcDbEntity
  8
AM_5
100
AcDbBlockReference
  2
_Open30
 10
-55.68786829768715
 20
4.750000000000002
 30
0.0
 41
2.5
 42
2.5
 43
2.5
 50
90.0
  0
MTEXT
  5
8FF
330
678
100
AcDbEntity
  8
AM_5
 62
     2
100
AcDbMText
 10
-59.08786829768715
 20
0.0000000000000288
 30
0.0
 40
3.799999999999999
 41
0.0
 71
     5
 72
     1
  1
9.5
 11
0.0000000000000001
 21
1.0
 31
0.0
 73
     1
 44
1.0
1001
ACAD
1000
MTEXTBEGIN
1070
    73
1070
     1
1070
    44
1040
1.0
1070
    74
1070
     0
1000
MTEXTEND
  0
POINT
  5
900
330
678
100
AcDbEntity
  8
Defpoints
 62
     0
100
AcDbPoint
 10
-46.46851800000002
 20
-4.75
 30
0.0
  0
POINT
  5
901
330
678
100
AcDbEntity
  8
Defpoints
 62
     0
100
AcDbPoint
 10
-46.46851800000002
 20
4.75
 30
0.0
  0
POINT
  5
902
330
678
100
AcDbEntity
  8
Defpoints
 62
     0
100
AcDbPoint
 10
-55.68786829768715
 20
4.750000000000002
 30
0.0
  0
ENDBLK
  5
732
330
678
100
AcDbEntity
  8
0
100
AcDbBlockEnd
  0
BLOCK
  5
733
330
682
100
AcDbEntity
  8
0
100
AcDbBlockBegin
  2
*D22
 70
     1
 10
0.0
 20
0.0
 30
0.0
  3
*D22
  1

  0
LINE
  5
6E8
330
682
100
AcDbEntity
  8
AM_5
 62
     3
100
AcDbLine
 10
279.0138386830728
 20
154.6965702176622
 30
0.0
 11
310.3257600933245
 21
146.3065680381196
 31
0.0
  0
LINE
  5
6E9
330
682
100
AcDbEntity
  8
AM_5
 62
     3
100
AcDbLine
 10
285.241189895963
 20
156.3237308528059
 30
0.0
 11
311.6445443359478
 21
156.3237304593352
 31
0.0
  0
ARC
  5
6EA
330
682
100
AcDbEntity
  8
AM_5
 62
     3
100
AcDbCircle
 10
272.9411904788654
 20
156.3237310361041
 30
0.0
 40
38.40335385708239
100
AcDbArc
 50
338.4345371784114
 51
341.7172701904488
  0
ARC
  5
6EB
330
682
100
AcDbEntity
  8
AM_5
 62
     3
100
AcDbCircle
 10
272.9411904788654
 20
156.3237310361041
 30
0.0
 40
38.40335385708239
100
AcDbArc
 50
359.9999991461612
 51
3.282732158198546
  0
ARC
  5
6EC
330
682
100
AcDbEntity
  8
AM_5
 62
     3
100
AcDbCircle
 10
272.9411904788654
 20
156.3237310361041
 30
0.0
 40
38.40335385708239
100
AcDbArc
 50
345.0000032024862
 51
359.9999991461612
  0
INSERT
  5
6ED
330
682
100
AcDbEntity
  8
AM_5
 62
     3
100
AcDbBlockReference
  2
_Open30
 10
310.0359823410979
 20
146.3842137354535
 30
0.0
 41
2.2
 42
2.2
 43
2.2
 50
73.35863669646747
  0
MTEXT
  5
6EE
330
682
100
AcDbEntity
  8
AM_5
 62
     2
100
AcDbMText
 10
307.6450858849614
 20
151.7548772534928
 30
0.0
 40
3.799999999999999
 41
0.0
 71
     5
 72
     1
  1
15%%d
 11
0.1305261718995825
 21
0.9914448640490507
 31
0.0
 73
     1
 44
1.0
1001
ACAD
1000
MTEXTBEGIN
1070
    73
1070
     1
1070
    44
1040
1.0
1070
    74
1070
     0
1000
MTEXTEND
  0
POINT
  5
6EF
330
682
100
AcDbEntity
  8
Defpoints
 62
     0
100
AcDbPoint
 10
310.7611113143575
 20
149.6550598439249
 30
0.0
  0
POINT
  5
6F0
330
682
100
AcDbEntity
  8
Defpoints
 62
     0
100
AcDbPoint
 10
272.9411904788654
 20
156.3237310361041
 30
0.0
  0
POINT
  5
6F1
330
682
100
AcDbEntity
  8
Defpoints
 62
     0
100
AcDbPoint
 10
278.7240609308461
 20
154.7742159149962
 30
0.0
  0
POINT
  5
6F2
330
682
100
AcDbEntity
  8
Defpoints
 62
     0
100
AcDbPoint
 10
272.9411904788654
 20
156.3237310361041
 30
0.0
  0
POINT
  5
6F3
330
682
100
AcDbEntity
  8
Defpoints
 62
     0
100
AcDbPoint
 10
284.9411898959631
 20
156.3237308572766
 30
0.0
  0
ENDBLK
  5
734
330
682
100
AcDbEntity
  8
0
100
AcDbBlockEnd
  0
BLOCK
  5
735
330
68F
100
AcDbEntity
  8
0
100
AcDbBlockBegin
  2
*D23
 70
     1
 10
0.0
 20
0.0
 30
0.0
  3
*D23
  1

  0
LINE
  5
903
330
68F
100
AcDbEntity
  8
AM_5
100
AcDbLine
 10
-16.46851800000002
 20
-10.0
 30
0.0
 11
22.96218183572147
 21
-10.00000000000001
 31
0.0
  0
LINE
  5
904
330
68F
100
AcDbEntity
  8
AM_5
100
AcDbLine
 10
-16.46851800000002
 20
10.0
 30
0.0
 11
22.96218183572148
 21
9.999999999999989
 31
0.0
  0
LINE
  5
905
330
68F
100
AcDbEntity
  8
AM_5
100
AcDbLine
 10
21.96218183572148
 20
-7.500000000000009
 30
0.0
 11
21.96218183572148
 21
7.49999999999999
 31
0.0
  0
INSERT
  5
906
330
68F
100
AcDbEntity
  8
AM_5
100
AcDbBlockReference
  2
_Open30
 10
21.96218183572147
 20
-10.00000000000001
 30
0.0
 41
2.5
 42
2.5
 43
2.5
 50
270.0
  0
INSERT
  5
907
330
68F
100
AcDbEntity
  8
AM_5
100
AcDbBlockReference
  2
_Open30
 10
21.96218183572148
 20
9.999999999999989
 30
0.0
 41
2.5
 42
2.5
 43
2.5
 50
90.0
  0
MTEXT
  5
908
330
68F
100
AcDbEntity
  8
AM_5
 62
     2
100
AcDbMText
 10
18.56180781997344
 20
-0.0000000000000063
 30
0.0
 40
3.799999999999999
 41
0.0
 71
     5
 72
     1
  1
%%c20
 11
0.0000000000000001
 21
1.0
 31
0.0
 73
     1
 44
1.0
1001
ACAD
1000
MTEXTBEGIN
1070
    73
1070
     1
1070
    44
1040
1.0
1070
    74
1070
     0
1000
MTEXTEND
  0
POINT
  5
909
330
68F
100
AcDbEntity
  8
Defpoints
 62
     0
100
AcDbPoint
 10
-16.46851800000002
 20
-10.0
 30
0.0
  0
POINT
  5
90A
330
68F
100
AcDbEntity
  8
Defpoints
 62
     0
100
AcDbPoint
 10
-16.46851800000002
 20
10.0
 30
0.0
  0
POINT
  5
90B
330
68F
100
AcDbEntity
  8
Defpoints
 62
     0
100
AcDbPoint
 10
21.96218183572148
 20
9.999999999999989
 30
0.0
  0
ENDBLK
  5
736
330
68F
100
AcDbEntity
  8
0
100
AcDbBlockEnd
  0
BLOCK
  5
737
330
699
100
AcDbEntity
  8
0
100
AcDbBlockBegin
  2
*D24
 70
     1
 10
0.0
 20
0.0
 30
0.0
  3
*D24
  1

  0
LINE
  5
90C
330
699
100
AcDbEntity
  8
AM_5
100
AcDbLine
 10
-16.46851800000002
 20
-6.5
 30
0.0
 11
12.11213633678539
 21
-6.500000000000007
 31
0.0
  0
LINE
  5
90D
330
699
100
AcDbEntity
  8
AM_5
100
AcDbLine
 10
-16.46851800000002
 20
6.5
 30
0.0
 11
12.1121363367854
 21
6.499999999999992
 31
0.0
  0
LINE
  5
90E
330
699
100
AcDbEntity
  8
AM_5
100
AcDbLine
 10
11.11213633678539
 20
-4.000000000000007
 30
0.0
 11
11.11213633678539
 21
3.999999999999992
 31
0.0
  0
INSERT
  5
90F
330
699
100
AcDbEntity
  8
AM_5
100
AcDbBlockReference
  2
_Open30
 10
11.11213633678539
 20
-6.500000000000007
 30
0.0
 41
2.5
 42
2.5
 43
2.5
 50
270.0
  0
INSERT
  5
910
330
699
100
AcDbEntity
  8
AM_5
100
AcDbBlockReference
  2
_Open30
 10
11.1121363367854
 20
6.499999999999992
 30
0.0
 41
2.5
 42
2.5
 43
2.5
 50
90.0
  0
MTEXT
  5
911
330
699
100
AcDbEntity
  8
AM_5
 62
     2
100
AcDbMText
 10
7.712136336785395
 20
-0.0000000000000056
 30
0.0
 40
3.799999999999999
 41
0.0
 71
     5
 72
     1
  1
%%c13
 11
0.0000000000000001
 21
1.0
 31
0.0
 73
     1
 44
1.0
1001
ACAD
1000
MTEXTBEGIN
1070
    73
1070
     1
1070
    44
1040
1.0
1070
    74
1070
     0
1000
MTEXTEND
  0
POINT
  5
912
330
699
100
AcDbEntity
  8
Defpoints
 62
     0
100
AcDbPoint
 10
-16.46851800000002
 20
-6.5
 30
0.0
  0
POINT
  5
913
330
699
100
AcDbEntity
  8
Defpoints
 62
     0
100
AcDbPoint
 10
-16.46851800000002
 20
6.5
 30
0.0
  0
POINT
  5
914
330
699
100
AcDbEntity
  8
Defpoints
 62
     0
100
AcDbPoint
 10
11.1121363367854
 20
6.499999999999992
 30
0.0
  0
ENDBLK
  5
738
330
699
100
AcDbEntity
  8
0
100
AcDbBlockEnd
  0
BLOCK
  5
739
330
6A3
100
AcDbEntity
  8
0
100
AcDbBlockBegin
  2
*D25
 70
     1
 10
0.0
 20
0.0
 30
0.0
  3
*D25
  1

  0
LINE
  5
915
330
6A3
100
AcDbEntity
  8
AM_5
100
AcDbLine
 10
-45.9685179999999
 20
12.70000000000004
 30
0.0
 11
-68.70170677537828
 21
12.70000000000005
 31
0.0
  0
LINE
  5
916
330
6A3
100
AcDbEntity
  8
AM_5
100
AcDbLine
 10
-45.9685179999999
 20
-12.69999999999993
 30
0.0
 11
-68.70170677537828
 21
-12.69999999999992
 31
0.0
  0
LINE
  5
917
330
6A3
100
AcDbEntity
  8
AM_5
100
AcDbLine
 10
-67.70170677537828
 20
10.20000000000005
 30
0.0
 11
-67.70170677537828
 21
-10.19999999999992
 31
0.0
  0
INSERT
  5
918
330
6A3
100
AcDbEntity
  8
AM_5
100
AcDbBlockReference
  2
_Open30
 10
-67.70170677537828
 20
12.70000000000005
 30
0.0
 41
2.5
 42
2.5
 43
2.5
 50
90.0
  0
INSERT
  5
919
330
6A3
100
AcDbEntity
  8
AM_5
100
AcDbBlockReference
  2
_Open30
 10
-67.70170677537828
 20
-12.69999999999992
 30
0.0
 41
2.5
 42
2.5
 43
2.5
 50
270.0
  0
MTEXT
  5
91A
330
6A3
100
AcDbEntity
  8
AM_5
 62
     2
100
AcDbMText
 10
-71.10208079112631
 20
0.0000000000000525
 30
0.0
 40
3.799999999999999
 41
0.0
 71
     5
 72
     1
  1
%%c25.4
 11
0.0000000000000001
 21
1.0
 31
0.0
 73
     1
 44
1.0
1001
ACAD
1000
MTEXTBEGIN
1070
    73
1070
     1
1070
    44
1040
1.0
1070
    74
1070
     0
1000
MTEXTEND
  0
POINT
  5
91B
330
6A3
100
AcDbEntity
  8
Defpoints
 62
     0
100
AcDbPoint
 10
-45.9685179999999
 20
12.70000000000004
 30
0.0
  0
POINT
  5
91C
330
6A3
100
AcDbEntity
  8
Defpoints
 62
     0
100
AcDbPoint
 10
-45.9685179999999
 20
-12.69999999999993
 30
0.0
  0
POINT
  5
91D
330
6A3
100
AcDbEntity
  8
Defpoints
 62
     0
100
AcDbPoint
 10
-67.70170677537828
 20
-12.69999999999992
 30
0.0
  0
ENDBLK
  5
73A
330
6A3
100
AcDbEntity
  8
0
100
AcDbBlockEnd
  0
BLOCK
  5
73B
330
6AD
100
AcDbEntity
  8
0
100
AcDbBlockBegin
  2
*D26
 70
     1
 10
0.0
 20
0.0
 30
0.0
  3
*D26
  1

  0
LINE
  5
721
330
6AD
100
AcDbEntity
  8
AM_5
 62
     3
100
AcDbLine
 10
290.3523924788654
 20
205.1925120361041
 30
0.0
 11
271.1498847542594
 21
205.1925120361042
 31
0.0
  0
ARC
  5
722
330
6AD
100
AcDbEntity
  8
AM_5
 62
     3
100
AcDbCircle
 10
291.7382104788654
 20
205.1925120361041
 30
0.0
 40
20.28832572460592
100
AcDbArc
 50
96.21601583075817
 51
173.7839841692415
  0
INSERT
  5
723
330
6AD
100
AcDbEntity
  8
AM_5
 62
     3
100
AcDbBlockReference
  2
_Open30
 10
291.7382104788654
 20
225.48083776071
 30
0.0
 41
2.2
 42
2.2
 43
2.2
 50
3.108007915379049
  0
INSERT
  5
724
330
6AD
100
AcDbEntity
  8
AM_5
 62
     3
100
AcDbBlockReference
  2
_Open30
 10
271.4498847542595
 20
205.1925120361042
 30
0.0
 41
2.2
 42
2.2
 43
2.2
 50
266.8919920846207
  0
MTEXT
  5
725
330
6AD
100
AcDbEntity
  8
AM_5
 62
     2
100
AcDbMText
 10
274.9880347240409
 20
221.9426877909287
 30
0.0
 40
3.799999999999999
 41
0.0
 71
     5
 72
     1
  1
90%%d
 11
0.7071067811865476
 21
0.7071067811865475
 31
0.0
 73
     1
 44
1.0
1001
ACAD
1000
MTEXTBEGIN
1070
    73
1070
     1
1070
    44
1040
1.0
1070
    74
1070
     0
1000
MTEXTEND
  0
POINT
  5
726
330
6AD
100
AcDbEntity
  8
Defpoints
 62
     0
100
AcDbPoint
 10
281.5940476165625
 20
222.7627175138662
 30
0.0
  0
POINT
  5
727
330
6AD
100
AcDbEntity
  8
Defpoints
 62
     0
100
AcDbPoint
 10
290.6523924788654
 20
205.1925120361041
 30
0.0
  0
POINT
  5
728
330
6AD
100
AcDbEntity
  8
Defpoints
 62
     0
100
AcDbPoint
 10
291.7382104788654
 20
204.2102650361042
 30
0.0
  0
POINT
  5
729
330
6AD
100
AcDbEntity
  8
Defpoints
 62
     0
100
AcDbPoint
 10
291.7382104788654
 20
233.2329082431497
 30
0.0
  0
POINT
  5
72A
330
6AD
100
AcDbEntity
  8
Defpoints
 62
     0
100
AcDbPoint
 10
301.2399235868348
 20
205.1925120361041
 30
0.0
  0
ENDBLK
  5
73C
330
6AD
100
AcDbEntity
  8
0
100
AcDbBlockEnd
  0
BLOCK
  5
73D
330
6B8
100
AcDbEntity
  8
0
100
AcDbBlockBegin
  2
*D27
 70
     1
 10
0.0
 20
0.0
 30
0.0
  3
*D27
  1

  0
LINE
  5
92E
330
6B8
100
AcDbEntity
  8
AM_5
100
AcDbLine
 10
-43.94743695919248
 20
30.0
 30
0.0
 11
-82.6877472463841
 21
30.00000000000001
 31
0.0
  0
LINE
  5
92F
330
6B8
100
AcDbEntity
  8
AM_5
100
AcDbLine
 10
-43.77394204802726
 20
-30.0
 30
0.0
 11
-82.6877472463841
 21
-29.99999999999999
 31
0.0
  0
LINE
  5
930
330
6B8
100
AcDbEntity
  8
AM_5
100
AcDbLine
 10
-81.6877472463841
 20
27.50000000000001
 30
0.0
 11
-81.6877472463841
 21
-27.49999999999999
 31
0.0
  0
INSERT
  5
931
330
6B8
100
AcDbEntity
  8
AM_5
100
AcDbBlockReference
  2
_Open30
 10
-81.6877472463841
 20
30.00000000000001
 30
0.0
 41
2.5
 42
2.5
 43
2.5
 50
90.0
  0
INSERT
  5
932
330
6B8
100
AcDbEntity
  8
AM_5
100
AcDbBlockReference
  2
_Open30
 10
-81.6877472463841
 20
-29.99999999999999
 30
0.0
 41
2.5
 42
2.5
 43
2.5
 50
270.0
  0
MTEXT
  5
933
330
6B8
100
AcDbEntity
  8
AM_5
 62
     2
100
AcDbMText
 10
-85.08774724638412
 20
-0.0000000000000017
 30
0.0
 40
3.799999999999999
 41
0.0
 71
     5
 72
     1
  1
%%c60
 11
0.0000000000000001
 21
1.0
 31
0.0
 73
     1
 44
1.0
1001
ACAD
1000
MTEXTBEGIN
1070
    73
1070
     1
1070
    44
1040
1.0
1070
    74
1070
     0
1000
MTEXTEND
  0
POINT
  5
934
330
6B8
100
AcDbEntity
  8
Defpoints
 62
     0
100
AcDbPoint
 10
-43.94743695919248
 20
30.0
 30
0.0
  0
POINT
  5
935
330
6B8
100
AcDbEntity
  8
Defpoints
 62
     0
100
AcDbPoint
 10
-43.77394204802726
 20
-30.0
 30
0.0
  0
POINT
  5
936
330
6B8
100
AcDbEntity
  8
Defpoints
 62
     0
100
AcDbPoint
 10
-81.6877472463841
 20
-29.99999999999999
 30
0.0
  0
ENDBLK
  5
73E
330
6B8
100
AcDbEntity
  8
0
100
AcDbBlockEnd
  0
BLOCK
  5
73F
330
70F
100
AcDbEntity
  8
0
100
AcDbBlockBegin
  2
*D28
 70
     1
 10
0.0
 20
0.0
 30
0.0
  3
*D28
  1

  0
LINE
  5
7E7
330
70F
100
AcDbEntity
  8
AM_5
100
AcDbLine
 10
241.7411904788656
 20
194.3237310361041
 30
0.0
 11
241.7411904788656
 21
234.2517059169877
 31
0.0
  0
LINE
  5
7E8
330
70F
100
AcDbEntity
  8
AM_5
100
AcDbLine
 10
291.7382104788654
 20
204.2102650361042
 30
0.0
 11
291.7382104788654
 21
234.2517059169877
 31
0.0
  0
LINE
  5
7E9
330
70F
100
AcDbEntity
  8
AM_5
100
AcDbLine
 10
244.2411904788656
 20
233.2517059169877
 30
0.0
 11
289.2382104788654
 21
233.2517059169877
 31
0.0
  0
INSERT
  5
7EA
330
70F
100
AcDbEntity
  8
AM_5
100
AcDbBlockReference
  2
_Open30
 10
241.7411904788656
 20
233.2517059169877
 30
0.0
 41
2.5
 42
2.5
 43
2.5
 50
180.0
  0
INSERT
  5
7EB
330
70F
100
AcDbEntity
  8
AM_5
100
AcDbBlockReference
  2
_Open30
 10
291.7382104788654
 20
233.2517059169877
 30
0.0
 41
2.5
 42
2.5
 43
2.5
  0
MTEXT
  5
7EC
330
70F
100
AcDbEntity
  8
AM_5
 62
     2
100
AcDbMText
 10
266.7397004788655
 20
236.6517059169877
 30
0.0
 40
3.799999999999999
 41
0.0
 71
     5
 72
     1
  1
50
 73
     1
 44
1.0
1001
ACAD
1000
MTEXTBEGIN
1070
    73
1070
     1
1070
    44
1040
1.0
1070
    74
1070
     0
1000
MTEXTEND
  0
POINT
  5
7ED
330
70F
100
AcDbEntity
  8
Defpoints
 62
     0
100
AcDbPoint
 10
241.7411904788656
 20
194.3237310361041
 30
0.0
  0
POINT
  5
7EE
330
70F
100
AcDbEntity
  8
Defpoints
 62
     0
100
AcDbPoint
 10
291.7382104788654
 20
204.2102650361042
 30
0.0
  0
POINT
  5
7EF
330
70F
100
AcDbEntity
  8
Defpoints
 62
     0
100
AcDbPoint
 10
291.7382104788654
 20
233.2517059169877
 30
0.0
  0
ENDBLK
  5
740
330
70F
100
AcDbEntity
  8
0
100
AcDbBlockEnd
  0
BLOCK
  5
741
330
719
100
AcDbEntity
  8
0
100
AcDbBlockBegin
  2
*D29
 70
     1
 10
0.0
 20
0.0
 30
0.0
  3
*D29
  1

  0
LINE
  5
71A
330
719
100
AcDbEntity
  8
AM_5
100
AcDbLine
 10
290.6523924788654
 20
205.1925120361041
 30
0.0
 11
324.9582154354875
 21
205.1925120361041
 31
0.0
  0
LINE
  5
71B
330
719
100
AcDbEntity
  8
AM_5
100
AcDbLine
 10
323.9582154354875
 20
202.6925120361041
 30
0.0
 11
323.9582154354875
 21
156.5492952019818
 31
0.0
  0
INSERT
  5
71C
330
719
100
AcDbEntity
  8
AM_5
100
AcDbBlockReference
  2
_Open30
 10
323.9582154354875
 20
205.1925120361041
 30
0.0
 41
2.5
 42
2.5
 43
2.5
 50
90.0
  0
MTEXT
  5
71D
330
719
100
AcDbEntity
  8
AM_5
 62
     2
100
AcDbMText
 10
320.5582154354875
 20
166.7607952019818
 30
0.0
 40
3.799999999999999
 41
0.0
 71
     5
 72
     1
  1
%%c80.0\A2;\H0.7x;%%p0.1
 11
0.0000000000000001
 21
1.0
 31
0.0
 73
     1
 44
1.0
1001
ACAD
1000
MTEXTBEGIN
1070
    73
1070
     1
1070
    44
1040
1.0
1070
    74
1070
     0
1000
MTEXTEND
  0
POINT
  5
71E
330
719
100
AcDbEntity
  8
Defpoints
 62
     0
100
AcDbPoint
 10
290.6523924788654
 20
205.1925120361041
 30
0.0
  0
POINT
  5
71F
330
719
100
AcDbEntity
  8
Defpoints
 62
     0
100
AcDbPoint
 10
291.6574652681386
 20
166.3237310361041
 30
0.0
  0
POINT
  5
720
330
719
100
AcDbEntity
  8
Defpoints
 62
     0
100
AcDbPoint
 10
323.9582154354875
 20
166.3237310361041
 30
0.0
  0
ENDBLK
  5
742
330
719
100
AcDbEntity
  8
0
100
AcDbBlockEnd
  0
BLOCK
  5
87F
330
855
100
AcDbEntity
  8
0
100
AcDbBlockBegin
  2
*D31
 70
     1
 10
0.0
 20
0.0
 30
0.0
  3
*D31
  1

  0
LINE
  5
937
330
855
100
AcDbEntity
  8
AM_5
100
AcDbLine
 10
-47.66851799999983
 20
28.0
 30
0.0
 11
-47.66851799999983
 21
45.77331884316129
 31
0.0
  0
LINE
  5
938
330
855
100
AcDbEntity
  8
AM_5
100
AcDbLine
 10
2.331482000000136
 20
39.19999999999996
 30
0.0
 11
2.331482000000136
 21
45.77331884316129
 31
0.0
  0
LINE
  5
939
330
855
100
AcDbEntity
  8
AM_5
100
AcDbLine
 10
-45.16851799999983
 20
44.77331884316129
 30
0.0
 11
-0.1685179999998634
 21
44.77331884316129
 31
0.0
  0
INSERT
  5
93A
330
855
100
AcDbEntity
  8
AM_5
100
AcDbBlockReference
  2
_Open30
 10
-47.66851799999983
 20
44.77331884316129
 30
0.0
 41
2.5
 42
2.5
 43
2.5
 50
180.0
  0
INSERT
  5
93B
330
855
100
AcDbEntity
  8
AM_5
100
AcDbBlockReference
  2
_Open30
 10
2.331482000000136
 20
44.77331884316129
 30
0.0
 41
2.5
 42
2.5
 43
2.5
  0
MTEXT
  5
93C
330
855
100
AcDbEntity
  8
AM_5
 62
     2
100
AcDbMText
 10
-22.66851799999985
 20
48.17331884316129
 30
0.0
 40
3.799999999999999
 41
0.0
 71
     5
 72
     1
  1
50
 73
     1
 44
1.0
1001
ACAD
1000
MTEXTBEGIN
1070
    73
1070
     1
1070
    44
1040
1.0
1070
    74
1070
     0
1000
MTEXTEND
  0
POINT
  5
93D
330
855
100
AcDbEntity
  8
Defpoints
 62
     0
100
AcDbPoint
 10
-47.66851799999983
 20
28.0
 30
0.0
  0
POINT
  5
93E
330
855
100
AcDbEntity
  8
Defpoints
 62
     0
100
AcDbPoint
 10
2.331482000000136
 20
39.19999999999996
 30
0.0
  0
POINT
  5
93F
330
855
100
AcDbEntity
  8
Defpoints
 62
     0
100
AcDbPoint
 10
2.331482000000136
 20
44.77331884316129
 30
0.0
  0
ENDBLK
  5
880
330
855
100
AcDbEntity
  8
0
100
AcDbBlockEnd
  0
BLOCK
  5
8BB
330
891
100
AcDbEntity
  8
0
100
AcDbBlockBegin
  2
*D32
 70
     1
 10
0.0
 20
0.0
 30
0.0
  3
*D32
  1

  0
LINE
  5
927
330
891
100
AcDbEntity
  8
AM_5
100
AcDbLine
 10
1.531482000000153
 20
39.99999999999997
 30
0.0
 11
32.82085773922655
 21
39.99999999999996
 31
0.0
  0
LINE
  5
928
330
891
100
AcDbEntity
  8
AM_5
100
AcDbLine
 10
31.82085773922654
 20
-0.0000000000000084
 30
0.0
 11
31.82085773922655
 21
37.49999999999996
 31
0.0
  0
INSERT
  5
929
330
891
100
AcDbEntity
  8
AM_5
100
AcDbBlockReference
  2
_Open30
 10
31.82085773922655
 20
39.99999999999996
 30
0.0
 41
2.5
 42
2.5
 43
2.5
 50
90.0
  0
MTEXT
  5
92A
330
891
100
AcDbEntity
  8
AM_5
 62
     2
100
AcDbMText
 10
28.42085773922654
 20
0.8813766610451242
 30
0.0
 40
3.799999999999999
 41
0.0
 71
     5
 72
     1
  1
%%c80
 11
0.0000000000000001
 21
1.0
 31
0.0
 73
     1
 44
1.0
1001
ACAD
1000
MTEXTBEGIN
1070
    73
1070
     1
1070
    44
1040
1.0
1070
    74
1070
     0
1000
MTEXTEND
  0
POINT
  5
92B
330
891
100
AcDbEntity
  8
Defpoints
 62
     0
100
AcDbPoint
 10
2.247756789273125
 20
0.0
 30
0.0
  0
POINT
  5
92C
330
891
100
AcDbEntity
  8
Defpoints
 62
     0
100
AcDbPoint
 10
1.531482000000153
 20
39.99999999999997
 30
0.0
  0
POINT
  5
92D
330
891
100
AcDbEntity
  8
Defpoints
 62
     0
100
AcDbPoint
 10
31.82085773922655
 20
39.99999999999996
 30
0.0
  0
ENDBLK
  5
8BC
330
891
100
AcDbEntity
  8
0
100
AcDbBlockEnd
  0
ENDSEC
  0
SECTION
  2
ENTITIES
  0
LINE
  5
56F
330
1F
100
AcDbEntity
  8
AM_0
100
AcDbLine
 10
-0.2999999999997271
 20
-38.05425400000002
 30
0.0
 11
0.0
 21
-37.75425399999995
 31
0.0
  0
LINE
  5
570
330
1F
100
AcDbEntity
  8
AM_0
100
AcDbLine
 10
-17.58583700000008
 20
-38.05425400000002
 30
0.0
 11
-0.2999999999997271
 21
-38.05425400000002
 31
0.0
  0
LINE
  5
571
330
1F
100
AcDbEntity
  8
AM_0
100
AcDbLine
 10
-14.86851799999977
 20
38.05425300000002
 30
0.0
 11
-17.58583700000008
 21
38.05425300000002
 31
0.0
  0
LINE
  5
572
330
1F
100
AcDbEntity
  8
AM_0
100
AcDbLine
 10
-19.00005099999998
 20
37.46846700000003
 30
0.0
 11
-22.07511900000008
 21
34.39339800000005
 31
0.0
  0
LINE
  5
573
330
1F
100
AcDbEntity
  8
AM_0
100
AcDbLine
 10
-22.07511900000008
 20
-34.39339799999994
 30
0.0
 11
-19.00005099999998
 21
-37.46846699999992
 31
0.0
  0
LINE
  5
574
330
1F
100
AcDbEntity
  8
AM_0
100
AcDbLine
 10
-45.66851799999972
 20
-30.0
 30
0.0
 11
-32.68172099999981
 21
-30.0
 31
0.0
  0
LINE
  5
575
102
{ACAD_REACTORS
330
5A5
102
}
330
1F
100
AcDbEntity
  8
AM_0
100
AcDbLine
 10
-32.68172099999981
 20
30.0
 30
0.0
 11
-45.66851799999983
 21
30.0
 31
0.0
  0
LINE
  5
576
330
1F
100
AcDbEntity
  8
AM_0
100
AcDbLine
 10
-45.46851800000001
 20
4.75
 30
0.0
 11
-41.46851800000002
 21
4.75
 31
0.0
  0
LINE
  5
577
330
1F
100
AcDbEntity
  8
AM_0
100
AcDbLine
 10
-45.46851800000001
 20
-4.75
 30
0.0
 11
-41.46851800000002
 21
-4.75
 31
0.0
  0
LINE
  5
578
330
1F
100
AcDbEntity
  8
AM_0
100
AcDbLine
 10
-41.46851800000002
 20
-4.75
 30
0.0
 11
-45.46851800000001
 21
-4.75
 31
0.0
  0
LINE
  5
579
330
1F
100
AcDbEntity
  8
AM_0
100
AcDbLine
 10
-41.46851800000002
 20
4.75
 30
0.0
 11
-45.46851800000001
 21
4.75
 31
0.0
  0
LINE
  5
57A
330
1F
100
AcDbEntity
  8
AM_0
100
AcDbLine
 10
-41.46851800000002
 20
4.75
 30
0.0
 11
-45.46750799999995
 21
4.75
 31
0.0
  0
LINE
  5
57B
330
1F
100
AcDbEntity
  8
AM_0
100
AcDbLine
 10
-45.46851800000001
 20
4.75
 30
0.0
 11
-45.9685179999999
 21
4.75
 31
0.0
  0
LINE
  5
57C
330
1F
100
AcDbEntity
  8
AM_0
100
AcDbLine
 10
-41.46851800000002
 20
-4.75
 30
0.0
 11
-45.46750799999995
 21
-4.75
 31
0.0
  0
LINE
  5
57D
330
1F
100
AcDbEntity
  8
AM_0
100
AcDbLine
 10
-45.46851800000001
 20
-4.75
 30
0.0
 11
-45.9685179999999
 21
-4.75
 31
0.0
  0
LINE
  5
57E
330
1F
100
AcDbEntity
  8
AM_0
100
AcDbLine
 10
-45.9685179999999
 20
-4.75
 30
0.0
 11
-41.46851800000002
 21
-4.75
 31
0.0
  0
LINE
  5
57F
330
1F
100
AcDbEntity
  8
AM_0
100
AcDbLine
 10
-45.9685179999999
 20
4.75
 30
0.0
 11
-41.46851800000002
 21
4.75
 31
0.0
  0
LINE
  5
580
330
1F
100
AcDbEntity
  8
AM_0
100
AcDbLine
 10
0.0
 20
-37.75425399999995
 30
0.0
 11
0.0
 21
0.0
 31
0.0
  0
LINE
  5
581
330
1F
100
AcDbEntity
  8
AM_0
100
AcDbLine
 10
0.0
 20
30.87935998824506
 30
0.0
 11
0.0
 21
-37.75425399999995
 31
0.0
  0
LINE
  5
582
330
1F
100
AcDbEntity
  8
AM_0
100
AcDbLine
 10
0.0
 20
0.0
 30
0.0
 11
-0.0000000000002274
 21
32.0
 31
0.0
  0
LINE
  5
583
330
1F
100
AcDbEntity
  8
AM_0
100
AcDbLine
 10
-41.46851800000002
 20
-4.75
 30
0.0
 11
-41.46851800000002
 21
4.75
 31
0.0
  0
LINE
  5
584
330
1F
100
AcDbEntity
  8
AM_0
100
AcDbLine
 10
-41.46851800000002
 20
4.75
 30
0.0
 11
-41.46851800000002
 21
-4.75
 31
0.0
  0
LINE
  5
585
330
1F
100
AcDbEntity
  8
AM_0
100
AcDbLine
 10
0.0
 20
-27.74464899999998
 30
0.0
 11
0.0
 21
0.0
 31
0.0
  0
LINE
  5
586
330
1F
100
AcDbEntity
  8
AM_0
100
AcDbLine
 10
0.0
 20
0.0
 30
0.0
 11
0.0
 21
27.74464899999998
 31
0.0
  0
LINE
  5
587
330
1F
100
AcDbEntity
  8
AM_0
100
AcDbLine
 10
-45.9685179999999
 20
12.70000000000004
 30
0.0
 11
-45.9685179999999
 21
4.75
 31
0.0
  0
LINE
  5
588
330
1F
100
AcDbEntity
  8
AM_0
100
AcDbLine
 10
-45.9685179999999
 20
4.75
 30
0.0
 11
-45.9685179999999
 21
12.70000000000004
 31
0.0
  0
LINE
  5
589
330
1F
100
AcDbEntity
  8
AM_0
100
AcDbLine
 10
-45.9685179999999
 20
-12.69999999999993
 30
0.0
 11
-45.9685179999999
 21
-4.75
 31
0.0
  0
LINE
  5
58A
330
1F
100
AcDbEntity
  8
AM_0
100
AcDbLine
 10
-45.9685179999999
 20
-4.75
 30
0.0
 11
-45.9685179999999
 21
-12.69999999999993
 31
0.0
  0
LINE
  5
58B
330
1F
100
AcDbEntity
  8
AM_0
100
AcDbLine
 10
-41.46851800000002
 20
4.75
 30
0.0
 11
-41.46851800000002
 21
-4.75
 31
0.0
  0
LINE
  5
58C
330
1F
100
AcDbEntity
  8
AM_0
100
AcDbLine
 10
-41.46851800000002
 20
-4.75
 30
0.0
 11
-41.46851800000002
 21
4.75
 31
0.0
  0
LINE
  5
58D
330
1F
100
AcDbEntity
  8
AM_0
100
AcDbLine
 10
-45.46851800000001
 20
-4.75
 30
0.0
 11
-46.46851800000002
 21
-4.75
 31
0.0
  0
LINE
  5
58E
330
1F
100
AcDbEntity
  8
AM_0
100
AcDbLine
 10
-47.46851800000001
 20
-5.75
 30
0.0
 11
-46.46851800000002
 21
-4.75
 31
0.0
  0
LINE
  5
58F
330
1F
100
AcDbEntity
  8
AM_0
100
AcDbLine
 10
-46.46851800000002
 20
-4.75
 30
0.0
 11
-47.46851800000001
 21
-5.75
 31
0.0
  0
LINE
  5
590
330
1F
100
AcDbEntity
  8
AM_0
100
AcDbLine
 10
-46.46851800000002
 20
-4.75
 30
0.0
 11
-45.46851800000001
 21
-4.75
 31
0.0
  0
LINE
  5
591
330
1F
100
AcDbEntity
  8
AM_0
100
AcDbLine
 10
-46.46851800000002
 20
4.75
 30
0.0
 11
-47.46851800000001
 21
5.75
 31
0.0
  0
LINE
  5
592
330
1F
100
AcDbEntity
  8
AM_0
100
AcDbLine
 10
-45.46851800000001
 20
4.75
 30
0.0
 11
-46.46851800000002
 21
4.75
 31
0.0
  0
LINE
  5
593
330
1F
100
AcDbEntity
  8
AM_0
100
AcDbLine
 10
-46.46851800000002
 20
4.75
 30
0.0
 11
-45.46851800000001
 21
4.75
 31
0.0
  0
LINE
  5
594
330
1F
100
AcDbEntity
  8
AM_0
100
AcDbLine
 10
-47.46851800000001
 20
5.75
 30
0.0
 11
-46.46851800000002
 21
4.75
 31
0.0
  0
LINE
  5
595
330
1F
100
AcDbEntity
  8
AM_0
100
AcDbLine
 10
-47.46851800000001
 20
5.75
 30
0.0
 11
-46.46851800000002
 21
4.75
 31
0.0
  0
LINE
  5
596
330
1F
100
AcDbEntity
  8
AM_0
100
AcDbLine
 10
-46.46851800000002
 20
4.75
 30
0.0
 11
-47.66851799999971
 21
5.949999999999732
 31
0.0
  0
LINE
  5
597
330
1F
100
AcDbEntity
  8
AM_0
100
AcDbLine
 10
-46.46851800000002
 20
-4.75
 30
0.0
 11
-47.46851800000001
 21
-5.75
 31
0.0
  0
LINE
  5
598
330
1F
100
AcDbEntity
  8
AM_0
100
AcDbLine
 10
-47.66851799999971
 20
-5.949999999999761
 30
0.0
 11
-46.46851800000002
 21
-4.75
 31
0.0
  0
ARC
  5
599
330
1F
100
AcDbEntity
  8
AM_0
100
AcDbCircle
 10
-17.58583700000008
 20
36.05425300000002
 30
0.0
 40
2.0
100
AcDbArc
 50
90.0
 51
135.0000000000006
  0
ARC
  5
59A
330
1F
100
AcDbEntity
  8
AM_0
100
AcDbCircle
 10
-17.58583700000008
 20
-36.0542539999999
 30
0.0
 40
1.99999991179125
100
AcDbArc
 50
224.9999797428812
 51
270.0
  0
ARC
  5
59B
330
1F
100
AcDbEntity
  8
AM_0
100
AcDbCircle
 10
-32.68172099999981
 20
-45.0
 30
0.0
 40
15.0000003990936
100
AcDbArc
 50
44.99999999999942
 51
90.0
  0
ARC
  5
59C
330
1F
100
AcDbEntity
  8
AM_0
100
AcDbCircle
 10
-32.68172099999981
 20
45.0
 30
0.0
 40
15.0
100
AcDbArc
 50
270.0
 51
315.0000000000006
  0
ARC
  5
59D
330
1F
100
AcDbEntity
  8
AM_0
100
AcDbCircle
 10
-45.66851799999972
 20
-28.0
 30
0.0
 40
2.0
100
AcDbArc
 50
180.0
 51
270.0
  0
ARC
  5
59E
102
{ACAD_REACTORS
330
860
102
}
330
1F
100
AcDbEntity
  8
AM_0
100
AcDbCircle
 10
-45.66851799999983
 20
28.0
 30
0.0
 40
2.0
100
AcDbArc
 50
90.0
 51
180.0
  0
LINE
  5
59F
330
1F
100
AcDbEntity
  8
AM_0
100
AcDbLine
 10
-45.9685179999999
 20
4.75
 30
0.0
 11
-46.46851800000002
 21
4.75
 31
0.0
  0
LINE
  5
5A0
330
1F
100
AcDbEntity
  8
AM_0
100
AcDbLine
 10
-46.46851800000002
 20
4.75
 30
0.0
 11
-45.9685179999999
 21
4.75
 31
0.0
  0
LINE
  5
5A1
330
1F
100
AcDbEntity
  8
AM_0
100
AcDbLine
 10
-46.46851800000002
 20
-4.75
 30
0.0
 11
-45.9685179999999
 21
-4.75
 31
0.0
  0
LINE
  5
5A2
330
1F
100
AcDbEntity
  8
AM_0
100
AcDbLine
 10
-45.9685179999999
 20
-4.75
 30
0.0
 11
-46.46851800000002
 21
-4.75
 31
0.0
  0
DIMENSION
  5
5A3
102
{ACAD_XDICTIONARY
360
5A4
102
}
102
{ACAD_REACTORS
330
5A5
102
}
330
1F
100
AcDbEntity
  8
AM_5
100
AcDbDimension
  2
*D27
 10
-81.6877472463841
 20
-29.99999999999999
 30
0.0
 11
-85.08774724638412
 21
-0.0000000000000017
 31
0.0
 70
    32
  1
%%c<>
 71
     5
 42
60.0
  3
AM_JIS$0
100
AcDbAlignedDimension
 13
-43.94743695919248
 23
30.0
 33
0.0
 14
-43.77394204802726
 24
-30.0
 34
0.0
 50
90.0
100
AcDbRotatedDimension
1001
ACAD
1000
DSTYLE
1002
{
1070
    47
1040
0.025
1070
    48
1040
0.0
1070
   179
1070
     0
1070
   271
1070
     0
1002
}
  0
DIMENSION
  5
5A6
330
1F
100
AcDbEntity
  8
AM_5
100
AcDbDimension
  2
*D18
 10
-22.46851800000002
 20
-51.05746939109213
 30
0.0
 11
-34.92954067845256
 21
-51.05746939109213
 31
0.0
 70
   160
  1
25
 71
     5
 42
25.19999999999982
  3
AM_JIS$0
100
AcDbAlignedDimension
 13
-47.66851799999983
 23
-17.47446492265953
 33
0.0
 14
-22.46851800000002
 24
-13.15000000000009
 34
0.0
100
AcDbRotatedDimension
1001
ACAD
1000
DSTYLE
1002
{
1070
   274
1070
     1
1070
   171
1070
     1
1070
   271
1070
     1
1002
}
  0
DIMENSION
  5
5A7
330
1F
100
AcDbEntity
  8
AM_5
100
AcDbDimension
  2
*D19
 10
-16.46851800000002
 20
-63.25347139237919
 30
0.0
 11
-31.67337064503442
 21
-63.25347139237919
 31
0.0
 70
   160
  1
31
 71
     5
 42
31.19999999999982
  3
AM_JIS$0
100
AcDbAlignedDimension
 13
-47.66851799999983
 23
-23.22869845765047
 33
0.0
 14
-16.46851800000002
 24
-10.0
 34
0.0
100
AcDbRotatedDimension
1001
ACAD
1000
DSTYLE
1002
{
1070
   274
1070
     1
1070
   171
1070
     1
1070
   271
1070
     1
1002
}
  0
LINE
  5
5A8
330
1F
100
AcDbEntity
  8
AM_0
100
AcDbLine
 10
-45.96851799999988
 20
12.69999999999993
 30
0.0
 11
-27.46851799999991
 21
12.69999999999996
 31
0.0
  0
LINE
  5
5A9
330
1F
100
AcDbEntity
  8
AM_0
100
AcDbLine
 10
-45.96851799999993
 20
-12.69999999999996
 30
0.0
 11
-27.46851799999991
 21
-12.69999999999993
 31
0.0
  0
LINE
  5
5AA
102
{ACAD_REACTORS
330
89C
102
}
330
1F
100
AcDbEntity
  8
AM_7
100
AcDbLine
 10
2.247756789273125
 20
0.0
 30
0.0
 11
-51.13961051198055
 21
0.0
 31
0.0
1001
GENIUS_GENODEF_13
1002
{
1000
HIER
1070
     0
1002
}
1002
{
1000
MANEDIT
1070
     0
1002
}
1002
{
1000
NOSEL
1070
     0
1002
}
1002
{
1000
BEHIND
1070
     0
1002
}
1002
{
1000
REACTOR
1002
}
1001
GENIUS_GENOBJ-N-CEN_13
1002
{
1000
OWNER
1000
GEN
1002
}
  0
DIMENSION
  5
5AB
330
1F
100
AcDbEntity
  8
AM_5
100
AcDbDimension
  2
*D20
 10
-41.46851800000002
 20
-41.2501557783454
 30
0.0
 11
-44.56851799999992
 21
-41.2501557783454
 31
0.0
 70
   160
  1
6
 71
     5
 42
6.199999999999818
  3
AM_JIS$0
100
AcDbAlignedDimension
 13
-47.66851799999983
 23
-28.0
 33
0.0
 14
-41.46851800000002
 24
-4.75
 34
0.0
 50
180.0
100
AcDbRotatedDimension
1001
GENIUS_GENDTOL_13
1000
TolAcTol
1000
h7
1000

1040
6.0
1001
ACAD
1000
DSTYLE
1002
{
1070
    47
1040
0.3
1070
    48
1040
0.0
1070
    71
1070
     1
1070
   171
1070
     1
1070
   271
1070
     1
1070
   272
1070
     1
1070
   274
1070
     1
1002
}
  0
DIMENSION
  5
5AC
330
1F
100
AcDbEntity
  8
AM_5
100
AcDbDimension
  2
*D21
 10
-55.68786829768715
 20
4.750000000000002
 30
0.0
 11
-55.68786829768715
 21
0.0000000000000284
 31
0.0
 70
   160
  1
<>
 71
     5
 42
9.5
  3
AM_JIS$0
100
AcDbAlignedDimension
 13
-46.46851800000002
 23
-4.75
 33
0.0
 14
-46.46851800000002
 24
4.75
 34
0.0
 50
270.0
100
AcDbRotatedDimension
1001
ACAD
1000
DSTYLE
1002
{
1070
    47
1040
0.4
1070
    48
1040
-0.1
1070
   171
1070
     1
1070
   271
1070
     1
1070
   272
1070
     2
1070
   274
1070
     0
1002
}
  0
LINE
  5
5AD
102
{ACAD_REACTORS
330
860
102
}
330
1F
100
AcDbEntity
  8
AM_0
100
AcDbLine
 10
-47.66851799999983
 20
28.0
 30
0.0
 11
-47.66851799999983
 21
5.950000000000045
 31
0.0
  0
LINE
  5
5AE
330
1F
100
AcDbEntity
  8
AM_0
100
AcDbLine
 10
-47.66851799999986
 20
14.39999999999975
 30
0.0
 11
-45.96851800000004
 21
12.69999999999993
 31
0.0
  0
LINE
  5
5B0
330
1F
100
AcDbEntity
  8
AM_0
100
AcDbLine
 10
-47.66851799999983
 20
-5.950000000000045
 30
0.0
 11
-47.66851799999983
 21
-28.0
 31
0.0
  0
LINE
  5
5B1
330
1F
100
AcDbEntity
  8
AM_0
100
AcDbLine
 10
-45.96851800000002
 20
-4.75
 30
0.0
 11
-45.96851800000002
 21
-12.69999999999996
 31
0.0
  0
LINE
  5
5B4
330
1F
100
AcDbEntity
  8
AM_0
100
AcDbLine
 10
-47.66851799999971
 20
-14.39999999999978
 30
0.0
 11
-45.9685179999999
 21
-12.69999999999996
 31
0.0
  0
LINE
  5
5B7
330
1F
100
AcDbEntity
  8
0
100
AcDbLine
 10
-46.46851800000002
 20
4.75
 30
0.0
 11
-41.46851800000002
 21
4.75
 31
0.0
  0
LINE
  5
5B8
330
1F
100
AcDbEntity
  8
0
100
AcDbLine
 10
-46.46851800000002
 20
-4.75
 30
0.0
 11
-41.46851800000002
 21
-4.75
 31
0.0
  0
LINE
  5
5B9
330
1F
100
AcDbEntity
  8
0
100
AcDbLine
 10
-41.46851800000002
 20
-4.75
 30
0.0
 11
-41.46851800000002
 21
4.75
 31
0.0
  0
LINE
  5
5BA
330
1F
100
AcDbEntity
  8
AM_0
100
AcDbLine
 10
-45.9685179999999
 20
12.70000000000004
 30
0.0
 11
-45.96851800000002
 21
4.75
 31
0.0
  0
LINE
  5
5BB
330
1F
100
AcDbEntity
  8
AM_0
100
AcDbLine
 10
-27.46851800000002
 20
-13.15000000000009
 30
0.0
 11
-27.46851800000002
 21
13.15000000000009
 31
0.0
  0
LINE
  5
5BC
330
1F
100
AcDbEntity
  8
AM_0
100
AcDbLine
 10
-22.46851800000002
 20
-13.15000000000009
 30
0.0
 11
-22.46851800000002
 21
13.15000000000009
 31
0.0
  0
DIMENSION
  5
5BE
330
1F
100
AcDbEntity
  8
AM_5
100
AcDbDimension
  2
*D23
 10
21.96218183572148
 20
9.999999999999989
 30
0.0
 11
18.56180781997344
 21
-0.0000000000000063
 31
0.0
 70
    32
  1
%%c<>
 71
     5
 42
20.0
  3
AM_JIS$0
100
AcDbAlignedDimension
 13
-16.46851800000002
 23
-10.0
 33
0.0
 14
-16.46851800000002
 24
10.0
 34
0.0
 50
90.0
100
AcDbRotatedDimension
1001
GENIUS_GENDTOL_13
1000

1000
h7
1000

1040
0.0
1001
ACAD
1000
DSTYLE
1002
{
1070
    48
1040
0.1
1070
    47
1040
0.1
1070
   272
1070
     1
1070
   274
1070
     1
1070
   171
1070
     1
1070
   271
1070
     0
1070
    71
1070
     0
1002
}
  0
LINE
  5
5BF
330
1F
100
AcDbEntity
  8
AM_0
100
AcDbLine
 10
-27.46851800000002
 20
-13.15000000000009
 30
0.0
 11
-22.46851800000002
 21
-13.15000000000009
 31
0.0
  0
LINE
  5
5C0
330
1F
100
AcDbEntity
  8
AM_5
100
AcDbLine
 10
-16.46851800000002
 20
-10.0
 30
0.0
 11
-4.468518582902447
 21
-10.00000017882757
 31
0.0
  0
DIMENSION
  5
5C1
330
1F
100
AcDbEntity
  8
AM_5
100
AcDbDimension
  2
*D24
 10
11.1121363367854
 20
6.499999999999992
 30
0.0
 11
7.712136336785395
 21
-0.0000000000000056
 31
0.0
 70
    32
  1
%%c<>
 71
     5
 42
13.0
  3
AM_JIS$0
100
AcDbAlignedDimension
 13
-16.46851800000002
 23
-6.5
 33
0.0
 14
-16.46851800000002
 24
6.5
 34
0.0
 50
90.0
100
AcDbRotatedDimension
1001
GENIUS_GENDTOL_13
1000

1000
h7
1000

1040
0.0
1001
ACAD
1000
DSTYLE
1002
{
1070
    48
1040
0.1
1070
    47
1040
0.1
1070
   272
1070
     1
1070
   274
1070
     1
1070
   171
1070
     1
1070
   271
1070
     0
1070
    71
1070
     0
1002
}
  0
LINE
  5
5C2
330
1F
100
AcDbEntity
  8
AM_0
100
AcDbLine
 10
-22.46851800000002
 20
-6.5
 30
0.0
 11
-16.46851800000002
 21
-6.5
 31
0.0
  0
LINE
  5
5C3
330
1F
100
AcDbEntity
  8
AM_0
100
AcDbLine
 10
-22.46851800000002
 20
6.5
 30
0.0
 11
-16.46851800000002
 21
6.5
 31
0.0
  0
LINE
  5
5C4
330
1F
100
AcDbEntity
  8
AM_0
100
AcDbLine
 10
-16.46851800000002
 20
-10.0
 30
0.0
 11
-16.46851800000002
 21
10.0
 31
0.0
  0
LINE
  5
5C5
330
1F
100
AcDbEntity
  8
AM_0
100
AcDbLine
 10
-27.46851800000002
 20
13.15000000000009
 30
0.0
 11
-22.46851800000002
 21
13.15000000000009
 31
0.0
  0
LINE
  5
5C6
330
1F
100
AcDbEntity
  8
AM_0
100
AcDbLine
 10
-10.12310821165317
 20
-11.7002470482978
 30
0.0
 11
-16.46851800000002
 21
-10.0
 31
0.0
  0
LINE
  5
5C7
330
1F
100
AcDbEntity
  8
AM_0
100
AcDbLine
 10
-8.908695386310569
 20
-12.63209872980883
 30
0.0
 11
-0.1835169999998243
 21
-27.744551
 31
0.0
  0
ARC
  5
5C8
330
1F
100
AcDbEntity
  8
AM_0
100
AcDbCircle
 10
-10.64074619387918
 20
-13.63209872980883
 30
0.0
 40
2.0
100
AcDbArc
 50
29.99999999999902
 51
75.00000320249386
1001
GENIUS_GENOBJ-N-FIL_13
1002
{
1000
OWNER
1000
GEN
1002
}
1001
GENIUS_GENODEF_13
1002
{
1000
HIER
1070
     0
1002
}
1002
{
1000
MANEDIT
1070
     0
1002
}
1002
{
1000
NOSEL
1070
     0
1002
}
1002
{
1000
BEHIND
1070
     0
1002
}
1002
{
1000
OTHER
1070
     0
1002
}
1002
{
1000
REACTOR
1002
}
  0
LINE
  5
5C9
330
1F
100
AcDbEntity
  8
AM_0
100
AcDbLine
 10
-10.12310821165317
 20
11.7002470482978
 30
0.0
 11
-16.46851800000002
 21
10.0
 31
0.0
  0
LINE
  5
5CA
330
1F
100
AcDbEntity
  8
AM_0
100
AcDbLine
 10
-8.908695386310569
 20
12.63209872980883
 30
0.0
 11
-0.183517000000279
 21
27.744551
 31
0.0
  0
ARC
  5
5CB
330
1F
100
AcDbEntity
  8
AM_0
100
AcDbCircle
 10
-10.64074619387963
 20
13.63209872980883
 30
0.0
 40
2.0
100
AcDbArc
 50
284.9999967975061
 51
330.000000000001
1001
GENIUS_GENOBJ-N-FIL_13
1002
{
1000
OWNER
1000
GEN
1002
}
1001
GENIUS_GENODEF_13
1002
{
1000
HIER
1070
     0
1002
}
1002
{
1000
MANEDIT
1070
     0
1002
}
1002
{
1000
NOSEL
1070
     0
1002
}
1002
{
1000
BEHIND
1070
     0
1002
}
1002
{
1000
OTHER
1070
     0
1002
}
1002
{
1000
REACTOR
1002
}
  0
DIMENSION
  5
5CC
330
1F
100
AcDbEntity
  8
AM_5
100
AcDbDimension
  2
*D25
 10
-67.70170677537828
 20
-12.69999999999992
 30
0.0
 11
-71.10208079112631
 21
0.0000000000000525
 31
0.0
 70
    32
  1
%%c<>
 71
     5
 42
25.39999999999998
  3
AM_JIS$0
100
AcDbAlignedDimension
 13
-45.9685179999999
 23
12.70000000000004
 33
0.0
 14
-45.9685179999999
 24
-12.69999999999993
 34
0.0
 50
90.0
100
AcDbRotatedDimension
1001
ACAD
1000
DSTYLE
1002
{
1070
    47
1040
0.025
1070
    48
1040
0.0
1070
   179
1070
     0
1070
   271
1070
     1
1002
}
  0
TEXT
  5
755
330
1F
100
AcDbEntity
  8
0
370
    -3
100
AcDbText
 10
-43.29553619867238
 20
-74.16495154346648
 30
0.0
 40
3.799999999999999
  1
PWS(F)4080R
  7
ACISOTS
100
AcDbText
  0
LWPOLYLINE
  5
792
102
{ACAD_REACTORS
330
860
330
89C
102
}
330
1F
100
AcDbEntity
  8
AM_0
100
AcDbPolyline
 90
        8
 70
     1
 43
0.0
 10
-14.06851799999975
 20
40.0
 10
1.531482000000153
 20
39.99999999999997
 42
-0.4142135623730951
 10
2.331482000000164
 20
39.19999999999996
 10
2.331482000000164
 20
32.80000000000001
 42
-0.4142135623730974
 10
1.531482000000153
 20
32.0
 10
-14.06851799999975
 20
32.0
 42
-0.4142135623730951
 10
-14.86851799999977
 20
32.80000000000001
 10
-14.86851799999977
 20
39.19999999999999
 42
-0.4142135623730951
1001
GENIUS_GENREC_14
1002
{
1000
PYDIR
1011
-14.86851799999977
1021
32.0
1031
0.0
1002
}
1002
{
1000
PXDIR
1011
2.331482000000221
1021
40.0
1031
0.0
1002
}
1002
{
1000
PORI
1011
-14.86851799999977
1021
40.0
1031
0.0
1002
}
1002
{
1000
PINS
1011
-14.86851799999977
1021
40.0
1031
0.0
1002
}
1002
{
1000
PINS2
1011
2.331482000000221
1021
32.0
1031
0.0
1002
}
1002
{
1000
C
1070
     1
1002
}
1001
GENIUS_GENODEF_13
1002
{
1000
HIER
1070
     0
1002
}
1002
{
1000
MANEDIT
1070
     0
1002
}
1002
{
1000
NOSEL
1070
     0
1002
}
1002
{
1000
BEHIND
1070
     0
1002
}
1002
{
1000
OTHER
1070
     0
1002
}
1002
{
1000
REACTOR
1002
}
1001
GENIUS_GENOBJ-N-REC_13
1002
{
1000
OWNER
1000
GEN
1002
}
  0
DIMENSION
  5
854
102
{ACAD_XDICTIONARY
360
85F
102
}
102
{ACAD_REACTORS
330
860
102
}
330
1F
100
AcDbEntity
  8
AM_5
100
AcDbDimension
  2
*D31
 10
2.331482000000136
 20
44.77331884316129
 30
0.0
 11
-22.66851799999985
 21
48.17331884316129
 31
0.0
 70
    32
 71
     5
 42
49.99999999999997
  3
AM_JIS$0
100
AcDbAlignedDimension
 13
-47.66851799999983
 23
28.0
 33
0.0
 14
2.331482000000136
 24
39.19999999999996
 34
0.0
100
AcDbRotatedDimension
1001
ACAD
1000
DSTYLE
1002
{
1070
   179
1070
     0
1070
   271
1070
     0
1002
}
  0
DIMENSION
  5
890
102
{ACAD_XDICTIONARY
360
89B
102
}
102
{ACAD_REACTORS
330
89C
102
}
330
1F
100
AcDbEntity
  8
AM_5
100
AcDbDimension
  2
*D32
 10
31.82085773922655
 20
39.99999999999996
 30
0.0
 11
31.82085773922654
 21
0.8813766610451239
 31
0.0
 70
   160
  1
%%c<>
 71
     5
 42
79.99999999999994
  3
AM_JIS$0
100
AcDbAlignedDimension
 13
2.247756789273125
 23
0.0
 33
0.0
 14
1.531482000000153
 24
39.99999999999997
 34
0.0
 50
90.0
100
AcDbRotatedDimension
1001
ACAD
1000
DSTYLE
1002
{
1070
    75
1070
     1
1070
   144
1040
2.0
1070
   173
1070
     1
1070
   179
1070
     0
1070
   271
1070
     0
1070
   343
1005
3DC
1002
}
  0
ENDSEC
  0
SECTION
  2
OBJECTS
  0
DICTIONARY
  5
C
330
0
100
AcDbDictionary
281
     1
  3
ACAD_COLOR
350
BE
  3
ACAD_GROUP
350
D
  3
ACAD_LAYOUT
350
1A
  3
ACAD_MATERIAL
350
BD
  3
ACAD_MLINESTYLE
350
17
  3
ACAD_PLOTSETTINGS
350
19
  3
ACAD_PLOTSTYLENAME
350
E
  3
ACAD_TABLESTYLE
350
11A
  3
ACDBHEADERROUNDTRIPXREC
350
945
  3
AcDbVariableDictionary
350
94
  3
AcmDictionary
350
5B
  3
AMG
350
41
  3
AMGSNAPSETTINGS
350
1B8
  3
DWGPROPS
350
944
  0
DICTIONARY
  5
34B
330
2
100
AcDbDictionary
280
     1
281
     1
  3
ACAD_LAYERSTATES
360
47E
  3
AMLAYER_GROUPCOLORS
360
34C
  0
DICTIONARY
  5
8F
330
1F
100
AcDbDictionary
280
     1
281
     1
  0
DICTIONARY
  5
5A4
330
5A3
100
AcDbDictionary
280
     1
281
     1
  3
ACAD_DIMASSOC
360
5A5
  0
DICTIONARY
  5
85F
330
854
100
AcDbDictionary
280
     1
281
     1
  3
ACAD_DIMASSOC
360
860
  0
DICTIONARY
  5
89B
330
890
100
AcDbDictionary
280
     1
281
     1
  3
ACAD_DIMASSOC
360
89C
  0
DICTIONARY
  5
BE
102
{ACAD_REACTORS
330
C
102
}
330
C
100
AcDbDictionary
281
     1
  0
DICTIONARY
  5
D
102
{ACAD_REACTORS
330
C
102
}
330
C
100
AcDbDictionary
281
     1
  0
DICTIONARY
  5
1A
102
{ACAD_REACTORS
330
C
102
}
330
C
100
AcDbDictionary
281
     1
  3
Model
350
22
  3
レイアウト1
350
1E
  3
レイアウト2
350
26
  0
DICTIONARY
  5
BD
102
{ACAD_REACTORS
330
C
102
}
330
C
100
AcDbDictionary
281
     1
  0
DICTIONARY
  5
17
102
{ACAD_REACTORS
330
C
102
}
330
C
100
AcDbDictionary
281
     1
  3
Standard
350
18
  0
DICTIONARY
  5
19
102
{ACAD_REACTORS
330
C
102
}
330
C
100
AcDbDictionary
281
     1
  0
ACDBDICTIONARYWDFLT
  5
E
102
{ACAD_REACTORS
330
C
102
}
330
C
100
AcDbDictionary
281
     1
  3
Normal
350
F
100
AcDbDictionaryWithDefault
340
F
  0
DICTIONARY
  5
11A
102
{ACAD_REACTORS
330
C
102
}
330
C
100
AcDbDictionary
281
     1
  3
Standard
350
11B
  0
DICTIONARY
  5
945
102
{ACAD_REACTORS
330
C
102
}
330
C
100
AcDbDictionary
281
     1
  0
DICTIONARY
  5
94
102
{ACAD_REACTORS
330
C
102
}
330
C
100
AcDbDictionary
281
     1
  3
CTABLESTYLE
350
138
  3
DIMASSOC
350
96
  3
INDEXCTL
350
95
  3
PROJECTNAME
350
942
  0
DICTIONARY
  5
5B
102
{ACAD_REACTORS
330
C
102
}
330
C
100
AcDbDictionary
281
     1
  3
AcmBOM
350
1B5
  3
AcmStdDictionary
350
61
  3
AMDTSECTSYM_ARROWCOLOR
350
123
  0
DICTIONARY
  5
41
102
{ACAD_REACTORS
330
C
102
}
330
C
100
AcDbDictionary
281
     1
  0
DICTIONARY
  5
1B8
102
{ACAD_REACTORS
330
C
102
}
330
C
100
AcDbDictionary
281
     1
  0
XRECORD
  5
944
102
{ACAD_REACTORS
330
C
102
}
330
C
100
AcDbXrecord
280
     1
  1
DWGPROPS COOKIE
  2

  3

  4

  6

  7

  8

  9

300
AmdtFileType=84
301
=
302
=
303
=
304
=
305
=
306
=
307
=
308
=
309
=
 40
0.003939525462963
 41
2455544.336997789
 42
2455544.340936227
  1

 90
        1
  0
DICTIONARY
  5
47E
102
{ACAD_REACTORS
330
34B
102
}
330
34B
100
AcDbDictionary
281
     1
  0
DICTIONARY
  5
34C
102
{ACAD_REACTORS
330
34B
102
}
330
34B
100
AcDbDictionary
280
     1
281
     1
  0
DIMASSOC
  5
5A5
102
{ACAD_REACTORS
330
5A4
102
}
330
5A4
100
AcDbDimAssoc
330
5A3
 90
        1
 70
     0
 71
     0
  1
AcDbOsnapPointRef
 72
    10
331
575
 73
     0
 91
        0
 40
0.8674745558271766
 10
0.0
 20
0.0
 30
0.0
 75
     0
  0
DIMASSOC
  5
860
102
{ACAD_REACTORS
330
85F
102
}
330
85F
100
AcDbDimAssoc
330
854
 90
        3
 70
     0
 71
     0
  1
AcDbOsnapPointRef
 72
     6
331
5AD
 73
     0
 91
        0
 40
0.0
 10
0.0
 20
0.0
 30
0.0
332
59E
 74
     0
 92
        0
 75
     0
  1
AcDbOsnapPointRef
 72
     1
331
792
 73
     2
 91
        2
 40
0.0
 10
0.0
 20
0.0
 30
2.000000000000000E+50
 75
     0
  0
DIMASSOC
  5
89C
102
{ACAD_REACTORS
330
89B
102
}
330
89B
100
AcDbDimAssoc
330
890
 90
        3
 70
     0
 71
     0
  1
AcDbOsnapPointRef
 72
    13
331
5AA
 73
     0
 91
        0
 40
0.0
 10
0.0
 20
0.0
 30
2.000000000000000E+50
 75
     0
  1
AcDbOsnapPointRef
 72
    13
331
792
 73
     2
 91
        2
 40
0.0
 10
0.0
 20
0.0
 30
2.000000000000000E+50
 75
     0
  0
LAYOUT
  5
22
102
{ACAD_XDICTIONARY
360
948
102
}
102
{ACAD_REACTORS
330
1A
102
}
330
1A
100
AcDbPlotSettings
  1

  2
SII LP-2150 (D-SCAN C2)
  4
User119
  6

 40
3.174999952316284
 41
3.174999952316284
 42
3.175003051757812
 43
3.17498779296875
 44
210.0579986572266
 45
296.9259948730469
 46
0.0
 47
0.0
 48
0.0
 49
0.0
140
0.0
141
0.0
142
1.0
143
1.580715189147934
 70
 11952
 72
     1
 73
     1
 74
     0
  7
sei_cad.ctb
 75
     0
147
0.6326250338234799
148
19.65895403440572
149
1.143774069319647
100
AcDbLayout
  1
Model
 70
     1
 71
     0
 10
0.0
 20
0.0
 11
12.0
 21
9.0
 12
0.0
 22
0.0
 32
0.0
 14
0.0
 24
0.0
 34
0.0
 15
0.0
 25
0.0
 35
0.0
146
0.0
 13
0.0
 23
0.0
 33
0.0
 16
1.0
 26
0.0
 36
0.0
 17
0.0
 27
1.0
 37
0.0
 76
     0
330
1F
1001
ACAD_PSEXT
1000
SII LP-2150 (D-SCAN C2)
1000
SII LP-2150 (D-SCAN C2)
1000
133.153.16.130#3000
1000

1070
     0
  0
LAYOUT
  5
1E
102
{ACAD_XDICTIONARY
360
946
102
}
102
{ACAD_REACTORS
330
1A
102
}
330
1A
100
AcDbPlotSettings
  1

  2

  4

  6

 40
0.0
 41
0.0
 42
0.0
 43
0.0
 44
0.0
 45
0.0
 46
0.0
 47
0.0
 48
0.0
 49
0.0
140
0.0
141
0.0
142
1.0
143
1.0
 70
   688
 72
     0
 73
     0
 74
     5
  7
sei_cad.ctb
 75
    16
147
1.0
148
0.0
149
0.0
100
AcDbLayout
  1
レイアウト1
 70
     1
 71
     1
 10
0.0
 20
0.0
 11
420.0
 21
297.0
 12
0.0
 22
0.0
 32
0.0
 14
1.000000000000000E+20
 24
1.000000000000000E+20
 34
1.000000000000000E+20
 15
-1.000000000000000E+20
 25
-1.000000000000000E+20
 35
-1.000000000000000E+20
146
0.0
 13
0.0
 23
0.0
 33
0.0
 16
1.0
 26
0.0
 36
0.0
 17
0.0
 27
1.0
 37
0.0
 76
     0
330
1B
  0
LAYOUT
  5
26
102
{ACAD_XDICTIONARY
360
94A
102
}
102
{ACAD_REACTORS
330
1A
102
}
330
1A
100
AcDbPlotSettings
  1

  2

  4

  6

 40
0.0
 41
0.0
 42
0.0
 43
0.0
 44
0.0
 45
0.0
 46
0.0
 47
0.0
 48
0.0
 49
0.0
140
0.0
141
0.0
142
1.0
143
1.0
 70
   688
 72
     0
 73
     0
 74
     5
  7
sei_cad.ctb
 75
    16
147
1.0
148
0.0
149
0.0
100
AcDbLayout
  1
レイアウト2
 70
     1
 71
     2
 10
0.0
 20
0.0
 11
12.0
 21
9.0
 12
0.0
 22
0.0
 32
0.0
 14
0.0
 24
0.0
 34
0.0
 15
0.0
 25
0.0
 35
0.0
146
0.0
 13
0.0
 23
0.0
 33
0.0
 16
1.0
 26
0.0
 36
0.0
 17
0.0
 27
1.0
 37
0.0
 76
     0
330
23
  0
MLINESTYLE
  5
18
102
{ACAD_REACTORS
330
17
102
}
330
17
100
AcDbMlineStyle
  2
STANDARD
 70
     0
  3

 62
   256
 51
90.0
 52
90.0
 71
     2
 49
0.5
 62
   256
  6
BYLAYER
 49
-0.5
 62
   256
  6
BYLAYER
  0
ACDBPLACEHOLDER
  5
F
102
{ACAD_REACTORS
330
E
102
}
330
E
  0
TABLESTYLE
  5
11B
102
{ACAD_REACTORS
330
11A
102
}
330
11A
100
AcDbTableStyle
  3
Standard
 70
     0
 71
     0
 40
1.5
 41
1.5
280
     0
281
     0
  7
STANDARD
140
4.5
170
     2
 62
     0
 63
     7
283
     0
274
    -2
284
     1
 64
     0
275
    -2
285
     1
 65
     0
276
    -2
286
     1
 66
     0
277
    -2
287
     1
 67
     0
278
    -2
288
     1
 68
     0
279
    -2
289
     1
 69
     0
  7
STANDARD
140
6.0
170
     5
 62
     0
 63
     7
283
     0
274
    -2
284
     1
 64
     0
275
    -2
285
     1
 65
     0
276
    -2
286
     1
 66
     0
277
    -2
287
     1
 67
     0
278
    -2
288
     1
 68
     0
279
    -2
289
     1
 69
     0
  7
STANDARD
140
4.5
170
     5
 62
     0
 63
     7
283
     0
274
    -2
284
     1
 64
     0
275
    -2
285
     1
 65
     0
276
    -2
286
     1
 66
     0
277
    -2
287
     1
 67
     0
278
    -2
288
     1
 68
     0
279
    -2
289
     1
 69
     0
  0
DICTIONARYVAR
  5
138
102
{ACAD_REACTORS
330
94
102
}
330
94
100
DictionaryVariables
280
     0
  1
STANDARD
  0
DICTIONARYVAR
  5
96
102
{ACAD_REACTORS
330
94
102
}
330
94
100
DictionaryVariables
280
     0
  1
2
  0
DICTIONARYVAR
  5
95
102
{ACAD_REACTORS
330
94
102
}
330
94
100
DictionaryVariables
280
     0
  1
0
  0
DICTIONARYVAR
  5
942
102
{ACAD_REACTORS
330
94
102
}
330
94
100
DictionaryVariables
280
     0
  1

  0
DICTIONARY
  5
1B5
102
{ACAD_REACTORS
330
5B
102
}
330
5B
100
AcDbDictionary
281
     1
  0
DICTIONARY
  5
61
102
{ACAD_REACTORS
330
5B
102
}
330
5B
100
AcDbDictionary
281
     1
  0
XRECORD
  5
123
102
{ACAD_REACTORS
330
5B
102
}
330
5B
100
AcDbXrecord
280
     1
 90
-1023410169
  0
DICTIONARY
  5
948
330
22
100
AcDbDictionary
280
     1
281
     1
  3
ACAD_XREC_ROUNDTRIP
360
949
  0
DICTIONARY
  5
946
330
1E
100
AcDbDictionary
280
     1
281
     1
  3
ACAD_XREC_ROUNDTRIP
360
947
  0
DICTIONARY
  5
94A
330
26
100
AcDbDictionary
280
     1
281
     1
  3
ACAD_XREC_ROUNDTRIP
360
94B
  0
XRECORD
  5
949
102
{ACAD_REACTORS
330
948
102
}
330
948
100
AcDbXrecord
280
     1
102
SHADEPLOT
 70
     0
102
SHADEPLOTRESLEVEL
 70
     2
102
SHADEPLOTCUSTOMDPI
 70
   300
  0
XRECORD
  5
947
102
{ACAD_REACTORS
330
946
102
}
330
946
100
AcDbXrecord
280
     1
102
SHADEPLOT
 70
     0
102
SHADEPLOTRESLEVEL
 70
     2
102
SHADEPLOTCUSTOMDPI
 70
   300
  0
XRECORD
  5
94B
102
{ACAD_REACTORS
330
94A
102
}
330
94A
100
AcDbXrecord
280
     1
102
SHADEPLOT
 70
     0
102
SHADEPLOTRESLEVEL
 70
     2
102
SHADEPLOTCUSTOMDPI
 70
   300
  0
ENDSEC
  0
EOF
