  0
SECTION
  2
HEADER
  9
$ACADVER
  1
AC1015
  9
$ACADMAINTVER
 70
    20
  9
$DWGCODEPAGE
  3
ANSI_932
  9
$INSBASE
 10
0.0
 20
0.0
 30
0.0
  9
$EXTMIN
 10
-97.03305496055385
 20
-101.9510529322716
 30
-0.0000000349181948
  9
$EXTMAX
 10
24.4252758501184
 20
90.14199575911641
 30
0.0000000814935746
  9
$LIMMIN
 10
0.0
 20
0.0
  9
$LIMMAX
 10
420.0
 20
297.0
  9
$ORTHOMODE
 70
     0
  9
$REGENMODE
 70
     1
  9
$FILLMODE
 70
     1
  9
$QTEXTMODE
 70
     0
  9
$MIRRTEXT
 70
     1
  9
$LTSCALE
 40
1.0
  9
$ATTMODE
 70
     1
  9
$TEXTSIZE
 40
3.799999999999999
  9
$TRACEWID
 40
1.0
  9
$TEXTSTYLE
  7
ACISOTS
  9
$CLAYER
  8
AM_4
  9
$CELTYPE
  6
ByLayer
  9
$CECOLOR
 62
   256
  9
$CELTSCALE
 40
1.0
  9
$DISPSILH
 70
     0
  9
$DIMSCALE
 40
1.0
  9
$DIMASZ
 40
2.5
  9
$DIMEXO
 40
1.0
  9
$DIMDLI
 40
10.0
  9
$DIMRND
 40
0.0
  9
$DIMDLE
 40
0.0
  9
$DIMEXE
 40
1.0
  9
$DIMTP
 40
0.1
  9
$DIMTM
 40
0.1000000001
  9
$DIMTXT
 40
3.799999999999999
  9
$DIMCEN
 40
0.0
  9
$DIMTSZ
 40
0.0
  9
$DIMTOL
 70
     0
  9
$DIMLIM
 70
     0
  9
$DIMTIH
 70
     0
  9
$DIMTOH
 70
     0
  9
$DIMSE1
 70
     0
  9
$DIMSE2
 70
     0
  9
$DIMTAD
 70
     3
  9
$DIMZIN
 70
     8
  9
$DIMBLK
  1
Open30
  9
$DIMASO
 70
     1
  9
$DIMSHO
 70
     1
  9
$DIMPOST
  1

  9
$DIMAPOST
  1
"
  9
$DIMALT
 70
     0
  9
$DIMALTD
 70
     2
  9
$DIMALTF
 40
0.0393701
  9
$DIMLFAC
 40
1.0
  9
$DIMTOFL
 70
     1
  9
$DIMTVP
 40
0.0
  9
$DIMTIX
 70
     0
  9
$DIMSOXD
 70
     0
  9
$DIMSAH
 70
     0
  9
$DIMBLK1
  1

  9
$DIMBLK2
  1

  9
$DIMSTYLE
  2
AM_JIS
  9
$DIMCLRD
 70
   256
  9
$DIMCLRE
 70
   256
  9
$DIMCLRT
 70
     2
  9
$DIMTFAC
 40
0.71
  9
$DIMGAP
 40
1.5
  9
$DIMJUST
 70
     0
  9
$DIMSD1
 70
     0
  9
$DIMSD2
 70
     0
  9
$DIMTOLJ
 70
     0
  9
$DIMTZIN
 70
     8
  9
$DIMALTZ
 70
     0
  9
$DIMALTTZ
 70
     0
  9
$DIMUPT
 70
     0
  9
$DIMDEC
 70
     2
  9
$DIMTDEC
 70
     2
  9
$DIMALTU
 70
     2
  9
$DIMALTTD
 70
     2
  9
$DIMTXSTY
  7
STANDARD
  9
$DIMAUNIT
 70
     1
  9
$DIMADEC
 70
     0
  9
$DIMALTRND
 40
0.0
  9
$DIMAZIN
 70
     2
  9
$DIMDSEP
 70
    46
  9
$DIMATFIT
 70
     3
  9
$DIMFRAC
 70
     0
  9
$DIMLDRBLK
  1
Open30
  9
$DIMLUNIT
 70
     2
  9
$DIMLWD
 70
    -1
  9
$DIMLWE
 70
    -1
  9
$DIMTMOVE
 70
     0
  9
$LUNITS
 70
     2
  9
$LUPREC
 70
     2
  9
$SKETCHINC
 40
1.0
  9
$FILLETRAD
 40
0.8
  9
$AUNITS
 70
     0
  9
$AUPREC
 70
     0
  9
$MENU
  1
.
  9
$ELEVATION
 40
0.0
  9
$PELEVATION
 40
0.0
  9
$THICKNESS
 40
0.0
  9
$LIMCHECK
 70
     0
  9
$CHAMFERA
 40
2.5
  9
$CHAMFERB
 40
2.5
  9
$CHAMFERC
 40
20.0
  9
$CHAMFERD
 40
0.0
  9
$SKPOLY
 70
     0
  9
$TDCREATE
 40
2455544.336997789
  9
$TDUCREATE
 40
2455543.961997789
  9
$TDUPDATE
 40
2455544.346918033
  9
$TDUUPDATE
 40
2455543.971918033
  9
$TDINDWG
 40
0.0090605093
  9
$TDUSRTIMER
 40
0.0090605093
  9
$USRTIMER
 70
     1
  9
$ANGBASE
 50
0.0
  9
$ANGDIR
 70
     0
  9
$PDMODE
 70
     0
  9
$PDSIZE
 40
0.0
  9
$PLINEWID
 40
0.0
  9
$SPLFRAME
 70
     0
  9
$SPLINETYPE
 70
     6
  9
$SPLINESEGS
 70
    40
  9
$HANDSEED
  5
1416
  9
$SURFTAB1
 70
     6
  9
$SURFTAB2
 70
     6
  9
$SURFTYPE
 70
     6
  9
$SURFU
 70
     6
  9
$SURFV
 70
     6
  9
$UCSBASE
  2

  9
$UCSNAME
  2

  9
$UCSORG
 10
0.0
 20
0.0
 30
0.0
  9
$UCSXDIR
 10
1.0
 20
0.0
 30
0.0
  9
$UCSYDIR
 10
0.0
 20
1.0
 30
0.0
  9
$UCSORTHOREF
  2

  9
$UCSORTHOVIEW
 70
     0
  9
$UCSORGTOP
 10
0.0
 20
0.0
 30
0.0
  9
$UCSORGBOTTOM
 10
0.0
 20
0.0
 30
0.0
  9
$UCSORGLEFT
 10
0.0
 20
0.0
 30
0.0
  9
$UCSORGRIGHT
 10
0.0
 20
0.0
 30
0.0
  9
$UCSORGFRONT
 10
0.0
 20
0.0
 30
0.0
  9
$UCSORGBACK
 10
0.0
 20
0.0
 30
0.0
  9
$PUCSBASE
  2

  9
$PUCSNAME
  2

  9
$PUCSORG
 10
0.0
 20
0.0
 30
0.0
  9
$PUCSXDIR
 10
1.0
 20
0.0
 30
0.0
  9
$PUCSYDIR
 10
0.0
 20
1.0
 30
0.0
  9
$PUCSORTHOREF
  2

  9
$PUCSORTHOVIEW
 70
     0
  9
$PUCSORGTOP
 10
0.0
 20
0.0
 30
0.0
  9
$PUCSORGBOTTOM
 10
0.0
 20
0.0
 30
0.0
  9
$PUCSORGLEFT
 10
0.0
 20
0.0
 30
0.0
  9
$PUCSORGRIGHT
 10
0.0
 20
0.0
 30
0.0
  9
$PUCSORGFRONT
 10
0.0
 20
0.0
 30
0.0
  9
$PUCSORGBACK
 10
0.0
 20
0.0
 30
0.0
  9
$USERI1
 70
     0
  9
$USERI2
 70
     0
  9
$USERI3
 70
     0
  9
$USERI4
 70
     0
  9
$USERI5
 70
     0
  9
$USERR1
 40
0.0
  9
$USERR2
 40
0.0
  9
$USERR3
 40
0.0
  9
$USERR4
 40
0.0
  9
$USERR5
 40
0.0
  9
$WORLDVIEW
 70
     1
  9
$SHADEDGE
 70
     3
  9
$SHADEDIF
 70
    70
  9
$TILEMODE
 70
     1
  9
$MAXACTVP
 70
    64
  9
$PINSBASE
 10
0.0
 20
0.0
 30
0.0
  9
$PLIMCHECK
 70
     0
  9
$PEXTMIN
 10
1.000000000000000E+20
 20
1.000000000000000E+20
 30
1.000000000000000E+20
  9
$PEXTMAX
 10
-1.000000000000000E+20
 20
-1.000000000000000E+20
 30
-1.000000000000000E+20
  9
$PLIMMIN
 10
0.0
 20
0.0
  9
$PLIMMAX
 10
420.0
 20
297.0
  9
$UNITMODE
 70
     0
  9
$VISRETAIN
 70
     1
  9
$PLINEGEN
 70
     0
  9
$PSLTSCALE
 70
     1
  9
$TREEDEPTH
 70
  3020
  9
$CMLSTYLE
  2
Standard
  9
$CMLJUST
 70
     0
  9
$CMLSCALE
 40
20.0
  9
$PROXYGRAPHICS
 70
     1
  9
$MEASUREMENT
 70
     1
  9
$CELWEIGHT
370
    -1
  9
$ENDCAPS
280
     0
  9
$JOINSTYLE
280
     0
  9
$LWDISPLAY
290
     0
  9
$INSUNITS
 70
     4
  9
$HYPERLINKBASE
  1

  9
$STYLESHEET
  1

  9
$XEDIT
290
     1
  9
$CEPSNTYPE
380
     0
  9
$PSTYLEMODE
290
     1
  9
$FINGERPRINTGUID
  2
{177E454D-540C-4CD3-A0A7-49E71D8C9430}
  9
$VERSIONGUID
  2
{13889C80-AA44-4ACE-99E5-FD418CEFB542}
  9
$EXTNAMES
290
     1
  9
$PSVPSCALE
 40
0.0
  9
$OLESTARTUP
290
     0
  0
ENDSEC
  0
SECTION
  2
CLASSES
  0
CLASS
  1
ACDBDICTIONARYWDFLT
  2
AcDbDictionaryWithDefault
  3
ObjectDBX Classes
 90
        0
280
     0
281
     0
  0
CLASS
  1
ACDBPLACEHOLDER
  2
AcDbPlaceHolder
  3
ObjectDBX Classes
 90
        0
280
     0
281
     0
  0
CLASS
  1
LAYOUT
  2
AcDbLayout
  3
ObjectDBX Classes
 90
        0
280
     0
281
     0
  0
CLASS
  1
ACME_DOCUMENT
  2
AcMeDbDoc
  3
AcMeServices
 90
        0
280
     0
281
     0
  0
CLASS
  1
AMGSETTINGSOBJ
  2
AmgSettingsObj
  3
"AcadM|Product Description: AutoCAD Mechanical 2000|Company: Autodesk"
 90
        0
280
     0
281
     0
  0
CLASS
  1
ACMESCOPE
  2
AcMeScope
  3
AcMeServices
 90
        0
280
     0
281
     0
  0
CLASS
  1
ACMECOMMANDHISTORY
  2
AcMeCommandHistory
  3
AcMeServices
 90
        0
280
     0
281
     0
  0
CLASS
  1
ACIMSYSVARMAN
  2
AcImSysVarManager
  3
AcMeServices
 90
        0
280
     0
281
     0
  0
CLASS
  1
ACIMREALSYSVAR
  2
AcImRealSysVar
  3
AcMeServices
 90
        0
280
     0
281
     0
  0
CLASS
  1
ACIMINTSYSVAR
  2
AcImIntSysVar
  3
AcMeServices
 90
        0
280
     0
281
     0
  0
CLASS
  1
ACMEDRAWINGMAN
  2
AcMeDrawingMan
  3
AcMeServices
 90
        0
280
     0
281
     0
  0
CLASS
  1
ACMEVIEW
  2
AcMeView
  3
AcMeServices
 90
        0
280
     0
281
     0
  0
CLASS
  1
ACDBENTITYCACHE
  2
AcMeEntityCache
  3
AcMeServices
 90
        0
280
     0
281
     0
  0
CLASS
  1
GSMANAGER
  2
AcMeGSManager
  3
AcMeServices
 90
        0
280
     0
281
     0
  0
CLASS
  1
AMDTINTERNALREACTOR
  2
AmdtInternalReactor
  3
AcMeServices
 90
        0
280
     0
281
     0
  0
CLASS
  1
ACMESTATEMGR
  2
AcMeStateMgr
  3
AcMeServices
 90
        0
280
     0
281
     0
  0
CLASS
  1
ACGREFMASTER
  2
AcGrefMaster
  3
AcAttribServices
 90
        0
280
     0
281
     0
  0
CLASS
  1
ACME_DATABASE
  2
AcMeDbDatabase
  3
AcMeServices
 90
        0
280
     0
281
     0
  0
CLASS
  1
ACRFINSADJUSTERMGR
  2
AcRfInsAdjusterMgr
  3
AcMeServices
 90
        0
280
     0
281
     0
  0
CLASS
  1
ACGREFACADMASTER
  2
AcGrefacadMaster
  3
AcGrefServices
 90
        0
280
     0
281
     0
  0
CLASS
  1
AMIMASTER
  2
AmiMaster
  3
AmiServices
 90
        0
280
     0
281
     0
  0
CLASS
  1
ACMDATADICTIONARY
  2
AcmDataDictionary
  3
"AcmSymBB|Product Description: AutoCAD Mechanical 2004 DX|Company: Autodesk"
 90
        0
280
     0
281
     0
  0
CLASS
  1
ACMDATAENTRYBLOCK
  2
AcmDataEntryBlock
  3
"AcmSymBB|Product Description: AutoCAD Mechanical 2004 DX|Company: Autodesk"
 90
        0
280
     0
281
     0
  0
CLASS
  1
ACIMSTRSYSVAR
  2
AcImStrSysVar
  3
AcMeServices
 90
        0
280
     0
281
     0
  0
CLASS
  1
ACMSTANDARDISO
  2
AcmStandardISO
  3
"Amdt_StdImp|Product Description: AutoCAD Mechanical 2004 DX|Company: Autodesk"
 90
        0
280
     0
281
     0
  0
CLASS
  1
AMGOBJPROPCFG
  2
AmgObjPropCfg
  3
"AmgLay|Product Description: AutoCAD Mechanical 2000|Company: Autodesk"
 90
        1
280
     0
281
     0
  0
CLASS
  1
AMDTEDGESTANDARDISO
  2
AmdtEdgeStdISO
  3
"Amdt_StdImp|Product Description: AutoCAD Mechanical 2004 DX|Company: Autodesk"
 90
        0
280
     0
281
     0
  0
CLASS
  1
ACMSURFSTANDARDISO
  2
AcmSurfTextStdISO
  3
"Amdt_StdImp|Product Description: AutoCAD Mechanical 2004 DX|Company: Autodesk"
 90
        0
280
     0
281
     0
  0
CLASS
  1
ACMFCFSTANDARDISO
  2
AcmFCFStdISO
  3
"Amdt_StdImp|Product Description: AutoCAD Mechanical 2004 DX|Company: Autodesk"
 90
        0
280
     0
281
     0
  0
CLASS
  1
ACMWELDSTANDARDISO
  2
AcmWeldingStdISO
  3
"Amdt_StdImp|Product Description: AutoCAD Mechanical 2004 DX|Company: Autodesk"
 90
        0
280
     0
281
     0
  0
CLASS
  1
ACMIDSTANDARDISO
  2
AcmIdStdISO
  3
"Amdt_StdImp|Product Description: AutoCAD Mechanical 2004 DX|Company: Autodesk"
 90
        0
280
     0
281
     0
  0
CLASS
  1
ACMDATUMSTANDARDISO
  2
AcmDatumStdISO
  3
"Amdt_StdImp|Product Description: AutoCAD Mechanical 2004 DX|Company: Autodesk"
 90
        0
280
     0
281
     0
  0
CLASS
  1
ACMBOMSTANDARDISO
  2
AcmBOMStdISO
  3
"Amdt_StdImp|Product Description: AutoCAD Mechanical 2004 DX|Company: Autodesk"
 90
        0
280
     0
281
     0
  0
CLASS
  1
ACMDETAILSTANDARDISO
  2
AmdtDetailSymStdISO
  3
"Amdt_StdImp|Product Description: AutoCAD Mechanical 2004 DX|Company: Autodesk"
 90
        0
280
     0
281
     0
  0
CLASS
  1
ACMSECTIONSTANDARDISO
  2
AmdtSectionSymStdISO
  3
"Amdt_StdImp|Product Description: AutoCAD Mechanical 2004 DX|Company: Autodesk"
 90
        0
280
     0
281
     0
  0
CLASS
  1
ACMCENTERLINESTANDARDISO
  2
AmdtCenterLineStdISO
  3
"Amdt_StdImp|Product Description: AutoCAD Mechanical 2004 DX|Company: Autodesk"
 90
        0
280
     0
281
     0
  0
CLASS
  1
ACMNOTESTANDARDISO
  2
AmdtNoteStdISO
  3
"Amdt_StdImp|Product Description: AutoCAD Mechanical 2004 DX|Company: Autodesk"
 90
        0
280
     0
281
     0
  0
CLASS
  1
ACAMGLAYSTD
  2
AcAmgLayStd
  3
"AcAmgLayStd|Product Description: AutoCAD Mechanical 2000|Company: Autodesk"
 90
        0
280
     0
281
     0
  0
CLASS
  1
ACAMGDIMSTD
  2
AcAmgDimStd
  3
"AcAmgDimStd|Product Description: AutoCAD Mechanical 2000|Company: Autodesk"
 90
        0
280
     0
281
     0
  0
CLASS
  1
ACAMGHOLECHARTSTDISO
  2
AcAmgHoleChartStdISO
  3
ACMSYMBB_MODULE_NAME
 90
        0
280
     0
281
     0
  0
CLASS
  1
ACAMGTITLESTD
  2
AcAmgTitleStd
  3
"TITLEAPP"
 90
        0
280
     0
281
     0
  0
CLASS
  1
LAYER_INDEX
  2
AcDbLayerIndex
  3
ObjectDBX Classes
 90
    32768
280
     0
281
     0
  0
CLASS
  1
IDBUFFER
  2
AcDbIdBuffer
  3
ObjectDBX Classes
 90
    32768
280
     0
281
     0
  0
CLASS
  1
DICTIONARYVAR
  2
AcDbDictionaryVar
  3
ObjectDBX Classes
 90
        0
280
     0
281
     0
  0
CLASS
  1
AM_DRAWING_MGR
  2
AcDmDwgMgr
  3
AcMechDwgViewMgmt
 90
        0
280
     0
281
     0
  0
CLASS
  1
AM_DWG_DOCUMENT
  2
AcDmDwgDocument
  3
AcMechDwgViewMgmt
 90
        0
280
     0
281
     0
  0
CLASS
  1
AM_DWG_SHEET
  2
AcDmSheet
  3
AcMechDwgViewMgmt
 90
        0
280
     0
281
     0
  0
CLASS
  1
AM_VIEWDIMPARMAP
  2
AcDmViewDimParMap
  3
AcMechDwgViewMgmt
 90
        0
280
     0
281
     0
  0
CLASS
  1
AM_DWGMGR_NAME
  2
AcDmDwgMgrName
  3
AcMechDwgViewMgmt
 90
        0
280
     0
281
     0
  0
CLASS
  1
AMDTMENUSTATEMGR
  2
AmdtMenuStateMgr
  3
McadcomServices
 90
        0
280
     0
281
     0
  0
CLASS
  1
AMDTMCOMMENUSTATE
  2
AmdtMcomMenuState
  3
McadcomServices
 90
        0
280
     0
281
     0
  0
CLASS
  1
MAPIAMMOUDLE
  2
MApiAmModule
  3
MApiAmServices
 90
        0
280
     0
281
     0
  0
CLASS
  1
AMDTADMENUSTATE
  2
AmdtAdMenuState
  3
DesignerServices
 90
        0
280
     0
281
     0
  0
CLASS
  1
ADAPPL
  2
AcAdAppl
  3
DesignerServices
 90
        0
280
     0
281
     0
  0
CLASS
  1
DEPMGR
  2
AcAdDepMgr
  3
DesignerServices
 90
        0
280
     0
281
     0
  0
CLASS
  1
PARAMMGR
  2
AcAdParamMgr
  3
DesignerServices
 90
        0
280
     0
281
     0
  0
CLASS
  1
PARAMSCOPE
  2
AcAdParamScope
  3
DesignerServices
 90
        0
280
     0
281
     0
  0
CLASS
  1
NAMEDAPPL
  2
AcAdNamedAppl
  3
DesignerServices
 90
        0
280
     0
281
     0
  0
CLASS
  1
AMDTDMMENUSTATE
  2
AmdtDmMenuState
  3
AcMechDwgViewMgmt
 90
        0
280
     0
281
     0
  0
CLASS
  1
AMDTAMMENUSTATE
  2
AmdtAmMenuState
  3
DesignerAssemblies
 90
        0
280
     0
281
     0
  0
CLASS
  1
ACAMPROJECT
  2
AcAmProject
  3
DesignerAssemblies
 90
        0
280
     0
281
     0
  0
CLASS
  1
ACAMGRCOMPDEF
  2
AcAmGrCompDef
  3
DesignerAssemblies
 90
        0
280
     0
281
     0
  0
CLASS
  1
ACCMCONTEXT
  2
AcCmContext
  3
DesignerAssemblies
 90
        0
280
     0
281
     0
  0
CLASS
  1
ACAMCOMPDEF
  2
AcAmCompDef
  3
DesignerAssemblies
 90
        0
280
     0
281
     0
  0
CLASS
  1
ACAMCOMPDEFMGR
  2
AcAmCompDefMgr
  3
DesignerAssemblies
 90
        0
280
     0
281
     0
  0
CLASS
  1
AMCONTEXTMGR
  2
AcAmContextMgr
  3
DesignerAssemblies
 90
        0
280
     0
281
     0
  0
CLASS
  1
ACAMCONTEXTMODELER
  2
AcAmContextModeler
  3
DesignerAssemblies
 90
        0
280
     0
281
     0
  0
CLASS
  1
ACMTHREADLINESTANDARDISO
  2
AmdtThreadLineStdISO
  3
"Amdt_StdImp|Product Description: AutoCAD Mechanical 2004 DX|Company: Autodesk"
 90
        0
280
     0
281
     0
  0
CLASS
  1
CATALOGSTATE
  2
AcAmCatalogState
  3
DesignerAssemblies
 90
        0
280
     0
281
     0
  0
CLASS
  1
ACAMGRCOMPDEFSET
  2
AcAmGrCompDefSet
  3
DesignerAssemblies
 90
        0
280
     0
281
     0
  0
CLASS
  1
AMDTBROWSERDBTAB
  2
AmdtBrowserDbTab
  3
McadcomServices
 90
        0
280
     0
281
     0
  0
CLASS
  1
CBROWSERAPPOBJECT
  2
CBrowserAppObject
  3
McadcomServices
 90
        0
280
     0
281
     0
  0
CLASS
  1
DM_PLACEHOLDER
  2
AcDmSelsetPlaceholder
  3
AcMechDwgViewMgmt
 90
        0
280
     0
281
     0
  0
CLASS
  1
TABLESTYLE
  2
AcDbTableStyle
  3
ObjectDBX Classes
 90
     2047
280
     0
281
     0
  0
CLASS
  1
VAACXREFPANELOBJECT
  2
VaAcXREFPanelObject
  3
VAAC_ADDIN
 90
    32768
280
     0
281
     0
  0
CLASS
  1
VAACIMAGEINVENTORY
  2
VaAcImageInventory
  3
VAAC_ADDIN
 90
    32768
280
     0
281
     0
  0
CLASS
  1
AMDTNOTETEMPLATEDB
  2
AmdtNoteTemplateDB
  3
AMDT_STDIMP_MODULE_NAME
 90
        0
280
     0
281
     0
  0
CLASS
  1
ACMBOM
  2
AcmBom
  3
"AcmSymBB|Product Description: AutoCAD Mechanical 2004 DX|Company: Autodesk"
 90
    32768
280
     0
281
     0
  0
CLASS
  1
AMDTFORMULAUPDATEDISPATCHER
  2
AmdtFormulaUpdateDispatcher
  3
AcMeServices
 90
    32768
280
     0
281
     0
  0
CLASS
  1
ACMPARTLIST
  2
AcmPartList
  3
"AcmSymBB|Product Description: AutoCAD Mechanical 2004 DX|Company: Autodesk"
 90
    33791
280
     0
281
     1
  0
CLASS
  1
ACAMGFILTERDAT
  2
AcAmgFilterDat
  3
"AcadM|Product Description: AutoCAD Mechanical 2000|Company: Autodesk"
 90
        0
280
     0
281
     0
  0
CLASS
  1
ACMSTANDARDJIS
  2
AcmStandardJIS
  3
"Amdt_StdImp|Product Description: AutoCAD Mechanical 2004 DX|Company: Autodesk"
 90
        0
280
     0
281
     0
  0
CLASS
  1
ACMSURFSTANDARDJIS
  2
AcmSurfTextStdJIS
  3
"Amdt_StdImp|Product Description: AutoCAD Mechanical 2004 DX|Company: Autodesk"
 90
        0
280
     0
281
     0
  0
CLASS
  1
ACMFCFSTANDARDJIS98
  2
AcmFCFStdJIS98
  3
"Amdt_StdImp|Product Description: AutoCAD Mechanical 2004 DX|Company: Autodesk"
 90
        0
280
     0
281
     0
  0
CLASS
  1
ACMWELDSTANDARDJIS
  2
AcmWeldingStdJIS
  3
"Amdt_StdImp|Product Description: AutoCAD Mechanical 2004 DX|Company: Autodesk"
 90
        0
280
     0
281
     0
  0
CLASS
  1
ACMIDSTANDARDJIS
  2
AcmIdStdJIS
  3
"Amdt_StdImp|Product Description: AutoCAD Mechanical 2004 DX|Company: Autodesk"
 90
        0
280
     0
281
     0
  0
CLASS
  1
ACMDATUMSTANDARDJIS
  2
AcmDatumStdJIS
  3
"Amdt_StdImp|Product Description: AutoCAD Mechanical 2004 DX|Company: Autodesk"
 90
        0
280
     0
281
     0
  0
CLASS
  1
ACMBOMSTANDARDJIS
  2
AcmBOMStdJIS
  3
"Amdt_StdImp|Product Description: AutoCAD Mechanical 2004 DX|Company: Autodesk"
 90
        0
280
     0
281
     0
  0
CLASS
  1
ACMDETAILSTANDARDJIS
  2
AmdtDetailSymStdJIS
  3
"Amdt_StdImp|Product Description: AutoCAD Mechanical 2004 DX|Company: Autodesk"
 90
        0
280
     0
281
     0
  0
CLASS
  1
ACMSECTIONSTANDARDJIS
  2
AmdtSectionSymStdJIS
  3
"Amdt_StdImp|Product Description: AutoCAD Mechanical 2004 DX|Company: Autodesk"
 90
        0
280
     0
281
     0
  0
CLASS
  1
ACMCENTERLINESTANDARDJIS
  2
AmdtCenterLineStdJIS
  3
"Amdt_StdImp|Product Description: AutoCAD Mechanical 2004 DX|Company: Autodesk"
 90
        0
280
     0
281
     0
  0
CLASS
  1
ACMTHREADLINESTANDARDJIS
  2
AmdtThreadLineStdJIS
  3
"Amdt_StdImp|Product Description: AutoCAD Mechanical 2004 DX|Company: Autodesk"
 90
        0
280
     0
281
     0
  0
CLASS
  1
ACMNOTESTANDARDJIS
  2
AmdtNoteStdJIS
  3
"Amdt_StdImp|Product Description: AutoCAD Mechanical 2004 DX|Company: Autodesk"
 90
        0
280
     0
281
     0
  0
CLASS
  1
ACAMGHOLECHARTSTDJIS
  2
AcAmgHoleChartStdJIS
  3
ACMSYMBB_MODULE_NAME
 90
        0
280
     0
281
     0
  0
CLASS
  1
DIMASSOC
  2
AcDbDimAssoc
  3
"AcDbDimAssoc|Product Desc:     AcDim ARX App For Dimension|Company:          Autodesk, Inc.|WEB Address:      www.autodesk.com"
 90
        0
280
     0
281
     0
  0
CLASS
  1
SORTENTSTABLE
  2
AcDbSortentsTable
  3
ObjectDBX Classes
 90
        0
280
     0
281
     0
  0
CLASS
  1
ACRFATTGENMGR
  2
AcRfAttGeneralMgr
  3
AcAttribServices
 90
        0
280
     0
281
     0
  0
CLASS
  1
AMDTNOTE
  2
AmdtNote
  3
"AcmSymBB|Product Description: AutoCAD Mechanical 2004 DX|Company: Autodesk"
 90
     1023
280
     0
281
     1
  0
ENDSEC
  0
SECTION
  2
TABLES
  0
TABLE
  2
VPORT
  5
8
330
0
100
AcDbSymbolTable
 70
    37
  0
VPORT
  5
140D
330
8
100
AcDbSymbolTableRecord
100
AcDbViewportTableRecord
  2
*Active
 70
     0
 10
0.0
 20
0.0
 11
1.0
 21
1.0
 12
-36.30388955521772
 22
-5.904528586577612
 13
0.0
 23
0.0
 14
2.5
 24
2.5
 15
10.0
 25
10.0
 16
0.0
 26
0.0
 36
1.0
 17
0.0
 27
0.0
 37
0.0
 40
193.5706875274756
 41
1.514762516046213
 42
50.0
 43
0.0
 44
0.0
 50
0.0
 51
0.0
 71
     0
 72
 10000
 73
     1
 74
     3
 75
     0
 76
     0
 77
     0
 78
     0
281
     0
 65
     1
110
0.0
120
0.0
130
0.0
111
1.0
121
0.0
131
0.0
112
0.0
122
1.0
132
0.0
 79
     0
146
0.0
  0
ENDTAB
  0
TABLE
  2
LTYPE
  5
5
330
0
100
AcDbSymbolTable
 70
    18
  0
LTYPE
  5
14
330
5
100
AcDbSymbolTableRecord
100
AcDbLinetypeTableRecord
  2
ByBlock
 70
     0
  3

 72
    65
 73
     0
 40
0.0
  0
LTYPE
  5
15
330
5
100
AcDbSymbolTableRecord
100
AcDbLinetypeTableRecord
  2
ByLayer
 70
     0
  3

 72
    65
 73
     0
 40
0.0
  0
LTYPE
  5
16
330
5
100
AcDbSymbolTableRecord
100
AcDbLinetypeTableRecord
  2
Continuous
 70
     0
  3
Solid line
 72
    65
 73
     0
 40
0.0
  0
LTYPE
  5
64
330
5
100
AcDbSymbolTableRecord
100
AcDbLinetypeTableRecord
  2
AM_ISO02W050
 70
     0
  3
__ __ __ __ __ __ __ __ __ __ __ __ __ __ __
 72
    65
 73
     2
 40
7.5
 49
6.0
 74
     0
 49
-1.5
 74
     0
  0
LTYPE
  5
65
330
5
100
AcDbSymbolTableRecord
100
AcDbLinetypeTableRecord
  2
AM_ISO08W050
 70
     0
  3
____ . ____ . ____ . ____ . ____ . ____ . ____
 72
    65
 73
     4
 40
18.0
 49
12.0
 74
     0
 49
-1.5
 74
     0
 49
3.0
 74
     0
 49
-1.5
 74
     0
  0
LTYPE
  5
66
330
5
100
AcDbSymbolTableRecord
100
AcDbLinetypeTableRecord
  2
AM_ISO09W050
 70
     0
  3
_____ . . _____ . . _____ . . ____ .. ____
 72
    65
 73
     6
 40
22.5
 49
12.0
 74
     0
 49
-1.5
 74
     0
 49
3.0
 74
     0
 49
-1.5
 74
     0
 49
3.0
 74
     0
 49
-1.5
 74
     0
  0
LTYPE
  5
67
330
5
100
AcDbSymbolTableRecord
100
AcDbLinetypeTableRecord
  2
Amconstr
 70
     0
  3
_______________________
 72
    65
 73
     2
 40
9999.0
 49
9999.0
 74
     0
 49
0.0
 74
     0
  0
LTYPE
  5
68
330
5
100
AcDbSymbolTableRecord
100
AcDbLinetypeTableRecord
  2
AM_ISO08W050x2
 70
     0
  3
__ . __ . __ . __ . __ . __
 72
    65
 73
     4
 40
9.0
 49
6.0
 74
     0
 49
-0.75
 74
     0
 49
1.5
 74
     0
 49
-0.75
 74
     0
  0
LTYPE
  5
69
330
5
100
AcDbSymbolTableRecord
100
AcDbLinetypeTableRecord
  2
AM_ISO02W050x2
 70
     0
  3
 _ _ _ _ _ _ _ _ _ _ _ _
 72
    65
 73
     2
 40
3.75
 49
3.0
 74
     0
 49
-0.75
 74
     0
  0
LTYPE
  5
6C
330
5
100
AcDbSymbolTableRecord
100
AcDbLinetypeTableRecord
  2
Amzigzag
 70
     0
  3
/\/-/\/-/\/-/\/-/\/-/\/
 72
    65
 73
     2
 40
11.0001
 49
0.0001
 74
     4
 75
   135
340
6B
 46
0.04
 50
0.0
 44
0.0
 45
0.0
 49
-11.0
 74
     0
  0
LTYPE
  5
7A
330
5
100
AcDbSymbolTableRecord
100
AcDbLinetypeTableRecord
  2
ACISOWELD
 70
     0
  3
_ _ _ _ _
 72
    65
 73
     2
 40
2.0
 49
2.0
 74
     0
 49
-1.0
 74
     0
  0
LTYPE
  5
7B
330
5
100
AcDbSymbolTableRecord
100
AcDbLinetypeTableRecord
  2
ACISOTGB
 70
     0
  3
__ . . __ . .
 72
    65
 73
     6
 40
9.0
 49
4.0
 74
     0
 49
-1.0
 74
     0
 49
1.0
 74
     0
 49
-1.0
 74
     0
 49
1.0
 74
     0
 49
-1.0
 74
     0
  0
LTYPE
  5
7C
330
5
100
AcDbSymbolTableRecord
100
AcDbLinetypeTableRecord
  2
ACISOTGL
 70
     0
  3
_ _ _ _ _
 72
    65
 73
     2
 40
3.0
 49
2.0
 74
     0
 49
-1.0
 74
     0
  0
LTYPE
  5
7E
330
5
100
AcDbSymbolTableRecord
100
AcDbLinetypeTableRecord
  2
CENTER
 70
     0
  3
__ . __
 72
    65
 73
     4
 40
7.0
 49
4.0
 74
     0
 49
-1.0
 74
     0
 49
1.0
 74
     0
 49
-1.0
 74
     0
  0
LTYPE
  5
D8
330
5
100
AcDbSymbolTableRecord
100
AcDbLinetypeTableRecord
  2
HIDDEN
 70
     0
  3
Hidden __ __ __ __ __ __ __ __ __ __ __ __ __ _
 72
    65
 73
     2
 40
9.524999999999998
 49
6.349999999999999
 74
     0
 49
-3.174999999999999
 74
     0
  0
LTYPE
  5
D9
330
5
100
AcDbSymbolTableRecord
100
AcDbLinetypeTableRecord
  2
PHANTOM2
 70
     0
  3
Phantom (.5x) ___ _ _ ___ _ _ ___ _ _ ___ _ _
 72
    65
 73
     6
 40
31.75
 49
15.875
 74
     0
 49
-3.174999999999999
 74
     0
 49
3.174999999999999
 74
     0
 49
-3.174999999999999
 74
     0
 49
3.174999999999999
 74
     0
 49
-3.174999999999999
 74
     0
  0
LTYPE
  5
20C
330
5
100
AcDbSymbolTableRecord
100
AcDbLinetypeTableRecord
  2
ACJISWELD
 70
     0
  3
_ _ _ _ _
 72
    65
 73
     2
 40
2.0
 49
2.0
 74
     0
 49
-1.0
 74
     0
  0
LTYPE
  5
20D
330
5
100
AcDbSymbolTableRecord
100
AcDbLinetypeTableRecord
  2
ACJISTGB
 70
     0
  3
__ . . __ . .
 72
    65
 73
     6
 40
9.0
 49
4.0
 74
     0
 49
-1.0
 74
     0
 49
1.0
 74
     0
 49
-1.0
 74
     0
 49
1.0
 74
     0
 49
-1.0
 74
     0
  0
LTYPE
  5
20E
330
5
100
AcDbSymbolTableRecord
100
AcDbLinetypeTableRecord
  2
ACJISTGL
 70
     0
  3
_ _ _ _ _
 72
    65
 73
     2
 40
3.0
 49
2.0
 74
     0
 49
-1.0
 74
     0
  0
LTYPE
  5
473
330
5
100
AcDbSymbolTableRecord
100
AcDbLinetypeTableRecord
  2
DASHED
 70
     0
  3
__ __ __ __ __ __ __ __ __ __ __ __ __ __ __
 72
    65
 73
     2
 40
3.5
 49
2.0
 74
     0
 49
-1.5
 74
     0
  0
ENDTAB
  0
TABLE
  2
LAYER
  5
2
102
{ACAD_XDICTIONARY
360
34B
102
}
330
0
100
AcDbSymbolTable
 70
     8
  0
LAYER
  5
10
330
2
100
AcDbSymbolTableRecord
100
AcDbLayerTableRecord
  2
0
 70
     0
 62
     7
  6
Continuous
370
    -3
390
F
  0
LAYER
  5
34A
330
2
100
AcDbSymbolTableRecord
100
AcDbLayerTableRecord
  2
AM_0
 70
     0
 62
     7
  6
Continuous
370
    30
390
F
  0
LAYER
  5
3AF
330
2
100
AcDbSymbolTableRecord
100
AcDbLayerTableRecord
  2
AM_4
 70
     0
 62
     3
  6
Continuous
370
    13
390
F
  0
LAYER
  5
3B0
330
2
100
AcDbSymbolTableRecord
100
AcDbLayerTableRecord
  2
AM_5
 70
     0
 62
     3
  6
Continuous
370
    13
390
F
  0
LAYER
  5
3B1
330
2
100
AcDbSymbolTableRecord
100
AcDbLayerTableRecord
  2
AM_7
 70
     0
 62
     4
  6
AM_ISO08W050
370
    13
390
F
  0
LAYER
  5
474
330
2
100
AcDbSymbolTableRecord
100
AcDbLayerTableRecord
  2
Defpoints
 70
     0
 62
     7
  6
Continuous
290
     0
370
    -3
390
F
  0
ENDTAB
  0
TABLE
  2
STYLE
  5
3
330
0
100
AcDbSymbolTable
 70
     6
  0
STYLE
  5
11
330
3
100
AcDbSymbolTableRecord
100
AcDbTextStyleTableRecord
  2
STANDARD
 70
     0
 40
0.0
 41
1.0
 50
0.0
 71
     0
 42
3.799999999999999
  3
ISOCP.SHX
  4
EXTFONT.SHX
  0
STYLE
  5
6B
330
3
100
AcDbSymbolTableRecord
100
AcDbTextStyleTableRecord
  2

 70
     1
 40
0.0
 41
1.0
 50
0.0
 71
     0
 42
2.5
  3
ltypeshp.shx
  4

  0
STYLE
  5
6D
330
3
100
AcDbSymbolTableRecord
100
AcDbTextStyleTableRecord
  2
ACISOTS
 70
     0
 40
3.799999999999999
 41
1.0
 50
0.0
 71
     0
 42
3.799999999999999
  3
isocp.shx
  4
extfont.shx
  0
STYLE
  5
79
330
3
100
AcDbSymbolTableRecord
100
AcDbTextStyleTableRecord
  2
ACISOGDT
 70
     0
 40
0.0
 41
1.0
 50
0.0
 71
     0
 42
2.5
  3
amgdt.shx
  4
extfont.shx
  0
STYLE
  5
1FF
330
3
100
AcDbSymbolTableRecord
100
AcDbTextStyleTableRecord
  2
ACJISTS
 70
     0
 40
1.0
 41
1.0
 50
0.0
 71
     0
 42
1.0
  3
isocp.shx
  4
extfont.shx
  0
STYLE
  5
20B
330
3
100
AcDbSymbolTableRecord
100
AcDbTextStyleTableRecord
  2
ACJISGDT
 70
     0
 40
0.0
 41
1.0
 50
0.0
 71
     0
 42
1.0
  3
amgdt.shx
  4

  0
ENDTAB
  0
TABLE
  2
VIEW
  5
6
330
0
100
AcDbSymbolTable
 70
     0
  0
ENDTAB
  0
TABLE
  2
UCS
  5
7
330
0
100
AcDbSymbolTable
 70
     0
  0
ENDTAB
  0
TABLE
  2
APPID
  5
9
330
0
100
AcDbSymbolTable
 70
    21
  0
APPID
  5
12
330
9
100
AcDbSymbolTableRecord
100
AcDbRegAppTableRecord
  2
ACAD
 70
     0
  0
APPID
  5
46
330
9
100
AcDbSymbolTableRecord
100
AcDbRegAppTableRecord
  2
MCAD_NO_VIS
 70
     0
  0
APPID
  5
47
330
9
100
AcDbSymbolTableRecord
100
AcDbRegAppTableRecord
  2
ACAD_TEMP_GRAPHIC
 70
     0
  0
APPID
  5
58
330
9
100
AcDbSymbolTableRecord
100
AcDbRegAppTableRecord
  2
ACATTRIBSERVICES
 70
     0
  0
APPID
  5
EE
330
9
100
AcDbSymbolTableRecord
100
AcDbRegAppTableRecord
  2
AD_DRAW
 70
     0
  0
APPID
  5
10C
330
9
100
AcDbSymbolTableRecord
100
AcDbRegAppTableRecord
  2
DESIGNERASSEMBLIES
 70
     0
  0
APPID
  5
111
330
9
100
AcDbSymbolTableRecord
100
AcDbRegAppTableRecord
  2
ACADM_DIM_EDIT
 70
     0
  0
APPID
  5
112
330
9
100
AcDbSymbolTableRecord
100
AcDbRegAppTableRecord
  2
AMDT_DM_ADJ
 70
     0
  0
APPID
  5
243
330
9
100
AcDbSymbolTableRecord
100
AcDbRegAppTableRecord
  2
ACAD_DSTYLE_DIMTEXT_FILL
 70
     0
  0
APPID
  5
3B4
330
9
100
AcDbSymbolTableRecord
100
AcDbRegAppTableRecord
  2
ACAD_PSEXT
 70
     0
  0
APPID
  5
479
330
9
100
AcDbSymbolTableRecord
100
AcDbRegAppTableRecord
  2
GENIUS_GENODEF_13
 70
     0
  0
APPID
  5
47A
330
9
100
AcDbSymbolTableRecord
100
AcDbRegAppTableRecord
  2
GENIUS_GENOBJ-N-CEN_13
 70
     0
  0
APPID
  5
47B
330
9
100
AcDbSymbolTableRecord
100
AcDbRegAppTableRecord
  2
AcAecLayerStandard
 70
     0
  0
APPID
  5
47C
330
9
100
AcDbSymbolTableRecord
100
AcDbRegAppTableRecord
  2
GENIUS_GENDTOL_13
 70
     0
  0
APPID
  5
47D
330
9
100
AcDbSymbolTableRecord
100
AcDbRegAppTableRecord
  2
GENIUS_GENOBJ-N-FIL_13
 70
     0
  0
APPID
  5
793
330
9
100
AcDbSymbolTableRecord
100
AcDbRegAppTableRecord
  2
GENIUS_GENREC_14
 70
     0
  0
APPID
  5
794
330
9
100
AcDbSymbolTableRecord
100
AcDbRegAppTableRecord
  2
GENIUS_GENOBJ-N-REC_13
 70
     0
  0
APPID
  5
9E0
330
9
100
AcDbSymbolTableRecord
100
AcDbRegAppTableRecord
  2
ACAD_DIMASSOC_DIMLFAC
 70
     0
  0
APPID
  5
9E1
330
9
100
AcDbSymbolTableRecord
100
AcDbRegAppTableRecord
  2
ACAD_DIMASSOC_CALC_DIMLFAC
 70
     0
  0
APPID
  5
9E2
330
9
100
AcDbSymbolTableRecord
100
AcDbRegAppTableRecord
  2
ACAD_DIMASSOC_OVERRIDDEN_DIMLFAC
 70
     0
  0
APPID
  5
9E3
330
9
100
AcDbSymbolTableRecord
100
AcDbRegAppTableRecord
  2
GENIUS_GENCEN_19
 70
     0
  0
ENDTAB
  0
TABLE
  2
DIMSTYLE
  5
A
330
0
100
AcDbSymbolTable
 70
    16
100
AcDbDimStyleTable
 71
     2
340
216
340
81
  0
DIMSTYLE
105
81
330
A
100
AcDbSymbolTableRecord
100
AcDbDimStyleTableRecord
  2
AM_ISO
 70
     0
  4
"
 41
2.5
 42
1.0
 43
10.0
 44
1.0
 47
0.1
 48
0.1
 73
     0
 74
     0
 77
     1
 78
     8
 79
     2
140
3.5
141
0.0
143
0.0393701
146
0.71
147
1.5
172
     1
176
   256
177
   256
178
     2
271
     2
272
     3
274
     4
283
     0
284
     8
340
11
371
    -1
372
    -1
  0
DIMSTYLE
105
82
330
A
100
AcDbSymbolTableRecord
100
AcDbDimStyleTableRecord
  2
AM_ISO$3
 70
     0
  4
"
 41
2.5
 42
1.0
 43
10.0
 44
1.0
 47
0.1
 48
0.1
 73
     0
 77
     1
 78
     8
 79
     2
140
3.5
141
0.0
143
0.0393701
146
0.71
147
1.5
176
   256
177
   256
178
     2
271
     2
272
     3
274
     4
283
     0
284
     8
288
     1
289
     0
340
11
371
    -1
372
    -1
  0
DIMSTYLE
105
83
330
A
100
AcDbSymbolTableRecord
100
AcDbDimStyleTableRecord
  2
AM_ISO$4
 70
     0
  4
"
 41
2.5
 42
1.0
 43
10.0
 44
1.0
 47
0.1
 48
0.1
 73
     0
 77
     1
 78
     8
 79
     2
140
3.5
141
0.0
143
0.0393701
146
0.71
147
1.5
176
   256
177
   256
178
     2
271
     2
272
     3
274
     4
283
     0
284
     8
288
     1
289
     0
340
11
371
    -1
372
    -1
  0
DIMSTYLE
105
84
330
A
100
AcDbSymbolTableRecord
100
AcDbDimStyleTableRecord
  2
AM_ISO$6
 70
     0
  4
"
 41
2.5
 42
1.0
 43
10.0
 44
1.0
 47
0.1
 48
0.1
 73
     0
 74
     0
 78
     8
 79
     2
140
3.5
141
0.0
143
0.0393701
146
0.71
147
1.5
172
     1
176
   256
177
   256
178
     2
271
     2
272
     3
274
     4
283
     0
284
     8
340
11
371
    -1
372
    -1
  0
DIMSTYLE
105
85
330
A
100
AcDbSymbolTableRecord
100
AcDbDimStyleTableRecord
  2
AM_ISO$7
 70
     0
  4
"
 41
2.5
 42
1.0
 43
10.0
 44
1.0
 47
0.1
 48
0.1
 73
     0
 74
     0
 77
     1
 78
     8
 79
     2
140
5.0
141
0.0
143
0.0393701
146
0.71
147
1.5
172
     1
176
   256
177
   256
178
     2
271
     2
272
     3
274
     4
283
     0
284
     8
340
11
371
    -1
372
    -1
  0
DIMSTYLE
105
86
330
A
100
AcDbSymbolTableRecord
100
AcDbDimStyleTableRecord
  2
AM_ISO$SF
 70
     0
  4
"
 41
2.5
 42
1.0
 43
10.0
 44
1.0
 47
0.1
 48
0.1
 73
     0
 74
     0
 75
     1
 76
     1
 77
     1
 78
     8
 79
     2
140
3.5
141
0.0
143
0.0393701
146
0.71
147
1.5
172
     1
176
   256
177
   256
178
     2
271
     2
272
     3
274
     4
283
     0
284
     8
340
11
371
    -1
372
    -1
  0
DIMSTYLE
105
8B
330
A
100
AcDbSymbolTableRecord
100
AcDbDimStyleTableRecord
  2
AM_ISO$SH
 70
     0
  4
"
 41
2.5
 42
1.0
 43
10.0
 44
1.0
 47
0.1
 48
0.1
 73
     0
 74
     0
 75
     1
 76
     1
 77
     1
 78
     8
 79
     2
140
3.5
141
0.0
143
0.0393701
144
2.0
146
0.71
147
1.5
172
     1
173
     1
176
   256
177
   256
178
     2
271
     2
272
     3
274
     4
283
     0
284
     8
340
11
343
87
371
    -1
372
    -1
  0
DIMSTYLE
105
216
330
A
100
AcDbSymbolTableRecord
100
AcDbDimStyleTableRecord
  2
AM_JIS
 70
     0
  4
"
 41
2.5
 42
1.0
 43
10.0
 44
1.0
 47
0.1
 48
0.1000000001
 73
     0
 74
     0
 77
     3
 78
     8
 79
     2
140
3.799999999999999
141
0.0
143
0.0393701
146
0.71
147
1.5
172
     1
176
   256
177
   256
178
     2
271
     2
272
     2
275
     1
283
     0
284
     8
340
11
341
217
342
217
371
    -1
372
    -1
  0
DIMSTYLE
105
21D
330
A
100
AcDbSymbolTableRecord
100
AcDbDimStyleTableRecord
  2
AM_JIS$3
 70
     0
  4
"
 41
2.5
 42
1.0
 43
10.0
 44
1.0
 47
0.1
 48
0.1000000001
 73
     0
 77
     3
 78
     8
 79
     2
140
3.799999999999999
141
0.0
143
0.0393701
146
0.71
147
1.5
176
   256
177
   256
178
     2
271
     2
272
     2
275
     1
283
     0
284
     8
288
     1
289
     0
340
11
341
217
342
217
371
    -1
372
    -1
  0
DIMSTYLE
105
21E
330
A
100
AcDbSymbolTableRecord
100
AcDbDimStyleTableRecord
  2
AM_JIS$4
 70
     0
  4
"
 41
2.5
 42
1.0
 43
10.0
 44
1.0
 47
0.1
 48
0.1000000001
 73
     0
 77
     3
 78
     8
 79
     2
140
3.799999999999999
141
0.0
143
0.0393701
146
0.71
147
1.5
176
   256
177
   256
178
     2
271
     2
272
     2
275
     1
283
     0
284
     8
288
     1
289
     0
340
11
341
217
342
217
371
    -1
372
    -1
  0
DIMSTYLE
105
21F
330
A
100
AcDbSymbolTableRecord
100
AcDbDimStyleTableRecord
  2
AM_JIS$6
 70
     0
  4
"
 41
2.5
 42
1.0
 43
10.0
 44
1.0
 47
0.1
 48
0.1000000001
 73
     0
 74
     0
 78
     8
 79
     2
140
3.799999999999999
141
0.0
143
0.0393701
146
0.71
147
1.5
172
     1
176
   256
177
   256
178
     2
271
     2
272
     2
275
     1
283
     0
284
     8
340
11
341
217
342
217
371
    -1
372
    -1
  0
DIMSTYLE
105
220
330
A
100
AcDbSymbolTableRecord
100
AcDbDimStyleTableRecord
  2
AM_JIS$7
 70
     0
  4
"
 41
2.5
 42
1.0
 43
10.0
 44
1.0
 47
0.1
 48
0.1000000001
 73
     0
 74
     0
 77
     3
 78
     8
 79
     2
140
5.0
141
0.0
143
0.0393701
146
0.71
147
1.5
172
     1
176
   256
177
   256
178
     2
271
     2
272
     2
275
     1
283
     0
284
     8
340
11
341
217
342
217
371
    -1
372
    -1
  0
DIMSTYLE
105
221
330
A
100
AcDbSymbolTableRecord
100
AcDbDimStyleTableRecord
  2
AM_JIS$SF
 70
     0
  4
"
 41
2.5
 42
1.0
 43
10.0
 44
1.0
 47
0.1
 48
0.1
 73
     0
 74
     0
 75
     1
 76
     1
 77
     3
 78
     8
 79
     2
140
3.5
141
0.0
143
0.0393701
146
0.71
147
1.5
172
     1
176
   256
177
   256
178
     2
271
     2
272
     3
274
     4
283
     0
284
     8
340
11
341
217
342
217
343
217
344
217
371
    -1
372
    -1
  0
DIMSTYLE
105
222
330
A
100
AcDbSymbolTableRecord
100
AcDbDimStyleTableRecord
  2
AM_JIS$SH
 70
     0
  4
"
 41
2.5
 42
1.0
 43
10.0
 44
1.0
 47
0.1
 48
0.1
 73
     0
 74
     0
 75
     1
 76
     1
 77
     3
 78
     8
 79
     2
140
3.5
141
0.0
143
0.0393701
144
2.0
146
0.71
147
1.5
172
     1
173
     1
176
   256
177
   256
178
     2
271
     2
272
     3
274
     4
283
     0
284
     8
340
11
341
217
342
217
343
87
344
217
371
    -1
372
    -1
  0
DIMSTYLE
105
477
102
{ACAD_REACTORS
330
1221
330
1224
330
10FB
330
10FC
330
10FD
330
10FF
330
1100
330
134E
330
1351
102
}
330
A
100
AcDbSymbolTableRecord
100
AcDbDimStyleTableRecord
  2
AM_JIS$0
 70
     0
  4
"
 41
2.5
 42
0.0
 43
10.0
 44
1.0
 48
0.000000001
 73
     0
 74
     0
 77
     3
 78
     1
 79
     2
140
3.799999999999999
141
0.0
143
0.0393701
146
0.71
147
1.5
172
     1
176
   256
177
   256
178
     2
179
     1
271
     3
272
     3
275
     1
283
     0
284
     8
340
11
341
217
342
217
371
    -1
372
    -1
  0
DIMSTYLE
105
478
102
{ACAD_REACTORS
330
1354
102
}
330
A
100
AcDbSymbolTableRecord
100
AcDbDimStyleTableRecord
  2
AM_JIS$2
 70
     0
  4
"
 41
2.2
 42
0.3
 43
0.5
 44
0.3
 47
0.1
 48
0.1000000001
 73
     0
 74
     0
 77
     3
 78
     8
 79
     2
140
3.799999999999999
141
0.0
143
0.0393701
146
0.71
147
1.5
172
     1
176
     3
177
     3
178
     2
271
     2
272
     2
275
     1
283
     0
284
     8
340
11
341
217
342
217
371
    -1
372
    -1
  0
ENDTAB
  0
TABLE
  2
BLOCK_RECORD
  5
1
330
0
100
AcDbSymbolTable
 70
    43
  0
BLOCK_RECORD
  5
1F
102
{ACAD_XDICTIONARY
360
8F
102
}
330
1
100
AcDbSymbolTableRecord
100
AcDbBlockTableRecord
  2
*Model_Space
340
22
  0
BLOCK_RECORD
  5
1B
330
1
100
AcDbSymbolTableRecord
100
AcDbBlockTableRecord
  2
*Paper_Space
340
1E
  0
BLOCK_RECORD
  5
23
330
1
100
AcDbSymbolTableRecord
100
AcDbBlockTableRecord
  2
*Paper_Space0
340
26
  0
BLOCK_RECORD
  5
87
330
1
100
AcDbSymbolTableRecord
100
AcDbBlockTableRecord
  2
GENAXEH
340
0
  0
BLOCK_RECORD
  5
217
330
1
100
AcDbSymbolTableRecord
100
AcDbBlockTableRecord
  2
_Open30
340
0
102
{BLKREFS
331
E88
331
E89
331
E91
331
E92
331
E9A
331
E9B
331
EA5
331
EA6
331
EAE
331
EAF
331
EB7
331
EB8
331
EC0
331
EC1
331
EC9
331
ECA
331
EDB
331
EDC
331
EE4
331
EF6
331
EF7
331
EFE
331
EFF
331
F2A
331
F2B
331
F42
331
F43
331
F36
331
F37
331
F4D
331
F58
331
F59
331
F64
331
F65
331
F70
331
F71
331
F7C
331
F7D
331
F88
331
F89
331
126D
331
126E
331
12A4
331
131C
331
131D
331
1328
331
1332
331
1333
331
13A9
331
13AA
331
13B2
331
13B3
331
13BB
331
13BC
331
13C4
331
13C5
331
13CD
331
13CE
331
13D6
331
13D7
331
13DF
331
13E0
331
13E8
331
13E9
331
13F0
331
1401
331
1402
102
}
  0
BLOCK_RECORD
  5
3DC
330
1
100
AcDbSymbolTableRecord
100
AcDbBlockTableRecord
  2
_None
340
0
  0
BLOCK_RECORD
  5
122F
330
1
100
AcDbSymbolTableRecord
100
AcDbBlockTableRecord
  2
*D27
340
0
  0
BLOCK_RECORD
  5
1239
330
1
100
AcDbSymbolTableRecord
100
AcDbBlockTableRecord
  2
*D28
340
0
  0
BLOCK_RECORD
  5
1243
330
1
100
AcDbSymbolTableRecord
100
AcDbBlockTableRecord
  2
*D29
340
0
  0
BLOCK_RECORD
  5
1255
330
1
100
AcDbSymbolTableRecord
100
AcDbBlockTableRecord
  2
*D31
340
0
  0
BLOCK_RECORD
  5
125F
330
1
100
AcDbSymbolTableRecord
100
AcDbBlockTableRecord
  2
*D32
340
0
  0
BLOCK_RECORD
  5
1273
330
1
100
AcDbSymbolTableRecord
100
AcDbBlockTableRecord
  2
*D34
340
0
  0
BLOCK_RECORD
  5
127D
330
1
100
AcDbSymbolTableRecord
100
AcDbBlockTableRecord
  2
*D35
340
0
  0
BLOCK_RECORD
  5
1359
330
1
100
AcDbSymbolTableRecord
100
AcDbBlockTableRecord
  2
*D40
340
0
  0
BLOCK_RECORD
  5
1363
330
1
100
AcDbSymbolTableRecord
100
AcDbBlockTableRecord
  2
*D41
340
0
  0
BLOCK_RECORD
  5
136C
330
1
100
AcDbSymbolTableRecord
100
AcDbBlockTableRecord
  2
*D42
340
0
  0
ENDTAB
  0
ENDSEC
  0
SECTION
  2
BLOCKS
  0
BLOCK
  5
20
330
1F
100
AcDbEntity
  8
0
100
AcDbBlockBegin
  2
*Model_Space
 70
     0
 10
0.0
 20
0.0
 30
0.0
  3
*Model_Space
  1

  0
ENDBLK
  5
21
330
1F
100
AcDbEntity
  8
0
100
AcDbBlockEnd
  0
BLOCK
  5
1C
330
1B
100
AcDbEntity
 67
     1
  8
0
100
AcDbBlockBegin
  2
*Paper_Space
 70
     0
 10
0.0
 20
0.0
 30
0.0
  3
*Paper_Space
  1

  0
ENDBLK
  5
1D
330
1B
100
AcDbEntity
 67
     1
  8
0
100
AcDbBlockEnd
  0
BLOCK
  5
24
330
23
100
AcDbEntity
  8
0
100
AcDbBlockBegin
  2
*Paper_Space0
 70
     0
 10
0.0
 20
0.0
 30
0.0
  3
*Paper_Space0
  1

  0
ENDBLK
  5
25
330
23
100
AcDbEntity
  8
0
100
AcDbBlockEnd
  0
BLOCK
  5
89
330
87
100
AcDbEntity
  8
0
100
AcDbBlockBegin
  2
GENAXEH
 70
     0
 10
0.0
 20
0.0
 30
0.0
  3
GENAXEH
  1

  0
LINE
  5
88
330
87
100
AcDbEntity
  8
0
100
AcDbLine
 10
-1.0
 20
0.0
 30
0.0
 11
1.0
 21
0.0
 31
0.0
  0
ENDBLK
  5
8A
330
87
100
AcDbEntity
  8
0
100
AcDbBlockEnd
  0
BLOCK
  5
21B
330
217
100
AcDbEntity
  8
0
100
AcDbBlockBegin
  2
_Open30
 70
     0
 10
0.0
 20
0.0
 30
0.0
  3
_Open30
  1

  0
LINE
  5
218
330
217
100
AcDbEntity
  8
0
  6
ByBlock
 62
     0
370
    -2
100
AcDbLine
 10
-1.0
 20
0.26794919
 30
0.0
 11
0.0
 21
0.0
 31
0.0
  0
LINE
  5
219
330
217
100
AcDbEntity
  8
0
  6
ByBlock
 62
     0
370
    -2
100
AcDbLine
 10
0.0
 20
0.0
 30
0.0
 11
-1.0
 21
-0.26794919
 31
0.0
  0
LINE
  5
21A
330
217
100
AcDbEntity
  8
0
  6
ByBlock
 62
     0
370
    -2
100
AcDbLine
 10
0.0
 20
0.0
 30
0.0
 11
-1.0
 21
0.0
 31
0.0
  0
ENDBLK
  5
21C
330
217
100
AcDbEntity
  8
0
100
AcDbBlockEnd
  0
BLOCK
  5
3DD
330
3DC
100
AcDbEntity
  8
0
100
AcDbBlockBegin
  2
_None
 70
     0
 10
0.0
 20
0.0
 30
0.0
  3
_None
  1

  0
ENDBLK
  5
3DE
330
3DC
100
AcDbEntity
  8
0
100
AcDbBlockEnd
  0
BLOCK
  5
12BB
330
122F
100
AcDbEntity
  8
0
100
AcDbBlockBegin
  2
*D27
 70
     1
 10
0.0
 20
0.0
 30
0.0
  3
*D27
  1

  0
LINE
  5
13A6
330
122F
100
AcDbEntity
  8
AM_5
100
AcDbLine
 10
-59.49999999999994
 20
7.940000000000068
 30
0.0
 11
-69.2602198282745
 21
7.940000000000071
 31
0.0
  0
LINE
  5
13A7
330
122F
100
AcDbEntity
  8
AM_5
100
AcDbLine
 10
-59.49999999999994
 20
-7.939999999999997
 30
0.0
 11
-69.2602198282745
 21
-7.939999999999995
 31
0.0
  0
LINE
  5
13A8
330
122F
100
AcDbEntity
  8
AM_5
100
AcDbLine
 10
-68.2602198282745
 20
5.440000000000071
 30
0.0
 11
-68.2602198282745
 21
-5.439999999999995
 31
0.0
  0
INSERT
  5
13A9
330
122F
100
AcDbEntity
  8
AM_5
100
AcDbBlockReference
  2
_Open30
 10
-68.2602198282745
 20
7.940000000000071
 30
0.0
 41
2.5
 42
2.5
 43
2.5
 50
90.0
  0
INSERT
  5
13AA
330
122F
100
AcDbEntity
  8
AM_5
100
AcDbBlockReference
  2
_Open30
 10
-68.2602198282745
 20
-7.939999999999995
 30
0.0
 41
2.5
 42
2.5
 43
2.5
 50
270.0
  0
MTEXT
  5
13AB
330
122F
100
AcDbEntity
  8
AM_5
 62
     2
100
AcDbMText
 10
-71.66021982827451
 20
0.0000000000000644
 30
0.0
 40
3.799999999999999
 41
0.0
 71
     5
 72
     1
  1
15.88
 11
0.0000000000000001
 21
1.0
 31
0.0
 73
     1
 44
1.0
1001
ACAD
1000
MTEXTBEGIN
1070
    73
1070
     1
1070
    44
1040
1.0
1070
    74
1070
     0
1000
MTEXTEND
  0
POINT
  5
13AC
330
122F
100
AcDbEntity
  8
Defpoints
 62
     0
100
AcDbPoint
 10
-59.49999999999994
 20
7.940000000000068
 30
0.0
  0
POINT
  5
13AD
330
122F
100
AcDbEntity
  8
Defpoints
 62
     0
100
AcDbPoint
 10
-59.49999999999994
 20
-7.939999999999997
 30
0.0
  0
POINT
  5
13AE
330
122F
100
AcDbEntity
  8
Defpoints
 62
     0
100
AcDbPoint
 10
-68.2602198282745
 20
-7.939999999999995
 30
0.0
  0
ENDBLK
  5
12BC
330
122F
100
AcDbEntity
  8
0
100
AcDbBlockEnd
  0
BLOCK
  5
12BD
330
1239
100
AcDbEntity
  8
0
100
AcDbBlockBegin
  2
*D28
 70
     1
 10
0.0
 20
0.0
 30
0.0
  3
*D28
  1

  0
LINE
  5
13AF
330
1239
100
AcDbEntity
  8
AM_5
100
AcDbLine
 10
-58.49999999999949
 20
40.0
 30
0.0
 11
-92.88702289562722
 21
40.0
 31
0.0
  0
LINE
  5
13B0
330
1239
100
AcDbEntity
  8
AM_5
100
AcDbLine
 10
-58.49999999999977
 20
-40.00000000000008
 30
0.0
 11
-92.88702289562726
 21
-40.00000000000007
 31
0.0
  0
LINE
  5
13B1
330
1239
100
AcDbEntity
  8
AM_5
100
AcDbLine
 10
-91.88702289562723
 20
37.50000000000001
 30
0.0
 11
-91.88702289562725
 21
-37.50000000000008
 31
0.0
  0
INSERT
  5
13B2
330
1239
100
AcDbEntity
  8
AM_5
100
AcDbBlockReference
  2
_Open30
 10
-91.88702289562723
 20
40.0
 30
0.0
 41
2.5
 42
2.5
 43
2.5
 50
90.0
  0
INSERT
  5
13B3
330
1239
100
AcDbEntity
  8
AM_5
100
AcDbBlockReference
  2
_Open30
 10
-91.88702289562725
 20
-40.00000000000007
 30
0.0
 41
2.5
 42
2.5
 43
2.5
 50
270.0
  0
MTEXT
  5
13B4
330
1239
100
AcDbEntity
  8
AM_5
 62
     2
100
AcDbMText
 10
-95.28702289562724
 20
0.5900574624411097
 30
0.0
 40
3.799999999999999
 41
0.0
 71
     5
 72
     1
  1
%%c80
 11
0.0000000000000001
 21
1.0
 31
0.0
 73
     1
 44
1.0
1001
ACAD
1000
MTEXTBEGIN
1070
    73
1070
     1
1070
    44
1040
1.0
1070
    74
1070
     0
1000
MTEXTEND
  0
POINT
  5
13B5
330
1239
100
AcDbEntity
  8
Defpoints
 62
     0
100
AcDbPoint
 10
-58.49999999999949
 20
40.0
 30
0.0
  0
POINT
  5
13B6
330
1239
100
AcDbEntity
  8
Defpoints
 62
     0
100
AcDbPoint
 10
-58.49999999999977
 20
-40.00000000000008
 30
0.0
  0
POINT
  5
13B7
330
1239
100
AcDbEntity
  8
Defpoints
 62
     0
100
AcDbPoint
 10
-91.88702289562725
 20
-40.00000000000007
 30
0.0
  0
ENDBLK
  5
12BE
330
1239
100
AcDbEntity
  8
0
100
AcDbBlockEnd
  0
BLOCK
  5
12BF
330
1243
100
AcDbEntity
  8
0
100
AcDbBlockBegin
  2
*D29
 70
     1
 10
0.0
 20
0.0
 30
0.0
  3
*D29
  1

  0
LINE
  5
13B8
330
1243
100
AcDbEntity
  8
AM_5
100
AcDbLine
 10
-58.99999999999969
 20
19.05000000000003
 30
0.0
 11
-80.5886846850114
 21
19.05000000000003
 31
0.0
  0
LINE
  5
13B9
330
1243
100
AcDbEntity
  8
AM_5
100
AcDbLine
 10
-58.99999999999971
 20
-19.04999999999983
 30
0.0
 11
-80.5886846850114
 21
-19.04999999999982
 31
0.0
  0
LINE
  5
13BA
330
1243
100
AcDbEntity
  8
AM_5
100
AcDbLine
 10
-79.5886846850114
 20
16.55000000000003
 30
0.0
 11
-79.5886846850114
 21
-16.54999999999982
 31
0.0
  0
INSERT
  5
13BB
330
1243
100
AcDbEntity
  8
AM_5
100
AcDbBlockReference
  2
_Open30
 10
-79.5886846850114
 20
19.05000000000003
 30
0.0
 41
2.5
 42
2.5
 43
2.5
 50
90.0
  0
INSERT
  5
13BC
330
1243
100
AcDbEntity
  8
AM_5
100
AcDbBlockReference
  2
_Open30
 10
-79.5886846850114
 20
-19.04999999999982
 30
0.0
 41
2.5
 42
2.5
 43
2.5
 50
270.0
  0
MTEXT
  5
13BD
330
1243
100
AcDbEntity
  8
AM_5
 62
     2
100
AcDbMText
 10
-82.9886846850114
 20
0.0000000000000941
 30
0.0
 40
3.799999999999999
 41
0.0
 71
     5
 72
     1
  1
%%c38.1
 11
0.0000000000000001
 21
1.0
 31
0.0
 73
     1
 44
1.0
1001
ACAD
1000
MTEXTBEGIN
1070
    73
1070
     1
1070
    44
1040
1.0
1070
    74
1070
     0
1000
MTEXTEND
  0
POINT
  5
13BE
330
1243
100
AcDbEntity
  8
Defpoints
 62
     0
100
AcDbPoint
 10
-58.99999999999969
 20
19.05000000000003
 30
0.0
  0
POINT
  5
13BF
330
1243
100
AcDbEntity
  8
Defpoints
 62
     0
100
AcDbPoint
 10
-58.99999999999971
 20
-19.04999999999983
 30
0.0
  0
POINT
  5
13C0
330
1243
100
AcDbEntity
  8
Defpoints
 62
     0
100
AcDbPoint
 10
-79.5886846850114
 20
-19.04999999999982
 30
0.0
  0
ENDBLK
  5
12C0
330
1243
100
AcDbEntity
  8
0
100
AcDbBlockEnd
  0
BLOCK
  5
12C3
330
1255
100
AcDbEntity
  8
0
100
AcDbBlockBegin
  2
*D31
 70
     1
 10
0.0
 20
0.0
 30
0.0
  3
*D31
  1

  0
LINE
  5
13C1
330
1255
100
AcDbEntity
  8
AM_5
100
AcDbLine
 10
-15.58845680273765
 20
28.0
 30
0.0
 11
11.43113196679344
 21
27.99999999999999
 31
0.0
  0
LINE
  5
13C2
330
1255
100
AcDbEntity
  8
AM_5
100
AcDbLine
 10
-15.58845680273765
 20
-28.0
 30
0.0
 11
11.43113196679343
 21
-28.00000000000001
 31
0.0
  0
LINE
  5
13C3
330
1255
100
AcDbEntity
  8
AM_5
100
AcDbLine
 10
10.43113196679344
 20
25.49999999999999
 30
0.0
 11
10.43113196679343
 21
-25.50000000000001
 31
0.0
  0
INSERT
  5
13C4
330
1255
100
AcDbEntity
  8
AM_5
100
AcDbBlockReference
  2
_Open30
 10
10.43113196679344
 20
27.99999999999999
 30
0.0
 41
2.5
 42
2.5
 43
2.5
 50
90.0
  0
INSERT
  5
13C5
330
1255
100
AcDbEntity
  8
AM_5
100
AcDbBlockReference
  2
_Open30
 10
10.43113196679343
 20
-28.00000000000001
 30
0.0
 41
2.5
 42
2.5
 43
2.5
 50
270.0
  0
MTEXT
  5
13C6
330
1255
100
AcDbEntity
  8
AM_5
 62
     2
100
AcDbMText
 10
7.031131966793436
 20
-0.0000000000000038
 30
0.0
 40
3.799999999999999
 41
0.0
 71
     5
 72
     1
  1
%%c56
 11
0.0000000000000001
 21
1.0
 31
0.0
 73
     1
 44
1.0
1001
ACAD
1000
MTEXTBEGIN
1070
    73
1070
     1
1070
    44
1040
1.0
1070
    74
1070
     0
1000
MTEXTEND
  0
POINT
  5
13C7
330
1255
100
AcDbEntity
  8
Defpoints
 62
     0
100
AcDbPoint
 10
-15.58845680273765
 20
28.0
 30
0.0
  0
POINT
  5
13C8
330
1255
100
AcDbEntity
  8
Defpoints
 62
     0
100
AcDbPoint
 10
-15.58845680273765
 20
-28.0
 30
0.0
  0
POINT
  5
13C9
330
1255
100
AcDbEntity
  8
Defpoints
 62
     0
100
AcDbPoint
 10
10.43113196679343
 20
-28.00000000000001
 30
0.0
  0
ENDBLK
  5
12C4
330
1255
100
AcDbEntity
  8
0
100
AcDbBlockEnd
  0
BLOCK
  5
12C5
330
125F
100
AcDbEntity
  8
0
100
AcDbBlockBegin
  2
*D32
 70
     1
 10
0.0
 20
0.0
 30
0.0
  3
*D32
  1

  0
LINE
  5
13CA
330
125F
100
AcDbEntity
  8
AM_5
100
AcDbLine
 10
-60.49999999999949
 20
-38.0
 30
0.0
 11
-60.49999999999949
 21
-87.9405808418071
 31
0.0
  0
LINE
  5
13CB
330
125F
100
AcDbEntity
  8
AM_5
100
AcDbLine
 10
-22.49999999999949
 20
-28.0
 30
0.0
 11
-22.49999999999949
 21
-87.9405808418071
 31
0.0
  0
LINE
  5
13CC
330
125F
100
AcDbEntity
  8
AM_5
100
AcDbLine
 10
-57.99999999999949
 20
-86.9405808418071
 30
0.0
 11
-24.99999999999949
 21
-86.9405808418071
 31
0.0
  0
INSERT
  5
13CD
330
125F
100
AcDbEntity
  8
AM_5
100
AcDbBlockReference
  2
_Open30
 10
-60.49999999999949
 20
-86.9405808418071
 30
0.0
 41
2.5
 42
2.5
 43
2.5
 50
180.0
  0
INSERT
  5
13CE
330
125F
100
AcDbEntity
  8
AM_5
100
AcDbBlockReference
  2
_Open30
 10
-22.49999999999949
 20
-86.9405808418071
 30
0.0
 41
2.5
 42
2.5
 43
2.5
  0
MTEXT
  5
13CF
330
125F
100
AcDbEntity
  8
AM_5
 62
     2
100
AcDbMText
 10
-41.49999999999948
 20
-83.5405808418071
 30
0.0
 40
3.799999999999999
 41
0.0
 71
     5
 72
     1
  1
38
 73
     1
 44
1.0
1001
ACAD
1000
MTEXTBEGIN
1070
    73
1070
     1
1070
    44
1040
1.0
1070
    74
1070
     0
1000
MTEXTEND
  0
POINT
  5
13D0
330
125F
100
AcDbEntity
  8
Defpoints
 62
     0
100
AcDbPoint
 10
-60.49999999999949
 20
-38.0
 30
0.0
  0
POINT
  5
13D1
330
125F
100
AcDbEntity
  8
Defpoints
 62
     0
100
AcDbPoint
 10
-22.49999999999949
 20
-28.0
 30
0.0
  0
POINT
  5
13D2
330
125F
100
AcDbEntity
  8
Defpoints
 62
     0
100
AcDbPoint
 10
-22.49999999999949
 20
-86.9405808418071
 30
0.0
  0
ENDBLK
  5
12C6
330
125F
100
AcDbEntity
  8
0
100
AcDbBlockEnd
  0
BLOCK
  5
12C9
330
1273
100
AcDbEntity
  8
0
100
AcDbBlockBegin
  2
*D34
 70
     1
 10
0.0
 20
0.0
 30
0.0
  3
*D34
  1

  0
LINE
  5
13D3
330
1273
100
AcDbEntity
  8
AM_5
100
AcDbLine
 10
-60.5
 20
-34.47084957166135
 30
0.0
 11
-60.5
 21
-66.3957197852576
 31
0.0
  0
LINE
  5
13D4
330
1273
100
AcDbEntity
  8
AM_5
100
AcDbLine
 10
-50.5
 20
-7.939999999999997
 30
0.0
 11
-50.5
 21
-66.3957197852576
 31
0.0
  0
LINE
  5
13D5
330
1273
100
AcDbEntity
  8
AM_5
100
AcDbLine
 10
-58.0
 20
-65.3957197852576
 30
0.0
 11
-53.0
 21
-65.3957197852576
 31
0.0
  0
INSERT
  5
13D6
330
1273
100
AcDbEntity
  8
AM_5
100
AcDbBlockReference
  2
_Open30
 10
-60.5
 20
-65.3957197852576
 30
0.0
 41
2.5
 42
2.5
 43
2.5
 50
180.0
  0
INSERT
  5
13D7
330
1273
100
AcDbEntity
  8
AM_5
100
AcDbBlockReference
  2
_Open30
 10
-50.5
 20
-65.3957197852576
 30
0.0
 41
2.5
 42
2.5
 43
2.5
  0
MTEXT
  5
13D8
330
1273
100
AcDbEntity
  8
AM_5
 62
     2
100
AcDbMText
 10
-55.5
 20
-61.9957197852576
 30
0.0
 40
3.799999999999999
 41
0.0
 71
     5
 72
     1
  1
10
 73
     1
 44
1.0
1001
ACAD
1000
MTEXTBEGIN
1070
    73
1070
     1
1070
    44
1040
1.0
1070
    74
1070
     0
1000
MTEXTEND
  0
POINT
  5
13D9
330
1273
100
AcDbEntity
  8
Defpoints
 62
     0
100
AcDbPoint
 10
-60.5
 20
-34.47084957166135
 30
0.0
  0
POINT
  5
13DA
330
1273
100
AcDbEntity
  8
Defpoints
 62
     0
100
AcDbPoint
 10
-50.5
 20
-7.939999999999997
 30
0.0
  0
POINT
  5
13DB
330
1273
100
AcDbEntity
  8
Defpoints
 62
     0
100
AcDbPoint
 10
-50.5
 20
-65.3957197852576
 30
0.0
  0
ENDBLK
  5
12CA
330
1273
100
AcDbEntity
  8
0
100
AcDbBlockEnd
  0
BLOCK
  5
12CB
330
127D
100
AcDbEntity
  8
0
100
AcDbBlockBegin
  2
*D35
 70
     1
 10
0.0
 20
0.0
 30
0.0
  3
*D35
  1

  0
LINE
  5
13DC
330
127D
100
AcDbEntity
  8
AM_5
100
AcDbLine
 10
-60.49999999999954
 20
-34.578389422084
 30
0.0
 11
-60.49999999999954
 21
-76.39571978525765
 31
0.0
  0
LINE
  5
13DD
330
127D
100
AcDbEntity
  8
AM_5
100
AcDbLine
 10
-31.5
 20
-19.60000000000006
 30
0.0
 11
-31.5
 21
-76.39571978525765
 31
0.0
  0
LINE
  5
13DE
330
127D
100
AcDbEntity
  8
AM_5
100
AcDbLine
 10
-57.99999999999954
 20
-75.39571978525765
 30
0.0
 11
-34.0
 21
-75.39571978525765
 31
0.0
  0
INSERT
  5
13DF
330
127D
100
AcDbEntity
  8
AM_5
100
AcDbBlockReference
  2
_Open30
 10
-60.49999999999954
 20
-75.39571978525765
 30
0.0
 41
2.5
 42
2.5
 43
2.5
 50
180.0
  0
INSERT
  5
13E0
330
127D
100
AcDbEntity
  8
AM_5
100
AcDbBlockReference
  2
_Open30
 10
-31.5
 20
-75.39571978525765
 30
0.0
 41
2.5
 42
2.5
 43
2.5
  0
MTEXT
  5
13E1
330
127D
100
AcDbEntity
  8
AM_5
 62
     2
100
AcDbMText
 10
-45.99999999999977
 20
-71.99534576950963
 30
0.0
 40
3.799999999999999
 41
0.0
 71
     5
 72
     1
  1
29
 73
     1
 44
1.0
1001
ACAD
1000
MTEXTBEGIN
1070
    73
1070
     1
1070
    44
1040
1.0
1070
    74
1070
     0
1000
MTEXTEND
  0
POINT
  5
13E2
330
127D
100
AcDbEntity
  8
Defpoints
 62
     0
100
AcDbPoint
 10
-60.49999999999954
 20
-34.578389422084
 30
0.0
  0
POINT
  5
13E3
330
127D
100
AcDbEntity
  8
Defpoints
 62
     0
100
AcDbPoint
 10
-31.5
 20
-19.60000000000006
 30
0.0
  0
POINT
  5
13E4
330
127D
100
AcDbEntity
  8
Defpoints
 62
     0
100
AcDbPoint
 10
-31.5
 20
-75.39571978525765
 30
0.0
  0
ENDBLK
  5
12CC
330
127D
100
AcDbEntity
  8
0
100
AcDbBlockEnd
  0
BLOCK
  5
1377
330
1359
100
AcDbEntity
  8
0
100
AcDbBlockBegin
  2
*D40
 70
     1
 10
0.0
 20
0.0
 30
0.0
  3
*D40
  1

  0
LINE
  5
13E5
330
1359
100
AcDbEntity
  8
AM_5
100
AcDbLine
 10
-60.49999999999949
 20
38.0
 30
0.0
 11
-60.49999999999949
 21
85.83500333056806
 31
0.0
  0
LINE
  5
13E6
330
1359
100
AcDbEntity
  8
AM_5
100
AcDbLine
 10
2.499999999999971
 20
61.69999999999998
 30
0.0
 11
2.499999999999972
 21
85.83500333056806
 31
0.0
  0
LINE
  5
13E7
330
1359
100
AcDbEntity
  8
AM_5
100
AcDbLine
 10
-57.99999999999949
 20
84.83500333056806
 30
0.0
 11
-0.0000000000000271
 21
84.83500333056806
 31
0.0
  0
INSERT
  5
13E8
330
1359
100
AcDbEntity
  8
AM_5
100
AcDbBlockReference
  2
_Open30
 10
-60.49999999999949
 20
84.83500333056806
 30
0.0
 41
2.5
 42
2.5
 43
2.5
 50
180.0
  0
INSERT
  5
13E9
330
1359
100
AcDbEntity
  8
AM_5
100
AcDbBlockReference
  2
_Open30
 10
2.499999999999972
 20
84.83500333056806
 30
0.0
 41
2.5
 42
2.5
 43
2.5
  0
MTEXT
  5
13EA
330
1359
100
AcDbEntity
  8
AM_5
 62
     2
100
AcDbMText
 10
-24.67637030707226
 20
88.23500333056806
 30
0.0
 40
3.799999999999999
 41
0.0
 71
     5
 72
     1
  1
63
 73
     1
 44
1.0
1001
ACAD
1000
MTEXTBEGIN
1070
    73
1070
     1
1070
    44
1040
1.0
1070
    74
1070
     0
1000
MTEXTEND
  0
POINT
  5
13EB
330
1359
100
AcDbEntity
  8
Defpoints
 62
     0
100
AcDbPoint
 10
-60.49999999999949
 20
38.0
 30
0.0
  0
POINT
  5
13EC
330
1359
100
AcDbEntity
  8
Defpoints
 62
     0
100
AcDbPoint
 10
2.499999999999971
 20
61.69999999999998
 30
0.0
  0
POINT
  5
13ED
330
1359
100
AcDbEntity
  8
Defpoints
 62
     0
100
AcDbPoint
 10
2.499999999999972
 20
84.83500333056806
 30
0.0
  0
ENDBLK
  5
1378
330
1359
100
AcDbEntity
  8
0
100
AcDbBlockEnd
  0
BLOCK
  5
1379
330
1363
100
AcDbEntity
  8
0
100
AcDbBlockBegin
  2
*D41
 70
     1
 10
0.0
 20
0.0
 30
0.0
  3
*D41
  1

  0
LINE
  5
13EE
330
1363
100
AcDbEntity
  8
AM_5
100
AcDbLine
 10
1.699999999999988
 20
62.49999999999999
 30
0.0
 11
24.40607220652551
 21
62.49999999999998
 31
0.0
  0
LINE
  5
13EF
330
1363
100
AcDbEntity
  8
AM_5
100
AcDbLine
 10
23.40607220652549
 20
-0.0000000000000058
 30
0.0
 11
23.40607220652551
 21
59.99999999999998
 31
0.0
  0
INSERT
  5
13F0
330
1363
100
AcDbEntity
  8
AM_5
100
AcDbBlockReference
  2
_Open30
 10
23.40607220652551
 20
62.49999999999998
 30
0.0
 41
2.5
 42
2.5
 43
2.5
 50
90.0
  0
MTEXT
  5
13F1
330
1363
100
AcDbEntity
  8
AM_5
 62
     2
100
AcDbMText
 10
20.00569819077746
 20
0.4453437783895429
 30
0.0
 40
3.799999999999999
 41
0.0
 71
     5
 72
     1
  1
%%c125
 11
0.0000000000000001
 21
1.0
 31
0.0
 73
     1
 44
1.0
1001
ACAD
1000
MTEXTBEGIN
1070
    73
1070
     1
1070
    44
1040
1.0
1070
    74
1070
     0
1000
MTEXTEND
  0
POINT
  5
13F2
330
1363
100
AcDbEntity
  8
Defpoints
 62
     0
100
AcDbPoint
 10
2.86535646935232
 20
0.0
 30
0.0
  0
POINT
  5
13F3
330
1363
100
AcDbEntity
  8
Defpoints
 62
     0
100
AcDbPoint
 10
1.699999999999988
 20
62.49999999999999
 30
0.0
  0
POINT
  5
13F4
330
1363
100
AcDbEntity
  8
Defpoints
 62
     0
100
AcDbPoint
 10
23.40607220652551
 20
62.49999999999998
 30
0.0
  0
ENDBLK
  5
137A
330
1363
100
AcDbEntity
  8
0
100
AcDbBlockEnd
  0
BLOCK
  5
137B
330
136C
100
AcDbEntity
  8
0
100
AcDbBlockBegin
  2
*D42
 70
     1
 10
0.0
 20
0.0
 30
0.0
  3
*D42
  1

  0
LINE
  5
13FF
330
136C
100
AcDbEntity
  8
AM_5
 62
     3
100
AcDbLine
 10
2.5
 20
62.79999999999998
 30
0.0
 11
2.500000000000028
 21
78.649239348343
 31
0.0
  0
ARC
  5
1400
330
136C
100
AcDbEntity
  8
AM_5
 62
     3
100
AcDbCircle
 10
2.500000000000003
 20
62.49999999999999
 30
0.0
 40
15.84923934834302
100
AcDbArc
 50
97.95950694937463
 51
172.0404930506252
  0
INSERT
  5
1401
330
136C
100
AcDbEntity
  8
AM_5
 62
     3
100
AcDbBlockReference
  2
_Open30
 10
2.500000000000028
 20
78.349239348343
 30
0.0
 41
2.2
 42
2.2
 43
2.2
 50
3.979753474687274
  0
INSERT
  5
1402
330
136C
100
AcDbEntity
  8
AM_5
 62
     3
100
AcDbBlockReference
  2
_Open30
 10
-13.34923934834302
 20
62.50000000000001
 30
0.0
 41
2.2
 42
2.2
 43
2.2
 50
266.0202465253126
  0
MTEXT
  5
1403
330
136C
100
AcDbEntity
  8
AM_5
 62
     2
100
AcDbMText
 10
-12.69971763399868
 20
74.31108798276037
 30
0.0
 40
3.799999999999999
 41
0.0
 71
     5
 72
     1
  1
90°
 11
0.6135872576064725
 21
0.7896269228584907
 31
0.0
 73
     1
 44
1.0
1001
ACAD
1000
MTEXTBEGIN
1070
    73
1070
     1
1070
    44
1040
1.0
1070
    74
1070
     0
1000
MTEXTEND
  0
POINT
  5
1404
330
136C
100
AcDbEntity
  8
Defpoints
 62
     0
100
AcDbPoint
 10
-5.424619674171488
 20
76.22584390632496
 30
0.0
  0
POINT
  5
1405
330
136C
100
AcDbEntity
  8
Defpoints
 62
     0
100
AcDbPoint
 10
-13.89999999999991
 20
62.5
 30
0.0
  0
POINT
  5
1406
330
136C
100
AcDbEntity
  8
Defpoints
 62
     0
100
AcDbPoint
 10
2.500000000000003
 20
61.69999999999997
 30
0.0
  0
POINT
  5
1407
330
136C
100
AcDbEntity
  8
Defpoints
 62
     0
100
AcDbPoint
 10
2.499999999999992
 20
55.30000000000002
 30
0.0
  0
POINT
  5
1408
330
136C
100
AcDbEntity
  8
Defpoints
 62
     0
100
AcDbPoint
 10
1.699999999999988
 20
62.49999999999999
 30
0.0
  0
ENDBLK
  5
137C
330
136C
100
AcDbEntity
  8
0
100
AcDbBlockEnd
  0
ENDSEC
  0
SECTION
  2
ENTITIES
  0
TEXT
  5
E83
330
1F
100
AcDbEntity
  8
0
370
    -3
100
AcDbText
 10
-47.28338454845055
 20
-101.7575599736299
 30
0.0
 40
3.799999999999999
  1
PWS(F)4125R
  7
ACISOTS
100
AcDbText
  0
LINE
  5
10E3
330
1F
100
AcDbEntity
  8
AM_7
100
AcDbLine
 10
-64.19859710856752
 20
0.0
 30
0.0
 11
2.86535646935232
 21
0.0
 31
0.0
1001
GENIUS_GENODEF_13
1002
{
1000
HIER
1070
     0
1002
}
1002
{
1000
MANEDIT
1070
     0
1002
}
1002
{
1000
NOSEL
1070
     0
1002
}
1002
{
1000
BEHIND
1070
     0
1002
}
1002
{
1000
OTHER
1070
     0
1002
}
1002
{
1000
REACTOR
1002
}
1001
GENIUS_GENOBJ-N-CEN_13
1002
{
1000
OWNER
1000
GEN
1002
}
1001
GENIUS_GENCEN_19
1002
{
1040
2.794
1002
}
  0
LINE
  5
10E4
102
{ACAD_REACTORS
330
1223
102
}
330
1F
100
AcDbEntity
  8
AM_0
100
AcDbLine
 10
-59.49999999999994
 20
-7.939999999999997
 30
0.0
 11
-50.5
 21
-7.939999999999997
 31
0.0
1001
GENIUS_GENODEF_13
1002
{
1000
HIER
1070
     0
1002
}
1002
{
1000
MANEDIT
1070
     0
1002
}
1002
{
1000
NOSEL
1070
     0
1002
}
1002
{
1000
BEHIND
1070
     0
1002
}
1002
{
1000
OTHER
1070
     0
1002
}
1002
{
1000
REACTOR
1002
}
1001
GENIUS_GENOBJ-N-CEN_13
1002
{
1000
OWNER
1000
GEN
1002
}
1001
GENIUS_GENCEN_19
1002
{
1040
2.794
1002
}
  0
LINE
  5
10E5
330
1F
100
AcDbEntity
  8
AM_0
100
AcDbLine
 10
-59.49999999999994
 20
7.940000000000068
 30
0.0
 11
-50.5
 21
7.940000000000082
 31
0.0
1001
GENIUS_GENODEF_13
1002
{
1000
HIER
1070
     0
1002
}
1002
{
1000
MANEDIT
1070
     0
1002
}
1002
{
1000
NOSEL
1070
     0
1002
}
1002
{
1000
BEHIND
1070
     0
1002
}
1002
{
1000
OTHER
1070
     0
1002
}
1002
{
1000
REACTOR
1002
}
1001
GENIUS_GENOBJ-N-CEN_13
1002
{
1000
OWNER
1000
GEN
1002
}
1001
GENIUS_GENCEN_19
1002
{
1040
2.794
1002
}
  0
ARC
  5
10E6
330
1F
100
AcDbEntity
  8
AM_0
100
AcDbCircle
 10
-40.16307658154977
 20
50.0
 30
0.0
 40
10.0
100
AcDbArc
 50
270.0
 51
319.9999999999987
  0
LINE
  5
10E7
330
1F
100
AcDbEntity
  8
AM_0
100
AcDbLine
 10
-40.16307658154977
 20
40.0
 30
0.0
 11
-58.49999999999949
 21
40.0
 31
0.0
  0
ARC
  5
10E8
330
1F
100
AcDbEntity
  8
AM_0
100
AcDbCircle
 10
-58.49999999999949
 20
38.0
 30
0.0
 40
2.0
100
AcDbArc
 50
90.0
 51
180.0
  0
LINE
  5
10E9
330
1F
100
AcDbEntity
  8
AM_0
100
AcDbLine
 10
-60.49999999999949
 20
38.0
 30
0.0
 11
-60.49999999999994
 21
8.949999999999846
 31
0.0
  0
LINE
  5
10EA
330
1F
100
AcDbEntity
  8
AM_0
100
AcDbLine
 10
-59.49999999999994
 20
7.940000000000068
 30
0.0
 11
-60.50000000000017
 21
8.940000000000054
 31
0.0
  0
LINE
  5
10EB
330
1F
100
AcDbEntity
  8
AM_0
100
AcDbLine
 10
-50.5
 20
7.939999999999955
 30
0.0
 11
-50.50000000000046
 21
-7.940000000000097
 31
0.0
  0
LINE
  5
10EC
330
1F
100
AcDbEntity
  8
AM_0
100
AcDbLine
 10
-60.49999999999974
 20
20.55000000000001
 30
0.0
 11
-58.99999999999974
 21
19.05
 31
0.0
  0
LINE
  5
10ED
330
1F
100
AcDbEntity
  8
AM_0
100
AcDbLine
 10
-22.49999999999949
 20
0.0
 30
0.0
 11
-22.49999999999949
 21
28.0
 31
0.0
  0
LINE
  5
10EE
330
1F
100
AcDbEntity
  8
AM_0
100
AcDbLine
 10
0.0000000000004832
 20
54.50123394959047
 30
0.0
 11
0.000000000000739
 21
0.0
 31
0.0
  0
LINE
  5
10EF
330
1F
100
AcDbEntity
  8
AM_0
100
AcDbLine
 10
-22.49999999999949
 20
28.0
 30
0.0
 11
-15.58845680273765
 21
28.0
 31
0.0
  0
LINE
  5
10F0
330
1F
100
AcDbEntity
  8
AM_0
100
AcDbLine
 10
-11.25832973906716
 20
30.50000007750623
 30
0.0
 11
0.0000000000005116
 21
50.0
 31
0.0
  0
ARC
  5
10F1
330
1F
100
AcDbEntity
  8
AM_0
100
AcDbCircle
 10
-15.58845680273765
 20
33.0
 30
0.0
 40
5.0
100
AcDbArc
 50
270.0
 51
330.0000010255537
  0
LINE
  5
10F2
102
{ACAD_REACTORS
330
1226
102
}
330
1F
100
AcDbEntity
  8
AM_0
100
AcDbLine
 10
-60.49999999999949
 20
-38.0
 30
0.0
 11
-60.49999999999994
 21
-8.950000000000116
 31
0.0
  0
LINE
  5
10F3
330
1F
100
AcDbEntity
  8
AM_0
100
AcDbLine
 10
-59.49999999999994
 20
-7.939999999999997
 30
0.0
 11
-60.49999999999994
 21
-8.940000000000111
 31
0.0
  0
LINE
  5
10F4
330
1F
100
AcDbEntity
  8
AM_0
100
AcDbLine
 10
-22.49999999999949
 20
0.0
 30
0.0
 11
-22.49999999999949
 21
-28.0
 31
0.0
  0
LINE
  5
10F5
330
1F
100
AcDbEntity
  8
AM_0
100
AcDbLine
 10
0.0000000000005116
 20
-60.19999999999999
 30
0.0
 11
0.000000000000739
 21
0.0
 31
0.0
  0
LINE
  5
10F6
330
1F
100
AcDbEntity
  8
AM_0
100
AcDbLine
 10
-22.49999999999949
 20
-28.0
 30
0.0
 11
-15.58845680273765
 21
-28.0
 31
0.0
  0
LINE
  5
10F7
330
1F
100
AcDbEntity
  8
AM_0
100
AcDbLine
 10
-11.25832973906716
 20
-30.50000007750623
 30
0.0
 11
0.0000000000005116
 21
-50.0
 31
0.0
  0
ARC
  5
10F8
330
1F
100
AcDbEntity
  8
AM_0
100
AcDbCircle
 10
-15.58845680273765
 20
-33.0
 30
0.0
 40
5.0
100
AcDbArc
 50
29.99999897444633
 51
90.0
  0
LINE
  5
10F9
330
1F
100
AcDbEntity
  8
AM_0
100
AcDbLine
 10
-58.99999999999974
 20
19.05000000000003
 30
0.0
 11
-58.99999999999948
 21
7.950000000000073
 31
0.0
  0
LINE
  5
10FA
330
1F
100
AcDbEntity
  8
AM_0
100
AcDbLine
 10
-58.99999999999948
 20
-7.950000000000002
 30
0.0
 11
-58.99999999999969
 21
-19.05000000000004
 31
0.0
  0
DIMENSION
  5
10FB
330
1F
100
AcDbEntity
  8
AM_5
100
AcDbDimension
  2
*D27
 10
-68.2602198282745
 20
-7.939999999999995
 30
0.0
 11
-68.2602198282745
 21
0.0000000000000639
 31
0.0
 70
   160
  1
<>
 71
     5
 42
15.88000000000007
  3
AM_JIS$0
100
AcDbAlignedDimension
 13
-59.49999999999994
 23
7.940000000000068
 33
0.0
 14
-59.49999999999994
 24
-7.939999999999997
 34
0.0
 50
90.0
100
AcDbRotatedDimension
1001
ACAD
1000
DSTYLE
1002
{
1070
    47
1040
0.4
1070
    48
1040
-0.1
1070
   179
1070
     0
1070
   271
1070
     2
1002
}
  0
DIMENSION
  5
10FC
330
1F
100
AcDbEntity
  8
AM_5
100
AcDbDimension
  2
*D28
 10
-91.88702289562725
 20
-40.00000000000007
 30
0.0
 11
-91.88702289562725
 21
0.5900574624411093
 31
0.0
 70
   160
  1
%%c<>
 71
     5
 42
80.00000000000008
  3
AM_JIS$0
100
AcDbAlignedDimension
 13
-58.49999999999949
 23
40.0
 33
0.0
 14
-58.49999999999977
 24
-40.00000000000008
 34
0.0
 50
90.0
100
AcDbRotatedDimension
1001
ACAD
1000
DSTYLE
1002
{
1070
    47
1040
0.4
1070
    48
1040
-0.1
1070
   179
1070
     0
1070
   271
1070
     0
1002
}
  0
DIMENSION
  5
10FD
330
1F
100
AcDbEntity
  8
AM_5
100
AcDbDimension
  2
*D29
 10
-79.5886846850114
 20
-19.04999999999982
 30
0.0
 11
-82.9886846850114
 21
0.0000000000000941
 31
0.0
 70
    32
  1
%%c<>
 71
     5
 42
38.09999999999986
  3
AM_JIS$0
100
AcDbAlignedDimension
 13
-58.99999999999969
 23
19.05000000000003
 33
0.0
 14
-58.99999999999971
 24
-19.04999999999983
 34
0.0
 50
90.0
100
AcDbRotatedDimension
1001
ACAD
1000
DSTYLE
1002
{
1070
    47
1040
0.025
1070
    48
1040
0.0
1070
   179
1070
     0
1070
   271
1070
     1
1002
}
  0
DIMENSION
  5
10FF
330
1F
100
AcDbEntity
  8
AM_5
100
AcDbDimension
  2
*D31
 10
10.43113196679343
 20
-28.00000000000001
 30
0.0
 11
7.031131966793436
 21
-0.0000000000000038
 31
0.0
 70
    32
  1
%%c<>
 71
     5
 42
56.0
  3
AM_JIS$0
100
AcDbAlignedDimension
 13
-15.58845680273765
 23
28.0
 33
0.0
 14
-15.58845680273765
 24
-28.0
 34
0.0
 50
90.0
100
AcDbRotatedDimension
1001
ACAD
1000
DSTYLE
1002
{
1070
    47
1040
0.025
1070
    48
1040
0.0
1070
   179
1070
     0
1070
   271
1070
     0
1002
}
  0
DIMENSION
  5
1100
330
1F
100
AcDbEntity
  8
AM_5
100
AcDbDimension
  2
*D32
 10
-22.49999999999949
 20
-86.9405808418071
 30
0.0
 11
-41.49999999999948
 21
-83.5405808418071
 31
0.0
 70
    32
 71
     5
 42
38.0
  3
AM_JIS$0
100
AcDbAlignedDimension
 13
-60.49999999999949
 23
-38.0
 33
0.0
 14
-22.49999999999949
 24
-28.0
 34
0.0
100
AcDbRotatedDimension
1001
ACAD
1000
DSTYLE
1002
{
1070
    47
1040
0.025
1070
    48
1040
0.0
1070
   179
1070
     0
1070
   271
1070
     0
1002
}
  0
LINE
  5
11F3
330
1F
100
AcDbEntity
  8
AM_0
100
AcDbLine
 10
-0.2999999999999545
 20
-60.51221400000006
 30
0.0
 11
0.0
 21
-60.2122140000001
 31
0.0
  0
LINE
  5
11F4
330
1F
100
AcDbEntity
  8
AM_0
100
AcDbLine
 10
-18.28820799999994
 20
-60.51221400000006
 30
0.0
 11
-0.2999999999999545
 21
-60.51221400000006
 31
0.0
  0
LINE
  5
11F5
330
1F
100
AcDbEntity
  8
AM_0
100
AcDbLine
 10
-15.56033902661244
 20
60.51221499999996
 30
0.0
 11
-17.35559267904205
 21
60.512215
 31
0.0
  0
ARC
  5
11F6
330
1F
100
AcDbEntity
  8
AM_0
100
AcDbCircle
 10
-17.35559267904205
 20
58.512215
 30
0.0
 40
2.0
100
AcDbArc
 50
90.0
 51
140.0000002187436
1001
GENIUS_GENOBJ-N-FIL_13
1002
{
1000
OWNER
1000
GEN
1002
}
1001
GENIUS_GENODEF_13
1002
{
1000
HIER
1070
     0
1002
}
1002
{
1000
MANEDIT
1070
     0
1002
}
1002
{
1000
NOSEL
1070
     0
1002
}
1002
{
1000
BEHIND
1070
     0
1002
}
1002
{
1000
OTHER
1070
     0
1002
}
1002
{
1000
REACTOR
1002
}
  0
LINE
  5
11F7
330
1F
100
AcDbEntity
  8
AM_0
100
AcDbLine
 10
-18.88768157018802
 20
59.79779021352388
 30
0.0
 11
-32.50263199999995
 21
43.57212399999994
 31
0.0
  0
LINE
  5
11F8
330
1F
100
AcDbEntity
  8
AM_0
100
AcDbLine
 10
-32.50263199999995
 20
-43.57212300000012
 30
0.0
 11
-18.28820799999994
 21
-60.51221400000006
 31
0.0
  0
LINE
  5
11F9
330
1F
100
AcDbEntity
  8
AM_0
100
AcDbLine
 10
0.0
 20
49.99999999999992
 30
0.0
 11
-11.25832999999966
 21
30.49999999999992
 31
0.0
  0
LINE
  5
11FA
330
1F
100
AcDbEntity
  8
AM_0
100
AcDbLine
 10
-11.25832999999966
 20
-30.50000000000009
 30
0.0
 11
0.0
 21
-50.00000000000008
 31
0.0
  0
LINE
  5
11FB
330
1F
100
AcDbEntity
  8
AM_0
100
AcDbLine
 10
-58.49999999999977
 20
-40.00000000000008
 30
0.0
 11
-40.16307599999982
 21
-40.00000000000008
 31
0.0
  0
LINE
  5
11FC
330
1F
100
AcDbEntity
  8
AM_0
100
AcDbLine
 10
-40.16307599999982
 20
39.99999999999992
 30
0.0
 11
-58.49999999999977
 21
39.99999999999992
 31
0.0
  0
LINE
  5
11FD
330
1F
100
AcDbEntity
  8
AM_0
100
AcDbLine
 10
-22.5
 20
-28.00000000000009
 30
0.0
 11
-15.58845699999983
 21
-28.00000000000009
 31
0.0
  0
LINE
  5
11FE
330
1F
100
AcDbEntity
  8
AM_0
100
AcDbLine
 10
-15.58845699999983
 20
27.99999999999992
 30
0.0
 11
-22.5
 21
27.99999999999992
 31
0.0
  0
LINE
  5
11FF
330
1F
100
AcDbEntity
  8
AM_0
100
AcDbLine
 10
-36.5
 20
-19.60000000000006
 30
0.0
 11
-31.5
 21
-19.60000000000006
 31
0.0
  0
LINE
  5
1200
330
1F
100
AcDbEntity
  8
AM_0
100
AcDbLine
 10
-31.5
 20
19.59999999999988
 30
0.0
 11
-36.5
 21
19.59999999999988
 31
0.0
  0
LINE
  5
1201
330
1F
100
AcDbEntity
  8
AM_0
100
AcDbLine
 10
-58.99999999999969
 20
-19.05000000000004
 30
0.0
 11
-36.5
 21
-19.05000000000004
 31
0.0
  0
LINE
  5
1202
330
1F
100
AcDbEntity
  8
AM_0
100
AcDbLine
 10
-36.5
 20
19.04999999999998
 30
0.0
 11
-58.99999999999969
 21
19.05000000000003
 31
0.0
  0
LINE
  5
1203
330
1F
100
AcDbEntity
  8
AM_0
100
AcDbLine
 10
-50.5
 20
7.939999999999983
 30
0.0
 11
-59.5
 21
7.939999999999969
 31
0.0
  0
LINE
  5
1204
330
1F
100
AcDbEntity
  8
AM_0
100
AcDbLine
 10
-50.50000000000046
 20
-7.940000000000026
 30
0.0
 11
-59.5
 21
-7.940000000000026
 31
0.0
  0
LINE
  5
1205
330
1F
100
AcDbEntity
  8
AM_0
100
AcDbLine
 10
-31.5
 20
-19.05000000000004
 30
0.0
 11
-23.5
 21
-19.05000000000004
 31
0.0
  0
LINE
  5
1206
330
1F
100
AcDbEntity
  8
AM_0
100
AcDbLine
 10
-23.5
 20
19.04999999999998
 30
0.0
 11
-31.5
 21
19.04999999999998
 31
0.0
  0
LINE
  5
1207
330
1F
100
AcDbEntity
  8
AM_0
100
AcDbLine
 10
0.0
 20
54.50123394959049
 30
0.0
 11
0.0
 21
-60.2122140000001
 31
0.0
  0
LINE
  5
1208
330
1F
100
AcDbEntity
  8
AM_0
100
AcDbLine
 10
0.0
 20
-0.0000000000000853
 30
0.0
 11
0.0
 21
54.50123394959053
 31
0.0
  0
LINE
  5
1209
330
1F
100
AcDbEntity
  8
AM_0
100
AcDbLine
 10
0.0
 20
49.99999999999992
 30
0.0
 11
0.0
 21
-50.00000000000008
 31
0.0
  0
LINE
  5
120A
102
{ACAD_REACTORS
330
1223
102
}
330
1F
100
AcDbEntity
  8
AM_0
100
AcDbLine
 10
-60.5
 20
-8.940000000000026
 30
0.0
 11
-60.5
 21
-38.00000000000009
 31
0.0
  0
LINE
  5
120B
330
1F
100
AcDbEntity
  8
AM_0
100
AcDbLine
 10
-60.5
 20
8.939999999999969
 30
0.0
 11
-60.5
 21
37.99999999999992
 31
0.0
  0
LINE
  5
120C
330
1F
100
AcDbEntity
  8
AM_0
100
AcDbLine
 10
-22.5
 20
27.99999999999992
 30
0.0
 11
-22.5
 21
-28.00000000000009
 31
0.0
  0
LINE
  5
120D
330
1F
100
AcDbEntity
  8
AM_0
100
AcDbLine
 10
-36.50000000000003
 20
19.59999999999988
 30
0.0
 11
-36.50000000000003
 21
-19.60000000000006
 31
0.0
  0
LINE
  5
120E
102
{ACAD_REACTORS
330
1226
102
}
330
1F
100
AcDbEntity
  8
AM_0
100
AcDbLine
 10
-31.50000000000003
 20
19.59999999999988
 30
0.0
 11
-31.5
 21
-19.60000000000006
 31
0.0
  0
LINE
  5
120F
330
1F
100
AcDbEntity
  8
AM_0
100
AcDbLine
 10
-36.5
 20
-0.0000000000000853
 30
0.0
 11
-36.50000000000003
 21
19.59999999999988
 31
0.0
  0
LINE
  5
1210
330
1F
100
AcDbEntity
  8
AM_0
100
AcDbLine
 10
-31.5
 20
-0.0000000000000853
 30
0.0
 11
-31.50000000000003
 21
19.59999999999988
 31
0.0
  0
LINE
  5
1211
330
1F
100
AcDbEntity
  8
AM_0
100
AcDbLine
 10
-36.5
 20
19.04999999999998
 30
0.0
 11
-36.5
 21
-19.05000000000004
 31
0.0
  0
LINE
  5
1212
330
1F
100
AcDbEntity
  8
AM_0
100
AcDbLine
 10
-60.5
 20
8.939999999999969
 30
0.0
 11
-60.5
 21
19.04999999999998
 31
0.0
  0
LINE
  5
1213
330
1F
100
AcDbEntity
  8
AM_0
100
AcDbLine
 10
-50.50000000000022
 20
-7.940000000000125
 30
0.0
 11
-50.50000000000022
 21
7.939999999999869
 31
0.0
  0
LINE
  5
1214
330
1F
100
AcDbEntity
  8
AM_0
100
AcDbLine
 10
-31.5
 20
19.04999999999998
 30
0.0
 11
-31.5
 21
-19.05000000000004
 31
0.0
  0
LINE
  5
1215
330
1F
100
AcDbEntity
  8
AM_0
100
AcDbLine
 10
-31.5
 20
-0.0000000000000853
 30
0.0
 11
-31.5
 21
19.04999999999998
 31
0.0
  0
LINE
  5
1216
330
1F
100
AcDbEntity
  8
AM_0
100
AcDbLine
 10
-59.5
 20
-7.940000000000026
 30
0.0
 11
-60.5
 21
-8.940000000000026
 31
0.0
  0
LINE
  5
1217
330
1F
100
AcDbEntity
  8
AM_0
100
AcDbLine
 10
-60.5
 20
8.939999999999969
 30
0.0
 11
-59.5
 21
7.939999999999969
 31
0.0
  0
ARC
  5
1218
330
1F
100
AcDbEntity
  8
AM_0
100
AcDbCircle
 10
-40.16307599999982
 20
-50.00000000000008
 30
0.0
 40
10.0000002502133
100
AcDbArc
 50
40.00000555199163
 51
90.0
  0
ARC
  5
1219
330
1F
100
AcDbEntity
  8
AM_0
100
AcDbCircle
 10
-58.49999999999977
 20
-38.00000000000009
 30
0.0
 40
2.0
100
AcDbArc
 50
180.0
 51
270.0
  0
ARC
  5
121A
330
1F
100
AcDbEntity
  8
AM_0
100
AcDbCircle
 10
-15.58845699999983
 20
32.99999999999992
 30
0.0
 40
5.0
100
AcDbArc
 50
270.0
 51
329.9999998915887
  0
ARC
  5
121B
330
1F
100
AcDbEntity
  8
AM_0
100
AcDbCircle
 10
-15.58845699999983
 20
-33.00000000000009
 30
0.0
 40
4.999999983612848
100
AcDbArc
 50
30.00000010841138
 51
90.0
  0
ARC
  5
121C
330
1F
100
AcDbEntity
  8
AM_0
100
AcDbCircle
 10
-23.5
 20
-20.05000000000004
 30
0.0
 40
1.0
100
AcDbArc
 50
0.0
 51
90.0
  0
ARC
  5
121D
330
1F
100
AcDbEntity
  8
AM_0
100
AcDbCircle
 10
-23.5
 20
20.04999999999999
 30
0.0
 40
1.0
100
AcDbArc
 50
270.0
 51
0.0
  0
LINE
  5
121E
330
1F
100
AcDbEntity
  8
AM_0
100
AcDbLine
 10
0.0
 20
-0.0000000000000853
 30
0.0
 11
0.0
 21
49.99999999999992
 31
0.0
  0
LINE
  5
121F
330
1F
100
AcDbEntity
  8
AM_0
100
AcDbLine
 10
-36.5
 20
-0.0000000000000853
 30
0.0
 11
-36.5
 21
19.04999999999998
 31
0.0
  0
LINE
  5
1220
330
1F
100
AcDbEntity
  8
AM_0
100
AcDbLine
 10
-60.49999999999974
 20
-20.5500000000002
 30
0.0
 11
-58.99999999999974
 21
-19.05000000000002
 31
0.0
  0
DIMENSION
  5
1221
102
{ACAD_XDICTIONARY
360
1222
102
}
102
{ACAD_REACTORS
330
1223
102
}
330
1F
100
AcDbEntity
  8
AM_5
100
AcDbDimension
  2
*D34
 10
-50.5
 20
-65.3957197852576
 30
0.0
 11
-55.5
 21
-61.9957197852576
 31
0.0
 70
    32
 71
     5
 42
10.0
  3
AM_JIS$0
100
AcDbAlignedDimension
 13
-60.5
 23
-34.47084957166135
 33
0.0
 14
-50.5
 24
-7.939999999999997
 34
0.0
100
AcDbRotatedDimension
1001
ACAD
1000
DSTYLE
1002
{
1070
   179
1070
     0
1070
   271
1070
     0
1002
}
  0
DIMENSION
  5
1224
102
{ACAD_XDICTIONARY
360
1225
102
}
102
{ACAD_REACTORS
330
1226
102
}
330
1F
100
AcDbEntity
  8
AM_5
100
AcDbDimension
  2
*D35
 10
-31.5
 20
-75.39571978525765
 30
0.0
 11
-45.99999999999977
 21
-71.99534576950963
 31
0.0
 70
    32
 71
     5
 42
28.99999999999955
  3
AM_JIS$0
100
AcDbAlignedDimension
 13
-60.49999999999954
 23
-34.578389422084
 33
0.0
 14
-31.5
 24
-19.60000000000006
 34
0.0
100
AcDbRotatedDimension
1001
ACAD
1000
DSTYLE
1002
{
1070
   179
1070
     0
1070
   271
1070
     0
1002
}
  0
LWPOLYLINE
  5
134D
102
{ACAD_REACTORS
330
1350
330
1353
330
1356
102
}
330
1F
100
AcDbEntity
  8
AM_0
100
AcDbPolyline
 90
        8
 70
     1
 43
0.0
 10
-13.89999999999992
 20
62.50000000000001
 10
1.699999999999988
 20
62.49999999999999
 42
-0.4142135623730951
 10
2.5
 20
61.69999999999998
 10
2.5
 20
55.30000000000002
 42
-0.4142135623730974
 10
1.699999999999988
 20
54.50000000000001
 10
-13.89999999999992
 20
54.50000000000001
 42
-0.4142135623730951
 10
-14.69999999999993
 20
55.30000000000002
 10
-14.69999999999993
 20
61.7
 42
-0.4142135623730951
1001
GENIUS_GENREC_14
1002
{
1000
PYDIR
1011
-14.69999999999993
1021
54.50000000000001
1031
0.0
1002
}
1002
{
1000
PXDIR
1011
2.500000000000056
1021
62.50000000000001
1031
0.0
1002
}
1002
{
1000
PORI
1011
-14.69999999999993
1021
62.50000000000001
1031
0.0
1002
}
1002
{
1000
PINS
1011
-14.69999999999993
1021
62.50000000000001
1031
0.0
1002
}
1002
{
1000
PINS2
1011
2.500000000000056
1021
54.50000000000001
1031
0.0
1002
}
1002
{
1000
C
1070
     1
1002
}
1001
GENIUS_GENODEF_13
1002
{
1000
HIER
1070
     0
1002
}
1002
{
1000
MANEDIT
1070
     0
1002
}
1002
{
1000
NOSEL
1070
     0
1002
}
1002
{
1000
BEHIND
1070
     0
1002
}
1002
{
1000
OTHER
1070
     0
1002
}
1002
{
1000
REACTOR
1002
}
1001
GENIUS_GENOBJ-N-REC_13
1002
{
1000
OWNER
1000
GEN
1002
}
  0
DIMENSION
  5
134E
102
{ACAD_XDICTIONARY
360
134F
102
}
102
{ACAD_REACTORS
330
1350
102
}
330
1F
100
AcDbEntity
  8
AM_5
100
AcDbDimension
  2
*D40
 10
2.499999999999972
 20
84.83500333056806
 30
0.0
 11
-24.67637030707226
 21
84.83500333056806
 31
0.0
 70
   160
 71
     5
 42
62.99999999999946
  3
AM_JIS$0
100
AcDbAlignedDimension
 13
-60.49999999999949
 23
38.0
 33
0.0
 14
2.499999999999971
 24
61.69999999999998
 34
0.0
100
AcDbRotatedDimension
1001
ACAD
1000
DSTYLE
1002
{
1070
   179
1070
     0
1070
   271
1070
     0
1002
}
  0
DIMENSION
  5
1351
102
{ACAD_XDICTIONARY
360
1352
102
}
102
{ACAD_REACTORS
330
1353
102
}
330
1F
100
AcDbEntity
  8
AM_5
100
AcDbDimension
  2
*D41
 10
23.40607220652551
 20
62.49999999999998
 30
0.0
 11
23.40607220652549
 21
0.4453437783895425
 31
0.0
 70
   160
  1
%%c<>
 71
     5
 42
125.0
  3
AM_JIS$0
100
AcDbAlignedDimension
 13
2.86535646935232
 23
0.0
 33
0.0
 14
1.699999999999988
 24
62.49999999999999
 34
0.0
 50
90.0
100
AcDbRotatedDimension
1001
ACAD
1000
DSTYLE
1002
{
1070
    75
1070
     1
1070
   144
1040
2.0
1070
   173
1070
     1
1070
   179
1070
     0
1070
   271
1070
     0
1070
   343
1005
3DC
1002
}
  0
DIMENSION
  5
1354
102
{ACAD_XDICTIONARY
360
1355
102
}
102
{ACAD_REACTORS
330
1356
102
}
330
1F
100
AcDbEntity
  8
AM_5
100
AcDbDimension
  2
*D42
 10
1.699999999999988
 20
62.49999999999999
 30
0.0
 11
-10.01498609627981
 21
72.22489130689837
 31
0.0
 70
   162
 71
     5
 42
1.570796326794896
  3
AM_JIS$2
100
AcDb2LineAngularDimension
 13
2.5
 23
61.69999999999998
 33
0.0
 14
2.5
 24
55.30000000000002
 34
0.0
 15
-13.89999999999992
 25
62.50000000000001
 35
0.0
 16
-5.424619674171488
 26
76.22584390632496
 36
0.0
1001
ACAD_DIMASSOC_DIMLFAC
1040
1.0
1001
ACAD_DIMASSOC_CALC_DIMLFAC
1040
1.0
1001
ACAD_DIMASSOC_OVERRIDDEN_DIMLFAC
1040
1.0
1001
ACAD
1000
DSTYLE
1002
{
1070
   144
1040
1.0
1002
}
  0
LINE
  5
1357
330
1F
100
AcDbEntity
  8
AM_4
100
AcDbLine
 10
1.699999999999988
 20
62.49999999999999
 30
0.0
 11
2.5
 21
62.5
 31
0.0
  0
LINE
  5
1358
330
1F
100
AcDbEntity
  8
AM_4
100
AcDbLine
 10
2.5
 20
62.5
 30
0.0
 11
2.5
 21
61.69999999999998
 31
0.0
  0
ENDSEC
  0
SECTION
  2
OBJECTS
  0
DICTIONARY
  5
C
330
0
100
AcDbDictionary
281
     1
  3
ACAD_COLOR
350
BE
  3
ACAD_GROUP
350
D
  3
ACAD_LAYOUT
350
1A
  3
ACAD_MATERIAL
350
BD
  3
ACAD_MLINESTYLE
350
17
  3
ACAD_PLOTSETTINGS
350
19
  3
ACAD_PLOTSTYLENAME
350
E
  3
ACAD_TABLESTYLE
350
11A
  3
ACDBHEADERROUNDTRIPXREC
350
140F
  3
AcDbVariableDictionary
350
94
  3
AcmDictionary
350
5B
  3
AMG
350
41
  3
AMGSNAPSETTINGS
350
1B8
  3
DWGPROPS
350
140E
  0
DICTIONARY
  5
34B
330
2
100
AcDbDictionary
280
     1
281
     1
  3
ACAD_LAYERSTATES
360
47E
  3
AMLAYER_GROUPCOLORS
360
34C
  0
DICTIONARY
  5
8F
330
1F
100
AcDbDictionary
280
     1
281
     1
  0
DICTIONARY
  5
1222
330
1221
100
AcDbDictionary
280
     1
281
     1
  3
ACAD_DIMASSOC
360
1223
  0
DICTIONARY
  5
1225
330
1224
100
AcDbDictionary
280
     1
281
     1
  3
ACAD_DIMASSOC
360
1226
  0
DICTIONARY
  5
134F
330
134E
100
AcDbDictionary
280
     1
281
     1
  3
ACAD_DIMASSOC
360
1350
  0
DICTIONARY
  5
1352
330
1351
100
AcDbDictionary
280
     1
281
     1
  3
ACAD_DIMASSOC
360
1353
  0
DICTIONARY
  5
1355
330
1354
100
AcDbDictionary
280
     1
281
     1
  3
ACAD_DIMASSOC
360
1356
  0
DICTIONARY
  5
BE
102
{ACAD_REACTORS
330
C
102
}
330
C
100
AcDbDictionary
281
     1
  0
DICTIONARY
  5
D
102
{ACAD_REACTORS
330
C
102
}
330
C
100
AcDbDictionary
281
     1
  0
DICTIONARY
  5
1A
102
{ACAD_REACTORS
330
C
102
}
330
C
100
AcDbDictionary
281
     1
  3
Model
350
22
  3
レイアウト1
350
1E
  3
レイアウト2
350
26
  0
DICTIONARY
  5
BD
102
{ACAD_REACTORS
330
C
102
}
330
C
100
AcDbDictionary
281
     1
  0
DICTIONARY
  5
17
102
{ACAD_REACTORS
330
C
102
}
330
C
100
AcDbDictionary
281
     1
  3
Standard
350
18
  0
DICTIONARY
  5
19
102
{ACAD_REACTORS
330
C
102
}
330
C
100
AcDbDictionary
281
     1
  0
ACDBDICTIONARYWDFLT
  5
E
102
{ACAD_REACTORS
330
C
102
}
330
C
100
AcDbDictionary
281
     1
  3
Normal
350
F
100
AcDbDictionaryWithDefault
340
F
  0
DICTIONARY
  5
11A
102
{ACAD_REACTORS
330
C
102
}
330
C
100
AcDbDictionary
281
     1
  3
Standard
350
11B
  0
DICTIONARY
  5
140F
102
{ACAD_REACTORS
330
C
102
}
330
C
100
AcDbDictionary
281
     1
  0
DICTIONARY
  5
94
102
{ACAD_REACTORS
330
C
102
}
330
C
100
AcDbDictionary
281
     1
  3
CTABLESTYLE
350
138
  3
DIMASSOC
350
96
  3
INDEXCTL
350
95
  3
PROJECTNAME
350
140C
  0
DICTIONARY
  5
5B
102
{ACAD_REACTORS
330
C
102
}
330
C
100
AcDbDictionary
281
     1
  3
AcmBOM
350
1B5
  3
AcmStdDictionary
350
61
  3
AMDTSECTSYM_ARROWCOLOR
350
123
  0
DICTIONARY
  5
41
102
{ACAD_REACTORS
330
C
102
}
330
C
100
AcDbDictionary
281
     1
  0
DICTIONARY
  5
1B8
102
{ACAD_REACTORS
330
C
102
}
330
C
100
AcDbDictionary
281
     1
  0
XRECORD
  5
140E
102
{ACAD_REACTORS
330
C
102
}
330
C
100
AcDbXrecord
280
     1
  1
DWGPROPS COOKIE
  2

  3

  4

  6

  7

  8

  9

300
AmdtFileType=84
301
=
302
=
303
=
304
=
305
=
306
=
307
=
308
=
309
=
 40
0.0090592361111111
 41
2455544.336997789
 42
2455544.346918033
  1

 90
        1
  0
DICTIONARY
  5
47E
102
{ACAD_REACTORS
330
34B
102
}
330
34B
100
AcDbDictionary
281
     1
  0
DICTIONARY
  5
34C
102
{ACAD_REACTORS
330
34B
102
}
330
34B
100
AcDbDictionary
280
     1
281
     1
  0
DIMASSOC
  5
1223
102
{ACAD_REACTORS
330
1222
102
}
330
1222
100
AcDbDimAssoc
330
1221
 90
        3
 70
     0
 71
     0
  1
AcDbOsnapPointRef
 72
    10
331
120A
 73
     0
 91
        0
 40
0.8785564202223422
 10
0.0
 20
0.0
 30
0.0
 75
     0
  1
AcDbOsnapPointRef
 72
     1
331
10E4
 73
     0
 91
        0
 40
0.0
 10
0.0
 20
0.0
 30
2.000000000000000E+50
 75
     0
  0
DIMASSOC
  5
1226
102
{ACAD_REACTORS
330
1225
102
}
330
1225
100
AcDbDimAssoc
330
1224
 90
        3
 70
     0
 71
     0
  1
AcDbOsnapPointRef
 72
    10
331
10F2
 73
     0
 91
        0
 40
0.1177834966580383
 10
0.0
 20
0.0
 30
0.0
 75
     0
  1
AcDbOsnapPointRef
 72
     1
331
120E
 73
     0
 91
        0
 40
0.0
 10
0.0
 20
0.0
 30
2.000000000000000E+50
 75
     0
  0
DIMASSOC
  5
1350
102
{ACAD_REACTORS
330
134F
102
}
330
134F
100
AcDbDimAssoc
330
134E
 90
        2
 70
     0
 71
     0
  1
AcDbOsnapPointRef
 72
     1
331
134D
 73
     2
 91
        2
 40
0.0
 10
0.0
 20
0.0
 30
2.000000000000000E+50
 75
     0
  0
DIMASSOC
  5
1353
102
{ACAD_REACTORS
330
1352
102
}
330
1352
100
AcDbDimAssoc
330
1351
 90
        2
 70
     0
 71
     0
  1
AcDbOsnapPointRef
 72
    13
331
134D
 73
     2
 91
        2
 40
0.0
 10
0.0
 20
0.0
 30
2.000000000000000E+50
 75
     0
  0
DIMASSOC
  5
1356
102
{ACAD_REACTORS
330
1355
102
}
330
1355
100
AcDbDimAssoc
330
1354
 90
       15
 70
     1
 71
     0
  1
AcDbOsnapPointRef
 72
    13
331
134D
 73
     2
 91
        3
 40
0.0
 10
0.0
 20
0.0
 30
2.000000000000000E+50
 75
     0
  1
AcDbOsnapPointRef
 72
     1
331
134D
 73
     2
 91
        3
 40
0.0
 10
0.0
 20
0.0
 30
2.000000000000000E+50
 75
     0
  1
AcDbOsnapPointRef
 72
    13
331
134D
 73
     2
 91
        1
 40
0.0
 10
0.0
 20
0.0
 30
2.000000000000000E+50
 75
     0
  1
AcDbOsnapPointRef
 72
     1
331
134D
 73
     2
 91
        1
 40
0.0
 10
0.0
 20
0.0
 30
2.000000000000000E+50
 75
     0
  0
LAYOUT
  5
22
102
{ACAD_XDICTIONARY
360
1412
102
}
102
{ACAD_REACTORS
330
1A
102
}
330
1A
100
AcDbPlotSettings
  1

  2
SII LP-2150 (D-SCAN C2)
  4
User119
  6

 40
3.174999952316284
 41
3.174999952316284
 42
3.175003051757812
 43
3.17498779296875
 44
210.0579986572266
 45
296.9259948730469
 46
0.0
 47
0.0
 48
0.0
 49
0.0
140
0.0
141
0.0
142
1.0
143
1.580715189147934
 70
 11952
 72
     1
 73
     1
 74
     0
  7
sei_cad.ctb
 75
     0
147
0.6326250338234799
148
19.65895403440572
149
1.143774069319647
100
AcDbLayout
  1
Model
 70
     1
 71
     0
 10
0.0
 20
0.0
 11
12.0
 21
9.0
 12
0.0
 22
0.0
 32
0.0
 14
0.0
 24
0.0
 34
0.0
 15
0.0
 25
0.0
 35
0.0
146
0.0
 13
0.0
 23
0.0
 33
0.0
 16
1.0
 26
0.0
 36
0.0
 17
0.0
 27
1.0
 37
0.0
 76
     0
330
1F
1001
ACAD_PSEXT
1000
SII LP-2150 (D-SCAN C2)
1000
SII LP-2150 (D-SCAN C2)
1000
133.153.16.130#3000
1000

1070
     0
  0
LAYOUT
  5
1E
102
{ACAD_XDICTIONARY
360
1410
102
}
102
{ACAD_REACTORS
330
1A
102
}
330
1A
100
AcDbPlotSettings
  1

  2

  4

  6

 40
0.0
 41
0.0
 42
0.0
 43
0.0
 44
0.0
 45
0.0
 46
0.0
 47
0.0
 48
0.0
 49
0.0
140
0.0
141
0.0
142
1.0
143
1.0
 70
   688
 72
     0
 73
     0
 74
     5
  7
sei_cad.ctb
 75
    16
147
1.0
148
0.0
149
0.0
100
AcDbLayout
  1
レイアウト1
 70
     1
 71
     1
 10
0.0
 20
0.0
 11
420.0
 21
297.0
 12
0.0
 22
0.0
 32
0.0
 14
1.000000000000000E+20
 24
1.000000000000000E+20
 34
1.000000000000000E+20
 15
-1.000000000000000E+20
 25
-1.000000000000000E+20
 35
-1.000000000000000E+20
146
0.0
 13
0.0
 23
0.0
 33
0.0
 16
1.0
 26
0.0
 36
0.0
 17
0.0
 27
1.0
 37
0.0
 76
     0
330
1B
  0
LAYOUT
  5
26
102
{ACAD_XDICTIONARY
360
1414
102
}
102
{ACAD_REACTORS
330
1A
102
}
330
1A
100
AcDbPlotSettings
  1

  2

  4

  6

 40
0.0
 41
0.0
 42
0.0
 43
0.0
 44
0.0
 45
0.0
 46
0.0
 47
0.0
 48
0.0
 49
0.0
140
0.0
141
0.0
142
1.0
143
1.0
 70
   688
 72
     0
 73
     0
 74
     5
  7
sei_cad.ctb
 75
    16
147
1.0
148
0.0
149
0.0
100
AcDbLayout
  1
レイアウト2
 70
     1
 71
     2
 10
0.0
 20
0.0
 11
12.0
 21
9.0
 12
0.0
 22
0.0
 32
0.0
 14
0.0
 24
0.0
 34
0.0
 15
0.0
 25
0.0
 35
0.0
146
0.0
 13
0.0
 23
0.0
 33
0.0
 16
1.0
 26
0.0
 36
0.0
 17
0.0
 27
1.0
 37
0.0
 76
     0
330
23
  0
MLINESTYLE
  5
18
102
{ACAD_REACTORS
330
17
102
}
330
17
100
AcDbMlineStyle
  2
STANDARD
 70
     0
  3

 62
   256
 51
90.0
 52
90.0
 71
     2
 49
0.5
 62
   256
  6
BYLAYER
 49
-0.5
 62
   256
  6
BYLAYER
  0
ACDBPLACEHOLDER
  5
F
102
{ACAD_REACTORS
330
E
102
}
330
E
  0
TABLESTYLE
  5
11B
102
{ACAD_REACTORS
330
11A
102
}
330
11A
100
AcDbTableStyle
  3
Standard
 70
     0
 71
     0
 40
1.5
 41
1.5
280
     0
281
     0
  7
STANDARD
140
4.5
170
     2
 62
     0
 63
     7
283
     0
274
    -2
284
     1
 64
     0
275
    -2
285
     1
 65
     0
276
    -2
286
     1
 66
     0
277
    -2
287
     1
 67
     0
278
    -2
288
     1
 68
     0
279
    -2
289
     1
 69
     0
  7
STANDARD
140
6.0
170
     5
 62
     0
 63
     7
283
     0
274
    -2
284
     1
 64
     0
275
    -2
285
     1
 65
     0
276
    -2
286
     1
 66
     0
277
    -2
287
     1
 67
     0
278
    -2
288
     1
 68
     0
279
    -2
289
     1
 69
     0
  7
STANDARD
140
4.5
170
     5
 62
     0
 63
     7
283
     0
274
    -2
284
     1
 64
     0
275
    -2
285
     1
 65
     0
276
    -2
286
     1
 66
     0
277
    -2
287
     1
 67
     0
278
    -2
288
     1
 68
     0
279
    -2
289
     1
 69
     0
  0
DICTIONARYVAR
  5
138
102
{ACAD_REACTORS
330
94
102
}
330
94
100
DictionaryVariables
280
     0
  1
STANDARD
  0
DICTIONARYVAR
  5
96
102
{ACAD_REACTORS
330
94
102
}
330
94
100
DictionaryVariables
280
     0
  1
2
  0
DICTIONARYVAR
  5
95
102
{ACAD_REACTORS
330
94
102
}
330
94
100
DictionaryVariables
280
     0
  1
0
  0
DICTIONARYVAR
  5
140C
102
{ACAD_REACTORS
330
94
102
}
330
94
100
DictionaryVariables
280
     0
  1

  0
DICTIONARY
  5
1B5
102
{ACAD_REACTORS
330
5B
102
}
330
5B
100
AcDbDictionary
281
     1
  0
DICTIONARY
  5
61
102
{ACAD_REACTORS
330
5B
102
}
330
5B
100
AcDbDictionary
281
     1
  0
XRECORD
  5
123
102
{ACAD_REACTORS
330
5B
102
}
330
5B
100
AcDbXrecord
280
     1
 90
-1023410169
  0
DICTIONARY
  5
1412
330
22
100
AcDbDictionary
280
     1
281
     1
  3
ACAD_XREC_ROUNDTRIP
360
1413
  0
DICTIONARY
  5
1410
330
1E
100
AcDbDictionary
280
     1
281
     1
  3
ACAD_XREC_ROUNDTRIP
360
1411
  0
DICTIONARY
  5
1414
330
26
100
AcDbDictionary
280
     1
281
     1
  3
ACAD_XREC_ROUNDTRIP
360
1415
  0
XRECORD
  5
1413
102
{ACAD_REACTORS
330
1412
102
}
330
1412
100
AcDbXrecord
280
     1
102
SHADEPLOT
 70
     0
102
SHADEPLOTRESLEVEL
 70
     2
102
SHADEPLOTCUSTOMDPI
 70
   300
  0
XRECORD
  5
1411
102
{ACAD_REACTORS
330
1410
102
}
330
1410
100
AcDbXrecord
280
     1
102
SHADEPLOT
 70
     0
102
SHADEPLOTRESLEVEL
 70
     2
102
SHADEPLOTCUSTOMDPI
 70
   300
  0
XRECORD
  5
1415
102
{ACAD_REACTORS
330
1414
102
}
330
1414
100
AcDbXrecord
280
     1
102
SHADEPLOT
 70
     0
102
SHADEPLOTRESLEVEL
 70
     2
102
SHADEPLOTCUSTOMDPI
 70
   300
  0
ENDSEC
  0
EOF
