  0
SECTION
  2
HEADER
  9
$ACADVER
  1
AC1018
  9
$ACADMAINTVER
 70
    39
  9
$DWGCODEPAGE
  3
ANSI_932
  9
$CUSTOMPROPERTYTAG
  1
AmdtFileType
  9
$CUSTOMPROPERTY
  1
82
  9
$INSBASE
 10
0.0
 20
0.0
 30
0.0
  9
$EXTMIN
 10
-135.3442115562856
 20
-78.33824243331074
 30
0.0
  9
$EXTMAX
 10
36.04100336612674
 20
59.72285940395657
 30
0.0
  9
$LIMMIN
 10
0.0
 20
0.0
  9
$LIMMAX
 10
420.0
 20
297.0
  9
$ORTHOMODE
 70
     0
  9
$REGENMODE
 70
     1
  9
$FILLMODE
 70
     1
  9
$QTEXTMODE
 70
     0
  9
$MIRRTEXT
 70
     1
  9
$LTSCALE
 40
1.0
  9
$ATTMODE
 70
     1
  9
$TEXTSIZE
 40
7.0
  9
$TRACEWID
 40
1.0
  9
$TEXTSTYLE
  7
STANDARD
  9
$CLAYER
  8
0
  9
$CELTYPE
  6
ByLayer
  9
$CECOLOR
 62
   256
  9
$CELTSCALE
 40
1.0
  9
$DISPSILH
 70
     0
  9
$DIMSCALE
 40
1.0
  9
$DIMASZ
 40
2.5
  9
$DIMEXO
 40
0.0
  9
$DIMDLI
 40
10.0
  9
$DIMRND
 40
0.0
  9
$DIMDLE
 40
0.0
  9
$DIMEXE
 40
1.0
  9
$DIMTP
 40
0.1
  9
$DIMTM
 40
0.1000000001
  9
$DIMTXT
 40
3.799999999999999
  9
$DIMCEN
 40
0.0
  9
$DIMTSZ
 40
0.0
  9
$DIMTOL
 70
     0
  9
$DIMLIM
 70
     0
  9
$DIMTIH
 70
     0
  9
$DIMTOH
 70
     0
  9
$DIMSE1
 70
     0
  9
$DIMSE2
 70
     0
  9
$DIMTAD
 70
     3
  9
$DIMZIN
 70
     1
  9
$DIMBLK
  1
Open30
  9
$DIMASO
 70
     1
  9
$DIMSHO
 70
     1
  9
$DIMPOST
  1

  9
$DIMAPOST
  1
"
  9
$DIMALT
 70
     0
  9
$DIMALTD
 70
     2
  9
$DIMALTF
 40
0.0393701
  9
$DIMLFAC
 40
1.0
  9
$DIMTOFL
 70
     1
  9
$DIMTVP
 40
0.0
  9
$DIMTIX
 70
     0
  9
$DIMSOXD
 70
     0
  9
$DIMSAH
 70
     0
  9
$DIMBLK1
  1

  9
$DIMBLK2
  1

  9
$DIMSTYLE
  2
AM_JIS
  9
$DIMCLRD
 70
   256
  9
$DIMCLRE
 70
   256
  9
$DIMCLRT
 70
     2
  9
$DIMTFAC
 40
0.71
  9
$DIMGAP
 40
1.5
  9
$DIMJUST
 70
     0
  9
$DIMSD1
 70
     0
  9
$DIMSD2
 70
     0
  9
$DIMTOLJ
 70
     0
  9
$DIMTZIN
 70
     8
  9
$DIMALTZ
 70
     0
  9
$DIMALTTZ
 70
     0
  9
$DIMUPT
 70
     0
  9
$DIMDEC
 70
     1
  9
$DIMTDEC
 70
     1
  9
$DIMALTU
 70
     2
  9
$DIMALTTD
 70
     2
  9
$DIMTXSTY
  7
STANDARD
  9
$DIMAUNIT
 70
     1
  9
$DIMADEC
 70
     0
  9
$DIMALTRND
 40
0.0
  9
$DIMAZIN
 70
     2
  9
$DIMDSEP
 70
    46
  9
$DIMATFIT
 70
     0
  9
$DIMFRAC
 70
     0
  9
$DIMLDRBLK
  1
Open30
  9
$DIMLUNIT
 70
     2
  9
$DIMLWD
 70
    -1
  9
$DIMLWE
 70
    -1
  9
$DIMTMOVE
 70
     0
  9
$LUNITS
 70
     2
  9
$LUPREC
 70
     2
  9
$SKETCHINC
 40
1.0
  9
$FILLETRAD
 40
0.8
  9
$AUNITS
 70
     1
  9
$AUPREC
 70
     3
  9
$MENU
  1
.
  9
$ELEVATION
 40
0.0
  9
$PELEVATION
 40
0.0
  9
$THICKNESS
 40
0.0
  9
$LIMCHECK
 70
     0
  9
$CHAMFERA
 40
1.0
  9
$CHAMFERB
 40
1.0
  9
$CHAMFERC
 40
20.0
  9
$CHAMFERD
 40
0.0
  9
$SKPOLY
 70
     0
  9
$TDCREATE
 40
2451865.447818009
  9
$TDUCREATE
 40
2451865.072818010
  9
$TDUPDATE
 40
2455415.608765000
  9
$TDUUPDATE
 40
2455415.233765000
  9
$TDINDWG
 40
5.8990196759
  9
$TDUSRTIMER
 40
5.8990195602
  9
$USRTIMER
 70
     1
  9
$ANGBASE
 50
0.0
  9
$ANGDIR
 70
     0
  9
$PDMODE
 70
     0
  9
$PDSIZE
 40
0.0
  9
$PLINEWID
 40
0.0
  9
$SPLFRAME
 70
     0
  9
$SPLINETYPE
 70
     6
  9
$SPLINESEGS
 70
     8
  9
$HANDSEED
  5
2ED08
  9
$SURFTAB1
 70
     6
  9
$SURFTAB2
 70
     6
  9
$SURFTYPE
 70
     6
  9
$SURFU
 70
     6
  9
$SURFV
 70
     6
  9
$UCSBASE
  2

  9
$UCSNAME
  2

  9
$UCSORG
 10
0.0
 20
0.0
 30
0.0
  9
$UCSXDIR
 10
1.0
 20
0.0
 30
0.0
  9
$UCSYDIR
 10
0.0
 20
1.0
 30
0.0
  9
$UCSORTHOREF
  2

  9
$UCSORTHOVIEW
 70
     0
  9
$UCSORGTOP
 10
0.0
 20
0.0
 30
0.0
  9
$UCSORGBOTTOM
 10
0.0
 20
0.0
 30
0.0
  9
$UCSORGLEFT
 10
0.0
 20
0.0
 30
0.0
  9
$UCSORGRIGHT
 10
0.0
 20
0.0
 30
0.0
  9
$UCSORGFRONT
 10
0.0
 20
0.0
 30
0.0
  9
$UCSORGBACK
 10
0.0
 20
0.0
 30
0.0
  9
$PUCSBASE
  2

  9
$PUCSNAME
  2

  9
$PUCSORG
 10
0.0
 20
0.0
 30
0.0
  9
$PUCSXDIR
 10
1.0
 20
0.0
 30
0.0
  9
$PUCSYDIR
 10
0.0
 20
1.0
 30
0.0
  9
$PUCSORTHOREF
  2

  9
$PUCSORTHOVIEW
 70
     0
  9
$PUCSORGTOP
 10
0.0
 20
0.0
 30
0.0
  9
$PUCSORGBOTTOM
 10
0.0
 20
0.0
 30
0.0
  9
$PUCSORGLEFT
 10
0.0
 20
0.0
 30
0.0
  9
$PUCSORGRIGHT
 10
0.0
 20
0.0
 30
0.0
  9
$PUCSORGFRONT
 10
0.0
 20
0.0
 30
0.0
  9
$PUCSORGBACK
 10
0.0
 20
0.0
 30
0.0
  9
$USERI1
 70
     0
  9
$USERI2
 70
     0
  9
$USERI3
 70
     0
  9
$USERI4
 70
     0
  9
$USERI5
 70
     0
  9
$USERR1
 40
0.0
  9
$USERR2
 40
0.0
  9
$USERR3
 40
0.0
  9
$USERR4
 40
0.0
  9
$USERR5
 40
0.0
  9
$WORLDVIEW
 70
     1
  9
$SHADEDGE
 70
     3
  9
$SHADEDIF
 70
    70
  9
$TILEMODE
 70
     1
  9
$MAXACTVP
 70
    64
  9
$PINSBASE
 10
0.0
 20
0.0
 30
0.0
  9
$PLIMCHECK
 70
     0
  9
$PEXTMIN
 10
1.000000000000000E+20
 20
1.000000000000000E+20
 30
1.000000000000000E+20
  9
$PEXTMAX
 10
-1.000000000000000E+20
 20
-1.000000000000000E+20
 30
-1.000000000000000E+20
  9
$PLIMMIN
 10
-0.2500002402958907
 20
-0.2499999962453767
  9
$PLIMMAX
 10
10.74999951940821
 20
8.249999763458731
  9
$UNITMODE
 70
     0
  9
$VISRETAIN
 70
     1
  9
$PLINEGEN
 70
     0
  9
$PSLTSCALE
 70
     0
  9
$TREEDEPTH
 70
  3020
  9
$CMLSTYLE
  2
Standard
  9
$CMLJUST
 70
     0
  9
$CMLSCALE
 40
20.0
  9
$PROXYGRAPHICS
 70
     1
  9
$MEASUREMENT
 70
     1
  9
$CELWEIGHT
370
    -1
  9
$ENDCAPS
280
     0
  9
$JOINSTYLE
280
     0
  9
$LWDISPLAY
290
     0
  9
$INSUNITS
 70
     4
  9
$HYPERLINKBASE
  1

  9
$STYLESHEET
  1
sei_cad.ctb
  9
$XEDIT
290
     1
  9
$CEPSNTYPE
380
     0
  9
$PSTYLEMODE
290
     1
  9
$FINGERPRINTGUID
  2
{FDEAD578-A652-11D2-9A35-0060089B3A3F}
  9
$VERSIONGUID
  2
{764F929E-B4AB-47F5-AC67-9C0398112B79}
  9
$EXTNAMES
290
     1
  9
$PSVPSCALE
 40
0.0
  9
$OLESTARTUP
290
     0
  9
$SORTENTS
280
   127
  9
$INDEXCTL
280
     0
  9
$HIDETEXT
280
     0
  9
$XCLIPFRAME
290
     0
  9
$HALOGAP
280
     0
  9
$OBSCOLOR
 70
   257
  9
$OBSLTYPE
280
     0
  9
$INTERSECTIONDISPLAY
280
     0
  9
$INTERSECTIONCOLOR
 70
   257
  9
$DIMASSOC
280
     1
  9
$PROJECTNAME
  1

  0
ENDSEC
  0
SECTION
  2
CLASSES
  0
CLASS
  1
ACDBDICTIONARYWDFLT
  2
AcDbDictionaryWithDefault
  3
ObjectDBX Classes
 90
        0
 91
        1
280
     0
281
     0
  0
CLASS
  1
ACME_DOCUMENT
  2
AcMeDbDoc
  3
AcMeServices
 90
        0
 91
        2
280
     0
281
     0
  0
CLASS
  1
AMGSETTINGSOBJ
  2
AmgSettingsObj
  3
"AcadM|Product Description: AutoCAD Mechanical 2000|Company: Autodesk"
 90
        0
 91
        5
280
     0
281
     0
  0
CLASS
  1
ACMESCOPE
  2
AcMeScope
  3
AcMeServices
 90
        0
 91
        1
280
     0
281
     0
  0
CLASS
  1
ACMECOMMANDHISTORY
  2
AcMeCommandHistory
  3
AcMeServices
 90
        0
 91
        1
280
     0
281
     0
  0
CLASS
  1
DICTIONARYVAR
  2
AcDbDictionaryVar
  3
ObjectDBX Classes
 90
        0
 91
        2
280
     0
281
     0
  0
CLASS
  1
ACIMSYSVARMAN
  2
AcImSysVarManager
  3
AcMeServices
 90
        0
 91
        5
280
     0
281
     0
  0
CLASS
  1
ACIMREALSYSVAR
  2
AcImRealSysVar
  3
AcMeServices
 90
        0
 91
        3
280
     0
281
     0
  0
CLASS
  1
ACIMINTSYSVAR
  2
AcImIntSysVar
  3
AcMeServices
 90
        0
 91
       27
280
     0
281
     0
  0
CLASS
  1
ACMEDRAWINGMAN
  2
AcMeDrawingMan
  3
AcMeServices
 90
        0
 91
        1
280
     0
281
     0
  0
CLASS
  1
ACMEVIEW
  2
AcMeView
  3
AcMeServices
 90
        0
 91
        1
280
     0
281
     0
  0
CLASS
  1
ACDBENTITYCACHE
  2
AcMeEntityCache
  3
AcMeServices
 90
        0
 91
        1
280
     0
281
     0
  0
CLASS
  1
GSMANAGER
  2
AcMeGSManager
  3
AcMeServices
 90
        0
 91
        1
280
     0
281
     0
  0
CLASS
  1
AMDTINTERNALREACTOR
  2
AmdtInternalReactor
  3
AcMeServices
 90
        0
 91
        2
280
     0
281
     0
  0
CLASS
  1
ACMESTATEMGR
  2
AcMeStateMgr
  3
AcMeServices
 90
        0
 91
        1
280
     0
281
     0
  0
CLASS
  1
ACME_DATABASE
  2
AcMeDbDatabase
  3
AcMeServices
 90
        0
 91
        1
280
     0
281
     0
  0
CLASS
  1
ACRFINSADJUSTERMGR
  2
AcRfInsAdjusterMgr
  3
AcMeServices
 90
        0
 91
        1
280
     0
281
     0
  0
CLASS
  1
ACMDATADICTIONARY
  2
AcmDataDictionary
  3
"AcmSymBB|Product Description: AutoCAD Mechanical 2004 DX|Company: Autodesk"
 90
        0
 91
        1
280
     0
281
     0
  0
CLASS
  1
ACMDATAENTRYBLOCK
  2
AcmDataEntryBlock
  3
"AcmSymBB|Product Description: AutoCAD Mechanical 2004 DX|Company: Autodesk"
 90
        0
 91
        1
280
     0
281
     0
  0
CLASS
  1
AMGOBJPROPCFG
  2
AmgObjPropCfg
  3
"AmgLay|Product Description: AutoCAD Mechanical 2000|Company: Autodesk"
 90
        1
 91
        1
280
     0
281
     0
  0
CLASS
  1
LAYER_INDEX
  2
AcDbLayerIndex
  3
ObjectDBX Classes
 90
        0
 91
        0
280
     0
281
     0
  0
CLASS
  1
IDBUFFER
  2
AcDbIdBuffer
  3
ObjectDBX Classes
 90
        0
 91
        0
280
     0
281
     0
  0
CLASS
  1
ACAMGFILTERDAT
  2
AcAmgFilterDat
  3
"AcadM|Product Description: AutoCAD Mechanical 2000|Company: Autodesk"
 90
        0
 91
        5
280
     0
281
     0
  0
CLASS
  1
ACIMSTRSYSVAR
  2
AcImStrSysVar
  3
AcMeServices
 90
        0
 91
        5
280
     0
281
     0
  0
CLASS
  1
ACMSTANDARDJIS
  2
AcmStandardJIS
  3
"Amdt_StdImp|Product Description: AutoCAD Mechanical 2004 DX|Company: Autodesk"
 90
        0
 91
        1
280
     0
281
     0
  0
CLASS
  1
ACMSURFSTANDARDJIS
  2
AcmSurfTextStdJIS
  3
"Amdt_StdImp|Product Description: AutoCAD Mechanical 2004 DX|Company: Autodesk"
 90
        0
 91
        1
280
     0
281
     0
  0
CLASS
  1
ACMFCFSTANDARDJIS
  2
AcmFCFStdJIS
  3
"Amdt_StdImp|Product Description: AutoCAD Mechanical 2004 DX|Company: Autodesk"
 90
        0
 91
        1
280
     0
281
     0
  0
CLASS
  1
ACMWELDSTANDARDJIS
  2
AcmWeldingStdJIS
  3
"Amdt_StdImp|Product Description: AutoCAD Mechanical 2004 DX|Company: Autodesk"
 90
        0
 91
        1
280
     0
281
     0
  0
CLASS
  1
ACMIDSTANDARDJIS
  2
AcmIdStdJIS
  3
"Amdt_StdImp|Product Description: AutoCAD Mechanical 2004 DX|Company: Autodesk"
 90
        0
 91
        1
280
     0
281
     0
  0
CLASS
  1
ACMDATUMSTANDARDJIS
  2
AcmDatumStdJIS
  3
"Amdt_StdImp|Product Description: AutoCAD Mechanical 2004 DX|Company: Autodesk"
 90
        0
 91
        1
280
     0
281
     0
  0
CLASS
  1
ACMBOMSTANDARDJIS
  2
AcmBOMStdJIS
  3
"Amdt_StdImp|Product Description: AutoCAD Mechanical 2004 DX|Company: Autodesk"
 90
        0
 91
        1
280
     0
281
     0
  0
CLASS
  1
AMDTNOTE
  2
AmdtNote
  3
"AcmSymBB|Product Description: AutoCAD Mechanical 2004 DX|Company: Autodesk"
 90
     1023
 91
        0
280
     0
281
     1
  0
CLASS
  1
TABLESTYLE
  2
AcDbTableStyle
  3
ObjectDBX Classes
 90
     2047
 91
        1
280
     0
281
     0
  0
CLASS
  1
ACGREFMASTER
  2
AcGrefMaster
  3
AcAttribServices
 90
        0
 91
        1
280
     0
281
     0
  0
CLASS
  1
AM_DRAWING_MGR
  2
AcDmDwgMgr
  3
AcMechDwgViewMgmt
 90
        0
 91
        1
280
     0
281
     0
  0
CLASS
  1
AM_DWG_DOCUMENT
  2
AcDmDwgDocument
  3
AcMechDwgViewMgmt
 90
        0
 91
        1
280
     0
281
     0
  0
CLASS
  1
AM_DWG_SHEET
  2
AcDmSheet
  3
AcMechDwgViewMgmt
 90
        0
 91
        2
280
     0
281
     0
  0
CLASS
  1
AM_VIEWDIMPARMAP
  2
AcDmViewDimParMap
  3
AcMechDwgViewMgmt
 90
        0
 91
        2
280
     0
281
     0
  0
CLASS
  1
AM_DWGMGR_NAME
  2
AcDmDwgMgrName
  3
AcMechDwgViewMgmt
 90
        0
 91
        1
280
     0
281
     0
  0
CLASS
  1
ACGREFACADMASTER
  2
AcGrefacadMaster
  3
AcGrefServices
 90
        0
 91
        1
280
     0
281
     0
  0
CLASS
  1
AMDTMENUSTATEMGR
  2
AmdtMenuStateMgr
  3
McadcomServices
 90
        0
 91
        1
280
     0
281
     0
  0
CLASS
  1
AMDTMCOMMENUSTATE
  2
AmdtMcomMenuState
  3
McadcomServices
 90
        0
 91
        1
280
     0
281
     0
  0
CLASS
  1
AMIMASTER
  2
AmiMaster
  3
AmiServices
 90
        0
 91
        1
280
     0
281
     0
  0
CLASS
  1
MAPIAMMOUDLE
  2
MApiAmModule
  3
MApiAmServices
 90
        0
 91
        1
280
     0
281
     0
  0
CLASS
  1
AMDTADMENUSTATE
  2
AmdtAdMenuState
  3
DesignerServices
 90
        0
 91
        1
280
     0
281
     0
  0
CLASS
  1
ADAPPL
  2
AcAdAppl
  3
DesignerServices
 90
        0
 91
        1
280
     0
281
     0
  0
CLASS
  1
DEPMGR
  2
AcAdDepMgr
  3
DesignerServices
 90
        0
 91
        1
280
     0
281
     0
  0
CLASS
  1
PARAMMGR
  2
AcAdParamMgr
  3
DesignerServices
 90
        0
 91
        1
280
     0
281
     0
  0
CLASS
  1
PARAMSCOPE
  2
AcAdParamScope
  3
DesignerServices
 90
        0
 91
        1
280
     0
281
     0
  0
CLASS
  1
NAMEDAPPL
  2
AcAdNamedAppl
  3
DesignerServices
 90
        0
 91
        1
280
     0
281
     0
  0
CLASS
  1
AMDTDMMENUSTATE
  2
AmdtDmMenuState
  3
AcMechDwgViewMgmt
 90
        0
 91
        1
280
     0
281
     0
  0
CLASS
  1
AMDTAMMENUSTATE
  2
AmdtAmMenuState
  3
DesignerAssemblies
 90
        0
 91
        1
280
     0
281
     0
  0
CLASS
  1
ACAMPROJECT
  2
AcAmProject
  3
DesignerAssemblies
 90
        0
 91
        1
280
     0
281
     0
  0
CLASS
  1
ACAMGRCOMPDEF
  2
AcAmGrCompDef
  3
DesignerAssemblies
 90
        0
 91
        1
280
     0
281
     0
  0
CLASS
  1
ACCMCONTEXT
  2
AcCmContext
  3
DesignerAssemblies
 90
        0
 91
        1
280
     0
281
     0
  0
CLASS
  1
ACAMCOMPDEF
  2
AcAmCompDef
  3
DesignerAssemblies
 90
        0
 91
        1
280
     0
281
     0
  0
CLASS
  1
ACAMCOMPDEFMGR
  2
AcAmCompDefMgr
  3
DesignerAssemblies
 90
        0
 91
        1
280
     0
281
     0
  0
CLASS
  1
AMCONTEXTMGR
  2
AcAmContextMgr
  3
DesignerAssemblies
 90
        0
 91
        1
280
     0
281
     0
  0
CLASS
  1
ACAMCONTEXTMODELER
  2
AcAmContextModeler
  3
DesignerAssemblies
 90
        0
 91
        1
280
     0
281
     0
  0
CLASS
  1
ACAMGTITLESTD
  2
AcAmgTitleStd
  3
"TITLEAPP"
 90
        0
 91
        2
280
     0
281
     0
  0
CLASS
  1
ACMDETAILSTANDARDJIS
  2
AmdtDetailSymStdJIS
  3
"Amdt_StdImp|Product Description: AutoCAD Mechanical 2004 DX|Company: Autodesk"
 90
        0
 91
        1
280
     0
281
     0
  0
CLASS
  1
ACMSECTIONSTANDARDJIS
  2
AmdtSectionSymStdJIS
  3
"Amdt_StdImp|Product Description: AutoCAD Mechanical 2004 DX|Company: Autodesk"
 90
        0
 91
        1
280
     0
281
     0
  0
CLASS
  1
ACMCENTERLINESTANDARDJIS
  2
AmdtCenterLineStdJIS
  3
"Amdt_StdImp|Product Description: AutoCAD Mechanical 2004 DX|Company: Autodesk"
 90
        0
 91
        1
280
     0
281
     0
  0
CLASS
  1
ACMTHREADLINESTANDARDJIS
  2
AmdtThreadLineStdJIS
  3
"Amdt_StdImp|Product Description: AutoCAD Mechanical 2004 DX|Company: Autodesk"
 90
        0
 91
        1
280
     0
281
     0
  0
CLASS
  1
ACMNOTESTANDARDJIS
  2
AmdtNoteStdJIS
  3
"Amdt_StdImp|Product Description: AutoCAD Mechanical 2004 DX|Company: Autodesk"
 90
        0
 91
        1
280
     0
281
     0
  0
CLASS
  1
AMDTNOTETEMPLATEDB
  2
AmdtNoteTemplateDB
  3
AMDT_STDIMP_MODULE_NAME
 90
        0
 91
       10
280
     0
281
     0
  0
CLASS
  1
ACAMGLAYSTD
  2
AcAmgLayStd
  3
"AcAmgLayStd|Product Description: AutoCAD Mechanical 2000|Company: Autodesk"
 90
        0
 91
        2
280
     0
281
     0
  0
CLASS
  1
ACAMGDIMSTD
  2
AcAmgDimStd
  3
"AcAmgDimStd|Product Description: AutoCAD Mechanical 2000|Company: Autodesk"
 90
        0
 91
        2
280
     0
281
     0
  0
CLASS
  1
ACAMGHOLECHARTSTDJIS
  2
AcAmgHoleChartStdJIS
  3
ACMSYMBB_MODULE_NAME
 90
        0
 91
        1
280
     0
281
     0
  0
CLASS
  1
CATALOGSTATE
  2
AcAmCatalogState
  3
DesignerAssemblies
 90
        0
 91
        1
280
     0
281
     0
  0
CLASS
  1
ACAMGRCOMPDEFSET
  2
AcAmGrCompDefSet
  3
DesignerAssemblies
 90
        0
 91
        1
280
     0
281
     0
  0
CLASS
  1
AMDTBROWSERDBTAB
  2
AmdtBrowserDbTab
  3
McadcomServices
 90
        0
 91
        1
280
     0
281
     0
  0
CLASS
  1
CBROWSERAPPOBJECT
  2
CBrowserAppObject
  3
McadcomServices
 90
        0
 91
        3
280
     0
281
     0
  0
CLASS
  1
DM_PLACEHOLDER
  2
AcDmSelsetPlaceholder
  3
AcMechDwgViewMgmt
 90
        0
 91
        1
280
     0
281
     0
  0
CLASS
  1
ACAMGHOLECHARTORIGIN
  2
AcAmgHoleChartOrigin
  3
ACMSYMBB_MODULE_NAME
 90
      895
 91
        0
280
     0
281
     1
  0
CLASS
  1
ACDBLINERES
  2
AcDbLineRes
  3
AcGrefServices
 90
        0
 91
        2
280
     0
281
     0
  0
CLASS
  1
AMDTFORMULAUPDATEDISPATCHER
  2
AmdtFormulaUpdateDispatcher
  3
AcMeServices
 90
        0
 91
        0
280
     0
281
     0
  0
CLASS
  1
SORTENTSTABLE
  2
AcDbSortentsTable
  3
ObjectDBX Classes
 90
        0
 91
        1
280
     0
281
     0
  0
CLASS
  1
ACMSTANDARDISO
  2
AcmStandardISO
  3
"Amdt_StdImp|Product Description: AutoCAD Mechanical 2004 DX|Company: Autodesk"
 90
        0
 91
        1
280
     0
281
     0
  0
CLASS
  1
AMDTEDGESTANDARDISO13715
  2
AmdtEdgeStdISO13715
  3
"Amdt_StdImp|Product Description: AutoCAD Mechanical 2004 DX|Company: Autodesk"
 90
        0
 91
        1
280
     0
281
     0
  0
CLASS
  1
ACMSURFSTANDARDISO
  2
AcmSurfTextStdISO
  3
"Amdt_StdImp|Product Description: AutoCAD Mechanical 2004 DX|Company: Autodesk"
 90
        0
 91
        1
280
     0
281
     0
  0
CLASS
  1
ACMFCFSTANDARDISO
  2
AcmFCFStdISO
  3
"Amdt_StdImp|Product Description: AutoCAD Mechanical 2004 DX|Company: Autodesk"
 90
        0
 91
        1
280
     0
281
     0
  0
CLASS
  1
ACMWELDSTANDARDISO
  2
AcmWeldingStdISO
  3
"Amdt_StdImp|Product Description: AutoCAD Mechanical 2004 DX|Company: Autodesk"
 90
        0
 91
        1
280
     0
281
     0
  0
CLASS
  1
ACMIDSTANDARDISO
  2
AcmIdStdISO
  3
"Amdt_StdImp|Product Description: AutoCAD Mechanical 2004 DX|Company: Autodesk"
 90
        0
 91
        1
280
     0
281
     0
  0
CLASS
  1
ACMDATUMSTANDARDISO
  2
AcmDatumStdISO
  3
"Amdt_StdImp|Product Description: AutoCAD Mechanical 2004 DX|Company: Autodesk"
 90
        0
 91
        1
280
     0
281
     0
  0
CLASS
  1
ACMBOMSTANDARDISO
  2
AcmBOMStdISO
  3
"Amdt_StdImp|Product Description: AutoCAD Mechanical 2004 DX|Company: Autodesk"
 90
        0
 91
        1
280
     0
281
     0
  0
CLASS
  1
ACMDETAILSTANDARDISO
  2
AmdtDetailSymStdISO
  3
"Amdt_StdImp|Product Description: AutoCAD Mechanical 2004 DX|Company: Autodesk"
 90
        0
 91
        1
280
     0
281
     0
  0
CLASS
  1
ACMSECTIONSTANDARDISO
  2
AmdtSectionSymStdISO
  3
"Amdt_StdImp|Product Description: AutoCAD Mechanical 2004 DX|Company: Autodesk"
 90
        0
 91
        1
280
     0
281
     0
  0
CLASS
  1
ACMCENTERLINESTANDARDISO
  2
AmdtCenterLineStdISO
  3
"Amdt_StdImp|Product Description: AutoCAD Mechanical 2004 DX|Company: Autodesk"
 90
        0
 91
        1
280
     0
281
     0
  0
CLASS
  1
ACMTHREADLINESTANDARDISO
  2
AmdtThreadLineStdISO
  3
"Amdt_StdImp|Product Description: AutoCAD Mechanical 2004 DX|Company: Autodesk"
 90
        0
 91
        1
280
     0
281
     0
  0
CLASS
  1
ACMNOTESTANDARDISO
  2
AmdtNoteStdISO
  3
"Amdt_StdImp|Product Description: AutoCAD Mechanical 2004 DX|Company: Autodesk"
 90
        0
 91
        1
280
     0
281
     0
  0
CLASS
  1
ACAMGHOLECHARTSTDISO
  2
AcAmgHoleChartStdISO
  3
ACMSYMBB_MODULE_NAME
 90
        0
 91
        1
280
     0
281
     0
  0
CLASS
  1
ACDBNURBCURVERES
  2
AcDbNurbCurveRes
  3
AcGrefServices
 90
        0
 91
        0
280
     0
281
     0
  0
CLASS
  1
ACMDIMBREAKPERSREACTOR
  2
AcmDimBreakPersReactor
  3
amgDimApp().moduleName()
 90
     1023
 91
        0
280
     0
281
     0
  0
CLASS
  1
DIMASSOC
  2
AcDbDimAssoc
  3
"AcDbDimAssoc|Product Desc:     AcDim ARX App For Dimension|Company:          Autodesk, Inc.|WEB Address:      www.autodesk.com"
 90
        0
 91
        0
280
     0
281
     0
  0
CLASS
  1
ACRFATTGENMGR
  2
AcRfAttGeneralMgr
  3
AcAttribServices
 90
        0
 91
        1
280
     0
281
     0
  0
ENDSEC
  0
SECTION
  2
TABLES
  0
TABLE
  2
VPORT
  5
8
330
0
100
AcDbSymbolTable
 70
    69
  0
VPORT
  5
2ED07
330
8
100
AcDbSymbolTableRecord
100
AcDbViewportTableRecord
  2
*Active
 70
     0
 10
0.0
 20
0.0
 11
1.0
 21
1.0
 12
-19.31315674845933
 22
-8.912133722493763
 13
0.0
 23
0.0
 14
2.5
 24
2.5
 15
10.0
 25
10.0
 16
0.0
 26
0.0
 36
1.0
 17
0.0
 27
0.0
 37
0.0
 40
162.2966725533515
 41
1.665745856353591
 42
50.0
 43
0.0
 44
0.0
 50
0.0
 51
0.0
 71
    16
 72
  2000
 73
     1
 74
     3
 75
     0
 76
     0
 77
     0
 78
     0
281
     0
 65
     1
110
0.0
120
0.0
130
0.0
111
1.0
121
0.0
131
0.0
112
0.0
122
1.0
132
0.0
 79
     0
146
0.0
  0
ENDTAB
  0
TABLE
  2
LTYPE
  5
5
330
0
100
AcDbSymbolTable
 70
    17
  0
LTYPE
  5
14
330
5
100
AcDbSymbolTableRecord
100
AcDbLinetypeTableRecord
  2
ByBlock
 70
     0
  3

 72
    65
 73
     0
 40
0.0
  0
LTYPE
  5
15
330
5
100
AcDbSymbolTableRecord
100
AcDbLinetypeTableRecord
  2
ByLayer
 70
     0
  3

 72
    65
 73
     0
 40
0.0
  0
LTYPE
  5
16
330
5
100
AcDbSymbolTableRecord
100
AcDbLinetypeTableRecord
  2
Continuous
 70
     0
  3
Solid line
 72
    65
 73
     0
 40
0.0
  0
LTYPE
  5
5E
330
5
100
AcDbSymbolTableRecord
100
AcDbLinetypeTableRecord
  2
AM_ISO02W050
 70
     0
  3
__ __ __ __ __ __ __ __ __ __ __ __ __ __ __
 72
    65
 73
     2
 40
7.5
 49
6.0
 74
     0
 49
-1.5
 74
     0
  0
LTYPE
  5
5F
330
5
100
AcDbSymbolTableRecord
100
AcDbLinetypeTableRecord
  2
AM_ISO08W050
 70
     0
  3
____ . ____ . ____ . ____ . ____ . ____ . ____
 72
    65
 73
     4
 40
18.0
 49
12.0
 74
     0
 49
-1.5
 74
     0
 49
3.0
 74
     0
 49
-1.5
 74
     0
  0
LTYPE
  5
60
330
5
100
AcDbSymbolTableRecord
100
AcDbLinetypeTableRecord
  2
AM_ISO09W050
 70
     0
  3
_____ . . _____ . . _____ . . ____ .. ____
 72
    65
 73
     6
 40
22.5
 49
12.0
 74
     0
 49
-1.5
 74
     0
 49
3.0
 74
     0
 49
-1.5
 74
     0
 49
3.0
 74
     0
 49
-1.5
 74
     0
  0
LTYPE
  5
61
330
5
100
AcDbSymbolTableRecord
100
AcDbLinetypeTableRecord
  2
Amconstr
 70
     0
  3
_______________________
 72
    65
 73
     2
 40
9999.0
 49
9999.0
 74
     0
 49
0.0
 74
     0
  0
LTYPE
  5
62
330
5
100
AcDbSymbolTableRecord
100
AcDbLinetypeTableRecord
  2
AM_ISO02W050x2
 70
     0
  3
 _ _ _ _ _ _ _ _ _ _ _ _
 72
    65
 73
     2
 40
3.75
 49
3.0
 74
     0
 49
-0.75
 74
     0
  0
LTYPE
  5
63
330
5
100
AcDbSymbolTableRecord
100
AcDbLinetypeTableRecord
  2
AM_ISO08W050x2
 70
     0
  3
__ . __ . __ . __ . __ . __
 72
    65
 73
     4
 40
9.0
 49
6.0
 74
     0
 49
-0.75
 74
     0
 49
1.5
 74
     0
 49
-0.75
 74
     0
  0
LTYPE
  5
66
330
5
100
AcDbSymbolTableRecord
100
AcDbLinetypeTableRecord
  2
Amzigzag
 70
     0
  3
/\/-/\/-/\/-/\/-/\/-/\/
 72
    65
 73
     2
 40
11.0001
 49
0.0001
 74
     4
 75
   135
340
65
 46
0.04
 50
0.0
 44
0.0
 45
0.0
 49
-11.0
 74
     0
  0
LTYPE
  5
166
330
5
100
AcDbSymbolTableRecord
100
AcDbLinetypeTableRecord
  2
ACJISTGB
 70
     0
  3
__ . . __ . .
 72
    65
 73
     6
 40
9.0
 49
4.0
 74
     0
 49
-1.0
 74
     0
 49
1.0
 74
     0
 49
-1.0
 74
     0
 49
1.0
 74
     0
 49
-1.0
 74
     0
  0
LTYPE
  5
167
330
5
100
AcDbSymbolTableRecord
100
AcDbLinetypeTableRecord
  2
ACJISTGL
 70
     0
  3
_ _ _ _ _
 72
    65
 73
     2
 40
3.0
 49
2.0
 74
     0
 49
-1.0
 74
     0
  0
LTYPE
  5
183
330
5
100
AcDbSymbolTableRecord
100
AcDbLinetypeTableRecord
  2
DASHED
 70
     0
  3
__ __ __ __ __ __ __ __ __ __ __ __ __ __ __
 72
    65
 73
     2
 40
3.5
 49
2.0
 74
     0
 49
-1.5
 74
     0
  0
LTYPE
  5
184
330
5
100
AcDbSymbolTableRecord
100
AcDbLinetypeTableRecord
  2
CENTER
 70
     0
  3
____ _ ____ _ ____ _ ____ _ ____ _ ____ _ ____
 72
    65
 73
     4
 40
17.5
 49
13.0
 74
     0
 49
-1.5
 74
     0
 49
1.5
 74
     0
 49
-1.5
 74
     0
  0
LTYPE
  5
A1DA
330
5
100
AcDbSymbolTableRecord
100
AcDbLinetypeTableRecord
  2
HIDDEN
 70
     0
  3
Hidden __ __ __ __ __ __ __ __ __ __ __ __ __ _
 72
    65
 73
     2
 40
9.524999999999998
 49
6.349999999999999
 74
     0
 49
-3.174999999999999
 74
     0
  0
LTYPE
  5
A1DB
330
5
100
AcDbSymbolTableRecord
100
AcDbLinetypeTableRecord
  2
PHANTOM2
 70
     0
  3
Phantom (.5x) ___ _ _ ___ _ _ ___ _ _ ___ _ _
 72
    65
 73
     6
 40
31.75
 49
15.875
 74
     0
 49
-3.174999999999999
 74
     0
 49
3.174999999999999
 74
     0
 49
-3.174999999999999
 74
     0
 49
3.174999999999999
 74
     0
 49
-3.174999999999999
 74
     0
  0
LTYPE
  5
D1E1
330
5
100
AcDbSymbolTableRecord
100
AcDbLinetypeTableRecord
  2
ACISOWELD
 70
     0
  3
_ _ _ _ _
 72
    65
 73
     2
 40
2.0
 49
2.0
 74
     0
 49
-1.0
 74
     0
  0
LTYPE
  5
D1E2
330
5
100
AcDbSymbolTableRecord
100
AcDbLinetypeTableRecord
  2
ACISOTGB
 70
     0
  3
__ . . __ . .
 72
    65
 73
     6
 40
9.0
 49
4.0
 74
     0
 49
-1.0
 74
     0
 49
1.0
 74
     0
 49
-1.0
 74
     0
 49
1.0
 74
     0
 49
-1.0
 74
     0
  0
LTYPE
  5
D1E3
330
5
100
AcDbSymbolTableRecord
100
AcDbLinetypeTableRecord
  2
ACISOTGL
 70
     0
  3
_ _ _ _ _
 72
    65
 73
     2
 40
3.0
 49
2.0
 74
     0
 49
-1.0
 74
     0
  0
ENDTAB
  0
TABLE
  2
LAYER
  5
2
102
{ACAD_XDICTIONARY
360
B18B
102
}
330
0
100
AcDbSymbolTable
 70
    10
  0
LAYER
  5
10
330
2
100
AcDbSymbolTableRecord
100
AcDbLayerTableRecord
  2
0
 70
     0
 62
     7
  6
Continuous
370
    -3
390
F
  0
LAYER
  5
D1
330
2
100
AcDbSymbolTableRecord
100
AcDbLayerTableRecord
  2
Defpoints
 70
     0
 62
     7
  6
Continuous
290
     0
370
    -3
390
F
  0
LAYER
  5
A2D
330
2
100
AcDbSymbolTableRecord
100
AcDbLayerTableRecord
  2
AM_0
 70
     0
 62
     7
  6
Continuous
370
    30
390
F
  0
LAYER
  5
AD7
330
2
100
AcDbSymbolTableRecord
100
AcDbLayerTableRecord
  2
AM_4
 70
     0
 62
     3
  6
Continuous
370
    13
390
F
  0
LAYER
  5
20014
330
2
100
AcDbSymbolTableRecord
100
AcDbLayerTableRecord
  2
AM_5
 70
     0
 62
     3
  6
Continuous
370
    13
390
F
  0
LAYER
  5
20146
330
2
100
AcDbSymbolTableRecord
100
AcDbLayerTableRecord
  2
AM_7
 70
     0
 62
     4
  6
AM_ISO08W050
370
    13
390
F
  0
LAYER
  5
2E608
330
2
100
AcDbSymbolTableRecord
100
AcDbLayerTableRecord
  2
AM_11
 70
     0
 62
     3
  6
AM_ISO09W050
370
    13
390
F
  0
ENDTAB
  0
TABLE
  2
STYLE
  5
3
330
0
100
AcDbSymbolTable
 70
     6
  0
STYLE
  5
11
330
3
100
AcDbSymbolTableRecord
100
AcDbTextStyleTableRecord
  2
STANDARD
 70
     0
 40
0.0
 41
1.0
 50
0.0
 71
     0
 42
7.0
  3
ISOCP.SHX
  4
EXTFONT.SHX
  0
STYLE
  5
65
330
3
100
AcDbSymbolTableRecord
100
AcDbTextStyleTableRecord
  2

 70
     1
 40
0.0
 41
1.0
 50
0.0
 71
     0
 42
2.5
  3
ltypeshp.shx
  4

  0
STYLE
  5
15E
330
3
100
AcDbSymbolTableRecord
100
AcDbTextStyleTableRecord
  2
ACJISTS
 70
     0
 40
1.0
 41
1.0
 50
0.0
 71
     0
 42
2.5
  3
isocp.shx
  4
bigfont.shx
  0
STYLE
  5
165
330
3
100
AcDbSymbolTableRecord
100
AcDbTextStyleTableRecord
  2
ACJISGDT
 70
     0
 40
0.0
 41
1.0
 50
0.0
 71
     0
 42
2.5
  3
amgdt.shx
  4

  0
STYLE
  5
D1E6
330
3
100
AcDbSymbolTableRecord
100
AcDbTextStyleTableRecord
  2
ACISOTS
 70
     0
 40
1.0
 41
1.0
 50
0.0
 71
     0
 42
2.5
  3
isocp.shx
  4
extfont.shx
  0
STYLE
  5
D1E7
330
3
100
AcDbSymbolTableRecord
100
AcDbTextStyleTableRecord
  2
ACISOGDT
 70
     0
 40
0.0
 41
1.0
 50
0.0
 71
     0
 42
2.5
  3
amgdt.shx
  4

  0
ENDTAB
  0
TABLE
  2
VIEW
  5
6
330
0
100
AcDbSymbolTable
 70
     6
  0
VIEW
  5
596
330
6
100
AcDbSymbolTableRecord
100
AcDbViewTableRecord
  2
AM_VIEW1
 70
     0
 40
148.5
 10
117.2527063599458
 20
222.75
 41
234.5054127198917
 11
0.0
 21
0.0
 31
1.0
 12
0.0
 22
0.0
 32
0.0
 42
50.0
 43
0.0
 44
0.0
 50
0.0
 71
    16
281
     0
 72
     0
  0
VIEW
  5
597
330
6
100
AcDbSymbolTableRecord
100
AcDbViewTableRecord
  2
AM_VIEW2
 70
     0
 40
148.5
 10
302.7472936400541
 20
222.75
 41
234.5054127198917
 11
0.0
 21
0.0
 31
1.0
 12
0.0
 22
0.0
 32
0.0
 42
50.0
 43
0.0
 44
0.0
 50
0.0
 71
    16
281
     0
 72
     0
  0
VIEW
  5
598
330
6
100
AcDbSymbolTableRecord
100
AcDbViewTableRecord
  2
AM_VIEW3
 70
     0
 40
148.5
 10
117.2527063599458
 20
74.25
 41
234.5054127198917
 11
0.0
 21
0.0
 31
1.0
 12
0.0
 22
0.0
 32
0.0
 42
50.0
 43
0.0
 44
0.0
 50
0.0
 71
    16
281
     0
 72
     0
  0
VIEW
  5
599
330
6
100
AcDbSymbolTableRecord
100
AcDbViewTableRecord
  2
AM_VIEW4
 70
     0
 40
148.5
 10
302.7472936400541
 20
74.25
 41
234.5054127198917
 11
0.0
 21
0.0
 31
1.0
 12
0.0
 22
0.0
 32
0.0
 42
50.0
 43
0.0
 44
0.0
 50
0.0
 71
    16
281
     0
 72
     0
  0
VIEW
  5
59A
330
6
100
AcDbSymbolTableRecord
100
AcDbViewTableRecord
  2
AM_VIEW5
 70
     0
 40
148.5
 10
210.0
 20
148.5
 41
234.5054127198917
 11
0.0
 21
0.0
 31
1.0
 12
0.0
 22
0.0
 32
0.0
 42
50.0
 43
0.0
 44
0.0
 50
0.0
 71
    16
281
     0
 72
     0
  0
VIEW
  5
59B
330
6
100
AcDbSymbolTableRecord
100
AcDbViewTableRecord
  2
AM_VIEW6
 70
     0
 40
296.99703
 10
210.0
 20
148.5
 41
469.006135331529
 11
0.0
 21
0.0
 31
1.0
 12
0.0
 22
0.0
 32
0.0
 42
50.0
 43
0.0
 44
0.0
 50
0.0
 71
    16
281
     0
 72
     0
  0
ENDTAB
  0
TABLE
  2
UCS
  5
7
330
0
100
AcDbSymbolTable
 70
     0
  0
ENDTAB
  0
TABLE
  2
APPID
  5
9
330
0
100
AcDbSymbolTable
 70
    52
  0
APPID
  5
12
330
9
100
AcDbSymbolTableRecord
100
AcDbRegAppTableRecord
  2
ACAD
 70
     0
  0
APPID
  5
46
330
9
100
AcDbSymbolTableRecord
100
AcDbRegAppTableRecord
  2
MCAD_NO_VIS
 70
     0
  0
APPID
  5
47
330
9
100
AcDbSymbolTableRecord
100
AcDbRegAppTableRecord
  2
ACAD_TEMP_GRAPHIC
 70
     0
  0
APPID
  5
10B
330
9
100
AcDbSymbolTableRecord
100
AcDbRegAppTableRecord
  2
GENIUS_GENDTOL_13
 70
     0
  0
APPID
  5
199
330
9
100
AcDbSymbolTableRecord
100
AcDbRegAppTableRecord
  2
GENIUS_GENCFG_13
 70
     0
  0
APPID
  5
19A
330
9
100
AcDbSymbolTableRecord
100
AcDbRegAppTableRecord
  2
GENIUS_GENCFG0_13
 70
     0
  0
APPID
  5
19B
330
9
100
AcDbSymbolTableRecord
100
AcDbRegAppTableRecord
  2
GENIUS_GENCFG1_13
 70
     0
  0
APPID
  5
19C
330
9
100
AcDbSymbolTableRecord
100
AcDbRegAppTableRecord
  2
GENIUS_GENCFG2_13
 70
     0
  0
APPID
  5
19D
330
9
100
AcDbSymbolTableRecord
100
AcDbRegAppTableRecord
  2
GENIUS_GENCFG3_13
 70
     0
  0
APPID
  5
19E
330
9
100
AcDbSymbolTableRecord
100
AcDbRegAppTableRecord
  2
GENIUS_GENCFG4_13
 70
     0
  0
APPID
  5
5DC
330
9
100
AcDbSymbolTableRecord
100
AcDbRegAppTableRecord
  2
GENIUS_GENBLLY_14
 70
     0
  0
APPID
  5
5DD
330
9
100
AcDbSymbolTableRecord
100
AcDbRegAppTableRecord
  2
GENIUS_GENODEF_13
 70
     0
  0
APPID
  5
5DE
330
9
100
AcDbSymbolTableRecord
100
AcDbRegAppTableRecord
  2
GENIUS_GENOBJ-N-CEN_13
 70
     0
  0
APPID
  5
5EA
330
9
100
AcDbSymbolTableRecord
100
AcDbRegAppTableRecord
  2
GENIUS_GENTRA_14
 70
     0
  0
APPID
  5
5F4
330
9
100
AcDbSymbolTableRecord
100
AcDbRegAppTableRecord
  2
GENIUS_GENOBJ-N-TIT_13
 70
     0
  0
APPID
  5
5F5
330
9
100
AcDbSymbolTableRecord
100
AcDbRegAppTableRecord
  2
GENIUS_GENTITLE_13
 70
     0
  0
APPID
  5
5F6
330
9
100
AcDbSymbolTableRecord
100
AcDbRegAppTableRecord
  2
GENIUS_GENOENT_13
 70
     0
  0
APPID
  5
5F7
330
9
100
AcDbSymbolTableRecord
100
AcDbRegAppTableRecord
  2
GENIUS_GENOREF_13
 70
     0
  0
APPID
  5
5F8
330
9
100
AcDbSymbolTableRecord
100
AcDbRegAppTableRecord
  2
GENIUS_GENOLIS_13
 70
     0
  0
APPID
  5
5F9
330
9
100
AcDbSymbolTableRecord
100
AcDbRegAppTableRecord
  2
GENIUS_GENZVEED_13
 70
     0
  0
APPID
  5
5FA
330
9
100
AcDbSymbolTableRecord
100
AcDbRegAppTableRecord
  2
GENIUS_GENSCREG_15
 70
     0
  0
APPID
  5
5FB
330
9
100
AcDbSymbolTableRecord
100
AcDbRegAppTableRecord
  2
GENIUS_GENOBJ-N-SDF_13
 70
     0
  0
APPID
  5
A2F
330
9
100
AcDbSymbolTableRecord
100
AcDbRegAppTableRecord
  2
GENIUS_GENOBJ-N-RSBK_13
 70
     0
  0
APPID
  5
A30
330
9
100
AcDbSymbolTableRecord
100
AcDbRegAppTableRecord
  2
GENIUS_GENOBJ-N-LIB_13
 70
     0
  0
APPID
  5
A31
330
9
100
AcDbSymbolTableRecord
100
AcDbRegAppTableRecord
  2
GENIUS_GENSCALE_13
 70
     0
  0
APPID
  5
1642
330
9
100
AcDbSymbolTableRecord
100
AcDbRegAppTableRecord
  2
GENIUS_GENREC_14
 70
     0
  0
APPID
  5
1643
330
9
100
AcDbSymbolTableRecord
100
AcDbRegAppTableRecord
  2
GENIUS_GENOBJ-N-REC_13
 70
     0
  0
APPID
  5
1965
330
9
100
AcDbSymbolTableRecord
100
AcDbRegAppTableRecord
  2
GENIUS_GENFIL_13
 70
     0
  0
APPID
  5
1966
330
9
100
AcDbSymbolTableRecord
100
AcDbRegAppTableRecord
  2
GENIUS_GENOBJ-N-CHA_13
 70
     0
  0
APPID
  5
25E4
330
9
100
AcDbSymbolTableRecord
100
AcDbRegAppTableRecord
  2
GENIUS_GENDIMSH_14
 70
     0
  0
APPID
  5
26B1
330
9
100
AcDbSymbolTableRecord
100
AcDbRegAppTableRecord
  2
GENIUS_GENOBJ-N-CRS_13
 70
     0
  0
APPID
  5
364A
330
9
100
AcDbSymbolTableRecord
100
AcDbRegAppTableRecord
  2
GENIUS_GENOBJ-N-HTC_13
 70
     0
  0
APPID
  5
364B
330
9
100
AcDbSymbolTableRecord
100
AcDbRegAppTableRecord
  2
GENIUS_GENHATCH_13
 70
     0
  0
APPID
  5
57E1
330
9
100
AcDbSymbolTableRecord
100
AcDbRegAppTableRecord
  2
GENIUS_GENOBJ-N-FIL_13
 70
     0
  0
APPID
  5
7D0C
330
9
100
AcDbSymbolTableRecord
100
AcDbRegAppTableRecord
  2
GENIUS_GENOBJ-N-DIM_13
 70
     0
  0
APPID
  5
7D16
330
9
100
AcDbSymbolTableRecord
100
AcDbRegAppTableRecord
  2
GENIUS_GENDIM_13
 70
     0
  0
APPID
  5
A1DD
330
9
100
AcDbSymbolTableRecord
100
AcDbRegAppTableRecord
  2
AD_DRAW
 70
     0
  0
APPID
  5
A1E0
330
9
100
AcDbSymbolTableRecord
100
AcDbRegAppTableRecord
  2
ACATTRIBSERVICES
 70
     0
  0
APPID
  5
A1FE
330
9
100
AcDbSymbolTableRecord
100
AcDbRegAppTableRecord
  2
DESIGNERASSEMBLIES
 70
     0
  0
APPID
  5
A211
330
9
100
AcDbSymbolTableRecord
100
AcDbRegAppTableRecord
  2
ACADM_DIM_EDIT
 70
     0
  0
APPID
  5
A212
330
9
100
AcDbSymbolTableRecord
100
AcDbRegAppTableRecord
  2
AMDT_DM_ADJ
 70
     0
  0
APPID
  5
AC46
330
9
100
AcDbSymbolTableRecord
100
AcDbRegAppTableRecord
  2
BASE_TYPE
 70
     0
  0
APPID
  5
B18A
330
9
100
AcDbSymbolTableRecord
100
AcDbRegAppTableRecord
  2
ACAD_PSEXT
 70
     0
  0
APPID
  5
B9E9
330
9
100
AcDbSymbolTableRecord
100
AcDbRegAppTableRecord
  2
GENIUS_GENCEN_19
 70
     0
  0
APPID
  5
1DFCB
330
9
100
AcDbSymbolTableRecord
100
AcDbRegAppTableRecord
  2
ACAD_DSTYLE_DIMTEXT_FILL
 70
     0
  0
APPID
  5
2AB65
330
9
100
AcDbSymbolTableRecord
100
AcDbRegAppTableRecord
  2
ACAD_DSTYLE_DIMARC_LENGTH_SYMBOL
 70
     0
  0
APPID
  5
2AB66
330
9
100
AcDbSymbolTableRecord
100
AcDbRegAppTableRecord
  2
ACAD_DSTYLE_DIMJOGGED_JOGANGLE_SYMBOL
 70
     0
  0
APPID
  5
2AB67
330
9
100
AcDbSymbolTableRecord
100
AcDbRegAppTableRecord
  2
AcAecLayerStandard
 70
     0
  0
APPID
  5
2B45D
330
9
100
AcDbSymbolTableRecord
100
AcDbRegAppTableRecord
  2
DCO15
 70
     0
  0
APPID
  5
2D5A4
330
9
100
AcDbSymbolTableRecord
100
AcDbRegAppTableRecord
  2
ACAD_DIMASSOC_DIMLFAC
 70
     0
  0
APPID
  5
2D5A5
330
9
100
AcDbSymbolTableRecord
100
AcDbRegAppTableRecord
  2
ACAD_DIMASSOC_CALC_DIMLFAC
 70
     0
  0
APPID
  5
2D5A6
330
9
100
AcDbSymbolTableRecord
100
AcDbRegAppTableRecord
  2
ACAD_DIMASSOC_OVERRIDDEN_DIMLFAC
 70
     0
  0
ENDTAB
  0
TABLE
  2
DIMSTYLE
  5
A
330
0
100
AcDbSymbolTable
 70
    17
100
AcDbDimStyleTable
 71
     3
340
BF
340
3282
340
C6
  0
DIMSTYLE
105
BF
330
A
100
AcDbSymbolTableRecord
100
AcDbDimStyleTableRecord
  2
AM_JIS
 70
     0
  4
"
 41
2.5
 42
0.0
 43
10.0
 44
1.0
 47
0.1
 48
0.1000000001
 73
     0
 74
     0
 77
     3
 78
     1
 79
     2
140
3.799999999999999
141
0.0
143
0.0393701
146
0.71
147
1.5
172
     1
176
   256
177
   256
178
     2
179
     2
271
     3
272
     3
275
     1
283
     0
284
     8
340
11
341
C0
342
C0
371
    -1
372
    -1
  0
DIMSTYLE
105
C6
330
A
100
AcDbSymbolTableRecord
100
AcDbDimStyleTableRecord
  2
AM_JIS$3
 70
     0
  4
"
 41
2.5
 42
0.0
 43
10.0
 44
1.0
 47
0.1
 48
0.1000000001
 73
     0
 77
     3
 78
     1
 79
     2
140
3.799999999999999
141
0.0
143
0.0393701
146
0.71
147
1.5
172
     1
176
   256
177
   256
178
     2
179
     2
271
     3
272
     3
275
     1
283
     0
284
     8
288
     1
289
     0
340
11
341
C0
342
C0
371
    -1
372
    -1
  0
DIMSTYLE
105
C7
330
A
100
AcDbSymbolTableRecord
100
AcDbDimStyleTableRecord
  2
AM_JIS$4
 70
     0
  4
"
 41
2.5
 42
0.0
 43
10.0
 44
1.0
 47
0.1
 48
0.1000000001
 73
     0
 77
     3
 78
     1
 79
     2
140
3.799999999999999
141
0.0
143
0.0393701
146
0.71
147
1.5
172
     1
176
   256
177
   256
178
     2
179
     2
271
     3
272
     3
275
     1
283
     0
284
     8
288
     1
289
     0
340
11
341
C0
342
C0
371
    -1
372
    -1
  0
DIMSTYLE
105
C8
330
A
100
AcDbSymbolTableRecord
100
AcDbDimStyleTableRecord
  2
AM_JIS$6
 70
     0
  4
"
 41
2.5
 42
0.0
 43
10.0
 44
1.0
 47
0.1
 48
0.1000000001
 73
     0
 74
     0
 78
     1
 79
     2
140
3.799999999999999
141
0.0
143
0.0393701
146
0.71
147
1.5
172
     1
176
   256
177
   256
178
     2
179
     2
271
     3
272
     3
275
     1
283
     0
284
     8
340
11
341
C0
342
C0
371
    -1
372
    -1
  0
DIMSTYLE
105
C9
330
A
100
AcDbSymbolTableRecord
100
AcDbDimStyleTableRecord
  2
AM_JIS$7
 70
     0
  4
"
 41
2.5
 42
0.0
 43
10.0
 44
1.0
 47
0.1
 48
0.1000000001
 73
     0
 74
     0
 77
     3
 78
     1
 79
     2
140
5.0
141
0.0
143
0.0393701
146
0.71
147
1.5
172
     1
176
   256
177
   256
178
     2
179
     2
271
     3
272
     3
275
     1
283
     0
284
     8
340
11
341
C0
342
C0
371
    -1
372
    -1
  0
DIMSTYLE
105
CA
330
A
100
AcDbSymbolTableRecord
100
AcDbDimStyleTableRecord
  2
AM_JIS$SF
 70
     0
  4
"
 41
2.5
 42
1.0
 43
10.0
 44
1.0
 47
0.1
 48
0.1
 73
     0
 74
     0
 75
     1
 76
     1
 77
     3
 78
     8
 79
     2
140
3.5
141
0.0
143
0.0393701
146
0.71
147
1.5
176
   256
177
   256
178
     2
271
     2
272
     3
274
     4
340
11
341
C0
342
C0
343
C0
344
C0
371
    -1
372
    -1
  0
DIMSTYLE
105
CF
330
A
100
AcDbSymbolTableRecord
100
AcDbDimStyleTableRecord
  2
AM_JIS$SH
 70
     0
  4
"
 41
2.5
 42
1.0
 43
10.0
 44
1.0
 47
0.1
 48
0.1
 73
     0
 74
     0
 75
     1
 76
     1
 77
     3
 78
     8
 79
     2
140
3.5
141
0.0
143
0.0393701
144
2.0
146
0.71
147
1.5
173
     1
176
   256
177
   256
178
     2
271
     2
272
     3
274
     4
340
11
341
C0
342
C0
343
CB
344
C0
371
    -1
372
    -1
  0
DIMSTYLE
105
3282
102
{ACAD_REACTORS
330
2E6C5
330
2E6C9
330
2E6D2
330
2E748
330
2E74B
330
2E825
330
2E837
330
2E8A5
330
2E8F2
102
}
330
A
100
AcDbSymbolTableRecord
100
AcDbDimStyleTableRecord
  2
AM_JIS$0
 70
     0
  4
"
 41
2.5
 42
0.0
 43
10.0
 44
1.0
 47
0.1
 48
0.1000000001
 73
     0
 74
     0
 77
     3
 78
     1
 79
     2
140
3.799999999999999
141
0.0
143
0.0393701
146
0.71
147
1.5
172
     1
176
     3
177
     3
178
     2
271
     2
272
     2
275
     1
283
     0
284
     8
289
     0
340
11
341
C0
342
C0
371
    13
372
    13
  0
DIMSTYLE
105
D1E8
330
A
100
AcDbSymbolTableRecord
100
AcDbDimStyleTableRecord
  2
AM_ISO
 70
     0
  4
"
 41
2.5
 42
1.0
 43
10.0
 44
1.0
 47
0.1
 48
0.1
 73
     0
 74
     0
 77
     1
 78
     8
 79
     2
140
3.5
141
0.0
143
0.0393701
146
0.71
147
1.5
172
     1
176
   256
177
   256
178
     2
271
     2
272
     3
274
     4
283
     0
284
     8
340
11
371
    -1
372
    -1
  0
DIMSTYLE
105
D1E9
330
A
100
AcDbSymbolTableRecord
100
AcDbDimStyleTableRecord
  2
AM_ISO$3
 70
     0
  4
"
 41
2.5
 42
1.0
 43
10.0
 44
1.0
 47
0.1
 48
0.1
 73
     0
 77
     1
 78
     8
 79
     2
140
3.5
141
0.0
143
0.0393701
146
0.71
147
1.5
176
   256
177
   256
178
     2
271
     2
272
     3
274
     4
283
     0
284
     8
288
     1
289
     0
340
11
371
    -1
372
    -1
  0
DIMSTYLE
105
D1EA
330
A
100
AcDbSymbolTableRecord
100
AcDbDimStyleTableRecord
  2
AM_ISO$4
 70
     0
  4
"
 41
2.5
 42
1.0
 43
10.0
 44
1.0
 47
0.1
 48
0.1
 73
     0
 77
     1
 78
     8
 79
     2
140
3.5
141
0.0
143
0.0393701
146
0.71
147
1.5
176
   256
177
   256
178
     2
271
     2
272
     3
274
     4
283
     0
284
     8
288
     1
289
     0
340
11
371
    -1
372
    -1
  0
DIMSTYLE
105
D1EB
330
A
100
AcDbSymbolTableRecord
100
AcDbDimStyleTableRecord
  2
AM_ISO$6
 70
     0
  4
"
 41
2.5
 42
1.0
 43
10.0
 44
1.0
 47
0.1
 48
0.1
 73
     0
 74
     0
 78
     8
 79
     2
140
3.5
141
0.0
143
0.0393701
146
0.71
147
1.5
172
     1
176
   256
177
   256
178
     2
271
     2
272
     3
274
     4
283
     0
284
     8
340
11
371
    -1
372
    -1
  0
DIMSTYLE
105
D1EC
330
A
100
AcDbSymbolTableRecord
100
AcDbDimStyleTableRecord
  2
AM_ISO$7
 70
     0
  4
"
 41
2.5
 42
1.0
 43
10.0
 44
1.0
 47
0.1
 48
0.1
 73
     0
 74
     0
 77
     1
 78
     8
 79
     2
140
5.0
141
0.0
143
0.0393701
146
0.71
147
1.5
172
     1
176
   256
177
   256
178
     2
271
     2
272
     3
274
     4
283
     0
284
     8
340
11
371
    -1
372
    -1
  0
DIMSTYLE
105
D1ED
330
A
100
AcDbSymbolTableRecord
100
AcDbDimStyleTableRecord
  2
AM_ISO$SF
 70
     0
  4
"
 41
2.5
 42
1.0
 43
10.0
 44
1.0
 47
0.1
 48
0.1
 73
     0
 74
     0
 75
     1
 76
     1
 77
     1
 78
     8
 79
     2
140
3.5
141
0.0
143
0.0393701
146
0.71
147
1.5
172
     1
176
   256
177
   256
178
     2
271
     2
272
     3
274
     4
283
     0
284
     8
340
11
371
    -1
372
    -1
  0
DIMSTYLE
105
D1EE
330
A
100
AcDbSymbolTableRecord
100
AcDbDimStyleTableRecord
  2
AM_ISO$SH
 70
     0
  4
"
 41
2.5
 42
1.0
 43
10.0
 44
1.0
 47
0.1
 48
0.1
 73
     0
 74
     0
 75
     1
 76
     1
 77
     1
 78
     8
 79
     2
140
3.5
141
0.0
143
0.0393701
144
2.0
146
0.71
147
1.5
172
     1
173
     1
176
   256
177
   256
178
     2
271
     2
272
     3
274
     4
283
     0
284
     8
340
11
343
CB
371
    -1
372
    -1
  0
DIMSTYLE
105
13761
330
A
100
AcDbSymbolTableRecord
100
AcDbDimStyleTableRecord
  2
AM_JIS$2
 70
     0
  4
"
 41
2.5
 42
0.0
 43
10.0
 44
1.0
 47
0.1
 48
0.1000000001
 73
     0
 74
     0
 77
     3
 78
     1
 79
     2
140
3.799999999999999
141
0.0
143
0.0393701
146
0.71
147
1.5
172
     1
176
   256
177
   256
178
     2
179
     2
271
     3
272
     3
275
     1
283
     0
284
     8
340
11
341
C0
342
C0
371
    -1
372
    -1
  0
ENDTAB
  0
TABLE
  2
BLOCK_RECORD
  5
1
330
0
100
AcDbSymbolTable
 70
    68
  0
BLOCK_RECORD
  5
1F
102
{ACAD_XDICTIONARY
360
68
102
}
330
1
100
AcDbSymbolTableRecord
100
AcDbBlockTableRecord
  2
*Model_Space
340
22
  0
BLOCK_RECORD
  5
1B
330
1
100
AcDbSymbolTableRecord
100
AcDbBlockTableRecord
  2
*Paper_Space
340
1E
  0
BLOCK_RECORD
  5
23
330
1
100
AcDbSymbolTableRecord
100
AcDbBlockTableRecord
  2
*Paper_Space0
340
26
  0
BLOCK_RECORD
  5
C0
330
1
100
AcDbSymbolTableRecord
100
AcDbBlockTableRecord
  2
_Open30
340
0
102
{BLKREFS
331
2E124
331
2E125
331
2E148
331
2E149
331
2E210
331
2E211
331
2E219
331
2E21A
331
2E2BC
331
2E2BD
331
2E304
331
2E3DB
331
2E3DC
331
2E40D
331
2E40E
331
2E41F
331
2E420
331
2E431
331
2E432
331
2E440
331
2E5DC
331
2E5D2
331
2E5C7
331
2E5C8
331
2E5B0
331
2E5B1
331
2E5BB
331
2E5BC
331
2E5E7
331
2E5E8
331
2E5F3
331
2E5F4
331
2E601
331
2E602
331
2E79F
331
2E7A6
331
2E7DD
331
2E7DE
331
2E97C
331
2E97D
331
2E988
331
2E989
331
2E994
331
2E995
331
2E9A1
331
2E9A2
331
2E9AD
331
2E9AE
331
2E9B8
331
2E9C3
331
2E9C4
331
2E9D0
331
2E9D1
331
2E9DD
331
2E9DE
331
2E9EB
331
2E9EC
331
2E9FB
331
2E9FC
331
2E949
331
2E94A
331
2E955
331
2E956
331
2E961
331
2E962
331
2E96F
331
2E970
331
2EB25
331
2EB26
331
2EB2E
331
2EB2F
331
2EB37
331
2EB38
331
2EB42
331
2EB43
331
2EB4C
331
2EB4D
331
2EB55
331
2EB56
331
2EB5E
331
2EB5F
331
2EB68
331
2EB69
331
2EB71
331
2EB72
331
2EB79
331
2EB81
331
2EB82
331
2EB8B
331
2EB8C
331
2EB95
331
2EB96
331
2EB9E
331
2EB9F
331
2EBAB
331
2EBAC
331
2EC0E
331
2EC0F
331
2EC17
331
2EC18
331
2EC20
331
2EC21
331
2EC29
331
2EC2A
331
2EC31
331
2EC38
331
2EC43
331
2EC44
331
2EC4B
331
2EC4C
331
2EC8F
331
2EC90
331
2ECFC
331
2ECFD
102
}
  0
BLOCK_RECORD
  5
CB
330
1
100
AcDbSymbolTableRecord
100
AcDbBlockTableRecord
  2
GENAXEH
340
0
  0
BLOCK_RECORD
  5
2E75F
330
1
100
AcDbSymbolTableRecord
100
AcDbBlockTableRecord
  2
*D25
340
0
  0
BLOCK_RECORD
  5
2E769
330
1
100
AcDbSymbolTableRecord
100
AcDbBlockTableRecord
  2
*D26
340
0
  0
BLOCK_RECORD
  5
2E773
330
1
100
AcDbSymbolTableRecord
100
AcDbBlockTableRecord
  2
*D27
340
0
  0
BLOCK_RECORD
  5
2E77D
330
1
100
AcDbSymbolTableRecord
100
AcDbBlockTableRecord
  2
*D28
340
0
  0
BLOCK_RECORD
  5
2E787
330
1
100
AcDbSymbolTableRecord
100
AcDbBlockTableRecord
  2
*D29
340
0
  0
BLOCK_RECORD
  5
2E826
330
1
100
AcDbSymbolTableRecord
100
AcDbBlockTableRecord
  2
*D31
340
0
  0
BLOCK_RECORD
  5
2E838
330
1
100
AcDbSymbolTableRecord
100
AcDbBlockTableRecord
  2
*D32
340
0
  0
BLOCK_RECORD
  5
2E8A6
330
1
100
AcDbSymbolTableRecord
100
AcDbBlockTableRecord
  2
*D33
340
0
  0
BLOCK_RECORD
  5
2E8F3
330
1
100
AcDbSymbolTableRecord
100
AcDbBlockTableRecord
  2
*D34
340
0
  0
ENDTAB
  0
ENDSEC
  0
SECTION
  2
BLOCKS
  0
BLOCK
  5
20
330
1F
100
AcDbEntity
  8
0
100
AcDbBlockBegin
  2
*Model_Space
 70
     0
 10
0.0
 20
0.0
 30
0.0
  3
*Model_Space
  1

  0
ENDBLK
  5
21
330
1F
100
AcDbEntity
  8
0
100
AcDbBlockEnd
  0
BLOCK
  5
1C
330
1B
100
AcDbEntity
 67
     1
  8
0
100
AcDbBlockBegin
  2
*Paper_Space
 70
     0
 10
0.0
 20
0.0
 30
0.0
  3
*Paper_Space
  1

  0
ENDBLK
  5
1D
330
1B
100
AcDbEntity
 67
     1
  8
0
100
AcDbBlockEnd
  0
BLOCK
  5
24
330
23
100
AcDbEntity
  8
0
100
AcDbBlockBegin
  2
*Paper_Space0
 70
     0
 10
0.0
 20
0.0
 30
0.0
  3
*Paper_Space0
  1

  0
VIEWPORT
  5
82
330
23
100
AcDbEntity
  8
0
100
AcDbViewport
 10
5.249999639556163
 20
3.999999883606677
 30
0.0
 40
15.37157224495366
 41
8.992999745766947
 69
     0
 12
5.249999639556163
 22
3.999999883606677
 13
0.0
 23
0.0
 14
10.0
 24
10.0
 15
10.0
 25
10.0
 16
0.0
 26
0.0
 36
1.0
 17
0.0
 27
0.0
 37
0.0
 42
50.0
 43
0.0
 44
0.0
 45
8.992999745766947
 50
0.0
 51
0.0
 72
   100
 90
    32800
  1

281
     0
 71
     1
 74
     0
110
0.0
120
0.0
130
0.0
111
1.0
121
0.0
131
0.0
112
0.0
122
1.0
132
0.0
 79
     0
146
0.0
170
     0
  0
ENDBLK
  5
25
330
23
100
AcDbEntity
  8
0
100
AcDbBlockEnd
  0
BLOCK
  5
C4
330
C0
100
AcDbEntity
  8
0
100
AcDbBlockBegin
  2
_Open30
 70
     0
 10
0.0
 20
0.0
 30
0.0
  3
_Open30
  1

  0
LINE
  5
C1
330
C0
100
AcDbEntity
  8
0
 62
     0
370
    -2
100
AcDbLine
 10
-1.0
 20
0.26794919
 30
0.0
 11
0.0
 21
0.0
 31
0.0
  0
LINE
  5
C2
330
C0
100
AcDbEntity
  8
0
 62
     0
370
    -2
100
AcDbLine
 10
0.0
 20
0.0
 30
0.0
 11
-1.0
 21
-0.26794919
 31
0.0
  0
LINE
  5
C3
330
C0
100
AcDbEntity
  8
0
 62
     0
370
    -2
100
AcDbLine
 10
0.0
 20
0.0
 30
0.0
 11
-1.0
 21
0.0
 31
0.0
  0
ENDBLK
  5
C5
330
C0
100
AcDbEntity
  8
0
100
AcDbBlockEnd
  0
BLOCK
  5
CD
330
CB
100
AcDbEntity
  8
0
100
AcDbBlockBegin
  2
GENAXEH
 70
     0
 10
0.0
 20
0.0
 30
0.0
  3
GENAXEH
  1

  0
LINE
  5
CC
330
CB
100
AcDbEntity
  8
0
100
AcDbLine
 10
-1.0
 20
0.0
 30
0.0
 11
1.0
 21
0.0
 31
0.0
  0
ENDBLK
  5
CE
330
CB
100
AcDbEntity
  8
0
100
AcDbBlockEnd
  0
BLOCK
  5
2E7E7
330
2E75F
100
AcDbEntity
  8
0
100
AcDbBlockBegin
  2
*D25
 70
     1
 10
0.0
 20
0.0
 30
0.0
  3
*D25
  1

  0
LINE
  5
2ECF9
330
2E75F
100
AcDbEntity
  8
AM_5
 62
     3
370
    13
100
AcDbLine
 10
0.0
 20
39.99999618530205
 30
0.0
 11
0.000000000000001
 21
55.61136334096443
 31
0.0
  0
LINE
  5
2ECFA
330
2E75F
100
AcDbEntity
  8
AM_5
 62
     3
370
    13
100
AcDbLine
 10
-50.00001122824494
 20
30.0
 30
0.0
 11
-50.00001122824494
 21
55.61136334096443
 31
0.0
  0
LINE
  5
2ECFB
330
2E75F
100
AcDbEntity
  8
AM_5
 62
     3
370
    13
100
AcDbLine
 10
-2.499999999999999
 20
54.61136334096443
 30
0.0
 11
-47.50001122824494
 21
54.61136334096443
 31
0.0
  0
INSERT
  5
2ECFC
330
2E75F
100
AcDbEntity
  8
AM_5
 62
     3
370
    13
100
AcDbBlockReference
  2
_Open30
 10
0.0000000000000009
 20
54.61136334096443
 30
0.0
 41
2.5
 42
2.5
 43
2.5
  0
INSERT
  5
2ECFD
330
2E75F
100
AcDbEntity
  8
AM_5
 62
     3
370
    13
100
AcDbBlockReference
  2
_Open30
 10
-50.00001122824494
 20
54.61136334096443
 30
0.0
 41
2.5
 42
2.5
 43
2.5
 50
180.0
  0
MTEXT
  5
2ECFE
330
2E75F
100
AcDbEntity
  8
AM_5
 62
     2
100
AcDbMText
 10
-26.86301792254722
 20
58.01136334096443
 30
0.0
 40
3.799999999999999
 41
0.0
 71
     5
 72
     1
  1
50
 73
     1
 44
1.0
  0
POINT
  5
2ECFF
330
2E75F
100
AcDbEntity
  8
Defpoints
 62
     0
100
AcDbPoint
 10
0.0
 20
39.99999618530205
 30
0.0
  0
POINT
  5
2ED00
330
2E75F
100
AcDbEntity
  8
Defpoints
 62
     0
100
AcDbPoint
 10
-50.00001122824494
 20
30.0
 30
0.0
  0
POINT
  5
2ED01
330
2E75F
100
AcDbEntity
  8
Defpoints
 62
     0
100
AcDbPoint
 10
-50.00001122824494
 20
54.61136334096443
 30
0.0
  0
ENDBLK
  5
2E7E8
330
2E75F
100
AcDbEntity
  8
0
100
AcDbBlockEnd
  0
BLOCK
  5
2E7E9
330
2E769
100
AcDbEntity
  8
0
100
AcDbBlockBegin
  2
*D26
 70
     1
 10
0.0
 20
0.0
 30
0.0
  3
*D26
  1

  0
LINE
  5
2EC0B
330
2E769
100
AcDbEntity
  8
AM_5
 62
     3
370
    13
100
AcDbLine
 10
-48.50001122824494
 20
12.69999999999999
 30
0.0
 11
-69.7694998387044
 21
12.69999999999999
 31
0.0
  0
LINE
  5
2EC0C
330
2E769
100
AcDbEntity
  8
AM_5
 62
     3
370
    13
100
AcDbLine
 10
-48.50001122824494
 20
-12.69999999999999
 30
0.0
 11
-69.7694998387044
 21
-12.69999999999998
 31
0.0
  0
LINE
  5
2EC0D
330
2E769
100
AcDbEntity
  8
AM_5
 62
     3
370
    13
100
AcDbLine
 10
-68.7694998387044
 20
10.19999999999999
 30
0.0
 11
-68.7694998387044
 21
-10.19999999999998
 31
0.0
  0
INSERT
  5
2EC0E
330
2E769
100
AcDbEntity
  8
AM_5
 62
     3
370
    13
100
AcDbBlockReference
  2
_Open30
 10
-68.7694998387044
 20
12.69999999999999
 30
0.0
 41
2.5
 42
2.5
 43
2.5
 50
90.0
  0
INSERT
  5
2EC0F
330
2E769
100
AcDbEntity
  8
AM_5
 62
     3
370
    13
100
AcDbBlockReference
  2
_Open30
 10
-68.7694998387044
 20
-12.69999999999998
 30
0.0
 41
2.5
 42
2.5
 43
2.5
 50
270.0
  0
MTEXT
  5
2EC10
330
2E769
100
AcDbEntity
  8
AM_5
 62
     2
100
AcDbMText
 10
-72.16987385445243
 20
0.0198526187745078
 30
0.0
 40
3.799999999999999
 41
0.0
 71
     5
 72
     1
  1
%%c25.4
 11
0.0000000000000001
 21
1.0
 31
0.0
 73
     1
 44
1.0
  0
POINT
  5
2EC11
330
2E769
100
AcDbEntity
  8
Defpoints
 62
     0
100
AcDbPoint
 10
-48.50001122824494
 20
12.69999999999999
 30
0.0
  0
POINT
  5
2EC12
330
2E769
100
AcDbEntity
  8
Defpoints
 62
     0
100
AcDbPoint
 10
-48.50001122824494
 20
-12.69999999999999
 30
0.0
  0
POINT
  5
2EC13
330
2E769
100
AcDbEntity
  8
Defpoints
 62
     0
100
AcDbPoint
 10
-68.7694998387044
 20
-12.69999999999998
 30
0.0
  0
ENDBLK
  5
2E7EA
330
2E769
100
AcDbEntity
  8
0
100
AcDbBlockEnd
  0
BLOCK
  5
2E7EB
330
2E773
100
AcDbEntity
  8
0
100
AcDbBlockBegin
  2
*D27
 70
     1
 10
0.0
 20
0.0
 30
0.0
  3
*D27
  1

  0
LINE
  5
2EC14
330
2E773
100
AcDbEntity
  8
AM_5
 62
     3
370
    13
100
AcDbLine
 10
-50.00001122824492
 20
-30.00000000000011
 30
0.0
 11
-50.00001122824492
 21
-48.55927163715978
 31
0.0
  0
LINE
  5
2EC15
330
2E773
100
AcDbEntity
  8
AM_5
 62
     3
370
    13
100
AcDbLine
 10
-20.00001122825393
 20
-17.5
 30
0.0
 11
-20.00001122825393
 21
-48.55927163715978
 31
0.0
  0
LINE
  5
2EC16
330
2E773
100
AcDbEntity
  8
AM_5
 62
     3
370
    13
100
AcDbLine
 10
-47.50001122824492
 20
-47.55927163715978
 30
0.0
 11
-22.50001122825393
 21
-47.55927163715978
 31
0.0
  0
INSERT
  5
2EC17
330
2E773
100
AcDbEntity
  8
AM_5
 62
     3
370
    13
100
AcDbBlockReference
  2
_Open30
 10
-50.00001122824492
 20
-47.55927163715978
 30
0.0
 41
2.5
 42
2.5
 43
2.5
 50
180.0
  0
INSERT
  5
2EC18
330
2E773
100
AcDbEntity
  8
AM_5
 62
     3
370
    13
100
AcDbBlockReference
  2
_Open30
 10
-20.00001122825393
 20
-47.55927163715978
 30
0.0
 41
2.5
 42
2.5
 43
2.5
  0
MTEXT
  5
2EC19
330
2E773
100
AcDbEntity
  8
AM_5
 62
     2
100
AcDbMText
 10
-34.90721619221358
 20
-44.15927163715978
 30
0.0
 40
3.799999999999999
 41
0.0
 71
     5
 72
     1
  1
30
 73
     1
 44
1.0
  0
POINT
  5
2EC1A
330
2E773
100
AcDbEntity
  8
Defpoints
 62
     0
100
AcDbPoint
 10
-50.00001122824492
 20
-30.00000000000011
 30
0.0
  0
POINT
  5
2EC1B
330
2E773
100
AcDbEntity
  8
Defpoints
 62
     0
100
AcDbPoint
 10
-20.00001122825393
 20
-17.5
 30
0.0
  0
POINT
  5
2EC1C
330
2E773
100
AcDbEntity
  8
Defpoints
 62
     0
100
AcDbPoint
 10
-20.00001122825393
 20
-47.55927163715978
 30
0.0
  0
ENDBLK
  5
2E7EC
330
2E773
100
AcDbEntity
  8
0
100
AcDbBlockEnd
  0
BLOCK
  5
2E7ED
330
2E77D
100
AcDbEntity
  8
0
100
AcDbBlockBegin
  2
*D28
 70
     1
 10
0.0
 20
0.0
 30
0.0
  3
*D28
  1

  0
LINE
  5
2EC1D
330
2E77D
100
AcDbEntity
  8
AM_5
 62
     3
370
    13
100
AcDbLine
 10
-3.000011228253924
 20
17.5
 30
0.0
 11
16.04100336612675
 21
17.5
 31
0.0
  0
LINE
  5
2EC1E
330
2E77D
100
AcDbEntity
  8
AM_5
 62
     3
370
    13
100
AcDbLine
 10
-3.000011228253924
 20
-17.5
 30
0.0
 11
16.04100336612674
 21
-17.5
 31
0.0
  0
LINE
  5
2EC1F
330
2E77D
100
AcDbEntity
  8
AM_5
 62
     3
370
    13
100
AcDbLine
 10
15.04100336612675
 20
15.0
 30
0.0
 11
15.04100336612674
 21
-15.0
 31
0.0
  0
INSERT
  5
2EC20
330
2E77D
100
AcDbEntity
  8
AM_5
 62
     3
370
    13
100
AcDbBlockReference
  2
_Open30
 10
15.04100336612675
 20
17.5
 30
0.0
 41
2.5
 42
2.5
 43
2.5
 50
90.0
  0
INSERT
  5
2EC21
330
2E77D
100
AcDbEntity
  8
AM_5
 62
     3
370
    13
100
AcDbBlockReference
  2
_Open30
 10
15.04100336612674
 20
-17.5
 30
0.0
 41
2.5
 42
2.5
 43
2.5
 50
270.0
  0
MTEXT
  5
2EC22
330
2E77D
100
AcDbEntity
  8
AM_5
 62
     2
100
AcDbMText
 10
11.64100336612674
 20
-0.0000000000000005
 30
0.0
 40
3.799999999999999
 41
0.0
 71
     5
 72
     1
  1
%%c35
 11
0.0000000000000001
 21
1.0
 31
0.0
 73
     1
 44
1.0
  0
POINT
  5
2EC23
330
2E77D
100
AcDbEntity
  8
Defpoints
 62
     0
100
AcDbPoint
 10
-3.000011228253924
 20
17.5
 30
0.0
  0
POINT
  5
2EC24
330
2E77D
100
AcDbEntity
  8
Defpoints
 62
     0
100
AcDbPoint
 10
-3.000011228253924
 20
-17.5
 30
0.0
  0
POINT
  5
2EC25
330
2E77D
100
AcDbEntity
  8
Defpoints
 62
     0
100
AcDbPoint
 10
15.04100336612674
 20
-17.5
 30
0.0
  0
ENDBLK
  5
2E7EE
330
2E77D
100
AcDbEntity
  8
0
100
AcDbBlockEnd
  0
BLOCK
  5
2E7EF
330
2E787
100
AcDbEntity
  8
0
100
AcDbBlockBegin
  2
*D29
 70
     1
 10
0.0
 20
0.0
 30
0.0
  3
*D29
  1

  0
LINE
  5
2EC26
330
2E787
100
AcDbEntity
  8
AM_5
 62
     3
370
    13
100
AcDbLine
 10
-50.00001122824494
 20
30.0
 30
0.0
 11
-78.88287534970072
 21
30.00000000000001
 31
0.0
  0
LINE
  5
2EC27
330
2E787
100
AcDbEntity
  8
AM_5
 62
     3
370
    13
100
AcDbLine
 10
-50.00001122824492
 20
-30.00000000000011
 30
0.0
 11
-78.88287534970072
 21
-30.00000000000011
 31
0.0
  0
LINE
  5
2EC28
330
2E787
100
AcDbEntity
  8
AM_5
 62
     3
370
    13
100
AcDbLine
 10
-77.88287534970073
 20
27.50000000000001
 30
0.0
 11
-77.88287534970073
 21
-27.50000000000011
 31
0.0
  0
INSERT
  5
2EC29
330
2E787
100
AcDbEntity
  8
AM_5
 62
     3
370
    13
100
AcDbBlockReference
  2
_Open30
 10
-77.88287534970073
 20
30.00000000000001
 30
0.0
 41
2.5
 42
2.5
 43
2.5
 50
90.0
  0
INSERT
  5
2EC2A
330
2E787
100
AcDbEntity
  8
AM_5
 62
     3
370
    13
100
AcDbBlockReference
  2
_Open30
 10
-77.88287534970073
 20
-30.00000000000011
 30
0.0
 41
2.5
 42
2.5
 43
2.5
 50
270.0
  0
MTEXT
  5
2EC2B
330
2E787
100
AcDbEntity
  8
AM_5
 62
     2
100
AcDbMText
 10
-81.28287534970073
 20
-0.2693007198586197
 30
0.0
 40
3.799999999999999
 41
0.0
 71
     5
 72
     1
  1
%%c60
 11
0.0000000000000001
 21
1.0
 31
0.0
 73
     1
 44
1.0
  0
POINT
  5
2EC2C
330
2E787
100
AcDbEntity
  8
Defpoints
 62
     0
100
AcDbPoint
 10
-50.00001122824494
 20
30.0
 30
0.0
  0
POINT
  5
2EC2D
330
2E787
100
AcDbEntity
  8
Defpoints
 62
     0
100
AcDbPoint
 10
-50.00001122824492
 20
-30.00000000000011
 30
0.0
  0
POINT
  5
2EC2E
330
2E787
100
AcDbEntity
  8
Defpoints
 62
     0
100
AcDbPoint
 10
-77.88287534970073
 20
-30.00000000000011
 30
0.0
  0
ENDBLK
  5
2E7F0
330
2E787
100
AcDbEntity
  8
0
100
AcDbBlockEnd
  0
BLOCK
  5
2E84D
330
2E826
100
AcDbEntity
  8
0
100
AcDbBlockBegin
  2
*D31
 70
     1
 10
0.0
 20
0.0
 30
0.0
  3
*D31
  1

  0
LINE
  5
2EC2F
330
2E826
100
AcDbEntity
  8
AM_5
 62
     3
370
    13
100
AcDbLine
 10
0.0
 20
40.0
 30
0.0
 11
26.04100336612674
 21
40.0
 31
0.0
  0
LINE
  5
2EC30
330
2E826
100
AcDbEntity
  8
AM_5
 62
     3
370
    13
100
AcDbLine
 10
25.04100336612675
 20
37.5
 30
0.0
 11
25.04100336612674
 21
-5.30149606299213
 31
0.0
  0
INSERT
  5
2EC31
330
2E826
100
AcDbEntity
  8
AM_5
 62
     3
370
    13
100
AcDbBlockReference
  2
_Open30
 10
25.04100336612675
 20
40.0
 30
0.0
 41
2.5
 42
2.5
 43
2.5
 50
90.0
  0
MTEXT
  5
2EC32
330
2E826
100
AcDbEntity
  8
AM_5
 62
     2
100
AcDbMText
 10
21.64100336612674
 20
-0.0000000000000011
 30
0.0
 40
3.799999999999999
 41
0.0
 71
     5
 72
     1
  1
%%c80
 11
0.0000000000000001
 21
1.0
 31
0.0
 73
     1
 44
1.0
  0
POINT
  5
2EC33
330
2E826
100
AcDbEntity
  8
Defpoints
 62
     0
100
AcDbPoint
 10
3.123894581364993
 20
-40.0
 30
0.0
  0
POINT
  5
2EC34
330
2E826
100
AcDbEntity
  8
Defpoints
 62
     0
100
AcDbPoint
 10
0.0
 20
40.0
 30
0.0
  0
POINT
  5
2EC35
330
2E826
100
AcDbEntity
  8
Defpoints
 62
     0
100
AcDbPoint
 10
25.04100336612675
 20
40.0
 30
0.0
  0
ENDBLK
  5
2E84E
330
2E826
100
AcDbEntity
  8
0
100
AcDbBlockEnd
  0
BLOCK
  5
2E84F
330
2E838
100
AcDbEntity
  8
0
100
AcDbBlockBegin
  2
*D32
 70
     1
 10
0.0
 20
0.0
 30
0.0
  3
*D32
  1

  0
LINE
  5
2EC36
330
2E838
100
AcDbEntity
  8
AM_5
 62
     3
370
    13
100
AcDbLine
 10
-1.0
 20
40.99999618530205
 30
0.0
 11
36.04100336612674
 21
40.99999618530204
 31
0.0
  0
LINE
  5
2EC37
330
2E838
100
AcDbEntity
  8
AM_5
 62
     3
370
    13
100
AcDbLine
 10
35.04100336612675
 20
38.49999618530205
 30
0.0
 11
35.04100336612674
 21
-5.414112204724417
 31
0.0
  0
INSERT
  5
2EC38
330
2E838
100
AcDbEntity
  8
AM_5
 62
     3
370
    13
100
AcDbBlockReference
  2
_Open30
 10
35.04100336612675
 20
40.99999618530204
 30
0.0
 41
2.5
 42
2.5
 43
2.5
 50
90.0
  0
MTEXT
  5
2EC39
330
2E838
100
AcDbEntity
  8
AM_5
 62
     2
100
AcDbMText
 10
31.64062935037871
 20
-0.0000000000000017
 30
0.0
 40
3.799999999999999
 41
0.0
 71
     5
 72
     1
  1
%%c82
 11
0.0000000000000001
 21
1.0
 31
0.0
 73
     1
 44
1.0
  0
POINT
  5
2EC3A
330
2E838
100
AcDbEntity
  8
Defpoints
 62
     0
100
AcDbPoint
 10
-1.0
 20
-40.99999618530205
 30
0.0
  0
POINT
  5
2EC3B
330
2E838
100
AcDbEntity
  8
Defpoints
 62
     0
100
AcDbPoint
 10
-1.0
 20
40.99999618530205
 30
0.0
  0
POINT
  5
2EC3C
330
2E838
100
AcDbEntity
  8
Defpoints
 62
     0
100
AcDbPoint
 10
35.04100336612675
 20
40.99999618530204
 30
0.0
  0
ENDBLK
  5
2E850
330
2E838
100
AcDbEntity
  8
0
100
AcDbBlockEnd
  0
BLOCK
  5
2E8CB
330
2E8A6
100
AcDbEntity
  8
0
100
AcDbBlockBegin
  2
*D33
 70
     1
 10
0.0
 20
0.0
 30
0.0
  3
*D33
  1

  0
LINE
  5
2EC3D
330
2E8A6
100
AcDbEntity
  8
AM_5
 62
     3
370
    13
100
AcDbLine
 10
-50.00001122824494
 20
-12.69999999999999
 30
0.0
 11
-50.00001122824494
 21
-25.69999999999998
 31
0.0
  0
LINE
  5
2EC3E
330
2E8A6
100
AcDbEntity
  8
AM_5
 62
     3
370
    13
100
AcDbLine
 10
-44.00001122824494
 20
-4.75
 30
0.0
 11
-44.00001122824494
 21
-25.69999999999998
 31
0.0
  0
LINE
  5
2EC3F
330
2E8A6
100
AcDbEntity
  8
AM_5
 62
     3
370
    13
100
AcDbLine
 10
-52.50001122824494
 20
-24.69999999999998
 30
0.0
 11
-55.00001122824494
 21
-24.69999999999998
 31
0.0
  0
LINE
  5
2EC40
330
2E8A6
100
AcDbEntity
  8
AM_5
 62
     3
370
    13
100
AcDbLine
 10
-41.50001122824494
 20
-24.69999999999998
 30
0.0
 11
-39.00001122824495
 21
-24.69999999999998
 31
0.0
  0
MTEXT
  5
2EC41
330
2E8A6
100
AcDbEntity
  8
AM_5
 62
     2
100
AcDbMText
 10
-46.903176868547
 20
-21.52631743007351
 30
0.0
 40
3.799999999999999
 41
0.0
 71
     5
 72
     1
  1
6
 73
     1
 44
1.0
  0
LINE
  5
2EC42
330
2E8A6
100
AcDbEntity
  8
AM_5
 62
     3
370
    13
100
AcDbLine
 10
-50.00001122824494
 20
-24.69999999999998
 30
0.0
 11
-44.00001122824494
 21
-24.69999999999998
 31
0.0
  0
INSERT
  5
2EC43
330
2E8A6
100
AcDbEntity
  8
AM_5
 62
     3
370
    13
100
AcDbBlockReference
  2
_Open30
 10
-50.00001122824494
 20
-24.69999999999998
 30
0.0
 41
2.5
 42
2.5
 43
2.5
  0
INSERT
  5
2EC44
330
2E8A6
100
AcDbEntity
  8
AM_5
 62
     3
370
    13
100
AcDbBlockReference
  2
_Open30
 10
-44.00001122824494
 20
-24.69999999999998
 30
0.0
 41
2.5
 42
2.5
 43
2.5
 50
180.0
  0
POINT
  5
2EC45
330
2E8A6
100
AcDbEntity
  8
Defpoints
 62
     0
100
AcDbPoint
 10
-50.00001122824494
 20
-12.69999999999999
 30
0.0
  0
POINT
  5
2EC46
330
2E8A6
100
AcDbEntity
  8
Defpoints
 62
     0
100
AcDbPoint
 10
-44.00001122824494
 20
-4.75
 30
0.0
  0
POINT
  5
2EC47
330
2E8A6
100
AcDbEntity
  8
Defpoints
 62
     0
100
AcDbPoint
 10
-44.00001122824494
 20
-24.69999999999998
 30
0.0
  0
ENDBLK
  5
2E8CC
330
2E8A6
100
AcDbEntity
  8
0
100
AcDbBlockEnd
  0
BLOCK
  5
2E912
330
2E8F3
100
AcDbEntity
  8
0
100
AcDbBlockBegin
  2
*D34
 70
     1
 10
0.0
 20
0.0
 30
0.0
  3
*D34
  1

  0
LINE
  5
2EC48
330
2E8F3
100
AcDbEntity
  8
AM_5
 62
     3
370
    13
100
AcDbLine
 10
-49.00001122824495
 20
-4.75
 30
0.0
 11
-62.00001122824494
 21
-4.749999999999995
 31
0.0
  0
LINE
  5
2EC49
330
2E8F3
100
AcDbEntity
  8
AM_5
 62
     3
370
    13
100
AcDbLine
 10
-49.00001122824495
 20
4.75
 30
0.0
 11
-62.00001122824494
 21
4.750000000000004
 31
0.0
  0
LINE
  5
2EC4A
330
2E8F3
100
AcDbEntity
  8
AM_5
 62
     3
370
    13
100
AcDbLine
 10
-61.00001122824494
 20
-2.249999999999996
 30
0.0
 11
-61.00001122824494
 21
2.250000000000003
 31
0.0
  0
INSERT
  5
2EC4B
330
2E8F3
100
AcDbEntity
  8
AM_5
 62
     3
370
    13
100
AcDbBlockReference
  2
_Open30
 10
-61.00001122824494
 20
-4.749999999999996
 30
0.0
 41
2.5
 42
2.5
 43
2.5
 50
270.0
  0
INSERT
  5
2EC4C
330
2E8F3
100
AcDbEntity
  8
AM_5
 62
     3
370
    13
100
AcDbBlockReference
  2
_Open30
 10
-61.00001122824494
 20
4.750000000000003
 30
0.0
 41
2.5
 42
2.5
 43
2.5
 50
90.0
  0
MTEXT
  5
2EC4D
330
2E8F3
100
AcDbEntity
  8
AM_5
 62
     2
100
AcDbMText
 10
-64.40001122824494
 20
-0.0000000000000056
 30
0.0
 40
3.799999999999999
 41
0.0
 71
     5
 72
     1
  1
9.5
 11
0.0000000000000001
 21
1.0
 31
0.0
 73
     1
 44
1.0
  0
POINT
  5
2EC4E
330
2E8F3
100
AcDbEntity
  8
Defpoints
 62
     0
100
AcDbPoint
 10
-49.00001122824495
 20
-4.75
 30
0.0
  0
POINT
  5
2EC4F
330
2E8F3
100
AcDbEntity
  8
Defpoints
 62
     0
100
AcDbPoint
 10
-49.00001122824495
 20
4.75
 30
0.0
  0
POINT
  5
2EC50
330
2E8F3
100
AcDbEntity
  8
Defpoints
 62
     0
100
AcDbPoint
 10
-61.00001122824494
 20
4.750000000000003
 30
0.0
  0
ENDBLK
  5
2E913
330
2E8F3
100
AcDbEntity
  8
0
100
AcDbBlockEnd
  0
ENDSEC
  0
SECTION
  2
ENTITIES
  0
POINT
  5
2828
330
1F
100
AcDbEntity
  8
AM_0
 60
     1
100
AcDbPoint
 10
0.0
 20
0.0
 30
0.0
  0
MTEXT
  5
362A
330
1F
100
AcDbEntity
  8
AM_4
 62
     2
100
AcDbMText
 10
-11.03999564202677
 20
490.228235239237
 30
0.0
 40
3.149999999999999
 41
0.0
 71
     7
 72
     5
  1

  7
ACJISTS
 73
     1
 44
1.0
  0
MTEXT
  5
4552
330
1F
100
AcDbEntity
  8
AM_0
 62
     2
100
AcDbMText
 10
221.5235905312723
 20
212.2620697838378
 30
0.0
 40
3.149999999999999
 41
0.0
 71
     9
 72
     5
  1

  7
ACJISTS
 73
     1
 44
1.0
  0
MTEXT
  5
4558
330
1F
100
AcDbEntity
  8
AM_0
 62
     2
100
AcDbMText
 10
231.2713826525536
 20
212.1355294243498
 30
0.0
 40
3.149999999999999
 41
0.0
 71
     9
 72
     5
  1

  7
ACJISTS
 73
     1
 44
1.0
  0
TEXT
  5
9FD2
330
1F
100
AcDbEntity
  8
AM_0
100
AcDbText
 10
23.1874418923328
 20
203.3149950206887
 30
0.0
 40
6.0
  1

100
AcDbText
  0
TEXT
  5
1E0EC
330
1F
100
AcDbEntity
  8
AM_0
100
AcDbText
 10
366.5572736391061
 20
83.50926782869851
 30
0.0
 40
4.0
  1

 41
0.8632284874815328
100
AcDbText
  0
TEXT
  5
2D9E9
330
1F
100
AcDbEntity
  8
0
370
    -3
100
AcDbText
 10
-41.65920818798321
 20
-78.52674637031864
 30
0.0
 40
3.799999999999999
  1
RF4080R
  7
ACISOTS
100
AcDbText
  0
ARC
  5
2E6B2
330
1F
100
AcDbEntity
  8
AM_0
 48
0.5
100
AcDbCircle
 10
-5.022605895997003
 20
33.883594512939
 30
0.0
 40
0.4379443228245
100
AcDbArc
 50
270.0003663257334
 51
29.99995643859807
  0
ARC
  5
2E6B3
330
1F
100
AcDbEntity
  8
AM_0
 48
0.5
100
AcDbCircle
 10
-5.022605895997003
 20
33.883594512939
 30
0.0
 40
0.4379443228245
100
AcDbArc
 50
250.0000014924337
 51
50.00000025301527
  0
LINE
  5
2E6B4
330
1F
100
AcDbEntity
  8
AM_0
 48
0.5
100
AcDbLine
 10
0.0000038146970383
 20
37.87310028076104
 30
0.0
 11
-0.8375358581549789
 21
28.29999542236306
 31
0.0
  0
ARC
  5
2E6B5
330
1F
100
AcDbEntity
  8
AM_0
 48
0.5
100
AcDbCircle
 10
-7.677452087402912
 20
33.88361740112305
 30
0.0
 40
0.4379443228245
100
AcDbArc
 50
130.0000013408539
 51
289.9999966863358
  0
ARC
  5
2E6B6
330
1F
100
AcDbEntity
  8
AM_0
 48
0.5
100
AcDbCircle
 10
-7.677452087402912
 20
33.88362503051701
 30
0.0
 40
0.4379443228245
100
AcDbArc
 50
150.0003661741596
 51
269.9999733624863
  0
LINE
  5
2E6B7
330
1F
100
AcDbEntity
  8
AM_0
 48
0.5
100
AcDbLine
 10
-12.70000457763694
 20
31.11124801635708
 30
0.0
 11
-12.70000457763694
 21
35.56967544555607
 31
0.0
  0
LINE
  5
2E6B8
330
1F
100
AcDbEntity
  8
AM_0
 48
0.5
100
AcDbLine
 10
-12.70000457763694
 20
35.56967544555607
 30
0.0
 11
-12.70000457763694
 21
31.11124801635708
 31
0.0
  0
CIRCLE
  5
2E6BA
330
1F
100
AcDbEntity
  8
AM_0
 48
0.5
100
AcDbCircle
 10
-6.349998474122003
 20
34.64999771118107
 30
0.0
 40
3.0
  0
CIRCLE
  5
2E6BB
330
1F
100
AcDbEntity
  8
AM_0
 48
0.5
100
AcDbCircle
 10
-6.349998474122003
 20
34.64999771118107
 30
0.0
 40
3.5
  0
CIRCLE
  5
2E6BC
330
1F
100
AcDbEntity
  8
AM_0
 48
0.5
100
AcDbCircle
 10
-6.349998474122003
 20
34.64999771118107
 30
0.0
 40
3.75
  0
LINE
  5
2E6BF
330
1F
100
AcDbEntity
  8
AM_0
 48
0.5
100
AcDbLine
 10
-37.50002288818393
 20
35.50075531005802
 30
0.0
 11
-37.50002288818393
 21
25.50075912475506
 31
0.0
  0
LINE
  5
2E6C0
330
1F
100
AcDbEntity
  8
AM_0
100
AcDbLine
 10
-49.00001122824495
 20
39.00000000000011
 30
0.0
 11
-49.00001122824495
 21
31.0
 31
0.0
  0
LINE
  5
2E6C1
330
1F
100
AcDbEntity
  8
AM_0
 48
0.5
100
AcDbLine
 10
-43.50002288818394
 20
35.50075531005802
 30
0.0
 11
-43.50002288818394
 21
25.50075912475506
 31
0.0
  0
LINE
  5
2E6C2
330
1F
100
AcDbEntity
  8
AM_0
 48
0.5
100
AcDbLine
 10
-32.99999237060593
 20
39.41250991821301
 30
0.0
 11
-32.99999237060593
 21
33.04854965209904
 31
0.0
  0
DIMENSION
  5
2E6C5
330
1F
100
AcDbEntity
  8
AM_5
100
AcDbDimension
  2
*D25
 10
-50.00001122824494
 20
54.61136334096443
 30
0.0
 11
-26.86301792254722
 21
54.61136334096443
 31
0.0
 70
   160
  1
<>
 71
     5
 42
50.00001122824494
  3
AM_JIS$0
100
AcDbAlignedDimension
 13
0.0
 23
39.99999618530205
 33
0.0
 14
-50.00001122824494
 24
30.0
 34
0.0
 50
180.0
100
AcDbRotatedDimension
1001
GENIUS_GENDTOL_13
1000

1000
h7
1000

1040
0.0
1001
ACAD
1000
DSTYLE
1002
{
1070
   271
1070
     0
1002
}
  0
SPLINE
  5
2E6C6
330
1F
100
AcDbEntity
  8
AM_0
 48
0.5
100
AcDbSpline
210
0.0
220
0.0
230
1.0
 70
     8
 71
     3
 72
    11
 73
     7
 74
     5
 42
0.0000000001
 43
0.0000000001
 44
0.0000000001
 40
0.0
 40
0.0
 40
0.0
 40
0.0
 40
0.304924930852881
 40
1.01719575741809
 40
1.72952716234873
 40
2.034542172127674
 40
2.034542172127674
 40
2.034542172127674
 40
2.034542172127674
 10
-34.00002288818394
 20
31.99999237060501
 30
0.0
 10
-34.09719579142114
 20
31.97007166131952
 30
0.0
 10
-34.42135382150549
 20
31.87025949293099
 30
0.0
 10
-34.99995262040368
 20
31.7991889039449
 30
0.0
 10
-35.57857660548267
 20
31.87027076244632
 30
0.0
 10
-35.90278888951544
 20
31.97007674004379
 30
0.0
 10
-35.99999237060592
 20
32.0
 30
0.0
 11
-34.00002288818394
 21
31.99999237060501
 31
0.0
 11
-34.29299163818394
 21
31.91544342041004
 31
0.0
 11
-34.99993133545002
 21
31.82846069335904
 31
0.0
 11
-35.70693206787201
 21
31.91544342041004
 31
0.0
 11
-35.99999237060592
 21
32.0
 31
0.0
  0
SPLINE
  5
2E6C7
330
1F
100
AcDbEntity
  8
AM_0
 48
0.5
100
AcDbSpline
210
0.0
220
0.0
230
1.0
 70
    11
 71
     3
 72
    11
 73
     7
 74
     5
 42
0.0000000001
 43
0.0000000001
 44
0.0000000001
 40
0.0
 40
0.0
 40
0.0
 40
0.0
 40
1.414159615435533
 40
2.828254493312686
 40
4.242327791344243
 40
5.656508985308202
 40
5.656508985308202
 40
5.656508985308202
 40
5.656508985308202
 10
-35.99999237060592
 20
29.0
 30
0.0
 10
-35.71426897597504
 20
29.49997257075271
 30
0.0
 10
-35.14283526659105
 20
30.49989482445739
 30
0.0
 10
-33.42876683367955
 20
28.99997057307276
 30
0.0
 10
-35.14285379484075
 20
27.50007792756805
 30
0.0
 10
-35.71427224561267
 20
28.50001326024464
 30
0.0
 10
-35.99999237060592
 20
29.0
 30
0.0
 11
-35.99999237060592
 21
29.0
 31
0.0
 11
-34.99999237060592
 21
29.99992370605401
 31
0.0
 11
-34.00011444091797
 21
28.99996948242108
 31
0.0
 11
-34.99999237060592
 21
28.00004577636708
 31
0.0
 11
-35.99999237060592
 21
29.0
 31
0.0
  0
SPLINE
  5
2E6C8
330
1F
100
AcDbEntity
  8
AM_0
 48
0.5
100
AcDbSpline
210
0.0
220
0.0
230
1.0
 70
     8
 71
     3
 72
    11
 73
     7
 74
     5
 42
0.0000000001
 43
0.0000000001
 44
0.0000000001
 40
0.0
 40
0.0
 40
0.0
 40
0.0
 40
0.305012894838467
 40
1.017281858156672
 40
1.729611399998763
 40
2.034565651945667
 40
2.034565651945667
 40
2.034565651945667
 40
2.034565651945667
 10
-35.99999237060592
 20
25.99999618530205
 30
0.0
 10
-35.90278881674143
 20
26.02991703049723
 30
0.0
 10
-35.57859461522391
 20
26.12970931309528
 30
0.0
 10
-34.99997383850521
 20
26.20077602091579
 30
0.0
 10
-34.42136425996974
 20
26.12972975821387
 30
0.0
 10
-34.09717543815324
 20
26.02991727614292
 30
0.0
 10
-33.99999237060593
 20
25.99999618530205
 30
0.0
 11
-35.99999237060592
 21
25.99999618530205
 31
0.0
 11
-35.70693206787201
 21
26.08454513549805
 31
0.0
 11
-34.99999237060592
 21
26.17151260375909
 31
0.0
 11
-34.29299163818394
 21
26.08454513549805
 31
0.0
 11
-33.99999237060593
 21
25.99999618530205
 31
0.0
  0
DIMENSION
  5
2E6C9
330
1F
100
AcDbEntity
  8
AM_5
100
AcDbDimension
  2
*D26
 10
-68.7694998387044
 20
-12.69999999999998
 30
0.0
 11
-68.7694998387044
 21
0.0198526187745074
 31
0.0
 70
   160
  1
%%c<>
 71
     5
 42
25.39999999999998
  3
AM_JIS$0
100
AcDbAlignedDimension
 13
-48.50001122824494
 23
12.69999999999999
 33
0.0
 14
-48.50001122824494
 24
-12.69999999999999
 34
0.0
 50
270.0
100
AcDbRotatedDimension
1001
GENIUS_GENDTOL_13
1000

1000
h7
1000

1040
0.0
1001
ACAD
1000
DSTYLE
1002
{
1070
   271
1070
     1
1002
}
  0
LINE
  5
2E6CB
330
1F
100
AcDbEntity
  8
AM_0
100
AcDbLine
 10
-48.50001122824494
 20
-12.69999999999999
 30
0.0
 11
-48.50001122824494
 21
-7.814817319218661
 31
0.0
  0
LINE
  5
2E6CC
330
1F
100
AcDbEntity
  8
AM_0
100
AcDbLine
 10
-1.500011228253924
 20
23.99999618530205
 30
0.0
 11
-1.500011228253924
 21
-39.00000000000009
 31
0.0
  0
LINE
  5
2E6CD
330
1F
100
AcDbEntity
  8
AM_0
100
AcDbLine
 10
-50.00001122824494
 20
30.0
 30
0.0
 11
-50.00001122824494
 21
-30.00000000000011
 31
0.0
  0
LINE
  5
2E6CE
330
1F
100
AcDbEntity
  8
AM_0
100
AcDbLine
 10
-21.00001122825393
 20
12.69999999999987
 30
0.0
 11
-21.00001122825393
 21
-12.69999999999999
 31
0.0
  0
LINE
  5
2E6D0
330
1F
100
AcDbEntity
  8
AM_0
100
AcDbLine
 10
-20.00001122825393
 20
17.5
 30
0.0
 11
-20.00001122825393
 21
-17.5
 31
0.0
  0
LINE
  5
2E6D1
330
1F
100
AcDbEntity
  8
AM_0
100
AcDbLine
 10
-48.50001122824494
 20
-12.69999999999999
 30
0.0
 11
-21.00001122825393
 21
-12.69999999999999
 31
0.0
  0
DIMENSION
  5
2E6D2
330
1F
100
AcDbEntity
  8
AM_5
100
AcDbDimension
  2
*D27
 10
-20.00001122825393
 20
-47.55927163715978
 30
0.0
 11
-34.90721619221358
 21
-47.55927163715978
 31
0.0
 70
   160
  1
<>
 71
     5
 42
29.99999999999101
  3
AM_JIS$0
100
AcDbAlignedDimension
 13
-50.00001122824492
 23
-30.00000000000011
 33
0.0
 14
-20.00001122825393
 24
-17.5
 34
0.0
100
AcDbRotatedDimension
1001
GENIUS_GENDTOL_13
1000

1000
h7
1000

1040
0.0
1001
ACAD
1000
DSTYLE
1002
{
1070
   271
1070
     0
1002
}
  0
LINE
  5
2E6D3
330
1F
100
AcDbEntity
  8
AM_0
100
AcDbLine
 10
-50.00001122824494
 20
-14.19999999999999
 30
0.0
 11
-48.50001122824494
 21
-12.69999999999999
 31
0.0
  0
LINE
  5
2E6D5
330
1F
100
AcDbEntity
  8
AM_0
100
AcDbLine
 10
-21.00001122825256
 20
-12.69999999999999
 30
0.0
 11
-20.00001122825245
 21
-13.69999999999987
 31
0.0
  0
LINE
  5
2E6D6
330
1F
100
AcDbEntity
  8
AM_0
 48
0.5
100
AcDbLine
 10
-32.99999237060593
 20
30.90000152587902
 30
0.0
 11
-12.92563629150391
 21
30.90000152587902
 31
0.0
  0
LINE
  5
2E6D7
330
1F
100
AcDbEntity
  8
AM_0
 48
0.5
100
AcDbLine
 10
-32.99999237060593
 20
30.25
 30
0.0
 11
-13.32350540161201
 21
30.25
 31
0.0
  0
LINE
  5
2E6D8
330
1F
100
AcDbEntity
  8
AM_0
 48
0.5
100
AcDbLine
 10
-32.99999237060593
 20
28.29999923706009
 30
0.0
 11
-13.01125335693393
 21
28.29999923706009
 31
0.0
  0
LINE
  5
2E6D9
330
1F
100
AcDbEntity
  8
AM_0
100
AcDbLine
 10
-48.50001122824494
 20
12.69999999999999
 30
0.0
 11
-21.00001122825393
 21
12.69999999999993
 31
0.0
  0
LINE
  5
2E6DA
330
1F
100
AcDbEntity
  8
AM_0
100
AcDbLine
 10
-39.50002288818394
 20
23.99999618530205
 30
0.0
 11
-1.099998474122003
 21
23.99999618530205
 31
0.0
  0
LINE
  5
2E6DB
330
1F
100
AcDbEntity
  8
AM_7
100
AcDbLine
 10
2.999988771755056
 20
0.0
 30
0.0
 11
-55.13938325405934
 21
0.0
 31
0.0
1001
GENIUS_GENODEF_13
1002
{
1000
HIER
1070
     0
1002
}
1002
{
1000
MANEDIT
1070
     0
1002
}
1002
{
1000
NOSEL
1070
     0
1002
}
1002
{
1000
BEHIND
1070
     0
1002
}
1002
{
1000
REACTOR
1002
}
1001
GENIUS_GENOBJ-N-CEN_13
1002
{
1000
OWNER
1000
GEN
1002
}
  0
LINE
  5
2E6DC
330
1F
100
AcDbEntity
  8
AM_0
100
AcDbLine
 10
-48.50001122824494
 20
12.69999999999999
 30
0.0
 11
-48.50001122824494
 21
7.814817319218661
 31
0.0
  0
LINE
  5
2E6DD
330
1F
100
AcDbEntity
  8
AM_11
100
AcDbLine
 10
-49.00001122824495
 20
4.75
 30
0.0
 11
-44.00001122824494
 21
4.75
 31
0.0
  0
LINE
  5
2E6DE
330
1F
100
AcDbEntity
  8
AM_11
100
AcDbLine
 10
-49.00001122824495
 20
-4.75
 30
0.0
 11
-44.00001122824494
 21
-4.75
 31
0.0
  0
LINE
  5
2E6DF
330
1F
100
AcDbEntity
  8
AM_11
100
AcDbLine
 10
-50.00001122824494
 20
-5.75
 30
0.0
 11
-49.00001122824495
 21
-4.75
 31
0.0
  0
LINE
  5
2E6E0
330
1F
100
AcDbEntity
  8
AM_11
100
AcDbLine
 10
-50.00001122824494
 20
5.75
 30
0.0
 11
-49.00001122824495
 21
4.75
 31
0.0
  0
LINE
  5
2E6E1
330
1F
100
AcDbEntity
  8
AM_11
100
AcDbLine
 10
-44.00001122824494
 20
4.75
 30
0.0
 11
-44.00001122824494
 21
-4.75
 31
0.0
  0
LINE
  5
2E6E2
330
1F
100
AcDbEntity
  8
AM_0
 62
     3
 48
0.5
370
    13
100
AcDbLine
 10
-48.50002288818394
 20
32.60075378417901
 30
0.0
 11
-44.50002288818393
 21
32.60075378417901
 31
0.0
  0
LINE
  5
2E6E3
330
1F
100
AcDbEntity
  8
AM_0
 48
0.5
100
AcDbLine
 10
-48.50002288818394
 20
33.00075531005802
 30
0.0
 11
-44.50002288818393
 21
33.00075531005802
 31
0.0
  0
LINE
  5
2E6E4
330
1F
100
AcDbEntity
  8
AM_0
 62
     3
 48
0.5
370
    13
100
AcDbLine
 10
-48.50002288818394
 20
28.40074920654308
 30
0.0
 11
-44.50002288818393
 21
28.40074920654308
 31
0.0
  0
LINE
  5
2E6E5
330
1F
100
AcDbEntity
  8
AM_0
 48
0.5
100
AcDbLine
 10
-48.50002288818394
 20
28.00075531005802
 30
0.0
 11
-44.50002288818393
 21
28.00075531005802
 31
0.0
  0
LINE
  5
2E6E6
330
1F
100
AcDbEntity
  8
AM_7
 48
0.5
100
AcDbLine
 10
-54.20632171630893
 20
30.49999237060502
 30
0.0
 11
-36.22942352295002
 21
30.49999237060502
 31
0.0
  0
LINE
  5
2E6E7
330
1F
100
AcDbEntity
  8
AM_0
100
AcDbLine
 10
-50.00001122824494
 20
14.19999999999999
 30
0.0
 11
-48.50001122824494
 21
12.69999999999999
 31
0.0
  0
LINE
  5
2E6E8
330
1F
100
AcDbEntity
  8
AM_0
 48
0.5
100
AcDbLine
 10
-48.50002288818394
 20
33.00075531005802
 30
0.0
 11
-48.50002288818394
 21
28.00075531005802
 31
0.0
  0
LINE
  5
2E6E9
330
1F
100
AcDbEntity
  8
AM_0
100
AcDbLine
 10
-49.00001122824495
 20
31.0
 30
0.0
 11
-50.00001122824494
 21
30.0
 31
0.0
  0
LINE
  5
2E6EA
330
1F
100
AcDbEntity
  8
AM_0
 48
0.5
100
AcDbLine
 10
-35.99999237060592
 20
32.00033569335904
 30
0.0
 11
-36.96410369873092
 21
32.00033569335904
 31
0.0
  0
LINE
  5
2E6EB
330
1F
100
AcDbEntity
  8
AM_0
 48
0.5
100
AcDbLine
 10
-36.96413421630893
 20
26.00019454956009
 30
0.0
 11
-36.00002288818394
 21
26.00019454956009
 31
0.0
  0
LINE
  5
2E6EC
330
1F
100
AcDbEntity
  8
AM_7
 48
0.5
100
AcDbLine
 10
-38.35018157958996
 20
29.0
 30
0.0
 11
-32.173973083497
 21
29.0
 31
0.0
  0
LINE
  5
2E6ED
330
1F
100
AcDbEntity
  8
AM_0
 48
0.5
100
AcDbLine
 10
-36.964012145997
 20
31.99999237060501
 30
0.0
 11
-36.964012145997
 21
25.99999618530205
 31
0.0
  0
LINE
  5
2E6EE
330
1F
100
AcDbEntity
  8
AM_0
 48
0.5
100
AcDbLine
 10
-44.50002288818393
 20
33.00075531005802
 30
0.0
 11
-44.50002288818393
 21
28.00075531005802
 31
0.0
  0
LINE
  5
2E6EF
330
1F
100
AcDbEntity
  8
AM_0
 48
0.5
100
AcDbLine
 10
-43.50002288818394
 20
25.50075912475506
 30
0.0
 11
-37.50002288818393
 21
25.50075912475506
 31
0.0
  0
LINE
  5
2E6F0
330
1F
100
AcDbEntity
  8
AM_0
 48
0.5
100
AcDbLine
 10
-37.50004577636798
 20
27.99999237060502
 30
0.0
 11
-36.96412658691395
 21
26.0
 31
0.0
  0
LINE
  5
2E6F1
330
1F
100
AcDbEntity
  8
AM_0
 48
0.5
100
AcDbLine
 10
-39.50002288818394
 20
25.50075912475506
 30
0.0
 11
-39.50002288818394
 21
23.99999618530205
 31
0.0
  0
LINE
  5
2E6F2
330
1F
100
AcDbEntity
  8
AM_0
 48
0.5
100
AcDbLine
 10
-44.50002288818393
 20
32.50075531005803
 30
0.0
 11
-43.50002288818394
 21
32.50075531005803
 31
0.0
  0
LINE
  5
2E6F3
330
1F
100
AcDbEntity
  8
AM_0
 48
0.5
100
AcDbLine
 10
-44.50002288818393
 20
28.50075531005803
 30
0.0
 11
-43.50002288818394
 21
28.50075531005803
 31
0.0
  0
LINE
  5
2E6F4
330
1F
100
AcDbEntity
  8
AM_0
 48
0.5
100
AcDbLine
 10
-36.96409606933594
 20
31.99999618530205
 30
0.0
 11
-37.5
 21
29.99999618530205
 31
0.0
  0
LINE
  5
2E6F5
330
1F
100
AcDbEntity
  8
AM_0
 48
0.5
100
AcDbLine
 10
-32.99999237060593
 20
23.99999618530205
 30
0.0
 11
-32.99999237060593
 21
32.34144210815407
 31
0.0
  0
LINE
  5
2E6F6
330
1F
100
AcDbEntity
  8
AM_0
 48
0.5
100
AcDbLine
 10
-34.00029754638695
 20
25.99939346313409
 30
0.0
 11
-32.99999237060593
 21
25.99939346313409
 31
0.0
  0
LINE
  5
2E6F7
330
1F
100
AcDbEntity
  8
AM_0
 48
0.5
100
AcDbLine
 10
-32.99999237060593
 20
32.34144210815407
 30
0.0
 11
-32.99999237060593
 21
33.04854965209904
 31
0.0
  0
LINE
  5
2E6F8
330
1F
100
AcDbEntity
  8
AM_0
 48
0.5
100
AcDbLine
 10
-33.00002288818394
 20
31.99938964843705
 30
0.0
 11
-34.00032806396496
 21
31.99938964843705
 31
0.0
  0
ARC
  5
2E6FD
330
1F
100
AcDbEntity
  8
AM_0
 48
0.5
100
AcDbCircle
 10
-11.45000457763694
 20
29.54999923706009
 30
0.0
 40
2.0
100
AcDbArc
 50
172.2319898847644
 51
321.3178073894346
  0
LINE
  5
2E6FE
330
1F
100
AcDbEntity
  8
AM_0
 48
0.5
100
AcDbLine
 10
-11.90000457763693
 20
28.29999923706009
 30
0.0
 11
-0.8375396728519035
 21
28.29999923706009
 31
0.0
  0
LINE
  5
2E6FF
330
1F
100
AcDbEntity
  8
AM_0
 48
0.5
100
AcDbLine
 10
-12.70000457763694
 20
30.90000152587902
 30
0.0
 11
-0.6100692749029122
 21
30.90000152587902
 31
0.0
  0
LINE
  5
2E700
330
1F
100
AcDbEntity
  8
AM_0
 48
0.5
100
AcDbLine
 10
-12.70000457763694
 20
30.25
 30
0.0
 11
-0.6669311523439774
 21
30.25
 31
0.0
  0
LINE
  5
2E70A
330
1F
100
AcDbEntity
  8
AM_0
100
AcDbLine
 10
-21.00001122825393
 20
12.69999999999987
 30
0.0
 11
-20.00001122825393
 21
13.69999999999987
 31
0.0
  0
LINE
  5
2E715
330
1F
100
AcDbEntity
  8
AM_0
 48
0.5
100
AcDbLine
 10
-12.70000457763693
 20
29.09999923706009
 30
0.0
 11
-12.70000457763694
 21
31.11124801635708
 31
0.0
  0
ARC
  5
2E716
330
1F
100
AcDbEntity
  8
AM_0
 48
0.5
100
AcDbCircle
 10
-11.45000457763694
 20
29.54999923706009
 30
0.0
 40
1.9999996423721
100
AcDbArc
 50
128.682198302764
 51
172.2319898847644
  0
LINE
  5
2E718
330
1F
100
AcDbEntity
  8
AM_0
 48
0.5
100
AcDbLine
 10
-5.847606658936001
 20
33.444347381591
 30
0.0
 11
-5.918697357177961
 21
33.04117202758801
 31
0.0
  0
ARC
  5
2E719
330
1F
100
AcDbEntity
  8
AM_0
 48
0.5
100
AcDbCircle
 10
-5.632041931152912
 20
33.40633010864201
 30
0.0
 40
0.2189721614122
100
AcDbArc
 50
69.99999967119624
 51
169.9999933470332
  0
LINE
  5
2E71A
330
1F
100
AcDbEntity
  8
AM_0
 48
0.5
100
AcDbLine
 10
-5.172351837158998
 20
33.47203826904308
 30
0.0
 11
-5.557083129882926
 21
33.61206817626908
 31
0.0
  0
ARC
  5
2E71B
330
1F
100
AcDbEntity
  8
AM_0
 48
0.5
100
AcDbCircle
 10
-7.068077087402912
 20
33.40634536743107
 30
0.0
 40
0.2189721614122
100
AcDbArc
 50
9.999999709090117
 51
109.9999985075663
  0
LINE
  5
2E71C
330
1F
100
AcDbEntity
  8
AM_0
 48
0.5
100
AcDbLine
 10
-7.142925262451967
 20
33.61211776733398
 30
0.0
 11
-7.527656555176008
 21
33.47208404541004
 31
0.0
  0
LINE
  5
2E71D
330
1F
100
AcDbEntity
  8
AM_0
 48
0.5
100
AcDbLine
 10
-6.781211853027912
 20
33.04119110107399
 30
0.0
 11
-6.852310180663948
 21
33.44439315795899
 31
0.0
  0
ARC
  5
2E71E
330
1F
100
AcDbEntity
  8
AM_0
 48
0.5
100
AcDbCircle
 10
-6.350059509277912
 20
33.11722183227505
 30
0.0
 40
0.4379443228245
100
AcDbArc
 50
190.0000066529666
 51
350.0000002909099
  0
LINE
  5
2E71F
330
1F
100
AcDbEntity
  8
AM_0
 48
0.5
100
AcDbLine
 10
-1.099998474122003
 20
28.29999923706009
 30
0.0
 11
-1.099998474122003
 21
23.99999618530205
 31
0.0
  0
LINE
  5
2E721
330
1F
100
AcDbEntity
  8
AM_0
 48
0.5
100
AcDbLine
 10
-32.99999237060593
 20
39.41250991821301
 30
0.0
 11
-12.99999237060592
 21
39.41250991821301
 31
0.0
  0
LINE
  5
2E725
330
1F
100
AcDbEntity
  8
AM_0
 48
0.5
100
AcDbLine
 10
-39.50002288818394
 20
40.00000000000011
 30
0.0
 11
-39.50002288818394
 21
35.50075531005802
 31
0.0
  0
LINE
  5
2E726
330
1F
100
AcDbEntity
  8
AM_0
 48
0.5
100
AcDbLine
 10
-43.50002288818394
 20
35.50075531005802
 30
0.0
 11
-37.50002288818393
 21
35.50075531005802
 31
0.0
  0
LINE
  5
2E727
330
1F
100
AcDbEntity
  8
AM_0
100
AcDbLine
 10
-39.50002288818394
 20
40.00000000000011
 30
0.0
 11
-48.00001122824495
 21
40.00000000000011
 31
0.0
  0
LINE
  5
2E728
330
1F
100
AcDbEntity
  8
AM_0
 48
0.5
100
AcDbLine
 10
-11.90000457763696
 20
40.99999618530205
 30
0.0
 11
-1.0
 21
40.99999618530205
 31
0.0
  0
LINE
  5
2E72C
330
1F
100
AcDbEntity
  8
AM_0
 48
0.5
100
AcDbLine
 10
-12.70000457763694
 20
35.56967544555607
 30
0.0
 11
-12.70000457763696
 21
40.19999618530206
 31
0.0
  0
LINE
  5
2E72D
330
1F
100
AcDbEntity
  8
AM_0
 48
0.5
100
AcDbLine
 10
-12.99999237060592
 20
38.82966995239201
 30
0.0
 11
-12.99999237060592
 21
39.41250991821301
 31
0.0
  0
LINE
  5
2E72E
330
1F
100
AcDbEntity
  8
AM_0
 48
0.5
100
AcDbLine
 10
-12.70000457763694
 20
38.82966995239201
 30
0.0
 11
-12.99999237060592
 21
38.82966995239201
 31
0.0
  0
LINE
  5
2E72F
330
1F
100
AcDbEntity
  8
AM_0
 48
0.5
100
AcDbLine
 10
-12.70000457763694
 20
39.07869338989201
 30
0.0
 11
-12.99999237060592
 21
39.07869338989201
 31
0.0
  0
LINE
  5
2E731
330
1F
100
AcDbEntity
  8
AM_0
 48
0.5
100
AcDbLine
 10
-4.199996948242983
 20
40.99999427795398
 30
0.0
 11
-0.0863304138189278
 21
36.88632583618107
 31
0.0
  0
ARC
  5
2E732
330
1F
100
AcDbEntity
  8
AM_0
 48
0.5
100
AcDbCircle
 10
-7.677452087402912
 20
35.41640090942304
 30
0.0
 40
0.4379443228245
100
AcDbArc
 50
69.99999967119624
 51
230.000008677066
  0
LINE
  5
2E733
330
1F
100
AcDbEntity
  8
AM_0
 48
0.5
100
AcDbLine
 10
-7.959033966064907
 20
34.21912002563408
 30
0.0
 11
-7.645393371581917
 21
34.48229217529308
 31
0.0
  0
LINE
  5
2E734
330
1F
100
AcDbEntity
  8
AM_0
 48
0.5
100
AcDbLine
 10
-7.64537429809593
 20
34.81773376464798
 30
0.0
 11
-7.959011077880973
 21
35.08090591430607
 31
0.0
  0
ARC
  5
2E735
330
1F
100
AcDbEntity
  8
AM_0
 48
0.5
100
AcDbCircle
 10
-7.677452087402912
 20
35.41640090942304
 30
0.0
 40
0.4379443228245
100
AcDbArc
 50
90.0003713346904
 51
209.9999580324544
  0
ARC
  5
2E736
330
1F
100
AcDbEntity
  8
AM_0
 48
0.5
100
AcDbCircle
 10
-4.913963317872003
 20
34.64998245239201
 30
0.0
 40
0.2189721614122
100
AcDbArc
 50
130.0000013408539
 51
230.000008677066
  0
LINE
  5
2E737
330
1F
100
AcDbEntity
  8
AM_0
 48
0.5
100
AcDbLine
 10
-4.741096496581917
 20
35.08092880249001
 30
0.0
 11
-5.054733276367983
 21
34.81775665283203
 31
0.0
  0
LINE
  5
2E738
330
1F
100
AcDbEntity
  8
AM_0
 48
0.5
100
AcDbLine
 10
-5.05475234985397
 20
34.48221969604504
 30
0.0
 11
-4.741115570068927
 21
34.21904754638604
 31
0.0
  0
ARC
  5
2E739
330
1F
100
AcDbEntity
  8
AM_0
 48
0.5
100
AcDbCircle
 10
-5.022605895997003
 20
35.41637039184502
 30
0.0
 40
0.4379443228245
100
AcDbArc
 50
330.0003645802926
 51
109.9999985075663
  0
ARC
  5
2E73A
330
1F
100
AcDbEntity
  8
AM_0
 48
0.5
100
AcDbCircle
 10
-5.022605895997003
 20
35.41637802124001
 30
0.0
 40
0.4379443228245
100
AcDbArc
 50
309.9999997469848
 51
89.99996152334018
  0
LINE
  5
2E73B
330
1F
100
AcDbEntity
  8
AM_0
 48
0.5
100
AcDbLine
 10
-5.918582916259992
 20
36.25883483886708
 30
0.0
 11
-5.847484588622933
 21
35.85562896728504
 31
0.0
  0
ARC
  5
2E73C
330
1F
100
AcDbEntity
  8
AM_0
 48
0.5
100
AcDbCircle
 10
-5.631980895997003
 20
35.89365005493107
 30
0.0
 40
0.2189721614122
100
AcDbArc
 50
190.0000066529666
 51
290.0000003288038
  0
LINE
  5
2E73D
330
1F
100
AcDbEntity
  8
AM_0
 48
0.5
100
AcDbLine
 10
-5.557044982910952
 20
35.68789291381802
 30
0.0
 11
-5.172370910644985
 21
35.82790374755802
 31
0.0
  0
ARC
  5
2E73E
330
1F
100
AcDbEntity
  8
AM_0
 48
0.5
100
AcDbCircle
 10
-7.068016052247003
 20
35.89366531372002
 30
0.0
 40
0.2189721614122
100
AcDbArc
 50
250.0000014924337
 51
350.0000002909099
  0
LINE
  5
2E73F
330
1F
100
AcDbEntity
  8
AM_0
 48
0.5
100
AcDbLine
 10
-7.527675628662905
 20
35.82793426513604
 30
0.0
 11
-7.142940521240916
 21
35.68790054321301
 31
0.0
  0
LINE
  5
2E740
330
1F
100
AcDbEntity
  8
AM_0
 48
0.5
100
AcDbLine
 10
-6.852298736572947
 20
35.855625152588
 30
0.0
 11
-6.781208038330987
 21
36.25879669189408
 31
0.0
  0
ARC
  5
2E741
330
1F
100
AcDbEntity
  8
AM_0
 48
0.5
100
AcDbCircle
 10
-7.786094665527912
 20
34.65001296997002
 30
0.0
 40
0.2189721614122
100
AcDbArc
 50
309.9999997469848
 51
50.00000025301527
  0
ARC
  5
2E742
330
1F
100
AcDbEntity
  8
AM_0
 48
0.5
100
AcDbCircle
 10
-6.349998474122003
 20
36.182773590088
 30
0.0
 40
0.4379443228245
100
AcDbArc
 50
9.999999709090117
 51
169.9999933470332
  0
LINE
  5
2E743
330
1F
100
AcDbEntity
  8
AM_0
 48
0.5
100
AcDbLine
 10
0.0
 20
39.99999618530205
 30
0.0
 11
0.0
 21
37.87310409545899
 31
0.0
  0
LINE
  5
2E744
330
1F
100
AcDbEntity
  8
AM_0
 48
0.5
100
AcDbLine
 10
-1.000003814697947
 20
41.0
 30
0.0
 11
0.0
 21
40.0
 31
0.0
  0
LINE
  5
2E745
330
1F
100
AcDbEntity
  8
AM_0
100
AcDbLine
 10
-3.000011228253924
 20
17.5
 30
0.0
 11
-19.99999237060592
 21
17.5
 31
0.0
  0
LINE
  5
2E746
330
1F
100
AcDbEntity
  8
AM_0
100
AcDbLine
 10
-3.000011228253924
 20
-17.5
 30
0.0
 11
-20.00001122825393
 21
-17.5
 31
0.0
  0
LINE
  5
2E747
330
1F
100
AcDbEntity
  8
AM_0
100
AcDbLine
 10
-3.000011228253924
 20
17.5
 30
0.0
 11
-3.000011228253924
 21
-17.5
 31
0.0
  0
DIMENSION
  5
2E748
330
1F
100
AcDbEntity
  8
AM_5
100
AcDbDimension
  2
*D28
 10
15.04100336612674
 20
-17.5
 30
0.0
 11
11.64100336612674
 21
-0.0000000000000005
 31
0.0
 70
    32
  1
%%c<>
 71
     5
 42
35.0
  3
AM_JIS$0
100
AcDbAlignedDimension
 13
-3.000011228253924
 23
17.5
 33
0.0
 14
-3.000011228253924
 24
-17.5
 34
0.0
 50
90.0
100
AcDbRotatedDimension
1001
GENIUS_GENDTOL_13
1000

1000
h7
1000

1040
0.0
1001
ACAD
1000
DSTYLE
1002
{
1070
   271
1070
     0
1002
}
  0
LINE
  5
2E749
330
1F
100
AcDbEntity
  8
AM_0
100
AcDbLine
 10
-49.00001122824505
 20
-31.0
 30
0.0
 11
-50.00001122824494
 21
-30.00000000000011
 31
0.0
  0
LINE
  5
2E74A
330
1F
100
AcDbEntity
  8
AM_0
100
AcDbLine
 10
-49.00001122824494
 20
-39.00000000000011
 30
0.0
 11
-49.00001122824495
 21
-31.0
 31
0.0
  0
DIMENSION
  5
2E74B
330
1F
100
AcDbEntity
  8
AM_5
100
AcDbDimension
  2
*D29
 10
-77.88287534970073
 20
-30.00000000000011
 30
0.0
 11
-77.88287534970073
 21
-0.2693007198586201
 31
0.0
 70
   160
  1
%%c<>
 71
     5
 42
60.00000000000011
  3
AM_JIS$0
100
AcDbAlignedDimension
 13
-50.00001122824494
 23
30.0
 33
0.0
 14
-50.00001122824492
 24
-30.00000000000011
 34
0.0
 50
270.0
100
AcDbRotatedDimension
1001
GENIUS_GENDTOL_13
1000

1000
h7
1000

1040
0.0
1001
ACAD
1000
DSTYLE
1002
{
1070
   271
1070
     0
1002
}
  0
LINE
  5
2E74D
330
1F
100
AcDbEntity
  8
AM_0
100
AcDbLine
 10
-3.000011228253924
 20
17.5
 30
0.0
 11
-1.500011228253924
 21
19.0
 31
0.0
  0
LINE
  5
2E74E
330
1F
100
AcDbEntity
  8
AM_0
100
AcDbLine
 10
-3.000011228253924
 20
-17.5
 30
0.0
 11
-1.500011228253924
 21
-19.0
 31
0.0
  0
ARC
  5
2E804
330
1F
100
AcDbEntity
  8
AM_0
 48
0.5
100
AcDbCircle
 10
-11.90000457763696
 20
40.19999618530206
 30
0.0
 40
0.8
100
AcDbArc
 50
90.0
 51
180.0
1001
GENIUS_GENOBJ-N-FIL_13
1002
{
1000
OWNER
1000
GEN
1002
}
1001
GENIUS_GENODEF_13
1002
{
1000
HIER
1070
     0
1002
}
1002
{
1000
MANEDIT
1070
     0
1002
}
1002
{
1000
NOSEL
1070
     0
1002
}
1002
{
1000
BEHIND
1070
     0
1002
}
1002
{
1000
OTHER
1070
     0
1002
}
1002
{
1000
REACTOR
1002
}
  0
ARC
  5
2E807
330
1F
100
AcDbEntity
  8
AM_0
 48
0.5
100
AcDbCircle
 10
-11.90000457763693
 20
29.09999923706009
 30
0.0
 40
0.8
100
AcDbArc
 50
180.0
 51
270.0
1001
GENIUS_GENOBJ-N-FIL_13
1002
{
1000
OWNER
1000
GEN
1002
}
1001
GENIUS_GENODEF_13
1002
{
1000
HIER
1070
     0
1002
}
1002
{
1000
MANEDIT
1070
     0
1002
}
1002
{
1000
NOSEL
1070
     0
1002
}
1002
{
1000
BEHIND
1070
     0
1002
}
1002
{
1000
OTHER
1070
     0
1002
}
1002
{
1000
REACTOR
1002
}
  0
DIMENSION
  5
2E825
330
1F
100
AcDbEntity
  8
AM_5
100
AcDbDimension
  2
*D31
 10
25.04100336612675
 20
40.0
 30
0.0
 11
21.64100336612674
 21
-0.0000000000000011
 31
0.0
 70
    32
 71
     5
 42
80.0
  3
AM_JIS$0
100
AcDbAlignedDimension
 13
3.123894581364993
 23
-40.0
 33
0.0
 14
0.0
 24
40.0
 34
0.0
 50
90.0
100
AcDbRotatedDimension
1001
GENIUS_GENOBJ-N-DIM_13
1002
{
1000
OWNER
1000
GEN
1002
}
1001
GENIUS_GENODEF_13
1002
{
1000
HIER
1070
     0
1002
}
1002
{
1000
MANEDIT
1070
     0
1002
}
1002
{
1000
NOSEL
1070
     0
1002
}
1002
{
1000
BEHIND
1070
     0
1002
}
1002
{
1000
OTHER
1070
     0
1002
}
1002
{
1000
REACTOR
1002
}
1001
GENIUS_GENDIM_13
1000
4
1001
ACAD
1000
DSTYLE
1002
{
1070
     3
1000
%%c<>
1070
    75
1070
     1
1070
   271
1070
     0
1070
   272
1070
     1
1070
   281
1070
     1
1002
}
  0
DIMENSION
  5
2E837
330
1F
100
AcDbEntity
  8
AM_5
100
AcDbDimension
  2
*D32
 10
35.04100336612675
 20
40.99999618530204
 30
0.0
 11
31.64062935037871
 21
-0.0000000000000017
 31
0.0
 70
    32
 71
     5
 42
81.9999923706041
  3
AM_JIS$0
100
AcDbAlignedDimension
 13
-1.0
 23
-40.99999618530205
 33
0.0
 14
-1.0
 24
40.99999618530205
 34
0.0
 50
90.0
100
AcDbRotatedDimension
1001
GENIUS_GENODEF_13
1002
{
1000
HIER
1070
     0
1002
}
1002
{
1000
MANEDIT
1070
     0
1002
}
1002
{
1000
NOSEL
1070
     0
1002
}
1002
{
1000
BEHIND
1070
     0
1002
}
1002
{
1000
OTHER
1070
     0
1002
}
1002
{
1000
REACTOR
1002
}
1001
GENIUS_GENOBJ-N-DIM_13
1002
{
1000
OWNER
1000
GEN
1002
}
1001
GENIUS_GENDIM_13
1000
4
1001
ACAD
1000
DSTYLE
1002
{
1070
     3
1000
%%c<>
1070
    75
1070
     1
1070
   271
1070
     0
1070
   272
1070
     1
1070
   281
1070
     1
1002
}
  0
DIMENSION
  5
2E8A5
330
1F
100
AcDbEntity
  8
AM_5
100
AcDbDimension
  2
*D33
 10
-44.00001122824494
 20
-24.69999999999998
 30
0.0
 11
-46.903176868547
 21
-21.52631743007351
 31
0.0
 70
   160
 71
     5
 42
6.0
  3
AM_JIS$0
100
AcDbAlignedDimension
 13
-50.00001122824494
 23
-12.69999999999999
 33
0.0
 14
-44.00001122824494
 24
-4.75
 34
0.0
 50
0.0000000000002036
100
AcDbRotatedDimension
1001
ACAD
1000
DSTYLE
1002
{
1070
   271
1070
     0
1070
   272
1070
     1
1070
   279
1070
     2
1002
}
  0
DIMENSION
  5
2E8F2
330
1F
100
AcDbEntity
  8
AM_5
100
AcDbDimension
  2
*D34
 10
-61.00001122824494
 20
4.750000000000003
 30
0.0
 11
-64.40001122824494
 21
-0.0000000000000056
 31
0.0
 70
    32
 71
     5
 42
9.5
  3
AM_JIS$0
100
AcDbAlignedDimension
 13
-49.00001122824495
 23
-4.75
 33
0.0
 14
-49.00001122824495
 24
4.75
 34
0.0
 50
90.0
100
AcDbRotatedDimension
1001
ACAD
1000
DSTYLE
1002
{
1070
   271
1070
     1
1070
   272
1070
     1
1002
}
  0
LINE
  5
2EBD1
330
1F
100
AcDbEntity
  8
AM_0
100
AcDbLine
 10
-2.500011228253953
 20
-40.00000000000011
 30
0.0
 11
-48.00001122824493
 21
-40.00000000000011
 31
0.0
  0
LINE
  5
2EBD3
330
1F
100
AcDbEntity
  8
AM_0
100
AcDbLine
 10
-1.500011228253953
 20
-39.00000000000011
 30
0.0
 11
-2.500011228253953
 21
-40.00000000000011
 31
0.0
1001
GENIUS_GENFIL_13
1070
     0
1040
1.0
1040
1.0
1040
1.999999999999943
1040
45.00000000000081
1002
{
1002
}
1001
GENIUS_GENODEF_13
1002
{
1000
HIER
1070
     0
1002
}
1002
{
1000
MANEDIT
1070
     0
1002
}
1002
{
1000
NOSEL
1070
     0
1002
}
1002
{
1000
BEHIND
1070
     0
1002
}
1002
{
1000
REACTOR
1002
}
1001
GENIUS_GENOBJ-N-CHA_13
1002
{
1000
OWNER
1000
GEN
1002
}
  0
LINE
  5
2EBE6
330
1F
100
AcDbEntity
  8
AM_0
  6
DASHED
 48
0.5
370
    13
100
AcDbLine
 10
0.0000038146970383
 20
-37.87310028076104
 30
0.0
 11
-0.8375358581549789
 21
-28.29999542236306
 31
0.0
  0
LINE
  5
2EBE7
330
1F
100
AcDbEntity
  8
AM_0
  6
DASHED
 48
0.5
370
    13
100
AcDbLine
 10
-11.90000457763696
 20
-40.99999618530205
 30
0.0
 11
-1.0
 21
-40.99999618530205
 31
0.0
  0
ARC
  5
2EBE8
330
1F
100
AcDbEntity
  8
AM_0
  6
DASHED
 48
0.5
370
    13
100
AcDbCircle
 10
-11.90000457763696
 20
-40.19999618530206
 30
0.0
 40
0.8
100
AcDbArc
 50
180.0
 51
270.0
1001
GENIUS_GENOBJ-N-FIL_13
1002
{
1000
OWNER
1000
GEN
1002
}
1001
GENIUS_GENODEF_13
1002
{
1000
HIER
1070
     0
1002
}
1002
{
1000
MANEDIT
1070
     0
1002
}
1002
{
1000
NOSEL
1070
     0
1002
}
1002
{
1000
BEHIND
1070
     0
1002
}
1002
{
1000
OTHER
1070
     0
1002
}
1002
{
1000
REACTOR
1002
}
  0
LINE
  5
2EBE9
330
1F
100
AcDbEntity
  8
AM_0
  6
DASHED
 48
0.5
370
    13
100
AcDbLine
 10
0.0
 20
-39.99999618530205
 30
0.0
 11
0.0
 21
-37.87310409545899
 31
0.0
  0
LINE
  5
2EBEA
330
1F
100
AcDbEntity
  8
AM_0
  6
DASHED
 48
0.5
370
    13
100
AcDbLine
 10
-1.000003814697947
 20
-41.0
 30
0.0
 11
0.0
 21
-40.0
 31
0.0
  0
LINE
  5
2EBEB
330
1F
100
AcDbEntity
  8
AM_0
  6
DASHED
 48
0.5
370
    13
100
AcDbLine
 10
-1.500011228253939
 20
-28.29999923706009
 30
0.0
 11
-0.8375396728519035
 21
-28.29999923706009
 31
0.0
  0
LINE
  5
2EBEC
330
1F
100
AcDbEntity
  8
AM_0
  6
DASHED
 48
0.5
370
    13
100
AcDbLine
 10
-12.70000457763696
 20
-40.00000000000011
 30
0.0
 11
-12.70000457763696
 21
-40.19999618530206
 31
0.0
  0
LINE
  5
2EBEE
330
1F
100
AcDbEntity
  8
0
  6
ACISOTGB
 62
     3
370
    13
100
AcDbLine
 10
0.0
 20
39.90256284410975
 30
0.0
 11
0.0
 21
-40.0
 31
0.0
  0
LINE
  5
2ECC1
330
1F
100
AcDbEntity
  8
AM_0
100
AcDbLine
 10
-49.00001122824495
 20
39.00000000000011
 30
0.0
 11
-48.00001122824495
 21
40.00000000000011
 31
0.0
1001
GENIUS_GENFIL_13
1070
     0
1040
1.0
1040
1.0
1040
20.0
1040
0.0
1002
{
1002
}
1001
GENIUS_GENODEF_13
1002
{
1000
HIER
1070
     0
1002
}
1002
{
1000
MANEDIT
1070
     0
1002
}
1002
{
1000
NOSEL
1070
     0
1002
}
1002
{
1000
BEHIND
1070
     0
1002
}
1002
{
1000
OTHER
1070
     0
1002
}
1002
{
1000
REACTOR
1002
}
1001
GENIUS_GENOBJ-N-CHA_13
1002
{
1000
OWNER
1000
GEN
1002
}
  0
LINE
  5
2ECF7
330
1F
100
AcDbEntity
  8
AM_0
100
AcDbLine
 10
-49.00001122824494
 20
-39.00000000000011
 30
0.0
 11
-48.00001122824493
 21
-40.00000000000011
 31
0.0
1001
GENIUS_GENFIL_13
1070
     0
1040
1.0
1040
1.0
1040
20.0
1040
0.0
1002
{
1002
}
1001
GENIUS_GENODEF_13
1002
{
1000
HIER
1070
     0
1002
}
1002
{
1000
MANEDIT
1070
     0
1002
}
1002
{
1000
NOSEL
1070
     0
1002
}
1002
{
1000
BEHIND
1070
     0
1002
}
1002
{
1000
OTHER
1070
     0
1002
}
1002
{
1000
REACTOR
1002
}
1001
GENIUS_GENOBJ-N-CHA_13
1002
{
1000
OWNER
1000
GEN
1002
}
  0
VIEWPORT
  5
7D
330
1B
100
AcDbEntity
 67
     1
  8
0
100
AcDbViewport
 10
5.249999639556163
 20
3.999999883606677
 30
0.0
 40
15.37157224495366
 41
8.992999745766947
 68
     1
 69
     1
 12
5.249999639556163
 22
3.999999883606677
 13
0.0
 23
0.0
 14
10.0
 24
10.0
 15
10.0
 25
10.0
 16
0.0
 26
0.0
 36
1.0
 17
0.0
 27
0.0
 37
0.0
 42
50.0
 43
0.0
 44
0.0
 45
8.992999745766947
 50
0.0
 51
0.0
 72
   100
 90
    32800
  1

281
     0
 71
     1
 74
     0
110
0.0
120
0.0
130
0.0
111
1.0
121
0.0
131
0.0
112
0.0
122
1.0
132
0.0
 79
     0
146
0.0
170
     0
  0
ENDSEC
  0
SECTION
  2
OBJECTS
  0
DICTIONARY
  5
C
330
0
100
AcDbDictionary
281
     1
  3
ACAD_COLOR
350
A1A6
  3
ACAD_GROUP
350
D
  3
ACAD_LAYOUT
350
1A
  3
ACAD_MATERIAL
350
A1A5
  3
ACAD_MLINESTYLE
350
17
  3
ACAD_PLOTSETTINGS
350
19
  3
ACAD_PLOTSTYLENAME
350
E
  3
ACAD_TABLESTYLE
350
A1A7
  3
AcDbVariableDictionary
350
4A
  3
AcmDictionary
350
59
  3
AMG
350
41
  3
AMGSNAPSETTINGS
350
AC
  3
ASE_INDEX_DICTIONARY
350
2B45C
  3
FILENAME
350
C195
  3
table_dic_data
350
AC47
  3
ZWKSIZE
350
C197
  0
DICTIONARY
  5
B18B
330
2
100
AcDbDictionary
280
     1
281
     1
  3
ACAD_LAYERFILTERS
360
11EBE
  3
ACAD_LAYERSTATES
360
B18C
  3
ACLYDICTIONARY
360
11EBD
  3
AMLAYER_GROUPCOLORS
360
11EBC
  0
DICTIONARY
  5
68
330
1F
100
AcDbDictionary
280
     1
281
     1
  3
ACAD_SORTENTS
360
ADDD
  0
DICTIONARY
  5
A1A6
102
{ACAD_REACTORS
330
C
102
}
330
C
100
AcDbDictionary
281
     1
  0
DICTIONARY
  5
D
102
{ACAD_REACTORS
330
C
102
}
330
C
100
AcDbDictionary
281
     1
  0
DICTIONARY
  5
1A
102
{ACAD_REACTORS
330
C
102
}
330
C
100
AcDbDictionary
281
     1
  3
Model
350
22
  3
ﾚｲｱｳﾄ1
350
1E
  3
ﾚｲｱｳﾄ2
350
26
  0
DICTIONARY
  5
A1A5
102
{ACAD_REACTORS
330
C
102
}
330
C
100
AcDbDictionary
281
     1
  0
DICTIONARY
  5
17
102
{ACAD_REACTORS
330
C
102
}
330
C
100
AcDbDictionary
281
     1
  3
Standard
350
18
  0
DICTIONARY
  5
19
102
{ACAD_REACTORS
330
C
102
}
330
C
100
AcDbDictionary
281
     1
  0
ACDBDICTIONARYWDFLT
  5
E
102
{ACAD_REACTORS
330
C
102
}
330
C
100
AcDbDictionary
281
     1
  3
Normal
350
F
100
AcDbDictionaryWithDefault
340
F
  0
DICTIONARY
  5
A1A7
102
{ACAD_REACTORS
330
C
102
}
330
C
100
AcDbDictionary
281
     1
  3
Standard
350
A1A8
  0
DICTIONARY
  5
4A
102
{ACAD_REACTORS
330
C
102
}
330
C
100
AcDbDictionary
281
     1
  3
CTABLESTYLE
350
A219
  3
INDEXCTL
350
4B
  0
DICTIONARY
  5
59
102
{ACAD_REACTORS
330
C
102
}
330
C
100
AcDbDictionary
281
     1
  3
AcmStdDictionary
350
15C
  3
AMDTSECTSYM_ARROWCOLOR
350
A202
  0
DICTIONARY
  5
41
102
{ACAD_REACTORS
330
C
102
}
330
C
100
AcDbDictionary
281
     1
  0
DICTIONARY
  5
AC
102
{ACAD_REACTORS
330
C
102
}
330
C
100
AcDbDictionary
281
     1
  0
DICTIONARY
  5
2B45C
102
{ACAD_REACTORS
330
C
102
}
330
C
100
AcDbDictionary
281
     1
  3
ASEBlockHierarchyIndexRecord
350
2B45E
1001
DCO15
1040
1670590618.796
  0
DICTIONARY
  5
C195
102
{ACAD_REACTORS
330
C
102
}
330
C
100
AcDbDictionary
281
     1
  3
FILENAME
350
C196
  0
DICTIONARY
  5
AC47
102
{ACAD_REACTORS
330
C
102
}
330
C
100
AcDbDictionary
281
     1
  3
input_data
350
AC49
  3
table_data
350
AC48
  0
DICTIONARY
  5
C197
102
{ACAD_REACTORS
330
C
102
}
330
C
100
AcDbDictionary
281
     1
  3
ZWKSIZE
350
C198
  0
DICTIONARY
  5
11EBE
102
{ACAD_REACTORS
330
B18B
102
}
330
B18B
100
AcDbDictionary
281
     1
  0
DICTIONARY
  5
B18C
102
{ACAD_REACTORS
330
B18B
102
}
330
B18B
100
AcDbDictionary
281
     1
  0
DICTIONARY
  5
11EBD
102
{ACAD_REACTORS
330
B18B
102
}
330
B18B
100
AcDbDictionary
281
     1
1001
ACAD
1000
<All
  0
DICTIONARY
  5
11EBC
102
{ACAD_REACTORS
330
B18B
102
}
330
B18B
100
AcDbDictionary
280
     1
281
     1
  0
SORTENTSTABLE
  5
ADDD
102
{ACAD_REACTORS
330
68
102
}
330
68
100
AcDbSortentsTable
330
1F
331
2E6D7
  5
2E6D7
331
2E716
  5
2E718
331
2E6DF
  5
2E6DF
331
2E71E
  5
2E71F
331
2E726
  5
2E727
331
2E6E7
  5
2E6E7
331
2E743
  5
2E746
331
2E74B
  5
2E804
331
2EBE7
  5
2EBE9
331
2E72E
  5
2E732
331
2E6B8
  5
2E6B8
331
2E6EF
  5
2E6EF
331
2E736
  5
2E739
331
2E6C0
  5
2E6C0
331
2E6F7
  5
2E6F7
331
2E73E
  5
2E741
331
2E6FF
  5
2E700
331
2E6C8
  5
2E6C8
331
2E6D0
  5
2E6D0
331
2E6D8
  5
2E6D8
331
2E6E0
  5
2E6E0
331
2E71F
  5
2E721
331
2E727
  5
2E728
331
2E744
  5
2E747
331
2EBE8
  5
2EBEA
331
2E6E8
  5
2E6E8
331
2E72F
  5
2E733
331
2E6F0
  5
2E6F0
331
2E737
  5
2E73A
331
2E6C1
  5
2E6C1
331
2E6F8
  5
2E6F8
331
2E73F
  5
2E742
331
2E700
  5
2E70A
331
2828
  5
2C053
331
2ECF7
  5
2EBE6
331
2E6C9
  5
2E6C9
331
2E6D1
  5
2E6D1
331
2E6D9
  5
2E6D9
331
2E718
  5
2E719
331
2E6E1
  5
2E6E1
331
2E745
  5
2E748
331
2E8F2
  5
2EBCF
331
2E74D
  5
2E807
331
2EBD1
  5
2EBD2
331
2EBE9
  5
2EBEB
331
2E728
  5
2E72D
331
2E6B2
  5
2E6B2
331
2E6E9
  5
2E6E9
331
2E6BA
  5
2E6BA
331
2E6F1
  5
2E6F1
331
2E738
  5
2E73B
331
2E6C2
  5
2E6C2
331
4558
  5
2C056
331
2E6D2
  5
2E6D2
331
2E6DA
  5
2E6DA
331
2E719
  5
2E71A
331
2E721
  5
2E722
331
2E6E2
  5
2E6E2
331
2E746
  5
2E749
331
2E74E
  5
2E825
331
2E804
  5
2E72F
331
2EBEA
  5
2EBEC
331
2E6B3
  5
2E6B3
331
2E6EA
  5
2E6EA
331
2E731
  5
2E734
331
2E6BB
  5
2E6BB
331
2E6F2
  5
2E6F2
331
2E739
  5
2E73C
331
2E6CB
  5
2E6CB
331
2E70A
  5
2E715
331
2E6D3
  5
2E6D3
331
2E6DB
  5
2E6DB
331
2E71A
  5
2E71B
331
2E6E3
  5
2E6E3
331
2E747
  5
2E74A
331
2E825
  5
2E837
331
2EBD3
  5
2EBE7
331
362A
  5
2C054
331
2EBEB
  5
2EBEE
331
4552
  5
2C055
331
2E6B4
  5
2E6B4
331
2E6EB
  5
2E6EB
331
2E732
  5
2E735
331
2E6BC
  5
2E6BC
331
2E6F3
  5
2E6F3
331
2E73A
  5
2E73D
331
2E8A5
  5
2E8F2
331
2E6CC
  5
2E6CC
331
2E6DC
  5
2E6DC
331
2E71B
  5
2E71C
331
2E6E4
  5
2E6E4
331
2E740
  5
2E743
331
2E748
  5
2E74B
331
9FD2
  5
2C057
331
2EBEC
  5
2ECC1
331
1E0EC
  5
2C05A
331
2E6B5
  5
2E6B5
331
2E6EC
  5
2E6EC
331
2E733
  5
2E736
331
2E6F4
  5
2E6F4
331
2E73B
  5
2E73E
331
2E6C5
  5
2E6C5
331
2ECC1
  5
2E72C
331
2E6CD
  5
2E6CD
331
2E6D5
  5
2E6D5
331
2E6DD
  5
2E6DD
331
2E71C
  5
2E71D
331
2E6E5
  5
2E6E5
331
2E741
  5
2E744
331
2E749
  5
2E74D
331
2E807
  5
2E6FF
331
2E837
  5
2E8A5
331
2D9E9
  5
2D9E9
331
2E72C
  5
2E72E
331
2E6B6
  5
2E6B6
331
2E6ED
  5
2E6ED
331
2E734
  5
2E737
331
2E6F5
  5
2E6F5
331
2E73C
  5
2E73F
331
2E6C6
  5
2E6C6
331
2E6FD
  5
2E6FD
331
2E6CE
  5
2E6CE
331
2E6D6
  5
2E6D6
331
2E715
  5
2E716
331
2E6DE
  5
2E6DE
331
2E71D
  5
2E71E
331
2E725
  5
2E726
331
2E6E6
  5
2E6E6
331
2E742
  5
2E745
331
2E74A
  5
2E74E
331
2EBE6
  5
2EBE8
331
2EBEE
  5
2ECF7
331
2E72D
  5
2E731
331
2E6B7
  5
2E6B7
331
2E6EE
  5
2E6EE
331
2E735
  5
2E738
331
2E6BF
  5
2E6BF
331
2E6F6
  5
2E6F6
331
2E73D
  5
2E740
331
2E6C7
  5
2E6C7
331
2E6FE
  5
2E6FE
  0
LAYOUT
  5
22
102
{ACAD_REACTORS
330
1A
102
}
330
1A
100
AcDbPlotSettings
  1

  2
SII LP-1010 (C2 VR)2R
  4
A3
  6
AM_VIEW1
 40
5.78908348083496
 41
5.789072036743164
 42
5.7890625
 43
5.789093017578125
 44
296.9259948730469
 45
419.9466552734374
 46
0.0
 47
0.0
 48
0.0
 49
0.0
140
420.0
141
297.0
142
1.0
143
1.040834900816755
 70
 11952
 72
     1
 73
     1
 74
     4
  7
sei_cad.ctb
 75
     0
147
0.9607671679872455
 76
     0
 77
     2
 78
   300
148
0.0
149
0.0
100
AcDbLayout
  1
Model
 70
     1
 71
     0
 10
0.0
 20
0.0
 11
12.0
 21
9.0
 12
0.0
 22
0.0
 32
0.0
 14
0.0
 24
0.0
 34
0.0
 15
0.0
 25
0.0
 35
0.0
146
0.0
 13
0.0
 23
0.0
 33
0.0
 16
1.0
 26
0.0
 36
0.0
 17
0.0
 27
1.0
 37
0.0
 76
     0
330
1F
1001
ACAD_PSEXT
1000
SII LP-1010 (C2 VR)2R
1000
SII LP-1010 (C2 VR)2R
1000
9100
1000

1070
     0
  0
LAYOUT
  5
1E
102
{ACAD_REACTORS
330
1A
102
}
330
1A
100
AcDbPlotSettings
  1

  2
none_device
  4
Letter_(8.50_x_11.00_Inches)
  6

 40
6.349999904632568
 41
6.349999904632568
 42
6.350006103515625
 43
6.350006103515625
 44
215.8999938964844
 45
279.3999938964844
 46
0.0
 47
0.0
 48
0.0
 49
0.0
140
0.0
141
0.0
142
1.0
143
1.0
 70
   688
 72
     0
 73
     1
 74
     5
  7
sei_cad.ctb
 75
    16
147
1.0
 76
     0
 77
     2
 78
   300
148
0.0
149
0.0
100
AcDbLayout
  1
ﾚｲｱｳﾄ1
 70
     0
 71
     1
 10
-0.2500002402958907
 20
-0.2499999962453767
 11
10.74999951940821
 21
8.249999763458731
 12
0.0
 22
0.0
 32
0.0
 14
1.000000000000000E+20
 24
1.000000000000000E+20
 34
1.000000000000000E+20
 15
-1.000000000000000E+20
 25
-1.000000000000000E+20
 35
-1.000000000000000E+20
146
0.0
 13
0.0
 23
0.0
 33
0.0
 16
1.0
 26
0.0
 36
0.0
 17
0.0
 27
1.0
 37
0.0
 76
     0
330
1B
331
7D
  0
LAYOUT
  5
26
102
{ACAD_REACTORS
330
1A
102
}
330
1A
100
AcDbPlotSettings
  1

  2
none_device
  4
Letter_(8.50_x_11.00_Inches)
  6

 40
6.349999904632568
 41
6.349999904632568
 42
6.350006103515625
 43
6.350006103515625
 44
215.8999938964844
 45
279.3999938964844
 46
0.0
 47
0.0
 48
0.0
 49
0.0
140
0.0
141
0.0
142
1.0
143
1.0
 70
   688
 72
     0
 73
     1
 74
     5
  7
sei_cad.ctb
 75
    16
147
1.0
 76
     0
 77
     2
 78
   300
148
0.0
149
0.0
100
AcDbLayout
  1
ﾚｲｱｳﾄ2
 70
     1
 71
     2
 10
-0.2500002402958907
 20
-0.2499999962453767
 11
10.74999951940821
 21
8.249999763458731
 12
0.0
 22
0.0
 32
0.0
 14
1.000000000000000E+20
 24
1.000000000000000E+20
 34
1.000000000000000E+20
 15
-1.000000000000000E+20
 25
-1.000000000000000E+20
 35
-1.000000000000000E+20
146
0.0
 13
0.0
 23
0.0
 33
0.0
 16
1.0
 26
0.0
 36
0.0
 17
0.0
 27
1.0
 37
0.0
 76
     0
330
23
331
82
  0
MLINESTYLE
  5
18
102
{ACAD_REACTORS
330
17
102
}
330
17
100
AcDbMlineStyle
  2
STANDARD
 70
     0
  3

 62
   256
 51
90.0
 52
90.0
 71
     2
 49
0.5
 62
   256
  6
BYLAYER
 49
-0.5
 62
   256
  6
BYLAYER
  0
ACDBPLACEHOLDER
  5
F
102
{ACAD_REACTORS
330
E
102
}
330
E
  0
TABLESTYLE
  5
A1A8
102
{ACAD_REACTORS
330
A1A7
102
}
330
A1A7
100
AcDbTableStyle
  3
Standard
 70
     0
 71
     0
 40
1.5
 41
1.5
280
     0
281
     0
  7
STANDARD
140
4.5
170
     2
 62
     0
 63
     7
283
     0
274
    -2
284
     1
 64
     0
275
    -2
285
     1
 65
     0
276
    -2
286
     1
 66
     0
277
    -2
287
     1
 67
     0
278
    -2
288
     1
 68
     0
279
    -2
289
     1
 69
     0
  7
STANDARD
140
6.0
170
     5
 62
     0
 63
     7
283
     0
274
    -2
284
     1
 64
     0
275
    -2
285
     1
 65
     0
276
    -2
286
     1
 66
     0
277
    -2
287
     1
 67
     0
278
    -2
288
     1
 68
     0
279
    -2
289
     1
 69
     0
  7
STANDARD
140
4.5
170
     5
 62
     0
 63
     7
283
     0
274
    -2
284
     1
 64
     0
275
    -2
285
     1
 65
     0
276
    -2
286
     1
 66
     0
277
    -2
287
     1
 67
     0
278
    -2
288
     1
 68
     0
279
    -2
289
     1
 69
     0
  0
DICTIONARYVAR
  5
A219
102
{ACAD_REACTORS
330
4A
102
}
330
4A
100
DictionaryVariables
280
     0
  1
STANDARD
  0
DICTIONARYVAR
  5
4B
102
{ACAD_REACTORS
330
4A
102
}
330
4A
100
DictionaryVariables
280
     0
  1
1
  0
DICTIONARY
  5
15C
102
{ACAD_REACTORS
330
59
102
}
330
59
100
AcDbDictionary
281
     1
  0
XRECORD
  5
A202
102
{ACAD_REACTORS
330
59
102
}
330
59
100
AcDbXrecord
280
     1
 90
-1023410169
  0
XRECORD
  5
2B45E
102
{ACAD_REACTORS
330
2B45C
102
}
330
2B45C
100
AcDbXrecord
280
     1
330
0
330
0
330
0
330
0
330
0
330
0
330
0
330
0
330
0
330
0
330
0
330
0
330
0
330
0
330
0
330
0
330
0
330
0
330
0
330
0
330
0
330
0
330
0
330
0
330
0
330
0
330
0
330
0
330
0
330
0
330
0
330
0
330
0
330
0
330
0
330
0
330
0
330
0
330
0
330
0
330
0
330
0
330
0
330
0
330
0
330
0
330
0
330
0
330
0
330
0
  0
XRECORD
  5
C196
102
{ACAD_REACTORS
330
C195
102
}
330
C195
100
AcDbXrecord
280
     1
  1
24000425__00___
  0

  0
XRECORD
  5
AC49
102
{ACAD_REACTORS
330
AC47
102
}
330
AC47
100
AcDbXrecord
280
     1
  1
1,,,,,,,,,^M^J2,,,,,,,,,^M^J3,,,,,,,,,^M^J4,,,,,,,,,^M^J5,,,,,,,,,^M^J6,,,,,,,,,^M^J7,,,,,,,,,^M^J8,,,,,,,,,^M^J9,,,,,,,,,^M^J10,,,,,,,,,^M^J11,,,,,,,,,^M^J12,,,,,,,,,^M^J13,,,,,,,,,
  0

  0
XRECORD
  5
AC48
102
{ACAD_REACTORS
330
AC47
102
}
330
AC47
100
AcDbXrecord
280
     1
  1
13,10
  0

  0
XRECORD
  5
C198
102
{ACAD_REACTORS
330
C197
102
}
330
C197
100
AcDbXrecord
280
     1
  1
3
  0

  0
ENDSEC
  0
EOF
