  0
SECTION
  2
HEADER
  9
$ACADVER
  1
AC1018
  9
$ACADMAINTVER
 70
    39
  9
$DWGCODEPAGE
  3
ANSI_936
  9
$CUSTOMPROPERTYTAG
  1
AmdtFileType
  9
$CUSTOMPROPERTY
  1
84
  9
$INSBASE
 10
0.0
 20
0.0
 30
0.0
  9
$EXTMIN
 10
-132.8799541137928
 20
-43.7977076044357
 30
0.0
  9
$EXTMAX
 10
21.92599264153907
 20
34.90999119754434
 30
0.0
  9
$LIMMIN
 10
0.0
 20
0.0
  9
$LIMMAX
 10
420.0
 20
297.0
  9
$ORTHOMODE
 70
     0
  9
$REGENMODE
 70
     1
  9
$FILLMODE
 70
     1
  9
$QTEXTMODE
 70
     0
  9
$MIRRTEXT
 70
     1
  9
$LTSCALE
 40
1.0
  9
$ATTMODE
 70
     1
  9
$TEXTSIZE
 40
3.799999999999999
  9
$TRACEWID
 40
1.0
  9
$TEXTSTYLE
  7
ACISOTS
  9
$CLAYER
  8
AM_3
  9
$CELTYPE
  6
ByLayer
  9
$CECOLOR
 62
   256
  9
$CELTSCALE
 40
1.0
  9
$DISPSILH
 70
     0
  9
$DIMSCALE
 40
1.0
  9
$DIMASZ
 40
2.5
  9
$DIMEXO
 40
0.0
  9
$DIMDLI
 40
10.0
  9
$DIMRND
 40
0.0
  9
$DIMDLE
 40
0.0
  9
$DIMEXE
 40
1.0
  9
$DIMTP
 40
0.1
  9
$DIMTM
 40
0.1000000001
  9
$DIMTXT
 40
3.799999999999999
  9
$DIMCEN
 40
0.0
  9
$DIMTSZ
 40
0.0
  9
$DIMTOL
 70
     0
  9
$DIMLIM
 70
     0
  9
$DIMTIH
 70
     0
  9
$DIMTOH
 70
     0
  9
$DIMSE1
 70
     0
  9
$DIMSE2
 70
     0
  9
$DIMTAD
 70
     3
  9
$DIMZIN
 70
     1
  9
$DIMBLK
  1
Open30
  9
$DIMASO
 70
     1
  9
$DIMSHO
 70
     1
  9
$DIMPOST
  1

  9
$DIMAPOST
  1
"
  9
$DIMALT
 70
     0
  9
$DIMALTD
 70
     2
  9
$DIMALTF
 40
0.0393701
  9
$DIMLFAC
 40
1.0
  9
$DIMTOFL
 70
     1
  9
$DIMTVP
 40
0.0
  9
$DIMTIX
 70
     0
  9
$DIMSOXD
 70
     0
  9
$DIMSAH
 70
     0
  9
$DIMBLK1
  1

  9
$DIMBLK2
  1

  9
$DIMSTYLE
  2
AM_JIS
  9
$DIMCLRD
 70
   256
  9
$DIMCLRE
 70
   256
  9
$DIMCLRT
 70
     2
  9
$DIMTFAC
 40
0.71
  9
$DIMGAP
 40
1.5
  9
$DIMJUST
 70
     0
  9
$DIMSD1
 70
     0
  9
$DIMSD2
 70
     0
  9
$DIMTOLJ
 70
     0
  9
$DIMTZIN
 70
     8
  9
$DIMALTZ
 70
     0
  9
$DIMALTTZ
 70
     0
  9
$DIMUPT
 70
     0
  9
$DIMDEC
 70
     0
  9
$DIMTDEC
 70
     2
  9
$DIMALTU
 70
     2
  9
$DIMALTTD
 70
     2
  9
$DIMTXSTY
  7
STANDARD
  9
$DIMAUNIT
 70
     1
  9
$DIMADEC
 70
     0
  9
$DIMALTRND
 40
0.0
  9
$DIMAZIN
 70
     0
  9
$DIMDSEP
 70
    46
  9
$DIMATFIT
 70
     3
  9
$DIMFRAC
 70
     0
  9
$DIMLDRBLK
  1
Open30
  9
$DIMLUNIT
 70
     2
  9
$DIMLWD
 70
    -1
  9
$DIMLWE
 70
    -1
  9
$DIMTMOVE
 70
     0
  9
$LUNITS
 70
     2
  9
$LUPREC
 70
     2
  9
$SKETCHINC
 40
1.0
  9
$FILLETRAD
 40
0.5
  9
$AUNITS
 70
     0
  9
$AUPREC
 70
     0
  9
$MENU
  1
.
  9
$ELEVATION
 40
0.0
  9
$PELEVATION
 40
0.0
  9
$THICKNESS
 40
0.0
  9
$LIMCHECK
 70
     0
  9
$CHAMFERA
 40
1.0
  9
$CHAMFERB
 40
1.0
  9
$CHAMFERC
 40
20.0
  9
$CHAMFERD
 40
0.0
  9
$SKPOLY
 70
     0
  9
$TDCREATE
 40
2455413.706588172
  9
$TDUCREATE
 40
2455413.373254838
  9
$TDUPDATE
 40
2455538.420931528
  9
$TDUUPDATE
 40
2455538.087598195
  9
$TDINDWG
 40
0.3549192130
  9
$TDUSRTIMER
 40
0.3549192130
  9
$USRTIMER
 70
     1
  9
$ANGBASE
 50
0.0
  9
$ANGDIR
 70
     0
  9
$PDMODE
 70
     0
  9
$PDSIZE
 40
0.0
  9
$PLINEWID
 40
0.0
  9
$SPLFRAME
 70
     0
  9
$SPLINETYPE
 70
     6
  9
$SPLINESEGS
 70
     8
  9
$HANDSEED
  5
192F
  9
$SURFTAB1
 70
     6
  9
$SURFTAB2
 70
     6
  9
$SURFTYPE
 70
     6
  9
$SURFU
 70
     6
  9
$SURFV
 70
     6
  9
$UCSBASE
  2

  9
$UCSNAME
  2

  9
$UCSORG
 10
0.0
 20
0.0
 30
0.0
  9
$UCSXDIR
 10
1.0
 20
0.0
 30
0.0
  9
$UCSYDIR
 10
0.0
 20
1.0
 30
0.0
  9
$UCSORTHOREF
  2

  9
$UCSORTHOVIEW
 70
     0
  9
$UCSORGTOP
 10
0.0
 20
0.0
 30
0.0
  9
$UCSORGBOTTOM
 10
0.0
 20
0.0
 30
0.0
  9
$UCSORGLEFT
 10
0.0
 20
0.0
 30
0.0
  9
$UCSORGRIGHT
 10
0.0
 20
0.0
 30
0.0
  9
$UCSORGFRONT
 10
0.0
 20
0.0
 30
0.0
  9
$UCSORGBACK
 10
0.0
 20
0.0
 30
0.0
  9
$PUCSBASE
  2

  9
$PUCSNAME
  2

  9
$PUCSORG
 10
0.0
 20
0.0
 30
0.0
  9
$PUCSXDIR
 10
1.0
 20
0.0
 30
0.0
  9
$PUCSYDIR
 10
0.0
 20
1.0
 30
0.0
  9
$PUCSORTHOREF
  2

  9
$PUCSORTHOVIEW
 70
     0
  9
$PUCSORGTOP
 10
0.0
 20
0.0
 30
0.0
  9
$PUCSORGBOTTOM
 10
0.0
 20
0.0
 30
0.0
  9
$PUCSORGLEFT
 10
0.0
 20
0.0
 30
0.0
  9
$PUCSORGRIGHT
 10
0.0
 20
0.0
 30
0.0
  9
$PUCSORGFRONT
 10
0.0
 20
0.0
 30
0.0
  9
$PUCSORGBACK
 10
0.0
 20
0.0
 30
0.0
  9
$USERI1
 70
     0
  9
$USERI2
 70
     0
  9
$USERI3
 70
     0
  9
$USERI4
 70
     0
  9
$USERI5
 70
     0
  9
$USERR1
 40
0.0
  9
$USERR2
 40
0.0
  9
$USERR3
 40
0.0
  9
$USERR4
 40
0.0
  9
$USERR5
 40
0.0
  9
$WORLDVIEW
 70
     1
  9
$SHADEDGE
 70
     3
  9
$SHADEDIF
 70
    70
  9
$TILEMODE
 70
     1
  9
$MAXACTVP
 70
    64
  9
$PINSBASE
 10
0.0
 20
0.0
 30
0.0
  9
$PLIMCHECK
 70
     0
  9
$PEXTMIN
 10
1.000000000000000E+20
 20
1.000000000000000E+20
 30
1.000000000000000E+20
  9
$PEXTMAX
 10
-1.000000000000000E+20
 20
-1.000000000000000E+20
 30
-1.000000000000000E+20
  9
$PLIMMIN
 10
0.0
 20
0.0
  9
$PLIMMAX
 10
420.0
 20
297.0
  9
$UNITMODE
 70
     0
  9
$VISRETAIN
 70
     1
  9
$PLINEGEN
 70
     0
  9
$PSLTSCALE
 70
     1
  9
$TREEDEPTH
 70
  3020
  9
$CMLSTYLE
  2
Standard
  9
$CMLJUST
 70
     0
  9
$CMLSCALE
 40
20.0
  9
$PROXYGRAPHICS
 70
     1
  9
$MEASUREMENT
 70
     1
  9
$CELWEIGHT
370
    -1
  9
$ENDCAPS
280
     0
  9
$JOINSTYLE
280
     0
  9
$LWDISPLAY
290
     0
  9
$INSUNITS
 70
     4
  9
$HYPERLINKBASE
  1

  9
$STYLESHEET
  1

  9
$XEDIT
290
     1
  9
$CEPSNTYPE
380
     0
  9
$PSTYLEMODE
290
     1
  9
$FINGERPRINTGUID
  2
{4EF443E9-F763-4CB6-8927-D1E34FDC1C5A}
  9
$VERSIONGUID
  2
{A1541D80-95E8-4B6C-B544-7849D21A82FC}
  9
$EXTNAMES
290
     1
  9
$PSVPSCALE
 40
0.0
  9
$OLESTARTUP
290
     0
  9
$SORTENTS
280
   127
  9
$INDEXCTL
280
     0
  9
$HIDETEXT
280
     0
  9
$XCLIPFRAME
290
     0
  9
$HALOGAP
280
     0
  9
$OBSCOLOR
 70
   257
  9
$OBSLTYPE
280
     0
  9
$INTERSECTIONDISPLAY
280
     0
  9
$INTERSECTIONCOLOR
 70
   257
  9
$DIMASSOC
280
     2
  9
$PROJECTNAME
  1

  0
ENDSEC
  0
SECTION
  2
CLASSES
  0
CLASS
  1
ACDBDICTIONARYWDFLT
  2
AcDbDictionaryWithDefault
  3
ObjectDBX Classes
 90
        0
 91
        1
280
     0
281
     0
  0
CLASS
  1
ACME_DOCUMENT
  2
AcMeDbDoc
  3
AcMeServices
 90
        0
 91
        2
280
     0
281
     0
  0
CLASS
  1
AMGSETTINGSOBJ
  2
AmgSettingsObj
  3
"AcadM|Product Description: AutoCAD Mechanical 2000|Company: Autodesk"
 90
        0
 91
        4
280
     0
281
     0
  0
CLASS
  1
ACMESCOPE
  2
AcMeScope
  3
AcMeServices
 90
        0
 91
        1
280
     0
281
     0
  0
CLASS
  1
ACMECOMMANDHISTORY
  2
AcMeCommandHistory
  3
AcMeServices
 90
        0
 91
        1
280
     0
281
     0
  0
CLASS
  1
ACIMSYSVARMAN
  2
AcImSysVarManager
  3
AcMeServices
 90
        0
 91
        5
280
     0
281
     0
  0
CLASS
  1
ACIMREALSYSVAR
  2
AcImRealSysVar
  3
AcMeServices
 90
        0
 91
        3
280
     0
281
     0
  0
CLASS
  1
ACIMINTSYSVAR
  2
AcImIntSysVar
  3
AcMeServices
 90
        0
 91
       27
280
     0
281
     0
  0
CLASS
  1
ACMEDRAWINGMAN
  2
AcMeDrawingMan
  3
AcMeServices
 90
        0
 91
        1
280
     0
281
     0
  0
CLASS
  1
ACMEVIEW
  2
AcMeView
  3
AcMeServices
 90
        0
 91
        1
280
     0
281
     0
  0
CLASS
  1
ACDBENTITYCACHE
  2
AcMeEntityCache
  3
AcMeServices
 90
        0
 91
        1
280
     0
281
     0
  0
CLASS
  1
GSMANAGER
  2
AcMeGSManager
  3
AcMeServices
 90
        0
 91
        1
280
     0
281
     0
  0
CLASS
  1
AMDTINTERNALREACTOR
  2
AmdtInternalReactor
  3
AcMeServices
 90
        0
 91
        2
280
     0
281
     0
  0
CLASS
  1
ACMESTATEMGR
  2
AcMeStateMgr
  3
AcMeServices
 90
        0
 91
        1
280
     0
281
     0
  0
CLASS
  1
ACGREFMASTER
  2
AcGrefMaster
  3
AcAttribServices
 90
        0
 91
        1
280
     0
281
     0
  0
CLASS
  1
ACME_DATABASE
  2
AcMeDbDatabase
  3
AcMeServices
 90
        0
 91
        1
280
     0
281
     0
  0
CLASS
  1
ACRFINSADJUSTERMGR
  2
AcRfInsAdjusterMgr
  3
AcMeServices
 90
        0
 91
        1
280
     0
281
     0
  0
CLASS
  1
ACGREFACADMASTER
  2
AcGrefacadMaster
  3
AcGrefServices
 90
        0
 91
        1
280
     0
281
     0
  0
CLASS
  1
AMIMASTER
  2
AmiMaster
  3
AmiServices
 90
        0
 91
        1
280
     0
281
     0
  0
CLASS
  1
ACMDATADICTIONARY
  2
AcmDataDictionary
  3
"AcmSymBB|Product Description: AutoCAD Mechanical 2004 DX|Company: Autodesk"
 90
        0
 91
        1
280
     0
281
     0
  0
CLASS
  1
ACMDATAENTRYBLOCK
  2
AcmDataEntryBlock
  3
"AcmSymBB|Product Description: AutoCAD Mechanical 2004 DX|Company: Autodesk"
 90
        0
 91
        1
280
     0
281
     0
  0
CLASS
  1
ACIMSTRSYSVAR
  2
AcImStrSysVar
  3
AcMeServices
 90
        0
 91
        5
280
     0
281
     0
  0
CLASS
  1
ACMSTANDARDISO
  2
AcmStandardISO
  3
"Amdt_StdImp|Product Description: AutoCAD Mechanical 2004 DX|Company: Autodesk"
 90
        0
 91
        1
280
     0
281
     0
  0
CLASS
  1
AMGOBJPROPCFG
  2
AmgObjPropCfg
  3
"AmgLay|Product Description: AutoCAD Mechanical 2000|Company: Autodesk"
 90
        1
 91
        1
280
     0
281
     0
  0
CLASS
  1
AMDTEDGESTANDARDISO
  2
AmdtEdgeStdISO
  3
"Amdt_StdImp|Product Description: AutoCAD Mechanical 2004 DX|Company: Autodesk"
 90
        0
 91
        1
280
     0
281
     0
  0
CLASS
  1
ACMSURFSTANDARDISO
  2
AcmSurfTextStdISO
  3
"Amdt_StdImp|Product Description: AutoCAD Mechanical 2004 DX|Company: Autodesk"
 90
        0
 91
        1
280
     0
281
     0
  0
CLASS
  1
ACMFCFSTANDARDISO
  2
AcmFCFStdISO
  3
"Amdt_StdImp|Product Description: AutoCAD Mechanical 2004 DX|Company: Autodesk"
 90
        0
 91
        1
280
     0
281
     0
  0
CLASS
  1
ACMWELDSTANDARDISO
  2
AcmWeldingStdISO
  3
"Amdt_StdImp|Product Description: AutoCAD Mechanical 2004 DX|Company: Autodesk"
 90
        0
 91
        1
280
     0
281
     0
  0
CLASS
  1
ACMIDSTANDARDISO
  2
AcmIdStdISO
  3
"Amdt_StdImp|Product Description: AutoCAD Mechanical 2004 DX|Company: Autodesk"
 90
        0
 91
        1
280
     0
281
     0
  0
CLASS
  1
ACMDATUMSTANDARDISO
  2
AcmDatumStdISO
  3
"Amdt_StdImp|Product Description: AutoCAD Mechanical 2004 DX|Company: Autodesk"
 90
        0
 91
        1
280
     0
281
     0
  0
CLASS
  1
ACMBOMSTANDARDISO
  2
AcmBOMStdISO
  3
"Amdt_StdImp|Product Description: AutoCAD Mechanical 2004 DX|Company: Autodesk"
 90
        0
 91
        1
280
     0
281
     0
  0
CLASS
  1
ACMDETAILSTANDARDISO
  2
AmdtDetailSymStdISO
  3
"Amdt_StdImp|Product Description: AutoCAD Mechanical 2004 DX|Company: Autodesk"
 90
        0
 91
        1
280
     0
281
     0
  0
CLASS
  1
ACMSECTIONSTANDARDISO
  2
AmdtSectionSymStdISO
  3
"Amdt_StdImp|Product Description: AutoCAD Mechanical 2004 DX|Company: Autodesk"
 90
        0
 91
        1
280
     0
281
     0
  0
CLASS
  1
ACMCENTERLINESTANDARDISO
  2
AmdtCenterLineStdISO
  3
"Amdt_StdImp|Product Description: AutoCAD Mechanical 2004 DX|Company: Autodesk"
 90
        0
 91
        1
280
     0
281
     0
  0
CLASS
  1
ACMNOTESTANDARDISO
  2
AmdtNoteStdISO
  3
"Amdt_StdImp|Product Description: AutoCAD Mechanical 2004 DX|Company: Autodesk"
 90
        0
 91
        1
280
     0
281
     0
  0
CLASS
  1
ACAMGLAYSTD
  2
AcAmgLayStd
  3
"AcAmgLayStd|Product Description: AutoCAD Mechanical 2000|Company: Autodesk"
 90
        0
 91
        2
280
     0
281
     0
  0
CLASS
  1
ACAMGDIMSTD
  2
AcAmgDimStd
  3
"AcAmgDimStd|Product Description: AutoCAD Mechanical 2000|Company: Autodesk"
 90
        0
 91
        2
280
     0
281
     0
  0
CLASS
  1
ACAMGHOLECHARTSTDISO
  2
AcAmgHoleChartStdISO
  3
ACMSYMBB_MODULE_NAME
 90
        0
 91
        1
280
     0
281
     0
  0
CLASS
  1
ACAMGTITLESTD
  2
AcAmgTitleStd
  3
"TITLEAPP"
 90
        0
 91
        2
280
     0
281
     0
  0
CLASS
  1
LAYER_INDEX
  2
AcDbLayerIndex
  3
ObjectDBX Classes
 90
        0
 91
        0
280
     0
281
     0
  0
CLASS
  1
IDBUFFER
  2
AcDbIdBuffer
  3
ObjectDBX Classes
 90
        0
 91
        0
280
     0
281
     0
  0
CLASS
  1
DICTIONARYVAR
  2
AcDbDictionaryVar
  3
ObjectDBX Classes
 90
        0
 91
        3
280
     0
281
     0
  0
CLASS
  1
AM_DRAWING_MGR
  2
AcDmDwgMgr
  3
AcMechDwgViewMgmt
 90
        0
 91
        1
280
     0
281
     0
  0
CLASS
  1
AM_DWG_DOCUMENT
  2
AcDmDwgDocument
  3
AcMechDwgViewMgmt
 90
        0
 91
        1
280
     0
281
     0
  0
CLASS
  1
AM_DWG_SHEET
  2
AcDmSheet
  3
AcMechDwgViewMgmt
 90
        0
 91
        2
280
     0
281
     0
  0
CLASS
  1
AM_VIEWDIMPARMAP
  2
AcDmViewDimParMap
  3
AcMechDwgViewMgmt
 90
        0
 91
        2
280
     0
281
     0
  0
CLASS
  1
AM_DWGMGR_NAME
  2
AcDmDwgMgrName
  3
AcMechDwgViewMgmt
 90
        0
 91
        1
280
     0
281
     0
  0
CLASS
  1
AMDTMENUSTATEMGR
  2
AmdtMenuStateMgr
  3
McadcomServices
 90
        0
 91
        1
280
     0
281
     0
  0
CLASS
  1
AMDTMCOMMENUSTATE
  2
AmdtMcomMenuState
  3
McadcomServices
 90
        0
 91
        1
280
     0
281
     0
  0
CLASS
  1
MAPIAMMOUDLE
  2
MApiAmModule
  3
MApiAmServices
 90
        0
 91
        1
280
     0
281
     0
  0
CLASS
  1
AMDTADMENUSTATE
  2
AmdtAdMenuState
  3
DesignerServices
 90
        0
 91
        1
280
     0
281
     0
  0
CLASS
  1
ADAPPL
  2
AcAdAppl
  3
DesignerServices
 90
        0
 91
        1
280
     0
281
     0
  0
CLASS
  1
DEPMGR
  2
AcAdDepMgr
  3
DesignerServices
 90
        0
 91
        1
280
     0
281
     0
  0
CLASS
  1
PARAMMGR
  2
AcAdParamMgr
  3
DesignerServices
 90
        0
 91
        1
280
     0
281
     0
  0
CLASS
  1
PARAMSCOPE
  2
AcAdParamScope
  3
DesignerServices
 90
        0
 91
        1
280
     0
281
     0
  0
CLASS
  1
NAMEDAPPL
  2
AcAdNamedAppl
  3
DesignerServices
 90
        0
 91
        1
280
     0
281
     0
  0
CLASS
  1
AMDTDMMENUSTATE
  2
AmdtDmMenuState
  3
AcMechDwgViewMgmt
 90
        0
 91
        1
280
     0
281
     0
  0
CLASS
  1
AMDTAMMENUSTATE
  2
AmdtAmMenuState
  3
DesignerAssemblies
 90
        0
 91
        1
280
     0
281
     0
  0
CLASS
  1
ACAMPROJECT
  2
AcAmProject
  3
DesignerAssemblies
 90
        0
 91
        1
280
     0
281
     0
  0
CLASS
  1
ACAMGRCOMPDEF
  2
AcAmGrCompDef
  3
DesignerAssemblies
 90
        0
 91
        1
280
     0
281
     0
  0
CLASS
  1
ACCMCONTEXT
  2
AcCmContext
  3
DesignerAssemblies
 90
        0
 91
        1
280
     0
281
     0
  0
CLASS
  1
ACAMCOMPDEF
  2
AcAmCompDef
  3
DesignerAssemblies
 90
        0
 91
        1
280
     0
281
     0
  0
CLASS
  1
ACAMCOMPDEFMGR
  2
AcAmCompDefMgr
  3
DesignerAssemblies
 90
        0
 91
        1
280
     0
281
     0
  0
CLASS
  1
AMCONTEXTMGR
  2
AcAmContextMgr
  3
DesignerAssemblies
 90
        0
 91
        1
280
     0
281
     0
  0
CLASS
  1
ACAMCONTEXTMODELER
  2
AcAmContextModeler
  3
DesignerAssemblies
 90
        0
 91
        1
280
     0
281
     0
  0
CLASS
  1
ACMTHREADLINESTANDARDISO
  2
AmdtThreadLineStdISO
  3
"Amdt_StdImp|Product Description: AutoCAD Mechanical 2004 DX|Company: Autodesk"
 90
        0
 91
        1
280
     0
281
     0
  0
CLASS
  1
CATALOGSTATE
  2
AcAmCatalogState
  3
DesignerAssemblies
 90
        0
 91
        1
280
     0
281
     0
  0
CLASS
  1
ACAMGRCOMPDEFSET
  2
AcAmGrCompDefSet
  3
DesignerAssemblies
 90
        0
 91
        1
280
     0
281
     0
  0
CLASS
  1
AMDTBROWSERDBTAB
  2
AmdtBrowserDbTab
  3
McadcomServices
 90
        0
 91
        1
280
     0
281
     0
  0
CLASS
  1
CBROWSERAPPOBJECT
  2
CBrowserAppObject
  3
McadcomServices
 90
        0
 91
        3
280
     0
281
     0
  0
CLASS
  1
DM_PLACEHOLDER
  2
AcDmSelsetPlaceholder
  3
AcMechDwgViewMgmt
 90
        0
 91
        1
280
     0
281
     0
  0
CLASS
  1
TABLESTYLE
  2
AcDbTableStyle
  3
ObjectDBX Classes
 90
     2047
 91
        1
280
     0
281
     0
  0
CLASS
  1
VAACXREFPANELOBJECT
  2
VaAcXREFPanelObject
  3
VAAC_ADDIN
 90
        0
 91
        0
280
     0
281
     0
  0
CLASS
  1
VAACIMAGEINVENTORY
  2
VaAcImageInventory
  3
VAAC_ADDIN
 90
        0
 91
        0
280
     0
281
     0
  0
CLASS
  1
AMDTNOTETEMPLATEDB
  2
AmdtNoteTemplateDB
  3
AMDT_STDIMP_MODULE_NAME
 90
        0
 91
        9
280
     0
281
     0
  0
CLASS
  1
ACMBOM
  2
AcmBom
  3
"AcmSymBB|Product Description: AutoCAD Mechanical 2004 DX|Company: Autodesk"
 90
        0
 91
        0
280
     0
281
     0
  0
CLASS
  1
AMDTFORMULAUPDATEDISPATCHER
  2
AmdtFormulaUpdateDispatcher
  3
AcMeServices
 90
        0
 91
        0
280
     0
281
     0
  0
CLASS
  1
ACMPARTLIST
  2
AcmPartList
  3
"AcmSymBB|Product Description: AutoCAD Mechanical 2004 DX|Company: Autodesk"
 90
     1023
 91
        0
280
     0
281
     1
  0
CLASS
  1
ACAMGFILTERDAT
  2
AcAmgFilterDat
  3
"AcadM|Product Description: AutoCAD Mechanical 2000|Company: Autodesk"
 90
        0
 91
        6
280
     0
281
     0
  0
CLASS
  1
ACMSTANDARDJIS
  2
AcmStandardJIS
  3
"Amdt_StdImp|Product Description: AutoCAD Mechanical 2004 DX|Company: Autodesk"
 90
        0
 91
        1
280
     0
281
     0
  0
CLASS
  1
ACMSURFSTANDARDJIS
  2
AcmSurfTextStdJIS
  3
"Amdt_StdImp|Product Description: AutoCAD Mechanical 2004 DX|Company: Autodesk"
 90
        0
 91
        1
280
     0
281
     0
  0
CLASS
  1
ACMFCFSTANDARDJIS98
  2
AcmFCFStdJIS98
  3
"Amdt_StdImp|Product Description: AutoCAD Mechanical 2004 DX|Company: Autodesk"
 90
        0
 91
        1
280
     0
281
     0
  0
CLASS
  1
ACMWELDSTANDARDJIS
  2
AcmWeldingStdJIS
  3
"Amdt_StdImp|Product Description: AutoCAD Mechanical 2004 DX|Company: Autodesk"
 90
        0
 91
        1
280
     0
281
     0
  0
CLASS
  1
ACMIDSTANDARDJIS
  2
AcmIdStdJIS
  3
"Amdt_StdImp|Product Description: AutoCAD Mechanical 2004 DX|Company: Autodesk"
 90
        0
 91
        1
280
     0
281
     0
  0
CLASS
  1
ACMDATUMSTANDARDJIS
  2
AcmDatumStdJIS
  3
"Amdt_StdImp|Product Description: AutoCAD Mechanical 2004 DX|Company: Autodesk"
 90
        0
 91
        1
280
     0
281
     0
  0
CLASS
  1
ACMBOMSTANDARDJIS
  2
AcmBOMStdJIS
  3
"Amdt_StdImp|Product Description: AutoCAD Mechanical 2004 DX|Company: Autodesk"
 90
        0
 91
        1
280
     0
281
     0
  0
CLASS
  1
ACMDETAILSTANDARDJIS
  2
AmdtDetailSymStdJIS
  3
"Amdt_StdImp|Product Description: AutoCAD Mechanical 2004 DX|Company: Autodesk"
 90
        0
 91
        1
280
     0
281
     0
  0
CLASS
  1
ACMSECTIONSTANDARDJIS
  2
AmdtSectionSymStdJIS
  3
"Amdt_StdImp|Product Description: AutoCAD Mechanical 2004 DX|Company: Autodesk"
 90
        0
 91
        1
280
     0
281
     0
  0
CLASS
  1
ACMCENTERLINESTANDARDJIS
  2
AmdtCenterLineStdJIS
  3
"Amdt_StdImp|Product Description: AutoCAD Mechanical 2004 DX|Company: Autodesk"
 90
        0
 91
        1
280
     0
281
     0
  0
CLASS
  1
ACMTHREADLINESTANDARDJIS
  2
AmdtThreadLineStdJIS
  3
"Amdt_StdImp|Product Description: AutoCAD Mechanical 2004 DX|Company: Autodesk"
 90
        0
 91
        1
280
     0
281
     0
  0
CLASS
  1
ACMNOTESTANDARDJIS
  2
AmdtNoteStdJIS
  3
"Amdt_StdImp|Product Description: AutoCAD Mechanical 2004 DX|Company: Autodesk"
 90
        0
 91
        1
280
     0
281
     0
  0
CLASS
  1
ACAMGHOLECHARTSTDJIS
  2
AcAmgHoleChartStdJIS
  3
ACMSYMBB_MODULE_NAME
 90
        0
 91
        1
280
     0
281
     0
  0
CLASS
  1
SORTENTSTABLE
  2
AcDbSortentsTable
  3
ObjectDBX Classes
 90
        0
 91
        1
280
     0
281
     0
  0
CLASS
  1
DIMASSOC
  2
AcDbDimAssoc
  3
"AcDbDimAssoc|Product Desc:     AcDim ARX App For Dimension|Company:          Autodesk, Inc.|WEB Address:      www.autodesk.com"
 90
        0
 91
       10
280
     0
281
     0
  0
CLASS
  1
ACDBLINERES
  2
AcDbLineRes
  3
AcGrefServices
 90
        0
 91
        0
280
     0
281
     0
  0
CLASS
  1
AMDTNOTE
  2
AmdtNote
  3
"AcmSymBB|Product Description: AutoCAD Mechanical 2004 DX|Company: Autodesk"
 90
     1023
 91
        0
280
     0
281
     1
  0
CLASS
  1
ACRFATTGENMGR
  2
AcRfAttGeneralMgr
  3
AcAttribServices
 90
        0
 91
        2
280
     0
281
     0
  0
ENDSEC
  0
SECTION
  2
TABLES
  0
TABLE
  2
VPORT
  5
8
330
0
100
AcDbSymbolTable
 70
    88
  0
VPORT
  5
192E
330
8
100
AcDbSymbolTableRecord
100
AcDbViewportTableRecord
  2
*Active
 70
     0
 10
0.0
 20
0.0
 11
1.0
 21
1.0
 12
-50.33165822595496
 22
-4.271969292174162
 13
0.0
 23
0.0
 14
2.5
 24
2.5
 15
10.0
 25
10.0
 16
0.0
 26
0.0
 36
1.0
 17
0.0
 27
0.0
 37
0.0
 40
203.5076067481282
 41
1.170160295930949
 42
50.0
 43
0.0
 44
0.0
 50
0.0
 51
0.0
 71
     0
 72
  2000
 73
     1
 74
     3
 75
     0
 76
     0
 77
     0
 78
     0
281
     0
 65
     1
110
0.0
120
0.0
130
0.0
111
1.0
121
0.0
131
0.0
112
0.0
122
1.0
132
0.0
 79
     0
146
0.0
  0
ENDTAB
  0
TABLE
  2
LTYPE
  5
5
330
0
100
AcDbSymbolTable
 70
    17
  0
LTYPE
  5
14
330
5
100
AcDbSymbolTableRecord
100
AcDbLinetypeTableRecord
  2
ByBlock
 70
     0
  3

 72
    65
 73
     0
 40
0.0
  0
LTYPE
  5
15
330
5
100
AcDbSymbolTableRecord
100
AcDbLinetypeTableRecord
  2
ByLayer
 70
     0
  3

 72
    65
 73
     0
 40
0.0
  0
LTYPE
  5
16
330
5
100
AcDbSymbolTableRecord
100
AcDbLinetypeTableRecord
  2
Continuous
 70
     0
  3
Solid line
 72
    65
 73
     0
 40
0.0
  0
LTYPE
  5
64
330
5
100
AcDbSymbolTableRecord
100
AcDbLinetypeTableRecord
  2
AM_ISO02W050
 70
     0
  3
__ __ __ __ __ __ __ __ __ __ __ __ __ __ __
 72
    65
 73
     2
 40
7.5
 49
6.0
 74
     0
 49
-1.5
 74
     0
  0
LTYPE
  5
65
330
5
100
AcDbSymbolTableRecord
100
AcDbLinetypeTableRecord
  2
AM_ISO08W050
 70
     0
  3
____ . ____ . ____ . ____ . ____ . ____ . ____
 72
    65
 73
     4
 40
18.0
 49
12.0
 74
     0
 49
-1.5
 74
     0
 49
3.0
 74
     0
 49
-1.5
 74
     0
  0
LTYPE
  5
66
330
5
100
AcDbSymbolTableRecord
100
AcDbLinetypeTableRecord
  2
AM_ISO09W050
 70
     0
  3
_____ . . _____ . . _____ . . ____ .. ____
 72
    65
 73
     6
 40
22.5
 49
12.0
 74
     0
 49
-1.5
 74
     0
 49
3.0
 74
     0
 49
-1.5
 74
     0
 49
3.0
 74
     0
 49
-1.5
 74
     0
  0
LTYPE
  5
67
330
5
100
AcDbSymbolTableRecord
100
AcDbLinetypeTableRecord
  2
Amconstr
 70
     0
  3
_______________________
 72
    65
 73
     2
 40
9999.0
 49
9999.0
 74
     0
 49
0.0
 74
     0
  0
LTYPE
  5
68
330
5
100
AcDbSymbolTableRecord
100
AcDbLinetypeTableRecord
  2
AM_ISO08W050x2
 70
     0
  3
__ . __ . __ . __ . __ . __
 72
    65
 73
     4
 40
9.0
 49
6.0
 74
     0
 49
-0.75
 74
     0
 49
1.5
 74
     0
 49
-0.75
 74
     0
  0
LTYPE
  5
69
330
5
100
AcDbSymbolTableRecord
100
AcDbLinetypeTableRecord
  2
AM_ISO02W050x2
 70
     0
  3
 _ _ _ _ _ _ _ _ _ _ _ _
 72
    65
 73
     2
 40
3.75
 49
3.0
 74
     0
 49
-0.75
 74
     0
  0
LTYPE
  5
6C
330
5
100
AcDbSymbolTableRecord
100
AcDbLinetypeTableRecord
  2
Amzigzag
 70
     0
  3
/\/-/\/-/\/-/\/-/\/-/\/
 72
    65
 73
     2
 40
11.0001
 49
0.0001
 74
     4
 75
   135
340
6B
 46
0.04
 50
0.0
 44
0.0
 45
0.0
 49
-11.0
 74
     0
  0
LTYPE
  5
7A
330
5
100
AcDbSymbolTableRecord
100
AcDbLinetypeTableRecord
  2
ACISOWELD
 70
     0
  3
_ _ _ _ _
 72
    65
 73
     2
 40
2.0
 49
2.0
 74
     0
 49
-1.0
 74
     0
  0
LTYPE
  5
7B
330
5
100
AcDbSymbolTableRecord
100
AcDbLinetypeTableRecord
  2
ACISOTGB
 70
     0
  3
__ . . __ . .
 72
    65
 73
     6
 40
9.0
 49
4.0
 74
     0
 49
-1.0
 74
     0
 49
1.0
 74
     0
 49
-1.0
 74
     0
 49
1.0
 74
     0
 49
-1.0
 74
     0
  0
LTYPE
  5
7C
330
5
100
AcDbSymbolTableRecord
100
AcDbLinetypeTableRecord
  2
ACISOTGL
 70
     0
  3
_ _ _ _ _
 72
    65
 73
     2
 40
3.0
 49
2.0
 74
     0
 49
-1.0
 74
     0
  0
LTYPE
  5
7E
330
5
100
AcDbSymbolTableRecord
100
AcDbLinetypeTableRecord
  2
CENTER
 70
     0
  3
__ . __
 72
    65
 73
     4
 40
7.0
 49
4.0
 74
     0
 49
-1.0
 74
     0
 49
1.0
 74
     0
 49
-1.0
 74
     0
  0
LTYPE
  5
D8
330
5
100
AcDbSymbolTableRecord
100
AcDbLinetypeTableRecord
  2
HIDDEN
 70
     0
  3
Hidden __ __ __ __ __ __ __ __ __ __ __ __ __ _
 72
    65
 73
     2
 40
9.524999999999998
 49
6.349999999999999
 74
     0
 49
-3.174999999999999
 74
     0
  0
LTYPE
  5
D9
330
5
100
AcDbSymbolTableRecord
100
AcDbLinetypeTableRecord
  2
PHANTOM2
 70
     0
  3
Phantom (.5x) ___ _ _ ___ _ _ ___ _ _ ___ _ _
 72
    65
 73
     6
 40
31.75
 49
15.875
 74
     0
 49
-3.174999999999999
 74
     0
 49
3.174999999999999
 74
     0
 49
-3.174999999999999
 74
     0
 49
3.174999999999999
 74
     0
 49
-3.174999999999999
 74
     0
  0
LTYPE
  5
20C
330
5
100
AcDbSymbolTableRecord
100
AcDbLinetypeTableRecord
  2
ACJISWELD
 70
     0
  3
_ _ _ _ _
 72
    65
 73
     2
 40
2.0
 49
2.0
 74
     0
 49
-1.0
 74
     0
  0
LTYPE
  5
20D
330
5
100
AcDbSymbolTableRecord
100
AcDbLinetypeTableRecord
  2
ACJISTGB
 70
     0
  3
__ . . __ . .
 72
    65
 73
     6
 40
9.0
 49
4.0
 74
     0
 49
-1.0
 74
     0
 49
1.0
 74
     0
 49
-1.0
 74
     0
 49
1.0
 74
     0
 49
-1.0
 74
     0
  0
LTYPE
  5
20E
330
5
100
AcDbSymbolTableRecord
100
AcDbLinetypeTableRecord
  2
ACJISTGL
 70
     0
  3
_ _ _ _ _
 72
    65
 73
     2
 40
3.0
 49
2.0
 74
     0
 49
-1.0
 74
     0
  0
ENDTAB
  0
TABLE
  2
LAYER
  5
2
102
{ACAD_XDICTIONARY
360
34B
102
}
330
0
100
AcDbSymbolTable
 70
     8
  0
LAYER
  5
10
330
2
100
AcDbSymbolTableRecord
100
AcDbLayerTableRecord
  2
0
 70
     0
 62
     7
  6
Continuous
370
    -3
390
F
  0
LAYER
  5
34A
330
2
100
AcDbSymbolTableRecord
100
AcDbLayerTableRecord
  2
AM_0
 70
     0
 62
     7
  6
Continuous
370
    30
390
F
  0
LAYER
  5
72C
330
2
100
AcDbSymbolTableRecord
100
AcDbLayerTableRecord
  2
AM_7
 70
     0
 62
     4
  6
AM_ISO08W050
370
    13
390
F
  0
LAYER
  5
733
330
2
100
AcDbSymbolTableRecord
100
AcDbLayerTableRecord
  2
AM_5
 70
     0
 62
     3
  6
Continuous
370
    13
390
F
  0
LAYER
  5
78B
330
2
100
AcDbSymbolTableRecord
100
AcDbLayerTableRecord
  2
Defpoints
 70
     0
 62
     7
  6
Continuous
290
     0
370
    -3
390
F
  0
LAYER
  5
9EB
330
2
100
AcDbSymbolTableRecord
100
AcDbLayerTableRecord
  2
AM_6
 70
     0
 62
     2
  6
Continuous
370
    30
390
F
  0
LAYER
  5
13F8
330
2
100
AcDbSymbolTableRecord
100
AcDbLayerTableRecord
  2
AM_CL
 70
     0
 62
     1
  6
Amconstr
370
    30
390
F
  0
LAYER
  5
17DE
330
2
100
AcDbSymbolTableRecord
100
AcDbLayerTableRecord
  2
AM_3
 70
     0
 62
     6
  6
AM_ISO02W050
370
    13
390
F
  0
ENDTAB
  0
TABLE
  2
STYLE
  5
3
330
0
100
AcDbSymbolTable
 70
     6
  0
STYLE
  5
11
330
3
100
AcDbSymbolTableRecord
100
AcDbTextStyleTableRecord
  2
STANDARD
 70
     0
 40
0.0
 41
1.0
 50
0.0
 71
     0
 42
3.799999999999999
  3
ISOCP.SHX
  4
EXTFONT.SHX
  0
STYLE
  5
6B
330
3
100
AcDbSymbolTableRecord
100
AcDbTextStyleTableRecord
  2

 70
     1
 40
0.0
 41
1.0
 50
0.0
 71
     0
 42
2.5
  3
ltypeshp.shx
  4

  0
STYLE
  5
6D
330
3
100
AcDbSymbolTableRecord
100
AcDbTextStyleTableRecord
  2
ACISOTS
 70
     0
 40
0.0
 41
1.0
 50
0.0
 71
     0
 42
3.799999999999999
  3
isocp.shx
  4
extfont.shx
  0
STYLE
  5
79
330
3
100
AcDbSymbolTableRecord
100
AcDbTextStyleTableRecord
  2
ACISOGDT
 70
     0
 40
0.0
 41
1.0
 50
0.0
 71
     0
 42
2.5
  3
amgdt.shx
  4
extfont.shx
  0
STYLE
  5
1FF
330
3
100
AcDbSymbolTableRecord
100
AcDbTextStyleTableRecord
  2
ACJISTS
 70
     0
 40
1.0
 41
1.0
 50
0.0
 71
     0
 42
1.0
  3
isocp.shx
  4
extfont.shx
  0
STYLE
  5
20B
330
3
100
AcDbSymbolTableRecord
100
AcDbTextStyleTableRecord
  2
ACJISGDT
 70
     0
 40
0.0
 41
1.0
 50
0.0
 71
     0
 42
1.0
  3
amgdt.shx
  4

  0
ENDTAB
  0
TABLE
  2
VIEW
  5
6
330
0
100
AcDbSymbolTable
 70
     0
  0
ENDTAB
  0
TABLE
  2
UCS
  5
7
330
0
100
AcDbSymbolTable
 70
     0
  0
ENDTAB
  0
TABLE
  2
APPID
  5
9
330
0
100
AcDbSymbolTable
 70
    20
  0
APPID
  5
12
330
9
100
AcDbSymbolTableRecord
100
AcDbRegAppTableRecord
  2
ACAD
 70
     0
  0
APPID
  5
46
330
9
100
AcDbSymbolTableRecord
100
AcDbRegAppTableRecord
  2
MCAD_NO_VIS
 70
     0
  0
APPID
  5
47
330
9
100
AcDbSymbolTableRecord
100
AcDbRegAppTableRecord
  2
ACAD_TEMP_GRAPHIC
 70
     0
  0
APPID
  5
58
330
9
100
AcDbSymbolTableRecord
100
AcDbRegAppTableRecord
  2
ACATTRIBSERVICES
 70
     0
  0
APPID
  5
EE
330
9
100
AcDbSymbolTableRecord
100
AcDbRegAppTableRecord
  2
AD_DRAW
 70
     0
  0
APPID
  5
10C
330
9
100
AcDbSymbolTableRecord
100
AcDbRegAppTableRecord
  2
DESIGNERASSEMBLIES
 70
     0
  0
APPID
  5
111
330
9
100
AcDbSymbolTableRecord
100
AcDbRegAppTableRecord
  2
ACADM_DIM_EDIT
 70
     0
  0
APPID
  5
112
330
9
100
AcDbSymbolTableRecord
100
AcDbRegAppTableRecord
  2
AMDT_DM_ADJ
 70
     0
  0
APPID
  5
243
330
9
100
AcDbSymbolTableRecord
100
AcDbRegAppTableRecord
  2
ACAD_DSTYLE_DIMTEXT_FILL
 70
     0
  0
APPID
  5
3AC
330
9
100
AcDbSymbolTableRecord
100
AcDbRegAppTableRecord
  2
ACAD_PSEXT
 70
     0
  0
APPID
  5
634
330
9
100
AcDbSymbolTableRecord
100
AcDbRegAppTableRecord
  2
GENIUS_GENODEF_13
 70
     0
  0
APPID
  5
635
330
9
100
AcDbSymbolTableRecord
100
AcDbRegAppTableRecord
  2
GENIUS_GENOBJ-N-FIL_13
 70
     0
  0
APPID
  5
72E
330
9
100
AcDbSymbolTableRecord
100
AcDbRegAppTableRecord
  2
GENIUS_GENOBJ-N-CEN_13
 70
     0
  0
APPID
  5
72F
330
9
100
AcDbSymbolTableRecord
100
AcDbRegAppTableRecord
  2
GENIUS_GENCEN_19
 70
     0
  0
APPID
  5
B59
330
9
100
AcDbSymbolTableRecord
100
AcDbRegAppTableRecord
  2
GENIUS_GENFIL_13
 70
     0
  0
APPID
  5
B5A
330
9
100
AcDbSymbolTableRecord
100
AcDbRegAppTableRecord
  2
GENIUS_GENOBJ-N-CHA_13
 70
     0
  0
APPID
  5
1346
330
9
100
AcDbSymbolTableRecord
100
AcDbRegAppTableRecord
  2
ACAD_DIMASSOC_DIMLFAC
 70
     0
  0
APPID
  5
1347
330
9
100
AcDbSymbolTableRecord
100
AcDbRegAppTableRecord
  2
ACAD_DIMASSOC_CALC_DIMLFAC
 70
     0
  0
APPID
  5
1348
330
9
100
AcDbSymbolTableRecord
100
AcDbRegAppTableRecord
  2
ACAD_DIMASSOC_OVERRIDDEN_DIMLFAC
 70
     0
  0
APPID
  5
1524
330
9
100
AcDbSymbolTableRecord
100
AcDbRegAppTableRecord
  2
GENIUS_GENDTOL_13
 70
     0
  0
ENDTAB
  0
TABLE
  2
DIMSTYLE
  5
A
330
0
100
AcDbSymbolTable
 70
    16
100
AcDbDimStyleTable
 71
     2
340
216
340
81
  0
DIMSTYLE
105
81
330
A
100
AcDbSymbolTableRecord
100
AcDbDimStyleTableRecord
  2
AM_ISO
 70
     0
  4
"
 41
2.5
 42
1.0
 43
10.0
 44
1.0
 47
0.1
 48
0.1
 73
     0
 74
     0
 77
     1
 78
     8
 79
     2
140
3.5
141
0.0
143
0.0393701
146
0.71
147
1.5
172
     1
176
   256
177
   256
178
     2
271
     2
272
     3
274
     4
283
     0
284
     8
340
11
371
    -1
372
    -1
  0
DIMSTYLE
105
82
330
A
100
AcDbSymbolTableRecord
100
AcDbDimStyleTableRecord
  2
AM_ISO$3
 70
     0
  4
"
 41
2.5
 42
1.0
 43
10.0
 44
1.0
 47
0.1
 48
0.1
 73
     0
 77
     1
 78
     8
 79
     2
140
3.5
141
0.0
143
0.0393701
146
0.71
147
1.5
176
   256
177
   256
178
     2
271
     2
272
     3
274
     4
283
     0
284
     8
288
     1
289
     0
340
11
371
    -1
372
    -1
  0
DIMSTYLE
105
83
330
A
100
AcDbSymbolTableRecord
100
AcDbDimStyleTableRecord
  2
AM_ISO$4
 70
     0
  4
"
 41
2.5
 42
1.0
 43
10.0
 44
1.0
 47
0.1
 48
0.1
 73
     0
 77
     1
 78
     8
 79
     2
140
3.5
141
0.0
143
0.0393701
146
0.71
147
1.5
176
   256
177
   256
178
     2
271
     2
272
     3
274
     4
283
     0
284
     8
288
     1
289
     0
340
11
371
    -1
372
    -1
  0
DIMSTYLE
105
84
330
A
100
AcDbSymbolTableRecord
100
AcDbDimStyleTableRecord
  2
AM_ISO$6
 70
     0
  4
"
 41
2.5
 42
1.0
 43
10.0
 44
1.0
 47
0.1
 48
0.1
 73
     0
 74
     0
 78
     8
 79
     2
140
3.5
141
0.0
143
0.0393701
146
0.71
147
1.5
172
     1
176
   256
177
   256
178
     2
271
     2
272
     3
274
     4
283
     0
284
     8
340
11
371
    -1
372
    -1
  0
DIMSTYLE
105
85
330
A
100
AcDbSymbolTableRecord
100
AcDbDimStyleTableRecord
  2
AM_ISO$7
 70
     0
  4
"
 41
2.5
 42
1.0
 43
10.0
 44
1.0
 47
0.1
 48
0.1
 73
     0
 74
     0
 77
     1
 78
     8
 79
     2
140
5.0
141
0.0
143
0.0393701
146
0.71
147
1.5
172
     1
176
   256
177
   256
178
     2
271
     2
272
     3
274
     4
283
     0
284
     8
340
11
371
    -1
372
    -1
  0
DIMSTYLE
105
86
330
A
100
AcDbSymbolTableRecord
100
AcDbDimStyleTableRecord
  2
AM_ISO$SF
 70
     0
  4
"
 41
2.5
 42
1.0
 43
10.0
 44
1.0
 47
0.1
 48
0.1
 73
     0
 74
     0
 75
     1
 76
     1
 77
     1
 78
     8
 79
     2
140
3.5
141
0.0
143
0.0393701
146
0.71
147
1.5
172
     1
176
   256
177
   256
178
     2
271
     2
272
     3
274
     4
283
     0
284
     8
340
11
371
    -1
372
    -1
  0
DIMSTYLE
105
8B
330
A
100
AcDbSymbolTableRecord
100
AcDbDimStyleTableRecord
  2
AM_ISO$SH
 70
     0
  4
"
 41
2.5
 42
1.0
 43
10.0
 44
1.0
 47
0.1
 48
0.1
 73
     0
 74
     0
 75
     1
 76
     1
 77
     1
 78
     8
 79
     2
140
3.5
141
0.0
143
0.0393701
144
2.0
146
0.71
147
1.5
172
     1
173
     1
176
   256
177
   256
178
     2
271
     2
272
     3
274
     4
283
     0
284
     8
340
11
343
87
371
    -1
372
    -1
  0
DIMSTYLE
105
216
330
A
100
AcDbSymbolTableRecord
100
AcDbDimStyleTableRecord
  2
AM_JIS
 70
     0
  4
"
 41
2.5
 42
0.0
 43
10.0
 44
1.0
 47
0.1
 48
0.1000000001
 73
     0
 74
     0
 77
     3
 78
     1
140
3.799999999999999
141
0.0
143
0.0393701
146
0.71
147
1.5
172
     1
176
   256
177
   256
178
     2
179
     1
271
     2
272
     2
275
     1
283
     0
284
     8
340
11
341
217
342
217
371
    -1
372
    -1
  0
DIMSTYLE
105
21D
330
A
100
AcDbSymbolTableRecord
100
AcDbDimStyleTableRecord
  2
AM_JIS$3
 70
     0
  4
"
 41
2.5
 42
0.0
 43
10.0
 44
1.0
 47
0.1
 48
0.1000000001
 73
     0
 77
     3
 78
     1
140
3.799999999999999
141
0.0
143
0.0393701
146
0.71
147
1.5
176
   256
177
   256
178
     2
179
     1
271
     2
272
     2
275
     1
283
     0
284
     8
288
     1
289
     0
340
11
341
217
342
217
371
    -1
372
    -1
  0
DIMSTYLE
105
21E
330
A
100
AcDbSymbolTableRecord
100
AcDbDimStyleTableRecord
  2
AM_JIS$4
 70
     0
  4
"
 41
2.5
 42
0.0
 43
10.0
 44
1.0
 47
0.1
 48
0.1000000001
 73
     0
 77
     3
 78
     1
140
3.799999999999999
141
0.0
143
0.0393701
146
0.71
147
1.5
176
   256
177
   256
178
     2
179
     1
271
     2
272
     2
275
     1
283
     0
284
     8
288
     1
289
     0
340
11
341
217
342
217
371
    -1
372
    -1
  0
DIMSTYLE
105
21F
330
A
100
AcDbSymbolTableRecord
100
AcDbDimStyleTableRecord
  2
AM_JIS$6
 70
     0
  4
"
 41
2.5
 42
0.0
 43
10.0
 44
1.0
 47
0.1
 48
0.1000000001
 73
     0
 74
     0
 78
     1
140
3.799999999999999
141
0.0
143
0.0393701
146
0.71
147
1.5
172
     1
176
   256
177
   256
178
     2
179
     1
271
     2
272
     2
275
     1
283
     0
284
     8
340
11
341
217
342
217
371
    -1
372
    -1
  0
DIMSTYLE
105
220
330
A
100
AcDbSymbolTableRecord
100
AcDbDimStyleTableRecord
  2
AM_JIS$7
 70
     0
  4
"
 41
2.5
 42
0.0
 43
10.0
 44
1.0
 47
0.1
 48
0.1000000001
 73
     0
 74
     0
 77
     3
 78
     1
140
5.0
141
0.0
143
0.0393701
146
0.71
147
1.5
172
     1
176
   256
177
   256
178
     2
179
     1
271
     2
272
     2
275
     1
283
     0
284
     8
340
11
341
217
342
217
371
    -1
372
    -1
  0
DIMSTYLE
105
221
330
A
100
AcDbSymbolTableRecord
100
AcDbDimStyleTableRecord
  2
AM_JIS$SF
 70
     0
  4
"
 41
2.5
 42
1.0
 43
10.0
 44
1.0
 47
0.1
 48
0.1
 73
     0
 74
     0
 75
     1
 76
     1
 77
     3
 78
     8
 79
     2
140
3.5
141
0.0
143
0.0393701
146
0.71
147
1.5
172
     1
176
   256
177
   256
178
     2
271
     2
272
     3
274
     4
283
     0
284
     8
340
11
341
217
342
217
343
217
344
217
371
    -1
372
    -1
  0
DIMSTYLE
105
222
330
A
100
AcDbSymbolTableRecord
100
AcDbDimStyleTableRecord
  2
AM_JIS$SH
 70
     0
  4
"
 41
2.5
 42
1.0
 43
10.0
 44
1.0
 47
0.1
 48
0.1
 73
     0
 74
     0
 75
     1
 76
     1
 77
     3
 78
     8
 79
     2
140
3.5
141
0.0
143
0.0393701
144
2.0
146
0.71
147
1.5
172
     1
173
     1
176
   256
177
   256
178
     2
271
     2
272
     3
274
     4
283
     0
284
     8
340
11
341
217
342
217
343
87
344
217
371
    -1
372
    -1
  0
DIMSTYLE
105
633
102
{ACAD_REACTORS
330
1188
330
11D8
330
1205
330
1232
330
1276
330
12B4
102
}
330
A
100
AcDbSymbolTableRecord
100
AcDbDimStyleTableRecord
  2
AM_JIS$0
 70
     0
  4
"
 41
2.5
 42
0.1
 43
8.0
 44
0.5
 47
0.1
 48
0.1
 73
     0
 74
     0
 77
     3
 78
     1
 79
     2
140
3.399999999999999
141
0.0
143
0.0393701
146
0.71
147
0.9999999999999996
172
     1
176
     3
177
     3
178
     2
179
     1
271
     2
272
     2
275
     1
283
     0
284
     1
340
11
341
217
342
217
371
    -1
372
    -1
  0
DIMSTYLE
105
1306
102
{ACAD_REACTORS
330
16A9
102
}
330
A
100
AcDbSymbolTableRecord
100
AcDbDimStyleTableRecord
  2
AM_JIS$2
 70
     0
  4
"
 41
2.5
 42
0.0
 43
10.0
 44
1.0
 47
0.1
 48
0.1000000001
 73
     0
 74
     0
 77
     3
 78
     1
140
3.799999999999999
141
0.0
143
0.0393701
146
0.71
147
1.5
172
     1
176
   256
177
   256
178
     2
179
     1
271
     2
272
     2
275
     1
283
     0
284
     8
340
11
341
217
342
217
371
    -1
372
    -1
  0
ENDTAB
  0
TABLE
  2
BLOCK_RECORD
  5
1
330
0
100
AcDbSymbolTable
 70
    13
  0
BLOCK_RECORD
  5
1F
102
{ACAD_XDICTIONARY
360
8F
102
}
330
1
100
AcDbSymbolTableRecord
100
AcDbBlockTableRecord
  2
*Model_Space
340
22
  0
BLOCK_RECORD
  5
1B
330
1
100
AcDbSymbolTableRecord
100
AcDbBlockTableRecord
  2
*Paper_Space
340
1E
  0
BLOCK_RECORD
  5
23
330
1
100
AcDbSymbolTableRecord
100
AcDbBlockTableRecord
  2
*Paper_Space0
340
26
  0
BLOCK_RECORD
  5
87
330
1
100
AcDbSymbolTableRecord
100
AcDbBlockTableRecord
  2
GENAXEH
340
0
  0
BLOCK_RECORD
  5
217
330
1
100
AcDbSymbolTableRecord
100
AcDbBlockTableRecord
  2
_Open30
340
0
102
{BLKREFS
331
11C2
331
11C3
331
11F1
331
11F2
331
166E
331
166F
331
168B
331
168C
331
1694
331
1695
331
16F5
331
16F6
331
171F
331
1720
331
1740
331
1741
102
}
  0
BLOCK_RECORD
  5
1169
330
1
100
AcDbSymbolTableRecord
100
AcDbBlockTableRecord
  2
osae
340
0
310
2800000020000000200000000100080000000000000400000000000000000000000000000000000000000000000080000080000000808000800000008000800080800000C0C0C000C0DCC000F0CAA6000020400000206000002080000020A0000020C0000020E00000400000004020000040400000406000004080000040A0
310
000040C0000040E00000600000006020000060400000606000006080000060A0000060C0000060E00000800000008020000080400000806000008080000080A0000080C0000080E00000A0000000A0200000A0400000A0600000A0800000A0A00000A0C00000A0E00000C0000000C0200000C0400000C0600000C0800000C0
310
A00000C0C00000C0E00000E0000000E0200000E0400000E0600000E0800000E0A00000E0C00000E0E00040000000400020004000400040006000400080004000A0004000C0004000E00040200000402020004020400040206000402080004020A0004020C0004020E000404000004040200040404000404060004040800040
310
40A0004040C0004040E00040600000406020004060400040606000406080004060A0004060C0004060E00040800000408020004080400040806000408080004080A0004080C0004080E00040A0000040A0200040A0400040A0600040A0800040A0A00040A0C00040A0E00040C0000040C0200040C0400040C0600040C08000
310
40C0A00040C0C00040C0E00040E0000040E0200040E0400040E0600040E0800040E0A00040E0C00040E0E00080000000800020008000400080006000800080008000A0008000C0008000E00080200000802020008020400080206000802080008020A0008020C0008020E00080400000804020008040400080406000804080
310
008040A0008040C0008040E00080600000806020008060400080606000806080008060A0008060C0008060E00080800000808020008080400080806000808080008080A0008080C0008080E00080A0000080A0200080A0400080A0600080A0800080A0A00080A0C00080A0E00080C0000080C0200080C0400080C0600080C0
310
800080C0A00080C0C00080C0E00080E0000080E0200080E0400080E0600080E0800080E0A00080E0C00080E0E000C0000000C0002000C0004000C0006000C0008000C000A000C000C000C000E000C0200000C0202000C0204000C0206000C0208000C020A000C020C000C020E000C0400000C0402000C0404000C0406000C0
310
408000C040A000C040C000C040E000C0600000C0602000C0604000C0606000C0608000C060A000C060C000C060E000C0800000C0802000C0804000C0806000C0808000C080A000C080C000C080E000C0A00000C0A02000C0A04000C0A06000C0A08000C0A0A000C0A0C000C0A0E000C0C00000C0C02000C0C04000C0C06000
310
C0C08000C0C0A000F0FBFF00A4A0A000808080000000FF0000FF000000FFFF00FF000000FF00FF00FFFF0000FFFFFF0000000000000000000000000000000000000000000000000000000000000000000000000000000000000000000000000000000000000000000000000000000000000000000000000000000000000000
310
00000000000000000000000000000000000000000000000000000000000000000000000000000000000000000000000000000000000000000000000000000000000000000000000000000000000000000000000000000000000000000000000000000000000000000000000000000000000000000000000000000000000000
310
0000000000000000000000000000000000000000000000000000000000000000000000000000000000000000000000000000000000000000000000000000000000FFFFFFFFFF000000000000000000000000000000000000000000000000FFFFFFFFFF000000FFFFFF000000000000000000000000000000000000FFFFFF00
310
FFFF0000000000000000FFFF0000000000000000000000000000FFFF00000000FF0000FAFAFAFAFAFA0000FF0000000000000000000000FFFFFF0000000000FF0000FAFFFFFFFFFFFFFA0000FF0000000000000000FFFF0000000000000000FF0000FAFF0000000000FF0000FFFFFF0000000000FF00000000000000000000
310
FF00FAFF000000000000FFFA00FF00FF0000000000FF000000000000000000FF0000FAFF00000000000000FF0000FFFF0000000000FF000000000000000000FF00FAFF0000000000000000FFFA00FFFF0000000000FF000000000000000000FF0000FAFF000000000000FFFA0000FFFF000000000000FFFF00000000000000
310
00FF0000FF000000000000FFFA00FFFFFF0000000000000000FFFFFF0000000000FF0000FAFFFFFFFFFFFFFA0000FF00000000000000000000000000FFFF00000000FF0000FAFAFAFAFAFA0000FF00000000000000000000000000000000FFFFFF00FFFF0000000000000000FFFF0000000000000000000000000000000000
310
0000FFFFFFFFFF000000FFFFFF000000000000000000000000000000000000000000000000FFFFFFFFFF00000000000000000000000000000000000000000000000000000000000000000000000000000000000000000000000000000000000000000000000000000000000000000000000000000000000000000000000000
310
00000000000000000000000000000000000000000000000000000000000000000000000000000000000000000000000000000000000000000000000000000000000000000000000000000000000000000000000000000000000000000000000000000000000000000000000000000000000000000000000000000000000000
310
0000000000000000000000000000000000000000000000000000000000000000000000000000000000000000000000000000000000000000
102
{BLKREFS
331
1177
102
}
1001
ACAD
1000
DesignCenter Data
1002
{
1070
     1
1070
     4
1002
}
  0
BLOCK_RECORD
  5
1189
330
1
100
AcDbSymbolTableRecord
100
AcDbBlockTableRecord
  2
*D5
340
0
  0
BLOCK_RECORD
  5
11D9
330
1
100
AcDbSymbolTableRecord
100
AcDbBlockTableRecord
  2
*D6
340
0
  0
BLOCK_RECORD
  5
1206
330
1
100
AcDbSymbolTableRecord
100
AcDbBlockTableRecord
  2
*D7
340
0
  0
BLOCK_RECORD
  5
1233
330
1
100
AcDbSymbolTableRecord
100
AcDbBlockTableRecord
  2
*D8
340
0
  0
BLOCK_RECORD
  5
1277
330
1
100
AcDbSymbolTableRecord
100
AcDbBlockTableRecord
  2
*D9
340
0
  0
BLOCK_RECORD
  5
12B5
330
1
100
AcDbSymbolTableRecord
100
AcDbBlockTableRecord
  2
*D10
340
0
  0
BLOCK_RECORD
  5
16AA
330
1
100
AcDbSymbolTableRecord
100
AcDbBlockTableRecord
  2
*D12
340
0
  0
ENDTAB
  0
ENDSEC
  0
SECTION
  2
BLOCKS
  0
BLOCK
  5
20
330
1F
100
AcDbEntity
  8
0
100
AcDbBlockBegin
  2
*Model_Space
 70
     0
 10
0.0
 20
0.0
 30
0.0
  3
*Model_Space
  1

  0
ENDBLK
  5
21
330
1F
100
AcDbEntity
  8
0
100
AcDbBlockEnd
  0
BLOCK
  5
1C
330
1B
100
AcDbEntity
 67
     1
  8
0
100
AcDbBlockBegin
  2
*Paper_Space
 70
     0
 10
0.0
 20
0.0
 30
0.0
  3
*Paper_Space
  1

  0
ENDBLK
  5
1D
330
1B
100
AcDbEntity
 67
     1
  8
0
100
AcDbBlockEnd
  0
BLOCK
  5
24
330
23
100
AcDbEntity
  8
0
100
AcDbBlockBegin
  2
*Paper_Space0
 70
     0
 10
0.0
 20
0.0
 30
0.0
  3
*Paper_Space0
  1

  0
ENDBLK
  5
25
330
23
100
AcDbEntity
  8
0
100
AcDbBlockEnd
  0
BLOCK
  5
89
330
87
100
AcDbEntity
  8
0
100
AcDbBlockBegin
  2
GENAXEH
 70
     0
 10
0.0
 20
0.0
 30
0.0
  3
GENAXEH
  1

  0
LINE
  5
88
330
87
100
AcDbEntity
  8
0
100
AcDbLine
 10
-1.0
 20
0.0
 30
0.0
 11
1.0
 21
0.0
 31
0.0
  0
ENDBLK
  5
8A
330
87
100
AcDbEntity
  8
0
100
AcDbBlockEnd
  0
BLOCK
  5
21B
330
217
100
AcDbEntity
  8
0
100
AcDbBlockBegin
  2
_Open30
 70
     0
 10
0.0
 20
0.0
 30
0.0
  3
_Open30
  1

  0
LINE
  5
218
330
217
100
AcDbEntity
  8
0
  6
ByBlock
 62
     0
370
    -2
100
AcDbLine
 10
-1.0
 20
0.26794919
 30
0.0
 11
0.0
 21
0.0
 31
0.0
  0
LINE
  5
219
330
217
100
AcDbEntity
  8
0
  6
ByBlock
 62
     0
370
    -2
100
AcDbLine
 10
0.0
 20
0.0
 30
0.0
 11
-1.0
 21
-0.26794919
 31
0.0
  0
LINE
  5
21A
330
217
100
AcDbEntity
  8
0
  6
ByBlock
 62
     0
370
    -2
100
AcDbLine
 10
0.0
 20
0.0
 30
0.0
 11
-1.0
 21
0.0
 31
0.0
  0
ENDBLK
  5
21C
330
217
100
AcDbEntity
  8
0
100
AcDbBlockEnd
  0
BLOCK
  5
116A
330
1169
100
AcDbEntity
  8
0
100
AcDbBlockBegin
  2
osae
 70
     0
 10
0.0
 20
0.0
 30
0.0
  3
osae
  1

  0
CIRCLE
  5
116C
330
1169
100
AcDbEntity
  8
AM_0
100
AcDbCircle
 10
0.9967001959954586
 20
51.44636620006065
 30
0.0
 40
4.4
  0
LINE
  5
116D
330
1169
100
AcDbEntity
  8
AM_0
100
AcDbLine
 10
-9.003299804004543
 20
50.55466113310848
 30
0.0
 11
-9.003299804004541
 21
52.33807126701282
 31
0.0
  0
ARC
  5
116E
330
1169
100
AcDbEntity
  8
AM_0
100
AcDbCircle
 10
-8.503299804004541
 20
52.33807126701282
 30
0.0
 40
0.5
100
AcDbArc
 50
108.7500000000001
 51
180.0
1001
GENIUS_GENOBJ-N-FIL_13
1002
{
1000
OWNER
1000
GEN
1002
}
1001
GENIUS_GENODEF_13
1002
{
1000
HIER
1070
     0
1002
}
1002
{
1000
MANEDIT
1070
     0
1002
}
1002
{
1000
NOSEL
1070
     0
1002
}
1002
{
1000
BEHIND
1070
     0
1002
}
1002
{
1000
OTHER
1070
     0
1002
}
1002
{
1000
REACTOR
1002
}
  0
LINE
  5
116F
330
1169
100
AcDbEntity
  8
AM_0
100
AcDbLine
 10
-8.664019536656123
 20
52.81153633176037
 30
0.0
 11
-0.5408066834338918
 21
55.5689955304404
 31
0.0
  0
LINE
  5
1170
330
1169
100
AcDbEntity
  8
AM_0
100
AcDbLine
 10
-8.664019536656125
 20
50.08119606836093
 30
0.0
 11
-0.5408066834338918
 21
47.32373686968091
 31
0.0
  0
ARC
  5
1171
330
1169
100
AcDbEntity
  8
AM_0
100
AcDbCircle
 10
-8.503299804004543
 20
50.55466113310848
 30
0.0
 40
0.5
100
AcDbArc
 50
180.0
 51
251.2499999999998
1001
GENIUS_GENOBJ-N-FIL_13
1002
{
1000
OWNER
1000
GEN
1002
}
1001
GENIUS_GENODEF_13
1002
{
1000
HIER
1070
     0
1002
}
1002
{
1000
MANEDIT
1070
     0
1002
}
1002
{
1000
NOSEL
1070
     0
1002
}
1002
{
1000
BEHIND
1070
     0
1002
}
1002
{
1000
OTHER
1070
     0
1002
}
1002
{
1000
REACTOR
1002
}
  0
ARC
  5
1172
330
1169
100
AcDbEntity
  8
AM_0
100
AcDbCircle
 10
6.096700195995458
 20
51.44636620006065
 30
0.0
 40
1.399999999999999
100
AcDbArc
 50
269.9999999999995
 51
90.0
  0
LINE
  5
1173
330
1169
100
AcDbEntity
  8
AM_0
100
AcDbLine
 10
6.096700195995458
 20
52.84636620006065
 30
0.0
 11
5.1680309189183
 21
52.84636620006065
 31
0.0
  0
LINE
  5
1174
330
1169
100
AcDbEntity
  8
AM_0
100
AcDbLine
 10
6.096700195995458
 20
50.04636620006065
 30
0.0
 11
5.168030918918303
 21
50.04636620006066
 31
0.0
  0
CIRCLE
  5
1175
330
1169
100
AcDbEntity
  8
AM_5
100
AcDbCircle
 10
0.9967001959954586
 20
51.44636620006065
 30
0.0
 40
3.0
  0
CIRCLE
  5
1176
330
1169
100
AcDbEntity
  8
AM_0
100
AcDbCircle
 10
0.9967001959954586
 20
51.44636620006065
 30
0.0
 40
2.5
  0
ENDBLK
  5
116B
330
1169
100
AcDbEntity
  8
0
100
AcDbBlockEnd
  0
BLOCK
  5
11A1
330
1189
100
AcDbEntity
  8
0
100
AcDbBlockBegin
  2
*D5
 70
     1
 10
0.0
 20
0.0
 30
0.0
  3
*D5
  1

  0
LINE
  5
11BF
330
1189
100
AcDbEntity
  8
AM_5
 62
     3
100
AcDbLine
 10
-118.0999999999999
 20
15.99857864376253
 30
0.0
 11
-128.9792848224542
 21
15.99857864376253
 31
0.0
  0
LINE
  5
11C0
330
1189
100
AcDbEntity
  8
AM_5
 62
     3
100
AcDbLine
 10
-118.0999999999999
 20
-16.00142135623747
 30
0.0
 11
-128.9792848224542
 21
-16.00142135623747
 31
0.0
  0
LINE
  5
11C1
330
1189
100
AcDbEntity
  8
AM_5
 62
     3
100
AcDbLine
 10
-128.4792848224542
 20
13.49857864376253
 30
0.0
 11
-128.4792848224542
 21
-13.50142135623747
 31
0.0
  0
INSERT
  5
11C2
330
1189
100
AcDbEntity
  8
AM_5
 62
     3
100
AcDbBlockReference
  2
_Open30
 10
-128.4792848224542
 20
15.99857864376253
 30
0.0
 41
2.5
 42
2.5
 43
2.5
 50
90.0
  0
INSERT
  5
11C3
330
1189
100
AcDbEntity
  8
AM_5
 62
     3
100
AcDbBlockReference
  2
_Open30
 10
-128.4792848224542
 20
-16.00142135623747
 30
0.0
 41
2.5
 42
2.5
 43
2.5
 50
270.0
  0
MTEXT
  5
11C4
330
1189
100
AcDbEntity
  8
AM_5
 62
     2
100
AcDbMText
 10
-131.1796194681235
 20
-0.0014213562374888
 30
0.0
 40
3.399999999999999
 41
0.0
 71
     5
 72
     1
  1
%%c32
 11
0.0000000000000001
 21
1.0
 31
0.0
 73
     1
 44
1.0
  0
POINT
  5
11C5
330
1189
100
AcDbEntity
  8
Defpoints
 62
     0
100
AcDbPoint
 10
-117.9999999999999
 20
15.99857864376253
 30
0.0
  0
POINT
  5
11C6
330
1189
100
AcDbEntity
  8
Defpoints
 62
     0
100
AcDbPoint
 10
-117.9999999999999
 20
-16.00142135623747
 30
0.0
  0
POINT
  5
11C7
330
1189
100
AcDbEntity
  8
Defpoints
 62
     0
100
AcDbPoint
 10
-128.4792848224542
 20
-16.00142135623747
 30
0.0
  0
ENDBLK
  5
11A2
330
1189
100
AcDbEntity
  8
0
100
AcDbBlockEnd
  0
BLOCK
  5
1254
330
11D9
100
AcDbEntity
  8
0
100
AcDbBlockBegin
  2
*D6
 70
     1
 10
0.0
 20
0.0
 30
0.0
  3
*D6
  1

  0
LINE
  5
11EE
330
11D9
100
AcDbEntity
  8
AM_5
 62
     3
100
AcDbLine
 10
-119.9999999999999
 20
-14.10142135623747
 30
0.0
 11
-119.9999999999999
 21
-27.50142135623755
 31
0.0
  0
LINE
  5
11EF
102
{ACAD_REACTORS
330
1211
102
}
330
11D9
100
AcDbEntity
  8
AM_5
 62
     3
100
AcDbLine
 10
-39.99999999999996
 20
-15.10142135623747
 30
0.0
 11
-39.99999999999996
 21
-27.50142135623755
 31
0.0
  0
LINE
  5
11F0
330
11D9
100
AcDbEntity
  8
AM_5
 62
     3
100
AcDbLine
 10
-117.4999999999999
 20
-27.00142135623755
 30
0.0
 11
-42.49999999999995
 21
-27.00142135623755
 31
0.0
  0
INSERT
  5
11F1
330
11D9
100
AcDbEntity
  8
AM_5
 62
     3
100
AcDbBlockReference
  2
_Open30
 10
-119.9999999999999
 20
-27.00142135623755
 30
0.0
 41
2.5
 42
2.5
 43
2.5
 50
180.0
  0
INSERT
  5
11F2
330
11D9
100
AcDbEntity
  8
AM_5
 62
     3
100
AcDbBlockReference
  2
_Open30
 10
-39.99999999999996
 20
-27.00142135623755
 30
0.0
 41
2.5
 42
2.5
 43
2.5
  0
MTEXT
  5
11F3
330
11D9
100
AcDbEntity
  8
AM_5
 62
     2
100
AcDbMText
 10
-79.99999999999996
 20
-24.30142135623755
 30
0.0
 40
3.399999999999999
 41
0.0
 71
     5
 72
     1
  1
80
 73
     1
 44
1.0
  0
POINT
  5
11F4
330
11D9
100
AcDbEntity
  8
Defpoints
 62
     0
100
AcDbPoint
 10
-119.9999999999999
 20
-14.00142135623747
 30
0.0
  0
POINT
  5
11F5
330
11D9
100
AcDbEntity
  8
Defpoints
 62
     0
100
AcDbPoint
 10
-39.99999999999996
 20
-15.00142135623747
 30
0.0
  0
POINT
  5
11F6
330
11D9
100
AcDbEntity
  8
Defpoints
 62
     0
100
AcDbPoint
 10
-39.99999999999996
 20
-27.00142135623755
 30
0.0
  0
ENDBLK
  5
1255
330
11D9
100
AcDbEntity
  8
0
100
AcDbBlockEnd
  0
BLOCK
  5
1256
330
1206
100
AcDbEntity
  8
0
100
AcDbBlockBegin
  2
*D7
 70
     1
 10
0.0
 20
0.0
 30
0.0
  3
*D7
  1

  0
LINE
  5
1688
330
1206
100
AcDbEntity
  8
AM_5
 62
     3
100
AcDbLine
 10
-39.99999999999996
 20
-15.20142135623747
 30
0.0
 11
-39.99999999999996
 21
-27.5014213562375
 31
0.0
  0
LINE
  5
1689
330
1206
100
AcDbEntity
  8
AM_5
 62
     3
100
AcDbLine
 10
0.0000000000000542
 20
-10.2025360850668
 30
0.0
 11
0.0000000000000532
 21
-27.5014213562375
 31
0.0
  0
LINE
  5
168A
330
1206
100
AcDbEntity
  8
AM_5
 62
     3
100
AcDbLine
 10
-37.49999999999996
 20
-27.0014213562375
 30
0.0
 11
-2.499999999999946
 21
-27.0014213562375
 31
0.0
  0
INSERT
  5
168B
330
1206
100
AcDbEntity
  8
AM_5
 62
     3
100
AcDbBlockReference
  2
_Open30
 10
-39.99999999999996
 20
-27.0014213562375
 30
0.0
 41
2.5
 42
2.5
 43
2.5
 50
180.0
  0
INSERT
  5
168C
330
1206
100
AcDbEntity
  8
AM_5
 62
     3
100
AcDbBlockReference
  2
_Open30
 10
0.0000000000000532
 20
-27.0014213562375
 30
0.0
 41
2.5
 42
2.5
 43
2.5
  0
MTEXT
  5
168D
330
1206
100
AcDbEntity
  8
AM_5
 62
     2
100
AcDbMText
 10
-19.99999999999995
 20
-24.3014213562375
 30
0.0
 40
3.399999999999999
 41
0.0
 71
     5
 72
     1
  1
40
 73
     1
 44
1.0
  0
POINT
  5
168E
330
1206
100
AcDbEntity
  8
Defpoints
 62
     0
100
AcDbPoint
 10
-39.99999999999996
 20
-15.10142135623747
 30
0.0
  0
POINT
  5
168F
330
1206
100
AcDbEntity
  8
Defpoints
 62
     0
100
AcDbPoint
 10
0.0000000000000542
 20
-10.1025360850668
 30
0.0
  0
POINT
  5
1690
330
1206
100
AcDbEntity
  8
Defpoints
 62
     0
100
AcDbPoint
 10
0.0000000000000532
 20
-27.0014213562375
 30
0.0
  0
ENDBLK
  5
1257
330
1206
100
AcDbEntity
  8
0
100
AcDbBlockEnd
  0
BLOCK
  5
1258
330
1233
100
AcDbEntity
  8
0
100
AcDbBlockBegin
  2
*D8
 70
     1
 10
0.0
 20
0.0
 30
0.0
  3
*D8
  1

  0
LINE
  5
1691
330
1233
100
AcDbEntity
  8
AM_5
 62
     3
100
AcDbLine
 10
-119.9999999999999
 20
-14.10142135623747
 30
0.0
 11
-119.9999999999999
 21
-35.50142135623755
 31
0.0
  0
LINE
  5
1692
330
1233
100
AcDbEntity
  8
AM_5
 62
     3
100
AcDbLine
 10
0.0000000000000542
 20
9.899693372591858
 30
0.0
 11
0.0000000000000514
 21
-35.50142135623755
 31
0.0
  0
LINE
  5
1693
330
1233
100
AcDbEntity
  8
AM_5
 62
     3
100
AcDbLine
 10
-117.4999999999999
 20
-35.00142135623755
 30
0.0
 11
-2.499999999999948
 21
-35.00142135623755
 31
0.0
  0
INSERT
  5
1694
330
1233
100
AcDbEntity
  8
AM_5
 62
     3
100
AcDbBlockReference
  2
_Open30
 10
-119.9999999999999
 20
-35.00142135623755
 30
0.0
 41
2.5
 42
2.5
 43
2.5
 50
180.0
  0
INSERT
  5
1695
330
1233
100
AcDbEntity
  8
AM_5
 62
     3
100
AcDbBlockReference
  2
_Open30
 10
0.0000000000000515
 20
-35.00142135623755
 30
0.0
 41
2.5
 42
2.5
 43
2.5
  0
MTEXT
  5
1696
330
1233
100
AcDbEntity
  8
AM_5
 62
     2
100
AcDbMText
 10
-59.99999999999995
 20
-32.30108671056826
 30
0.0
 40
3.399999999999999
 41
0.0
 71
     5
 72
     1
  1
120
 73
     1
 44
1.0
  0
POINT
  5
1697
330
1233
100
AcDbEntity
  8
Defpoints
 62
     0
100
AcDbPoint
 10
-119.9999999999999
 20
-14.00142135623747
 30
0.0
  0
POINT
  5
1698
330
1233
100
AcDbEntity
  8
Defpoints
 62
     0
100
AcDbPoint
 10
0.0000000000000542
 20
9.999693372591858
 30
0.0
  0
POINT
  5
1699
330
1233
100
AcDbEntity
  8
Defpoints
 62
     0
100
AcDbPoint
 10
0.0000000000000515
 20
-35.00142135623755
 30
0.0
  0
ENDBLK
  5
1259
330
1233
100
AcDbEntity
  8
0
100
AcDbBlockEnd
  0
BLOCK
  5
12CD
330
1277
100
AcDbEntity
  8
0
100
AcDbBlockBegin
  2
*D9
 70
     1
 10
0.0
 20
0.0
 30
0.0
  3
*D9
  1

  0
LINE
  5
171C
330
1277
100
AcDbEntity
  8
AM_5
 62
     3
100
AcDbLine
 10
0.1000000000000497
 20
9.998578643762529
 30
0.0
 11
13.94164713691518
 21
9.998578643762526
 31
0.0
  0
LINE
  5
171D
330
1277
100
AcDbEntity
  8
AM_5
 62
     3
100
AcDbLine
 10
0.1000000000000542
 20
-10.0025360850668
 30
0.0
 11
13.94164713691518
 21
-10.0025360850668
 31
0.0
  0
LINE
  5
171E
330
1277
100
AcDbEntity
  8
AM_5
 62
     3
100
AcDbLine
 10
13.44164713691518
 20
7.498578643762527
 30
0.0
 11
13.44164713691518
 21
-7.502536085066801
 31
0.0
  0
INSERT
  5
171F
330
1277
100
AcDbEntity
  8
AM_5
 62
     3
100
AcDbBlockReference
  2
_Open30
 10
13.44164713691518
 20
9.998578643762526
 30
0.0
 41
2.5
 42
2.5
 43
2.5
 50
90.0
  0
INSERT
  5
1720
330
1277
100
AcDbEntity
  8
AM_5
 62
     3
100
AcDbBlockReference
  2
_Open30
 10
13.44164713691518
 20
-10.0025360850668
 30
0.0
 41
2.5
 42
2.5
 43
2.5
 50
270.0
  0
MTEXT
  5
1721
330
1277
100
AcDbEntity
  8
AM_5
 62
     2
100
AcDbMText
 10
10.74131249124589
 20
0.1148600829928629
 30
0.0
 40
3.399999999999999
 41
0.0
 71
     5
 72
     1
  1
%%c20
 11
0.0000000000000001
 21
1.0
 31
0.0
 73
     1
 44
1.0
  0
POINT
  5
1722
330
1277
100
AcDbEntity
  8
Defpoints
 62
     0
100
AcDbPoint
 10
0.0000000000000497
 20
9.998578643762529
 30
0.0
  0
POINT
  5
1723
330
1277
100
AcDbEntity
  8
Defpoints
 62
     0
100
AcDbPoint
 10
0.0000000000000542
 20
-10.0025360850668
 30
0.0
  0
POINT
  5
1724
330
1277
100
AcDbEntity
  8
Defpoints
 62
     0
100
AcDbPoint
 10
13.44164713691518
 20
-10.0025360850668
 30
0.0
  0
ENDBLK
  5
12CE
330
1277
100
AcDbEntity
  8
0
100
AcDbBlockEnd
  0
BLOCK
  5
12CF
330
12B5
100
AcDbEntity
  8
0
100
AcDbBlockBegin
  2
*D10
 70
     1
 10
0.0
 20
0.0
 30
0.0
  3
*D10
  1

  0
LINE
  5
173D
330
12B5
100
AcDbEntity
  8
AM_5
 62
     3
100
AcDbLine
 10
-8.548885271170624
 20
18.64857864376253
 30
0.0
 11
21.75611966653907
 21
18.64857864376252
 31
0.0
  0
LINE
  5
173E
330
12B5
100
AcDbEntity
  8
AM_5
 62
     3
100
AcDbLine
 10
-8.548885271170638
 20
-18.65142135623747
 30
0.0
 11
21.75611966653906
 21
-18.65142135623748
 31
0.0
  0
LINE
  5
173F
330
12B5
100
AcDbEntity
  8
AM_5
 62
     3
100
AcDbLine
 10
21.25611966653907
 20
16.14857864376252
 30
0.0
 11
21.25611966653906
 21
-16.15142135623748
 31
0.0
  0
INSERT
  5
1740
330
12B5
100
AcDbEntity
  8
AM_5
 62
     3
100
AcDbBlockReference
  2
_Open30
 10
21.25611966653907
 20
18.64857864376252
 30
0.0
 41
2.5
 42
2.5
 43
2.5
 50
90.0
  0
INSERT
  5
1741
330
12B5
100
AcDbEntity
  8
AM_5
 62
     3
100
AcDbBlockReference
  2
_Open30
 10
21.25611966653906
 20
-18.65142135623748
 30
0.0
 41
2.5
 42
2.5
 43
2.5
 50
270.0
  0
MTEXT
  5
1742
330
12B5
100
AcDbEntity
  8
AM_5
 62
     2
100
AcDbMText
 10
18.55611966653906
 20
0.7711130458527866
 30
0.0
 40
3.399999999999999
 41
0.0
 71
     5
 72
     1
  1
%%c37.3
 11
0.0000000000000001
 21
1.0
 31
0.0
 73
     1
 44
1.0
  0
POINT
  5
1743
330
12B5
100
AcDbEntity
  8
Defpoints
 62
     0
100
AcDbPoint
 10
-8.648885271170623
 20
18.64857864376253
 30
0.0
  0
POINT
  5
1744
330
12B5
100
AcDbEntity
  8
Defpoints
 62
     0
100
AcDbPoint
 10
-8.648885271170637
 20
-18.65142135623747
 30
0.0
  0
POINT
  5
1745
330
12B5
100
AcDbEntity
  8
Defpoints
 62
     0
100
AcDbPoint
 10
21.25611966653906
 20
-18.65142135623748
 30
0.0
  0
ENDBLK
  5
12D0
330
12B5
100
AcDbEntity
  8
0
100
AcDbBlockEnd
  0
BLOCK
  5
16F0
330
16AA
100
AcDbEntity
  8
0
100
AcDbBlockBegin
  2
*D12
 70
     1
 10
0.0
 20
0.0
 30
0.0
  3
*D12
  1

  0
LINE
  5
16F2
330
16AA
100
AcDbEntity
  8
AM_5
100
AcDbLine
 10
0.0000000000000551
 20
12.65878595501692
 30
0.0
 11
0.0000000000000551
 21
31.40849268852914
 31
0.0
  0
LINE
  5
16F3
330
16AA
100
AcDbEntity
  8
AM_5
100
AcDbLine
 10
-8.083199846221388
 20
18.41426406871176
 30
0.0
 11
-14.90399259831036
 21
25.23505682080075
 31
0.0
  0
ARC
  5
16F4
330
16AA
100
AcDbEntity
  8
AM_5
100
AcDbCircle
 10
0.0000000000000546
 20
10.33106422249033
 30
0.0
 40
20.07742846603882
100
AcDbArc
 50
97.13896940397569
 51
127.8610305960243
  0
INSERT
  5
16F5
330
16AA
100
AcDbEntity
  8
AM_5
100
AcDbBlockReference
  2
_Open30
 10
0.0000000000000568
 20
30.40849268852915
 30
0.0
 41
2.5
 42
2.5
 43
2.5
 50
3.569484701987847
  0
INSERT
  5
16F6
330
16AA
100
AcDbEntity
  8
AM_5
100
AcDbBlockReference
  2
_Open30
 10
-14.19688581712381
 20
24.52795003961421
 30
0.0
 41
2.5
 42
2.5
 43
2.5
 50
221.4305152980121
  0
MTEXT
  5
16F7
330
16AA
100
AcDbEntity
  8
AM_5
 62
     2
100
AcDbMText
 10
-8.984422908489543
 20
32.02137985826145
 30
0.0
 40
3.799999999999999
 41
0.0
 71
     5
 72
     1
  1
45%%d
 11
0.9238795325112867
 21
0.3826834323650898
 31
0.0
 73
     1
 44
1.0
  0
POINT
  5
16F8
330
16AA
100
AcDbEntity
  8
Defpoints
 62
     0
100
AcDbPoint
 10
-5.196420863694276
 20
29.72437090330854
 30
0.0
  0
POINT
  5
16F9
330
16AA
100
AcDbEntity
  8
Defpoints
 62
     0
100
AcDbPoint
 10
0.0000000000000546
 20
9.999693372591856
 30
0.0
  0
POINT
  5
16FA
330
16AA
100
AcDbEntity
  8
Defpoints
 62
     0
100
AcDbPoint
 10
-8.083199846221388
 20
18.41426406871176
 30
0.0
  0
POINT
  5
16FB
330
16AA
100
AcDbEntity
  8
Defpoints
 62
     0
100
AcDbPoint
 10
-0.2343145750507092
 20
10.56537879754109
 30
0.0
  0
POINT
  5
16FC
330
16AA
100
AcDbEntity
  8
Defpoints
 62
     0
100
AcDbPoint
 10
0.0000000000000551
 20
12.65878595501692
 30
0.0
  0
ENDBLK
  5
16F1
330
16AA
100
AcDbEntity
  8
0
100
AcDbBlockEnd
  0
ENDSEC
  0
SECTION
  2
ENTITIES
  0
MTEXT
  5
9EA
330
1F
100
AcDbEntity
  8
AM_6
100
AcDbMText
 10
-48.80080384160816
 20
-38.81372822363232
 30
0.0
 40
5.0
 41
60.06636689918345
 71
     1
 72
     5
  1
SMC420
  7
ACISOTS
 73
     1
 44
1.0
  0
REGION
  5
EBB
102
{ACAD_REACTORS
330
16BA
102
}
330
1F
100
AcDbEntity
  8
AM_0
100
AcDbModelerGeometry
 70
     1
  1
mogoo kh m o          
  1
ni ^ *+0;:,4 ^ *+0\^ [ nh ^ LR iqoqjqhook QK mk K*: [:< oh noeoieog mono 
  1
n fqfffffffffffffffj:rooh n:rono 
  1
>,27:>;:- {rn rn _nm mogqoqjqhook |
  1
=0;& {rn rn {rn {m {rn {rn |
  1
3*2/ {rn rn {rn {rn {l {n |
  1
,7:33 {rn rn {rn {rn {rn {k {rn {m |
  1
9><: {rn rn {rn {rn {j {l {rn {i 90-(>-; ;0*=3: 0*+ |
  1
300/ {rn rn {rn {rn {h {k |
  1
/3>1:r,*-9><: {rn rn {rn rgqikgggjmhnnhoilmj fqfffifllhmjfngkkm o o o n oqhohnoihgnngijkhjh oqhohnoihgnngijkhki o 90-(>-;@) V V V V |
  1
<0:;8: {rn rn {rn {g {f {rn {no 90-(>-; {j {rn |
  1
<0:;8: {rn rn {rn {nn {h {rn {nm -:):-,:; {j {rn |
  1
<0:;8: {rn rn {rn {h {nl {rn {nk -:):-,:; {j {rn |
  1
:;8: {rn rn {rn {nj rlqnknjfmijljgfhfln {ni rnqjhohfilmihfkgfii {h {nh 90-(>-; _h *1410(1 |
  1
<0:;8: {rn rn {rn {ng {g {rn {nf 90-(>-; {j {rn |
  1
:;8: {rn rn {rn {mo o {ni nnqnooooooooooooni {g {mn 90-(>-; _h *1410(1 |
  1
<0:;8: {rn rn {rn {f {mm {rn {ml 90-(>-; {j {rn |
  1
:;8: {rn rn {rn {nj o {mk nnqnoooooooooooool {f {mj 90-(>-; _h *1410(1 |
  1
):-+:' {rn rn {rn {no {mi |
  1
):-+:' {rn rn {rn {no {mh |
  1
:336/,:r<*-): {rn rn {rn rgqikgggjmhnnhoilmj mqnjogognonkmnnhnj o o o n oqjijigjkmkfkfmlgnm oqjijigjkmkfkfmlgon o n V V |
  1
<0:;8: {rn rn {rn {mg {nn {rn {mf -:):-,:; {j {rn |
  1
:;8: {rn rn {rn {mo rnqjhohfilmihfkgfii {lo o {nn {ln 90-(>-; _h *1410(1 |
  1
):-+:' {rn rn {rn {nm {lm |
  1
,+->687+r<*-): {rn rn {rn roqmlklnkjhjojohofom fqklkoohfkhikming o roqhohnoihgnngijkhjh roqhohnoihgnngijkhki o V V |
  1
<0:;8: {rn rn {rn {nl {mg {rn {ll -:):-,:; {j {rn |
  1
:;8: {rn rn {rn {lk nqjhohfilmihfkgfii {mk lqnknjfmijljgfhfln {nl {lj 90-(>-; _h *1410(1 |
  1
):-+:' {rn rn {rn {ml {li |
  1
,+->687+r<*-): {rn rn {rn rfqmnkjhoifinnfgifj nqjgjnmmihikhnflki o roqhohnoihgnngijkhki oqhohnoihgnngijkhjh o V V |
  1
/061+ {rn rn {rn rfqmnkjhoifinnfgifj nqjgjnmmihikhnflki o |
  1
/061+ {rn rn {rn rgqoglnffgkimmnlfji nqjgjnmmihikhnflnn o |
  1
<0:;8: {rn rn {rn {mm {ng {rn {lh 90-(>-; {j {rn |
  1
:;8: {rn rn {rn {lg o {lo nnqn {ng {lf 90-(>-; _h *1410(1 |
  1
):-+:' {rn rn {rn {nf {ko |
  1
:336/,:r<*-): {rn rn {rn roqhffffffffffffkjgh fqfffifllhmjfngjgk o o o n oqjijigjkmkfkfmlgnm oqjijigjkmkfkfmlgon o n V V |
  1
/061+ {rn rn {rn roqmlklnkjhjojohofom fqklkoohfkhikming o |
  1
:;8: {rn rn {rn {lk o {kn nnqnooooooooooooof {mm {km 90-(>-; _h *1410(1 |
  1
):-+:' {rn rn {rn {ll {kl |
  1
:336/,:r<*-): {rn rn {rn rniqkfhhhojkmlknlnn fqfffifllhmjfngjnl o o o n oqjijigjkmkfkfmlgnm oqjijigjkmkfkfmlgon o n V V |
  1
/061+ {rn rn {rn rnhqoilkjjfihmfojkh fqklkoohfkhikminkk o |
  1
:;8: {rn rn {rn {lg o {kn nqjhohfilmihfkgfii {mg {kk 90-(>-; _h *1410(1 |
  1
):-+:' {rn rn {rn {mf {kj |
  1
,+->687+r<*-): {rn rn {rn rgqoglnffgkimmnlggj ngqknkmikoighnnhii o oqhohnoihgnngijkhfn roqhohnoihgnngijkhnl o V V |
  1
/061+ {rn rn {rn roqmlklnkjhjojohofom noqjijlhghfhjknofj o |
  1
):-+:' {rn rn {rn {lh {ki |
  1
,+->687+r<*-): {rn rn {rn rnhqoilkjjfihmfojjj noqjijlhghfhjknogg o oqhohnoihgnngijkhhf oqhohnoihgnngijkhmk o V V |
  1
/061+ {rn rn {rn rnhqoilkjjfihmfojjj noqjijlhghfhjknogg o |
  1
:336/,:r<*-): {rn rn {rn rgqikgggjmhnnhoimjk nhqgkgjhgiklhimjmf o o o n oqjijigjkmkfkfmlgnm oqjijigjkmkfkfmlgon o n V V |
  1
/061+ {rn rn {rn rgqoglnffgkimmnlggj ngqknkmikoighnnhii o |
  1
/061+ {rn rn {rn rfqmnkjhoifinnfgifj ngqknkmikoighnnhii o |
  0
LINE
  5
F41
102
{ACAD_REACTORS
330
11E4
102
}
330
1F
100
AcDbEntity
  8
AM_0
100
AcDbLine
 10
-119.9999999999999
 20
13.99857864376253
 30
0.0
 11
-119.9999999999999
 21
-14.00142135623747
 31
0.0
  0
LINE
  5
F56
330
1F
100
AcDbEntity
  8
AM_0
100
AcDbLine
 10
-117.9999999999999
 20
15.99857864376253
 30
0.0
 11
-99.99999999999996
 21
15.99857864376253
 31
0.0
  0
LINE
  5
F60
330
1F
100
AcDbEntity
  8
AM_0
100
AcDbLine
 10
-117.9999999999999
 20
-16.00142135623747
 30
0.0
 11
-99.99999999999996
 21
-16.00142135623747
 31
0.0
  0
LINE
  5
F63
330
1F
100
AcDbEntity
  8
AM_0
100
AcDbLine
 10
-117.9999999999999
 20
15.99857864376253
 30
0.0
 11
-119.9999999999999
 21
13.99857864376253
 31
0.0
1001
GENIUS_GENFIL_13
1070
     0
1040
2.0
1040
2.0
1040
20.0
1040
0.0
1002
{
1002
}
1001
GENIUS_GENOBJ-N-CHA_13
1002
{
1000
OWNER
1000
GEN
1002
}
1001
GENIUS_GENODEF_13
1002
{
1000
HIER
1070
     0
1002
}
1002
{
1000
MANEDIT
1070
     0
1002
}
1002
{
1000
NOSEL
1070
     0
1002
}
1002
{
1000
BEHIND
1070
     0
1002
}
1002
{
1000
OTHER
1070
     0
1002
}
1002
{
1000
REACTOR
1002
}
  0
LINE
  5
F65
330
1F
100
AcDbEntity
  8
AM_0
100
AcDbLine
 10
-117.9999999999999
 20
-16.00142135623747
 30
0.0
 11
-119.9999999999999
 21
-14.00142135623747
 31
0.0
1001
GENIUS_GENFIL_13
1070
     0
1040
2.0
1040
2.0
1040
20.0
1040
0.0
1002
{
1002
}
1001
GENIUS_GENOBJ-N-CHA_13
1002
{
1000
OWNER
1000
GEN
1002
}
1001
GENIUS_GENODEF_13
1002
{
1000
HIER
1070
     0
1002
}
1002
{
1000
MANEDIT
1070
     0
1002
}
1002
{
1000
NOSEL
1070
     0
1002
}
1002
{
1000
BEHIND
1070
     0
1002
}
1002
{
1000
OTHER
1070
     0
1002
}
1002
{
1000
REACTOR
1002
}
  0
LINE
  5
F70
330
1F
100
AcDbEntity
  8
AM_0
100
AcDbLine
 10
-89.99999999999996
 20
15.99857864376253
 30
0.0
 11
-89.99999999999996
 21
-16.00142135623747
 31
0.0
  0
LINE
  5
F7A
330
1F
100
AcDbEntity
  8
AM_0
100
AcDbLine
 10
-99.99999999999996
 20
15.99857864376253
 30
0.0
 11
-99.99999999999996
 21
-16.00142135623747
 31
0.0
  0
LINE
  5
F85
330
1F
100
AcDbEntity
  8
AM_0
100
AcDbLine
 10
-99.99999999999996
 20
15.69857864376253
 30
0.0
 11
-89.99999999999996
 21
15.69857864376253
 31
0.0
  0
LINE
  5
F90
330
1F
100
AcDbEntity
  8
AM_0
100
AcDbLine
 10
-89.99999999999996
 20
15.99857864376253
 30
0.0
 11
-42.99999999999996
 21
15.99857864376253
 31
0.0
  0
LINE
  5
F91
330
1F
100
AcDbEntity
  8
AM_0
100
AcDbLine
 10
-99.99999999999996
 20
-15.70142135623746
 30
0.0
 11
-89.99999999999996
 21
-15.70142135623746
 31
0.0
  0
LINE
  5
F92
330
1F
100
AcDbEntity
  8
AM_0
100
AcDbLine
 10
-89.99999999999996
 20
-16.00142135623747
 30
0.0
 11
-42.99999999999996
 21
-16.00142135623747
 31
0.0
  0
LINE
  5
FCA
330
1F
100
AcDbEntity
  8
AM_7
100
AcDbLine
 10
-122.7939999999999
 20
-0.0014213562374703
 30
0.0
 11
2.794000000000047
 21
-0.0014213562374703
 31
0.0
1001
GENIUS_GENODEF_13
1002
{
1000
HIER
1070
     0
1002
}
1002
{
1000
MANEDIT
1070
     0
1002
}
1002
{
1000
NOSEL
1070
     0
1002
}
1002
{
1000
BEHIND
1070
     0
1002
}
1002
{
1000
OTHER
1070
     0
1002
}
1002
{
1000
REACTOR
1002
}
1001
GENIUS_GENOBJ-N-CEN_13
1002
{
1000
OWNER
1000
GEN
1002
}
1001
GENIUS_GENCEN_19
1002
{
1040
2.794
1002
}
  0
LINE
  5
1036
102
{ACAD_REACTORS
330
1194
102
}
330
1F
100
AcDbEntity
  8
AM_0
100
AcDbLine
 10
-117.9999999999999
 20
15.99857864376253
 30
0.0
 11
-117.9999999999999
 21
-16.00142135623747
 31
0.0
  0
INSERT
  5
1177
330
1F
100
AcDbEntity
  8
AM_0
100
AcDbBlockReference
  2
osae
 10
-36.68994858161978
 20
54.54095137445872
 30
0.0
 50
199.9999999999999
  0
DIMENSION
  5
1188
102
{ACAD_XDICTIONARY
360
1193
102
}
102
{ACAD_REACTORS
330
1194
102
}
330
1F
100
AcDbEntity
  8
AM_5
100
AcDbDimension
  2
*D5
 10
-128.4792848224542
 20
-16.00142135623747
 30
0.0
 11
-131.1796194681235
 21
-0.0014213562374888
 31
0.0
 70
    32
  1
%%c<>
 71
     5
 42
32.0
  3
AM_JIS$0
100
AcDbAlignedDimension
 13
-117.9999999999999
 23
15.99857864376253
 33
0.0
 14
-117.9999999999999
 24
-16.00142135623747
 34
0.0
 50
90.0
100
AcDbRotatedDimension
1001
ACAD
1000
DSTYLE
1002
{
1070
   271
1070
     0
1002
}
  0
DIMENSION
  5
11D8
102
{ACAD_XDICTIONARY
360
11E3
102
}
102
{ACAD_REACTORS
330
11E4
330
1211
102
}
330
1F
100
AcDbEntity
  8
AM_5
100
AcDbDimension
  2
*D6
 10
-39.99999999999996
 20
-27.00142135623755
 30
0.0
 11
-79.99999999999996
 21
-24.30142135623755
 31
0.0
 70
    32
 71
     5
 42
80.0
  3
AM_JIS$0
100
AcDbAlignedDimension
 13
-119.9999999999999
 23
-14.00142135623747
 33
0.0
 14
-39.99999999999996
 24
-15.00142135623747
 34
0.0
 50
0.0000000000001132
100
AcDbRotatedDimension
1001
ACAD
1000
DSTYLE
1002
{
1070
   271
1070
     0
1002
}
  0
DIMENSION
  5
1205
102
{ACAD_XDICTIONARY
360
1210
102
}
102
{ACAD_REACTORS
330
1211
102
}
330
1F
100
AcDbEntity
  8
AM_5
100
AcDbDimension
  2
*D7
 10
0.0000000000000532
 20
-27.0014213562375
 30
0.0
 11
-19.99999999999995
 21
-24.3014213562375
 31
0.0
 70
    32
 71
     5
 42
40.00000000000001
  3
AM_JIS$0
100
AcDbAlignedDimension
 13
-39.99999999999996
 23
-15.10142135623747
 33
0.0
 14
0.0000000000000542
 24
-10.1025360850668
 34
0.0
 50
0.0000000000001132
100
AcDbRotatedDimension
1001
ACAD
1000
DSTYLE
1002
{
1070
   271
1070
     0
1002
}
  0
DIMENSION
  5
1232
330
1F
100
AcDbEntity
  8
AM_5
100
AcDbDimension
  2
*D8
 10
0.0000000000000515
 20
-35.00142135623755
 30
0.0
 11
-59.99999999999995
 21
-32.30108671056826
 31
0.0
 70
    32
 71
     5
 42
120.0
  3
AM_JIS$0
100
AcDbAlignedDimension
 13
-119.9999999999999
 23
-14.00142135623747
 33
0.0
 14
0.0000000000000542
 24
9.999693372591858
 34
0.0
 50
0.0000000000001132
100
AcDbRotatedDimension
1001
ACAD
1000
DSTYLE
1002
{
1070
   271
1070
     0
1002
}
  0
DIMENSION
  5
1276
330
1F
100
AcDbEntity
  8
AM_5
100
AcDbDimension
  2
*D9
 10
13.44164713691518
 20
-10.0025360850668
 30
0.0
 11
13.44164713691518
 21
0.1148600829928625
 31
0.0
 70
   160
  1
%%c<>
 71
     5
 42
20.00111472882933
  3
AM_JIS$0
100
AcDbAlignedDimension
 13
0.0000000000000497
 23
9.998578643762529
 33
0.0
 14
0.0000000000000542
 24
-10.0025360850668
 34
0.0
 50
90.00000000000003
100
AcDbRotatedDimension
1001
ACAD
1000
DSTYLE
1002
{
1070
   271
1070
     0
1002
}
  0
DIMENSION
  5
12B4
330
1F
100
AcDbEntity
  8
AM_5
100
AcDbDimension
  2
*D10
 10
21.25611966653906
 20
-18.65142135623748
 30
0.0
 11
21.25611966653906
 21
0.7711130458527862
 31
0.0
 70
   160
  1
%%c<>
 71
     5
 42
37.3
  3
AM_JIS$0
100
AcDbAlignedDimension
 13
-8.648885271170623
 23
18.64857864376253
 33
0.0
 14
-8.648885271170637
 24
-18.65142135623747
 34
0.0
 50
90.00000000000003
100
AcDbRotatedDimension
1001
ACAD
1000
DSTYLE
1002
{
1070
   271
1070
     1
1002
}
  0
LINE
  5
147D
330
1F
100
AcDbEntity
  8
AM_0
100
AcDbLine
 10
-42.99999999999995
 20
15.99857864376253
 30
0.0
 11
-42.99999999999995
 21
-16.00142135623747
 31
0.0
  0
LINE
  5
147E
330
1F
100
AcDbEntity
  8
AM_0
100
AcDbLine
 10
-42.99999999999996
 20
15.49857864376253
 30
0.0
 11
-39.99999999999996
 21
15.49857864376253
 31
0.0
  0
LINE
  5
147F
330
1F
100
AcDbEntity
  8
AM_0
100
AcDbLine
 10
-42.99999999999996
 20
-15.50142135623747
 30
0.0
 11
-39.99999999999996
 21
-15.50142135623747
 31
0.0
  0
LINE
  5
1480
330
1F
100
AcDbEntity
  8
AM_0
100
AcDbLine
 10
-39.99999999999996
 20
17.84857864376253
 30
0.0
 11
-39.99999999999996
 21
-0.0014213562374703
 31
0.0
  0
LINE
  5
1481
330
1F
100
AcDbEntity
  8
AM_0
100
AcDbLine
 10
-39.99999999999996
 20
17.84857864376253
 30
0.0
 11
-9.780256121069104
 21
17.84857864376253
 31
0.0
  0
LINE
  5
1668
330
1F
100
AcDbEntity
  8
AM_0
100
AcDbLine
 10
-42.99999999999996
 20
-15.50142135623747
 30
0.0
 11
-39.99999999999996
 21
-15.50142135623747
 31
0.0
  0
LINE
  5
1669
330
1F
100
AcDbEntity
  8
AM_0
100
AcDbLine
 10
-39.99999999999996
 20
-17.85142135623747
 30
0.0
 11
-39.99999999999996
 21
-0.0014213562374703
 31
0.0
  0
LINE
  5
166A
330
1F
100
AcDbEntity
  8
AM_0
100
AcDbLine
 10
-39.99999999999996
 20
-17.85142135623747
 30
0.0
 11
-8.649999999999957
 21
-17.85142135623747
 31
0.0
  0
LINE
  5
16A7
102
{ACAD_REACTORS
330
16BA
102
}
330
1F
100
AcDbEntity
  8
AM_5
100
AcDbLine
 10
0.0000000000000542
 20
9.999693372591858
 30
0.0
 11
0.0000000000000544
 21
12.65878595501692
 31
0.0
  0
DIMENSION
  5
16A9
102
{ACAD_XDICTIONARY
360
16B9
102
}
102
{ACAD_REACTORS
330
16BA
102
}
330
1F
100
AcDbEntity
  8
AM_5
100
AcDbDimension
  2
*D12
 10
0.0000000000000544
 20
12.65878595501692
 30
0.0
 11
-8.984422908489541
 21
32.02137985826145
 31
0.0
 70
    34
  1
45%%d
 71
     5
 42
0.7853981633974483
  3
AM_JIS$2
100
AcDb2LineAngularDimension
 13
-8.083199846221388
 23
18.41426406871176
 33
0.0
 14
-0.2343145750507087
 24
10.56537879754109
 34
0.0
 15
0.0000000000000542
 25
9.999693372591858
 35
0.0
 16
-5.196420863694276
 26
29.72437090330854
 36
0.0
1001
ACAD_DIMASSOC_DIMLFAC
1040
1.0
1001
ACAD_DIMASSOC_CALC_DIMLFAC
1040
1.0
1001
ACAD_DIMASSOC_OVERRIDDEN_DIMLFAC
1040
1.0
1001
ACAD
1000
DSTYLE
1002
{
1070
    40
1040
1.0
1070
   144
1040
1.0
1070
   179
1070
     0
1070
   271
1070
     0
1002
}
  0
LINE
  5
1752
330
1F
100
AcDbEntity
  8
AM_0
100
AcDbLine
 10
-9.299999999999958
 20
1.670551980352023
 30
0.0
 11
-9.299999999999956
 21
-1.501421356237472
 31
0.0
  0
LINE
  5
17D2
330
1F
100
AcDbEntity
  8
AM_0
100
AcDbLine
 10
-9.299999999999958
 20
-1.50142135623747
 30
0.0
 11
-0.9999999999999559
 21
-9.801421356237465
 31
0.0
  0
LINE
  5
17D3
330
1F
100
AcDbEntity
  8
AM_0
100
AcDbLine
 10
-0.9999999999999563
 20
-9.801421356237467
 30
0.0
 11
-0.9999999999999563
 21
-10.20142135623747
 31
0.0
  0
LINE
  5
17D4
330
1F
100
AcDbEntity
  8
AM_0
100
AcDbLine
 10
-0.9999999999999563
 20
-10.20142135623747
 30
0.0
 11
-8.649999999999959
 21
-17.85142135623747
 31
0.0
  0
ARC
  5
17D5
330
1F
100
AcDbEntity
  8
AM_0
100
AcDbCircle
 10
-8.648885271170632
 20
-2.153650813896112
 30
0.0
 40
0.8
100
AcDbArc
 50
45.00000000000017
 51
135.0
  0
LINE
  5
17D6
330
1F
100
AcDbEntity
  8
AM_3
 48
0.4
100
AcDbLine
 10
-9.214570696119869
 20
-1.587965388946875
 30
0.0
 11
-17.06345596729055
 21
-9.436850660117555
 31
0.0
  0
LINE
  5
17D7
330
1F
100
AcDbEntity
  8
AM_0
100
AcDbLine
 10
-0.234314575050709
 20
-9.436850660117558
 30
0.0
 11
-8.083199846221395
 21
-1.587965388946871
 31
0.0
  0
ARC
  5
17D8
330
1F
100
AcDbEntity
  8
AM_3
 48
0.4
100
AcDbCircle
 10
-16.49777054234131
 20
-10.00253608506679
 30
0.0
 40
0.8
100
AcDbArc
 50
135.0
 51
224.9999999999996
  0
ARC
  5
17D9
330
1F
100
AcDbEntity
  8
AM_0
100
AcDbCircle
 10
-0.7999999999999459
 20
-10.0025360850668
 30
0.0
 40
0.8
100
AcDbArc
 50
315.0
 51
45.00000000000015
  0
LINE
  5
17DA
330
1F
100
AcDbEntity
  8
AM_3
 48
0.4
100
AcDbLine
 10
-17.06345596729055
 20
-10.56822151001603
 30
0.0
 11
-9.780256121069108
 21
-17.85142135623747
 31
0.0
  0
LINE
  5
17DB
330
1F
100
AcDbEntity
  8
AM_0
100
AcDbLine
 10
-8.083199846221388
 20
-18.41710678118671
 30
0.0
 11
-0.234314575050709
 21
-10.56822151001603
 31
0.0
  0
ARC
  5
17DC
330
1F
100
AcDbEntity
  8
AM_0
100
AcDbCircle
 10
-8.648885271170625
 20
-17.85142135623747
 30
0.0
 40
0.8
100
AcDbArc
 50
224.9999999999996
 51
315.0
  0
LINE
  5
17DD
330
1F
100
AcDbEntity
  8
AM_0
100
AcDbLine
 10
-9.780256121069108
 20
-17.85142135623747
 30
0.0
 11
-9.214570696119869
 21
-18.41710678118671
 31
0.0
  0
CIRCLE
  5
17E3
330
1F
100
AcDbEntity
  8
AM_3
 48
0.4
100
AcDbCircle
 10
-20.03084685960306
 20
-5.859131858600001
 30
0.0
 40
4.4
  0
LINE
  5
17E4
330
1F
100
AcDbEntity
  8
AM_3
 48
0.4
100
AcDbLine
 10
-10.93890174654718
 20
-10.11726196318904
 30
0.0
 11
-10.32893955694077
 21
-8.441404620524323
 31
0.0
  0
ARC
  5
17E5
330
1F
100
AcDbEntity
  8
AM_3
 48
0.4
100
AcDbCircle
 10
-10.79878586733372
 20
-8.270394548861489
 30
0.0
 40
0.5
100
AcDbArc
 50
339.9999999999999
 51
51.24999999999971
1001
GENIUS_GENOBJ-N-FIL_13
1002
{
1000
OWNER
1000
GEN
1002
}
1001
GENIUS_GENODEF_13
1002
{
1000
HIER
1070
     0
1002
}
1002
{
1000
MANEDIT
1070
     0
1002
}
1002
{
1000
NOSEL
1070
     0
1002
}
1002
{
1000
BEHIND
1070
     0
1002
}
1002
{
1000
OTHER
1070
     0
1002
}
1002
{
1000
REACTOR
1002
}
  0
LINE
  5
17E6
330
1F
100
AcDbEntity
  8
AM_3
 48
0.4
100
AcDbLine
 10
-10.48582413124169
 20
-7.880452307315053
 30
0.0
 11
-17.17604071614064
 21
-2.510985821873219
 31
0.0
  0
LINE
  5
17E7
330
1F
100
AcDbEntity
  8
AM_3
 48
0.4
100
AcDbLine
 10
-11.41965549945741
 20
-10.44613290506616
 30
0.0
 11
-19.99608526505082
 21
-10.25899454186002
 31
0.0
  0
ARC
  5
17E8
330
1F
100
AcDbEntity
  8
AM_3
 48
0.4
100
AcDbCircle
 10
-11.40874805694013
 20
-9.946251891526209
 30
0.0
 40
0.5
100
AcDbArc
 50
268.7500000000001
 51
339.9999999999999
1001
GENIUS_GENOBJ-N-FIL_13
1002
{
1000
OWNER
1000
GEN
1002
}
1001
GENIUS_GENODEF_13
1002
{
1000
HIER
1070
     0
1002
}
1002
{
1000
MANEDIT
1070
     0
1002
}
1002
{
1000
NOSEL
1070
     0
1002
}
1002
{
1000
BEHIND
1070
     0
1002
}
1002
{
1000
OTHER
1070
     0
1002
}
1002
{
1000
REACTOR
1002
}
  0
ARC
  5
17E9
330
1F
100
AcDbEntity
  8
AM_3
 48
0.4
100
AcDbCircle
 10
-24.8232792256112
 20
-4.11482912763909
 30
0.0
 40
1.399999999999999
100
AcDbArc
 50
69.99999999999992
 51
250.0000000000004
  0
LINE
  5
17EA
330
1F
100
AcDbEntity
  8
AM_3
 48
0.4
100
AcDbLine
 10
-24.34445102495526
 20
-2.79925945853882
 30
0.0
 11
-23.47178735813526
 21
-3.116883057786893
 31
0.0
  0
LINE
  5
17EB
330
1F
100
AcDbEntity
  8
AM_3
 48
0.4
100
AcDbLine
 10
-25.30210742626713
 20
-5.43039879673936
 30
0.0
 11
-24.42944375944714
 21
-5.748022395987426
 31
0.0
  0
CIRCLE
  5
17EC
330
1F
100
AcDbEntity
  8
AM_3
 48
0.4
100
AcDbCircle
 10
-20.03084685960306
 20
-5.859131858600001
 30
0.0
 40
3.0
  0
CIRCLE
  5
17ED
330
1F
100
AcDbEntity
  8
AM_3
 48
0.4
100
AcDbCircle
 10
-20.03084685960306
 20
-5.859131858600001
 30
0.0
 40
2.5
  0
ENDSEC
  0
SECTION
  2
OBJECTS
  0
DICTIONARY
  5
C
330
0
100
AcDbDictionary
281
     1
  3
ACAD_COLOR
350
BE
  3
ACAD_GROUP
350
D
  3
ACAD_LAYOUT
350
1A
  3
ACAD_MATERIAL
350
BD
  3
ACAD_MLINESTYLE
350
17
  3
ACAD_PLOTSETTINGS
350
19
  3
ACAD_PLOTSTYLENAME
350
E
  3
ACAD_TABLESTYLE
350
11A
  3
AcDbVariableDictionary
350
94
  3
AcmDictionary
350
5B
  3
AMG
350
41
  3
AMGSNAPSETTINGS
350
1B8
  0
DICTIONARY
  5
34B
330
2
100
AcDbDictionary
280
     1
281
     1
  3
AMLAYER_GROUPCOLORS
360
34C
  0
DICTIONARY
  5
8F
330
1F
100
AcDbDictionary
280
     1
281
     1
  3
ACAD_SORTENTS
360
7DB
  0
DICTIONARY
  5
1193
330
1188
100
AcDbDictionary
280
     1
281
     1
  3
ACAD_DIMASSOC
360
1194
  0
DICTIONARY
  5
11E3
330
11D8
100
AcDbDictionary
280
     1
281
     1
  3
ACAD_DIMASSOC
360
11E4
  0
DICTIONARY
  5
1210
330
1205
100
AcDbDictionary
280
     1
281
     1
  3
ACAD_DIMASSOC
360
1211
  0
DICTIONARY
  5
16B9
330
16A9
100
AcDbDictionary
280
     1
281
     1
  3
ACAD_DIMASSOC
360
16BA
  0
DICTIONARY
  5
BE
102
{ACAD_REACTORS
330
C
102
}
330
C
100
AcDbDictionary
281
     1
  0
DICTIONARY
  5
D
102
{ACAD_REACTORS
330
C
102
}
330
C
100
AcDbDictionary
281
     1
  0
DICTIONARY
  5
1A
102
{ACAD_REACTORS
330
C
102
}
330
C
100
AcDbDictionary
281
     1
  3
\M+1838C\M+18343\M+18341\M+18345\M+183671
350
1E
  3
\M+1838C\M+18343\M+18341\M+18345\M+183672
350
26
  3
Model
350
22
  0
DICTIONARY
  5
BD
102
{ACAD_REACTORS
330
C
102
}
330
C
100
AcDbDictionary
281
     1
  0
DICTIONARY
  5
17
102
{ACAD_REACTORS
330
C
102
}
330
C
100
AcDbDictionary
281
     1
  3
Standard
350
18
  0
DICTIONARY
  5
19
102
{ACAD_REACTORS
330
C
102
}
330
C
100
AcDbDictionary
281
     1
  0
ACDBDICTIONARYWDFLT
  5
E
102
{ACAD_REACTORS
330
C
102
}
330
C
100
AcDbDictionary
281
     1
  3
Normal
350
F
100
AcDbDictionaryWithDefault
340
F
  0
DICTIONARY
  5
11A
102
{ACAD_REACTORS
330
C
102
}
330
C
100
AcDbDictionary
281
     1
  3
Standard
350
11B
  0
DICTIONARY
  5
94
102
{ACAD_REACTORS
330
C
102
}
330
C
100
AcDbDictionary
281
     1
  3
CTABLESTYLE
350
138
  3
DIMASSOC
350
96
  3
INDEXCTL
350
95
  0
DICTIONARY
  5
5B
102
{ACAD_REACTORS
330
C
102
}
330
C
100
AcDbDictionary
281
     1
  3
AcmBOM
350
1B5
  3
AcmStdDictionary
350
61
  3
AMDTSECTSYM_ARROWCOLOR
350
123
  0
DICTIONARY
  5
41
102
{ACAD_REACTORS
330
C
102
}
330
C
100
AcDbDictionary
281
     1
  0
DICTIONARY
  5
1B8
102
{ACAD_REACTORS
330
C
102
}
330
C
100
AcDbDictionary
281
     1
  0
DICTIONARY
  5
34C
102
{ACAD_REACTORS
330
34B
102
}
330
34B
100
AcDbDictionary
280
     1
281
     1
  0
SORTENTSTABLE
  5
7DB
102
{ACAD_REACTORS
330
8F
102
}
330
8F
100
AcDbSortentsTable
330
1F
331
F41
  5
F41
331
16A9
  5
17D9
331
16A7
  5
17D8
331
9EA
  5
9EA
331
EBB
  5
EBB
331
17E7
  5
17E7
331
17E6
  5
17E6
331
17E5
  5
17E5
331
17E4
  5
17E4
331
12B4
  5
12B4
331
17E3
  5
17E3
331
1036
  5
1036
331
1188
  5
1188
331
1177
  5
1177
331
1276
  5
1276
331
17DD
  5
17D2
331
17DC
  5
17D4
331
17ED
  5
17ED
331
17DB
  5
17D3
331
17EC
  5
17EC
331
17DA
  5
1752
331
17EB
  5
17EB
331
17D9
  5
16A9
331
17EA
  5
17EA
331
17D8
  5
16A7
331
17D7
  5
166A
331
17E9
  5
17E9
331
17D6
  5
1669
331
17E8
  5
17E8
331
FCA
  5
FCA
331
17D5
  5
1668
331
17D4
  5
17DD
331
1232
  5
1232
331
17D3
  5
17DC
331
166A
  5
17D7
331
17D2
  5
17DB
331
1669
  5
17D6
331
F85
  5
F91
331
1668
  5
17D5
331
1205
  5
1205
331
F92
  5
F65
331
1481
  5
1481
331
F65
  5
F7A
331
F91
  5
F92
331
1480
  5
1480
331
F90
  5
F60
331
1752
  5
17DA
331
147F
  5
147F
331
F63
  5
F70
331
147E
  5
147E
331
147D
  5
147D
331
F7A
  5
F8F
331
F60
  5
F63
331
F56
  5
F56
331
11D8
  5
11D8
331
F70
  5
F85
  0
DIMASSOC
  5
1194
102
{ACAD_REACTORS
330
1193
102
}
330
1193
100
AcDbDimAssoc
330
1188
 90
        1
 70
     0
 71
     0
  1
AcDbOsnapPointRef
 72
    13
331
1036
 73
     0
 91
        0
 40
0.0
 10
0.0
 20
0.0
 30
2.000000000000000E+50
 75
     0
  0
DIMASSOC
  5
11E4
102
{ACAD_REACTORS
330
11E3
102
}
330
11E3
100
AcDbDimAssoc
330
11D8
 90
        1
 70
     0
 71
     0
  1
AcDbOsnapPointRef
 72
     1
331
F41
 73
     0
 91
        0
 40
0.0
 10
0.0
 20
0.0
 30
2.000000000000000E+50
 75
     0
  0
DIMASSOC
  5
1211
102
{ACAD_REACTORS
330
1210
102
}
330
1210
100
AcDbDimAssoc
330
1205
 90
        1
 70
     0
 71
     0
  1
AcDbOsnapPointRef
 72
    13
331
11D8
331
11EF
 73
     0
 91
        0
 40
0.0
 10
0.0
 20
0.0
 30
2.000000000000000E+50
 75
     0
  0
DIMASSOC
  5
16BA
102
{ACAD_REACTORS
330
16B9
102
}
330
16B9
100
AcDbDimAssoc
330
16A9
 90
       15
 70
     1
 71
     0
  1
AcDbOsnapPointRef
 72
    13
331
EBB
 73
     2
 91
        4
 40
0.0
 10
0.0
 20
0.0
 30
2.000000000000000E+50
 75
     0
  1
AcDbOsnapPointRef
 72
     1
331
EBB
 73
     2
 91
        4
 40
0.0
 10
0.0
 20
0.0
 30
2.000000000000000E+50
 75
     0
  1
AcDbOsnapPointRef
 72
    13
331
16A7
 73
     2
 91
        0
 40
0.0
 10
0.0
 20
0.0
 30
2.000000000000000E+50
 75
     0
  1
AcDbOsnapPointRef
 72
     1
331
16A7
 73
     2
 91
        0
 40
0.0
 10
0.0
 20
0.0
 30
2.000000000000000E+50
 75
     0
  0
LAYOUT
  5
1E
102
{ACAD_REACTORS
330
1A
102
}
330
1A
100
AcDbPlotSettings
  1

  2

  4

  6

 40
0.0
 41
0.0
 42
0.0
 43
0.0
 44
0.0
 45
0.0
 46
0.0
 47
0.0
 48
0.0
 49
0.0
140
0.0
141
0.0
142
1.0
143
1.0
 70
   688
 72
     0
 73
     0
 74
     5
  7
sei_cad.ctb
 75
    16
147
1.0
 76
     0
 77
     2
 78
   300
148
0.0
149
0.0
100
AcDbLayout
  1
\M+1838C\M+18343\M+18341\M+18345\M+183671
 70
     1
 71
     1
 10
0.0
 20
0.0
 11
420.0
 21
297.0
 12
0.0
 22
0.0
 32
0.0
 14
1.000000000000000E+20
 24
1.000000000000000E+20
 34
1.000000000000000E+20
 15
-1.000000000000000E+20
 25
-1.000000000000000E+20
 35
-1.000000000000000E+20
146
0.0
 13
0.0
 23
0.0
 33
0.0
 16
1.0
 26
0.0
 36
0.0
 17
0.0
 27
1.0
 37
0.0
 76
     0
330
1B
  0
LAYOUT
  5
26
102
{ACAD_REACTORS
330
1A
102
}
330
1A
100
AcDbPlotSettings
  1

  2

  4

  6

 40
0.0
 41
0.0
 42
0.0
 43
0.0
 44
0.0
 45
0.0
 46
0.0
 47
0.0
 48
0.0
 49
0.0
140
0.0
141
0.0
142
1.0
143
1.0
 70
   688
 72
     0
 73
     0
 74
     5
  7
sei_cad.ctb
 75
    16
147
1.0
 76
     0
 77
     2
 78
   300
148
0.0
149
0.0
100
AcDbLayout
  1
\M+1838C\M+18343\M+18341\M+18345\M+183672
 70
     1
 71
     2
 10
0.0
 20
0.0
 11
12.0
 21
9.0
 12
0.0
 22
0.0
 32
0.0
 14
0.0
 24
0.0
 34
0.0
 15
0.0
 25
0.0
 35
0.0
146
0.0
 13
0.0
 23
0.0
 33
0.0
 16
1.0
 26
0.0
 36
0.0
 17
0.0
 27
1.0
 37
0.0
 76
     0
330
23
  0
LAYOUT
  5
22
102
{ACAD_REACTORS
330
1A
102
}
330
1A
100
AcDbPlotSettings
  1

  2
SII LP-1010 (C2 VR)2R
  4
A4
  6

 40
3.174999952316284
 41
3.174999952316284
 42
3.175003051757812
 43
3.17498779296875
 44
209.9733276367187
 45
296.9259948730469
 46
0.0
 47
0.0
 48
0.0
 49
0.0
140
0.0
141
0.0
142
1.0
143
1.458575536647462
 70
 11952
 72
     1
 73
     1
 74
     2
  7
sei_cad.ctb
 75
     0
147
0.6856004196385342
 76
     0
 77
     2
 78
   300
148
0.0
149
0.0
100
AcDbLayout
  1
Model
 70
     1
 71
     0
 10
0.0
 20
0.0
 11
12.0
 21
9.0
 12
0.0
 22
0.0
 32
0.0
 14
0.0
 24
0.0
 34
0.0
 15
0.0
 25
0.0
 35
0.0
146
0.0
 13
0.0
 23
0.0
 33
0.0
 16
1.0
 26
0.0
 36
0.0
 17
0.0
 27
1.0
 37
0.0
 76
     0
330
1F
1001
ACAD_PSEXT
1000
SII LP-1010 (C2 VR)2R
1000
SII LP-1010 (C2 VR)2R
1000
133.153.16.130#9100
1000

1070
     0
  0
MLINESTYLE
  5
18
102
{ACAD_REACTORS
330
17
102
}
330
17
100
AcDbMlineStyle
  2
STANDARD
 70
     0
  3

 62
   256
 51
90.0
 52
90.0
 71
     2
 49
0.5
 62
   256
  6
BYLAYER
 49
-0.5
 62
   256
  6
BYLAYER
  0
ACDBPLACEHOLDER
  5
F
102
{ACAD_REACTORS
330
E
102
}
330
E
  0
TABLESTYLE
  5
11B
102
{ACAD_REACTORS
330
11A
102
}
330
11A
100
AcDbTableStyle
  3
Standard
 70
     0
 71
     0
 40
1.5
 41
1.5
280
     0
281
     0
  7
STANDARD
140
4.5
170
     2
 62
     0
 63
     7
283
     0
274
    -2
284
     1
 64
     0
275
    -2
285
     1
 65
     0
276
    -2
286
     1
 66
     0
277
    -2
287
     1
 67
     0
278
    -2
288
     1
 68
     0
279
    -2
289
     1
 69
     0
  7
STANDARD
140
6.0
170
     5
 62
     0
 63
     7
283
     0
274
    -2
284
     1
 64
     0
275
    -2
285
     1
 65
     0
276
    -2
286
     1
 66
     0
277
    -2
287
     1
 67
     0
278
    -2
288
     1
 68
     0
279
    -2
289
     1
 69
     0
  7
STANDARD
140
4.5
170
     5
 62
     0
 63
     7
283
     0
274
    -2
284
     1
 64
     0
275
    -2
285
     1
 65
     0
276
    -2
286
     1
 66
     0
277
    -2
287
     1
 67
     0
278
    -2
288
     1
 68
     0
279
    -2
289
     1
 69
     0
  0
DICTIONARYVAR
  5
138
102
{ACAD_REACTORS
330
94
102
}
330
94
100
DictionaryVariables
280
     0
  1
STANDARD
  0
DICTIONARYVAR
  5
96
102
{ACAD_REACTORS
330
94
102
}
330
94
100
DictionaryVariables
280
     0
  1
2
  0
DICTIONARYVAR
  5
95
102
{ACAD_REACTORS
330
94
102
}
330
94
100
DictionaryVariables
280
     0
  1
1
  0
DICTIONARY
  5
1B5
102
{ACAD_REACTORS
330
5B
102
}
330
5B
100
AcDbDictionary
281
     1
  0
DICTIONARY
  5
61
102
{ACAD_REACTORS
330
5B
102
}
330
5B
100
AcDbDictionary
281
     1
  0
XRECORD
  5
123
102
{ACAD_REACTORS
330
5B
102
}
330
5B
100
AcDbXrecord
280
     1
 90
-1023410169
  0
ENDSEC
  0
EOF
