  0
SECTION
  2
HEADER
  9
$ACADVER
  1
AC1015
  9
$ACADMAINTVER
 70
    20
  9
$DWGCODEPAGE
  3
ANSI_932
  9
$INSBASE
 10
0.0
 20
0.0
 30
0.0
  9
$EXTMIN
 10
-79.75002913838546
 20
-57.83259353982157
 30
-0.0000000000112498
  9
$EXTMAX
 10
12.5237159299977
 20
42.50748058922579
 30
0.0000000000002956
  9
$LIMMIN
 10
0.0
 20
0.0
  9
$LIMMAX
 10
420.0
 20
297.0
  9
$ORTHOMODE
 70
     0
  9
$REGENMODE
 70
     1
  9
$FILLMODE
 70
     1
  9
$QTEXTMODE
 70
     0
  9
$MIRRTEXT
 70
     1
  9
$LTSCALE
 40
1.0
  9
$ATTMODE
 70
     1
  9
$TEXTSIZE
 40
7.0
  9
$TRACEWID
 40
1.0
  9
$TEXTSTYLE
  7
STANDARD
  9
$CLAYER
  8
0
  9
$CELTYPE
  6
ByLayer
  9
$CECOLOR
 62
   256
  9
$CELTSCALE
 40
1.0
  9
$DISPSILH
 70
     0
  9
$DIMSCALE
 40
1.0
  9
$DIMASZ
 40
2.5
  9
$DIMEXO
 40
0.0
  9
$DIMDLI
 40
10.0
  9
$DIMRND
 40
0.0
  9
$DIMDLE
 40
0.0
  9
$DIMEXE
 40
1.0
  9
$DIMTP
 40
0.1
  9
$DIMTM
 40
0.1000000001
  9
$DIMTXT
 40
3.799999999999998
  9
$DIMCEN
 40
0.0
  9
$DIMTSZ
 40
0.0
  9
$DIMTOL
 70
     0
  9
$DIMLIM
 70
     0
  9
$DIMTIH
 70
     0
  9
$DIMTOH
 70
     0
  9
$DIMSE1
 70
     0
  9
$DIMSE2
 70
     0
  9
$DIMTAD
 70
     3
  9
$DIMZIN
 70
     1
  9
$DIMBLK
  1
Open30
  9
$DIMASO
 70
     1
  9
$DIMSHO
 70
     1
  9
$DIMPOST
  1

  9
$DIMAPOST
  1
"
  9
$DIMALT
 70
     0
  9
$DIMALTD
 70
     2
  9
$DIMALTF
 40
0.0393701
  9
$DIMLFAC
 40
1.0
  9
$DIMTOFL
 70
     1
  9
$DIMTVP
 40
0.0
  9
$DIMTIX
 70
     0
  9
$DIMSOXD
 70
     0
  9
$DIMSAH
 70
     0
  9
$DIMBLK1
  1

  9
$DIMBLK2
  1

  9
$DIMSTYLE
  2
AM_JIS
  9
$DIMCLRD
 70
   256
  9
$DIMCLRE
 70
   256
  9
$DIMCLRT
 70
     2
  9
$DIMTFAC
 40
0.71
  9
$DIMGAP
 40
1.5
  9
$DIMJUST
 70
     0
  9
$DIMSD1
 70
     0
  9
$DIMSD2
 70
     0
  9
$DIMTOLJ
 70
     0
  9
$DIMTZIN
 70
     8
  9
$DIMALTZ
 70
     0
  9
$DIMALTTZ
 70
     0
  9
$DIMUPT
 70
     0
  9
$DIMDEC
 70
     1
  9
$DIMTDEC
 70
     1
  9
$DIMALTU
 70
     2
  9
$DIMALTTD
 70
     2
  9
$DIMTXSTY
  7
STANDARD
  9
$DIMAUNIT
 70
     1
  9
$DIMADEC
 70
     0
  9
$DIMALTRND
 40
0.0
  9
$DIMAZIN
 70
     2
  9
$DIMDSEP
 70
    46
  9
$DIMATFIT
 70
     0
  9
$DIMFRAC
 70
     0
  9
$DIMLDRBLK
  1
Open30
  9
$DIMLUNIT
 70
     2
  9
$DIMLWD
 70
    -1
  9
$DIMLWE
 70
    -1
  9
$DIMTMOVE
 70
     0
  9
$LUNITS
 70
     2
  9
$LUPREC
 70
     2
  9
$SKETCHINC
 40
1.0
  9
$FILLETRAD
 40
1.0
  9
$AUNITS
 70
     1
  9
$AUPREC
 70
     3
  9
$MENU
  1
.
  9
$ELEVATION
 40
0.0
  9
$PELEVATION
 40
0.0
  9
$THICKNESS
 40
0.0
  9
$LIMCHECK
 70
     0
  9
$CHAMFERA
 40
1.0
  9
$CHAMFERB
 40
1.0
  9
$CHAMFERC
 40
20.0
  9
$CHAMFERD
 40
0.0
  9
$SKPOLY
 70
     0
  9
$TDCREATE
 40
2451865.447818009
  9
$TDUCREATE
 40
2451865.072818010
  9
$TDUPDATE
 40
2455567.389610822
  9
$TDUUPDATE
 40
2455567.014610822
  9
$TDINDWG
 40
6.1427975347
  9
$TDUSRTIMER
 40
6.1427972338
  9
$USRTIMER
 70
     1
  9
$ANGBASE
 50
0.0
  9
$ANGDIR
 70
     0
  9
$PDMODE
 70
     0
  9
$PDSIZE
 40
0.0
  9
$PLINEWID
 40
0.0
  9
$SPLFRAME
 70
     0
  9
$SPLINETYPE
 70
     6
  9
$SPLINESEGS
 70
     8
  9
$HANDSEED
  5
3446B
  9
$SURFTAB1
 70
     6
  9
$SURFTAB2
 70
     6
  9
$SURFTYPE
 70
     6
  9
$SURFU
 70
     6
  9
$SURFV
 70
     6
  9
$UCSBASE
  2

  9
$UCSNAME
  2

  9
$UCSORG
 10
0.0
 20
0.0
 30
0.0
  9
$UCSXDIR
 10
1.0
 20
0.0
 30
0.0
  9
$UCSYDIR
 10
0.0
 20
1.0
 30
0.0
  9
$UCSORTHOREF
  2

  9
$UCSORTHOVIEW
 70
     0
  9
$UCSORGTOP
 10
0.0
 20
0.0
 30
0.0
  9
$UCSORGBOTTOM
 10
0.0
 20
0.0
 30
0.0
  9
$UCSORGLEFT
 10
0.0
 20
0.0
 30
0.0
  9
$UCSORGRIGHT
 10
0.0
 20
0.0
 30
0.0
  9
$UCSORGFRONT
 10
0.0
 20
0.0
 30
0.0
  9
$UCSORGBACK
 10
0.0
 20
0.0
 30
0.0
  9
$PUCSBASE
  2

  9
$PUCSNAME
  2

  9
$PUCSORG
 10
0.0
 20
0.0
 30
0.0
  9
$PUCSXDIR
 10
1.0
 20
0.0
 30
0.0
  9
$PUCSYDIR
 10
0.0
 20
1.0
 30
0.0
  9
$PUCSORTHOREF
  2

  9
$PUCSORTHOVIEW
 70
     0
  9
$PUCSORGTOP
 10
0.0
 20
0.0
 30
0.0
  9
$PUCSORGBOTTOM
 10
0.0
 20
0.0
 30
0.0
  9
$PUCSORGLEFT
 10
0.0
 20
0.0
 30
0.0
  9
$PUCSORGRIGHT
 10
0.0
 20
0.0
 30
0.0
  9
$PUCSORGFRONT
 10
0.0
 20
0.0
 30
0.0
  9
$PUCSORGBACK
 10
0.0
 20
0.0
 30
0.0
  9
$USERI1
 70
     0
  9
$USERI2
 70
     0
  9
$USERI3
 70
     0
  9
$USERI4
 70
     0
  9
$USERI5
 70
     0
  9
$USERR1
 40
0.0
  9
$USERR2
 40
0.0
  9
$USERR3
 40
0.0
  9
$USERR4
 40
0.0
  9
$USERR5
 40
0.0
  9
$WORLDVIEW
 70
     1
  9
$SHADEDGE
 70
     3
  9
$SHADEDIF
 70
    70
  9
$TILEMODE
 70
     1
  9
$MAXACTVP
 70
    64
  9
$PINSBASE
 10
0.0
 20
0.0
 30
0.0
  9
$PLIMCHECK
 70
     0
  9
$PEXTMIN
 10
1.000000000000000E+20
 20
1.000000000000000E+20
 30
1.000000000000000E+20
  9
$PEXTMAX
 10
-1.000000000000000E+20
 20
-1.000000000000000E+20
 30
-1.000000000000000E+20
  9
$PLIMMIN
 10
-0.2500002402958907
 20
-0.2499999962453767
  9
$PLIMMAX
 10
10.74999951940821
 20
8.249999763458731
  9
$UNITMODE
 70
     0
  9
$VISRETAIN
 70
     1
  9
$PLINEGEN
 70
     0
  9
$PSLTSCALE
 70
     0
  9
$TREEDEPTH
 70
  3020
  9
$CMLSTYLE
  2
Standard
  9
$CMLJUST
 70
     0
  9
$CMLSCALE
 40
20.0
  9
$PROXYGRAPHICS
 70
     1
  9
$MEASUREMENT
 70
     1
  9
$CELWEIGHT
370
    -1
  9
$ENDCAPS
280
     0
  9
$JOINSTYLE
280
     0
  9
$LWDISPLAY
290
     0
  9
$INSUNITS
 70
     4
  9
$HYPERLINKBASE
  1

  9
$STYLESHEET
  1
SEI_CAD.CTB
  9
$XEDIT
290
     1
  9
$CEPSNTYPE
380
     0
  9
$PSTYLEMODE
290
     1
  9
$FINGERPRINTGUID
  2
{FDEAD578-A652-11D2-9A35-0060089B3A3F}
  9
$VERSIONGUID
  2
{0EC03174-BFB1-43B6-BE15-9FA8B8E3299E}
  9
$EXTNAMES
290
     1
  9
$PSVPSCALE
 40
0.0
  9
$OLESTARTUP
290
     0
  0
ENDSEC
  0
SECTION
  2
CLASSES
  0
CLASS
  1
ACDBDICTIONARYWDFLT
  2
AcDbDictionaryWithDefault
  3
ObjectDBX Classes
 90
        0
280
     0
281
     0
  0
CLASS
  1
ACME_DOCUMENT
  2
AcMeDbDoc
  3
AcMeServices
 90
        0
280
     0
281
     0
  0
CLASS
  1
AMGSETTINGSOBJ
  2
AmgSettingsObj
  3
"AcadM|Product Description: AutoCAD Mechanical 2000|Company: Autodesk"
 90
        0
280
     0
281
     0
  0
CLASS
  1
ACMESCOPE
  2
AcMeScope
  3
AcMeServices
 90
        0
280
     0
281
     0
  0
CLASS
  1
ACMECOMMANDHISTORY
  2
AcMeCommandHistory
  3
AcMeServices
 90
        0
280
     0
281
     0
  0
CLASS
  1
DICTIONARYVAR
  2
AcDbDictionaryVar
  3
ObjectDBX Classes
 90
        0
280
     0
281
     0
  0
CLASS
  1
ACIMSYSVARMAN
  2
AcImSysVarManager
  3
AcMeServices
 90
        0
280
     0
281
     0
  0
CLASS
  1
ACIMREALSYSVAR
  2
AcImRealSysVar
  3
AcMeServices
 90
        0
280
     0
281
     0
  0
CLASS
  1
ACIMINTSYSVAR
  2
AcImIntSysVar
  3
AcMeServices
 90
        0
280
     0
281
     0
  0
CLASS
  1
ACMEDRAWINGMAN
  2
AcMeDrawingMan
  3
AcMeServices
 90
        0
280
     0
281
     0
  0
CLASS
  1
ACMEVIEW
  2
AcMeView
  3
AcMeServices
 90
        0
280
     0
281
     0
  0
CLASS
  1
ACDBENTITYCACHE
  2
AcMeEntityCache
  3
AcMeServices
 90
        0
280
     0
281
     0
  0
CLASS
  1
GSMANAGER
  2
AcMeGSManager
  3
AcMeServices
 90
        0
280
     0
281
     0
  0
CLASS
  1
AMDTINTERNALREACTOR
  2
AmdtInternalReactor
  3
AcMeServices
 90
        0
280
     0
281
     0
  0
CLASS
  1
ACMESTATEMGR
  2
AcMeStateMgr
  3
AcMeServices
 90
        0
280
     0
281
     0
  0
CLASS
  1
ACME_DATABASE
  2
AcMeDbDatabase
  3
AcMeServices
 90
        0
280
     0
281
     0
  0
CLASS
  1
ACRFINSADJUSTERMGR
  2
AcRfInsAdjusterMgr
  3
AcMeServices
 90
        0
280
     0
281
     0
  0
CLASS
  1
ACMDATADICTIONARY
  2
AcmDataDictionary
  3
"AcmSymBB|Product Description: AutoCAD Mechanical 2004 DX|Company: Autodesk"
 90
        0
280
     0
281
     0
  0
CLASS
  1
ACMDATAENTRYBLOCK
  2
AcmDataEntryBlock
  3
"AcmSymBB|Product Description: AutoCAD Mechanical 2004 DX|Company: Autodesk"
 90
    32768
280
     0
281
     0
  0
CLASS
  1
AMGOBJPROPCFG
  2
AmgObjPropCfg
  3
"AmgLay|Product Description: AutoCAD Mechanical 2000|Company: Autodesk"
 90
        1
280
     0
281
     0
  0
CLASS
  1
LAYER_INDEX
  2
AcDbLayerIndex
  3
ObjectDBX Classes
 90
    32768
280
     0
281
     0
  0
CLASS
  1
IDBUFFER
  2
AcDbIdBuffer
  3
ObjectDBX Classes
 90
    32768
280
     0
281
     0
  0
CLASS
  1
ACAMGFILTERDAT
  2
AcAmgFilterDat
  3
"AcadM|Product Description: AutoCAD Mechanical 2000|Company: Autodesk"
 90
    32768
280
     0
281
     0
  0
CLASS
  1
ACIMSTRSYSVAR
  2
AcImStrSysVar
  3
AcMeServices
 90
        0
280
     0
281
     0
  0
CLASS
  1
ACMSTANDARDJIS
  2
AcmStandardJIS
  3
"Amdt_StdImp|Product Description: AutoCAD Mechanical 2004 DX|Company: Autodesk"
 90
    32768
280
     0
281
     0
  0
CLASS
  1
ACMSURFSTANDARDJIS
  2
AcmSurfTextStdJIS
  3
"Amdt_StdImp|Product Description: AutoCAD Mechanical 2004 DX|Company: Autodesk"
 90
    32768
280
     0
281
     0
  0
CLASS
  1
ACMFCFSTANDARDJIS
  2
AcmFCFStdJIS
  3
"Amdt_StdImp|Product Description: AutoCAD Mechanical 2004 DX|Company: Autodesk"
 90
    32768
280
     0
281
     0
  0
CLASS
  1
ACMWELDSTANDARDJIS
  2
AcmWeldingStdJIS
  3
"Amdt_StdImp|Product Description: AutoCAD Mechanical 2004 DX|Company: Autodesk"
 90
    32768
280
     0
281
     0
  0
CLASS
  1
ACMIDSTANDARDJIS
  2
AcmIdStdJIS
  3
"Amdt_StdImp|Product Description: AutoCAD Mechanical 2004 DX|Company: Autodesk"
 90
    32768
280
     0
281
     0
  0
CLASS
  1
ACMDATUMSTANDARDJIS
  2
AcmDatumStdJIS
  3
"Amdt_StdImp|Product Description: AutoCAD Mechanical 2004 DX|Company: Autodesk"
 90
    32768
280
     0
281
     0
  0
CLASS
  1
ACMBOMSTANDARDJIS
  2
AcmBOMStdJIS
  3
"Amdt_StdImp|Product Description: AutoCAD Mechanical 2004 DX|Company: Autodesk"
 90
    32768
280
     0
281
     0
  0
CLASS
  1
AMDTNOTE
  2
AmdtNote
  3
"AcmSymBB|Product Description: AutoCAD Mechanical 2004 DX|Company: Autodesk"
 90
    33791
280
     0
281
     1
  0
CLASS
  1
TABLESTYLE
  2
AcDbTableStyle
  3
ObjectDBX Classes
 90
     2047
280
     0
281
     0
  0
CLASS
  1
ACGREFMASTER
  2
AcGrefMaster
  3
AcAttribServices
 90
        0
280
     0
281
     0
  0
CLASS
  1
AM_DRAWING_MGR
  2
AcDmDwgMgr
  3
AcMechDwgViewMgmt
 90
        0
280
     0
281
     0
  0
CLASS
  1
AM_DWG_DOCUMENT
  2
AcDmDwgDocument
  3
AcMechDwgViewMgmt
 90
        0
280
     0
281
     0
  0
CLASS
  1
AM_DWG_SHEET
  2
AcDmSheet
  3
AcMechDwgViewMgmt
 90
        0
280
     0
281
     0
  0
CLASS
  1
AM_VIEWDIMPARMAP
  2
AcDmViewDimParMap
  3
AcMechDwgViewMgmt
 90
        0
280
     0
281
     0
  0
CLASS
  1
AM_DWGMGR_NAME
  2
AcDmDwgMgrName
  3
AcMechDwgViewMgmt
 90
        0
280
     0
281
     0
  0
CLASS
  1
ACGREFACADMASTER
  2
AcGrefacadMaster
  3
AcGrefServices
 90
        0
280
     0
281
     0
  0
CLASS
  1
AMDTMENUSTATEMGR
  2
AmdtMenuStateMgr
  3
McadcomServices
 90
        0
280
     0
281
     0
  0
CLASS
  1
AMDTMCOMMENUSTATE
  2
AmdtMcomMenuState
  3
McadcomServices
 90
        0
280
     0
281
     0
  0
CLASS
  1
AMIMASTER
  2
AmiMaster
  3
AmiServices
 90
        0
280
     0
281
     0
  0
CLASS
  1
MAPIAMMOUDLE
  2
MApiAmModule
  3
MApiAmServices
 90
        0
280
     0
281
     0
  0
CLASS
  1
AMDTADMENUSTATE
  2
AmdtAdMenuState
  3
DesignerServices
 90
        0
280
     0
281
     0
  0
CLASS
  1
ADAPPL
  2
AcAdAppl
  3
DesignerServices
 90
        0
280
     0
281
     0
  0
CLASS
  1
DEPMGR
  2
AcAdDepMgr
  3
DesignerServices
 90
        0
280
     0
281
     0
  0
CLASS
  1
PARAMMGR
  2
AcAdParamMgr
  3
DesignerServices
 90
        0
280
     0
281
     0
  0
CLASS
  1
PARAMSCOPE
  2
AcAdParamScope
  3
DesignerServices
 90
        0
280
     0
281
     0
  0
CLASS
  1
NAMEDAPPL
  2
AcAdNamedAppl
  3
DesignerServices
 90
        0
280
     0
281
     0
  0
CLASS
  1
AMDTDMMENUSTATE
  2
AmdtDmMenuState
  3
AcMechDwgViewMgmt
 90
        0
280
     0
281
     0
  0
CLASS
  1
AMDTAMMENUSTATE
  2
AmdtAmMenuState
  3
DesignerAssemblies
 90
        0
280
     0
281
     0
  0
CLASS
  1
ACAMPROJECT
  2
AcAmProject
  3
DesignerAssemblies
 90
        0
280
     0
281
     0
  0
CLASS
  1
ACAMGRCOMPDEF
  2
AcAmGrCompDef
  3
DesignerAssemblies
 90
        0
280
     0
281
     0
  0
CLASS
  1
ACCMCONTEXT
  2
AcCmContext
  3
DesignerAssemblies
 90
        0
280
     0
281
     0
  0
CLASS
  1
ACAMCOMPDEF
  2
AcAmCompDef
  3
DesignerAssemblies
 90
        0
280
     0
281
     0
  0
CLASS
  1
ACAMCOMPDEFMGR
  2
AcAmCompDefMgr
  3
DesignerAssemblies
 90
        0
280
     0
281
     0
  0
CLASS
  1
AMCONTEXTMGR
  2
AcAmContextMgr
  3
DesignerAssemblies
 90
        0
280
     0
281
     0
  0
CLASS
  1
ACAMCONTEXTMODELER
  2
AcAmContextModeler
  3
DesignerAssemblies
 90
        0
280
     0
281
     0
  0
CLASS
  1
ACAMGTITLESTD
  2
AcAmgTitleStd
  3
"TITLEAPP"
 90
        0
280
     0
281
     0
  0
CLASS
  1
ACMDETAILSTANDARDJIS
  2
AmdtDetailSymStdJIS
  3
"Amdt_StdImp|Product Description: AutoCAD Mechanical 2004 DX|Company: Autodesk"
 90
    32768
280
     0
281
     0
  0
CLASS
  1
ACMSECTIONSTANDARDJIS
  2
AmdtSectionSymStdJIS
  3
"Amdt_StdImp|Product Description: AutoCAD Mechanical 2004 DX|Company: Autodesk"
 90
    32768
280
     0
281
     0
  0
CLASS
  1
ACMCENTERLINESTANDARDJIS
  2
AmdtCenterLineStdJIS
  3
"Amdt_StdImp|Product Description: AutoCAD Mechanical 2004 DX|Company: Autodesk"
 90
    32768
280
     0
281
     0
  0
CLASS
  1
ACMTHREADLINESTANDARDJIS
  2
AmdtThreadLineStdJIS
  3
"Amdt_StdImp|Product Description: AutoCAD Mechanical 2004 DX|Company: Autodesk"
 90
    32768
280
     0
281
     0
  0
CLASS
  1
ACMNOTESTANDARDJIS
  2
AmdtNoteStdJIS
  3
"Amdt_StdImp|Product Description: AutoCAD Mechanical 2004 DX|Company: Autodesk"
 90
    32768
280
     0
281
     0
  0
CLASS
  1
AMDTNOTETEMPLATEDB
  2
AmdtNoteTemplateDB
  3
AMDT_STDIMP_MODULE_NAME
 90
        0
280
     0
281
     0
  0
CLASS
  1
ACAMGLAYSTD
  2
AcAmgLayStd
  3
"AcAmgLayStd|Product Description: AutoCAD Mechanical 2000|Company: Autodesk"
 90
        0
280
     0
281
     0
  0
CLASS
  1
ACAMGDIMSTD
  2
AcAmgDimStd
  3
"AcAmgDimStd|Product Description: AutoCAD Mechanical 2000|Company: Autodesk"
 90
        0
280
     0
281
     0
  0
CLASS
  1
ACAMGHOLECHARTSTDJIS
  2
AcAmgHoleChartStdJIS
  3
ACMSYMBB_MODULE_NAME
 90
    32768
280
     0
281
     0
  0
CLASS
  1
CATALOGSTATE
  2
AcAmCatalogState
  3
DesignerAssemblies
 90
        0
280
     0
281
     0
  0
CLASS
  1
ACAMGRCOMPDEFSET
  2
AcAmGrCompDefSet
  3
DesignerAssemblies
 90
        0
280
     0
281
     0
  0
CLASS
  1
AMDTBROWSERDBTAB
  2
AmdtBrowserDbTab
  3
McadcomServices
 90
        0
280
     0
281
     0
  0
CLASS
  1
CBROWSERAPPOBJECT
  2
CBrowserAppObject
  3
McadcomServices
 90
        0
280
     0
281
     0
  0
CLASS
  1
DM_PLACEHOLDER
  2
AcDmSelsetPlaceholder
  3
AcMechDwgViewMgmt
 90
        0
280
     0
281
     0
  0
CLASS
  1
ACAMGHOLECHARTORIGIN
  2
AcAmgHoleChartOrigin
  3
ACMSYMBB_MODULE_NAME
 90
    33663
280
     0
281
     1
  0
CLASS
  1
ACDBLINERES
  2
AcDbLineRes
  3
AcGrefServices
 90
    32768
280
     0
281
     0
  0
CLASS
  1
AMDTFORMULAUPDATEDISPATCHER
  2
AmdtFormulaUpdateDispatcher
  3
AcMeServices
 90
    32768
280
     0
281
     0
  0
CLASS
  1
SORTENTSTABLE
  2
AcDbSortentsTable
  3
ObjectDBX Classes
 90
        0
280
     0
281
     0
  0
CLASS
  1
ACMSTANDARDISO
  2
AcmStandardISO
  3
"Amdt_StdImp|Product Description: AutoCAD Mechanical 2004 DX|Company: Autodesk"
 90
        0
280
     0
281
     0
  0
CLASS
  1
AMDTEDGESTANDARDISO13715
  2
AmdtEdgeStdISO13715
  3
"Amdt_StdImp|Product Description: AutoCAD Mechanical 2004 DX|Company: Autodesk"
 90
        0
280
     0
281
     0
  0
CLASS
  1
ACMSURFSTANDARDISO
  2
AcmSurfTextStdISO
  3
"Amdt_StdImp|Product Description: AutoCAD Mechanical 2004 DX|Company: Autodesk"
 90
        0
280
     0
281
     0
  0
CLASS
  1
ACMFCFSTANDARDISO
  2
AcmFCFStdISO
  3
"Amdt_StdImp|Product Description: AutoCAD Mechanical 2004 DX|Company: Autodesk"
 90
        0
280
     0
281
     0
  0
CLASS
  1
ACMWELDSTANDARDISO
  2
AcmWeldingStdISO
  3
"Amdt_StdImp|Product Description: AutoCAD Mechanical 2004 DX|Company: Autodesk"
 90
        0
280
     0
281
     0
  0
CLASS
  1
ACMIDSTANDARDISO
  2
AcmIdStdISO
  3
"Amdt_StdImp|Product Description: AutoCAD Mechanical 2004 DX|Company: Autodesk"
 90
        0
280
     0
281
     0
  0
CLASS
  1
ACMDATUMSTANDARDISO
  2
AcmDatumStdISO
  3
"Amdt_StdImp|Product Description: AutoCAD Mechanical 2004 DX|Company: Autodesk"
 90
        0
280
     0
281
     0
  0
CLASS
  1
ACMBOMSTANDARDISO
  2
AcmBOMStdISO
  3
"Amdt_StdImp|Product Description: AutoCAD Mechanical 2004 DX|Company: Autodesk"
 90
        0
280
     0
281
     0
  0
CLASS
  1
ACMDETAILSTANDARDISO
  2
AmdtDetailSymStdISO
  3
"Amdt_StdImp|Product Description: AutoCAD Mechanical 2004 DX|Company: Autodesk"
 90
        0
280
     0
281
     0
  0
CLASS
  1
ACMSECTIONSTANDARDISO
  2
AmdtSectionSymStdISO
  3
"Amdt_StdImp|Product Description: AutoCAD Mechanical 2004 DX|Company: Autodesk"
 90
        0
280
     0
281
     0
  0
CLASS
  1
ACMCENTERLINESTANDARDISO
  2
AmdtCenterLineStdISO
  3
"Amdt_StdImp|Product Description: AutoCAD Mechanical 2004 DX|Company: Autodesk"
 90
        0
280
     0
281
     0
  0
CLASS
  1
ACMTHREADLINESTANDARDISO
  2
AmdtThreadLineStdISO
  3
"Amdt_StdImp|Product Description: AutoCAD Mechanical 2004 DX|Company: Autodesk"
 90
        0
280
     0
281
     0
  0
CLASS
  1
ACMNOTESTANDARDISO
  2
AmdtNoteStdISO
  3
"Amdt_StdImp|Product Description: AutoCAD Mechanical 2004 DX|Company: Autodesk"
 90
        0
280
     0
281
     0
  0
CLASS
  1
ACAMGHOLECHARTSTDISO
  2
AcAmgHoleChartStdISO
  3
ACMSYMBB_MODULE_NAME
 90
        0
280
     0
281
     0
  0
CLASS
  1
ACDBNURBCURVERES
  2
AcDbNurbCurveRes
  3
AcGrefServices
 90
    32768
280
     0
281
     0
  0
CLASS
  1
ACMDIMBREAKPERSREACTOR
  2
AcmDimBreakPersReactor
  3
amgDimApp().moduleName()
 90
    33791
280
     0
281
     0
  0
CLASS
  1
DIMASSOC
  2
AcDbDimAssoc
  3
"AcDbDimAssoc|Product Desc:     AcDim ARX App For Dimension|Company:          Autodesk, Inc.|WEB Address:      www.autodesk.com"
 90
    32768
280
     0
281
     0
  0
CLASS
  1
ACRFATTGENMGR
  2
AcRfAttGeneralMgr
  3
AcAttribServices
 90
    32768
280
     0
281
     0
  0
CLASS
  1
ACDBPLACEHOLDER
  2
AcDbPlaceHolder
  3
ObjectDBX Classes
 90
        0
280
     0
281
     0
  0
CLASS
  1
LAYOUT
  2
AcDbLayout
  3
ObjectDBX Classes
 90
        0
280
     0
281
     0
  0
ENDSEC
  0
SECTION
  2
TABLES
  0
TABLE
  2
VPORT
  5
8
330
0
100
AcDbSymbolTable
 70
     3
  0
VPORT
  5
3445E
330
8
100
AcDbSymbolTableRecord
100
AcDbViewportTableRecord
  2
*Active
 70
     0
 10
0.0
 20
0.0
 11
1.0
 21
1.0
 12
-33.61315660419388
 22
-7.66255647529789
 13
0.0
 23
0.0
 14
2.5
 24
2.5
 15
10.0
 25
10.0
 16
0.0
 26
0.0
 36
1.0
 17
0.0
 27
0.0
 37
0.0
 40
101.0525480281885
 41
2.007109004739336
 42
50.0
 43
0.0
 44
0.0
 50
0.0
 51
0.0
 71
    16
 72
  2000
 73
     1
 74
     3
 75
     0
 76
     0
 77
     0
 78
     0
281
     0
 65
     0
110
0.0
120
0.0
130
0.0
111
1.0
121
0.0
131
0.0
112
0.0
122
1.0
132
0.0
 79
     0
146
0.0
  0
ENDTAB
  0
TABLE
  2
LTYPE
  5
5
330
0
100
AcDbSymbolTable
 70
    15
  0
LTYPE
  5
14
330
5
100
AcDbSymbolTableRecord
100
AcDbLinetypeTableRecord
  2
ByBlock
 70
     0
  3

 72
    65
 73
     0
 40
0.0
  0
LTYPE
  5
15
330
5
100
AcDbSymbolTableRecord
100
AcDbLinetypeTableRecord
  2
ByLayer
 70
     0
  3

 72
    65
 73
     0
 40
0.0
  0
LTYPE
  5
16
330
5
100
AcDbSymbolTableRecord
100
AcDbLinetypeTableRecord
  2
Continuous
 70
     0
  3
Solid line
 72
    65
 73
     0
 40
0.0
  0
LTYPE
  5
5E
330
5
100
AcDbSymbolTableRecord
100
AcDbLinetypeTableRecord
  2
AM_ISO02W050
 70
     0
  3
__ __ __ __ __ __ __ __ __ __ __ __ __ __ __
 72
    65
 73
     2
 40
7.5
 49
6.0
 74
     0
 49
-1.5
 74
     0
  0
LTYPE
  5
5F
330
5
100
AcDbSymbolTableRecord
100
AcDbLinetypeTableRecord
  2
AM_ISO08W050
 70
     0
  3
____ . ____ . ____ . ____ . ____ . ____ . ____
 72
    65
 73
     4
 40
18.0
 49
12.0
 74
     0
 49
-1.5
 74
     0
 49
3.0
 74
     0
 49
-1.5
 74
     0
  0
LTYPE
  5
60
330
5
100
AcDbSymbolTableRecord
100
AcDbLinetypeTableRecord
  2
AM_ISO09W050
 70
     0
  3
_____ . . _____ . . _____ . . ____ .. ____
 72
    65
 73
     6
 40
22.5
 49
12.0
 74
     0
 49
-1.5
 74
     0
 49
3.0
 74
     0
 49
-1.5
 74
     0
 49
3.0
 74
     0
 49
-1.5
 74
     0
  0
LTYPE
  5
61
330
5
100
AcDbSymbolTableRecord
100
AcDbLinetypeTableRecord
  2
Amconstr
 70
     0
  3
_______________________
 72
    65
 73
     2
 40
9999.0
 49
9999.0
 74
     0
 49
0.0
 74
     0
  0
LTYPE
  5
62
330
5
100
AcDbSymbolTableRecord
100
AcDbLinetypeTableRecord
  2
AM_ISO02W050x2
 70
     0
  3
 _ _ _ _ _ _ _ _ _ _ _ _
 72
    65
 73
     2
 40
3.75
 49
3.0
 74
     0
 49
-0.75
 74
     0
  0
LTYPE
  5
63
330
5
100
AcDbSymbolTableRecord
100
AcDbLinetypeTableRecord
  2
AM_ISO08W050x2
 70
     0
  3
__ . __ . __ . __ . __ . __
 72
    65
 73
     4
 40
9.0
 49
6.0
 74
     0
 49
-0.75
 74
     0
 49
1.5
 74
     0
 49
-0.75
 74
     0
  0
LTYPE
  5
66
330
5
100
AcDbSymbolTableRecord
100
AcDbLinetypeTableRecord
  2
Amzigzag
 70
     0
  3
/\/-/\/-/\/-/\/-/\/-/\/
 72
    65
 73
     2
 40
11.0001
 49
0.0001
 74
     4
 75
   135
340
65
 46
0.04
 50
0.0
 44
0.0
 45
0.0
 49
-11.0
 74
     0
  0
LTYPE
  5
183
330
5
100
AcDbSymbolTableRecord
100
AcDbLinetypeTableRecord
  2
DASHED
 70
     0
  3
__ __ __ __ __ __ __ __ __ __ __ __ __ __ __
 72
    65
 73
     2
 40
3.5
 49
2.0
 74
     0
 49
-1.5
 74
     0
  0
LTYPE
  5
184
330
5
100
AcDbSymbolTableRecord
100
AcDbLinetypeTableRecord
  2
CENTER
 70
     0
  3
____ _ ____ _ ____ _ ____ _ ____ _ ____ _ ____
 72
    65
 73
     4
 40
17.5
 49
13.0
 74
     0
 49
-1.5
 74
     0
 49
1.5
 74
     0
 49
-1.5
 74
     0
  0
LTYPE
  5
A1DA
330
5
100
AcDbSymbolTableRecord
100
AcDbLinetypeTableRecord
  2
HIDDEN
 70
     0
  3
Hidden __ __ __ __ __ __ __ __ __ __ __ __ __ _
 72
    65
 73
     2
 40
9.524999999999996
 49
6.349999999999997
 74
     0
 49
-3.174999999999998
 74
     0
  0
LTYPE
  5
A1DB
330
5
100
AcDbSymbolTableRecord
100
AcDbLinetypeTableRecord
  2
PHANTOM2
 70
     0
  3
Phantom (.5x) ___ _ _ ___ _ _ ___ _ _ ___ _ _
 72
    65
 73
     6
 40
31.75
 49
15.875
 74
     0
 49
-3.174999999999998
 74
     0
 49
3.174999999999998
 74
     0
 49
-3.174999999999998
 74
     0
 49
3.174999999999998
 74
     0
 49
-3.174999999999998
 74
     0
  0
LTYPE
  5
D1E1
330
5
100
AcDbSymbolTableRecord
100
AcDbLinetypeTableRecord
  2
ACISOWELD
 70
     0
  3
_ _ _ _ _
 72
    65
 73
     2
 40
2.0
 49
2.0
 74
     0
 49
-1.0
 74
     0
  0
LTYPE
  5
D1E2
330
5
100
AcDbSymbolTableRecord
100
AcDbLinetypeTableRecord
  2
ACISOTGB
 70
     0
  3
__ . . __ . .
 72
    65
 73
     6
 40
9.0
 49
4.0
 74
     0
 49
-1.0
 74
     0
 49
1.0
 74
     0
 49
-1.0
 74
     0
 49
1.0
 74
     0
 49
-1.0
 74
     0
  0
LTYPE
  5
D1E3
330
5
100
AcDbSymbolTableRecord
100
AcDbLinetypeTableRecord
  2
ACISOTGL
 70
     0
  3
_ _ _ _ _
 72
    65
 73
     2
 40
3.0
 49
2.0
 74
     0
 49
-1.0
 74
     0
  0
ENDTAB
  0
TABLE
  2
LAYER
  5
2
102
{ACAD_XDICTIONARY
360
B18B
102
}
330
0
100
AcDbSymbolTable
 70
     7
  0
LAYER
  5
10
330
2
100
AcDbSymbolTableRecord
100
AcDbLayerTableRecord
  2
0
 70
     0
 62
     7
  6
Continuous
370
    -3
390
F
  0
LAYER
  5
D1
330
2
100
AcDbSymbolTableRecord
100
AcDbLayerTableRecord
  2
Defpoints
 70
     0
 62
     7
  6
Continuous
290
     0
370
    -3
390
F
  0
LAYER
  5
A2D
330
2
100
AcDbSymbolTableRecord
100
AcDbLayerTableRecord
  2
AM_0
 70
     0
 62
     7
  6
Continuous
370
    30
390
F
  0
LAYER
  5
AD7
330
2
100
AcDbSymbolTableRecord
100
AcDbLayerTableRecord
  2
AM_4
 70
     0
 62
     3
  6
Continuous
370
    13
390
F
  0
LAYER
  5
20014
330
2
100
AcDbSymbolTableRecord
100
AcDbLayerTableRecord
  2
AM_5
 70
     0
 62
     3
  6
Continuous
370
    13
390
F
  0
LAYER
  5
33562
330
2
100
AcDbSymbolTableRecord
100
AcDbLayerTableRecord
  2
AM_7
 70
     0
 62
     4
  6
AM_ISO08W050
370
    13
390
F
  0
LAYER
  5
3380E
330
2
100
AcDbSymbolTableRecord
100
AcDbLayerTableRecord
  2
AM_11
 70
     0
 62
     3
  6
AM_ISO09W050
370
    13
390
F
  0
ENDTAB
  0
TABLE
  2
STYLE
  5
3
330
0
100
AcDbSymbolTable
 70
     5
  0
STYLE
  5
11
330
3
100
AcDbSymbolTableRecord
100
AcDbTextStyleTableRecord
  2
STANDARD
 70
     0
 40
0.0
 41
1.0
 50
0.0
 71
     0
 42
7.0
  3
ISOCP.SHX
  4
EXTFONT.SHX
  0
STYLE
  5
65
330
3
100
AcDbSymbolTableRecord
100
AcDbTextStyleTableRecord
  2

 70
     1
 40
0.0
 41
1.0
 50
0.0
 71
     0
 42
2.5
  3
ltypeshp.shx
  4

  0
STYLE
  5
15E
330
3
100
AcDbSymbolTableRecord
100
AcDbTextStyleTableRecord
  2
ACJISTS
 70
     0
 40
1.0
 41
1.0
 50
0.0
 71
     0
 42
2.5
  3
isocp.shx
  4
bigfont.shx
  0
STYLE
  5
D1E6
330
3
100
AcDbSymbolTableRecord
100
AcDbTextStyleTableRecord
  2
ACISOTS
 70
     0
 40
1.0
 41
1.0
 50
0.0
 71
     0
 42
2.5
  3
isocp.shx
  4
extfont.shx
  0
STYLE
  5
D1E7
330
3
100
AcDbSymbolTableRecord
100
AcDbTextStyleTableRecord
  2
ACISOGDT
 70
     0
 40
0.0
 41
1.0
 50
0.0
 71
     0
 42
2.5
  3
amgdt.shx
  4

  0
ENDTAB
  0
TABLE
  2
VIEW
  5
6
330
0
100
AcDbSymbolTable
 70
     6
  0
VIEW
  5
596
330
6
100
AcDbSymbolTableRecord
100
AcDbViewTableRecord
  2
AM_VIEW1
 70
     0
 40
148.5
 10
117.2527063599458
 20
222.75
 41
234.5054127198917
 11
0.0
 21
0.0
 31
1.0
 12
0.0
 22
0.0
 32
0.0
 42
50.0
 43
0.0
 44
0.0
 50
0.0
 71
    16
281
     0
 72
     0
  0
VIEW
  5
597
330
6
100
AcDbSymbolTableRecord
100
AcDbViewTableRecord
  2
AM_VIEW2
 70
     0
 40
148.5
 10
302.7472936400541
 20
222.75
 41
234.5054127198917
 11
0.0
 21
0.0
 31
1.0
 12
0.0
 22
0.0
 32
0.0
 42
50.0
 43
0.0
 44
0.0
 50
0.0
 71
    16
281
     0
 72
     0
  0
VIEW
  5
598
330
6
100
AcDbSymbolTableRecord
100
AcDbViewTableRecord
  2
AM_VIEW3
 70
     0
 40
148.5
 10
117.2527063599458
 20
74.25
 41
234.5054127198917
 11
0.0
 21
0.0
 31
1.0
 12
0.0
 22
0.0
 32
0.0
 42
50.0
 43
0.0
 44
0.0
 50
0.0
 71
    16
281
     0
 72
     0
  0
VIEW
  5
599
330
6
100
AcDbSymbolTableRecord
100
AcDbViewTableRecord
  2
AM_VIEW4
 70
     0
 40
148.5
 10
302.7472936400541
 20
74.25
 41
234.5054127198917
 11
0.0
 21
0.0
 31
1.0
 12
0.0
 22
0.0
 32
0.0
 42
50.0
 43
0.0
 44
0.0
 50
0.0
 71
    16
281
     0
 72
     0
  0
VIEW
  5
59A
330
6
100
AcDbSymbolTableRecord
100
AcDbViewTableRecord
  2
AM_VIEW5
 70
     0
 40
148.5
 10
210.0
 20
148.5
 41
234.5054127198917
 11
0.0
 21
0.0
 31
1.0
 12
0.0
 22
0.0
 32
0.0
 42
50.0
 43
0.0
 44
0.0
 50
0.0
 71
    16
281
     0
 72
     0
  0
VIEW
  5
59B
330
6
100
AcDbSymbolTableRecord
100
AcDbViewTableRecord
  2
AM_VIEW6
 70
     0
 40
296.99703
 10
210.0
 20
148.5
 41
469.0061353315289
 11
0.0
 21
0.0
 31
1.0
 12
0.0
 22
0.0
 32
0.0
 42
50.0
 43
0.0
 44
0.0
 50
0.0
 71
    16
281
     0
 72
     0
  0
ENDTAB
  0
TABLE
  2
UCS
  5
7
330
0
100
AcDbSymbolTable
 70
     0
  0
ENDTAB
  0
TABLE
  2
APPID
  5
9
330
0
100
AcDbSymbolTable
 70
    52
  0
APPID
  5
12
330
9
100
AcDbSymbolTableRecord
100
AcDbRegAppTableRecord
  2
ACAD
 70
     0
  0
APPID
  5
46
330
9
100
AcDbSymbolTableRecord
100
AcDbRegAppTableRecord
  2
MCAD_NO_VIS
 70
     0
  0
APPID
  5
47
330
9
100
AcDbSymbolTableRecord
100
AcDbRegAppTableRecord
  2
ACAD_TEMP_GRAPHIC
 70
     0
  0
APPID
  5
10B
330
9
100
AcDbSymbolTableRecord
100
AcDbRegAppTableRecord
  2
GENIUS_GENDTOL_13
 70
     0
  0
APPID
  5
199
330
9
100
AcDbSymbolTableRecord
100
AcDbRegAppTableRecord
  2
GENIUS_GENCFG_13
 70
     0
  0
APPID
  5
19A
330
9
100
AcDbSymbolTableRecord
100
AcDbRegAppTableRecord
  2
GENIUS_GENCFG0_13
 70
     0
  0
APPID
  5
19B
330
9
100
AcDbSymbolTableRecord
100
AcDbRegAppTableRecord
  2
GENIUS_GENCFG1_13
 70
     0
  0
APPID
  5
19C
330
9
100
AcDbSymbolTableRecord
100
AcDbRegAppTableRecord
  2
GENIUS_GENCFG2_13
 70
     0
  0
APPID
  5
19D
330
9
100
AcDbSymbolTableRecord
100
AcDbRegAppTableRecord
  2
GENIUS_GENCFG3_13
 70
     0
  0
APPID
  5
19E
330
9
100
AcDbSymbolTableRecord
100
AcDbRegAppTableRecord
  2
GENIUS_GENCFG4_13
 70
     0
  0
APPID
  5
5DC
330
9
100
AcDbSymbolTableRecord
100
AcDbRegAppTableRecord
  2
GENIUS_GENBLLY_14
 70
     0
  0
APPID
  5
5DD
330
9
100
AcDbSymbolTableRecord
100
AcDbRegAppTableRecord
  2
GENIUS_GENODEF_13
 70
     0
  0
APPID
  5
5DE
330
9
100
AcDbSymbolTableRecord
100
AcDbRegAppTableRecord
  2
GENIUS_GENOBJ-N-CEN_13
 70
     0
  0
APPID
  5
5EA
330
9
100
AcDbSymbolTableRecord
100
AcDbRegAppTableRecord
  2
GENIUS_GENTRA_14
 70
     0
  0
APPID
  5
5F4
330
9
100
AcDbSymbolTableRecord
100
AcDbRegAppTableRecord
  2
GENIUS_GENOBJ-N-TIT_13
 70
     0
  0
APPID
  5
5F5
330
9
100
AcDbSymbolTableRecord
100
AcDbRegAppTableRecord
  2
GENIUS_GENTITLE_13
 70
     0
  0
APPID
  5
5F6
330
9
100
AcDbSymbolTableRecord
100
AcDbRegAppTableRecord
  2
GENIUS_GENOENT_13
 70
     0
  0
APPID
  5
5F7
330
9
100
AcDbSymbolTableRecord
100
AcDbRegAppTableRecord
  2
GENIUS_GENOREF_13
 70
     0
  0
APPID
  5
5F8
330
9
100
AcDbSymbolTableRecord
100
AcDbRegAppTableRecord
  2
GENIUS_GENOLIS_13
 70
     0
  0
APPID
  5
5F9
330
9
100
AcDbSymbolTableRecord
100
AcDbRegAppTableRecord
  2
GENIUS_GENZVEED_13
 70
     0
  0
APPID
  5
5FA
330
9
100
AcDbSymbolTableRecord
100
AcDbRegAppTableRecord
  2
GENIUS_GENSCREG_15
 70
     0
  0
APPID
  5
5FB
330
9
100
AcDbSymbolTableRecord
100
AcDbRegAppTableRecord
  2
GENIUS_GENOBJ-N-SDF_13
 70
     0
  0
APPID
  5
A2F
330
9
100
AcDbSymbolTableRecord
100
AcDbRegAppTableRecord
  2
GENIUS_GENOBJ-N-RSBK_13
 70
     0
  0
APPID
  5
A30
330
9
100
AcDbSymbolTableRecord
100
AcDbRegAppTableRecord
  2
GENIUS_GENOBJ-N-LIB_13
 70
     0
  0
APPID
  5
A31
330
9
100
AcDbSymbolTableRecord
100
AcDbRegAppTableRecord
  2
GENIUS_GENSCALE_13
 70
     0
  0
APPID
  5
1642
330
9
100
AcDbSymbolTableRecord
100
AcDbRegAppTableRecord
  2
GENIUS_GENREC_14
 70
     0
  0
APPID
  5
1643
330
9
100
AcDbSymbolTableRecord
100
AcDbRegAppTableRecord
  2
GENIUS_GENOBJ-N-REC_13
 70
     0
  0
APPID
  5
1965
330
9
100
AcDbSymbolTableRecord
100
AcDbRegAppTableRecord
  2
GENIUS_GENFIL_13
 70
     0
  0
APPID
  5
1966
330
9
100
AcDbSymbolTableRecord
100
AcDbRegAppTableRecord
  2
GENIUS_GENOBJ-N-CHA_13
 70
     0
  0
APPID
  5
25E4
330
9
100
AcDbSymbolTableRecord
100
AcDbRegAppTableRecord
  2
GENIUS_GENDIMSH_14
 70
     0
  0
APPID
  5
26B1
330
9
100
AcDbSymbolTableRecord
100
AcDbRegAppTableRecord
  2
GENIUS_GENOBJ-N-CRS_13
 70
     0
  0
APPID
  5
364A
330
9
100
AcDbSymbolTableRecord
100
AcDbRegAppTableRecord
  2
GENIUS_GENOBJ-N-HTC_13
 70
     0
  0
APPID
  5
364B
330
9
100
AcDbSymbolTableRecord
100
AcDbRegAppTableRecord
  2
GENIUS_GENHATCH_13
 70
     0
  0
APPID
  5
57E1
330
9
100
AcDbSymbolTableRecord
100
AcDbRegAppTableRecord
  2
GENIUS_GENOBJ-N-FIL_13
 70
     0
  0
APPID
  5
7D0C
330
9
100
AcDbSymbolTableRecord
100
AcDbRegAppTableRecord
  2
GENIUS_GENOBJ-N-DIM_13
 70
     0
  0
APPID
  5
7D16
330
9
100
AcDbSymbolTableRecord
100
AcDbRegAppTableRecord
  2
GENIUS_GENDIM_13
 70
     0
  0
APPID
  5
A1DD
330
9
100
AcDbSymbolTableRecord
100
AcDbRegAppTableRecord
  2
AD_DRAW
 70
     0
  0
APPID
  5
A1E0
330
9
100
AcDbSymbolTableRecord
100
AcDbRegAppTableRecord
  2
ACATTRIBSERVICES
 70
     0
  0
APPID
  5
A1FE
330
9
100
AcDbSymbolTableRecord
100
AcDbRegAppTableRecord
  2
DESIGNERASSEMBLIES
 70
     0
  0
APPID
  5
A211
330
9
100
AcDbSymbolTableRecord
100
AcDbRegAppTableRecord
  2
ACADM_DIM_EDIT
 70
     0
  0
APPID
  5
A212
330
9
100
AcDbSymbolTableRecord
100
AcDbRegAppTableRecord
  2
AMDT_DM_ADJ
 70
     0
  0
APPID
  5
AC46
330
9
100
AcDbSymbolTableRecord
100
AcDbRegAppTableRecord
  2
BASE_TYPE
 70
     0
  0
APPID
  5
B18A
330
9
100
AcDbSymbolTableRecord
100
AcDbRegAppTableRecord
  2
ACAD_PSEXT
 70
     0
  0
APPID
  5
B9E9
330
9
100
AcDbSymbolTableRecord
100
AcDbRegAppTableRecord
  2
GENIUS_GENCEN_19
 70
     0
  0
APPID
  5
1DFCB
330
9
100
AcDbSymbolTableRecord
100
AcDbRegAppTableRecord
  2
ACAD_DSTYLE_DIMTEXT_FILL
 70
     0
  0
APPID
  5
2AB65
330
9
100
AcDbSymbolTableRecord
100
AcDbRegAppTableRecord
  2
ACAD_DSTYLE_DIMARC_LENGTH_SYMBOL
 70
     0
  0
APPID
  5
2AB66
330
9
100
AcDbSymbolTableRecord
100
AcDbRegAppTableRecord
  2
ACAD_DSTYLE_DIMJOGGED_JOGANGLE_SYMBOL
 70
     0
  0
APPID
  5
2AB67
330
9
100
AcDbSymbolTableRecord
100
AcDbRegAppTableRecord
  2
AcAecLayerStandard
 70
     0
  0
APPID
  5
2B45D
330
9
100
AcDbSymbolTableRecord
100
AcDbRegAppTableRecord
  2
DCO15
 70
     0
  0
APPID
  5
2D5A4
330
9
100
AcDbSymbolTableRecord
100
AcDbRegAppTableRecord
  2
ACAD_DIMASSOC_DIMLFAC
 70
     0
  0
APPID
  5
2D5A5
330
9
100
AcDbSymbolTableRecord
100
AcDbRegAppTableRecord
  2
ACAD_DIMASSOC_CALC_DIMLFAC
 70
     0
  0
APPID
  5
2D5A6
330
9
100
AcDbSymbolTableRecord
100
AcDbRegAppTableRecord
  2
ACAD_DIMASSOC_OVERRIDDEN_DIMLFAC
 70
     0
  0
ENDTAB
  0
TABLE
  2
DIMSTYLE
  5
A
330
0
100
AcDbSymbolTable
 70
     9
100
AcDbDimStyleTable
 71
     2
340
BF
340
3282
  0
DIMSTYLE
105
BF
330
A
100
AcDbSymbolTableRecord
100
AcDbDimStyleTableRecord
  2
AM_JIS
 70
     0
  4
"
 41
2.5
 42
0.0
 43
10.0
 44
1.0
 47
0.1
 48
0.1000000001
 73
     0
 74
     0
 77
     3
 78
     1
 79
     2
140
3.799999999999998
141
0.0
143
0.0393701
146
0.71
147
1.5
172
     1
176
   256
177
   256
178
     2
179
     2
271
     3
272
     3
275
     1
283
     0
284
     8
340
11
341
C0
342
C0
371
    -1
372
    -1
  0
DIMSTYLE
105
3282
102
{ACAD_REACTORS
330
3396A
330
33974
330
339A2
330
339A3
330
339A4
330
339A5
330
339A6
330
34310
102
}
330
A
100
AcDbSymbolTableRecord
100
AcDbDimStyleTableRecord
  2
AM_JIS$0
 70
     0
  4
"
 41
2.5
 42
0.0
 43
10.0
 44
1.0
 47
0.1
 48
0.1000000001
 73
     0
 74
     0
 77
     3
 78
     1
 79
     2
140
3.799999999999998
141
0.0
143
0.0393701
146
0.71
147
1.5
172
     1
176
     3
177
     3
178
     2
271
     2
272
     2
275
     1
283
     0
284
     8
289
     0
340
11
341
C0
342
C0
371
    13
372
    13
  0
DIMSTYLE
105
D1E8
330
A
100
AcDbSymbolTableRecord
100
AcDbDimStyleTableRecord
  2
AM_ISO
 70
     0
  4
"
 41
2.5
 42
1.0
 43
10.0
 44
1.0
 47
0.1
 48
0.1
 73
     0
 74
     0
 77
     1
 78
     8
 79
     2
140
3.5
141
0.0
143
0.0393701
146
0.71
147
1.5
172
     1
176
   256
177
   256
178
     2
271
     2
272
     3
274
     4
283
     0
284
     8
340
11
371
    -1
372
    -1
  0
DIMSTYLE
105
D1E9
330
A
100
AcDbSymbolTableRecord
100
AcDbDimStyleTableRecord
  2
AM_ISO$3
 70
     0
  4
"
 41
2.5
 42
1.0
 43
10.0
 44
1.0
 47
0.1
 48
0.1
 73
     0
 77
     1
 78
     8
 79
     2
140
3.5
141
0.0
143
0.0393701
146
0.71
147
1.5
176
   256
177
   256
178
     2
271
     2
272
     3
274
     4
283
     0
284
     8
288
     1
289
     0
340
11
371
    -1
372
    -1
  0
DIMSTYLE
105
D1EA
330
A
100
AcDbSymbolTableRecord
100
AcDbDimStyleTableRecord
  2
AM_ISO$4
 70
     0
  4
"
 41
2.5
 42
1.0
 43
10.0
 44
1.0
 47
0.1
 48
0.1
 73
     0
 77
     1
 78
     8
 79
     2
140
3.5
141
0.0
143
0.0393701
146
0.71
147
1.5
176
   256
177
   256
178
     2
271
     2
272
     3
274
     4
283
     0
284
     8
288
     1
289
     0
340
11
371
    -1
372
    -1
  0
DIMSTYLE
105
D1EB
330
A
100
AcDbSymbolTableRecord
100
AcDbDimStyleTableRecord
  2
AM_ISO$6
 70
     0
  4
"
 41
2.5
 42
1.0
 43
10.0
 44
1.0
 47
0.1
 48
0.1
 73
     0
 74
     0
 78
     8
 79
     2
140
3.5
141
0.0
143
0.0393701
146
0.71
147
1.5
172
     1
176
   256
177
   256
178
     2
271
     2
272
     3
274
     4
283
     0
284
     8
340
11
371
    -1
372
    -1
  0
DIMSTYLE
105
D1EC
330
A
100
AcDbSymbolTableRecord
100
AcDbDimStyleTableRecord
  2
AM_ISO$7
 70
     0
  4
"
 41
2.5
 42
1.0
 43
10.0
 44
1.0
 47
0.1
 48
0.1
 73
     0
 74
     0
 77
     1
 78
     8
 79
     2
140
5.0
141
0.0
143
0.0393701
146
0.71
147
1.5
172
     1
176
   256
177
   256
178
     2
271
     2
272
     3
274
     4
283
     0
284
     8
340
11
371
    -1
372
    -1
  0
DIMSTYLE
105
D1ED
330
A
100
AcDbSymbolTableRecord
100
AcDbDimStyleTableRecord
  2
AM_ISO$SF
 70
     0
  4
"
 41
2.5
 42
1.0
 43
10.0
 44
1.0
 47
0.1
 48
0.1
 73
     0
 74
     0
 75
     1
 76
     1
 77
     1
 78
     8
 79
     2
140
3.5
141
0.0
143
0.0393701
146
0.71
147
1.5
172
     1
176
   256
177
   256
178
     2
271
     2
272
     3
274
     4
283
     0
284
     8
340
11
371
    -1
372
    -1
  0
DIMSTYLE
105
D1EE
330
A
100
AcDbSymbolTableRecord
100
AcDbDimStyleTableRecord
  2
AM_ISO$SH
 70
     0
  4
"
 41
2.5
 42
1.0
 43
10.0
 44
1.0
 47
0.1
 48
0.1
 73
     0
 74
     0
 75
     1
 76
     1
 77
     1
 78
     8
 79
     2
140
3.5
141
0.0
143
0.0393701
144
2.0
146
0.71
147
1.5
172
     1
173
     1
176
   256
177
   256
178
     2
271
     2
272
     3
274
     4
283
     0
284
     8
340
11
343
CB
371
    -1
372
    -1
  0
ENDTAB
  0
TABLE
  2
BLOCK_RECORD
  5
1
330
0
100
AcDbSymbolTable
 70
    12
  0
BLOCK_RECORD
  5
1F
102
{ACAD_XDICTIONARY
360
68
102
}
330
1
100
AcDbSymbolTableRecord
100
AcDbBlockTableRecord
  2
*Model_Space
340
22
  0
BLOCK_RECORD
  5
1B
330
1
100
AcDbSymbolTableRecord
100
AcDbBlockTableRecord
  2
*Paper_Space
340
1E
  0
BLOCK_RECORD
  5
23
330
1
100
AcDbSymbolTableRecord
100
AcDbBlockTableRecord
  2
*Paper_Space0
340
26
  0
BLOCK_RECORD
  5
C0
330
1
100
AcDbSymbolTableRecord
100
AcDbBlockTableRecord
  2
_Open30
340
0
102
{BLKREFS
331
34264
331
34265
331
3426D
331
3426E
331
34276
331
34277
331
3427F
331
34280
331
34288
331
34289
331
34293
331
34294
331
342CC
331
342CD
331
3432B
102
}
  0
BLOCK_RECORD
  5
CB
330
1
100
AcDbSymbolTableRecord
100
AcDbBlockTableRecord
  2
GENAXEH
340
0
  0
BLOCK_RECORD
  5
33AAA
330
1
100
AcDbSymbolTableRecord
100
AcDbBlockTableRecord
  2
*D3
340
0
  0
BLOCK_RECORD
  5
33ABC
330
1
100
AcDbSymbolTableRecord
100
AcDbBlockTableRecord
  2
*D4
340
0
  0
BLOCK_RECORD
  5
33AC6
330
1
100
AcDbSymbolTableRecord
100
AcDbBlockTableRecord
  2
*D5
340
0
  0
BLOCK_RECORD
  5
33AD0
330
1
100
AcDbSymbolTableRecord
100
AcDbBlockTableRecord
  2
*D6
340
0
  0
BLOCK_RECORD
  5
33ADA
330
1
100
AcDbSymbolTableRecord
100
AcDbBlockTableRecord
  2
*D7
340
0
  0
BLOCK_RECORD
  5
33AE4
330
1
100
AcDbSymbolTableRecord
100
AcDbBlockTableRecord
  2
*D8
340
0
  0
BLOCK_RECORD
  5
33AF0
330
1
100
AcDbSymbolTableRecord
100
AcDbBlockTableRecord
  2
*D9
340
0
  0
BLOCK_RECORD
  5
34311
330
1
100
AcDbSymbolTableRecord
100
AcDbBlockTableRecord
  2
*D10
340
0
  0
ENDTAB
  0
ENDSEC
  0
SECTION
  2
BLOCKS
  0
BLOCK
  5
20
330
1F
100
AcDbEntity
  8
0
100
AcDbBlockBegin
  2
*Model_Space
 70
     0
 10
0.0
 20
0.0
 30
0.0
  3
*Model_Space
  1

  0
ENDBLK
  5
21
330
1F
100
AcDbEntity
  8
0
100
AcDbBlockEnd
  0
BLOCK
  5
1C
330
1B
100
AcDbEntity
 67
     1
  8
0
100
AcDbBlockBegin
  2
*Paper_Space
 70
     0
 10
0.0
 20
0.0
 30
0.0
  3
*Paper_Space
  1

  0
ENDBLK
  5
1D
330
1B
100
AcDbEntity
 67
     1
  8
0
100
AcDbBlockEnd
  0
BLOCK
  5
24
330
23
100
AcDbEntity
  8
0
100
AcDbBlockBegin
  2
*Paper_Space0
 70
     0
 10
0.0
 20
0.0
 30
0.0
  3
*Paper_Space0
  1

  0
VIEWPORT
  5
82
102
{ACAD_XDICTIONARY
360
34469
102
}
330
23
100
AcDbEntity
  8
0
100
AcDbViewport
 10
5.249999639556162
 20
3.999999883606676
 30
0.0
 40
15.37157224495366
 41
8.992999745766947
 69
     0
 12
5.249999639556162
 22
3.999999883606676
 13
0.0
 23
0.0
 14
10.0
 24
10.0
 15
10.0
 25
10.0
 16
0.0
 26
0.0
 36
1.0
 17
0.0
 27
0.0
 37
0.0
 42
50.0
 43
0.0
 44
0.0
 45
8.992999745766947
 50
0.0
 51
0.0
 72
   100
 90
    32800
  1

281
     0
 71
     1
 74
     0
110
0.0
120
0.0
130
0.0
111
1.0
121
0.0
131
0.0
112
0.0
122
1.0
132
0.0
 79
     0
146
0.0
1001
GENIUS_GENODEF_13
1002
{
1000
HIER
1070
     0
1002
}
1002
{
1000
MANEDIT
1070
     0
1002
}
1002
{
1000
NOSEL
1070
     0
1002
}
1002
{
1000
BEHIND
1070
     0
1002
}
1002
{
1000
OTHER
1070
     0
1002
}
1002
{
1000
REACTOR
1002
}
1001
GENIUS_GENOBJ-N-SDF_13
1002
{
1000
OWNER
1000
GEN
1002
}
1001
GENIUS_GENSCREG_15
1000
PF
1040
1.0
1000
DF
1040
1.0
1000
MIN
1011
-2.435786482920669
1021
-0.4964999892767974
1031
0.0
1000
MAX
1011
12.93578576203299
1021
8.49649975649015
1031
0.0
1000
FLAGS
1070
     2
  0
ENDBLK
  5
25
330
23
100
AcDbEntity
  8
0
100
AcDbBlockEnd
  0
BLOCK
  5
C4
330
C0
100
AcDbEntity
  8
0
100
AcDbBlockBegin
  2
_Open30
 70
     0
 10
0.0
 20
0.0
 30
0.0
  3
_Open30
  1

  0
LINE
  5
C1
330
C0
100
AcDbEntity
  8
0
 62
     0
370
    -2
100
AcDbLine
 10
-1.0
 20
0.26794919
 30
0.0
 11
0.0
 21
0.0
 31
0.0
  0
LINE
  5
C2
330
C0
100
AcDbEntity
  8
0
 62
     0
370
    -2
100
AcDbLine
 10
0.0
 20
0.0
 30
0.0
 11
-1.0
 21
-0.26794919
 31
0.0
  0
LINE
  5
C3
330
C0
100
AcDbEntity
  8
0
 62
     0
370
    -2
100
AcDbLine
 10
0.0
 20
0.0
 30
0.0
 11
-1.0
 21
0.0
 31
0.0
  0
ENDBLK
  5
C5
330
C0
100
AcDbEntity
  8
0
100
AcDbBlockEnd
  0
BLOCK
  5
CD
330
CB
100
AcDbEntity
  8
0
100
AcDbBlockBegin
  2
GENAXEH
 70
     0
 10
0.0
 20
0.0
 30
0.0
  3
GENAXEH
  1

  0
LINE
  5
CC
330
CB
100
AcDbEntity
  8
0
100
AcDbLine
 10
-1.0
 20
0.0
 30
0.0
 11
1.0
 21
0.0
 31
0.0
  0
ENDBLK
  5
CE
330
CB
100
AcDbEntity
  8
0
100
AcDbBlockEnd
  0
BLOCK
  5
33B55
330
33AAA
100
AcDbEntity
  8
0
100
AcDbBlockBegin
  2
*D3
 70
     1
 10
0.0
 20
0.0
 30
0.0
  3
*D3
  1

  0
LINE
  5
34261
330
33AAA
100
AcDbEntity
  8
AM_5
 62
     3
370
    13
100
AcDbLine
 10
-45.00000000000002
 20
-24.50000000000003
 30
0.0
 11
-45.00000000000002
 21
-45.55191231579747
 31
0.0
  0
LINE
  5
34262
330
33AAA
100
AcDbEntity
  8
AM_5
 62
     3
370
    13
100
AcDbLine
 10
-32.00000000000004
 20
-13.20000000000007
 30
0.0
 11
-32.00000000000004
 21
-45.55191231579747
 31
0.0
  0
LINE
  5
34263
330
33AAA
100
AcDbEntity
  8
AM_5
 62
     3
370
    13
100
AcDbLine
 10
-42.50000000000002
 20
-44.55191231579745
 30
0.0
 11
-34.50000000000004
 21
-44.55191231579745
 31
0.0
  0
INSERT
  5
34264
330
33AAA
100
AcDbEntity
  8
AM_5
 62
     3
370
    13
100
AcDbBlockReference
  2
_Open30
 10
-45.00000000000002
 20
-44.55191231579745
 30
0.0
 41
2.5
 42
2.5
 43
2.5
 50
180.0
  0
INSERT
  5
34265
330
33AAA
100
AcDbEntity
  8
AM_5
 62
     3
370
    13
100
AcDbBlockReference
  2
_Open30
 10
-32.00000000000004
 20
-44.55191231579745
 30
0.0
 41
2.5
 42
2.5
 43
2.5
  0
MTEXT
  5
34266
330
33AAA
100
AcDbEntity
  8
AM_5
 62
     2
100
AcDbMText
 10
-38.50000000000004
 20
-41.15191231579745
 30
0.0
 40
3.799999999999998
 41
0.0
 71
     5
 72
     1
  1
13
 73
     1
 44
1.0
1001
ACAD
1000
MTEXTBEGIN
1070
    73
1070
     1
1070
    44
1040
1.0
1070
    74
1070
     0
1000
MTEXTEND
  0
POINT
  5
34267
330
33AAA
100
AcDbEntity
  8
Defpoints
 62
     0
100
AcDbPoint
 10
-45.00000000000002
 20
-24.50000000000003
 30
0.0
  0
POINT
  5
34268
330
33AAA
100
AcDbEntity
  8
Defpoints
 62
     0
100
AcDbPoint
 10
-32.00000000000004
 20
-13.20000000000007
 30
0.0
  0
POINT
  5
34269
330
33AAA
100
AcDbEntity
  8
Defpoints
 62
     0
100
AcDbPoint
 10
-32.00000000000004
 20
-44.55191231579745
 30
0.0
  0
ENDBLK
  5
33B56
330
33AAA
100
AcDbEntity
  8
0
100
AcDbBlockEnd
  0
BLOCK
  5
33B59
330
33ABC
100
AcDbEntity
  8
0
100
AcDbBlockBegin
  2
*D4
 70
     1
 10
0.0
 20
0.0
 30
0.0
  3
*D4
  1

  0
LINE
  5
3426A
330
33ABC
100
AcDbEntity
  8
AM_5
 62
     3
370
    13
100
AcDbLine
 10
-43.50000000000004
 20
12.70000000000002
 30
0.0
 11
-67.73610025238662
 21
12.70000000000002
 31
0.0
  0
LINE
  5
3426B
330
33ABC
100
AcDbEntity
  8
AM_5
 62
     3
370
    13
100
AcDbLine
 10
-43.50000000000004
 20
-12.70000000000002
 30
0.0
 11
-67.73610025238662
 21
-12.70000000000001
 31
0.0
  0
LINE
  5
3426C
330
33ABC
100
AcDbEntity
  8
AM_5
 62
     3
370
    13
100
AcDbLine
 10
-66.73610025238662
 20
10.20000000000002
 30
0.0
 11
-66.73610025238662
 21
-10.20000000000001
 31
0.0
  0
INSERT
  5
3426D
330
33ABC
100
AcDbEntity
  8
AM_5
 62
     3
370
    13
100
AcDbBlockReference
  2
_Open30
 10
-66.73610025238662
 20
12.70000000000002
 30
0.0
 41
2.5
 42
2.5
 43
2.5
 50
90.0
  0
INSERT
  5
3426E
330
33ABC
100
AcDbEntity
  8
AM_5
 62
     3
370
    13
100
AcDbBlockReference
  2
_Open30
 10
-66.73610025238662
 20
-12.70000000000001
 30
0.0
 41
2.5
 42
2.5
 43
2.5
 50
270.0
  0
MTEXT
  5
3426F
330
33ABC
100
AcDbEntity
  8
AM_5
 62
     2
100
AcDbMText
 10
-70.13647426813465
 20
-0.7485211778904951
 30
0.0
 40
3.799999999999998
 41
0.0
 71
     5
 72
     1
  1
%%c25.4
 11
0.0000000000000001
 21
1.0
 31
0.0
 73
     1
 44
1.0
1001
ACAD
1000
MTEXTBEGIN
1070
    73
1070
     1
1070
    44
1040
1.0
1070
    74
1070
     0
1000
MTEXTEND
  0
POINT
  5
34270
330
33ABC
100
AcDbEntity
  8
Defpoints
 62
     0
100
AcDbPoint
 10
-43.50000000000004
 20
12.70000000000002
 30
0.0
  0
POINT
  5
34271
330
33ABC
100
AcDbEntity
  8
Defpoints
 62
     0
100
AcDbPoint
 10
-43.50000000000004
 20
-12.70000000000002
 30
0.0
  0
POINT
  5
34272
330
33ABC
100
AcDbEntity
  8
Defpoints
 62
     0
100
AcDbPoint
 10
-66.73610025238662
 20
-12.70000000000001
 30
0.0
  0
ENDBLK
  5
33B5A
330
33ABC
100
AcDbEntity
  8
0
100
AcDbBlockEnd
  0
BLOCK
  5
33B5B
330
33AC6
100
AcDbEntity
  8
0
100
AcDbBlockBegin
  2
*D5
 70
     1
 10
0.0
 20
0.0
 30
0.0
  3
*D5
  1

  0
LINE
  5
34273
330
33AC6
100
AcDbEntity
  8
AM_5
 62
     3
370
    13
100
AcDbLine
 10
-44.49999999999993
 20
-25.0
 30
0.0
 11
-75.63091203295397
 21
-24.99999999999999
 31
0.0
  0
LINE
  5
34274
330
33AC6
100
AcDbEntity
  8
AM_5
 62
     3
370
    13
100
AcDbLine
 10
-44.50000000000001
 20
25.0
 30
0.0
 11
-75.63091203295397
 21
25.00000000000001
 31
0.0
  0
LINE
  5
34275
330
33AC6
100
AcDbEntity
  8
AM_5
 62
     3
370
    13
100
AcDbLine
 10
-74.63091203295397
 20
-22.49999999999999
 30
0.0
 11
-74.63091203295397
 21
22.50000000000001
 31
0.0
  0
INSERT
  5
34276
330
33AC6
100
AcDbEntity
  8
AM_5
 62
     3
370
    13
100
AcDbBlockReference
  2
_Open30
 10
-74.63091203295397
 20
-24.99999999999999
 30
0.0
 41
2.5
 42
2.5
 43
2.5
 50
270.0
  0
INSERT
  5
34277
330
33AC6
100
AcDbEntity
  8
AM_5
 62
     3
370
    13
100
AcDbBlockReference
  2
_Open30
 10
-74.63091203295397
 20
25.00000000000001
 30
0.0
 41
2.5
 42
2.5
 43
2.5
 50
90.0
  0
MTEXT
  5
34278
330
33AC6
100
AcDbEntity
  8
AM_5
 62
     2
100
AcDbMText
 10
-78.03091203295399
 20
-0.7485211778904951
 30
0.0
 40
3.799999999999998
 41
0.0
 71
     5
 72
     1
  1
%%c50
 11
0.0000000000000001
 21
1.0
 31
0.0
 73
     1
 44
1.0
1001
ACAD
1000
MTEXTBEGIN
1070
    73
1070
     1
1070
    44
1040
1.0
1070
    74
1070
     0
1000
MTEXTEND
  0
POINT
  5
34279
330
33AC6
100
AcDbEntity
  8
Defpoints
 62
     0
100
AcDbPoint
 10
-44.49999999999993
 20
-25.0
 30
0.0
  0
POINT
  5
3427A
330
33AC6
100
AcDbEntity
  8
Defpoints
 62
     0
100
AcDbPoint
 10
-44.50000000000001
 20
25.0
 30
0.0
  0
POINT
  5
3427B
330
33AC6
100
AcDbEntity
  8
Defpoints
 62
     0
100
AcDbPoint
 10
-74.63091203295397
 20
25.00000000000001
 30
0.0
  0
ENDBLK
  5
33B5C
330
33AC6
100
AcDbEntity
  8
0
100
AcDbBlockEnd
  0
BLOCK
  5
33B5D
330
33AD0
100
AcDbEntity
  8
0
100
AcDbBlockBegin
  2
*D6
 70
     1
 10
0.0
 20
0.0
 30
0.0
  3
*D6
  1

  0
LINE
  5
3427C
330
33AD0
100
AcDbEntity
  8
AM_5
 62
     3
370
    13
100
AcDbLine
 10
-32.00000000000004
 20
-7.750000000000013
 30
0.0
 11
-58.96408772296485
 21
-7.750000000000006
 31
0.0
  0
LINE
  5
3427D
330
33AD0
100
AcDbEntity
  8
AM_5
 62
     3
370
    13
100
AcDbLine
 10
-32.00000000000004
 20
7.749999999999985
 30
0.0
 11
-58.96408772296485
 21
7.749999999999992
 31
0.0
  0
LINE
  5
3427E
330
33AD0
100
AcDbEntity
  8
AM_5
 62
     3
370
    13
100
AcDbLine
 10
-57.96408772296484
 20
-5.250000000000006
 30
0.0
 11
-57.96408772296484
 21
5.249999999999992
 31
0.0
  0
INSERT
  5
3427F
330
33AD0
100
AcDbEntity
  8
AM_5
 62
     3
370
    13
100
AcDbBlockReference
  2
_Open30
 10
-57.96408772296484
 20
-7.750000000000007
 30
0.0
 41
2.5
 42
2.5
 43
2.5
 50
270.0
  0
INSERT
  5
34280
330
33AD0
100
AcDbEntity
  8
AM_5
 62
     3
370
    13
100
AcDbBlockReference
  2
_Open30
 10
-57.96408772296484
 20
7.749999999999992
 30
0.0
 41
2.5
 42
2.5
 43
2.5
 50
90.0
  0
MTEXT
  5
34281
330
33AD0
100
AcDbEntity
  8
AM_5
 62
     2
100
AcDbMText
 10
-61.36408772296483
 20
0.1281963490192201
 30
0.0
 40
3.799999999999998
 41
0.0
 71
     5
 72
     1
  1
%%c15.5
 11
0.0000000000000001
 21
1.0
 31
0.0
 73
     1
 44
1.0
1001
ACAD
1000
MTEXTBEGIN
1070
    73
1070
     1
1070
    44
1040
1.0
1070
    74
1070
     0
1000
MTEXTEND
  0
POINT
  5
34282
330
33AD0
100
AcDbEntity
  8
Defpoints
 62
     0
100
AcDbPoint
 10
-32.00000000000004
 20
-7.750000000000013
 30
0.0
  0
POINT
  5
34283
330
33AD0
100
AcDbEntity
  8
Defpoints
 62
     0
100
AcDbPoint
 10
-32.00000000000004
 20
7.749999999999985
 30
0.0
  0
POINT
  5
34284
330
33AD0
100
AcDbEntity
  8
Defpoints
 62
     0
100
AcDbPoint
 10
-57.96408772296484
 20
7.749999999999992
 30
0.0
  0
ENDBLK
  5
33B5E
330
33AD0
100
AcDbEntity
  8
0
100
AcDbBlockEnd
  0
BLOCK
  5
33B5F
330
33ADA
100
AcDbEntity
  8
0
100
AcDbBlockBegin
  2
*D7
 70
     1
 10
0.0
 20
0.0
 30
0.0
  3
*D7
  1

  0
LINE
  5
34285
330
33ADA
100
AcDbEntity
  8
AM_5
 62
     3
370
    13
100
AcDbLine
 10
-44.00000000000003
 20
-4.750000000000012
 30
0.0
 11
-50.48447502308835
 21
-4.750000000000011
 31
0.0
  0
LINE
  5
34286
330
33ADA
100
AcDbEntity
  8
AM_5
 62
     3
370
    13
100
AcDbLine
 10
-44.00000000000003
 20
4.749999999999983
 30
0.0
 11
-50.48447502308835
 21
4.749999999999987
 31
0.0
  0
LINE
  5
34287
330
33ADA
100
AcDbEntity
  8
AM_5
 62
     3
370
    13
100
AcDbLine
 10
-49.48447502308835
 20
-2.25000000000001
 30
0.0
 11
-49.48447502308835
 21
2.249999999999985
 31
0.0
  0
INSERT
  5
34288
330
33ADA
100
AcDbEntity
  8
AM_5
 62
     3
370
    13
100
AcDbBlockReference
  2
_Open30
 10
-49.48447502308835
 20
-4.750000000000011
 30
0.0
 41
2.5
 42
2.5
 43
2.5
 50
270.0
  0
INSERT
  5
34289
330
33ADA
100
AcDbEntity
  8
AM_5
 62
     3
370
    13
100
AcDbBlockReference
  2
_Open30
 10
-49.48447502308835
 20
4.749999999999986
 30
0.0
 41
2.5
 42
2.5
 43
2.5
 50
90.0
  0
MTEXT
  5
3428A
330
33ADA
100
AcDbEntity
  8
AM_5
 62
     2
100
AcDbMText
 10
-52.88447502308835
 20
-1.332999529163714
 30
0.0
 40
3.799999999999998
 41
0.0
 71
     5
 72
     1
  1
9.5
 11
0.0000000000000001
 21
1.0
 31
0.0
 73
     1
 44
1.0
1001
ACAD
1000
MTEXTBEGIN
1070
    73
1070
     1
1070
    44
1040
1.0
1070
    74
1070
     0
1000
MTEXTEND
  0
POINT
  5
3428B
330
33ADA
100
AcDbEntity
  8
Defpoints
 62
     0
100
AcDbPoint
 10
-44.00000000000003
 20
-4.750000000000012
 30
0.0
  0
POINT
  5
3428C
330
33ADA
100
AcDbEntity
  8
Defpoints
 62
     0
100
AcDbPoint
 10
-44.00000000000003
 20
4.749999999999983
 30
0.0
  0
POINT
  5
3428D
330
33ADA
100
AcDbEntity
  8
Defpoints
 62
     0
100
AcDbPoint
 10
-49.48447502308835
 20
4.749999999999986
 30
0.0
  0
ENDBLK
  5
33B60
330
33ADA
100
AcDbEntity
  8
0
100
AcDbBlockEnd
  0
BLOCK
  5
33B61
330
33AE4
100
AcDbEntity
  8
0
100
AcDbBlockBegin
  2
*D8
 70
     1
 10
0.0
 20
0.0
 30
0.0
  3
*D8
  1

  0
LINE
  5
3428E
330
33AE4
100
AcDbEntity
  8
AM_5
 62
     3
370
    13
100
AcDbLine
 10
-44.99999999999992
 20
-24.50000000000003
 30
0.0
 11
-44.99999999999992
 21
-36.19349314053289
 31
0.0
  0
LINE
  5
3428F
330
33AE4
100
AcDbEntity
  8
AM_5
 62
     3
370
    13
100
AcDbLine
 10
-39.0
 20
-4.750000000000097
 30
0.0
 11
-39.0
 21
-36.19349314053289
 31
0.0
  0
LINE
  5
34290
330
33AE4
100
AcDbEntity
  8
AM_5
 62
     3
370
    13
100
AcDbLine
 10
-47.49999999999992
 20
-35.19349314053289
 30
0.0
 11
-49.99999999999992
 21
-35.19349314053289
 31
0.0
  0
LINE
  5
34291
330
33AE4
100
AcDbEntity
  8
AM_5
 62
     3
370
    13
100
AcDbLine
 10
-36.5
 20
-35.19349314053289
 30
0.0
 11
-34.0
 21
-35.19349314053289
 31
0.0
  0
LINE
  5
34292
330
33AE4
100
AcDbEntity
  8
AM_5
 62
     3
370
    13
100
AcDbLine
 10
-44.99999999999992
 20
-35.19349314053289
 30
0.0
 11
-39.0
 21
-35.19349314053289
 31
0.0
  0
INSERT
  5
34293
330
33AE4
100
AcDbEntity
  8
AM_5
 62
     3
370
    13
100
AcDbBlockReference
  2
_Open30
 10
-44.99999999999992
 20
-35.19349314053289
 30
0.0
 41
2.5
 42
2.5
 43
2.5
  0
INSERT
  5
34294
330
33AE4
100
AcDbEntity
  8
AM_5
 62
     3
370
    13
100
AcDbBlockReference
  2
_Open30
 10
-39.0
 20
-35.19349314053289
 30
0.0
 41
2.5
 42
2.5
 43
2.5
 50
180.0
  0
MTEXT
  5
34295
330
33AE4
100
AcDbEntity
  8
AM_5
 62
     2
100
AcDbMText
 10
-41.99999999999996
 20
-31.79349314053288
 30
0.0
 40
3.799999999999998
 41
0.0
 71
     5
 72
     1
  1
6
 73
     1
 44
1.0
1001
ACAD
1000
MTEXTBEGIN
1070
    73
1070
     1
1070
    44
1040
1.0
1070
    74
1070
     0
1000
MTEXTEND
  0
POINT
  5
34296
330
33AE4
100
AcDbEntity
  8
Defpoints
 62
     0
100
AcDbPoint
 10
-44.99999999999992
 20
-24.50000000000003
 30
0.0
  0
POINT
  5
34297
330
33AE4
100
AcDbEntity
  8
Defpoints
 62
     0
100
AcDbPoint
 10
-39.0
 20
-4.750000000000097
 30
0.0
  0
POINT
  5
34298
330
33AE4
100
AcDbEntity
  8
Defpoints
 62
     0
100
AcDbPoint
 10
-39.0
 20
-35.19349314053289
 30
0.0
  0
ENDBLK
  5
33B62
330
33AE4
100
AcDbEntity
  8
0
100
AcDbBlockEnd
  0
BLOCK
  5
33B63
330
33AF0
100
AcDbEntity
  8
0
100
AcDbBlockBegin
  2
*D9
 70
     1
 10
0.0
 20
0.0
 30
0.0
  3
*D9
  1

  0
LINE
  5
342C9
330
33AF0
100
AcDbEntity
  8
AM_5
 62
     3
370
    13
100
AcDbLine
 10
-45.00000000000006
 20
24.5
 30
0.0
 11
-45.00000000000006
 21
38.37081662645284
 31
0.0
  0
LINE
  5
342CA
330
33AF0
100
AcDbEntity
  8
AM_5
 62
     3
370
    13
100
AcDbLine
 10
0.0000000000002851
 20
14.4998038482841
 30
0.0
 11
0.0000000000002865
 21
38.37081662645284
 31
0.0
  0
LINE
  5
342CB
330
33AF0
100
AcDbEntity
  8
AM_5
 62
     3
370
    13
100
AcDbLine
 10
-42.50000000000006
 20
37.37081662645284
 30
0.0
 11
-2.499999999999713
 21
37.37081662645284
 31
0.0
  0
INSERT
  5
342CC
330
33AF0
100
AcDbEntity
  8
AM_5
 62
     3
370
    13
100
AcDbBlockReference
  2
_Open30
 10
-45.00000000000006
 20
37.37081662645284
 30
0.0
 41
2.5
 42
2.5
 43
2.5
 50
180.0
  0
INSERT
  5
342CD
330
33AF0
100
AcDbEntity
  8
AM_5
 62
     3
370
    13
100
AcDbBlockReference
  2
_Open30
 10
0.0000000000002865
 20
37.37081662645284
 30
0.0
 41
2.5
 42
2.5
 43
2.5
  0
MTEXT
  5
342CE
330
33AF0
100
AcDbEntity
  8
AM_5
 62
     2
100
AcDbMText
 10
-24.67386877558755
 20
40.77081662645283
 30
0.0
 40
3.799999999999998
 41
0.0
 71
     5
 72
     1
  1
45
 73
     1
 44
1.0
1001
ACAD
1000
MTEXTBEGIN
1070
    73
1070
     1
1070
    44
1040
1.0
1070
    74
1070
     0
1000
MTEXTEND
  0
POINT
  5
342CF
330
33AF0
100
AcDbEntity
  8
Defpoints
 62
     0
100
AcDbPoint
 10
-45.00000000000006
 20
24.5
 30
0.0
  0
POINT
  5
342D0
330
33AF0
100
AcDbEntity
  8
Defpoints
 62
     0
100
AcDbPoint
 10
0.0000000000002851
 20
14.4998038482841
 30
0.0
  0
POINT
  5
342D1
330
33AF0
100
AcDbEntity
  8
Defpoints
 62
     0
100
AcDbPoint
 10
0.0000000000002865
 20
37.37081662645284
 30
0.0
  0
ENDBLK
  5
33B64
330
33AF0
100
AcDbEntity
  8
0
100
AcDbBlockEnd
  0
BLOCK
  5
34326
330
34311
100
AcDbEntity
  8
0
100
AcDbBlockBegin
  2
*D10
 70
     1
 10
0.0
 20
0.0
 30
0.0
  3
*D10
  1

  0
LINE
  5
34329
330
34311
100
AcDbEntity
  8
AM_5
 62
     3
370
    13
100
AcDbLine
 10
-0.4974560248600703
 20
15.0
 30
0.0
 11
12.50254397513993
 21
15.0
 31
0.0
  0
LINE
  5
3432A
330
34311
100
AcDbEntity
  8
AM_5
 62
     3
370
    13
100
AcDbLine
 10
11.50254397513993
 20
12.5
 30
0.0
 11
11.50254397513992
 21
-5.301496062992128
 31
0.0
  0
INSERT
  5
3432B
330
34311
100
AcDbEntity
  8
AM_5
 62
     3
370
    13
100
AcDbBlockReference
  2
_Open30
 10
11.50254397513993
 20
15.0
 30
0.0
 41
2.5
 42
2.5
 43
2.5
 50
90.0
  0
MTEXT
  5
3432C
330
34311
100
AcDbEntity
  8
AM_5
 62
     2
100
AcDbMText
 10
8.102543975139925
 20
-0.0000000000000003
 30
0.0
 40
3.799999999999998
 41
0.0
 71
     5
 72
     1
  1
%%c30
 11
0.0000000000000001
 21
1.0
 31
0.0
 73
     1
 44
1.0
1001
ACAD
1000
MTEXTBEGIN
1070
    73
1070
     1
1070
    44
1040
1.0
1070
    74
1070
     0
1000
MTEXTEND
  0
POINT
  5
3432D
330
34311
100
AcDbEntity
  8
Defpoints
 62
     0
100
AcDbPoint
 10
-0.4974560248600703
 20
-15.0
 30
0.0
  0
POINT
  5
3432E
330
34311
100
AcDbEntity
  8
Defpoints
 62
     0
100
AcDbPoint
 10
-0.4974560248600703
 20
15.0
 30
0.0
  0
POINT
  5
3432F
330
34311
100
AcDbEntity
  8
Defpoints
 62
     0
100
AcDbPoint
 10
11.50254397513993
 20
15.0
 30
0.0
  0
ENDBLK
  5
34327
330
34311
100
AcDbEntity
  8
0
100
AcDbBlockEnd
  0
ENDSEC
  0
SECTION
  2
ENTITIES
  0
POINT
  5
2828
330
1F
100
AcDbEntity
  8
AM_0
 60
     1
100
AcDbPoint
 10
0.0
 20
0.0
 30
0.0
  0
MTEXT
  5
362A
330
1F
100
AcDbEntity
  8
AM_4
 62
     2
100
AcDbMText
 10
-11.03999564202677
 20
490.2282352392369
 30
0.0
 40
3.149999999999999
 41
0.0
 71
     7
 72
     5
  1

  7
ACJISTS
 73
     1
 44
1.0
1001
ACAD
1000
MTEXTBEGIN
1070
    73
1070
     1
1070
    44
1040
1.0
1070
    74
1070
     0
1000
MTEXTEND
  0
MTEXT
  5
4552
330
1F
100
AcDbEntity
  8
AM_0
 62
     2
100
AcDbMText
 10
221.5235905312723
 20
212.2620697838378
 30
0.0
 40
3.149999999999999
 41
0.0
 71
     9
 72
     5
  1

  7
ACJISTS
 73
     1
 44
1.0
1001
ACAD
1000
MTEXTBEGIN
1070
    73
1070
     1
1070
    44
1040
1.0
1070
    74
1070
     0
1000
MTEXTEND
  0
MTEXT
  5
4558
330
1F
100
AcDbEntity
  8
AM_0
 62
     2
100
AcDbMText
 10
231.2713826525536
 20
212.1355294243498
 30
0.0
 40
3.149999999999999
 41
0.0
 71
     9
 72
     5
  1

  7
ACJISTS
 73
     1
 44
1.0
1001
ACAD
1000
MTEXTBEGIN
1070
    73
1070
     1
1070
    44
1040
1.0
1070
    74
1070
     0
1000
MTEXTEND
  0
TEXT
  5
9FD2
330
1F
100
AcDbEntity
  8
AM_0
100
AcDbText
 10
23.1874418923328
 20
203.3149950206887
 30
0.0
 40
6.0
  1

100
AcDbText
  0
TEXT
  5
1E0EC
330
1F
100
AcDbEntity
  8
AM_0
100
AcDbText
 10
366.5572736391061
 20
83.50926782869851
 30
0.0
 40
4.0
  1

 41
0.8632284874815328
100
AcDbText
  0
TEXT
  5
2D9E9
330
1F
100
AcDbEntity
  8
0
370
    -3
100
AcDbText
 10
-33.3964565983365
 20
-57.85984325431747
 30
0.0
 40
3.799999999999998
  1
SRF30R
  7
ACISOTS
100
AcDbText
  0
LINE
  5
33611
330
1F
100
AcDbEntity
  8
AM_0
100
AcDbLine
 10
-0.5938390968034346
 20
5.475000000000078
 30
0.0
 11
-8.672821053382222
 21
5.474999999999766
 31
0.0
  0
ARC
  5
33612
330
1F
100
AcDbEntity
  8
AM_0
100
AcDbCircle
 10
-8.67282105338225
 20
6.274999999999777
 30
0.0
 40
0.8
100
AcDbArc
 50
180.0
 51
270.0000000000017
1001
GENIUS_GENODEF_13
1002
{
1000
HIER
1070
     0
1002
}
1002
{
1000
MANEDIT
1070
     0
1002
}
1002
{
1000
NOSEL
1070
     0
1002
}
1002
{
1000
BEHIND
1070
     0
1002
}
1002
{
1000
OTHER
1070
     0
1002
}
1002
{
1000
REACTOR
1002
}
1001
GENIUS_GENOBJ-N-FIL_13
1002
{
1000
OWNER
1000
GEN
1002
}
  0
LINE
  5
33613
330
1F
100
AcDbEntity
  8
AM_0
100
AcDbLine
 10
-9.472821053382743
 20
7.537500000000077
 30
0.0
 11
-9.472821053382743
 21
14.15565731654811
 31
0.0
  0
LINE
  5
33616
330
1F
100
AcDbEntity
  8
AM_0
100
AcDbLine
 10
-9.47282105338226
 20
6.274999999999777
 30
0.0
 11
-9.472821053382203
 21
14.20000000000001
 31
0.0
  0
LINE
  5
33632
330
1F
100
AcDbEntity
  8
AM_0
100
AcDbLine
 10
-0.0843703133247678
 20
11.45217861744254
 30
0.0
 11
-0.0744505328281085
 21
11.44433911595342
 31
0.0
  0
LINE
  5
33633
330
1F
100
AcDbEntity
  8
AM_0
100
AcDbLine
 10
-0.0744505328281653
 20
11.44433911595342
 30
0.0
 11
-0.5938390968034346
 21
5.475000000000078
 31
0.0
  0
LINE
  5
33634
330
1F
100
AcDbEntity
  8
AM_0
100
AcDbLine
 10
-8.672821053382193
 20
15.00000000000003
 30
0.0
 11
-7.657818594335195
 21
15.0
 31
0.0
  0
ARC
  5
33635
330
1F
100
AcDbEntity
  8
AM_0
100
AcDbCircle
 10
-8.672821053382193
 20
14.20000000000001
 30
0.0
 40
0.8
100
AcDbArc
 50
90.0
 51
180.0
1001
GENIUS_GENOBJ-N-FIL_13
1002
{
1000
OWNER
1000
GEN
1002
}
1001
GENIUS_GENODEF_13
1002
{
1000
HIER
1070
     0
1002
}
1002
{
1000
MANEDIT
1070
     0
1002
}
1002
{
1000
NOSEL
1070
     0
1002
}
1002
{
1000
BEHIND
1070
     0
1002
}
1002
{
1000
OTHER
1070
     0
1002
}
1002
{
1000
REACTOR
1002
}
  0
LINE
  5
33636
330
1F
100
AcDbEntity
  8
AM_0
100
AcDbLine
 10
-7.657818594335195
 20
15.0
 30
0.0
 11
-0.4974560248600703
 21
15.0
 31
0.0
  0
LINE
  5
33637
330
1F
100
AcDbEntity
  8
AM_0
100
AcDbLine
 10
-0.4974560248600703
 20
15.0
 30
0.0
 11
0.0000000000002282
 21
14.49980384828404
 31
0.0
  0
LINE
  5
33638
330
1F
100
AcDbEntity
  8
AM_0
100
AcDbLine
 10
0.0000000000002851
 20
14.4998038482841
 30
0.0
 11
0.0000000000002851
 21
12.5
 31
0.0
  0
LINE
  5
33639
330
1F
100
AcDbEntity
  8
AM_0
100
AcDbLine
 10
0.0000000000003419
 20
12.5
 30
0.0
 11
-0.0911703008683836
 21
11.45217861744254
 31
0.0
  0
LINE
  5
33968
330
1F
100
AcDbEntity
  8
AM_7
100
AcDbLine
 10
-47.51387662784082
 20
0.0
 30
0.0
 11
2.425213089122223
 21
0.0
 31
0.0
1001
GENIUS_GENODEF_13
1002
{
1000
HIER
1070
     0
1002
}
1002
{
1000
MANEDIT
1070
     0
1002
}
1002
{
1000
NOSEL
1070
     0
1002
}
1002
{
1000
BEHIND
1070
     0
1002
}
1002
{
1000
REACTOR
1002
}
1001
GENIUS_GENOBJ-N-CEN_13
1002
{
1000
OWNER
1000
GEN
1002
}
  0
DIMENSION
  5
3396A
330
1F
100
AcDbEntity
  8
AM_5
100
AcDbDimension
  2
*D3
 10
-32.00000000000004
 20
-44.55191231579745
 30
0.0
 11
-38.50000000000004
 21
-41.15191231579745
 31
0.0
 70
    32
  1
<>
 71
     5
 42
13.0
  3
AM_JIS$0
100
AcDbAlignedDimension
 13
-45.00000000000002
 23
-24.50000000000003
 33
0.0
 14
-32.00000000000004
 24
-13.20000000000007
 34
0.0
 50
180.0
100
AcDbRotatedDimension
1001
GENIUS_GENDTOL_13
1000

1000
h7
1000

1040
0.0
1001
ACAD
1000
DSTYLE
1002
{
1070
   274
1070
     4
1070
   271
1070
     0
1002
}
  0
DIMENSION
  5
33974
330
1F
100
AcDbEntity
  8
AM_5
100
AcDbDimension
  2
*D4
 10
-66.73610025238662
 20
-12.70000000000001
 30
0.0
 11
-66.73610025238662
 21
-0.7485211778904956
 31
0.0
 70
   160
  1
%%c<>
 71
     5
 42
25.40000000000004
  3
AM_JIS$0
100
AcDbAlignedDimension
 13
-43.50000000000004
 23
12.70000000000002
 33
0.0
 14
-43.50000000000004
 24
-12.70000000000002
 34
0.0
 50
90.0
100
AcDbRotatedDimension
1001
GENIUS_GENDTOL_13
1000

1000
h7
1000

1040
0.0
1001
ACAD
1000
DSTYLE
1002
{
1070
   271
1070
     1
1002
}
  0
LINE
  5
3398B
330
1F
100
AcDbEntity
  8
AM_11
  6
ByBlock
 62
     0
370
    -3
100
AcDbLine
 10
-39.00000000000007
 20
4.75
 30
0.0
 11
-39.00000000000007
 21
-4.750000000000028
 31
0.0
  0
LINE
  5
3398C
330
1F
100
AcDbEntity
  8
AM_11
  6
ByBlock
 62
     0
370
    -3
100
AcDbLine
 10
-44.00000000000003
 20
-4.749999999999971
 30
0.0
 11
-39.00000000000007
 21
-4.750000000000028
 31
0.0
  0
LINE
  5
3398D
330
1F
100
AcDbEntity
  8
AM_11
  6
ByBlock
 62
     0
370
    -3
100
AcDbLine
 10
-45.00000000000006
 20
-5.749999999999971
 30
0.0
 11
-44.00000000000003
 21
-4.749999999999971
 31
0.0
  0
LINE
  5
3398E
330
1F
100
AcDbEntity
  8
AM_11
  6
ByBlock
 62
     0
370
    -3
100
AcDbLine
 10
-44.00000000000003
 20
4.75
 30
0.0
 11
-39.00000000000007
 21
4.75
 31
0.0
  0
LINE
  5
33991
330
1F
100
AcDbEntity
  8
AM_11
  6
ByBlock
 62
     0
370
    -3
100
AcDbLine
 10
-45.00000000000006
 20
5.75
 30
0.0
 11
-44.00000000000003
 21
4.75
 31
0.0
  0
DIMENSION
  5
339A2
330
1F
100
AcDbEntity
  8
AM_5
100
AcDbDimension
  2
*D5
 10
-74.63091203295397
 20
25.00000000000001
 30
0.0
 11
-74.63091203295397
 21
-0.7485211778904956
 31
0.0
 70
   160
  1
%%c<>
 71
     5
 42
50.0
  3
AM_JIS$0
100
AcDbAlignedDimension
 13
-44.49999999999993
 23
-25.0
 33
0.0
 14
-44.50000000000001
 24
25.0
 34
0.0
 50
270.0
100
AcDbRotatedDimension
1001
GENIUS_GENDTOL_13
1000

1000
h7
1000

1040
0.0
1001
ACAD
1000
DSTYLE
1002
{
1070
   274
1070
     4
1070
   271
1070
     0
1002
}
  0
DIMENSION
  5
339A3
330
1F
100
AcDbEntity
  8
AM_5
100
AcDbDimension
  2
*D6
 10
-57.96408772296484
 20
7.749999999999992
 30
0.0
 11
-57.96408772296484
 21
0.1281963490192197
 31
0.0
 70
   160
  1
%%c<>
 71
     5
 42
15.5
  3
AM_JIS$0
100
AcDbAlignedDimension
 13
-32.00000000000004
 23
-7.750000000000013
 33
0.0
 14
-32.00000000000004
 24
7.749999999999985
 34
0.0
 50
270.0
100
AcDbRotatedDimension
1001
GENIUS_GENDTOL_13
1000

1000
h7
1000

1040
0.0
1001
ACAD
1000
DSTYLE
1002
{
1070
   274
1070
     4
1070
   271
1070
     1
1002
}
  0
DIMENSION
  5
339A4
330
1F
100
AcDbEntity
  8
AM_5
100
AcDbDimension
  2
*D7
 10
-49.48447502308835
 20
4.749999999999986
 30
0.0
 11
-49.48447502308835
 21
-1.332999529163714
 31
0.0
 70
   160
  1
<>
 71
     5
 42
9.5
  3
AM_JIS$0
100
AcDbAlignedDimension
 13
-44.00000000000003
 23
-4.750000000000012
 33
0.0
 14
-44.00000000000003
 24
4.749999999999983
 34
0.0
 50
270.0
100
AcDbRotatedDimension
1001
GENIUS_GENDTOL_13
1000

1000
h7
1000

1040
0.0
1001
ACAD
1000
DSTYLE
1002
{
1070
   274
1070
     4
1070
   271
1070
     1
1002
}
  0
DIMENSION
  5
339A5
330
1F
100
AcDbEntity
  8
AM_5
100
AcDbDimension
  2
*D8
 10
-39.0
 20
-35.19349314053289
 30
0.0
 11
-41.99999999999996
 21
-35.19349314053289
 31
0.0
 70
   160
  1
<>
 71
     5
 42
5.999999999999927
  3
AM_JIS$0
100
AcDbAlignedDimension
 13
-44.99999999999992
 23
-24.50000000000003
 33
0.0
 14
-39.0
 24
-4.750000000000097
 34
0.0
100
AcDbRotatedDimension
1001
GENIUS_GENDTOL_13
1000

1000
h7
1000

1040
0.0
1001
ACAD
1000
DSTYLE
1002
{
1070
   274
1070
     4
1070
   271
1070
     0
1002
}
  0
DIMENSION
  5
339A6
330
1F
100
AcDbEntity
  8
AM_5
100
AcDbDimension
  2
*D9
 10
0.0000000000002865
 20
37.37081662645284
 30
0.0
 11
-24.67386877558755
 21
37.37081662645284
 31
0.0
 70
   160
  1
<>
 71
     5
 42
45.00000000000034
  3
AM_JIS$0
100
AcDbAlignedDimension
 13
-45.00000000000006
 23
24.5
 33
0.0
 14
0.0000000000002851
 24
14.4998038482841
 34
0.0
 50
180.0
100
AcDbRotatedDimension
1001
GENIUS_GENDTOL_13
1000

1000
h7
1000

1040
0.0
1001
ACAD
1000
DSTYLE
1002
{
1070
   274
1070
     4
1070
   271
1070
     0
1002
}
  0
ARC
  5
33F3A
330
1F
100
AcDbEntity
  8
AM_0
100
AcDbCircle
 10
-25.50000000000006
 20
15.50000000000006
 30
0.0
 40
1.5
100
AcDbArc
 50
180.0
 51
270.0
1001
GENIUS_GENODEF_13
1002
{
1000
HIER
1070
     0
1002
}
1002
{
1000
MANEDIT
1070
     0
1002
}
1002
{
1000
NOSEL
1070
     0
1002
}
1002
{
1000
BEHIND
1070
     0
1002
}
1002
{
1000
REACTOR
1002
}
1001
GENIUS_GENOBJ-N-FIL_13
1002
{
1000
OWNER
1000
GEN
1002
}
  0
LINE
  5
33F3B
330
1F
100
AcDbEntity
  8
AM_0
100
AcDbLine
 10
-45.00000000000006
 20
14.20000000000001
 30
0.0
 11
-43.50000000000004
 21
12.70000000000002
 31
0.0
  0
LINE
  5
33F45
330
1F
100
AcDbEntity
  8
AM_0
100
AcDbLine
 10
-32.00000000000006
 20
-13.20000000000004
 30
0.0
 11
-32.00000000000006
 21
13.19999999999996
 31
0.0
  0
LINE
  5
33F46
330
1F
100
AcDbEntity
  8
AM_0
100
AcDbLine
 10
-43.50000000000004
 20
-12.70000000000002
 30
0.0
 11
-43.50000000000004
 21
-7.81481731921869
 31
0.0
  0
LINE
  5
33F47
330
1F
100
AcDbEntity
  8
AM_0
100
AcDbLine
 10
-35.00000000000006
 20
13.19999999999996
 30
0.0
 11
-35.00000000000006
 21
-13.19999999999999
 31
0.0
  0
LINE
  5
33F49
330
1F
100
AcDbEntity
  8
AM_0
100
AcDbLine
 10
-26.97901994577495
 20
-15.24999999999997
 30
0.0
 11
-31.00000000000006
 21
-15.24999999999997
 31
0.0
  0
LINE
  5
33F4C
330
1F
100
AcDbEntity
  8
AM_0
100
AcDbLine
 10
-27.50000000000006
 20
-24.99999999999995
 30
0.0
 11
-44.49999999999993
 21
-24.99999999999997
 31
0.0
  0
LINE
  5
33F4D
330
1F
100
AcDbEntity
  8
AM_0
100
AcDbLine
 10
-31.00000000000006
 20
-15.24999999999997
 30
0.0
 11
-31.00000000000006
 21
-24.99999999999995
 31
0.0
  0
LINE
  5
33F4F
330
1F
100
AcDbEntity
  8
AM_0
100
AcDbLine
 10
-31.00000000000006
 20
-22.74999999999997
 30
0.0
 11
-44.99999999999993
 21
-22.74999999999995
 31
0.0
  0
LINE
  5
33F51
330
1F
100
AcDbEntity
  8
AM_0
100
AcDbLine
 10
-44.49999999999993
 20
-24.99999999999997
 30
0.0
 11
-44.99999999999993
 21
-24.49999999999997
 31
0.0
1001
GENIUS_GENFIL_13
1070
     0
1040
0.5
1040
0.5
1040
20.0
1040
0.0
1002
{
1002
}
1001
GENIUS_GENODEF_13
1002
{
1000
HIER
1070
     0
1002
}
1002
{
1000
MANEDIT
1070
     0
1002
}
1002
{
1000
NOSEL
1070
     0
1002
}
1002
{
1000
BEHIND
1070
     0
1002
}
1002
{
1000
REACTOR
1002
}
1001
GENIUS_GENOBJ-N-CHA_13
1002
{
1000
OWNER
1000
GEN
1002
}
  0
LINE
  5
33F52
330
1F
100
AcDbEntity
  8
AM_0
100
AcDbLine
 10
-44.99999999999993
 20
-17.24999999999986
 30
0.0
 11
-31.00000000000006
 21
-17.24999999999994
 31
0.0
  0
LINE
  5
33F53
330
1F
100
AcDbEntity
  8
AM_0
100
AcDbLine
 10
-43.50000000000004
 20
-12.70000000000002
 30
0.0
 11
-34.99999999999995
 21
-12.69999999999999
 31
0.0
  0
LINE
  5
33F54
330
1F
100
AcDbEntity
  8
AM_0
100
AcDbLine
 10
-45.00000000000006
 20
-14.20000000000001
 30
0.0
 11
-43.50000000000004
 21
-12.70000000000002
 31
0.0
  0
LINE
  5
33F5A
330
1F
100
AcDbEntity
  8
AM_0
100
AcDbLine
 10
-32.00000000000006
 20
-13.20000000000004
 30
0.0
 11
-35.00000000000006
 21
-13.19999999999999
 31
0.0
  0
LINE
  5
33F5F
330
1F
100
AcDbEntity
  8
AM_0
100
AcDbLine
 10
-27.00000000000006
 20
-24.49999999999997
 30
0.0
 11
-27.50000000000006
 21
-24.99999999999995
 31
0.0
1001
GENIUS_GENFIL_13
1070
     0
1040
0.5
1040
0.5
1040
20.0
1040
0.0
1002
{
1002
}
1001
GENIUS_GENODEF_13
1002
{
1000
HIER
1070
     0
1002
}
1002
{
1000
MANEDIT
1070
     0
1002
}
1002
{
1000
NOSEL
1070
     0
1002
}
1002
{
1000
BEHIND
1070
     0
1002
}
1002
{
1000
REACTOR
1002
}
1001
GENIUS_GENOBJ-N-CHA_13
1002
{
1000
OWNER
1000
GEN
1002
}
  0
LINE
  5
33F60
330
1F
100
AcDbEntity
  8
AM_0
100
AcDbLine
 10
-25.5000000000001
 20
-14.00000000000008
 30
0.0
 11
-18.30000000000012
 21
-14.0
 31
0.0
  0
LINE
  5
33F61
330
1F
100
AcDbEntity
  8
AM_0
100
AcDbLine
 10
-27.00000000000006
 20
-24.49999999999997
 30
0.0
 11
-27.00000000000006
 21
-15.50000000000006
 31
0.0
  0
ARC
  5
33F63
330
1F
100
AcDbEntity
  8
AM_0
100
AcDbCircle
 10
-25.50000000000006
 20
-15.50000000000006
 30
0.0
 40
1.5
100
AcDbArc
 50
90.0
 51
180.0
1001
GENIUS_GENODEF_13
1002
{
1000
HIER
1070
     0
1002
}
1002
{
1000
MANEDIT
1070
     0
1002
}
1002
{
1000
NOSEL
1070
     0
1002
}
1002
{
1000
BEHIND
1070
     0
1002
}
1002
{
1000
REACTOR
1002
}
1001
GENIUS_GENOBJ-N-FIL_13
1002
{
1000
OWNER
1000
GEN
1002
}
  0
LINE
  5
33F65
330
1F
100
AcDbEntity
  8
AM_0
100
AcDbLine
 10
-23.00000000000006
 20
-7.75
 30
0.0
 11
-32.00000000000006
 21
-7.75
 31
0.0
  0
LINE
  5
33F66
330
1F
100
AcDbEntity
  8
AM_0
100
AcDbLine
 10
-32.00000000000006
 20
7.750000000000027
 30
0.0
 11
-23.00000000000006
 21
7.750000000000056
 31
0.0
  0
LINE
  5
33F6D
330
1F
100
AcDbEntity
  8
AM_0
100
AcDbLine
 10
-43.50000000000004
 20
12.70000000000002
 30
0.0
 11
-34.99999999999995
 21
12.69999999999996
 31
0.0
  0
LINE
  5
33F6F
330
1F
100
AcDbEntity
  8
AM_0
100
AcDbLine
 10
-43.50000000000004
 20
12.70000000000002
 30
0.0
 11
-43.50000000000004
 21
7.81481731921869
 31
0.0
  0
LINE
  5
33F74
330
1F
100
AcDbEntity
  8
AM_0
100
AcDbLine
 10
-32.00000000000006
 20
13.19999999999996
 30
0.0
 11
-35.00000000000006
 21
13.19999999999993
 31
0.0
  0
LINE
  5
33F75
330
1F
100
AcDbEntity
  8
AM_0
100
AcDbLine
 10
-22.00000000000006
 20
6.750000000000056
 30
0.0
 11
-22.00000000000006
 21
-6.75
 31
0.0
  0
ARC
  5
33F78
330
1F
100
AcDbEntity
  8
AM_0
100
AcDbCircle
 10
-23.00000000000006
 20
-6.75
 30
0.0
 40
1.0
100
AcDbArc
 50
270.0
 51
0.0
1001
GENIUS_GENODEF_13
1002
{
1000
HIER
1070
     0
1002
}
1002
{
1000
MANEDIT
1070
     0
1002
}
1002
{
1000
NOSEL
1070
     0
1002
}
1002
{
1000
BEHIND
1070
     0
1002
}
1002
{
1000
REACTOR
1002
}
1001
GENIUS_GENOBJ-N-FIL_13
1002
{
1000
OWNER
1000
GEN
1002
}
  0
ARC
  5
33F7A
330
1F
100
AcDbEntity
  8
AM_0
100
AcDbCircle
 10
-23.00000000000006
 20
6.750000000000056
 30
0.0
 40
1.0
100
AcDbArc
 50
0.0
 51
90.0
1001
GENIUS_GENODEF_13
1002
{
1000
HIER
1070
     0
1002
}
1002
{
1000
MANEDIT
1070
     0
1002
}
1002
{
1000
NOSEL
1070
     0
1002
}
1002
{
1000
BEHIND
1070
     0
1002
}
1002
{
1000
REACTOR
1002
}
1001
GENIUS_GENOBJ-N-FIL_13
1002
{
1000
OWNER
1000
GEN
1002
}
  0
LINE
  5
33F7C
330
1F
100
AcDbEntity
  8
AM_0
100
AcDbLine
 10
-25.5000000000001
 20
14.00000000000005
 30
0.0
 11
-18.30000000000024
 21
13.99999999999994
 31
0.0
  0
LINE
  5
33F89
330
1F
100
AcDbEntity
  8
AM_0
100
AcDbLine
 10
-26.97901994577495
 20
15.24999999999997
 30
0.0
 11
-31.00000000000006
 21
15.24999999999997
 31
0.0
  0
LINE
  5
33F8A
330
1F
100
AcDbEntity
  8
AM_0
100
AcDbLine
 10
-27.50000000000011
 20
25.0
 30
0.0
 11
-44.50000000000005
 21
25.0
 31
0.0
  0
LINE
  5
33F8B
330
1F
100
AcDbEntity
  8
AM_0
100
AcDbLine
 10
-31.00000000000006
 20
22.74999999999997
 30
0.0
 11
-44.99999999999993
 21
22.74999999999995
 31
0.0
  0
LINE
  5
33F8C
330
1F
100
AcDbEntity
  8
AM_0
100
AcDbLine
 10
-44.99999999999993
 20
17.24999999999986
 30
0.0
 11
-31.00000000000006
 21
17.24999999999994
 31
0.0
  0
LINE
  5
33F8E
330
1F
100
AcDbEntity
  8
AM_0
100
AcDbLine
 10
-44.50000000000005
 20
25.0
 30
0.0
 11
-45.00000000000006
 21
24.5
 31
0.0
1001
GENIUS_GENFIL_13
1070
     0
1040
0.5
1040
0.5
1040
20.0
1040
0.0
1002
{
1002
}
1001
GENIUS_GENODEF_13
1002
{
1000
HIER
1070
     0
1002
}
1002
{
1000
MANEDIT
1070
     0
1002
}
1002
{
1000
NOSEL
1070
     0
1002
}
1002
{
1000
BEHIND
1070
     0
1002
}
1002
{
1000
REACTOR
1002
}
1001
GENIUS_GENOBJ-N-CHA_13
1002
{
1000
OWNER
1000
GEN
1002
}
  0
LINE
  5
33F8F
330
1F
100
AcDbEntity
  8
AM_0
100
AcDbLine
 10
-44.99999999999917
 20
5.749999999999102
 30
0.0
 11
-45.00000000000006
 21
24.5
 31
0.0
  0
LINE
  5
33F91
330
1F
100
AcDbEntity
  8
AM_0
100
AcDbLine
 10
-31.00000000000006
 20
15.24999999999997
 30
0.0
 11
-31.00000000000006
 21
24.99999999999995
 31
0.0
  0
LINE
  5
33F97
330
1F
100
AcDbEntity
  8
AM_0
100
AcDbLine
 10
-27.00000000000006
 20
15.75000000000003
 30
0.0
 11
-27.00000000000006
 21
15.50000000000006
 31
0.0
  0
LINE
  5
33F98
330
1F
100
AcDbEntity
  8
AM_0
100
AcDbLine
 10
-27.00000000000006
 20
24.49999999999997
 30
0.0
 11
-27.50000000000006
 21
24.99999999999995
 31
0.0
1001
GENIUS_GENFIL_13
1070
     0
1040
0.5
1040
0.5
1040
20.0
1040
0.0
1002
{
1002
}
1001
GENIUS_GENODEF_13
1002
{
1000
HIER
1070
     0
1002
}
1002
{
1000
MANEDIT
1070
     0
1002
}
1002
{
1000
NOSEL
1070
     0
1002
}
1002
{
1000
BEHIND
1070
     0
1002
}
1002
{
1000
REACTOR
1002
}
1001
GENIUS_GENOBJ-N-CHA_13
1002
{
1000
OWNER
1000
GEN
1002
}
  0
LINE
  5
33F9A
330
1F
100
AcDbEntity
  8
AM_0
100
AcDbLine
 10
-27.00000000000006
 20
24.49999999999997
 30
0.0
 11
-27.00000000000006
 21
15.75000000000003
 31
0.0
  0
LINE
  5
33F9D
330
1F
100
AcDbEntity
  8
AM_7
  6
AM_ISO08W050x2
100
AcDbLine
 10
-24.81644705135404
 20
-20.0
 30
0.0
 11
-47.32913426481025
 21
-19.9999999999999
 31
0.0
1001
GENIUS_GENODEF_13
1002
{
1000
HIER
1070
     0
1002
}
1002
{
1000
MANEDIT
1070
     0
1002
}
1002
{
1000
NOSEL
1070
     0
1002
}
1002
{
1000
BEHIND
1070
     0
1002
}
1002
{
1000
REACTOR
1002
}
1001
GENIUS_GENOBJ-N-CEN_13
1002
{
1000
OWNER
1000
GEN
1002
}
  0
ELLIPSE
  5
33FEE
330
1F
100
AcDbEntity
  8
AM_0
100
AcDbEllipse
 10
83.83102548882822
 20
0.0
 30
0.0
 11
442.4787483212816
 21
2.99865891017129
 31
0.0
210
0.0
220
0.0
230
1.0
 40
0.0315993967779074
 41
4.493721890249659
 42
4.517420281949071
  0
LINE
  5
34006
330
1F
100
AcDbEntity
  8
AM_0
100
AcDbLine
 10
-1.299999999999952
 20
-7.830459144377017
 30
0.0
 11
-1.299999999999952
 21
-8.042733427282655
 31
0.0
  0
LINE
  5
34007
330
1F
100
AcDbEntity
  8
AM_0
100
AcDbLine
 10
-1.299999999999952
 20
5.475000000000051
 30
0.0
 11
-1.299999999999952
 21
-13.79926245585926
 31
0.0
  0
SPLINE
  5
34008
330
1F
100
AcDbEntity
  8
AM_0
100
AcDbSpline
210
0.0
220
0.0
230
1.0
 70
    12
 71
     2
 72
     6
 73
     3
 74
     0
 42
0.0000000001
 43
0.0000000001
 40
0.0
 40
0.0
 40
0.0
 40
0.9385917750039743
 40
0.9385917750039743
 40
0.9385917750039743
 10
-1.299999999999952
 20
-13.79926245585926
 30
0.0
 41
1.0
 10
-1.545402464818321
 20
-14.04421929848107
 30
0.0
 41
1.002635732565261
 10
-1.799999999999953
 20
-14.29810134312041
 30
0.0
 41
1.00494770282075
  0
LINE
  5
3402D
330
1F
100
AcDbEntity
  8
AM_0
100
AcDbLine
 10
-18.2999999999995
 20
14.00000000000034
 30
0.0
 11
-17.99999999999988
 21
14.30000000000001
 31
0.0
  0
LINE
  5
3402E
330
1F
100
AcDbEntity
  8
AM_0
100
AcDbLine
 10
-18.2999999999995
 20
-14.00000000000034
 30
0.0
 11
-17.99999999999988
 21
-14.30000000000001
 31
0.0
  0
LINE
  5
3402F
330
1F
100
AcDbEntity
  8
AM_0
100
AcDbLine
 10
-8.862538120340786
 20
-14.30000000000001
 30
0.0
 11
-17.99999999999994
 21
-14.30000000000001
 31
0.0
  0
LINE
  5
34030
330
1F
100
AcDbEntity
  8
AM_0
100
AcDbLine
 10
-9.46654644670157
 20
14.30000000000001
 30
0.0
 11
-17.99999999999994
 21
14.30000000000001
 31
0.0
  0
LINE
  5
3421A
330
1F
100
AcDbEntity
  8
AM_0
100
AcDbLine
 10
-45.00000000000006
 20
-5.749999999999971
 30
0.0
 11
-44.99999999999989
 21
-24.50000000000001
 31
0.0
  0
LINE
  5
342BE
330
1F
100
AcDbEntity
  8
0
  6
ACISOTGB
 62
     3
370
    13
100
AcDbLine
 10
0.0000000000002851
 20
14.49980384828399
 30
0.0
 11
0.0000000000002842
 21
-14.49980015279609
 31
0.0
  0
LINE
  5
342C0
330
1F
100
AcDbEntity
  8
AM_0
  6
DASHED
 48
0.5
370
    13
100
AcDbLine
 10
-0.0744505328281662
 20
-11.44433911595342
 30
0.0
 11
-0.5938390968034355
 21
-5.475000000000078
 31
0.0
  0
LINE
  5
342C1
330
1F
100
AcDbEntity
  8
AM_0
  6
DASHED
 48
0.5
370
    13
100
AcDbLine
 10
-8.672821053382193
 20
-15.00000000000003
 30
0.0
 11
-7.657818594335195
 21
-15.0
 31
0.0
  0
ARC
  5
342C2
330
1F
100
AcDbEntity
  8
AM_0
  6
DASHED
 48
0.5
370
    13
100
AcDbCircle
 10
-8.672821053382193
 20
-14.20000000000001
 30
0.0
 40
0.8
100
AcDbArc
 50
187.1797495882985
 51
270.0
1001
GENIUS_GENOBJ-N-FIL_13
1002
{
1000
OWNER
1000
GEN
1002
}
1001
GENIUS_GENODEF_13
1002
{
1000
HIER
1070
     0
1002
}
1002
{
1000
MANEDIT
1070
     0
1002
}
1002
{
1000
NOSEL
1070
     0
1002
}
1002
{
1000
BEHIND
1070
     0
1002
}
1002
{
1000
OTHER
1070
     0
1002
}
1002
{
1000
REACTOR
1002
}
  0
LINE
  5
342C3
330
1F
100
AcDbEntity
  8
AM_0
  6
DASHED
 48
0.5
370
    13
100
AcDbLine
 10
-7.657818594335195
 20
-15.0
 30
0.0
 11
-0.497456024860071
 21
-15.0
 31
0.0
  0
LINE
  5
342C4
330
1F
100
AcDbEntity
  8
AM_0
  6
DASHED
 48
0.5
370
    13
100
AcDbLine
 10
-0.497456024860071
 20
-15.0
 30
0.0
 11
0.0000000000002274
 21
-14.49980384828404
 31
0.0
  0
LINE
  5
342C5
330
1F
100
AcDbEntity
  8
AM_0
  6
DASHED
 48
0.5
370
    13
100
AcDbLine
 10
0.0000000000002842
 20
-14.4998038482841
 30
0.0
 11
0.0000000000002842
 21
-12.5
 31
0.0
  0
LINE
  5
342C6
330
1F
100
AcDbEntity
  8
AM_0
  6
DASHED
 48
0.5
370
    13
100
AcDbLine
 10
0.0000000000003411
 20
-12.5
 30
0.0
 11
-0.0911703008683844
 21
-11.45217861744254
 31
0.0
  0
LINE
  5
342C7
330
1F
100
AcDbEntity
  8
AM_0
  6
DASHED
 48
0.5
370
    13
100
AcDbLine
 10
-0.5938390968034355
 20
-5.475000000000078
 30
0.0
 11
-1.299999999999897
 21
-5.475000000000036
 31
0.0
  0
DIMENSION
  5
34310
330
1F
100
AcDbEntity
  8
AM_5
100
AcDbDimension
  2
*D10
 10
11.50254397513993
 20
15.0
 30
0.0
 11
8.102543975139925
 21
-0.0000000000000003
 31
0.0
 70
    32
 71
     5
 42
30.0
  3
AM_JIS$0
100
AcDbAlignedDimension
 13
-0.4974560248600703
 23
-15.0
 33
0.0
 14
-0.4974560248600703
 24
15.0
 34
0.0
 50
90.00000000000005
100
AcDbRotatedDimension
1001
GENIUS_GENOBJ-N-DIM_13
1002
{
1000
OWNER
1000
GEN
1002
}
1001
GENIUS_GENODEF_13
1002
{
1000
HIER
1070
     0
1002
}
1002
{
1000
MANEDIT
1070
     0
1002
}
1002
{
1000
NOSEL
1070
     0
1002
}
1002
{
1000
BEHIND
1070
     0
1002
}
1002
{
1000
OTHER
1070
     0
1002
}
1002
{
1000
REACTOR
1002
}
1001
GENIUS_GENDIM_13
1000
4
1001
ACAD
1000
DSTYLE
1002
{
1070
     3
1000
%%c<>
1070
    75
1070
     1
1070
   271
1070
     0
1070
   272
1070
     1
1070
   281
1070
     1
1002
}
  0
LINE
  5
343D0
330
1F
100
AcDbEntity
  8
AM_7
  6
AM_ISO08W050x2
100
AcDbLine
 10
-24.81644705135404
 20
20.0
 30
0.0
 11
-47.32913426481025
 21
19.9999999999999
 31
0.0
1001
GENIUS_GENODEF_13
1002
{
1000
HIER
1070
     0
1002
}
1002
{
1000
MANEDIT
1070
     0
1002
}
1002
{
1000
NOSEL
1070
     0
1002
}
1002
{
1000
BEHIND
1070
     0
1002
}
1002
{
1000
REACTOR
1002
}
1001
GENIUS_GENOBJ-N-CEN_13
1002
{
1000
OWNER
1000
GEN
1002
}
  0
VIEWPORT
  5
7D
102
{ACAD_XDICTIONARY
360
34467
102
}
330
1B
100
AcDbEntity
 67
     1
  8
0
100
AcDbViewport
 10
5.249999639556162
 20
3.999999883606676
 30
0.0
 40
15.37157224495366
 41
8.992999745766947
 68
     1
 69
     1
 12
5.249999639556162
 22
3.999999883606676
 13
0.0
 23
0.0
 14
10.0
 24
10.0
 15
10.0
 25
10.0
 16
0.0
 26
0.0
 36
1.0
 17
0.0
 27
0.0
 37
0.0
 42
50.0
 43
0.0
 44
0.0
 45
8.992999745766947
 50
0.0
 51
0.0
 72
   100
 90
    32800
  1

281
     0
 71
     1
 74
     0
110
0.0
120
0.0
130
0.0
111
1.0
121
0.0
131
0.0
112
0.0
122
1.0
132
0.0
 79
     0
146
0.0
1001
GENIUS_GENOBJ-N-SDF_13
1002
{
1000
OWNER
1000
GEN
1002
}
1001
GENIUS_GENODEF_13
1002
{
1000
HIER
1070
     0
1002
}
1002
{
1000
MANEDIT
1070
     0
1002
}
1002
{
1000
NOSEL
1070
     0
1002
}
1002
{
1000
BEHIND
1070
     0
1002
}
1002
{
1000
OTHER
1070
     0
1002
}
1002
{
1000
REACTOR
1002
}
1001
GENIUS_GENSCREG_15
1000
PF
1040
1.0
1000
DF
1040
1.0
1000
MIN
1011
-2.435786482920669
1021
-0.4964999892767974
1031
0.0
1000
MAX
1011
12.93578576203299
1021
8.49649975649015
1031
0.0
1000
FLAGS
1070
     2
  0
ENDSEC
  0
SECTION
  2
OBJECTS
  0
DICTIONARY
  5
C
330
0
100
AcDbDictionary
281
     1
  3
ACAD_COLOR
350
A1A6
  3
ACAD_GROUP
350
D
  3
ACAD_LAYOUT
350
1A
  3
ACAD_MATERIAL
350
A1A5
  3
ACAD_MLINESTYLE
350
17
  3
ACAD_PLOTSETTINGS
350
19
  3
ACAD_PLOTSTYLENAME
350
E
  3
ACAD_TABLESTYLE
350
A1A7
  3
ACDBHEADERROUNDTRIPXREC
350
34460
  3
AcDbVariableDictionary
350
4A
  3
AcmDictionary
350
59
  3
AMG
350
41
  3
AMGSNAPSETTINGS
350
AC
  3
ASE_INDEX_DICTIONARY
350
2B45C
  3
DWGPROPS
350
3445F
  3
FILENAME
350
C195
  3
table_dic_data
350
AC47
  3
ZWKSIZE
350
C197
  0
DICTIONARY
  5
B18B
330
2
100
AcDbDictionary
280
     1
281
     1
  3
ACAD_LAYERFILTERS
360
11EBE
  3
ACAD_LAYERSTATES
360
B18C
  3
ACLYDICTIONARY
360
11EBD
  3
AMLAYER_GROUPCOLORS
360
11EBC
  0
DICTIONARY
  5
68
330
1F
100
AcDbDictionary
280
     1
281
     1
  3
ACAD_SORTENTS
360
ADDD
  0
DICTIONARY
  5
34469
330
82
100
AcDbDictionary
280
     1
281
     1
  3
ACAD_XREC_ROUNDTRIP
360
3446A
  0
DICTIONARY
  5
34467
330
7D
100
AcDbDictionary
280
     1
281
     1
  3
ACAD_XREC_ROUNDTRIP
360
34468
  0
DICTIONARY
  5
A1A6
102
{ACAD_REACTORS
330
C
102
}
330
C
100
AcDbDictionary
281
     1
  0
DICTIONARY
  5
D
102
{ACAD_REACTORS
330
C
102
}
330
C
100
AcDbDictionary
281
     1
  0
DICTIONARY
  5
1A
102
{ACAD_REACTORS
330
C
102
}
330
C
100
AcDbDictionary
281
     1
  3
Model
350
22
  3
ﾚｲｱｳﾄ1
350
1E
  3
ﾚｲｱｳﾄ2
350
26
  0
DICTIONARY
  5
A1A5
102
{ACAD_REACTORS
330
C
102
}
330
C
100
AcDbDictionary
281
     1
  0
DICTIONARY
  5
17
102
{ACAD_REACTORS
330
C
102
}
330
C
100
AcDbDictionary
281
     1
  3
Standard
350
18
  0
DICTIONARY
  5
19
102
{ACAD_REACTORS
330
C
102
}
330
C
100
AcDbDictionary
281
     1
  0
ACDBDICTIONARYWDFLT
  5
E
102
{ACAD_REACTORS
330
C
102
}
330
C
100
AcDbDictionary
281
     1
  3
Normal
350
F
100
AcDbDictionaryWithDefault
340
F
  0
DICTIONARY
  5
A1A7
102
{ACAD_REACTORS
330
C
102
}
330
C
100
AcDbDictionary
281
     1
  3
Standard
350
A1A8
  0
DICTIONARY
  5
34460
102
{ACAD_REACTORS
330
C
102
}
330
C
100
AcDbDictionary
281
     1
  0
DICTIONARY
  5
4A
102
{ACAD_REACTORS
330
C
102
}
330
C
100
AcDbDictionary
281
     1
  3
CTABLESTYLE
350
A219
  3
DIMASSOC
350
343D2
  3
INDEXCTL
350
4B
  3
PROJECTNAME
350
343D3
  0
DICTIONARY
  5
59
102
{ACAD_REACTORS
330
C
102
}
330
C
100
AcDbDictionary
281
     1
  3
AcmStdDictionary
350
15C
  3
AMDTSECTSYM_ARROWCOLOR
350
A202
  0
DICTIONARY
  5
41
102
{ACAD_REACTORS
330
C
102
}
330
C
100
AcDbDictionary
281
     1
  0
DICTIONARY
  5
AC
102
{ACAD_REACTORS
330
C
102
}
330
C
100
AcDbDictionary
281
     1
  0
DICTIONARY
  5
2B45C
102
{ACAD_REACTORS
330
C
102
}
330
C
100
AcDbDictionary
281
     1
  3
ASEBlockHierarchyIndexRecord
350
2B45E
1001
DCO15
1040
1670590618.796
  0
XRECORD
  5
3445F
102
{ACAD_REACTORS
330
C
102
}
330
C
100
AcDbXrecord
280
     1
  1
DWGPROPS COOKIE
  2

  3

  4

  6

  7

  8

  9

300
AmdtFileType=82
301
=
302
=
303
=
304
=
305
=
306
=
307
=
308
=
309
=
 40
6.14279699074074
 41
2451865.447818009
 42
2455567.389610822
  1

 90
        1
  0
DICTIONARY
  5
C195
102
{ACAD_REACTORS
330
C
102
}
330
C
100
AcDbDictionary
281
     1
  3
FILENAME
350
C196
  0
DICTIONARY
  5
AC47
102
{ACAD_REACTORS
330
C
102
}
330
C
100
AcDbDictionary
281
     1
  3
input_data
350
AC49
  3
table_data
350
AC48
  0
DICTIONARY
  5
C197
102
{ACAD_REACTORS
330
C
102
}
330
C
100
AcDbDictionary
281
     1
  3
ZWKSIZE
350
C198
  0
DICTIONARY
  5
11EBE
102
{ACAD_REACTORS
330
B18B
102
}
330
B18B
100
AcDbDictionary
281
     1
  0
DICTIONARY
  5
B18C
102
{ACAD_REACTORS
330
B18B
102
}
330
B18B
100
AcDbDictionary
281
     1
  0
DICTIONARY
  5
11EBD
102
{ACAD_REACTORS
330
B18B
102
}
330
B18B
100
AcDbDictionary
281
     1
1001
ACAD
1000
<All
  0
DICTIONARY
  5
11EBC
102
{ACAD_REACTORS
330
B18B
102
}
330
B18B
100
AcDbDictionary
280
     1
281
     1
  0
SORTENTSTABLE
  5
ADDD
102
{ACAD_REACTORS
330
68
102
}
330
68
100
AcDbSortentsTable
330
1F
331
4552
  5
2C055
331
2D9E9
  5
2D9E9
331
362A
  5
2C054
331
2828
  5
2C053
331
9FD2
  5
2C057
331
1E0EC
  5
2C05A
331
4558
  5
2C056
  0
XRECORD
  5
3446A
102
{ACAD_REACTORS
330
34469
102
}
330
34469
100
AcDbXrecord
280
     1
102
SHADEPLOT
 70
     0
  0
XRECORD
  5
34468
102
{ACAD_REACTORS
330
34467
102
}
330
34467
100
AcDbXrecord
280
     1
102
SHADEPLOT
 70
     0
  0
LAYOUT
  5
22
102
{ACAD_XDICTIONARY
360
34463
102
}
102
{ACAD_REACTORS
330
1A
102
}
330
1A
100
AcDbPlotSettings
  1

  2
SII LP-1010 (C2 VR)2R
  4
A3
  6
AM_VIEW1
 40
5.78908348083496
 41
5.789072036743164
 42
5.7890625
 43
5.789093017578125
 44
296.9259948730469
 45
419.9466552734373
 46
0.0
 47
0.0
 48
0.0
 49
0.0
140
420.0
141
297.0
142
1.0
143
1.040834900816755
 70
 11952
 72
     1
 73
     1
 74
     4
  7
sei_cad.ctb
 75
     0
147
0.9607671679872456
148
0.0
149
0.0
100
AcDbLayout
  1
Model
 70
     1
 71
     0
 10
0.0
 20
0.0
 11
12.0
 21
9.0
 12
0.0
 22
0.0
 32
0.0
 14
0.0
 24
0.0
 34
0.0
 15
0.0
 25
0.0
 35
0.0
146
0.0
 13
0.0
 23
0.0
 33
0.0
 16
1.0
 26
0.0
 36
0.0
 17
0.0
 27
1.0
 37
0.0
 76
     0
330
1F
1001
ACAD_PSEXT
1000
SII LP-1010 (C2 VR)2R
1000
SII LP-1010 (C2 VR)2R
1000
9100
1000

1070
     0
  0
LAYOUT
  5
1E
102
{ACAD_XDICTIONARY
360
34461
102
}
102
{ACAD_REACTORS
330
1A
102
}
330
1A
100
AcDbPlotSettings
  1

  2
none_device
  4
Letter_(8.50_x_11.00_Inches)
  6

 40
6.349999904632567
 41
6.349999904632567
 42
6.350006103515625
 43
6.350006103515625
 44
215.8999938964844
 45
279.3999938964844
 46
0.0
 47
0.0
 48
0.0
 49
0.0
140
0.0
141
0.0
142
1.0
143
1.0
 70
   688
 72
     0
 73
     1
 74
     5
  7
sei_cad.ctb
 75
    16
147
1.0
148
0.0
149
0.0
100
AcDbLayout
  1
ﾚｲｱｳﾄ1
 70
     0
 71
     1
 10
-0.2500002402958907
 20
-0.2499999962453767
 11
10.74999951940821
 21
8.249999763458731
 12
0.0
 22
0.0
 32
0.0
 14
1.000000000000000E+20
 24
1.000000000000000E+20
 34
1.000000000000000E+20
 15
-1.000000000000000E+20
 25
-1.000000000000000E+20
 35
-1.000000000000000E+20
146
0.0
 13
0.0
 23
0.0
 33
0.0
 16
1.0
 26
0.0
 36
0.0
 17
0.0
 27
1.0
 37
0.0
 76
     0
330
1B
331
7D
  0
LAYOUT
  5
26
102
{ACAD_XDICTIONARY
360
34465
102
}
102
{ACAD_REACTORS
330
1A
102
}
330
1A
100
AcDbPlotSettings
  1

  2
none_device
  4
Letter_(8.50_x_11.00_Inches)
  6

 40
6.349999904632567
 41
6.349999904632567
 42
6.350006103515625
 43
6.350006103515625
 44
215.8999938964844
 45
279.3999938964844
 46
0.0
 47
0.0
 48
0.0
 49
0.0
140
0.0
141
0.0
142
1.0
143
1.0
 70
   688
 72
     0
 73
     1
 74
     5
  7
sei_cad.ctb
 75
    16
147
1.0
148
0.0
149
0.0
100
AcDbLayout
  1
ﾚｲｱｳﾄ2
 70
     1
 71
     2
 10
-0.2500002402958907
 20
-0.2499999962453767
 11
10.74999951940821
 21
8.249999763458731
 12
0.0
 22
0.0
 32
0.0
 14
1.000000000000000E+20
 24
1.000000000000000E+20
 34
1.000000000000000E+20
 15
-1.000000000000000E+20
 25
-1.000000000000000E+20
 35
-1.000000000000000E+20
146
0.0
 13
0.0
 23
0.0
 33
0.0
 16
1.0
 26
0.0
 36
0.0
 17
0.0
 27
1.0
 37
0.0
 76
     0
330
23
331
82
  0
MLINESTYLE
  5
18
102
{ACAD_REACTORS
330
17
102
}
330
17
100
AcDbMlineStyle
  2
STANDARD
 70
     0
  3

 62
   256
 51
90.0
 52
90.0
 71
     2
 49
0.5
 62
   256
  6
BYLAYER
 49
-0.5
 62
   256
  6
BYLAYER
  0
ACDBPLACEHOLDER
  5
F
102
{ACAD_REACTORS
330
E
102
}
330
E
  0
TABLESTYLE
  5
A1A8
102
{ACAD_REACTORS
330
A1A7
102
}
330
A1A7
100
AcDbTableStyle
  3
Standard
 70
     0
 71
     0
 40
1.5
 41
1.5
280
     0
281
     0
  7
STANDARD
140
4.5
170
     2
 62
     0
 63
     7
283
     0
274
    -2
284
     1
 64
     0
275
    -2
285
     1
 65
     0
276
    -2
286
     1
 66
     0
277
    -2
287
     1
 67
     0
278
    -2
288
     1
 68
     0
279
    -2
289
     1
 69
     0
  7
STANDARD
140
6.0
170
     5
 62
     0
 63
     7
283
     0
274
    -2
284
     1
 64
     0
275
    -2
285
     1
 65
     0
276
    -2
286
     1
 66
     0
277
    -2
287
     1
 67
     0
278
    -2
288
     1
 68
     0
279
    -2
289
     1
 69
     0
  7
STANDARD
140
4.5
170
     5
 62
     0
 63
     7
283
     0
274
    -2
284
     1
 64
     0
275
    -2
285
     1
 65
     0
276
    -2
286
     1
 66
     0
277
    -2
287
     1
 67
     0
278
    -2
288
     1
 68
     0
279
    -2
289
     1
 69
     0
  0
DICTIONARYVAR
  5
A219
102
{ACAD_REACTORS
330
4A
102
}
330
4A
100
DictionaryVariables
280
     0
  1
STANDARD
  0
DICTIONARYVAR
  5
343D2
102
{ACAD_REACTORS
330
4A
102
}
330
4A
100
DictionaryVariables
280
     0
  1
1
  0
DICTIONARYVAR
  5
4B
102
{ACAD_REACTORS
330
4A
102
}
330
4A
100
DictionaryVariables
280
     0
  1
0
  0
DICTIONARYVAR
  5
343D3
102
{ACAD_REACTORS
330
4A
102
}
330
4A
100
DictionaryVariables
280
     0
  1

  0
DICTIONARY
  5
15C
102
{ACAD_REACTORS
330
59
102
}
330
59
100
AcDbDictionary
281
     1
  0
XRECORD
  5
A202
102
{ACAD_REACTORS
330
59
102
}
330
59
100
AcDbXrecord
280
     1
 90
-1023410169
  0
XRECORD
  5
2B45E
102
{ACAD_REACTORS
330
2B45C
102
}
330
2B45C
100
AcDbXrecord
280
     1
330
0
330
0
330
0
330
0
330
0
330
0
330
0
330
0
330
0
330
0
330
0
330
0
330
0
330
0
330
0
330
0
330
0
330
0
330
0
330
0
330
0
330
0
330
0
330
0
330
0
330
0
330
0
330
0
330
0
330
0
330
0
330
0
330
0
330
0
330
0
330
0
330
0
330
0
330
0
330
0
330
0
330
0
330
0
330
0
330
0
330
0
330
0
330
0
330
0
330
0
  0
XRECORD
  5
C196
102
{ACAD_REACTORS
330
C195
102
}
330
C195
100
AcDbXrecord
280
     1
  1
24000425__00___
  0
XRECORD
  5
AC49
102
{ACAD_REACTORS
330
AC47
102
}
330
AC47
100
AcDbXrecord
280
     1
  1
1,,,,,,,,,^M^J2,,,,,,,,,^M^J3,,,,,,,,,^M^J4,,,,,,,,,^M^J5,,,,,,,,,^M^J6,,,,,,,,,^M^J7,,,,,,,,,^M^J8,,,,,,,,,^M^J9,,,,,,,,,^M^J10,,,,,,,,,^M^J11,,,,,,,,,^M^J12,,,,,,,,,^M^J13,,,,,,,,,
  0
XRECORD
  5
AC48
102
{ACAD_REACTORS
330
AC47
102
}
330
AC47
100
AcDbXrecord
280
     1
  1
13,10
  0
XRECORD
  5
C198
102
{ACAD_REACTORS
330
C197
102
}
330
C197
100
AcDbXrecord
280
     1
  1
3
  0
DICTIONARY
  5
34463
330
22
100
AcDbDictionary
280
     1
281
     1
  3
ACAD_XREC_ROUNDTRIP
360
34464
  0
DICTIONARY
  5
34461
330
1E
100
AcDbDictionary
280
     1
281
     1
  3
ACAD_XREC_ROUNDTRIP
360
34462
  0
DICTIONARY
  5
34465
330
26
100
AcDbDictionary
280
     1
281
     1
  3
ACAD_XREC_ROUNDTRIP
360
34466
  0
XRECORD
  5
34464
102
{ACAD_REACTORS
330
34463
102
}
330
34463
100
AcDbXrecord
280
     1
102
SHADEPLOT
 70
     0
102
SHADEPLOTRESLEVEL
 70
     2
102
SHADEPLOTCUSTOMDPI
 70
   300
  0
XRECORD
  5
34462
102
{ACAD_REACTORS
330
34461
102
}
330
34461
100
AcDbXrecord
280
     1
102
SHADEPLOT
 70
     0
102
SHADEPLOTRESLEVEL
 70
     2
102
SHADEPLOTCUSTOMDPI
 70
   300
  0
XRECORD
  5
34466
102
{ACAD_REACTORS
330
34465
102
}
330
34465
100
AcDbXrecord
280
     1
102
SHADEPLOT
 70
     0
102
SHADEPLOTRESLEVEL
 70
     2
102
SHADEPLOTCUSTOMDPI
 70
   300
  0
ENDSEC
  0
EOF
