  0
SECTION
  2
HEADER
  9
$ACADVER
  1
AC1015
  9
$ACADMAINTVER
 70
    20
  9
$DWGCODEPAGE
  3
ANSI_932
  9
$INSBASE
 10
0.0
 20
0.0
 30
0.0
  9
$EXTMIN
 10
-111.3936305800318
 20
-41.08572089088079
 30
-0.0015258207003583
  9
$EXTMAX
 10
12.53983750321436
 20
59.99746288340316
 30
0.0000000349246037
  9
$LIMMIN
 10
0.0
 20
0.0
  9
$LIMMAX
 10
420.0
 20
297.0
  9
$ORTHOMODE
 70
     0
  9
$REGENMODE
 70
     1
  9
$FILLMODE
 70
     1
  9
$QTEXTMODE
 70
     0
  9
$MIRRTEXT
 70
     1
  9
$LTSCALE
 40
1.0
  9
$ATTMODE
 70
     1
  9
$TEXTSIZE
 40
7.0
  9
$TRACEWID
 40
1.0
  9
$TEXTSTYLE
  7
STANDARD
  9
$CLAYER
  8
0
  9
$CELTYPE
  6
ByLayer
  9
$CECOLOR
 62
   256
  9
$CELTSCALE
 40
1.0
  9
$DISPSILH
 70
     0
  9
$DIMSCALE
 40
1.0
  9
$DIMASZ
 40
2.5
  9
$DIMEXO
 40
0.0
  9
$DIMDLI
 40
10.0
  9
$DIMRND
 40
0.0
  9
$DIMDLE
 40
0.0
  9
$DIMEXE
 40
1.0
  9
$DIMTP
 40
0.1
  9
$DIMTM
 40
0.1000000001
  9
$DIMTXT
 40
3.799999999999998
  9
$DIMCEN
 40
0.0
  9
$DIMTSZ
 40
0.0
  9
$DIMTOL
 70
     0
  9
$DIMLIM
 70
     0
  9
$DIMTIH
 70
     0
  9
$DIMTOH
 70
     0
  9
$DIMSE1
 70
     0
  9
$DIMSE2
 70
     0
  9
$DIMTAD
 70
     3
  9
$DIMZIN
 70
     1
  9
$DIMBLK
  1
Open30
  9
$DIMASO
 70
     1
  9
$DIMSHO
 70
     1
  9
$DIMPOST
  1

  9
$DIMAPOST
  1
"
  9
$DIMALT
 70
     0
  9
$DIMALTD
 70
     2
  9
$DIMALTF
 40
0.0393701
  9
$DIMLFAC
 40
1.0
  9
$DIMTOFL
 70
     1
  9
$DIMTVP
 40
0.0
  9
$DIMTIX
 70
     0
  9
$DIMSOXD
 70
     0
  9
$DIMSAH
 70
     0
  9
$DIMBLK1
  1

  9
$DIMBLK2
  1

  9
$DIMSTYLE
  2
AM_JIS
  9
$DIMCLRD
 70
   256
  9
$DIMCLRE
 70
   256
  9
$DIMCLRT
 70
     2
  9
$DIMTFAC
 40
0.71
  9
$DIMGAP
 40
1.5
  9
$DIMJUST
 70
     0
  9
$DIMSD1
 70
     0
  9
$DIMSD2
 70
     0
  9
$DIMTOLJ
 70
     0
  9
$DIMTZIN
 70
     8
  9
$DIMALTZ
 70
     0
  9
$DIMALTTZ
 70
     0
  9
$DIMUPT
 70
     0
  9
$DIMDEC
 70
     0
  9
$DIMTDEC
 70
     1
  9
$DIMALTU
 70
     2
  9
$DIMALTTD
 70
     2
  9
$DIMTXSTY
  7
STANDARD
  9
$DIMAUNIT
 70
     1
  9
$DIMADEC
 70
     0
  9
$DIMALTRND
 40
0.0
  9
$DIMAZIN
 70
     2
  9
$DIMDSEP
 70
    46
  9
$DIMATFIT
 70
     0
  9
$DIMFRAC
 70
     0
  9
$DIMLDRBLK
  1
Open30
  9
$DIMLUNIT
 70
     2
  9
$DIMLWD
 70
    -1
  9
$DIMLWE
 70
    -1
  9
$DIMTMOVE
 70
     0
  9
$LUNITS
 70
     2
  9
$LUPREC
 70
     2
  9
$SKETCHINC
 40
1.0
  9
$FILLETRAD
 40
1.0
  9
$AUNITS
 70
     1
  9
$AUPREC
 70
     3
  9
$MENU
  1
.
  9
$ELEVATION
 40
0.0
  9
$PELEVATION
 40
0.0
  9
$THICKNESS
 40
0.0
  9
$LIMCHECK
 70
     0
  9
$CHAMFERA
 40
0.5
  9
$CHAMFERB
 40
0.5
  9
$CHAMFERC
 40
20.0
  9
$CHAMFERD
 40
0.0
  9
$SKPOLY
 70
     0
  9
$TDCREATE
 40
2451865.447818009
  9
$TDUCREATE
 40
2451865.072818010
  9
$TDUPDATE
 40
2455567.432120405
  9
$TDUUPDATE
 40
2455567.057120405
  9
$TDINDWG
 40
6.1481064236
  9
$TDUSRTIMER
 40
6.1481063079
  9
$USRTIMER
 70
     1
  9
$ANGBASE
 50
0.0
  9
$ANGDIR
 70
     0
  9
$PDMODE
 70
     0
  9
$PDSIZE
 40
0.0
  9
$PLINEWID
 40
0.0
  9
$SPLFRAME
 70
     0
  9
$SPLINETYPE
 70
     6
  9
$SPLINESEGS
 70
     8
  9
$HANDSEED
  5
3418B
  9
$SURFTAB1
 70
     6
  9
$SURFTAB2
 70
     6
  9
$SURFTYPE
 70
     6
  9
$SURFU
 70
     6
  9
$SURFV
 70
     6
  9
$UCSBASE
  2

  9
$UCSNAME
  2

  9
$UCSORG
 10
0.0
 20
0.0
 30
0.0
  9
$UCSXDIR
 10
1.0
 20
0.0
 30
0.0
  9
$UCSYDIR
 10
0.0
 20
1.0
 30
0.0
  9
$UCSORTHOREF
  2

  9
$UCSORTHOVIEW
 70
     0
  9
$UCSORGTOP
 10
0.0
 20
0.0
 30
0.0
  9
$UCSORGBOTTOM
 10
0.0
 20
0.0
 30
0.0
  9
$UCSORGLEFT
 10
0.0
 20
0.0
 30
0.0
  9
$UCSORGRIGHT
 10
0.0
 20
0.0
 30
0.0
  9
$UCSORGFRONT
 10
0.0
 20
0.0
 30
0.0
  9
$UCSORGBACK
 10
0.0
 20
0.0
 30
0.0
  9
$PUCSBASE
  2

  9
$PUCSNAME
  2

  9
$PUCSORG
 10
0.0
 20
0.0
 30
0.0
  9
$PUCSXDIR
 10
1.0
 20
0.0
 30
0.0
  9
$PUCSYDIR
 10
0.0
 20
1.0
 30
0.0
  9
$PUCSORTHOREF
  2

  9
$PUCSORTHOVIEW
 70
     0
  9
$PUCSORGTOP
 10
0.0
 20
0.0
 30
0.0
  9
$PUCSORGBOTTOM
 10
0.0
 20
0.0
 30
0.0
  9
$PUCSORGLEFT
 10
0.0
 20
0.0
 30
0.0
  9
$PUCSORGRIGHT
 10
0.0
 20
0.0
 30
0.0
  9
$PUCSORGFRONT
 10
0.0
 20
0.0
 30
0.0
  9
$PUCSORGBACK
 10
0.0
 20
0.0
 30
0.0
  9
$USERI1
 70
     0
  9
$USERI2
 70
     0
  9
$USERI3
 70
     0
  9
$USERI4
 70
     0
  9
$USERI5
 70
     0
  9
$USERR1
 40
0.0
  9
$USERR2
 40
0.0
  9
$USERR3
 40
0.0
  9
$USERR4
 40
0.0
  9
$USERR5
 40
0.0
  9
$WORLDVIEW
 70
     1
  9
$SHADEDGE
 70
     3
  9
$SHADEDIF
 70
    70
  9
$TILEMODE
 70
     1
  9
$MAXACTVP
 70
    64
  9
$PINSBASE
 10
0.0
 20
0.0
 30
0.0
  9
$PLIMCHECK
 70
     0
  9
$PEXTMIN
 10
1.000000000000000E+20
 20
1.000000000000000E+20
 30
1.000000000000000E+20
  9
$PEXTMAX
 10
-1.000000000000000E+20
 20
-1.000000000000000E+20
 30
-1.000000000000000E+20
  9
$PLIMMIN
 10
-0.2500002402958907
 20
-0.2499999962453767
  9
$PLIMMAX
 10
10.74999951940821
 20
8.249999763458731
  9
$UNITMODE
 70
     0
  9
$VISRETAIN
 70
     1
  9
$PLINEGEN
 70
     0
  9
$PSLTSCALE
 70
     0
  9
$TREEDEPTH
 70
  3020
  9
$CMLSTYLE
  2
Standard
  9
$CMLJUST
 70
     0
  9
$CMLSCALE
 40
20.0
  9
$PROXYGRAPHICS
 70
     1
  9
$MEASUREMENT
 70
     1
  9
$CELWEIGHT
370
    -1
  9
$ENDCAPS
280
     0
  9
$JOINSTYLE
280
     0
  9
$LWDISPLAY
290
     0
  9
$INSUNITS
 70
     4
  9
$HYPERLINKBASE
  1

  9
$STYLESHEET
  1
SEI_CAD.CTB
  9
$XEDIT
290
     1
  9
$CEPSNTYPE
380
     0
  9
$PSTYLEMODE
290
     1
  9
$FINGERPRINTGUID
  2
{FDEAD578-A652-11D2-9A35-0060089B3A3F}
  9
$VERSIONGUID
  2
{DB7B279D-A838-4136-B577-07CB49023EC9}
  9
$EXTNAMES
290
     1
  9
$PSVPSCALE
 40
0.0
  9
$OLESTARTUP
290
     0
  0
ENDSEC
  0
SECTION
  2
CLASSES
  0
CLASS
  1
ACDBDICTIONARYWDFLT
  2
AcDbDictionaryWithDefault
  3
ObjectDBX Classes
 90
        0
280
     0
281
     0
  0
CLASS
  1
ACME_DOCUMENT
  2
AcMeDbDoc
  3
AcMeServices
 90
        0
280
     0
281
     0
  0
CLASS
  1
AMGSETTINGSOBJ
  2
AmgSettingsObj
  3
"AcadM|Product Description: AutoCAD Mechanical 2000|Company: Autodesk"
 90
        0
280
     0
281
     0
  0
CLASS
  1
ACMESCOPE
  2
AcMeScope
  3
AcMeServices
 90
        0
280
     0
281
     0
  0
CLASS
  1
ACMECOMMANDHISTORY
  2
AcMeCommandHistory
  3
AcMeServices
 90
        0
280
     0
281
     0
  0
CLASS
  1
DICTIONARYVAR
  2
AcDbDictionaryVar
  3
ObjectDBX Classes
 90
        0
280
     0
281
     0
  0
CLASS
  1
ACIMSYSVARMAN
  2
AcImSysVarManager
  3
AcMeServices
 90
        0
280
     0
281
     0
  0
CLASS
  1
ACIMREALSYSVAR
  2
AcImRealSysVar
  3
AcMeServices
 90
        0
280
     0
281
     0
  0
CLASS
  1
ACIMINTSYSVAR
  2
AcImIntSysVar
  3
AcMeServices
 90
        0
280
     0
281
     0
  0
CLASS
  1
ACMEDRAWINGMAN
  2
AcMeDrawingMan
  3
AcMeServices
 90
        0
280
     0
281
     0
  0
CLASS
  1
ACMEVIEW
  2
AcMeView
  3
AcMeServices
 90
        0
280
     0
281
     0
  0
CLASS
  1
ACDBENTITYCACHE
  2
AcMeEntityCache
  3
AcMeServices
 90
        0
280
     0
281
     0
  0
CLASS
  1
GSMANAGER
  2
AcMeGSManager
  3
AcMeServices
 90
        0
280
     0
281
     0
  0
CLASS
  1
AMDTINTERNALREACTOR
  2
AmdtInternalReactor
  3
AcMeServices
 90
        0
280
     0
281
     0
  0
CLASS
  1
ACMESTATEMGR
  2
AcMeStateMgr
  3
AcMeServices
 90
        0
280
     0
281
     0
  0
CLASS
  1
ACME_DATABASE
  2
AcMeDbDatabase
  3
AcMeServices
 90
        0
280
     0
281
     0
  0
CLASS
  1
ACRFINSADJUSTERMGR
  2
AcRfInsAdjusterMgr
  3
AcMeServices
 90
        0
280
     0
281
     0
  0
CLASS
  1
ACMDATADICTIONARY
  2
AcmDataDictionary
  3
"AcmSymBB|Product Description: AutoCAD Mechanical 2004 DX|Company: Autodesk"
 90
        0
280
     0
281
     0
  0
CLASS
  1
ACMDATAENTRYBLOCK
  2
AcmDataEntryBlock
  3
"AcmSymBB|Product Description: AutoCAD Mechanical 2004 DX|Company: Autodesk"
 90
        0
280
     0
281
     0
  0
CLASS
  1
AMGOBJPROPCFG
  2
AmgObjPropCfg
  3
"AmgLay|Product Description: AutoCAD Mechanical 2000|Company: Autodesk"
 90
        1
280
     0
281
     0
  0
CLASS
  1
LAYER_INDEX
  2
AcDbLayerIndex
  3
ObjectDBX Classes
 90
    32768
280
     0
281
     0
  0
CLASS
  1
IDBUFFER
  2
AcDbIdBuffer
  3
ObjectDBX Classes
 90
    32768
280
     0
281
     0
  0
CLASS
  1
ACAMGFILTERDAT
  2
AcAmgFilterDat
  3
"AcadM|Product Description: AutoCAD Mechanical 2000|Company: Autodesk"
 90
    32768
280
     0
281
     0
  0
CLASS
  1
ACIMSTRSYSVAR
  2
AcImStrSysVar
  3
AcMeServices
 90
        0
280
     0
281
     0
  0
CLASS
  1
ACMSTANDARDJIS
  2
AcmStandardJIS
  3
"Amdt_StdImp|Product Description: AutoCAD Mechanical 2004 DX|Company: Autodesk"
 90
    32768
280
     0
281
     0
  0
CLASS
  1
ACMSURFSTANDARDJIS
  2
AcmSurfTextStdJIS
  3
"Amdt_StdImp|Product Description: AutoCAD Mechanical 2004 DX|Company: Autodesk"
 90
    32768
280
     0
281
     0
  0
CLASS
  1
ACMFCFSTANDARDJIS
  2
AcmFCFStdJIS
  3
"Amdt_StdImp|Product Description: AutoCAD Mechanical 2004 DX|Company: Autodesk"
 90
    32768
280
     0
281
     0
  0
CLASS
  1
ACMWELDSTANDARDJIS
  2
AcmWeldingStdJIS
  3
"Amdt_StdImp|Product Description: AutoCAD Mechanical 2004 DX|Company: Autodesk"
 90
    32768
280
     0
281
     0
  0
CLASS
  1
ACMIDSTANDARDJIS
  2
AcmIdStdJIS
  3
"Amdt_StdImp|Product Description: AutoCAD Mechanical 2004 DX|Company: Autodesk"
 90
    32768
280
     0
281
     0
  0
CLASS
  1
ACMDATUMSTANDARDJIS
  2
AcmDatumStdJIS
  3
"Amdt_StdImp|Product Description: AutoCAD Mechanical 2004 DX|Company: Autodesk"
 90
    32768
280
     0
281
     0
  0
CLASS
  1
ACMBOMSTANDARDJIS
  2
AcmBOMStdJIS
  3
"Amdt_StdImp|Product Description: AutoCAD Mechanical 2004 DX|Company: Autodesk"
 90
    32768
280
     0
281
     0
  0
CLASS
  1
AMDTNOTE
  2
AmdtNote
  3
"AcmSymBB|Product Description: AutoCAD Mechanical 2004 DX|Company: Autodesk"
 90
    33791
280
     0
281
     1
  0
CLASS
  1
TABLESTYLE
  2
AcDbTableStyle
  3
ObjectDBX Classes
 90
     2047
280
     0
281
     0
  0
CLASS
  1
ACGREFMASTER
  2
AcGrefMaster
  3
AcAttribServices
 90
        0
280
     0
281
     0
  0
CLASS
  1
AM_DRAWING_MGR
  2
AcDmDwgMgr
  3
AcMechDwgViewMgmt
 90
        0
280
     0
281
     0
  0
CLASS
  1
AM_DWG_DOCUMENT
  2
AcDmDwgDocument
  3
AcMechDwgViewMgmt
 90
        0
280
     0
281
     0
  0
CLASS
  1
AM_DWG_SHEET
  2
AcDmSheet
  3
AcMechDwgViewMgmt
 90
        0
280
     0
281
     0
  0
CLASS
  1
AM_VIEWDIMPARMAP
  2
AcDmViewDimParMap
  3
AcMechDwgViewMgmt
 90
        0
280
     0
281
     0
  0
CLASS
  1
AM_DWGMGR_NAME
  2
AcDmDwgMgrName
  3
AcMechDwgViewMgmt
 90
        0
280
     0
281
     0
  0
CLASS
  1
ACGREFACADMASTER
  2
AcGrefacadMaster
  3
AcGrefServices
 90
        0
280
     0
281
     0
  0
CLASS
  1
AMDTMENUSTATEMGR
  2
AmdtMenuStateMgr
  3
McadcomServices
 90
        0
280
     0
281
     0
  0
CLASS
  1
AMDTMCOMMENUSTATE
  2
AmdtMcomMenuState
  3
McadcomServices
 90
        0
280
     0
281
     0
  0
CLASS
  1
AMIMASTER
  2
AmiMaster
  3
AmiServices
 90
        0
280
     0
281
     0
  0
CLASS
  1
MAPIAMMOUDLE
  2
MApiAmModule
  3
MApiAmServices
 90
        0
280
     0
281
     0
  0
CLASS
  1
AMDTADMENUSTATE
  2
AmdtAdMenuState
  3
DesignerServices
 90
        0
280
     0
281
     0
  0
CLASS
  1
ADAPPL
  2
AcAdAppl
  3
DesignerServices
 90
        0
280
     0
281
     0
  0
CLASS
  1
DEPMGR
  2
AcAdDepMgr
  3
DesignerServices
 90
        0
280
     0
281
     0
  0
CLASS
  1
PARAMMGR
  2
AcAdParamMgr
  3
DesignerServices
 90
        0
280
     0
281
     0
  0
CLASS
  1
PARAMSCOPE
  2
AcAdParamScope
  3
DesignerServices
 90
        0
280
     0
281
     0
  0
CLASS
  1
NAMEDAPPL
  2
AcAdNamedAppl
  3
DesignerServices
 90
        0
280
     0
281
     0
  0
CLASS
  1
AMDTDMMENUSTATE
  2
AmdtDmMenuState
  3
AcMechDwgViewMgmt
 90
        0
280
     0
281
     0
  0
CLASS
  1
AMDTAMMENUSTATE
  2
AmdtAmMenuState
  3
DesignerAssemblies
 90
        0
280
     0
281
     0
  0
CLASS
  1
ACAMPROJECT
  2
AcAmProject
  3
DesignerAssemblies
 90
        0
280
     0
281
     0
  0
CLASS
  1
ACAMGRCOMPDEF
  2
AcAmGrCompDef
  3
DesignerAssemblies
 90
        0
280
     0
281
     0
  0
CLASS
  1
ACCMCONTEXT
  2
AcCmContext
  3
DesignerAssemblies
 90
        0
280
     0
281
     0
  0
CLASS
  1
ACAMCOMPDEF
  2
AcAmCompDef
  3
DesignerAssemblies
 90
        0
280
     0
281
     0
  0
CLASS
  1
ACAMCOMPDEFMGR
  2
AcAmCompDefMgr
  3
DesignerAssemblies
 90
        0
280
     0
281
     0
  0
CLASS
  1
AMCONTEXTMGR
  2
AcAmContextMgr
  3
DesignerAssemblies
 90
        0
280
     0
281
     0
  0
CLASS
  1
ACAMCONTEXTMODELER
  2
AcAmContextModeler
  3
DesignerAssemblies
 90
        0
280
     0
281
     0
  0
CLASS
  1
ACAMGTITLESTD
  2
AcAmgTitleStd
  3
"TITLEAPP"
 90
        0
280
     0
281
     0
  0
CLASS
  1
ACMDETAILSTANDARDJIS
  2
AmdtDetailSymStdJIS
  3
"Amdt_StdImp|Product Description: AutoCAD Mechanical 2004 DX|Company: Autodesk"
 90
    32768
280
     0
281
     0
  0
CLASS
  1
ACMSECTIONSTANDARDJIS
  2
AmdtSectionSymStdJIS
  3
"Amdt_StdImp|Product Description: AutoCAD Mechanical 2004 DX|Company: Autodesk"
 90
    32768
280
     0
281
     0
  0
CLASS
  1
ACMCENTERLINESTANDARDJIS
  2
AmdtCenterLineStdJIS
  3
"Amdt_StdImp|Product Description: AutoCAD Mechanical 2004 DX|Company: Autodesk"
 90
    32768
280
     0
281
     0
  0
CLASS
  1
ACMTHREADLINESTANDARDJIS
  2
AmdtThreadLineStdJIS
  3
"Amdt_StdImp|Product Description: AutoCAD Mechanical 2004 DX|Company: Autodesk"
 90
    32768
280
     0
281
     0
  0
CLASS
  1
ACMNOTESTANDARDJIS
  2
AmdtNoteStdJIS
  3
"Amdt_StdImp|Product Description: AutoCAD Mechanical 2004 DX|Company: Autodesk"
 90
    32768
280
     0
281
     0
  0
CLASS
  1
AMDTNOTETEMPLATEDB
  2
AmdtNoteTemplateDB
  3
AMDT_STDIMP_MODULE_NAME
 90
        0
280
     0
281
     0
  0
CLASS
  1
ACAMGLAYSTD
  2
AcAmgLayStd
  3
"AcAmgLayStd|Product Description: AutoCAD Mechanical 2000|Company: Autodesk"
 90
        0
280
     0
281
     0
  0
CLASS
  1
ACAMGDIMSTD
  2
AcAmgDimStd
  3
"AcAmgDimStd|Product Description: AutoCAD Mechanical 2000|Company: Autodesk"
 90
        0
280
     0
281
     0
  0
CLASS
  1
ACAMGHOLECHARTSTDJIS
  2
AcAmgHoleChartStdJIS
  3
ACMSYMBB_MODULE_NAME
 90
    32768
280
     0
281
     0
  0
CLASS
  1
CATALOGSTATE
  2
AcAmCatalogState
  3
DesignerAssemblies
 90
        0
280
     0
281
     0
  0
CLASS
  1
ACAMGRCOMPDEFSET
  2
AcAmGrCompDefSet
  3
DesignerAssemblies
 90
        0
280
     0
281
     0
  0
CLASS
  1
AMDTBROWSERDBTAB
  2
AmdtBrowserDbTab
  3
McadcomServices
 90
        0
280
     0
281
     0
  0
CLASS
  1
CBROWSERAPPOBJECT
  2
CBrowserAppObject
  3
McadcomServices
 90
        0
280
     0
281
     0
  0
CLASS
  1
DM_PLACEHOLDER
  2
AcDmSelsetPlaceholder
  3
AcMechDwgViewMgmt
 90
        0
280
     0
281
     0
  0
CLASS
  1
ACAMGHOLECHARTORIGIN
  2
AcAmgHoleChartOrigin
  3
ACMSYMBB_MODULE_NAME
 90
    33663
280
     0
281
     1
  0
CLASS
  1
ACDBLINERES
  2
AcDbLineRes
  3
AcGrefServices
 90
    32768
280
     0
281
     0
  0
CLASS
  1
AMDTFORMULAUPDATEDISPATCHER
  2
AmdtFormulaUpdateDispatcher
  3
AcMeServices
 90
    32768
280
     0
281
     0
  0
CLASS
  1
SORTENTSTABLE
  2
AcDbSortentsTable
  3
ObjectDBX Classes
 90
        0
280
     0
281
     0
  0
CLASS
  1
ACMSTANDARDISO
  2
AcmStandardISO
  3
"Amdt_StdImp|Product Description: AutoCAD Mechanical 2004 DX|Company: Autodesk"
 90
        0
280
     0
281
     0
  0
CLASS
  1
AMDTEDGESTANDARDISO13715
  2
AmdtEdgeStdISO13715
  3
"Amdt_StdImp|Product Description: AutoCAD Mechanical 2004 DX|Company: Autodesk"
 90
        0
280
     0
281
     0
  0
CLASS
  1
ACMSURFSTANDARDISO
  2
AcmSurfTextStdISO
  3
"Amdt_StdImp|Product Description: AutoCAD Mechanical 2004 DX|Company: Autodesk"
 90
        0
280
     0
281
     0
  0
CLASS
  1
ACMFCFSTANDARDISO
  2
AcmFCFStdISO
  3
"Amdt_StdImp|Product Description: AutoCAD Mechanical 2004 DX|Company: Autodesk"
 90
        0
280
     0
281
     0
  0
CLASS
  1
ACMWELDSTANDARDISO
  2
AcmWeldingStdISO
  3
"Amdt_StdImp|Product Description: AutoCAD Mechanical 2004 DX|Company: Autodesk"
 90
        0
280
     0
281
     0
  0
CLASS
  1
ACMIDSTANDARDISO
  2
AcmIdStdISO
  3
"Amdt_StdImp|Product Description: AutoCAD Mechanical 2004 DX|Company: Autodesk"
 90
        0
280
     0
281
     0
  0
CLASS
  1
ACMDATUMSTANDARDISO
  2
AcmDatumStdISO
  3
"Amdt_StdImp|Product Description: AutoCAD Mechanical 2004 DX|Company: Autodesk"
 90
        0
280
     0
281
     0
  0
CLASS
  1
ACMBOMSTANDARDISO
  2
AcmBOMStdISO
  3
"Amdt_StdImp|Product Description: AutoCAD Mechanical 2004 DX|Company: Autodesk"
 90
        0
280
     0
281
     0
  0
CLASS
  1
ACMDETAILSTANDARDISO
  2
AmdtDetailSymStdISO
  3
"Amdt_StdImp|Product Description: AutoCAD Mechanical 2004 DX|Company: Autodesk"
 90
        0
280
     0
281
     0
  0
CLASS
  1
ACMSECTIONSTANDARDISO
  2
AmdtSectionSymStdISO
  3
"Amdt_StdImp|Product Description: AutoCAD Mechanical 2004 DX|Company: Autodesk"
 90
        0
280
     0
281
     0
  0
CLASS
  1
ACMCENTERLINESTANDARDISO
  2
AmdtCenterLineStdISO
  3
"Amdt_StdImp|Product Description: AutoCAD Mechanical 2004 DX|Company: Autodesk"
 90
        0
280
     0
281
     0
  0
CLASS
  1
ACMTHREADLINESTANDARDISO
  2
AmdtThreadLineStdISO
  3
"Amdt_StdImp|Product Description: AutoCAD Mechanical 2004 DX|Company: Autodesk"
 90
        0
280
     0
281
     0
  0
CLASS
  1
ACMNOTESTANDARDISO
  2
AmdtNoteStdISO
  3
"Amdt_StdImp|Product Description: AutoCAD Mechanical 2004 DX|Company: Autodesk"
 90
        0
280
     0
281
     0
  0
CLASS
  1
ACAMGHOLECHARTSTDISO
  2
AcAmgHoleChartStdISO
  3
ACMSYMBB_MODULE_NAME
 90
        0
280
     0
281
     0
  0
CLASS
  1
ACDBNURBCURVERES
  2
AcDbNurbCurveRes
  3
AcGrefServices
 90
    32768
280
     0
281
     0
  0
CLASS
  1
ACMDIMBREAKPERSREACTOR
  2
AcmDimBreakPersReactor
  3
amgDimApp().moduleName()
 90
    33791
280
     0
281
     0
  0
CLASS
  1
DIMASSOC
  2
AcDbDimAssoc
  3
"AcDbDimAssoc|Product Desc:     AcDim ARX App For Dimension|Company:          Autodesk, Inc.|WEB Address:      www.autodesk.com"
 90
    32768
280
     0
281
     0
  0
CLASS
  1
ACRFATTGENMGR
  2
AcRfAttGeneralMgr
  3
AcAttribServices
 90
        0
280
     0
281
     0
  0
CLASS
  1
ACDBPLACEHOLDER
  2
AcDbPlaceHolder
  3
ObjectDBX Classes
 90
        0
280
     0
281
     0
  0
CLASS
  1
LAYOUT
  2
AcDbLayout
  3
ObjectDBX Classes
 90
        0
280
     0
281
     0
  0
ENDSEC
  0
SECTION
  2
TABLES
  0
TABLE
  2
VPORT
  5
8
330
0
100
AcDbSymbolTable
 70
    15
  0
VPORT
  5
3417E
330
8
100
AcDbSymbolTableRecord
100
AcDbViewportTableRecord
  2
*Active
 70
     0
 10
0.0
 20
0.0
 11
1.0
 21
1.0
 12
-49.42689653840876
 22
9.455870996261182
 13
0.0
 23
0.0
 14
2.5
 24
2.5
 15
10.0
 25
10.0
 16
0.0
 26
0.0
 36
1.0
 17
0.0
 27
0.0
 37
0.0
 40
101.8009341916161
 41
2.007109004739336
 42
50.0
 43
0.0
 44
0.0
 50
0.0
 51
0.0
 71
    16
 72
  2000
 73
     1
 74
     3
 75
     0
 76
     0
 77
     0
 78
     0
281
     0
 65
     0
110
0.0
120
0.0
130
0.0
111
1.0
121
0.0
131
0.0
112
0.0
122
1.0
132
0.0
 79
     0
146
0.0
  0
ENDTAB
  0
TABLE
  2
LTYPE
  5
5
330
0
100
AcDbSymbolTable
 70
    17
  0
LTYPE
  5
14
330
5
100
AcDbSymbolTableRecord
100
AcDbLinetypeTableRecord
  2
ByBlock
 70
     0
  3

 72
    65
 73
     0
 40
0.0
  0
LTYPE
  5
15
330
5
100
AcDbSymbolTableRecord
100
AcDbLinetypeTableRecord
  2
ByLayer
 70
     0
  3

 72
    65
 73
     0
 40
0.0
  0
LTYPE
  5
16
330
5
100
AcDbSymbolTableRecord
100
AcDbLinetypeTableRecord
  2
Continuous
 70
     0
  3
Solid line
 72
    65
 73
     0
 40
0.0
  0
LTYPE
  5
5E
330
5
100
AcDbSymbolTableRecord
100
AcDbLinetypeTableRecord
  2
AM_ISO02W050
 70
     0
  3
__ __ __ __ __ __ __ __ __ __ __ __ __ __ __
 72
    65
 73
     2
 40
7.5
 49
6.0
 74
     0
 49
-1.5
 74
     0
  0
LTYPE
  5
5F
330
5
100
AcDbSymbolTableRecord
100
AcDbLinetypeTableRecord
  2
AM_ISO08W050
 70
     0
  3
____ . ____ . ____ . ____ . ____ . ____ . ____
 72
    65
 73
     4
 40
18.0
 49
12.0
 74
     0
 49
-1.5
 74
     0
 49
3.0
 74
     0
 49
-1.5
 74
     0
  0
LTYPE
  5
60
330
5
100
AcDbSymbolTableRecord
100
AcDbLinetypeTableRecord
  2
AM_ISO09W050
 70
     0
  3
_____ . . _____ . . _____ . . ____ .. ____
 72
    65
 73
     6
 40
22.5
 49
12.0
 74
     0
 49
-1.5
 74
     0
 49
3.0
 74
     0
 49
-1.5
 74
     0
 49
3.0
 74
     0
 49
-1.5
 74
     0
  0
LTYPE
  5
61
330
5
100
AcDbSymbolTableRecord
100
AcDbLinetypeTableRecord
  2
Amconstr
 70
     0
  3
_______________________
 72
    65
 73
     2
 40
9999.0
 49
9999.0
 74
     0
 49
0.0
 74
     0
  0
LTYPE
  5
62
330
5
100
AcDbSymbolTableRecord
100
AcDbLinetypeTableRecord
  2
AM_ISO02W050x2
 70
     0
  3
 _ _ _ _ _ _ _ _ _ _ _ _
 72
    65
 73
     2
 40
3.75
 49
3.0
 74
     0
 49
-0.75
 74
     0
  0
LTYPE
  5
63
330
5
100
AcDbSymbolTableRecord
100
AcDbLinetypeTableRecord
  2
AM_ISO08W050x2
 70
     0
  3
__ . __ . __ . __ . __ . __
 72
    65
 73
     4
 40
9.0
 49
6.0
 74
     0
 49
-0.75
 74
     0
 49
1.5
 74
     0
 49
-0.75
 74
     0
  0
LTYPE
  5
66
330
5
100
AcDbSymbolTableRecord
100
AcDbLinetypeTableRecord
  2
Amzigzag
 70
     0
  3
/\/-/\/-/\/-/\/-/\/-/\/
 72
    65
 73
     2
 40
11.0001
 49
0.0001
 74
     4
 75
   135
340
65
 46
0.04
 50
0.0
 44
0.0
 45
0.0
 49
-11.0
 74
     0
  0
LTYPE
  5
184
330
5
100
AcDbSymbolTableRecord
100
AcDbLinetypeTableRecord
  2
CENTER
 70
     0
  3
____ _ ____ _ ____ _ ____ _ ____ _ ____ _ ____
 72
    65
 73
     4
 40
17.5
 49
13.0
 74
     0
 49
-1.5
 74
     0
 49
1.5
 74
     0
 49
-1.5
 74
     0
  0
LTYPE
  5
A1DA
330
5
100
AcDbSymbolTableRecord
100
AcDbLinetypeTableRecord
  2
HIDDEN
 70
     0
  3
Hidden __ __ __ __ __ __ __ __ __ __ __ __ __ _
 72
    65
 73
     2
 40
9.524999999999996
 49
6.349999999999998
 74
     0
 49
-3.174999999999998
 74
     0
  0
LTYPE
  5
A1DB
330
5
100
AcDbSymbolTableRecord
100
AcDbLinetypeTableRecord
  2
PHANTOM2
 70
     0
  3
Phantom (.5x) ___ _ _ ___ _ _ ___ _ _ ___ _ _
 72
    65
 73
     6
 40
31.75
 49
15.875
 74
     0
 49
-3.174999999999998
 74
     0
 49
3.174999999999998
 74
     0
 49
-3.174999999999998
 74
     0
 49
3.174999999999998
 74
     0
 49
-3.174999999999998
 74
     0
  0
LTYPE
  5
D1E1
330
5
100
AcDbSymbolTableRecord
100
AcDbLinetypeTableRecord
  2
ACISOWELD
 70
     0
  3
_ _ _ _ _
 72
    65
 73
     2
 40
2.0
 49
2.0
 74
     0
 49
-1.0
 74
     0
  0
LTYPE
  5
D1E2
330
5
100
AcDbSymbolTableRecord
100
AcDbLinetypeTableRecord
  2
ACISOTGB
 70
     0
  3
__ . . __ . .
 72
    65
 73
     6
 40
9.0
 49
4.0
 74
     0
 49
-1.0
 74
     0
 49
1.0
 74
     0
 49
-1.0
 74
     0
 49
1.0
 74
     0
 49
-1.0
 74
     0
  0
LTYPE
  5
D1E3
330
5
100
AcDbSymbolTableRecord
100
AcDbLinetypeTableRecord
  2
ACISOTGL
 70
     0
  3
_ _ _ _ _
 72
    65
 73
     2
 40
3.0
 49
2.0
 74
     0
 49
-1.0
 74
     0
  0
LTYPE
  5
34171
330
5
100
AcDbSymbolTableRecord
100
AcDbLinetypeTableRecord
  2
DASHED
 70
     0
  3
__ __ __ __ __ __ __ __ __ __ __ __ __ __ __
 72
    65
 73
     2
 40
3.5
 49
2.0
 74
     0
 49
-1.5
 74
     0
  0
ENDTAB
  0
TABLE
  2
LAYER
  5
2
102
{ACAD_XDICTIONARY
360
B18B
102
}
330
0
100
AcDbSymbolTable
 70
     9
  0
LAYER
  5
10
330
2
100
AcDbSymbolTableRecord
100
AcDbLayerTableRecord
  2
0
 70
     0
 62
     7
  6
Continuous
370
    -3
390
F
  0
LAYER
  5
D1
330
2
100
AcDbSymbolTableRecord
100
AcDbLayerTableRecord
  2
Defpoints
 70
     0
 62
     7
  6
Continuous
290
     0
370
    -3
390
F
  0
LAYER
  5
A2D
330
2
100
AcDbSymbolTableRecord
100
AcDbLayerTableRecord
  2
AM_0
 70
     0
 62
     7
  6
Continuous
370
    30
390
F
  0
LAYER
  5
AD7
330
2
100
AcDbSymbolTableRecord
100
AcDbLayerTableRecord
  2
AM_4
 70
     0
 62
     3
  6
Continuous
370
    13
390
F
  0
LAYER
  5
20014
330
2
100
AcDbSymbolTableRecord
100
AcDbLayerTableRecord
  2
AM_5
 70
     0
 62
     3
  6
Continuous
370
    13
390
F
  0
LAYER
  5
33562
330
2
100
AcDbSymbolTableRecord
100
AcDbLayerTableRecord
  2
AM_7
 70
     0
 62
     4
  6
AM_ISO08W050
370
    13
390
F
  0
ENDTAB
  0
TABLE
  2
STYLE
  5
3
330
0
100
AcDbSymbolTable
 70
     6
  0
STYLE
  5
11
330
3
100
AcDbSymbolTableRecord
100
AcDbTextStyleTableRecord
  2
STANDARD
 70
     0
 40
0.0
 41
1.0
 50
0.0
 71
     0
 42
7.0
  3
ISOCP.SHX
  4
EXTFONT.SHX
  0
STYLE
  5
65
330
3
100
AcDbSymbolTableRecord
100
AcDbTextStyleTableRecord
  2

 70
     1
 40
0.0
 41
1.0
 50
0.0
 71
     0
 42
2.5
  3
ltypeshp.shx
  4

  0
STYLE
  5
15E
330
3
100
AcDbSymbolTableRecord
100
AcDbTextStyleTableRecord
  2
ACJISTS
 70
     0
 40
1.0
 41
1.0
 50
0.0
 71
     0
 42
2.5
  3
isocp.shx
  4
bigfont.shx
  0
STYLE
  5
D1E6
330
3
100
AcDbSymbolTableRecord
100
AcDbTextStyleTableRecord
  2
ACISOTS
 70
     0
 40
1.0
 41
1.0
 50
0.0
 71
     0
 42
2.5
  3
isocp.shx
  4
extfont.shx
  0
STYLE
  5
D1E7
330
3
100
AcDbSymbolTableRecord
100
AcDbTextStyleTableRecord
  2
ACISOGDT
 70
     0
 40
0.0
 41
1.0
 50
0.0
 71
     0
 42
2.5
  3
amgdt.shx
  4

  0
ENDTAB
  0
TABLE
  2
VIEW
  5
6
330
0
100
AcDbSymbolTable
 70
     6
  0
VIEW
  5
596
330
6
100
AcDbSymbolTableRecord
100
AcDbViewTableRecord
  2
AM_VIEW1
 70
     0
 40
148.5
 10
117.2527063599458
 20
222.75
 41
234.5054127198917
 11
0.0
 21
0.0
 31
1.0
 12
0.0
 22
0.0
 32
0.0
 42
50.0
 43
0.0
 44
0.0
 50
0.0
 71
    16
281
     0
 72
     0
  0
VIEW
  5
597
330
6
100
AcDbSymbolTableRecord
100
AcDbViewTableRecord
  2
AM_VIEW2
 70
     0
 40
148.5
 10
302.7472936400541
 20
222.75
 41
234.5054127198917
 11
0.0
 21
0.0
 31
1.0
 12
0.0
 22
0.0
 32
0.0
 42
50.0
 43
0.0
 44
0.0
 50
0.0
 71
    16
281
     0
 72
     0
  0
VIEW
  5
598
330
6
100
AcDbSymbolTableRecord
100
AcDbViewTableRecord
  2
AM_VIEW3
 70
     0
 40
148.5
 10
117.2527063599458
 20
74.25
 41
234.5054127198917
 11
0.0
 21
0.0
 31
1.0
 12
0.0
 22
0.0
 32
0.0
 42
50.0
 43
0.0
 44
0.0
 50
0.0
 71
    16
281
     0
 72
     0
  0
VIEW
  5
599
330
6
100
AcDbSymbolTableRecord
100
AcDbViewTableRecord
  2
AM_VIEW4
 70
     0
 40
148.5
 10
302.7472936400541
 20
74.25
 41
234.5054127198917
 11
0.0
 21
0.0
 31
1.0
 12
0.0
 22
0.0
 32
0.0
 42
50.0
 43
0.0
 44
0.0
 50
0.0
 71
    16
281
     0
 72
     0
  0
VIEW
  5
59A
330
6
100
AcDbSymbolTableRecord
100
AcDbViewTableRecord
  2
AM_VIEW5
 70
     0
 40
148.5
 10
210.0
 20
148.5
 41
234.5054127198917
 11
0.0
 21
0.0
 31
1.0
 12
0.0
 22
0.0
 32
0.0
 42
50.0
 43
0.0
 44
0.0
 50
0.0
 71
    16
281
     0
 72
     0
  0
VIEW
  5
59B
330
6
100
AcDbSymbolTableRecord
100
AcDbViewTableRecord
  2
AM_VIEW6
 70
     0
 40
296.99703
 10
210.0
 20
148.5
 41
469.0061353315289
 11
0.0
 21
0.0
 31
1.0
 12
0.0
 22
0.0
 32
0.0
 42
50.0
 43
0.0
 44
0.0
 50
0.0
 71
    16
281
     0
 72
     0
  0
ENDTAB
  0
TABLE
  2
UCS
  5
7
330
0
100
AcDbSymbolTable
 70
     0
  0
ENDTAB
  0
TABLE
  2
APPID
  5
9
330
0
100
AcDbSymbolTable
 70
    52
  0
APPID
  5
12
330
9
100
AcDbSymbolTableRecord
100
AcDbRegAppTableRecord
  2
ACAD
 70
     0
  0
APPID
  5
46
330
9
100
AcDbSymbolTableRecord
100
AcDbRegAppTableRecord
  2
MCAD_NO_VIS
 70
     0
  0
APPID
  5
47
330
9
100
AcDbSymbolTableRecord
100
AcDbRegAppTableRecord
  2
ACAD_TEMP_GRAPHIC
 70
     0
  0
APPID
  5
10B
330
9
100
AcDbSymbolTableRecord
100
AcDbRegAppTableRecord
  2
GENIUS_GENDTOL_13
 70
     0
  0
APPID
  5
199
330
9
100
AcDbSymbolTableRecord
100
AcDbRegAppTableRecord
  2
GENIUS_GENCFG_13
 70
     0
  0
APPID
  5
19A
330
9
100
AcDbSymbolTableRecord
100
AcDbRegAppTableRecord
  2
GENIUS_GENCFG0_13
 70
     0
  0
APPID
  5
19B
330
9
100
AcDbSymbolTableRecord
100
AcDbRegAppTableRecord
  2
GENIUS_GENCFG1_13
 70
     0
  0
APPID
  5
19C
330
9
100
AcDbSymbolTableRecord
100
AcDbRegAppTableRecord
  2
GENIUS_GENCFG2_13
 70
     0
  0
APPID
  5
19D
330
9
100
AcDbSymbolTableRecord
100
AcDbRegAppTableRecord
  2
GENIUS_GENCFG3_13
 70
     0
  0
APPID
  5
19E
330
9
100
AcDbSymbolTableRecord
100
AcDbRegAppTableRecord
  2
GENIUS_GENCFG4_13
 70
     0
  0
APPID
  5
5DC
330
9
100
AcDbSymbolTableRecord
100
AcDbRegAppTableRecord
  2
GENIUS_GENBLLY_14
 70
     0
  0
APPID
  5
5DD
330
9
100
AcDbSymbolTableRecord
100
AcDbRegAppTableRecord
  2
GENIUS_GENODEF_13
 70
     0
  0
APPID
  5
5DE
330
9
100
AcDbSymbolTableRecord
100
AcDbRegAppTableRecord
  2
GENIUS_GENOBJ-N-CEN_13
 70
     0
  0
APPID
  5
5EA
330
9
100
AcDbSymbolTableRecord
100
AcDbRegAppTableRecord
  2
GENIUS_GENTRA_14
 70
     0
  0
APPID
  5
5F4
330
9
100
AcDbSymbolTableRecord
100
AcDbRegAppTableRecord
  2
GENIUS_GENOBJ-N-TIT_13
 70
     0
  0
APPID
  5
5F5
330
9
100
AcDbSymbolTableRecord
100
AcDbRegAppTableRecord
  2
GENIUS_GENTITLE_13
 70
     0
  0
APPID
  5
5F6
330
9
100
AcDbSymbolTableRecord
100
AcDbRegAppTableRecord
  2
GENIUS_GENOENT_13
 70
     0
  0
APPID
  5
5F7
330
9
100
AcDbSymbolTableRecord
100
AcDbRegAppTableRecord
  2
GENIUS_GENOREF_13
 70
     0
  0
APPID
  5
5F8
330
9
100
AcDbSymbolTableRecord
100
AcDbRegAppTableRecord
  2
GENIUS_GENOLIS_13
 70
     0
  0
APPID
  5
5F9
330
9
100
AcDbSymbolTableRecord
100
AcDbRegAppTableRecord
  2
GENIUS_GENZVEED_13
 70
     0
  0
APPID
  5
5FA
330
9
100
AcDbSymbolTableRecord
100
AcDbRegAppTableRecord
  2
GENIUS_GENSCREG_15
 70
     0
  0
APPID
  5
5FB
330
9
100
AcDbSymbolTableRecord
100
AcDbRegAppTableRecord
  2
GENIUS_GENOBJ-N-SDF_13
 70
     0
  0
APPID
  5
A2F
330
9
100
AcDbSymbolTableRecord
100
AcDbRegAppTableRecord
  2
GENIUS_GENOBJ-N-RSBK_13
 70
     0
  0
APPID
  5
A30
330
9
100
AcDbSymbolTableRecord
100
AcDbRegAppTableRecord
  2
GENIUS_GENOBJ-N-LIB_13
 70
     0
  0
APPID
  5
A31
330
9
100
AcDbSymbolTableRecord
100
AcDbRegAppTableRecord
  2
GENIUS_GENSCALE_13
 70
     0
  0
APPID
  5
1642
330
9
100
AcDbSymbolTableRecord
100
AcDbRegAppTableRecord
  2
GENIUS_GENREC_14
 70
     0
  0
APPID
  5
1643
330
9
100
AcDbSymbolTableRecord
100
AcDbRegAppTableRecord
  2
GENIUS_GENOBJ-N-REC_13
 70
     0
  0
APPID
  5
1965
330
9
100
AcDbSymbolTableRecord
100
AcDbRegAppTableRecord
  2
GENIUS_GENFIL_13
 70
     0
  0
APPID
  5
1966
330
9
100
AcDbSymbolTableRecord
100
AcDbRegAppTableRecord
  2
GENIUS_GENOBJ-N-CHA_13
 70
     0
  0
APPID
  5
25E4
330
9
100
AcDbSymbolTableRecord
100
AcDbRegAppTableRecord
  2
GENIUS_GENDIMSH_14
 70
     0
  0
APPID
  5
26B1
330
9
100
AcDbSymbolTableRecord
100
AcDbRegAppTableRecord
  2
GENIUS_GENOBJ-N-CRS_13
 70
     0
  0
APPID
  5
364A
330
9
100
AcDbSymbolTableRecord
100
AcDbRegAppTableRecord
  2
GENIUS_GENOBJ-N-HTC_13
 70
     0
  0
APPID
  5
364B
330
9
100
AcDbSymbolTableRecord
100
AcDbRegAppTableRecord
  2
GENIUS_GENHATCH_13
 70
     0
  0
APPID
  5
57E1
330
9
100
AcDbSymbolTableRecord
100
AcDbRegAppTableRecord
  2
GENIUS_GENOBJ-N-FIL_13
 70
     0
  0
APPID
  5
7D0C
330
9
100
AcDbSymbolTableRecord
100
AcDbRegAppTableRecord
  2
GENIUS_GENOBJ-N-DIM_13
 70
     0
  0
APPID
  5
7D16
330
9
100
AcDbSymbolTableRecord
100
AcDbRegAppTableRecord
  2
GENIUS_GENDIM_13
 70
     0
  0
APPID
  5
A1DD
330
9
100
AcDbSymbolTableRecord
100
AcDbRegAppTableRecord
  2
AD_DRAW
 70
     0
  0
APPID
  5
A1E0
330
9
100
AcDbSymbolTableRecord
100
AcDbRegAppTableRecord
  2
ACATTRIBSERVICES
 70
     0
  0
APPID
  5
A1FE
330
9
100
AcDbSymbolTableRecord
100
AcDbRegAppTableRecord
  2
DESIGNERASSEMBLIES
 70
     0
  0
APPID
  5
A211
330
9
100
AcDbSymbolTableRecord
100
AcDbRegAppTableRecord
  2
ACADM_DIM_EDIT
 70
     0
  0
APPID
  5
A212
330
9
100
AcDbSymbolTableRecord
100
AcDbRegAppTableRecord
  2
AMDT_DM_ADJ
 70
     0
  0
APPID
  5
AC46
330
9
100
AcDbSymbolTableRecord
100
AcDbRegAppTableRecord
  2
BASE_TYPE
 70
     0
  0
APPID
  5
B18A
330
9
100
AcDbSymbolTableRecord
100
AcDbRegAppTableRecord
  2
ACAD_PSEXT
 70
     0
  0
APPID
  5
B9E9
330
9
100
AcDbSymbolTableRecord
100
AcDbRegAppTableRecord
  2
GENIUS_GENCEN_19
 70
     0
  0
APPID
  5
1DFCB
330
9
100
AcDbSymbolTableRecord
100
AcDbRegAppTableRecord
  2
ACAD_DSTYLE_DIMTEXT_FILL
 70
     0
  0
APPID
  5
2AB65
330
9
100
AcDbSymbolTableRecord
100
AcDbRegAppTableRecord
  2
ACAD_DSTYLE_DIMARC_LENGTH_SYMBOL
 70
     0
  0
APPID
  5
2AB66
330
9
100
AcDbSymbolTableRecord
100
AcDbRegAppTableRecord
  2
ACAD_DSTYLE_DIMJOGGED_JOGANGLE_SYMBOL
 70
     0
  0
APPID
  5
2AB67
330
9
100
AcDbSymbolTableRecord
100
AcDbRegAppTableRecord
  2
AcAecLayerStandard
 70
     0
  0
APPID
  5
2B45D
330
9
100
AcDbSymbolTableRecord
100
AcDbRegAppTableRecord
  2
DCO15
 70
     0
  0
APPID
  5
2D5A4
330
9
100
AcDbSymbolTableRecord
100
AcDbRegAppTableRecord
  2
ACAD_DIMASSOC_DIMLFAC
 70
     0
  0
APPID
  5
2D5A5
330
9
100
AcDbSymbolTableRecord
100
AcDbRegAppTableRecord
  2
ACAD_DIMASSOC_CALC_DIMLFAC
 70
     0
  0
APPID
  5
2D5A6
330
9
100
AcDbSymbolTableRecord
100
AcDbRegAppTableRecord
  2
ACAD_DIMASSOC_OVERRIDDEN_DIMLFAC
 70
     0
  0
ENDTAB
  0
TABLE
  2
DIMSTYLE
  5
A
330
0
100
AcDbSymbolTable
 70
    16
100
AcDbDimStyleTable
 71
     2
340
BF
340
3282
  0
DIMSTYLE
105
BF
330
A
100
AcDbSymbolTableRecord
100
AcDbDimStyleTableRecord
  2
AM_JIS
 70
     0
  4
"
 41
2.5
 42
0.0
 43
10.0
 44
1.0
 47
0.1
 48
0.1000000001
 73
     0
 74
     0
 77
     3
 78
     1
 79
     2
140
3.799999999999998
141
0.0
143
0.0393701
146
0.71
147
1.5
172
     1
176
   256
177
   256
178
     2
179
     2
271
     3
272
     3
275
     1
283
     0
284
     8
340
11
341
C0
342
C0
371
    -1
372
    -1
  0
DIMSTYLE
105
3282
102
{ACAD_REACTORS
330
33EC8
330
33EF6
330
3404A
330
33CCF
102
}
330
A
100
AcDbSymbolTableRecord
100
AcDbDimStyleTableRecord
  2
AM_JIS$0
 70
     0
  4
"
 41
2.5
 42
0.0
 43
10.0
 44
1.0
 47
0.1
 48
0.1000000001
 73
     0
 74
     0
 77
     3
 78
     1
 79
     2
140
3.799999999999998
141
0.0
143
0.0393701
146
0.71
147
1.5
172
     1
176
     3
177
     3
178
     2
271
     2
272
     2
275
     1
283
     0
284
     8
289
     0
340
11
341
C0
342
C0
371
    13
372
    13
  0
DIMSTYLE
105
D1E8
330
A
100
AcDbSymbolTableRecord
100
AcDbDimStyleTableRecord
  2
AM_ISO
 70
     0
  4
"
 41
2.5
 42
1.0
 43
10.0
 44
1.0
 47
0.1
 48
0.1
 73
     0
 74
     0
 77
     1
 78
     8
 79
     2
140
3.5
141
0.0
143
0.0393701
146
0.71
147
1.5
172
     1
176
   256
177
   256
178
     2
271
     2
272
     3
274
     4
283
     0
284
     8
340
11
371
    -1
372
    -1
  0
DIMSTYLE
105
D1E9
330
A
100
AcDbSymbolTableRecord
100
AcDbDimStyleTableRecord
  2
AM_ISO$3
 70
     0
  4
"
 41
2.5
 42
1.0
 43
10.0
 44
1.0
 47
0.1
 48
0.1
 73
     0
 77
     1
 78
     8
 79
     2
140
3.5
141
0.0
143
0.0393701
146
0.71
147
1.5
176
   256
177
   256
178
     2
271
     2
272
     3
274
     4
283
     0
284
     8
288
     1
289
     0
340
11
371
    -1
372
    -1
  0
DIMSTYLE
105
D1EA
330
A
100
AcDbSymbolTableRecord
100
AcDbDimStyleTableRecord
  2
AM_ISO$4
 70
     0
  4
"
 41
2.5
 42
1.0
 43
10.0
 44
1.0
 47
0.1
 48
0.1
 73
     0
 77
     1
 78
     8
 79
     2
140
3.5
141
0.0
143
0.0393701
146
0.71
147
1.5
176
   256
177
   256
178
     2
271
     2
272
     3
274
     4
283
     0
284
     8
288
     1
289
     0
340
11
371
    -1
372
    -1
  0
DIMSTYLE
105
D1EB
330
A
100
AcDbSymbolTableRecord
100
AcDbDimStyleTableRecord
  2
AM_ISO$6
 70
     0
  4
"
 41
2.5
 42
1.0
 43
10.0
 44
1.0
 47
0.1
 48
0.1
 73
     0
 74
     0
 78
     8
 79
     2
140
3.5
141
0.0
143
0.0393701
146
0.71
147
1.5
172
     1
176
   256
177
   256
178
     2
271
     2
272
     3
274
     4
283
     0
284
     8
340
11
371
    -1
372
    -1
  0
DIMSTYLE
105
D1EC
330
A
100
AcDbSymbolTableRecord
100
AcDbDimStyleTableRecord
  2
AM_ISO$7
 70
     0
  4
"
 41
2.5
 42
1.0
 43
10.0
 44
1.0
 47
0.1
 48
0.1
 73
     0
 74
     0
 77
     1
 78
     8
 79
     2
140
5.0
141
0.0
143
0.0393701
146
0.71
147
1.5
172
     1
176
   256
177
   256
178
     2
271
     2
272
     3
274
     4
283
     0
284
     8
340
11
371
    -1
372
    -1
  0
DIMSTYLE
105
D1ED
330
A
100
AcDbSymbolTableRecord
100
AcDbDimStyleTableRecord
  2
AM_ISO$SF
 70
     0
  4
"
 41
2.5
 42
1.0
 43
10.0
 44
1.0
 47
0.1
 48
0.1
 73
     0
 74
     0
 75
     1
 76
     1
 77
     1
 78
     8
 79
     2
140
3.5
141
0.0
143
0.0393701
146
0.71
147
1.5
172
     1
176
   256
177
   256
178
     2
271
     2
272
     3
274
     4
283
     0
284
     8
340
11
371
    -1
372
    -1
  0
DIMSTYLE
105
D1EE
330
A
100
AcDbSymbolTableRecord
100
AcDbDimStyleTableRecord
  2
AM_ISO$SH
 70
     0
  4
"
 41
2.5
 42
1.0
 43
10.0
 44
1.0
 47
0.1
 48
0.1
 73
     0
 74
     0
 75
     1
 76
     1
 77
     1
 78
     8
 79
     2
140
3.5
141
0.0
143
0.0393701
144
2.0
146
0.71
147
1.5
172
     1
173
     1
176
   256
177
   256
178
     2
271
     2
272
     3
274
     4
283
     0
284
     8
340
11
343
CB
371
    -1
372
    -1
  0
ENDTAB
  0
TABLE
  2
BLOCK_RECORD
  5
1
330
0
100
AcDbSymbolTable
 70
    10
  0
BLOCK_RECORD
  5
1F
102
{ACAD_XDICTIONARY
360
68
102
}
330
1
100
AcDbSymbolTableRecord
100
AcDbBlockTableRecord
  2
*Model_Space
340
22
  0
BLOCK_RECORD
  5
1B
330
1
100
AcDbSymbolTableRecord
100
AcDbBlockTableRecord
  2
*Paper_Space
340
1E
  0
BLOCK_RECORD
  5
23
330
1
100
AcDbSymbolTableRecord
100
AcDbBlockTableRecord
  2
*Paper_Space0
340
26
  0
BLOCK_RECORD
  5
C0
330
1
100
AcDbSymbolTableRecord
100
AcDbBlockTableRecord
  2
_Open30
340
0
102
{BLKREFS
331
34083
331
3408B
331
3408C
331
34094
331
34095
331
3409D
331
3409E
102
}
  0
BLOCK_RECORD
  5
CB
330
1
100
AcDbSymbolTableRecord
100
AcDbBlockTableRecord
  2
GENAXEH
340
0
  0
BLOCK_RECORD
  5
33CD0
330
1
100
AcDbSymbolTableRecord
100
AcDbBlockTableRecord
  2
*D3
340
0
  0
BLOCK_RECORD
  5
33FF8
330
1
100
AcDbSymbolTableRecord
100
AcDbBlockTableRecord
  2
*D4
340
0
  0
BLOCK_RECORD
  5
34002
330
1
100
AcDbSymbolTableRecord
100
AcDbBlockTableRecord
  2
*D5
340
0
  0
BLOCK_RECORD
  5
3404B
330
1
100
AcDbSymbolTableRecord
100
AcDbBlockTableRecord
  2
*D6
340
0
  0
BLOCK_RECORD
  5
340CF
330
1
100
AcDbSymbolTableRecord
100
AcDbBlockTableRecord
  2
*S207
340
0
102
{BLKREFS
331
33FF1
102
}
  0
ENDTAB
  0
ENDSEC
  0
SECTION
  2
BLOCKS
  0
BLOCK
  5
20
330
1F
100
AcDbEntity
  8
0
100
AcDbBlockBegin
  2
*Model_Space
 70
     0
 10
0.0
 20
0.0
 30
0.0
  3
*Model_Space
  1

  0
ENDBLK
  5
21
330
1F
100
AcDbEntity
  8
0
100
AcDbBlockEnd
  0
BLOCK
  5
1C
330
1B
100
AcDbEntity
 67
     1
  8
0
100
AcDbBlockBegin
  2
*Paper_Space
 70
     0
 10
0.0
 20
0.0
 30
0.0
  3
*Paper_Space
  1

  0
ENDBLK
  5
1D
330
1B
100
AcDbEntity
 67
     1
  8
0
100
AcDbBlockEnd
  0
BLOCK
  5
24
330
23
100
AcDbEntity
  8
0
100
AcDbBlockBegin
  2
*Paper_Space0
 70
     0
 10
0.0
 20
0.0
 30
0.0
  3
*Paper_Space0
  1

  0
VIEWPORT
  5
82
102
{ACAD_XDICTIONARY
360
34189
102
}
330
23
100
AcDbEntity
  8
0
100
AcDbViewport
 10
5.249999639556162
 20
3.999999883606676
 30
0.0
 40
15.37157224495366
 41
8.992999745766947
 69
     0
 12
5.249999639556162
 22
3.999999883606676
 13
0.0
 23
0.0
 14
10.0
 24
10.0
 15
10.0
 25
10.0
 16
0.0
 26
0.0
 36
1.0
 17
0.0
 27
0.0
 37
0.0
 42
50.0
 43
0.0
 44
0.0
 45
8.992999745766947
 50
0.0
 51
0.0
 72
   100
 90
    32800
  1

281
     0
 71
     1
 74
     0
110
0.0
120
0.0
130
0.0
111
1.0
121
0.0
131
0.0
112
0.0
122
1.0
132
0.0
 79
     0
146
0.0
1001
GENIUS_GENSCREG_15
1000
PF
1040
1.0
1000
DF
1040
1.0
1000
MIN
1011
-2.435786482920669
1021
-0.4964999892767974
1031
0.0
1000
MAX
1011
12.93578576203299
1021
8.49649975649015
1031
0.0
1000
FLAGS
1070
     4
1001
GENIUS_GENOBJ-N-SDF_13
1002
{
1000
OWNER
1000
GEN
1002
}
1001
GENIUS_GENODEF_13
1002
{
1000
HIER
1070
     0
1002
}
1002
{
1000
MANEDIT
1070
     0
1002
}
1002
{
1000
NOSEL
1070
     0
1002
}
1002
{
1000
BEHIND
1070
     0
1002
}
1002
{
1000
OTHER
1070
     0
1002
}
1002
{
1000
REACTOR
1002
}
  0
ENDBLK
  5
25
330
23
100
AcDbEntity
  8
0
100
AcDbBlockEnd
  0
BLOCK
  5
C4
330
C0
100
AcDbEntity
  8
0
100
AcDbBlockBegin
  2
_Open30
 70
     0
 10
0.0
 20
0.0
 30
0.0
  3
_Open30
  1

  0
LINE
  5
C1
330
C0
100
AcDbEntity
  8
0
 62
     0
370
    -2
100
AcDbLine
 10
-1.0
 20
0.26794919
 30
0.0
 11
0.0
 21
0.0
 31
0.0
  0
LINE
  5
C2
330
C0
100
AcDbEntity
  8
0
 62
     0
370
    -2
100
AcDbLine
 10
0.0
 20
0.0
 30
0.0
 11
-1.0
 21
-0.26794919
 31
0.0
  0
LINE
  5
C3
330
C0
100
AcDbEntity
  8
0
 62
     0
370
    -2
100
AcDbLine
 10
0.0
 20
0.0
 30
0.0
 11
-1.0
 21
0.0
 31
0.0
  0
ENDBLK
  5
C5
330
C0
100
AcDbEntity
  8
0
100
AcDbBlockEnd
  0
BLOCK
  5
CD
330
CB
100
AcDbEntity
  8
0
100
AcDbBlockBegin
  2
GENAXEH
 70
     0
 10
0.0
 20
0.0
 30
0.0
  3
GENAXEH
  1

  0
LINE
  5
CC
330
CB
100
AcDbEntity
  8
0
100
AcDbLine
 10
-1.0
 20
0.0
 30
0.0
 11
1.0
 21
0.0
 31
0.0
  0
ENDBLK
  5
CE
330
CB
100
AcDbEntity
  8
0
100
AcDbBlockEnd
  0
BLOCK
  5
33CE5
330
33CD0
100
AcDbEntity
  8
0
100
AcDbBlockBegin
  2
*D3
 70
     1
 10
0.0
 20
0.0
 30
0.0
  3
*D3
  1

  0
LINE
  5
34081
330
33CD0
100
AcDbEntity
  8
AM_5
 62
     3
370
    13
100
AcDbLine
 10
-0.4974560248602132
 20
20.0
 30
0.0
 11
12.50254397513979
 21
20.0
 31
0.0
  0
LINE
  5
34082
330
33CD0
100
AcDbEntity
  8
AM_5
 62
     3
370
    13
100
AcDbLine
 10
11.50254397513978
 20
17.5
 30
0.0
 11
11.50254397513978
 21
-5.491496062992129
 31
0.0
  0
INSERT
  5
34083
330
33CD0
100
AcDbEntity
  8
AM_5
 62
     3
370
    13
100
AcDbBlockReference
  2
_Open30
 10
11.50254397513978
 20
20.0
 30
0.0
 41
2.5
 42
2.5
 43
2.5
 50
90.0
  0
MTEXT
  5
34084
330
33CD0
100
AcDbEntity
  8
AM_5
 62
     2
100
AcDbMText
 10
8.102543975139782
 20
-0.0000000000000003
 30
0.0
 40
3.799999999999998
 41
0.0
 71
     5
 72
     1
  1
%%c40
 11
0.0000000000000001
 21
1.0
 31
0.0
 73
     1
 44
1.0
1001
ACAD
1000
MTEXTBEGIN
1070
    73
1070
     1
1070
    44
1040
1.0
1070
    74
1070
     0
1000
MTEXTEND
  0
POINT
  5
34085
330
33CD0
100
AcDbEntity
  8
Defpoints
 62
     0
100
AcDbPoint
 10
-0.4974560248602132
 20
-20.0
 30
0.0
  0
POINT
  5
34086
330
33CD0
100
AcDbEntity
  8
Defpoints
 62
     0
100
AcDbPoint
 10
-0.4974560248602132
 20
20.0
 30
0.0
  0
POINT
  5
34087
330
33CD0
100
AcDbEntity
  8
Defpoints
 62
     0
100
AcDbPoint
 10
11.50254397513978
 20
20.0
 30
0.0
  0
ENDBLK
  5
33CE6
330
33CD0
100
AcDbEntity
  8
0
100
AcDbBlockEnd
  0
BLOCK
  5
3402D
330
33FF8
100
AcDbEntity
  8
0
100
AcDbBlockBegin
  2
*D4
 70
     1
 10
0.0
 20
0.0
 30
0.0
  3
*D4
  1

  0
LINE
  5
34088
330
33FF8
100
AcDbEntity
  8
AM_5
 62
     3
370
    13
100
AcDbLine
 10
-59.99999999999983
 20
15.87499821604302
 30
0.0
 11
-59.99999999999983
 21
55.6934984052582
 31
0.0
  0
LINE
  5
34089
330
33FF8
100
AcDbEntity
  8
AM_5
 62
     3
370
    13
100
AcDbLine
 10
0.0
 20
17.0
 30
0.0
 11
0.0000000000000024
 21
55.6934984052582
 31
0.0
  0
LINE
  5
3408A
330
33FF8
100
AcDbEntity
  8
AM_5
 62
     3
370
    13
100
AcDbLine
 10
-57.49999999999983
 20
54.69349840525818
 30
0.0
 11
-2.499999999999996
 21
54.69349840525818
 31
0.0
  0
INSERT
  5
3408B
330
33FF8
100
AcDbEntity
  8
AM_5
 62
     3
370
    13
100
AcDbBlockReference
  2
_Open30
 10
-59.99999999999983
 20
54.69349840525818
 30
0.0
 41
2.5
 42
2.5
 43
2.5
 50
180.0
  0
INSERT
  5
3408C
330
33FF8
100
AcDbEntity
  8
AM_5
 62
     3
370
    13
100
AcDbBlockReference
  2
_Open30
 10
0.0000000000000023
 20
54.69349840525818
 30
0.0
 41
2.5
 42
2.5
 43
2.5
  0
MTEXT
  5
3408D
330
33FF8
100
AcDbEntity
  8
AM_5
 62
     2
100
AcDbMText
 10
-29.99999999999993
 20
58.09349840525818
 30
0.0
 40
3.799999999999998
 41
0.0
 71
     5
 72
     1
  1
60
 73
     1
 44
1.0
1001
ACAD
1000
MTEXTBEGIN
1070
    73
1070
     1
1070
    44
1040
1.0
1070
    74
1070
     0
1000
MTEXTEND
  0
POINT
  5
3408E
330
33FF8
100
AcDbEntity
  8
Defpoints
 62
     0
100
AcDbPoint
 10
-59.99999999999983
 20
15.87499821604302
 30
0.0
  0
POINT
  5
3408F
330
33FF8
100
AcDbEntity
  8
Defpoints
 62
     0
100
AcDbPoint
 10
0.0
 20
17.0
 30
0.0
  0
POINT
  5
34090
330
33FF8
100
AcDbEntity
  8
Defpoints
 62
     0
100
AcDbPoint
 10
0.0000000000000023
 20
54.69349840525818
 30
0.0
  0
ENDBLK
  5
3402E
330
33FF8
100
AcDbEntity
  8
0
100
AcDbBlockEnd
  0
BLOCK
  5
3402F
330
34002
100
AcDbEntity
  8
0
100
AcDbBlockBegin
  2
*D5
 70
     1
 10
0.0
 20
0.0
 30
0.0
  3
*D5
  1

  0
LINE
  5
34091
330
34002
100
AcDbEntity
  8
AM_5
 62
     3
370
    13
100
AcDbLine
 10
-57.99999999999982
 20
21.99999821604305
 30
0.0
 11
-57.99999999999982
 21
45.08752191011524
 31
0.0
  0
LINE
  5
34092
330
34002
100
AcDbEntity
  8
AM_5
 62
     3
370
    13
100
AcDbLine
 10
-37.99999999999983
 20
21.99999821604302
 30
0.0
 11
-37.99999999999983
 21
45.08752191011524
 31
0.0
  0
LINE
  5
34093
330
34002
100
AcDbEntity
  8
AM_5
 62
     3
370
    13
100
AcDbLine
 10
-55.49999999999982
 20
44.08752191011524
 30
0.0
 11
-40.49999999999982
 21
44.08752191011524
 31
0.0
  0
INSERT
  5
34094
330
34002
100
AcDbEntity
  8
AM_5
 62
     3
370
    13
100
AcDbBlockReference
  2
_Open30
 10
-57.99999999999982
 20
44.08752191011524
 30
0.0
 41
2.5
 42
2.5
 43
2.5
 50
180.0
  0
INSERT
  5
34095
330
34002
100
AcDbEntity
  8
AM_5
 62
     3
370
    13
100
AcDbBlockReference
  2
_Open30
 10
-37.99999999999983
 20
44.08752191011524
 30
0.0
 41
2.5
 42
2.5
 43
2.5
  0
MTEXT
  5
34096
330
34002
100
AcDbEntity
  8
AM_5
 62
     2
100
AcDbMText
 10
-47.99999999999982
 20
47.48789592586327
 30
0.0
 40
3.799999999999998
 41
0.0
 71
     5
 72
     1
  1
20
 73
     1
 44
1.0
1001
ACAD
1000
MTEXTBEGIN
1070
    73
1070
     1
1070
    44
1040
1.0
1070
    74
1070
     0
1000
MTEXTEND
  0
POINT
  5
34097
330
34002
100
AcDbEntity
  8
Defpoints
 62
     0
100
AcDbPoint
 10
-57.99999999999982
 20
21.99999821604305
 30
0.0
  0
POINT
  5
34098
330
34002
100
AcDbEntity
  8
Defpoints
 62
     0
100
AcDbPoint
 10
-37.99999999999983
 20
21.99999821604302
 30
0.0
  0
POINT
  5
34099
330
34002
100
AcDbEntity
  8
Defpoints
 62
     0
100
AcDbPoint
 10
-37.99999999999983
 20
44.08752191011524
 30
0.0
  0
ENDBLK
  5
34030
330
34002
100
AcDbEntity
  8
0
100
AcDbBlockEnd
  0
BLOCK
  5
3406A
330
3404B
100
AcDbEntity
  8
0
100
AcDbBlockBegin
  2
*D6
 70
     1
 10
0.0
 20
0.0
 30
0.0
  3
*D6
  1

  0
LINE
  5
3409A
330
3404B
100
AcDbEntity
  8
AM_5
 62
     3
370
    13
100
AcDbLine
 10
-37.99999999999983
 20
44.08752191011524
 30
0.0
 11
-37.99999999999983
 21
43.07628205005369
 31
0.0
  0
LINE
  5
3409B
330
3404B
100
AcDbEntity
  8
AM_5
 62
     3
370
    13
100
AcDbLine
 10
0.0000000000001421
 20
19.49980384828399
 30
0.0
 11
0.0000000000001437
 21
45.07628205005369
 31
0.0
  0
LINE
  5
3409C
330
3404B
100
AcDbEntity
  8
AM_5
 62
     3
370
    13
100
AcDbLine
 10
-35.49999999999983
 20
44.07628205005369
 30
0.0
 11
-2.499999999999856
 21
44.07628205005369
 31
0.0
  0
INSERT
  5
3409D
330
3404B
100
AcDbEntity
  8
AM_5
 62
     3
370
    13
100
AcDbBlockReference
  2
_Open30
 10
-37.99999999999983
 20
44.07628205005369
 30
0.0
 41
2.5
 42
2.5
 43
2.5
 50
180.0
  0
INSERT
  5
3409E
330
3404B
100
AcDbEntity
  8
AM_5
 62
     3
370
    13
100
AcDbBlockReference
  2
_Open30
 10
0.0000000000001436
 20
44.07628205005369
 30
0.0
 41
2.5
 42
2.5
 43
2.5
  0
MTEXT
  5
3409F
330
3404B
100
AcDbEntity
  8
AM_5
 62
     2
100
AcDbMText
 10
-18.99999999999984
 20
47.47628205005368
 30
0.0
 40
3.799999999999998
 41
0.0
 71
     5
 72
     1
  1
38
 73
     1
 44
1.0
1001
ACAD
1000
MTEXTBEGIN
1070
    73
1070
     1
1070
    44
1040
1.0
1070
    74
1070
     0
1000
MTEXTEND
  0
POINT
  5
340A0
330
3404B
100
AcDbEntity
  8
Defpoints
 62
     0
100
AcDbPoint
 10
-37.99999999999983
 20
44.08752191011524
 30
0.0
  0
POINT
  5
340A1
330
3404B
100
AcDbEntity
  8
Defpoints
 62
     0
100
AcDbPoint
 10
0.0000000000001421
 20
19.49980384828399
 30
0.0
  0
POINT
  5
340A2
330
3404B
100
AcDbEntity
  8
Defpoints
 62
     0
100
AcDbPoint
 10
0.0000000000001436
 20
44.07628205005369
 30
0.0
  0
ENDBLK
  5
3406B
330
3404B
100
AcDbEntity
  8
0
100
AcDbBlockEnd
  0
BLOCK
  5
340D6
330
340CF
100
AcDbEntity
  8
0
100
AcDbBlockBegin
  2
*S207
 70
     1
 10
0.0
 20
0.0
 30
0.0
  3
*S207
  1

  0
LINE
  5
340D0
330
340CF
100
AcDbEntity
  8
AM_5
100
AcDbLine
 10
-102.3896517428997
 20
17.59313703727116
 30
0.0
 11
-92.30717142793906
 21
17.59313703727116
 31
0.0
  0
LINE
  5
340D1
330
340CF
100
AcDbEntity
  8
AM_5
100
AcDbLine
 10
-92.30717142793906
 20
17.59313703727116
 30
0.0
 11
-89.69569376017245
 21
14.29190137026681
 31
0.0
  0
LINE
  5
340D2
330
340CF
100
AcDbEntity
  8
AM_5
100
AcDbLine
 10
-89.69569376017245
 20
14.2919013702668
 30
0.0
 11
-87.74139994334268
 21
11.82142860630017
 31
0.0
  0
LINE
  5
340D3
330
340CF
100
AcDbEntity
  8
AM_5
100
AcDbLine
 10
-90.02093766831915
 20
14.0346137094095
 30
0.0
 11
-87.74139994334268
 21
11.82142860630017
 31
0.0
  0
LINE
  5
340D4
330
340CF
100
AcDbEntity
  8
AM_5
100
AcDbLine
 10
-87.74139994334268
 20
11.82142860630017
 30
0.0
 11
-89.37044985202575
 21
14.5491890311241
 31
0.0
  0
MTEXT
  5
340D5
330
340CF
100
AcDbEntity
  8
AM_5
 62
     2
100
AcDbMText
 10
-93.88217142793905
 20
19.16813703727115
 30
0.0
 40
3.149999999999999
 41
0.0
 71
     9
 72
     5
  1
BT30
  7
ACJISTS
 73
     1
 44
1.0
1001
ACAD
1000
MTEXTBEGIN
1070
    73
1070
     1
1070
    44
1040
1.0
1070
    74
1070
     0
1000
MTEXTEND
  0
ENDBLK
  5
340D7
330
340CF
100
AcDbEntity
  8
0
100
AcDbBlockEnd
  0
ENDSEC
  0
SECTION
  2
ENTITIES
  0
POINT
  5
2828
330
1F
100
AcDbEntity
  8
AM_0
 60
     1
100
AcDbPoint
 10
0.0
 20
0.0
 30
0.0
  0
MTEXT
  5
362A
330
1F
100
AcDbEntity
  8
AM_4
 62
     2
100
AcDbMText
 10
-11.03999564202677
 20
490.2282352392369
 30
0.0
 40
3.149999999999999
 41
0.0
 71
     7
 72
     5
  1

  7
ACJISTS
 73
     1
 44
1.0
1001
ACAD
1000
MTEXTBEGIN
1070
    73
1070
     1
1070
    44
1040
1.0
1070
    74
1070
     0
1000
MTEXTEND
  0
MTEXT
  5
4552
330
1F
100
AcDbEntity
  8
AM_0
 62
     2
100
AcDbMText
 10
221.5235905312723
 20
212.2620697838378
 30
0.0
 40
3.149999999999999
 41
0.0
 71
     9
 72
     5
  1

  7
ACJISTS
 73
     1
 44
1.0
1001
ACAD
1000
MTEXTBEGIN
1070
    73
1070
     1
1070
    44
1040
1.0
1070
    74
1070
     0
1000
MTEXTEND
  0
MTEXT
  5
4558
330
1F
100
AcDbEntity
  8
AM_0
 62
     2
100
AcDbMText
 10
231.2713826525536
 20
212.1355294243498
 30
0.0
 40
3.149999999999999
 41
0.0
 71
     9
 72
     5
  1

  7
ACJISTS
 73
     1
 44
1.0
1001
ACAD
1000
MTEXTBEGIN
1070
    73
1070
     1
1070
    44
1040
1.0
1070
    74
1070
     0
1000
MTEXTEND
  0
TEXT
  5
9FD2
330
1F
100
AcDbEntity
  8
AM_0
100
AcDbText
 10
23.1874418923328
 20
203.3149950206887
 30
0.0
 40
6.0
  1

100
AcDbText
  0
TEXT
  5
1E0EC
330
1F
100
AcDbEntity
  8
AM_0
100
AcDbText
 10
366.5572736391061
 20
83.50926782869851
 30
0.0
 40
4.0
  1

 41
0.8632284874815328
100
AcDbText
  0
TEXT
  5
2D9E9
330
1F
100
AcDbEntity
  8
0
370
    -3
100
AcDbText
 10
-43.3338990535558
 20
-41.10800328174309
 30
0.0
 40
3.799999999999998
  1
SRF40R-BT30
  7
ACISOTS
100
AcDbText
  0
LINE
  5
33611
330
1F
100
AcDbEntity
  8
AM_0
100
AcDbLine
 10
-0.5938390968035776
 20
10.47500000000008
 30
0.0
 11
-8.672821053382364
 21
10.47499999999977
 31
0.0
  0
ARC
  5
33612
330
1F
100
AcDbEntity
  8
AM_0
100
AcDbCircle
 10
-8.672821053382392
 20
11.27499999999978
 30
0.0
 40
0.8
100
AcDbArc
 50
180.0
 51
270.0000000000017
1001
GENIUS_GENODEF_13
1002
{
1000
HIER
1070
     0
1002
}
1002
{
1000
MANEDIT
1070
     0
1002
}
1002
{
1000
NOSEL
1070
     0
1002
}
1002
{
1000
BEHIND
1070
     0
1002
}
1002
{
1000
OTHER
1070
     0
1002
}
1002
{
1000
REACTOR
1002
}
1001
GENIUS_GENOBJ-N-FIL_13
1002
{
1000
OWNER
1000
GEN
1002
}
  0
LINE
  5
33613
330
1F
100
AcDbEntity
  8
AM_0
100
AcDbLine
 10
-9.472821053382887
 20
12.53750000000008
 30
0.0
 11
-9.472821053382887
 21
19.15565731654811
 31
0.0
  0
LINE
  5
33616
330
1F
100
AcDbEntity
  8
AM_0
100
AcDbLine
 10
-9.472821053382403
 20
11.27499999999978
 30
0.0
 11
-9.472821053382347
 21
19.20000000000001
 31
0.0
  0
LINE
  5
33632
330
1F
100
AcDbEntity
  8
AM_0
100
AcDbLine
 10
-0.0843703133249108
 20
16.45217861744254
 30
0.0
 11
-0.0744505328282514
 21
16.44433911595342
 31
0.0
  0
LINE
  5
33633
330
1F
100
AcDbEntity
  8
AM_0
100
AcDbLine
 10
-0.0744505328283083
 20
16.44433911595342
 30
0.0
 11
-0.5938390968035776
 21
10.47500000000008
 31
0.0
  0
LINE
  5
33634
330
1F
100
AcDbEntity
  8
AM_0
100
AcDbLine
 10
-8.672821053382334
 20
20.00000000000003
 30
0.0
 11
-7.657818594335338
 21
20.0
 31
0.0
  0
ARC
  5
33635
330
1F
100
AcDbEntity
  8
AM_0
100
AcDbCircle
 10
-8.672821053382334
 20
19.20000000000001
 30
0.0
 40
0.8
100
AcDbArc
 50
90.0
 51
180.0
1001
GENIUS_GENOBJ-N-FIL_13
1002
{
1000
OWNER
1000
GEN
1002
}
1001
GENIUS_GENODEF_13
1002
{
1000
HIER
1070
     0
1002
}
1002
{
1000
MANEDIT
1070
     0
1002
}
1002
{
1000
NOSEL
1070
     0
1002
}
1002
{
1000
BEHIND
1070
     0
1002
}
1002
{
1000
OTHER
1070
     0
1002
}
1002
{
1000
REACTOR
1002
}
  0
LINE
  5
33636
330
1F
100
AcDbEntity
  8
AM_0
100
AcDbLine
 10
-7.657818594335338
 20
20.0
 30
0.0
 11
-0.4974560248602132
 21
20.0
 31
0.0
  0
LINE
  5
33637
330
1F
100
AcDbEntity
  8
AM_0
100
AcDbLine
 10
-0.4974560248602132
 20
20.0
 30
0.0
 11
0.0000000000000853
 21
19.49980384828404
 31
0.0
  0
LINE
  5
33638
330
1F
100
AcDbEntity
  8
AM_0
100
AcDbLine
 10
0.0000000000001421
 20
19.4998038482841
 30
0.0
 11
0.0000000000001421
 21
17.5
 31
0.0
  0
LINE
  5
33639
330
1F
100
AcDbEntity
  8
AM_0
100
AcDbLine
 10
0.000000000000199
 20
17.5
 30
0.0
 11
-0.0911703008685265
 21
16.45217861744254
 31
0.0
  0
DIMENSION
  5
33CCF
330
1F
100
AcDbEntity
  8
AM_5
100
AcDbDimension
  2
*D3
 10
11.50254397513978
 20
20.0
 30
0.0
 11
8.102543975139782
 21
-0.0000000000000003
 31
0.0
 70
    32
 71
     5
 42
40.0
  3
AM_JIS$0
100
AcDbAlignedDimension
 13
-0.4974560248602132
 23
-20.0
 33
0.0
 14
-0.4974560248602132
 24
20.0
 34
0.0
 50
90.0
100
AcDbRotatedDimension
1001
GENIUS_GENODEF_13
1002
{
1000
HIER
1070
     0
1002
}
1002
{
1000
MANEDIT
1070
     0
1002
}
1002
{
1000
NOSEL
1070
     0
1002
}
1002
{
1000
BEHIND
1070
     0
1002
}
1002
{
1000
OTHER
1070
     0
1002
}
1002
{
1000
REACTOR
1002
}
1001
GENIUS_GENOBJ-N-DIM_13
1002
{
1000
OWNER
1000
GEN
1002
}
1001
GENIUS_GENDIM_13
1000
4
1001
ACAD
1000
DSTYLE
1002
{
1070
     3
1000
%%c<>
1070
    75
1070
     1
1070
   271
1070
     0
1070
   272
1070
     1
1070
   281
1070
     1
1002
}
  0
DIMENSION
  5
33EC8
330
1F
100
AcDbEntity
  8
AM_5
100
AcDbDimension
  2
*D4
 10
0.0000000000000023
 20
54.69349840525818
 30
0.0
 11
-29.99999999999993
 21
58.09349840525818
 31
0.0
 70
    32
  1
<>
 71
     5
 42
59.99999999999983
  3
AM_JIS$0
100
AcDbAlignedDimension
 13
-59.99999999999983
 23
15.87499821604302
 33
0.0
 14
0.0
 24
17.0
 34
0.0
 50
180.0
100
AcDbRotatedDimension
1001
GENIUS_GENDTOL_13
1000

1000
h7
1000

1040
0.0
1001
ACAD
1000
DSTYLE
1002
{
1070
   271
1070
     0
1002
}
  0
LINE
  5
33EC9
330
1F
100
AcDbEntity
  8
AM_0
100
AcDbLine
 10
-57.99999999999982
 20
15.37499821604302
 30
0.0
 11
-59.99999999999983
 21
15.37499821604302
 31
0.0
  0
LINE
  5
33ECA
330
1F
100
AcDbEntity
  8
AM_0
100
AcDbLine
 10
-57.99999999999982
 20
-15.37499821604302
 30
0.0
 11
-59.99999999999983
 21
-15.37499821604302
 31
0.0
  0
LINE
  5
33ECB
330
1F
100
AcDbEntity
  8
AM_0
100
AcDbLine
 10
-107.3735014047624
 20
-8.95278859455135
 30
0.0
 11
-59.99999999999983
 21
-15.87499821604302
 31
0.0
  0
LINE
  5
33ECC
330
1F
100
AcDbEntity
  8
AM_0
100
AcDbLine
 10
-107.3735014047624
 20
8.95278859455135
 30
0.0
 11
-59.99999999999982
 21
15.87499821604302
 31
0.0
  0
ARC
  5
33ECD
330
1F
100
AcDbEntity
  8
AM_0
100
AcDbCircle
 10
-107.1999999999998
 20
-7.765397646907956
 30
0.0
 40
1.199999999999999
100
AcDbArc
 50
180.0
 51
261.6867805196071
  0
ARC
  5
33ECE
330
1F
100
AcDbEntity
  8
AM_0
100
AcDbCircle
 10
-107.1999999999998
 20
7.765397646907956
 30
0.0
 40
1.199999999999999
100
AcDbArc
 50
98.31321948039292
 51
180.0
  0
LINE
  5
33ECF
330
1F
100
AcDbEntity
  8
AM_0
100
AcDbLine
 10
-38.99999999999983
 20
22.99999821604302
 30
0.0
 11
-42.40011733505406
 21
22.99999821604302
 31
0.0
  0
LINE
  5
33ED0
330
1F
100
AcDbEntity
  8
AM_0
100
AcDbLine
 10
-37.99999999999983
 20
21.99999821604302
 30
0.0
 11
-38.99999999999983
 21
22.99999821604302
 31
0.0
1001
GENIUS_GENFIL_13
1070
     0
1040
1.0
1040
1.0
1040
20.0
1040
0.0
1002
{
1002
}
1001
GENIUS_GENODEF_13
1002
{
1000
HIER
1070
     0
1002
}
1002
{
1000
MANEDIT
1070
     0
1002
}
1002
{
1000
NOSEL
1070
     0
1002
}
1002
{
1000
BEHIND
1070
     0
1002
}
1002
{
1000
OTHER
1070
     0
1002
}
1002
{
1000
REACTOR
1002
}
1001
GENIUS_GENOBJ-N-CHA_13
1002
{
1000
OWNER
1000
GEN
1002
}
  0
LINE
  5
33ED1
330
1F
100
AcDbEntity
  8
AM_0
100
AcDbLine
 10
-38.99999999999983
 20
-22.99999821604301
 30
0.0
 11
-42.40011733505409
 21
-22.99999821604302
 31
0.0
  0
LINE
  5
33ED2
330
1F
100
AcDbEntity
  8
AM_0
100
AcDbLine
 10
-37.99999999999983
 20
-21.99999821604301
 30
0.0
 11
-38.99999999999983
 21
-22.99999821604301
 31
0.0
1001
GENIUS_GENFIL_13
1070
     0
1040
1.0
1040
1.0
1040
20.0
1040
0.0
1002
{
1002
}
1001
GENIUS_GENOBJ-N-CHA_13
1002
{
1000
OWNER
1000
GEN
1002
}
1001
GENIUS_GENODEF_13
1002
{
1000
HIER
1070
     0
1002
}
1002
{
1000
MANEDIT
1070
     0
1002
}
1002
{
1000
NOSEL
1070
     0
1002
}
1002
{
1000
BEHIND
1070
     0
1002
}
1002
{
1000
OTHER
1070
     0
1002
}
1002
{
1000
REACTOR
1002
}
  0
LINE
  5
33ED3
330
1F
100
AcDbEntity
  8
AM_0
100
AcDbLine
 10
-50.39988266494554
 20
22.99999821604302
 30
0.0
 11
-56.99999999999981
 21
22.99999821604306
 31
0.0
  0
LINE
  5
33ED4
330
1F
100
AcDbEntity
  8
AM_0
100
AcDbLine
 10
-48.09048158818701
 20
18.99999821604302
 30
0.0
 11
-50.39988266494554
 21
22.99999821604302
 31
0.0
  0
LINE
  5
33ED5
330
1F
100
AcDbEntity
  8
AM_0
100
AcDbLine
 10
-44.7095184118126
 20
18.99999821604302
 30
0.0
 11
-48.09048158818701
 21
18.99999821604302
 31
0.0
  0
LINE
  5
33ED6
330
1F
100
AcDbEntity
  8
AM_0
100
AcDbLine
 10
-44.7095184118126
 20
18.99999821604302
 30
0.0
 11
-42.40011733505406
 21
22.99999821604302
 31
0.0
  0
LINE
  5
33ED7
330
1F
100
AcDbEntity
  8
AM_0
100
AcDbLine
 10
-44.7095184118126
 20
-18.99999821604302
 30
0.0
 11
-42.40011733505406
 21
-22.99999821604302
 31
0.0
  0
LINE
  5
33ED8
330
1F
100
AcDbEntity
  8
AM_0
100
AcDbLine
 10
-44.7095184118126
 20
-18.99999821604302
 30
0.0
 11
-48.09048158818701
 21
-18.99999821604302
 31
0.0
  0
LINE
  5
33ED9
330
1F
100
AcDbEntity
  8
AM_0
100
AcDbLine
 10
-48.09048158818701
 20
-18.99999821604302
 30
0.0
 11
-50.39988266494554
 21
-22.99999821604302
 31
0.0
  0
LINE
  5
33EDA
330
1F
100
AcDbEntity
  8
AM_0
100
AcDbLine
 10
-50.39988266494554
 20
-22.99999821604302
 30
0.0
 11
-56.99999999999983
 21
-22.99999821604302
 31
0.0
  0
LINE
  5
33EDB
330
1F
100
AcDbEntity
  8
AM_0
100
AcDbLine
 10
-57.99999999999982
 20
-21.99999821604302
 30
0.0
 11
-56.99999999999983
 21
-22.99999821604302
 31
0.0
1001
GENIUS_GENFIL_13
1070
     0
1040
1.0
1040
1.0
1040
20.0
1040
0.0
1002
{
1002
}
1001
GENIUS_GENOBJ-N-CHA_13
1002
{
1000
OWNER
1000
GEN
1002
}
1001
GENIUS_GENODEF_13
1002
{
1000
HIER
1070
     0
1002
}
1002
{
1000
MANEDIT
1070
     0
1002
}
1002
{
1000
NOSEL
1070
     0
1002
}
1002
{
1000
BEHIND
1070
     0
1002
}
1002
{
1000
OTHER
1070
     0
1002
}
1002
{
1000
REACTOR
1002
}
  0
LINE
  5
33EDC
330
1F
100
AcDbEntity
  8
AM_0
100
AcDbLine
 10
-59.99999999999983
 20
15.87499821604302
 30
0.0
 11
-59.99999999999983
 21
-15.87499821604302
 31
0.0
  0
LINE
  5
33EDD
330
1F
100
AcDbEntity
  8
AM_0
100
AcDbLine
 10
-108.3999999999998
 20
7.765397646907956
 30
0.0
 11
-108.3999999999998
 21
-7.765397646907956
 31
0.0
  0
LINE
  5
33EDE
330
1F
100
AcDbEntity
  8
AM_0
100
AcDbLine
 10
-37.99999999999983
 20
-21.99999821604301
 30
0.0
 11
-37.99999999999983
 21
21.99999821604302
 31
0.0
  0
LINE
  5
33EDF
330
1F
100
AcDbEntity
  8
AM_0
100
AcDbLine
 10
-48.09048158818701
 20
18.99999821604302
 30
0.0
 11
-48.09048158818701
 21
7.998114898801104
 31
0.0
  0
LINE
  5
33EE0
330
1F
100
AcDbEntity
  8
AM_0
100
AcDbLine
 10
-50.39988266494554
 20
22.99999821604302
 30
0.0
 11
-50.39988266494554
 21
8.049999999999952
 31
0.0
  0
LINE
  5
33EE1
330
1F
100
AcDbEntity
  8
AM_0
100
AcDbLine
 10
-42.40011733505406
 20
22.99999821604302
 30
0.0
 11
-42.40011733505406
 21
4.571233107123333
 31
0.0
  0
LINE
  5
33EE2
330
1F
100
AcDbEntity
  8
AM_0
100
AcDbLine
 10
-44.7095184118126
 20
18.99999821604302
 30
0.0
 11
-44.7095184118126
 21
6.802134675422067
 31
0.0
  0
SPLINE
  5
33EE3
330
1F
100
AcDbEntity
  8
AM_0
100
AcDbSpline
210
0.0
220
0.0
230
1.0
 70
     8
 71
     3
 72
     8
 73
     4
 74
     0
 42
0.0000000001
 43
0.0000000001
 40
5.378444528622265
 40
5.378444528622265
 40
5.378444528622265
 40
5.378444528622265
 40
6.551473514113593
 40
6.551473514113593
 40
6.551473514113593
 40
6.551473514113593
 10
-48.99999999999983
 20
8.049999999999952
 30
0.0
 10
-48.7995419424914
 20
8.049999999999952
 30
0.0
 10
-48.59916494966252
 20
8.042447830723176
 30
0.0
 10
-48.39999999999981
 20
8.027468270071608
 30
0.0
  0
SPLINE
  5
33EE4
330
1F
100
AcDbEntity
  8
AM_0
100
AcDbSpline
210
0.0
220
0.0
230
1.0
 70
     8
 71
     3
 72
    14
 73
    10
 74
     0
 42
0.0000000001
 43
0.0000000001
 40
0.5943822016996596
 40
0.5943822016996596
 40
0.5943822016996596
 40
0.5943822016996596
 40
1.528786133927931
 40
1.528786133927931
 40
3.057572267855865
 40
3.057572267855865
 40
4.586358401783797
 40
4.586358401783797
 40
4.736269624501758
 40
4.736269624501758
 40
4.736269624501758
 40
4.736269624501758
 10
-48.39999999999981
 20
8.027468270071608
 30
0.0
 10
-48.08327133078876
 20
8.003646526744887
 30
0.0
 10
-47.76389255260453
 20
7.960549268975852
 30
0.0
 10
-46.92695067407821
 20
7.794860895580427
 30
0.0
 10
-46.41257784345011
 20
7.63873094498669
 30
0.0
 10
-45.42954460537275
 20
7.228819429560473
 30
0.0
 10
-44.95997948329704
 20
6.97471273630694
 30
0.0
 10
-44.48397603883523
 20
6.653647219313626
 30
0.0
 10
-44.44181098139501
 20
6.624612117697978
 30
0.0
 10
-44.39999999999979
 20
6.59522726878137
 30
0.0
  0
SPLINE
  5
33EE5
330
1F
100
AcDbEntity
  8
AM_0
100
AcDbSpline
210
0.0
220
0.0
230
1.0
 70
     8
 71
     3
 72
    10
 73
     6
 74
     0
 42
0.0000000001
 43
0.0000000001
 40
3.053527286905957
 40
3.053527286905957
 40
3.053527286905957
 40
3.053527286905957
 40
5.083024759829341
 40
5.083024759829341
 40
7.837300425290276
 40
7.837300425290276
 40
7.837300425290276
 40
7.837300425290276
 10
-42.40011733505409
 20
4.571233107123333
 30
0.0
 10
-42.65589874835945
 20
4.94461074010357
 30
0.0
 10
-42.9292657202852
 20
5.276348709303589
 30
0.0
 10
-43.59729469149893
 20
5.976303436676232
 30
0.0
 10
-43.99958564454499
 20
6.313815186442012
 30
0.0
 10
-44.39999999999979
 20
6.59522726878137
 30
0.0
  0
SPLINE
  5
33EE6
330
1F
100
AcDbEntity
  8
AM_0
100
AcDbSpline
210
0.0
220
0.0
230
1.0
 70
     8
 71
     3
 72
    14
 73
    10
 74
     0
 42
0.0000000001
 43
0.0000000001
 40
7.546644728492433
 40
7.546644728492433
 40
7.546644728492433
 40
7.546644728492433
 40
7.60502215634042
 40
7.60502215634042
 40
9.125666316493113
 40
9.125666316493113
 40
10.6463104766458
 40
10.6463104766458
 40
12.16695463679849
 40
12.16695463679849
 40
12.16695463679849
 40
12.16695463679849
 10
-42.40011733505409
 20
4.571233107123333
 30
0.0
 10
-42.38875787632167
 20
4.554651105489113
 30
0.0
 10
-42.37745374710562
 20
4.538015834387009
 30
0.0
 10
-42.07321254507589
 20
4.086634602899805
 30
0.0
 10
-41.81885316694326
 20
3.615857735097051
 30
0.0
 10
-41.40919939731374
 20
2.631464361202745
 30
0.0
 10
-41.253580387465
 20
2.116988478748566
 30
0.0
 10
-41.04895172858993
 20
1.079703632605742
 30
0.0
 10
-40.99999999999981
 20
0.5568801889810687
 30
0.0
 10
-40.99999999999981
 20
0.0499999999999545
 30
0.0
  0
LINE
  5
33EE7
330
1F
100
AcDbEntity
  8
AM_0
100
AcDbLine
 10
-57.99999999999982
 20
8.049999999999952
 30
0.0
 11
-50.39988266494554
 21
8.049999999999952
 31
0.0
  0
SPLINE
  5
33EE8
330
1F
100
AcDbEntity
  8
AM_0
100
AcDbSpline
210
0.0
220
0.0
230
1.0
 70
    28
 71
     2
 72
     6
 73
     3
 74
     0
 42
0.0000000001
 43
0.0000000001
 40
0.0
 40
0.0
 40
0.0
 40
2.961760875162248
 40
2.961760875162248
 40
2.961760875162248
 10
-50.39988266494554
 20
8.049999999999952
 30
0.0
 41
1.0
 10
-49.65481145599468
 20
8.049999999999952
 30
0.0
 41
1.001798682922077
 10
-48.99999999999983
 20
8.049999999999952
 30
0.0
 41
1.0
  0
SPLINE
  5
33EE9
330
1F
100
AcDbEntity
  8
AM_0
100
AcDbSpline
210
0.0
220
0.0
230
1.0
 70
     8
 71
     3
 72
    14
 73
    10
 74
     0
 42
0.0000000001
 43
0.0000000001
 40
12.16263573715615
 40
12.16263573715615
 40
12.16263573715615
 40
12.16263573715615
 40
13.68327989730884
 40
13.68327989730884
 40
15.20392405746154
 40
15.20392405746154
 40
16.72456821761423
 40
16.72456821761423
 40
16.78294564545612
 40
16.78294564545612
 40
16.78294564545612
 40
16.78294564545612
 10
-40.99999999999981
 20
-0.0500000000000682
 30
0.0
 10
-40.99999999999981
 20
-0.5568801889811823
 30
0.0
 10
-41.04895172858993
 20
-1.079703632605856
 30
0.0
 10
-41.253580387465
 20
-2.116988478748679
 30
0.0
 10
-41.40919939731374
 20
-2.631464361202857
 30
0.0
 10
-41.81885316694326
 20
-3.615857735097178
 30
0.0
 10
-42.07321254507589
 20
-4.086634602899919
 30
0.0
 10
-42.37745374710447
 20
-4.538015834385389
 30
0.0
 10
-42.38875787632286
 20
-4.554651105490947
 30
0.0
 10
-42.40011733505406
 20
-4.57123310712346
 30
0.0
  0
SPLINE
  5
33EEA
330
1F
100
AcDbEntity
  8
AM_0
100
AcDbSpline
210
0.0
220
0.0
230
1.0
 70
     8
 71
     3
 72
    10
 73
     6
 74
     0
 42
0.0000000001
 43
0.0000000001
 40
2.328749094368414
 40
2.328749094368414
 40
2.328749094368414
 40
2.328749094368414
 40
5.083024759829354
 40
5.083024759829354
 40
7.112522232752743
 40
7.112522232752743
 40
7.112522232752743
 40
7.112522232752743
 10
-44.39999999999979
 20
-6.595227268781498
 30
0.0
 10
-43.99958564454499
 20
-6.313815186442111
 30
0.0
 10
-43.59729469149893
 20
-5.97630343667636
 30
0.0
 10
-42.9292657202852
 20
-5.276348709303717
 30
0.0
 10
-42.65589874835945
 20
-4.944610740103683
 30
0.0
 10
-42.40011733505406
 20
-4.57123310712346
 30
0.0
  0
LINE
  5
33EEB
330
1F
100
AcDbEntity
  8
AM_0
100
AcDbLine
 10
-42.40011733505406
 20
-4.571233107123148
 30
0.0
 11
-42.40011733505406
 21
-22.99999821604302
 31
0.0
  0
SPLINE
  5
33EEC
330
1F
100
AcDbEntity
  8
AM_0
100
AcDbSpline
210
0.0
220
0.0
230
1.0
 70
     8
 71
     3
 72
    14
 73
    10
 74
     0
 42
0.0000000001
 43
0.0000000001
 40
19.70670651877225
 40
19.70670651877225
 40
19.70670651877225
 40
19.70670651877225
 40
19.85661774149022
 40
19.85661774149022
 40
21.38540387541815
 40
21.38540387541815
 40
22.91419000934609
 40
22.91419000934609
 40
23.84859394157648
 40
23.84859394157648
 40
23.84859394157648
 40
23.84859394157648
 10
-44.39999999999979
 20
-6.595227268781498
 30
0.0
 10
-44.44181098139501
 20
-6.624612117698077
 30
0.0
 10
-44.48397603883523
 20
-6.653647219313738
 30
0.0
 10
-44.95997948329704
 20
-6.974712736307068
 30
0.0
 10
-45.42954460537275
 20
-7.228819429560587
 30
0.0
 10
-46.41257784345011
 20
-7.638730944986789
 30
0.0
 10
-46.92695067407821
 20
-7.794860895580526
 30
0.0
 10
-47.76389255260528
 20
-7.960549268976107
 30
0.0
 10
-48.08327133078805
 20
-8.003646526768719
 30
0.0
 10
-48.39999999999981
 20
-8.027468270095411
 30
0.0
  0
SPLINE
  5
33EED
330
1F
100
AcDbEntity
  8
AM_0
100
AcDbSpline
210
0.0
220
0.0
230
1.0
 70
    28
 71
     2
 72
     6
 73
     3
 74
     0
 42
0.0000000001
 43
0.0000000001
 40
0.0
 40
0.0
 40
0.0
 40
2.961760875162248
 40
2.961760875162248
 40
2.961760875162248
 10
-48.99999999999983
 20
-8.050000000000068
 30
0.0
 41
1.0
 10
-49.65481145599248
 20
-8.049999999999922
 30
0.0
 41
1.001798682923974
 10
-50.39988266494554
 20
-8.050000000000068
 30
0.0
 41
1.0
  0
SPLINE
  5
33EEE
330
1F
100
AcDbEntity
  8
AM_0
100
AcDbSpline
210
0.0
220
0.0
230
1.0
 70
     8
 71
     3
 72
     8
 73
     4
 74
     0
 42
0.0000000001
 43
0.0000000001
 40
2.742610649322357
 40
2.742610649322357
 40
2.742610649322357
 40
2.742610649322357
 40
3.915639634813688
 40
3.915639634813688
 40
3.915639634813688
 40
3.915639634813688
 10
-48.39999999999982
 20
-8.027468270071722
 30
0.0
 10
-48.59916464878528
 20
-8.042447808093783
 30
0.0
 10
-48.79954171287643
 20
-8.050000000000068
 30
0.0
 10
-48.99999999999983
 20
-8.050000000000068
 30
0.0
  0
LINE
  5
33EEF
330
1F
100
AcDbEntity
  8
AM_0
100
AcDbLine
 10
-50.39988266494554
 20
-8.050000000000068
 30
0.0
 11
-57.99999999999982
 21
-8.050000000000068
 31
0.0
  0
LINE
  5
33EF0
330
1F
100
AcDbEntity
  8
AM_0
100
AcDbLine
 10
-50.39988266494554
 20
-8.049999999999753
 30
0.0
 11
-50.39988266494554
 21
-22.99999821604302
 31
0.0
  0
LINE
  5
33EF1
330
1F
100
AcDbEntity
  8
AM_0
100
AcDbLine
 10
-57.99999999999982
 20
21.99999821604305
 30
0.0
 11
-57.99999999999982
 21
8.049999999999952
 31
0.0
  0
LINE
  5
33EF2
330
1F
100
AcDbEntity
  8
AM_0
100
AcDbLine
 10
-56.99999999999981
 20
22.99999821604306
 30
0.0
 11
-57.99999999999982
 21
21.99999821604305
 31
0.0
1001
GENIUS_GENFIL_13
1070
     0
1040
1.0
1040
1.0
1040
20.0
1040
0.0
1002
{
1002
}
1001
GENIUS_GENODEF_13
1002
{
1000
HIER
1070
     0
1002
}
1002
{
1000
MANEDIT
1070
     0
1002
}
1002
{
1000
NOSEL
1070
     0
1002
}
1002
{
1000
BEHIND
1070
     0
1002
}
1002
{
1000
OTHER
1070
     0
1002
}
1002
{
1000
REACTOR
1002
}
1001
GENIUS_GENOBJ-N-CHA_13
1002
{
1000
OWNER
1000
GEN
1002
}
  0
LINE
  5
33EF3
330
1F
100
AcDbEntity
  8
AM_0
100
AcDbLine
 10
-57.99999999999982
 20
-8.050000000000068
 30
0.0
 11
-57.99999999999982
 21
8.049999999999952
 31
0.0
  0
LINE
  5
33EF4
330
1F
100
AcDbEntity
  8
AM_0
100
AcDbLine
 10
-57.99999999999982
 20
-8.049999999999753
 30
0.0
 11
-57.99999999999982
 21
-21.99999821604302
 31
0.0
  0
LINE
  5
33EF5
330
1F
100
AcDbEntity
  8
AM_7
100
AcDbLine
 10
2.34567769501649
 20
0.0
 30
0.0
 11
-111.377415465432
 21
0.0
 31
0.0
1001
GENIUS_GENODEF_13
1002
{
1000
HIER
1070
     0
1002
}
1002
{
1000
MANEDIT
1070
     0
1002
}
1002
{
1000
NOSEL
1070
     0
1002
}
1002
{
1000
BEHIND
1070
     0
1002
}
1002
{
1000
REACTOR
1002
}
1001
GENIUS_GENOBJ-N-CEN_13
1002
{
1000
OWNER
1000
GEN
1002
}
  0
DIMENSION
  5
33EF6
330
1F
100
AcDbEntity
  8
AM_5
100
AcDbDimension
  2
*D5
 10
-37.99999999999983
 20
44.08752191011524
 30
0.0
 11
-47.99999999999982
 21
47.48789592586327
 31
0.0
 70
    32
  1
<>
 71
     5
 42
19.99999999999998
  3
AM_JIS$0
100
AcDbAlignedDimension
 13
-57.99999999999982
 23
21.99999821604305
 33
0.0
 14
-37.99999999999983
 24
21.99999821604302
 34
0.0
 50
180.0
100
AcDbRotatedDimension
1001
GENIUS_GENDTOL_13
1000

1000
h7
1000

1040
0.0
1001
ACAD
1000
DSTYLE
1002
{
1070
   271
1070
     0
1002
}
  0
ARC
  5
33EF8
330
1F
100
AcDbEntity
  8
AM_0
100
AcDbCircle
 10
-34.9999999999998
 20
21.50000000000003
 30
0.0
 40
3.0
100
AcDbArc
 50
180.0
 51
270.0
  0
ARC
  5
33EF9
330
1F
100
AcDbEntity
  8
AM_0
100
AcDbCircle
 10
-34.9999999999998
 20
-21.50000000000003
 30
0.0
 40
3.0
100
AcDbArc
 50
90.0
 51
180.0
  0
LINE
  5
33EFB
330
1F
100
AcDbEntity
  8
AM_0
100
AcDbLine
 10
-23.00000000000006
 20
18.5
 30
0.0
 11
-34.9999999999998
 21
18.5
 31
0.0
  0
LINE
  5
33EFC
330
1F
100
AcDbEntity
  8
AM_0
100
AcDbLine
 10
-23.00000000000006
 20
-18.5
 30
0.0
 11
-34.9999999999998
 21
-18.5
 31
0.0
  0
LINE
  5
33EFD
330
1F
100
AcDbEntity
  8
AM_0
100
AcDbLine
 10
-22.05000000000001
 20
19.45000000000004
 30
0.0
 11
-23.00000000000006
 21
18.5
 31
0.0
  0
LINE
  5
33EFE
330
1F
100
AcDbEntity
  8
AM_0
100
AcDbLine
 10
-23.00000000000006
 20
-18.49999999999996
 30
0.0
 11
-22.05000000000001
 21
-19.45
 31
0.0
  0
SPLINE
  5
33F28
330
1F
100
AcDbEntity
  8
AM_0
100
AcDbSpline
210
0.0
220
0.0
230
1.0
 70
     8
 71
     3
 72
    25
 73
    21
 74
     0
 42
0.0000000001
 43
0.0000000001
 40
-4.115339271653198
 40
-4.115339271653198
 40
-4.115339271653198
 40
-4.115339271653198
 40
-3.95824266629508
 40
-3.95824266629508
 40
-3.392800392514136
 40
-3.392800392514136
 40
-2.827358118733189
 40
-2.827358118733189
 40
-2.261915844952246
 40
-2.261915844952246
 40
-1.696436883714184
 40
-1.696436883714184
 40
-1.130957922476123
 40
-1.130957922476123
 40
-0.565478961238064
 40
-0.565478961238064
 40
0.0
 40
0.0
 40
0.0
 40
0.3090837169249051
 40
0.3090837169249051
 40
0.3090837169249051
 40
0.3090837169249051
 10
-13.98824299914031
 20
19.44596723540712
 30
0.0
 10
-13.98071894314125
 20
19.44706214810941
 30
0.0
 10
-13.9716907466389
 20
19.44793522294054
 30
0.0
 10
-13.92317722645526
 20
19.45091911743083
 30
0.0
 10
-13.8652806004095
 20
19.45028753073239
 30
0.0
 10
-13.71217000216239
 20
19.44391252559967
 30
0.0
 10
-13.61683177198421
 20
19.43818359575778
 30
0.0
 10
-13.39654019036169
 20
19.42368518767603
 30
0.0
 10
-13.27157298179685
 20
19.41494377614617
 30
0.0
 10
-13.00531364519014
 20
19.39702351488563
 30
0.0
 10
-12.85490756451759
 20
19.38720801466718
 30
0.0
 10
-12.52737949915183
 20
19.36818958129936
 30
0.0
 10
-12.35026554971233
 20
19.35901598147239
 30
0.0
 10
-11.98075745649913
 20
19.34355125482887
 30
0.0
 10
-11.7880662682146
 20
19.33726822726423
 30
0.0
 10
-11.40049941692348
 20
19.32891042111345
 30
0.0
 10
-11.20562027578347
 20
19.3268428505819
 30
0.0
 10
-11.01712728870416
 20
19.3268428505819
 30
0.0
 10
-10.91409938306248
 20
19.3268428505819
 30
0.0
 10
-10.80915949993863
 20
19.32744761050571
 30
0.0
 10
-10.70354189890128
 20
19.32869164733176
 30
0.0
  0
ELLIPSE
  5
33F2C
330
1F
100
AcDbEntity
  8
AM_0
100
AcDbEllipse
 10
9.958867235113473
 20
-0.0499999999999972
 30
0.0
 11
-185.5301068573665
 21
0.0
 31
0.0
210
0.0
220
0.0
230
1.0
 40
0.1051042352656617
 41
4.817317455725908
 42
4.823990072692266
  0
LINE
  5
33F5A
330
1F
100
AcDbEntity
  8
AM_0
100
AcDbLine
 10
-1.800000000000067
 20
-19.44999999999999
 30
0.0
 11
-22.05000000000004
 21
-19.45
 31
0.0
  0
LINE
  5
33FC0
330
1F
100
AcDbEntity
  8
AM_0
100
AcDbLine
 10
-13.90518632622042
 20
19.44999999999999
 30
0.0
 11
-22.05000000000001
 21
19.45000000000004
 31
0.0
  0
INSERT
  5
33FF1
330
1F
100
AcDbEntity
  8
AM_5
100
AcDbBlockReference
  2
*S207
 10
0.0
 20
0.0
 30
0.0
  0
LINE
  5
33FF2
330
1F
100
AcDbEntity
  8
AM_0
100
AcDbLine
 10
-48.09048158818715
 20
-18.99999821604302
 30
0.0
 11
-48.09048158818707
 21
-7.998114898801119
 31
0.0
  0
LINE
  5
33FF3
330
1F
100
AcDbEntity
  8
AM_0
100
AcDbLine
 10
-44.70951841181275
 20
-18.99999821604305
 30
0.0
 11
-44.70951841181267
 21
-6.802134675422108
 31
0.0
  0
LINE
  5
33FF4
330
1F
100
AcDbEntity
  8
AM_0
100
AcDbLine
 10
-56.99999999999981
 20
22.99999821604306
 30
0.0
 11
-56.99999999999977
 21
8.049999999999966
 31
0.0
  0
LINE
  5
33FF5
330
1F
100
AcDbEntity
  8
AM_0
100
AcDbLine
 10
-56.99999999999977
 20
-8.050000000000068
 30
0.0
 11
-56.99999999999983
 21
-22.99999821604302
 31
0.0
  0
LINE
  5
33FF6
330
1F
100
AcDbEntity
  8
AM_0
100
AcDbLine
 10
-38.99999999999983
 20
22.99999821604302
 30
0.0
 11
-38.99999999999983
 21
-22.99999821604301
 31
0.0
  0
DIMENSION
  5
3404A
330
1F
100
AcDbEntity
  8
AM_5
100
AcDbDimension
  2
*D6
 10
0.0000000000001436
 20
44.07628205005369
 30
0.0
 11
-18.99999999999984
 21
47.47628205005368
 31
0.0
 70
    32
 71
     5
 42
37.99999999999997
  3
AM_JIS$0
100
AcDbAlignedDimension
 13
-37.99999999999983
 23
44.08752191011524
 33
0.0
 14
0.0000000000001421
 24
19.49980384828399
 34
0.0
100
AcDbRotatedDimension
1001
ACAD
1000
DSTYLE
1002
{
1070
   271
1070
     0
1070
   272
1070
     1
1002
}
  0
LINE
  5
340AE
330
1F
100
AcDbEntity
  8
0
  6
ACISOTGB
 62
     3
370
    13
100
AcDbLine
 10
-0.0000000000002842
 20
19.49980384828427
 30
0.0
 11
0.0
 21
-19.47259069509147
 31
0.0
  0
LINE
  5
3415F
330
1F
100
AcDbEntity
  8
AM_0
100
AcDbLine
 10
-1.300000000000067
 20
-18.94999999999999
 30
0.0
 11
-1.300000000000067
 21
10.47500000000005
 31
0.0
  0
LINE
  5
34165
330
1F
100
AcDbEntity
  8
AM_0
100
AcDbLine
 10
-1.800000000000067
 20
-19.44999999999999
 30
0.0
 11
-1.300000000000067
 21
-18.94999999999999
 31
0.0
1001
GENIUS_GENFIL_13
1070
     0
1040
0.5
1040
0.5
1040
20.0
1040
0.0
1002
{
1002
}
1001
GENIUS_GENOBJ-N-CHA_13
1002
{
1000
OWNER
1000
GEN
1002
}
1001
GENIUS_GENODEF_13
1002
{
1000
HIER
1070
     0
1002
}
1002
{
1000
MANEDIT
1070
     0
1002
}
1002
{
1000
NOSEL
1070
     0
1002
}
1002
{
1000
BEHIND
1070
     0
1002
}
1002
{
1000
OTHER
1070
     0
1002
}
1002
{
1000
REACTOR
1002
}
  0
LINE
  5
34167
330
1F
100
AcDbEntity
  8
AM_0
100
AcDbLine
 10
-0.5938390968035776
 20
-10.47500000000008
 30
0.0
 11
-1.300000000000067
 21
-10.47500000000006
 31
0.0
  0
LINE
  5
34168
330
1F
100
AcDbEntity
  8
AM_0
100
AcDbLine
 10
-0.0843703133249108
 20
-16.45217861744254
 30
0.0
 11
-0.0744505328282514
 21
-16.44433911595342
 31
0.0
  0
LINE
  5
34169
330
1F
100
AcDbEntity
  8
AM_0
  6
DASHED
 48
0.5
370
    13
100
AcDbLine
 10
-0.0744505328283083
 20
-16.44433911595342
 30
0.0
 11
-0.5938390968035776
 21
-10.47500000000008
 31
0.0
  0
LINE
  5
3416A
330
1F
100
AcDbEntity
  8
AM_0
100
AcDbLine
 10
-8.672821053382334
 20
-20.00000000000004
 30
0.0
 11
-7.657818594335338
 21
-20.00000000000001
 31
0.0
  0
ARC
  5
3416B
330
1F
100
AcDbEntity
  8
AM_0
100
AcDbCircle
 10
-8.672821053382334
 20
-19.20000000000002
 30
0.0
 40
0.8
100
AcDbArc
 50
198.2099568642814
 51
270.0
1001
GENIUS_GENOBJ-N-FIL_13
1002
{
1000
OWNER
1000
GEN
1002
}
1001
GENIUS_GENODEF_13
1002
{
1000
HIER
1070
     0
1002
}
1002
{
1000
MANEDIT
1070
     0
1002
}
1002
{
1000
NOSEL
1070
     0
1002
}
1002
{
1000
BEHIND
1070
     0
1002
}
1002
{
1000
OTHER
1070
     0
1002
}
1002
{
1000
REACTOR
1002
}
  0
LINE
  5
3416C
330
1F
100
AcDbEntity
  8
AM_0
  6
DASHED
 48
0.5
370
    13
100
AcDbLine
 10
-7.657818594335338
 20
-20.00000000000001
 30
0.0
 11
-0.4974560248602132
 21
-20.00000000000001
 31
0.0
  0
LINE
  5
3416D
330
1F
100
AcDbEntity
  8
AM_0
  6
DASHED
 48
0.5
370
    13
100
AcDbLine
 10
-0.4974560248602132
 20
-20.00000000000001
 30
0.0
 11
0.0000000000000853
 21
-19.49980384828404
 31
0.0
  0
LINE
  5
3416E
330
1F
100
AcDbEntity
  8
AM_0
  6
DASHED
 48
0.5
370
    13
100
AcDbLine
 10
0.0000000000001421
 20
-19.49980384828411
 30
0.0
 11
0.0000000000001421
 21
-17.50000000000001
 31
0.0
  0
LINE
  5
3416F
330
1F
100
AcDbEntity
  8
AM_0
100
AcDbLine
 10
0.000000000000199
 20
-17.50000000000001
 30
0.0
 11
-0.0911703008685265
 21
-16.45217861744254
 31
0.0
  0
VIEWPORT
  5
7D
102
{ACAD_XDICTIONARY
360
34187
102
}
330
1B
100
AcDbEntity
 67
     1
  8
0
100
AcDbViewport
 10
5.249999639556162
 20
3.999999883606676
 30
0.0
 40
15.37157224495366
 41
8.992999745766947
 68
     1
 69
     1
 12
5.249999639556162
 22
3.999999883606676
 13
0.0
 23
0.0
 14
10.0
 24
10.0
 15
10.0
 25
10.0
 16
0.0
 26
0.0
 36
1.0
 17
0.0
 27
0.0
 37
0.0
 42
50.0
 43
0.0
 44
0.0
 45
8.992999745766947
 50
0.0
 51
0.0
 72
   100
 90
    32800
  1

281
     0
 71
     1
 74
     0
110
0.0
120
0.0
130
0.0
111
1.0
121
0.0
131
0.0
112
0.0
122
1.0
132
0.0
 79
     0
146
0.0
1001
GENIUS_GENSCREG_15
1000
PF
1040
1.0
1000
DF
1040
1.0
1000
MIN
1011
-2.435786482920669
1021
-0.4964999892767974
1031
0.0
1000
MAX
1011
12.93578576203299
1021
8.49649975649015
1031
0.0
1000
FLAGS
1070
     4
1001
GENIUS_GENOBJ-N-SDF_13
1002
{
1000
OWNER
1000
GEN
1002
}
1001
GENIUS_GENODEF_13
1002
{
1000
HIER
1070
     0
1002
}
1002
{
1000
MANEDIT
1070
     0
1002
}
1002
{
1000
NOSEL
1070
     0
1002
}
1002
{
1000
BEHIND
1070
     0
1002
}
1002
{
1000
OTHER
1070
     0
1002
}
1002
{
1000
REACTOR
1002
}
  0
ENDSEC
  0
SECTION
  2
OBJECTS
  0
DICTIONARY
  5
C
330
0
100
AcDbDictionary
281
     1
  3
ACAD_COLOR
350
A1A6
  3
ACAD_GROUP
350
D
  3
ACAD_LAYOUT
350
1A
  3
ACAD_MATERIAL
350
A1A5
  3
ACAD_MLINESTYLE
350
17
  3
ACAD_PLOTSETTINGS
350
19
  3
ACAD_PLOTSTYLENAME
350
E
  3
ACAD_TABLESTYLE
350
A1A7
  3
ACDBHEADERROUNDTRIPXREC
350
34180
  3
AcDbVariableDictionary
350
4A
  3
AcmDictionary
350
59
  3
AMG
350
41
  3
AMGSNAPSETTINGS
350
AC
  3
ASE_INDEX_DICTIONARY
350
2B45C
  3
DWGPROPS
350
3417F
  3
FILENAME
350
C195
  3
table_dic_data
350
AC47
  3
ZWKSIZE
350
C197
  0
DICTIONARY
  5
B18B
330
2
100
AcDbDictionary
280
     1
281
     1
  3
ACAD_LAYERFILTERS
360
11EBE
  3
ACAD_LAYERSTATES
360
B18C
  3
ACLYDICTIONARY
360
11EBD
  3
AMLAYER_GROUPCOLORS
360
11EBC
  0
DICTIONARY
  5
68
330
1F
100
AcDbDictionary
280
     1
281
     1
  3
ACAD_SORTENTS
360
ADDD
  0
DICTIONARY
  5
34189
330
82
100
AcDbDictionary
280
     1
281
     1
  3
ACAD_XREC_ROUNDTRIP
360
3418A
  0
DICTIONARY
  5
34187
330
7D
100
AcDbDictionary
280
     1
281
     1
  3
ACAD_XREC_ROUNDTRIP
360
34188
  0
DICTIONARY
  5
A1A6
102
{ACAD_REACTORS
330
C
102
}
330
C
100
AcDbDictionary
281
     1
  0
DICTIONARY
  5
D
102
{ACAD_REACTORS
330
C
102
}
330
C
100
AcDbDictionary
281
     1
  0
DICTIONARY
  5
1A
102
{ACAD_REACTORS
330
C
102
}
330
C
100
AcDbDictionary
281
     1
  3
Model
350
22
  3
ﾚｲｱｳﾄ1
350
1E
  3
ﾚｲｱｳﾄ2
350
26
  0
DICTIONARY
  5
A1A5
102
{ACAD_REACTORS
330
C
102
}
330
C
100
AcDbDictionary
281
     1
  0
DICTIONARY
  5
17
102
{ACAD_REACTORS
330
C
102
}
330
C
100
AcDbDictionary
281
     1
  3
Standard
350
18
  0
DICTIONARY
  5
19
102
{ACAD_REACTORS
330
C
102
}
330
C
100
AcDbDictionary
281
     1
  0
ACDBDICTIONARYWDFLT
  5
E
102
{ACAD_REACTORS
330
C
102
}
330
C
100
AcDbDictionary
281
     1
  3
Normal
350
F
100
AcDbDictionaryWithDefault
340
F
  0
DICTIONARY
  5
A1A7
102
{ACAD_REACTORS
330
C
102
}
330
C
100
AcDbDictionary
281
     1
  3
Standard
350
A1A8
  0
DICTIONARY
  5
34180
102
{ACAD_REACTORS
330
C
102
}
330
C
100
AcDbDictionary
281
     1
  0
DICTIONARY
  5
4A
102
{ACAD_REACTORS
330
C
102
}
330
C
100
AcDbDictionary
281
     1
  3
CTABLESTYLE
350
A219
  3
DIMASSOC
350
3417C
  3
INDEXCTL
350
4B
  3
PROJECTNAME
350
3417D
  0
DICTIONARY
  5
59
102
{ACAD_REACTORS
330
C
102
}
330
C
100
AcDbDictionary
281
     1
  3
AcmStdDictionary
350
15C
  3
AMDTSECTSYM_ARROWCOLOR
350
A202
  0
DICTIONARY
  5
41
102
{ACAD_REACTORS
330
C
102
}
330
C
100
AcDbDictionary
281
     1
  0
DICTIONARY
  5
AC
102
{ACAD_REACTORS
330
C
102
}
330
C
100
AcDbDictionary
281
     1
  0
DICTIONARY
  5
2B45C
102
{ACAD_REACTORS
330
C
102
}
330
C
100
AcDbDictionary
281
     1
  3
ASEBlockHierarchyIndexRecord
350
2B45E
1001
DCO15
1040
1670590618.796
  0
XRECORD
  5
3417F
102
{ACAD_REACTORS
330
C
102
}
330
C
100
AcDbXrecord
280
     1
  1
DWGPROPS COOKIE
  2

  3

  4

  6

  7

  8

  9

300
AmdtFileType=82
301
=
302
=
303
=
304
=
305
=
306
=
307
=
308
=
309
=
 40
6.148105879629629
 41
2451865.447818009
 42
2455567.432120405
  1

 90
        1
  0
DICTIONARY
  5
C195
102
{ACAD_REACTORS
330
C
102
}
330
C
100
AcDbDictionary
281
     1
  3
FILENAME
350
C196
  0
DICTIONARY
  5
AC47
102
{ACAD_REACTORS
330
C
102
}
330
C
100
AcDbDictionary
281
     1
  3
input_data
350
AC49
  3
table_data
350
AC48
  0
DICTIONARY
  5
C197
102
{ACAD_REACTORS
330
C
102
}
330
C
100
AcDbDictionary
281
     1
  3
ZWKSIZE
350
C198
  0
DICTIONARY
  5
11EBE
102
{ACAD_REACTORS
330
B18B
102
}
330
B18B
100
AcDbDictionary
281
     1
  0
DICTIONARY
  5
B18C
102
{ACAD_REACTORS
330
B18B
102
}
330
B18B
100
AcDbDictionary
281
     1
  0
DICTIONARY
  5
11EBD
102
{ACAD_REACTORS
330
B18B
102
}
330
B18B
100
AcDbDictionary
281
     1
1001
ACAD
1000
<All
  0
DICTIONARY
  5
11EBC
102
{ACAD_REACTORS
330
B18B
102
}
330
B18B
100
AcDbDictionary
280
     1
281
     1
  0
SORTENTSTABLE
  5
ADDD
102
{ACAD_REACTORS
330
68
102
}
330
68
100
AcDbSortentsTable
330
1F
331
33EF1
  5
33EF1
331
33ED6
  5
33ED6
331
33EE7
  5
33EE7
331
33635
  5
33635
331
33613
  5
33613
331
4558
  5
2C056
331
33EFE
  5
33EFE
331
33ED4
  5
33ED4
331
33EE5
  5
33EE5
331
33ECF
  5
33ECF
331
33633
  5
33633
331
33611
  5
33611
331
33EFC
  5
33EFC
331
33EE3
  5
33EE3
331
33ED2
  5
33ED2
331
33ECD
  5
33ECD
331
33ED0
  5
33ED0
331
33EE1
  5
33EE1
331
33ECB
  5
33ECB
331
4552
  5
2C055
331
3404A
  5
3404A
331
33FF6
  5
33FF6
331
33EF8
  5
33EF8
331
33EDF
  5
33EDF
331
33EC9
  5
33EC9
331
33FF4
  5
33FF4
331
33EDD
  5
33EDD
331
33EEE
  5
33EEE
331
33CCF
  5
33CCF
331
2D9E9
  5
2D9E9
331
33FF2
  5
33FF2
331
33FC0
  5
33FC0
331
33EF6
  5
33EF6
331
33EEC
  5
33EEC
331
33EDB
  5
33EDB
331
33EF4
  5
33EF4
331
34165
  5
34165
331
33ED9
  5
33ED9
331
33638
  5
33638
331
33616
  5
33616
331
33EEA
  5
33EEA
331
362A
  5
2C054
331
33F5A
  5
33F5A
331
33EF2
  5
33EF2
331
33ED7
  5
33ED7
331
33EE8
  5
33EE8
331
33636
  5
33636
331
33EF0
  5
33EF0
331
33ED5
  5
33ED5
331
33EE6
  5
33EE6
331
33634
  5
33634
331
33612
  5
33612
331
3415F
  5
3415F
331
33EFD
  5
33EFD
331
33ED3
  5
33ED3
331
33EE4
  5
33EE4
331
33ECE
  5
33ECE
331
33632
  5
33632
331
1E0EC
  5
2C05A
331
33EFB
  5
33EFB
331
33EE2
  5
33EE2
331
33ED1
  5
33ED1
331
33ECC
  5
33ECC
331
33F2C
  5
33F2C
331
33EF9
  5
33EF9
331
33EE0
  5
33EE0
331
2828
  5
2C053
331
33ECA
  5
33ECA
331
9FD2
  5
2C057
331
33FF5
  5
33FF5
331
340AE
  5
340AE
331
33EDE
  5
33EDE
331
33EEF
  5
33EEF
331
33EC8
  5
33EC8
331
33FF3
  5
33FF3
331
33F28
  5
33F28
331
33EED
  5
33EED
331
33EDC
  5
33EDC
331
33FF1
  5
33FF1
331
33EF5
  5
33EF5
331
33EDA
  5
33EDA
331
33EEB
  5
33EEB
331
33639
  5
33639
331
33EF3
  5
33EF3
331
33ED8
  5
33ED8
331
33EE9
  5
33EE9
331
33637
  5
33637
  0
XRECORD
  5
3418A
102
{ACAD_REACTORS
330
34189
102
}
330
34189
100
AcDbXrecord
280
     1
102
SHADEPLOT
 70
     0
  0
XRECORD
  5
34188
102
{ACAD_REACTORS
330
34187
102
}
330
34187
100
AcDbXrecord
280
     1
102
SHADEPLOT
 70
     0
  0
LAYOUT
  5
22
102
{ACAD_XDICTIONARY
360
34183
102
}
102
{ACAD_REACTORS
330
1A
102
}
330
1A
100
AcDbPlotSettings
  1

  2
SII LP-1010 (C2 VR)2R
  4
A3
  6
AM_VIEW1
 40
5.78908348083496
 41
5.789072036743164
 42
5.7890625
 43
5.789093017578125
 44
296.9259948730469
 45
419.9466552734373
 46
0.0
 47
0.0
 48
0.0
 49
0.0
140
420.0
141
297.0
142
1.0
143
1.040834900816755
 70
 11952
 72
     1
 73
     1
 74
     4
  7
sei_cad.ctb
 75
     0
147
0.9607671679872456
148
0.0
149
0.0
100
AcDbLayout
  1
Model
 70
     1
 71
     0
 10
0.0
 20
0.0
 11
12.0
 21
9.0
 12
0.0
 22
0.0
 32
0.0
 14
0.0
 24
0.0
 34
0.0
 15
0.0
 25
0.0
 35
0.0
146
0.0
 13
0.0
 23
0.0
 33
0.0
 16
1.0
 26
0.0
 36
0.0
 17
0.0
 27
1.0
 37
0.0
 76
     0
330
1F
1001
ACAD_PSEXT
1000
SII LP-1010 (C2 VR)2R
1000
SII LP-1010 (C2 VR)2R
1000
9100
1000

1070
     0
  0
LAYOUT
  5
1E
102
{ACAD_XDICTIONARY
360
34181
102
}
102
{ACAD_REACTORS
330
1A
102
}
330
1A
100
AcDbPlotSettings
  1

  2
none_device
  4
Letter_(8.50_x_11.00_Inches)
  6

 40
6.349999904632567
 41
6.349999904632567
 42
6.350006103515625
 43
6.350006103515625
 44
215.8999938964844
 45
279.3999938964844
 46
0.0
 47
0.0
 48
0.0
 49
0.0
140
0.0
141
0.0
142
1.0
143
1.0
 70
   688
 72
     0
 73
     1
 74
     5
  7
sei_cad.ctb
 75
    16
147
1.0
148
0.0
149
0.0
100
AcDbLayout
  1
ﾚｲｱｳﾄ1
 70
     0
 71
     1
 10
-0.2500002402958907
 20
-0.2499999962453767
 11
10.74999951940821
 21
8.249999763458731
 12
0.0
 22
0.0
 32
0.0
 14
1.000000000000000E+20
 24
1.000000000000000E+20
 34
1.000000000000000E+20
 15
-1.000000000000000E+20
 25
-1.000000000000000E+20
 35
-1.000000000000000E+20
146
0.0
 13
0.0
 23
0.0
 33
0.0
 16
1.0
 26
0.0
 36
0.0
 17
0.0
 27
1.0
 37
0.0
 76
     0
330
1B
331
7D
  0
LAYOUT
  5
26
102
{ACAD_XDICTIONARY
360
34185
102
}
102
{ACAD_REACTORS
330
1A
102
}
330
1A
100
AcDbPlotSettings
  1

  2
none_device
  4
Letter_(8.50_x_11.00_Inches)
  6

 40
6.349999904632567
 41
6.349999904632567
 42
6.350006103515625
 43
6.350006103515625
 44
215.8999938964844
 45
279.3999938964844
 46
0.0
 47
0.0
 48
0.0
 49
0.0
140
0.0
141
0.0
142
1.0
143
1.0
 70
   688
 72
     0
 73
     1
 74
     5
  7
sei_cad.ctb
 75
    16
147
1.0
148
0.0
149
0.0
100
AcDbLayout
  1
ﾚｲｱｳﾄ2
 70
     1
 71
     2
 10
-0.2500002402958907
 20
-0.2499999962453767
 11
10.74999951940821
 21
8.249999763458731
 12
0.0
 22
0.0
 32
0.0
 14
1.000000000000000E+20
 24
1.000000000000000E+20
 34
1.000000000000000E+20
 15
-1.000000000000000E+20
 25
-1.000000000000000E+20
 35
-1.000000000000000E+20
146
0.0
 13
0.0
 23
0.0
 33
0.0
 16
1.0
 26
0.0
 36
0.0
 17
0.0
 27
1.0
 37
0.0
 76
     0
330
23
331
82
  0
MLINESTYLE
  5
18
102
{ACAD_REACTORS
330
17
102
}
330
17
100
AcDbMlineStyle
  2
STANDARD
 70
     0
  3

 62
   256
 51
90.0
 52
90.0
 71
     2
 49
0.5
 62
   256
  6
BYLAYER
 49
-0.5
 62
   256
  6
BYLAYER
  0
ACDBPLACEHOLDER
  5
F
102
{ACAD_REACTORS
330
E
102
}
330
E
  0
TABLESTYLE
  5
A1A8
102
{ACAD_REACTORS
330
A1A7
102
}
330
A1A7
100
AcDbTableStyle
  3
Standard
 70
     0
 71
     0
 40
1.5
 41
1.5
280
     0
281
     0
  7
STANDARD
140
4.5
170
     2
 62
     0
 63
     7
283
     0
274
    -2
284
     1
 64
     0
275
    -2
285
     1
 65
     0
276
    -2
286
     1
 66
     0
277
    -2
287
     1
 67
     0
278
    -2
288
     1
 68
     0
279
    -2
289
     1
 69
     0
  7
STANDARD
140
6.0
170
     5
 62
     0
 63
     7
283
     0
274
    -2
284
     1
 64
     0
275
    -2
285
     1
 65
     0
276
    -2
286
     1
 66
     0
277
    -2
287
     1
 67
     0
278
    -2
288
     1
 68
     0
279
    -2
289
     1
 69
     0
  7
STANDARD
140
4.5
170
     5
 62
     0
 63
     7
283
     0
274
    -2
284
     1
 64
     0
275
    -2
285
     1
 65
     0
276
    -2
286
     1
 66
     0
277
    -2
287
     1
 67
     0
278
    -2
288
     1
 68
     0
279
    -2
289
     1
 69
     0
  0
DICTIONARYVAR
  5
A219
102
{ACAD_REACTORS
330
4A
102
}
330
4A
100
DictionaryVariables
280
     0
  1
STANDARD
  0
DICTIONARYVAR
  5
3417C
102
{ACAD_REACTORS
330
4A
102
}
330
4A
100
DictionaryVariables
280
     0
  1
1
  0
DICTIONARYVAR
  5
4B
102
{ACAD_REACTORS
330
4A
102
}
330
4A
100
DictionaryVariables
280
     0
  1
0
  0
DICTIONARYVAR
  5
3417D
102
{ACAD_REACTORS
330
4A
102
}
330
4A
100
DictionaryVariables
280
     0
  1

  0
DICTIONARY
  5
15C
102
{ACAD_REACTORS
330
59
102
}
330
59
100
AcDbDictionary
281
     1
  0
XRECORD
  5
A202
102
{ACAD_REACTORS
330
59
102
}
330
59
100
AcDbXrecord
280
     1
 90
-1023410169
  0
XRECORD
  5
2B45E
102
{ACAD_REACTORS
330
2B45C
102
}
330
2B45C
100
AcDbXrecord
280
     1
330
0
330
0
330
0
330
0
330
0
330
0
330
0
330
0
330
0
330
0
330
0
330
0
330
0
330
0
330
0
330
0
330
0
330
0
330
0
330
0
330
0
330
0
330
0
330
0
330
0
330
0
330
0
330
0
330
0
330
0
330
0
330
0
330
0
330
0
330
0
330
0
330
0
330
0
330
0
330
0
330
0
330
0
330
0
330
0
330
0
330
0
330
0
330
0
330
0
330
0
  0
XRECORD
  5
C196
102
{ACAD_REACTORS
330
C195
102
}
330
C195
100
AcDbXrecord
280
     1
  1
24000425__00___
  0
XRECORD
  5
AC49
102
{ACAD_REACTORS
330
AC47
102
}
330
AC47
100
AcDbXrecord
280
     1
  1
1,,,,,,,,,^M^J2,,,,,,,,,^M^J3,,,,,,,,,^M^J4,,,,,,,,,^M^J5,,,,,,,,,^M^J6,,,,,,,,,^M^J7,,,,,,,,,^M^J8,,,,,,,,,^M^J9,,,,,,,,,^M^J10,,,,,,,,,^M^J11,,,,,,,,,^M^J12,,,,,,,,,^M^J13,,,,,,,,,
  0
XRECORD
  5
AC48
102
{ACAD_REACTORS
330
AC47
102
}
330
AC47
100
AcDbXrecord
280
     1
  1
13,10
  0
XRECORD
  5
C198
102
{ACAD_REACTORS
330
C197
102
}
330
C197
100
AcDbXrecord
280
     1
  1
3
  0
DICTIONARY
  5
34183
330
22
100
AcDbDictionary
280
     1
281
     1
  3
ACAD_XREC_ROUNDTRIP
360
34184
  0
DICTIONARY
  5
34181
330
1E
100
AcDbDictionary
280
     1
281
     1
  3
ACAD_XREC_ROUNDTRIP
360
34182
  0
DICTIONARY
  5
34185
330
26
100
AcDbDictionary
280
     1
281
     1
  3
ACAD_XREC_ROUNDTRIP
360
34186
  0
XRECORD
  5
34184
102
{ACAD_REACTORS
330
34183
102
}
330
34183
100
AcDbXrecord
280
     1
102
SHADEPLOT
 70
     0
102
SHADEPLOTRESLEVEL
 70
     2
102
SHADEPLOTCUSTOMDPI
 70
   300
  0
XRECORD
  5
34182
102
{ACAD_REACTORS
330
34181
102
}
330
34181
100
AcDbXrecord
280
     1
102
SHADEPLOT
 70
     0
102
SHADEPLOTRESLEVEL
 70
     2
102
SHADEPLOTCUSTOMDPI
 70
   300
  0
XRECORD
  5
34186
102
{ACAD_REACTORS
330
34185
102
}
330
34185
100
AcDbXrecord
280
     1
102
SHADEPLOT
 70
     0
102
SHADEPLOTRESLEVEL
 70
     2
102
SHADEPLOTCUSTOMDPI
 70
   300
  0
ENDSEC
  0
EOF
