  0
SECTION
  2
HEADER
  9
$ACADVER
  1
AC1018
  9
$ACADMAINTVER
 70
    39
  9
$DWGCODEPAGE
  3
ANSI_936
  9
$CUSTOMPROPERTYTAG
  1
AmdtFileType
  9
$CUSTOMPROPERTY
  1
84
  9
$INSBASE
 10
0.0
 20
0.0
 30
0.0
  9
$EXTMIN
 10
-144.9413361819581
 20
-34.3301981428931
 30
0.0
  9
$EXTMAX
 10
10.74604025622924
 20
40.41381347156991
 30
0.0
  9
$LIMMIN
 10
0.0
 20
0.0
  9
$LIMMAX
 10
420.0
 20
297.0
  9
$ORTHOMODE
 70
     1
  9
$REGENMODE
 70
     1
  9
$FILLMODE
 70
     1
  9
$QTEXTMODE
 70
     0
  9
$MIRRTEXT
 70
     1
  9
$LTSCALE
 40
1.0
  9
$ATTMODE
 70
     1
  9
$TEXTSIZE
 40
3.799999999999998
  9
$TRACEWID
 40
1.0
  9
$TEXTSTYLE
  7
ACISOTS
  9
$CLAYER
  8
AM_0
  9
$CELTYPE
  6
ByLayer
  9
$CECOLOR
 62
   256
  9
$CELTSCALE
 40
1.0
  9
$DISPSILH
 70
     0
  9
$DIMSCALE
 40
1.0
  9
$DIMASZ
 40
2.5
  9
$DIMEXO
 40
0.0
  9
$DIMDLI
 40
10.0
  9
$DIMRND
 40
0.0
  9
$DIMDLE
 40
0.0
  9
$DIMEXE
 40
1.0
  9
$DIMTP
 40
0.1
  9
$DIMTM
 40
0.1000000001
  9
$DIMTXT
 40
3.799999999999998
  9
$DIMCEN
 40
0.0
  9
$DIMTSZ
 40
0.0
  9
$DIMTOL
 70
     0
  9
$DIMLIM
 70
     0
  9
$DIMTIH
 70
     0
  9
$DIMTOH
 70
     0
  9
$DIMSE1
 70
     0
  9
$DIMSE2
 70
     0
  9
$DIMTAD
 70
     3
  9
$DIMZIN
 70
     1
  9
$DIMBLK
  1
Open30
  9
$DIMASO
 70
     1
  9
$DIMSHO
 70
     1
  9
$DIMPOST
  1

  9
$DIMAPOST
  1
"
  9
$DIMALT
 70
     0
  9
$DIMALTD
 70
     2
  9
$DIMALTF
 40
0.0393701
  9
$DIMLFAC
 40
1.0
  9
$DIMTOFL
 70
     1
  9
$DIMTVP
 40
0.0
  9
$DIMTIX
 70
     0
  9
$DIMSOXD
 70
     0
  9
$DIMSAH
 70
     0
  9
$DIMBLK1
  1

  9
$DIMBLK2
  1

  9
$DIMSTYLE
  2
AM_JIS
  9
$DIMCLRD
 70
   256
  9
$DIMCLRE
 70
   256
  9
$DIMCLRT
 70
     2
  9
$DIMTFAC
 40
0.71
  9
$DIMGAP
 40
1.5
  9
$DIMJUST
 70
     0
  9
$DIMSD1
 70
     0
  9
$DIMSD2
 70
     0
  9
$DIMTOLJ
 70
     0
  9
$DIMTZIN
 70
     8
  9
$DIMALTZ
 70
     0
  9
$DIMALTTZ
 70
     0
  9
$DIMUPT
 70
     0
  9
$DIMDEC
 70
     1
  9
$DIMTDEC
 70
     2
  9
$DIMALTU
 70
     2
  9
$DIMALTTD
 70
     2
  9
$DIMTXSTY
  7
STANDARD
  9
$DIMAUNIT
 70
     1
  9
$DIMADEC
 70
     1
  9
$DIMALTRND
 40
0.0
  9
$DIMAZIN
 70
     0
  9
$DIMDSEP
 70
    46
  9
$DIMATFIT
 70
     3
  9
$DIMFRAC
 70
     0
  9
$DIMLDRBLK
  1
Open30
  9
$DIMLUNIT
 70
     2
  9
$DIMLWD
 70
    -1
  9
$DIMLWE
 70
    -1
  9
$DIMTMOVE
 70
     0
  9
$LUNITS
 70
     2
  9
$LUPREC
 70
     2
  9
$SKETCHINC
 40
1.0
  9
$FILLETRAD
 40
0.0
  9
$AUNITS
 70
     0
  9
$AUPREC
 70
     0
  9
$MENU
  1
.
  9
$ELEVATION
 40
0.0
  9
$PELEVATION
 40
0.0
  9
$THICKNESS
 40
0.0
  9
$LIMCHECK
 70
     0
  9
$CHAMFERA
 40
0.0
  9
$CHAMFERB
 40
0.0
  9
$CHAMFERC
 40
20.0
  9
$CHAMFERD
 40
0.0
  9
$SKPOLY
 70
     0
  9
$TDCREATE
 40
2455413.706588172
  9
$TDUCREATE
 40
2455413.373254838
  9
$TDUPDATE
 40
2455540.484148762
  9
$TDUUPDATE
 40
2455540.150815429
  9
$TDINDWG
 40
0.2709919676
  9
$TDUSRTIMER
 40
0.2709919676
  9
$USRTIMER
 70
     1
  9
$ANGBASE
 50
0.0
  9
$ANGDIR
 70
     0
  9
$PDMODE
 70
     0
  9
$PDSIZE
 40
0.0
  9
$PLINEWID
 40
0.0
  9
$SPLFRAME
 70
     0
  9
$SPLINETYPE
 70
     6
  9
$SPLINESEGS
 70
     8
  9
$HANDSEED
  5
29BE
  9
$SURFTAB1
 70
     6
  9
$SURFTAB2
 70
     6
  9
$SURFTYPE
 70
     6
  9
$SURFU
 70
     6
  9
$SURFV
 70
     6
  9
$UCSBASE
  2

  9
$UCSNAME
  2

  9
$UCSORG
 10
0.0
 20
0.0
 30
0.0
  9
$UCSXDIR
 10
1.0
 20
0.0
 30
0.0
  9
$UCSYDIR
 10
0.0
 20
1.0
 30
0.0
  9
$UCSORTHOREF
  2

  9
$UCSORTHOVIEW
 70
     0
  9
$UCSORGTOP
 10
0.0
 20
0.0
 30
0.0
  9
$UCSORGBOTTOM
 10
0.0
 20
0.0
 30
0.0
  9
$UCSORGLEFT
 10
0.0
 20
0.0
 30
0.0
  9
$UCSORGRIGHT
 10
0.0
 20
0.0
 30
0.0
  9
$UCSORGFRONT
 10
0.0
 20
0.0
 30
0.0
  9
$UCSORGBACK
 10
0.0
 20
0.0
 30
0.0
  9
$PUCSBASE
  2

  9
$PUCSNAME
  2

  9
$PUCSORG
 10
0.0
 20
0.0
 30
0.0
  9
$PUCSXDIR
 10
1.0
 20
0.0
 30
0.0
  9
$PUCSYDIR
 10
0.0
 20
1.0
 30
0.0
  9
$PUCSORTHOREF
  2

  9
$PUCSORTHOVIEW
 70
     0
  9
$PUCSORGTOP
 10
0.0
 20
0.0
 30
0.0
  9
$PUCSORGBOTTOM
 10
0.0
 20
0.0
 30
0.0
  9
$PUCSORGLEFT
 10
0.0
 20
0.0
 30
0.0
  9
$PUCSORGRIGHT
 10
0.0
 20
0.0
 30
0.0
  9
$PUCSORGFRONT
 10
0.0
 20
0.0
 30
0.0
  9
$PUCSORGBACK
 10
0.0
 20
0.0
 30
0.0
  9
$USERI1
 70
     0
  9
$USERI2
 70
     0
  9
$USERI3
 70
     0
  9
$USERI4
 70
     0
  9
$USERI5
 70
     0
  9
$USERR1
 40
0.0
  9
$USERR2
 40
0.0
  9
$USERR3
 40
0.0
  9
$USERR4
 40
0.0
  9
$USERR5
 40
0.0
  9
$WORLDVIEW
 70
     1
  9
$SHADEDGE
 70
     3
  9
$SHADEDIF
 70
    70
  9
$TILEMODE
 70
     1
  9
$MAXACTVP
 70
    64
  9
$PINSBASE
 10
0.0
 20
0.0
 30
0.0
  9
$PLIMCHECK
 70
     0
  9
$PEXTMIN
 10
1.000000000000000E+20
 20
1.000000000000000E+20
 30
1.000000000000000E+20
  9
$PEXTMAX
 10
-1.000000000000000E+20
 20
-1.000000000000000E+20
 30
-1.000000000000000E+20
  9
$PLIMMIN
 10
0.0
 20
0.0
  9
$PLIMMAX
 10
420.0
 20
297.0
  9
$UNITMODE
 70
     0
  9
$VISRETAIN
 70
     1
  9
$PLINEGEN
 70
     0
  9
$PSLTSCALE
 70
     1
  9
$TREEDEPTH
 70
  3020
  9
$CMLSTYLE
  2
Standard
  9
$CMLJUST
 70
     0
  9
$CMLSCALE
 40
20.0
  9
$PROXYGRAPHICS
 70
     1
  9
$MEASUREMENT
 70
     1
  9
$CELWEIGHT
370
    -1
  9
$ENDCAPS
280
     0
  9
$JOINSTYLE
280
     0
  9
$LWDISPLAY
290
     1
  9
$INSUNITS
 70
     4
  9
$HYPERLINKBASE
  1

  9
$STYLESHEET
  1

  9
$XEDIT
290
     1
  9
$CEPSNTYPE
380
     0
  9
$PSTYLEMODE
290
     1
  9
$FINGERPRINTGUID
  2
{4EF443E9-F763-4CB6-8927-D1E34FDC1C5A}
  9
$VERSIONGUID
  2
{F0218C1E-12CC-4AD1-A3B1-8835CF1A0527}
  9
$EXTNAMES
290
     1
  9
$PSVPSCALE
 40
0.0
  9
$OLESTARTUP
290
     0
  9
$SORTENTS
280
   127
  9
$INDEXCTL
280
     0
  9
$HIDETEXT
280
     0
  9
$XCLIPFRAME
290
     0
  9
$HALOGAP
280
     0
  9
$OBSCOLOR
 70
   257
  9
$OBSLTYPE
280
     0
  9
$INTERSECTIONDISPLAY
280
     0
  9
$INTERSECTIONCOLOR
 70
   257
  9
$DIMASSOC
280
     2
  9
$PROJECTNAME
  1

  0
ENDSEC
  0
SECTION
  2
CLASSES
  0
CLASS
  1
ACDBDICTIONARYWDFLT
  2
AcDbDictionaryWithDefault
  3
ObjectDBX Classes
 90
        0
 91
        1
280
     0
281
     0
  0
CLASS
  1
ACME_DOCUMENT
  2
AcMeDbDoc
  3
AcMeServices
 90
        0
 91
        1
280
     0
281
     0
  0
CLASS
  1
AMGSETTINGSOBJ
  2
AmgSettingsObj
  3
"AcadM|Product Description: AutoCAD Mechanical 2000|Company: Autodesk"
 90
        0
 91
        2
280
     0
281
     0
  0
CLASS
  1
ACMESCOPE
  2
AcMeScope
  3
AcMeServices
 90
        0
 91
        1
280
     0
281
     0
  0
CLASS
  1
ACMECOMMANDHISTORY
  2
AcMeCommandHistory
  3
AcMeServices
 90
        0
 91
        1
280
     0
281
     0
  0
CLASS
  1
ACIMSYSVARMAN
  2
AcImSysVarManager
  3
AcMeServices
 90
        0
 91
        5
280
     0
281
     0
  0
CLASS
  1
ACIMREALSYSVAR
  2
AcImRealSysVar
  3
AcMeServices
 90
        0
 91
        1
280
     0
281
     0
  0
CLASS
  1
ACIMINTSYSVAR
  2
AcImIntSysVar
  3
AcMeServices
 90
        0
 91
       26
280
     0
281
     0
  0
CLASS
  1
ACMEDRAWINGMAN
  2
AcMeDrawingMan
  3
AcMeServices
 90
        0
 91
        1
280
     0
281
     0
  0
CLASS
  1
ACMEVIEW
  2
AcMeView
  3
AcMeServices
 90
        0
 91
        1
280
     0
281
     0
  0
CLASS
  1
ACDBENTITYCACHE
  2
AcMeEntityCache
  3
AcMeServices
 90
        0
 91
        1
280
     0
281
     0
  0
CLASS
  1
GSMANAGER
  2
AcMeGSManager
  3
AcMeServices
 90
        0
 91
        1
280
     0
281
     0
  0
CLASS
  1
AMDTINTERNALREACTOR
  2
AmdtInternalReactor
  3
AcMeServices
 90
        0
 91
        2
280
     0
281
     0
  0
CLASS
  1
ACMESTATEMGR
  2
AcMeStateMgr
  3
AcMeServices
 90
        0
 91
        1
280
     0
281
     0
  0
CLASS
  1
ACGREFMASTER
  2
AcGrefMaster
  3
AcAttribServices
 90
        0
 91
        1
280
     0
281
     0
  0
CLASS
  1
ACME_DATABASE
  2
AcMeDbDatabase
  3
AcMeServices
 90
        0
 91
        1
280
     0
281
     0
  0
CLASS
  1
ACRFINSADJUSTERMGR
  2
AcRfInsAdjusterMgr
  3
AcMeServices
 90
        0
 91
        1
280
     0
281
     0
  0
CLASS
  1
ACGREFACADMASTER
  2
AcGrefacadMaster
  3
AcGrefServices
 90
        0
 91
        1
280
     0
281
     0
  0
CLASS
  1
AMIMASTER
  2
AmiMaster
  3
AmiServices
 90
        0
 91
        1
280
     0
281
     0
  0
CLASS
  1
ACMDATADICTIONARY
  2
AcmDataDictionary
  3
"AcmSymBB|Product Description: AutoCAD Mechanical 2004 DX|Company: Autodesk"
 90
        0
 91
        1
280
     0
281
     0
  0
CLASS
  1
ACMDATAENTRYBLOCK
  2
AcmDataEntryBlock
  3
"AcmSymBB|Product Description: AutoCAD Mechanical 2004 DX|Company: Autodesk"
 90
        0
 91
        0
280
     0
281
     0
  0
CLASS
  1
ACIMSTRSYSVAR
  2
AcImStrSysVar
  3
AcMeServices
 90
        0
 91
        5
280
     0
281
     0
  0
CLASS
  1
ACMSTANDARDISO
  2
AcmStandardISO
  3
"Amdt_StdImp|Product Description: AutoCAD Mechanical 2004 DX|Company: Autodesk"
 90
        0
 91
        1
280
     0
281
     0
  0
CLASS
  1
AMGOBJPROPCFG
  2
AmgObjPropCfg
  3
"AmgLay|Product Description: AutoCAD Mechanical 2000|Company: Autodesk"
 90
        1
 91
        1
280
     0
281
     0
  0
CLASS
  1
AMDTEDGESTANDARDISO
  2
AmdtEdgeStdISO
  3
"Amdt_StdImp|Product Description: AutoCAD Mechanical 2004 DX|Company: Autodesk"
 90
        0
 91
        0
280
     0
281
     0
  0
CLASS
  1
ACMSURFSTANDARDISO
  2
AcmSurfTextStdISO
  3
"Amdt_StdImp|Product Description: AutoCAD Mechanical 2004 DX|Company: Autodesk"
 90
        0
 91
        1
280
     0
281
     0
  0
CLASS
  1
ACMFCFSTANDARDISO
  2
AcmFCFStdISO
  3
"Amdt_StdImp|Product Description: AutoCAD Mechanical 2004 DX|Company: Autodesk"
 90
        0
 91
        1
280
     0
281
     0
  0
CLASS
  1
ACMWELDSTANDARDISO
  2
AcmWeldingStdISO
  3
"Amdt_StdImp|Product Description: AutoCAD Mechanical 2004 DX|Company: Autodesk"
 90
        0
 91
        1
280
     0
281
     0
  0
CLASS
  1
ACMIDSTANDARDISO
  2
AcmIdStdISO
  3
"Amdt_StdImp|Product Description: AutoCAD Mechanical 2004 DX|Company: Autodesk"
 90
        0
 91
        1
280
     0
281
     0
  0
CLASS
  1
ACMDATUMSTANDARDISO
  2
AcmDatumStdISO
  3
"Amdt_StdImp|Product Description: AutoCAD Mechanical 2004 DX|Company: Autodesk"
 90
        0
 91
        1
280
     0
281
     0
  0
CLASS
  1
ACMBOMSTANDARDISO
  2
AcmBOMStdISO
  3
"Amdt_StdImp|Product Description: AutoCAD Mechanical 2004 DX|Company: Autodesk"
 90
        0
 91
        1
280
     0
281
     0
  0
CLASS
  1
ACMDETAILSTANDARDISO
  2
AmdtDetailSymStdISO
  3
"Amdt_StdImp|Product Description: AutoCAD Mechanical 2004 DX|Company: Autodesk"
 90
        0
 91
        1
280
     0
281
     0
  0
CLASS
  1
ACMSECTIONSTANDARDISO
  2
AmdtSectionSymStdISO
  3
"Amdt_StdImp|Product Description: AutoCAD Mechanical 2004 DX|Company: Autodesk"
 90
        0
 91
        1
280
     0
281
     0
  0
CLASS
  1
ACMCENTERLINESTANDARDISO
  2
AmdtCenterLineStdISO
  3
"Amdt_StdImp|Product Description: AutoCAD Mechanical 2004 DX|Company: Autodesk"
 90
        0
 91
        1
280
     0
281
     0
  0
CLASS
  1
ACMNOTESTANDARDISO
  2
AmdtNoteStdISO
  3
"Amdt_StdImp|Product Description: AutoCAD Mechanical 2004 DX|Company: Autodesk"
 90
        0
 91
        1
280
     0
281
     0
  0
CLASS
  1
ACAMGLAYSTD
  2
AcAmgLayStd
  3
"AcAmgLayStd|Product Description: AutoCAD Mechanical 2000|Company: Autodesk"
 90
        0
 91
        1
280
     0
281
     0
  0
CLASS
  1
ACAMGDIMSTD
  2
AcAmgDimStd
  3
"AcAmgDimStd|Product Description: AutoCAD Mechanical 2000|Company: Autodesk"
 90
        0
 91
        1
280
     0
281
     0
  0
CLASS
  1
ACAMGHOLECHARTSTDISO
  2
AcAmgHoleChartStdISO
  3
ACMSYMBB_MODULE_NAME
 90
        0
 91
        1
280
     0
281
     0
  0
CLASS
  1
ACAMGTITLESTD
  2
AcAmgTitleStd
  3
"TITLEAPP"
 90
        0
 91
        1
280
     0
281
     0
  0
CLASS
  1
LAYER_INDEX
  2
AcDbLayerIndex
  3
ObjectDBX Classes
 90
        0
 91
        0
280
     0
281
     0
  0
CLASS
  1
IDBUFFER
  2
AcDbIdBuffer
  3
ObjectDBX Classes
 90
        0
 91
        0
280
     0
281
     0
  0
CLASS
  1
DICTIONARYVAR
  2
AcDbDictionaryVar
  3
ObjectDBX Classes
 90
        0
 91
        4
280
     0
281
     0
  0
CLASS
  1
AM_DRAWING_MGR
  2
AcDmDwgMgr
  3
AcMechDwgViewMgmt
 90
        0
 91
        1
280
     0
281
     0
  0
CLASS
  1
AM_DWG_DOCUMENT
  2
AcDmDwgDocument
  3
AcMechDwgViewMgmt
 90
        0
 91
        1
280
     0
281
     0
  0
CLASS
  1
AM_DWG_SHEET
  2
AcDmSheet
  3
AcMechDwgViewMgmt
 90
        0
 91
        2
280
     0
281
     0
  0
CLASS
  1
AM_VIEWDIMPARMAP
  2
AcDmViewDimParMap
  3
AcMechDwgViewMgmt
 90
        0
 91
        2
280
     0
281
     0
  0
CLASS
  1
AM_DWGMGR_NAME
  2
AcDmDwgMgrName
  3
AcMechDwgViewMgmt
 90
        0
 91
        1
280
     0
281
     0
  0
CLASS
  1
AMDTMENUSTATEMGR
  2
AmdtMenuStateMgr
  3
McadcomServices
 90
        0
 91
        1
280
     0
281
     0
  0
CLASS
  1
AMDTMCOMMENUSTATE
  2
AmdtMcomMenuState
  3
McadcomServices
 90
        0
 91
        1
280
     0
281
     0
  0
CLASS
  1
MAPIAMMOUDLE
  2
MApiAmModule
  3
MApiAmServices
 90
        0
 91
        1
280
     0
281
     0
  0
CLASS
  1
AMDTADMENUSTATE
  2
AmdtAdMenuState
  3
DesignerServices
 90
        0
 91
        1
280
     0
281
     0
  0
CLASS
  1
ADAPPL
  2
AcAdAppl
  3
DesignerServices
 90
        0
 91
        1
280
     0
281
     0
  0
CLASS
  1
DEPMGR
  2
AcAdDepMgr
  3
DesignerServices
 90
        0
 91
        1
280
     0
281
     0
  0
CLASS
  1
PARAMMGR
  2
AcAdParamMgr
  3
DesignerServices
 90
        0
 91
        1
280
     0
281
     0
  0
CLASS
  1
PARAMSCOPE
  2
AcAdParamScope
  3
DesignerServices
 90
        0
 91
        1
280
     0
281
     0
  0
CLASS
  1
NAMEDAPPL
  2
AcAdNamedAppl
  3
DesignerServices
 90
        0
 91
        1
280
     0
281
     0
  0
CLASS
  1
AMDTDMMENUSTATE
  2
AmdtDmMenuState
  3
AcMechDwgViewMgmt
 90
        0
 91
        1
280
     0
281
     0
  0
CLASS
  1
AMDTAMMENUSTATE
  2
AmdtAmMenuState
  3
DesignerAssemblies
 90
        0
 91
        1
280
     0
281
     0
  0
CLASS
  1
ACAMPROJECT
  2
AcAmProject
  3
DesignerAssemblies
 90
        0
 91
        1
280
     0
281
     0
  0
CLASS
  1
ACAMGRCOMPDEF
  2
AcAmGrCompDef
  3
DesignerAssemblies
 90
        0
 91
        1
280
     0
281
     0
  0
CLASS
  1
ACCMCONTEXT
  2
AcCmContext
  3
DesignerAssemblies
 90
        0
 91
        1
280
     0
281
     0
  0
CLASS
  1
ACAMCOMPDEF
  2
AcAmCompDef
  3
DesignerAssemblies
 90
        0
 91
        1
280
     0
281
     0
  0
CLASS
  1
ACAMCOMPDEFMGR
  2
AcAmCompDefMgr
  3
DesignerAssemblies
 90
        0
 91
        1
280
     0
281
     0
  0
CLASS
  1
AMCONTEXTMGR
  2
AcAmContextMgr
  3
DesignerAssemblies
 90
        0
 91
        1
280
     0
281
     0
  0
CLASS
  1
ACAMCONTEXTMODELER
  2
AcAmContextModeler
  3
DesignerAssemblies
 90
        0
 91
        1
280
     0
281
     0
  0
CLASS
  1
ACMTHREADLINESTANDARDISO
  2
AmdtThreadLineStdISO
  3
"Amdt_StdImp|Product Description: AutoCAD Mechanical 2004 DX|Company: Autodesk"
 90
        0
 91
        1
280
     0
281
     0
  0
CLASS
  1
CATALOGSTATE
  2
AcAmCatalogState
  3
DesignerAssemblies
 90
        0
 91
        1
280
     0
281
     0
  0
CLASS
  1
ACAMGRCOMPDEFSET
  2
AcAmGrCompDefSet
  3
DesignerAssemblies
 90
        0
 91
        1
280
     0
281
     0
  0
CLASS
  1
AMDTBROWSERDBTAB
  2
AmdtBrowserDbTab
  3
McadcomServices
 90
        0
 91
        1
280
     0
281
     0
  0
CLASS
  1
CBROWSERAPPOBJECT
  2
CBrowserAppObject
  3
McadcomServices
 90
        0
 91
        3
280
     0
281
     0
  0
CLASS
  1
DM_PLACEHOLDER
  2
AcDmSelsetPlaceholder
  3
AcMechDwgViewMgmt
 90
        0
 91
        1
280
     0
281
     0
  0
CLASS
  1
TABLESTYLE
  2
AcDbTableStyle
  3
ObjectDBX Classes
 90
     2047
 91
        1
280
     0
281
     0
  0
CLASS
  1
VAACXREFPANELOBJECT
  2
VaAcXREFPanelObject
  3
VAAC_ADDIN
 90
        0
 91
        0
280
     0
281
     0
  0
CLASS
  1
VAACIMAGEINVENTORY
  2
VaAcImageInventory
  3
VAAC_ADDIN
 90
        0
 91
        0
280
     0
281
     0
  0
CLASS
  1
AMDTNOTETEMPLATEDB
  2
AmdtNoteTemplateDB
  3
AMDT_STDIMP_MODULE_NAME
 90
        0
 91
        5
280
     0
281
     0
  0
CLASS
  1
ACMBOM
  2
AcmBom
  3
"AcmSymBB|Product Description: AutoCAD Mechanical 2004 DX|Company: Autodesk"
 90
        0
 91
        0
280
     0
281
     0
  0
CLASS
  1
AMDTFORMULAUPDATEDISPATCHER
  2
AmdtFormulaUpdateDispatcher
  3
AcMeServices
 90
        0
 91
        0
280
     0
281
     0
  0
CLASS
  1
ACMPARTLIST
  2
AcmPartList
  3
"AcmSymBB|Product Description: AutoCAD Mechanical 2004 DX|Company: Autodesk"
 90
     1023
 91
        0
280
     0
281
     1
  0
CLASS
  1
ACAMGFILTERDAT
  2
AcAmgFilterDat
  3
"AcadM|Product Description: AutoCAD Mechanical 2000|Company: Autodesk"
 90
        0
 91
        0
280
     0
281
     0
  0
CLASS
  1
ACMSTANDARDJIS
  2
AcmStandardJIS
  3
"Amdt_StdImp|Product Description: AutoCAD Mechanical 2004 DX|Company: Autodesk"
 90
        0
 91
        0
280
     0
281
     0
  0
CLASS
  1
ACMSURFSTANDARDJIS
  2
AcmSurfTextStdJIS
  3
"Amdt_StdImp|Product Description: AutoCAD Mechanical 2004 DX|Company: Autodesk"
 90
        0
 91
        0
280
     0
281
     0
  0
CLASS
  1
ACMFCFSTANDARDJIS98
  2
AcmFCFStdJIS98
  3
"Amdt_StdImp|Product Description: AutoCAD Mechanical 2004 DX|Company: Autodesk"
 90
        0
 91
        0
280
     0
281
     0
  0
CLASS
  1
ACMWELDSTANDARDJIS
  2
AcmWeldingStdJIS
  3
"Amdt_StdImp|Product Description: AutoCAD Mechanical 2004 DX|Company: Autodesk"
 90
        0
 91
        0
280
     0
281
     0
  0
CLASS
  1
ACMIDSTANDARDJIS
  2
AcmIdStdJIS
  3
"Amdt_StdImp|Product Description: AutoCAD Mechanical 2004 DX|Company: Autodesk"
 90
        0
 91
        0
280
     0
281
     0
  0
CLASS
  1
ACMDATUMSTANDARDJIS
  2
AcmDatumStdJIS
  3
"Amdt_StdImp|Product Description: AutoCAD Mechanical 2004 DX|Company: Autodesk"
 90
        0
 91
        0
280
     0
281
     0
  0
CLASS
  1
ACMBOMSTANDARDJIS
  2
AcmBOMStdJIS
  3
"Amdt_StdImp|Product Description: AutoCAD Mechanical 2004 DX|Company: Autodesk"
 90
        0
 91
        0
280
     0
281
     0
  0
CLASS
  1
ACMDETAILSTANDARDJIS
  2
AmdtDetailSymStdJIS
  3
"Amdt_StdImp|Product Description: AutoCAD Mechanical 2004 DX|Company: Autodesk"
 90
        0
 91
        0
280
     0
281
     0
  0
CLASS
  1
ACMSECTIONSTANDARDJIS
  2
AmdtSectionSymStdJIS
  3
"Amdt_StdImp|Product Description: AutoCAD Mechanical 2004 DX|Company: Autodesk"
 90
        0
 91
        0
280
     0
281
     0
  0
CLASS
  1
ACMCENTERLINESTANDARDJIS
  2
AmdtCenterLineStdJIS
  3
"Amdt_StdImp|Product Description: AutoCAD Mechanical 2004 DX|Company: Autodesk"
 90
        0
 91
        0
280
     0
281
     0
  0
CLASS
  1
ACMTHREADLINESTANDARDJIS
  2
AmdtThreadLineStdJIS
  3
"Amdt_StdImp|Product Description: AutoCAD Mechanical 2004 DX|Company: Autodesk"
 90
        0
 91
        0
280
     0
281
     0
  0
CLASS
  1
ACMNOTESTANDARDJIS
  2
AmdtNoteStdJIS
  3
"Amdt_StdImp|Product Description: AutoCAD Mechanical 2004 DX|Company: Autodesk"
 90
        0
 91
        0
280
     0
281
     0
  0
CLASS
  1
ACAMGHOLECHARTSTDJIS
  2
AcAmgHoleChartStdJIS
  3
ACMSYMBB_MODULE_NAME
 90
        0
 91
        0
280
     0
281
     0
  0
CLASS
  1
SORTENTSTABLE
  2
AcDbSortentsTable
  3
ObjectDBX Classes
 90
        0
 91
        1
280
     0
281
     0
  0
CLASS
  1
DIMASSOC
  2
AcDbDimAssoc
  3
"AcDbDimAssoc|Product Desc:     AcDim ARX App For Dimension|Company:          Autodesk, Inc.|WEB Address:      www.autodesk.com"
 90
        0
 91
        3
280
     0
281
     0
  0
CLASS
  1
ACRFATTGENMGR
  2
AcRfAttGeneralMgr
  3
AcAttribServices
 90
        0
 91
        0
280
     0
281
     0
  0
CLASS
  1
AMDTEDGESTANDARDISO13715
  2
AmdtEdgeStdISO13715
  3
"Amdt_StdImp|Product Description: AutoCAD Mechanical 2004 DX|Company: Autodesk"
 90
        0
 91
        1
280
     0
281
     0
  0
CLASS
  1
ACMSTANDARDANSI
  2
AcmStandardANSI
  3
"Amdt_StdImp|Product Description: AutoCAD Mechanical 2004 DX|Company: Autodesk"
 90
        0
 91
        0
280
     0
281
     0
  0
CLASS
  1
ACMSURFSTANDARDANSI
  2
AcmSurfTextStdANSI
  3
"Amdt_StdImp|Product Description: AutoCAD Mechanical 2004 DX|Company: Autodesk"
 90
        0
 91
        0
280
     0
281
     0
  0
CLASS
  1
ACMFCFSTANDARDANSI
  2
AcmFCFStdANSI
  3
"Amdt_StdImp|Product Description: AutoCAD Mechanical 2004 DX|Company: Autodesk"
 90
        0
 91
        0
280
     0
281
     0
  0
CLASS
  1
ACMWELDSTANDARDANSI
  2
AcmWeldingStdANSI
  3
"Amdt_StdImp|Product Description: AutoCAD Mechanical 2004 DX|Company: Autodesk"
 90
        0
 91
        0
280
     0
281
     0
  0
CLASS
  1
ACMIDSTANDARDANSI
  2
AcmIdStdANSI
  3
"Amdt_StdImp|Product Description: AutoCAD Mechanical 2004 DX|Company: Autodesk"
 90
        0
 91
        0
280
     0
281
     0
  0
CLASS
  1
ACMDATUMSTANDARDANSI
  2
AcmDatumStdANSI
  3
"Amdt_StdImp|Product Description: AutoCAD Mechanical 2004 DX|Company: Autodesk"
 90
        0
 91
        0
280
     0
281
     0
  0
CLASS
  1
ACMBOMSTANDARDANSI
  2
AcmBOMStdANSI
  3
"Amdt_StdImp|Product Description: AutoCAD Mechanical 2004 DX|Company: Autodesk"
 90
        0
 91
        0
280
     0
281
     0
  0
CLASS
  1
ACMDETAILSTANDARDANSI
  2
AmdtDetailSymStdANSI
  3
"Amdt_StdImp|Product Description: AutoCAD Mechanical 2004 DX|Company: Autodesk"
 90
        0
 91
        0
280
     0
281
     0
  0
CLASS
  1
ACMSECTIONSTANDARDANSI
  2
AmdtSectionSymStdANSI
  3
"Amdt_StdImp|Product Description: AutoCAD Mechanical 2004 DX|Company: Autodesk"
 90
        0
 91
        0
280
     0
281
     0
  0
CLASS
  1
ACMCENTERLINESTANDARDANSI
  2
AmdtCenterLineStdANSI
  3
"Amdt_StdImp|Product Description: AutoCAD Mechanical 2004 DX|Company: Autodesk"
 90
        0
 91
        0
280
     0
281
     0
  0
CLASS
  1
ACMTHREADLINESTANDARDANSI
  2
AmdtThreadLineStdANSI
  3
"Amdt_StdImp|Product Description: AutoCAD Mechanical 2004 DX|Company: Autodesk"
 90
        0
 91
        0
280
     0
281
     0
  0
CLASS
  1
ACMNOTESTANDARDANSI
  2
AmdtNoteStdANSI
  3
"Amdt_StdImp|Product Description: AutoCAD Mechanical 2004 DX|Company: Autodesk"
 90
        0
 91
        0
280
     0
281
     0
  0
CLASS
  1
ACAMGHOLECHARTSTDANSI
  2
AcAmgHoleChartStdANSI
  3
ACMSYMBB_MODULE_NAME
 90
        0
 91
        0
280
     0
281
     0
  0
ENDSEC
  0
SECTION
  2
TABLES
  0
TABLE
  2
VPORT
  5
8
330
0
100
AcDbSymbolTable
 70
     3
  0
VPORT
  5
29BD
330
8
100
AcDbSymbolTableRecord
100
AcDbViewportTableRecord
  2
*Active
 70
     0
 10
0.0
 20
0.0
 11
1.0
 21
1.0
 12
-47.7311900268724
 22
-1.030834710539977
 13
0.0
 23
0.0
 14
2.5
 24
2.5
 15
10.0
 25
10.0
 16
0.0
 26
0.0
 36
1.0
 17
0.0
 27
0.0
 37
0.0
 40
130.3678839485227
 41
1.170160295930949
 42
50.0
 43
0.0
 44
0.0
 50
0.0
 51
0.0
 71
     0
 72
  2000
 73
     1
 74
     3
 75
     0
 76
     0
 77
     0
 78
     0
281
     0
 65
     0
110
0.0
120
0.0
130
0.0
111
1.0
121
0.0
131
0.0
112
0.0
122
1.0
132
0.0
 79
     0
146
0.0
  0
ENDTAB
  0
TABLE
  2
LTYPE
  5
5
330
0
100
AcDbSymbolTable
 70
    19
  0
LTYPE
  5
14
330
5
100
AcDbSymbolTableRecord
100
AcDbLinetypeTableRecord
  2
ByBlock
 70
     0
  3

 72
    65
 73
     0
 40
0.0
  0
LTYPE
  5
15
330
5
100
AcDbSymbolTableRecord
100
AcDbLinetypeTableRecord
  2
ByLayer
 70
     0
  3

 72
    65
 73
     0
 40
0.0
  0
LTYPE
  5
16
330
5
100
AcDbSymbolTableRecord
100
AcDbLinetypeTableRecord
  2
Continuous
 70
     0
  3
Solid line
 72
    65
 73
     0
 40
0.0
  0
LTYPE
  5
64
330
5
100
AcDbSymbolTableRecord
100
AcDbLinetypeTableRecord
  2
AM_ISO02W050
 70
     0
  3
__ __ __ __ __ __ __ __ __ __ __ __ __ __ __
 72
    65
 73
     2
 40
7.5
 49
6.0
 74
     0
 49
-1.5
 74
     0
  0
LTYPE
  5
65
330
5
100
AcDbSymbolTableRecord
100
AcDbLinetypeTableRecord
  2
AM_ISO08W050
 70
     0
  3
____ . ____ . ____ . ____ . ____ . ____ . ____
 72
    65
 73
     4
 40
18.0
 49
12.0
 74
     0
 49
-1.5
 74
     0
 49
3.0
 74
     0
 49
-1.5
 74
     0
  0
LTYPE
  5
66
330
5
100
AcDbSymbolTableRecord
100
AcDbLinetypeTableRecord
  2
AM_ISO09W050
 70
     0
  3
_____ . . _____ . . _____ . . ____ .. ____
 72
    65
 73
     6
 40
22.5
 49
12.0
 74
     0
 49
-1.5
 74
     0
 49
3.0
 74
     0
 49
-1.5
 74
     0
 49
3.0
 74
     0
 49
-1.5
 74
     0
  0
LTYPE
  5
67
330
5
100
AcDbSymbolTableRecord
100
AcDbLinetypeTableRecord
  2
Amconstr
 70
     0
  3
_______________________
 72
    65
 73
     2
 40
9999.0
 49
9999.0
 74
     0
 49
0.0
 74
     0
  0
LTYPE
  5
68
330
5
100
AcDbSymbolTableRecord
100
AcDbLinetypeTableRecord
  2
AM_ISO08W050x2
 70
     0
  3
__ . __ . __ . __ . __ . __
 72
    65
 73
     4
 40
9.0
 49
6.0
 74
     0
 49
-0.75
 74
     0
 49
1.5
 74
     0
 49
-0.75
 74
     0
  0
LTYPE
  5
69
330
5
100
AcDbSymbolTableRecord
100
AcDbLinetypeTableRecord
  2
AM_ISO02W050x2
 70
     0
  3
 _ _ _ _ _ _ _ _ _ _ _ _
 72
    65
 73
     2
 40
3.75
 49
3.0
 74
     0
 49
-0.75
 74
     0
  0
LTYPE
  5
6C
330
5
100
AcDbSymbolTableRecord
100
AcDbLinetypeTableRecord
  2
Amzigzag
 70
     0
  3
/\/-/\/-/\/-/\/-/\/-/\/
 72
    65
 73
     2
 40
11.0001
 49
0.0001
 74
     4
 75
   135
340
6B
 46
0.04
 50
0.0
 44
0.0
 45
0.0
 49
-11.0
 74
     0
  0
LTYPE
  5
7A
330
5
100
AcDbSymbolTableRecord
100
AcDbLinetypeTableRecord
  2
ACISOWELD
 70
     0
  3
_ _ _ _ _
 72
    65
 73
     2
 40
2.0
 49
2.0
 74
     0
 49
-1.0
 74
     0
  0
LTYPE
  5
7B
330
5
100
AcDbSymbolTableRecord
100
AcDbLinetypeTableRecord
  2
ACISOTGB
 70
     0
  3
__ . . __ . .
 72
    65
 73
     6
 40
9.0
 49
4.0
 74
     0
 49
-1.0
 74
     0
 49
1.0
 74
     0
 49
-1.0
 74
     0
 49
1.0
 74
     0
 49
-1.0
 74
     0
  0
LTYPE
  5
7C
330
5
100
AcDbSymbolTableRecord
100
AcDbLinetypeTableRecord
  2
ACISOTGL
 70
     0
  3
_ _ _ _ _
 72
    65
 73
     2
 40
3.0
 49
2.0
 74
     0
 49
-1.0
 74
     0
  0
LTYPE
  5
7E
330
5
100
AcDbSymbolTableRecord
100
AcDbLinetypeTableRecord
  2
CENTER
 70
     0
  3
__ . __
 72
    65
 73
     4
 40
7.0
 49
4.0
 74
     0
 49
-1.0
 74
     0
 49
1.0
 74
     0
 49
-1.0
 74
     0
  0
LTYPE
  5
D8
330
5
100
AcDbSymbolTableRecord
100
AcDbLinetypeTableRecord
  2
HIDDEN
 70
     0
  3
Hidden __ __ __ __ __ __ __ __ __ __ __ __ __ _
 72
    65
 73
     2
 40
9.524999999999996
 49
6.349999999999997
 74
     0
 49
-3.174999999999998
 74
     0
  0
LTYPE
  5
D9
330
5
100
AcDbSymbolTableRecord
100
AcDbLinetypeTableRecord
  2
PHANTOM2
 70
     0
  3
Phantom (.5x) ___ _ _ ___ _ _ ___ _ _ ___ _ _
 72
    65
 73
     6
 40
31.75
 49
15.875
 74
     0
 49
-3.174999999999998
 74
     0
 49
3.174999999999998
 74
     0
 49
-3.174999999999998
 74
     0
 49
3.174999999999998
 74
     0
 49
-3.174999999999998
 74
     0
  0
LTYPE
  5
DF4
330
5
100
AcDbSymbolTableRecord
100
AcDbLinetypeTableRecord
  2
CENTER2
 70
     0
  3
Center (.5x) ___ _ ___ _ ___ _ ___ _ ___ _ ___
 72
    65
 73
     4
 40
1.125
 49
0.75
 74
     0
 49
-0.125
 74
     0
 49
0.125
 74
     0
 49
-0.125
 74
     0
  0
LTYPE
  5
DF5
330
5
100
AcDbSymbolTableRecord
100
AcDbLinetypeTableRecord
  2
HIDDEN2
 70
     0
  3
Hidden (.5x) _ _ _ _ _ _ _ _ _ _ _ _ _ _ _ _ _
 72
    65
 73
     2
 40
0.1875
 49
0.125
 74
     0
 49
-0.0625
 74
     0
  0
LTYPE
  5
DF6
330
5
100
AcDbSymbolTableRecord
100
AcDbLinetypeTableRecord
  2
Amzigzag2
 70
     0
  3
/\/-/\/-/\/-/\/-/\/-/\/
 72
    65
 73
     2
 40
0.4401
 49
0.0001
 74
     4
 75
   135
340
6B
 46
0.0016
 50
0.0
 44
0.0
 45
0.0
 49
-0.4400000000000002
 74
     0
  0
LTYPE
  5
DF7
330
5
100
AcDbSymbolTableRecord
100
AcDbLinetypeTableRecord
  2
ACANSTGB
 70
     0
  3
__ . . __ . .
 72
    65
 73
     6
 40
0.35433070866
 49
0.15748031496
 74
     0
 49
-0.03937007874
 74
     0
 49
0.03937007874
 74
     0
 49
-0.03937007874
 74
     0
 49
0.03937007874
 74
     0
 49
-0.03937007874
 74
     0
  0
LTYPE
  5
DF8
330
5
100
AcDbSymbolTableRecord
100
AcDbLinetypeTableRecord
  2
ACANSTGL
 70
     0
  3
_ _ _ _ _
 72
    65
 73
     2
 40
0.11811023622
 49
0.07874015748
 74
     0
 49
-0.03937007874
 74
     0
  0
ENDTAB
  0
TABLE
  2
LAYER
  5
2
102
{ACAD_XDICTIONARY
360
34B
102
}
330
0
100
AcDbSymbolTable
 70
    10
  0
LAYER
  5
10
330
2
100
AcDbSymbolTableRecord
100
AcDbLayerTableRecord
  2
0
 70
     0
 62
     7
  6
Continuous
370
    -3
390
F
  0
LAYER
  5
34A
330
2
100
AcDbSymbolTableRecord
100
AcDbLayerTableRecord
  2
AM_0
 70
     0
 62
     7
  6
Continuous
370
    30
390
F
  0
LAYER
  5
72C
330
2
100
AcDbSymbolTableRecord
100
AcDbLayerTableRecord
  2
AM_7
 70
     0
 62
     4
  6
AM_ISO08W050
370
    13
390
F
  0
LAYER
  5
733
330
2
100
AcDbSymbolTableRecord
100
AcDbLayerTableRecord
  2
AM_5
 70
     0
 62
     3
  6
Continuous
370
    13
390
F
  0
LAYER
  5
78B
330
2
100
AcDbSymbolTableRecord
100
AcDbLayerTableRecord
  2
Defpoints
 70
     0
 62
     7
  6
Continuous
290
     0
370
    -3
390
F
  0
LAYER
  5
91E
330
2
100
AcDbSymbolTableRecord
100
AcDbLayerTableRecord
  2
AM_11
 70
     0
 62
     3
  6
AM_ISO09W050
370
    13
390
F
  0
LAYER
  5
9EB
330
2
100
AcDbSymbolTableRecord
100
AcDbLayerTableRecord
  2
AM_6
 70
     0
 62
     2
  6
Continuous
370
    30
390
F
  0
LAYER
  5
DF9
330
2
100
AcDbSymbolTableRecord
100
AcDbLayerTableRecord
  2
1
 70
     0
 62
     7
  6
Continuous
370
    -3
390
F
  0
LAYER
  5
105F
330
2
100
AcDbSymbolTableRecord
100
AcDbLayerTableRecord
  2
AM_CL
 70
     0
 62
     1
  6
Amconstr
370
    25
390
F
  0
LAYER
  5
1948
330
2
100
AcDbSymbolTableRecord
100
AcDbLayerTableRecord
  2
AM_3
 70
     0
 62
     6
  6
AM_ISO02W050
370
    25
390
F
  0
ENDTAB
  0
TABLE
  2
STYLE
  5
3
330
0
100
AcDbSymbolTable
 70
     6
  0
STYLE
  5
11
330
3
100
AcDbSymbolTableRecord
100
AcDbTextStyleTableRecord
  2
STANDARD
 70
     0
 40
0.0
 41
1.0
 50
0.0
 71
     0
 42
3.799999999999998
  3
ISOCP.SHX
  4
EXTFONT.SHX
  0
STYLE
  5
6B
330
3
100
AcDbSymbolTableRecord
100
AcDbTextStyleTableRecord
  2

 70
     1
 40
0.0
 41
1.0
 50
0.0
 71
     0
 42
2.5
  3
ltypeshp.shx
  4

  0
STYLE
  5
6D
330
3
100
AcDbSymbolTableRecord
100
AcDbTextStyleTableRecord
  2
ACISOTS
 70
     0
 40
0.0
 41
1.0
 50
0.0
 71
     0
 42
3.799999999999998
  3
isocp.shx
  4
extfont.shx
  0
STYLE
  5
79
330
3
100
AcDbSymbolTableRecord
100
AcDbTextStyleTableRecord
  2
ACISOGDT
 70
     0
 40
0.0
 41
1.0
 50
0.0
 71
     0
 42
2.5
  3
amgdt.shx
  4
extfont.shx
  0
STYLE
  5
DFA
330
3
100
AcDbSymbolTableRecord
100
AcDbTextStyleTableRecord
  2
ACANSTS
 70
     0
 40
1.0
 41
1.0
 50
0.0
 71
     0
 42
2.5
  3
romans.shx
  4
gbcbig.shx
  0
STYLE
  5
DFB
330
3
100
AcDbSymbolTableRecord
100
AcDbTextStyleTableRecord
  2
ACANSGDT
 70
     0
 40
0.0
 41
1.0
 50
0.0
 71
     0
 42
2.5
  3
amgdtans.shx
  4

  0
ENDTAB
  0
TABLE
  2
VIEW
  5
6
330
0
100
AcDbSymbolTable
 70
     0
  0
ENDTAB
  0
TABLE
  2
UCS
  5
7
330
0
100
AcDbSymbolTable
 70
     0
  0
ENDTAB
  0
TABLE
  2
APPID
  5
9
330
0
100
AcDbSymbolTable
 70
    15
  0
APPID
  5
12
330
9
100
AcDbSymbolTableRecord
100
AcDbRegAppTableRecord
  2
ACAD
 70
     0
  0
APPID
  5
46
330
9
100
AcDbSymbolTableRecord
100
AcDbRegAppTableRecord
  2
MCAD_NO_VIS
 70
     0
  0
APPID
  5
47
330
9
100
AcDbSymbolTableRecord
100
AcDbRegAppTableRecord
  2
ACAD_TEMP_GRAPHIC
 70
     0
  0
APPID
  5
58
330
9
100
AcDbSymbolTableRecord
100
AcDbRegAppTableRecord
  2
ACATTRIBSERVICES
 70
     0
  0
APPID
  5
EE
330
9
100
AcDbSymbolTableRecord
100
AcDbRegAppTableRecord
  2
AD_DRAW
 70
     0
  0
APPID
  5
10C
330
9
100
AcDbSymbolTableRecord
100
AcDbRegAppTableRecord
  2
DESIGNERASSEMBLIES
 70
     0
  0
APPID
  5
111
330
9
100
AcDbSymbolTableRecord
100
AcDbRegAppTableRecord
  2
ACADM_DIM_EDIT
 70
     0
  0
APPID
  5
112
330
9
100
AcDbSymbolTableRecord
100
AcDbRegAppTableRecord
  2
AMDT_DM_ADJ
 70
     0
  0
APPID
  5
243
330
9
100
AcDbSymbolTableRecord
100
AcDbRegAppTableRecord
  2
ACAD_DSTYLE_DIMTEXT_FILL
 70
     0
  0
APPID
  5
3AC
330
9
100
AcDbSymbolTableRecord
100
AcDbRegAppTableRecord
  2
ACAD_PSEXT
 70
     0
  0
APPID
  5
634
330
9
100
AcDbSymbolTableRecord
100
AcDbRegAppTableRecord
  2
GENIUS_GENODEF_13
 70
     0
  0
APPID
  5
635
330
9
100
AcDbSymbolTableRecord
100
AcDbRegAppTableRecord
  2
GENIUS_GENOBJ-N-FIL_13
 70
     0
  0
APPID
  5
72E
330
9
100
AcDbSymbolTableRecord
100
AcDbRegAppTableRecord
  2
GENIUS_GENOBJ-N-CEN_13
 70
     0
  0
APPID
  5
72F
330
9
100
AcDbSymbolTableRecord
100
AcDbRegAppTableRecord
  2
GENIUS_GENCEN_19
 70
     0
  0
APPID
  5
11FC
330
9
100
AcDbSymbolTableRecord
100
AcDbRegAppTableRecord
  2
GENIUS_GENDTOL_13
 70
     0
  0
ENDTAB
  0
TABLE
  2
DIMSTYLE
  5
A
330
0
100
AcDbSymbolTable
 70
    16
100
AcDbDimStyleTable
 71
     2
340
216
340
81
  0
DIMSTYLE
105
81
330
A
100
AcDbSymbolTableRecord
100
AcDbDimStyleTableRecord
  2
AM_ISO
 70
     0
  4
"
 41
2.5
 42
1.0
 43
10.0
 44
1.0
 47
0.1
 48
0.1
 73
     0
 74
     0
 77
     1
 78
     8
 79
     2
140
3.5
141
0.0
143
0.0393701
146
0.71
147
1.5
172
     1
176
   256
177
   256
178
     2
271
     2
272
     3
274
     4
283
     0
284
     8
340
11
371
    -1
372
    -1
  0
DIMSTYLE
105
82
330
A
100
AcDbSymbolTableRecord
100
AcDbDimStyleTableRecord
  2
AM_ISO$3
 70
     0
  4
"
 41
2.5
 42
1.0
 43
10.0
 44
1.0
 47
0.1
 48
0.1
 73
     0
 77
     1
 78
     8
 79
     2
140
3.5
141
0.0
143
0.0393701
146
0.71
147
1.5
176
   256
177
   256
178
     2
271
     2
272
     3
274
     4
283
     0
284
     8
288
     1
289
     0
340
11
371
    -1
372
    -1
  0
DIMSTYLE
105
83
330
A
100
AcDbSymbolTableRecord
100
AcDbDimStyleTableRecord
  2
AM_ISO$4
 70
     0
  4
"
 41
2.5
 42
1.0
 43
10.0
 44
1.0
 47
0.1
 48
0.1
 73
     0
 77
     1
 78
     8
 79
     2
140
3.5
141
0.0
143
0.0393701
146
0.71
147
1.5
176
   256
177
   256
178
     2
271
     2
272
     3
274
     4
283
     0
284
     8
288
     1
289
     0
340
11
371
    -1
372
    -1
  0
DIMSTYLE
105
84
330
A
100
AcDbSymbolTableRecord
100
AcDbDimStyleTableRecord
  2
AM_ISO$6
 70
     0
  4
"
 41
2.5
 42
1.0
 43
10.0
 44
1.0
 47
0.1
 48
0.1
 73
     0
 74
     0
 78
     8
 79
     2
140
3.5
141
0.0
143
0.0393701
146
0.71
147
1.5
172
     1
176
   256
177
   256
178
     2
271
     2
272
     3
274
     4
283
     0
284
     8
340
11
371
    -1
372
    -1
  0
DIMSTYLE
105
85
330
A
100
AcDbSymbolTableRecord
100
AcDbDimStyleTableRecord
  2
AM_ISO$7
 70
     0
  4
"
 41
2.5
 42
1.0
 43
10.0
 44
1.0
 47
0.1
 48
0.1
 73
     0
 74
     0
 77
     1
 78
     8
 79
     2
140
5.0
141
0.0
143
0.0393701
146
0.71
147
1.5
172
     1
176
   256
177
   256
178
     2
271
     2
272
     3
274
     4
283
     0
284
     8
340
11
371
    -1
372
    -1
  0
DIMSTYLE
105
86
330
A
100
AcDbSymbolTableRecord
100
AcDbDimStyleTableRecord
  2
AM_ISO$SF
 70
     0
  4
"
 41
2.5
 42
1.0
 43
10.0
 44
1.0
 47
0.1
 48
0.1
 73
     0
 74
     0
 75
     1
 76
     1
 77
     1
 78
     8
 79
     2
140
3.5
141
0.0
143
0.0393701
146
0.71
147
1.5
172
     1
176
   256
177
   256
178
     2
271
     2
272
     3
274
     4
283
     0
284
     8
340
11
371
    -1
372
    -1
  0
DIMSTYLE
105
8B
330
A
100
AcDbSymbolTableRecord
100
AcDbDimStyleTableRecord
  2
AM_ISO$SH
 70
     0
  4
"
 41
2.5
 42
1.0
 43
10.0
 44
1.0
 47
0.1
 48
0.1
 73
     0
 74
     0
 75
     1
 76
     1
 77
     1
 78
     8
 79
     2
140
3.5
141
0.0
143
0.0393701
144
2.0
146
0.71
147
1.5
172
     1
173
     1
176
   256
177
   256
178
     2
271
     2
272
     3
274
     4
283
     0
284
     8
340
11
343
87
371
    -1
372
    -1
  0
DIMSTYLE
105
216
330
A
100
AcDbSymbolTableRecord
100
AcDbDimStyleTableRecord
  2
AM_JIS
 70
     0
  4
"
 41
2.5
 42
0.0
 43
10.0
 44
1.0
 47
0.1
 48
0.1000000001
 73
     0
 74
     0
 77
     3
 78
     1
140
3.799999999999998
141
0.0
143
0.0393701
146
0.71
147
1.5
172
     1
176
   256
177
   256
178
     2
179
     1
271
     2
272
     2
275
     1
283
     0
284
     8
340
11
341
217
342
217
371
    -1
372
    -1
  0
DIMSTYLE
105
633
102
{ACAD_REACTORS
330
2425
330
2461
330
248D
330
24C0
330
24F3
330
2526
330
256D
102
}
330
A
100
AcDbSymbolTableRecord
100
AcDbDimStyleTableRecord
  2
AM_JIS$0
 70
     0
  4
"
 41
2.5
 42
0.1
 43
8.0
 44
0.5
 47
0.1
 48
0.1
 73
     0
 74
     0
 77
     3
 78
     1
 79
     2
140
3.399999999999999
141
0.0
143
0.0393701
146
0.71
147
0.9999999999999996
172
     1
176
     3
177
     3
178
     2
179
     1
271
     2
272
     2
275
     1
283
     0
284
     1
340
11
341
217
342
217
371
    -1
372
    -1
  0
DIMSTYLE
105
DFC
330
A
100
AcDbSymbolTableRecord
100
AcDbDimStyleTableRecord
  2
STANDARD
 70
     0
340
11
  0
DIMSTYLE
105
DFD
330
A
100
AcDbSymbolTableRecord
100
AcDbDimStyleTableRecord
  2
AM_ANSI
 70
     0
  4
mm
 41
0.1
 42
0.05
 43
0.5
 44
0.1
 47
0.1
 48
0.1
 78
     7
 79
     2
140
0.12
141
0.0
146
0.71
147
0.06
176
   256
177
   256
178
     2
274
     4
284
     7
340
11
371
    -1
372
    -1
  0
DIMSTYLE
105
DFE
330
A
100
AcDbSymbolTableRecord
100
AcDbDimStyleTableRecord
  2
AM_ANSI$3
 70
     0
  4
mm
 41
0.1
 42
0.05
 43
0.5
 44
0.1
 47
0.1
 48
0.1
 78
     7
 79
     2
140
0.12
141
0.0
146
0.71
147
0.06
176
   256
177
   256
178
     2
274
     4
284
     7
288
     1
289
     0
340
11
371
    -1
372
    -1
  0
DIMSTYLE
105
DFF
330
A
100
AcDbSymbolTableRecord
100
AcDbDimStyleTableRecord
  2
AM_ANSI$4
 70
     0
  4
mm
 41
0.1
 42
0.05
 43
0.5
 44
0.1
 47
0.1
 48
0.1
 78
     7
 79
     2
140
0.12
141
0.0
146
0.71
147
0.06
176
   256
177
   256
178
     2
274
     4
284
     7
288
     1
289
     0
340
11
371
    -1
372
    -1
  0
DIMSTYLE
105
E00
330
A
100
AcDbSymbolTableRecord
100
AcDbDimStyleTableRecord
  2
AM_ANSI$7
 70
     0
  4
mm
 41
0.1
 42
0.05
 43
0.5
 44
0.1
 47
0.1
 48
0.1
 78
     7
 79
     2
140
0.24
141
0.0
146
0.71
147
0.06
176
   256
177
   256
178
     2
274
     4
284
     7
340
11
371
    -1
372
    -1
  0
DIMSTYLE
105
E01
330
A
100
AcDbSymbolTableRecord
100
AcDbDimStyleTableRecord
  2
AM_ANSI$SF
 70
     0
  4
mm
 41
0.1
 42
0.05
 43
0.5
 44
0.1
 47
0.1
 48
0.1
 75
     1
 76
     1
 78
     7
 79
     2
140
0.12
141
0.0
146
0.71
147
0.06
176
   256
177
   256
178
     2
274
     4
284
     7
340
11
371
    -1
372
    -1
  0
DIMSTYLE
105
E02
330
A
100
AcDbSymbolTableRecord
100
AcDbDimStyleTableRecord
  2
AM_ANSI$SH
 70
     0
  4
mm
 41
0.1
 42
0.05
 43
0.5
 44
0.1
 47
0.1
 48
0.1
 75
     1
 76
     1
 78
     7
 79
     2
140
0.12
141
0.0
146
0.71
147
0.06
173
     1
176
   256
177
   256
178
     2
274
     4
284
     7
340
11
343
87
371
    -1
372
    -1
  0
ENDTAB
  0
TABLE
  2
BLOCK_RECORD
  5
1
330
0
100
AcDbSymbolTable
 70
    28
  0
BLOCK_RECORD
  5
1F
102
{ACAD_XDICTIONARY
360
8F
102
}
330
1
100
AcDbSymbolTableRecord
100
AcDbBlockTableRecord
  2
*Model_Space
340
22
  0
BLOCK_RECORD
  5
1B
330
1
100
AcDbSymbolTableRecord
100
AcDbBlockTableRecord
  2
*Paper_Space
340
1E
  0
BLOCK_RECORD
  5
23
330
1
100
AcDbSymbolTableRecord
100
AcDbBlockTableRecord
  2
*Paper_Space0
340
26
  0
BLOCK_RECORD
  5
87
330
1
100
AcDbSymbolTableRecord
100
AcDbBlockTableRecord
  2
GENAXEH
340
0
  0
BLOCK_RECORD
  5
217
330
1
100
AcDbSymbolTableRecord
100
AcDbBlockTableRecord
  2
_Open30
340
0
102
{BLKREFS
331
1B9F
331
1BA0
331
1BB1
331
1BB2
331
1C0D
331
1C0E
331
1C4A
331
1C4B
331
1CE1
331
1CE2
331
1D1D
331
1D1E
331
1D26
331
1D27
331
1D31
331
1D32
331
21FB
331
21FC
331
234B
331
234C
331
2404
331
2405
331
28B9
331
28BA
331
28D4
331
28D5
331
2901
331
2902
331
290A
331
290B
331
2913
331
2914
331
291C
331
291D
331
2927
331
2928
102
}
  0
BLOCK_RECORD
  5
BE1
330
1
100
AcDbSymbolTableRecord
100
AcDbBlockTableRecord
  2
ta
340
0
310
2800000020000000200000000100080000000000000400000000000000000000000000000000000000000000000080000080000000808000800000008000800080800000C0C0C000C0DCC000F0CAA6000020400000206000002080000020A0000020C0000020E00000400000004020000040400000406000004080000040A0
310
000040C0000040E00000600000006020000060400000606000006080000060A0000060C0000060E00000800000008020000080400000806000008080000080A0000080C0000080E00000A0000000A0200000A0400000A0600000A0800000A0A00000A0C00000A0E00000C0000000C0200000C0400000C0600000C0800000C0
310
A00000C0C00000C0E00000E0000000E0200000E0400000E0600000E0800000E0A00000E0C00000E0E00040000000400020004000400040006000400080004000A0004000C0004000E00040200000402020004020400040206000402080004020A0004020C0004020E000404000004040200040404000404060004040800040
310
40A0004040C0004040E00040600000406020004060400040606000406080004060A0004060C0004060E00040800000408020004080400040806000408080004080A0004080C0004080E00040A0000040A0200040A0400040A0600040A0800040A0A00040A0C00040A0E00040C0000040C0200040C0400040C0600040C08000
310
40C0A00040C0C00040C0E00040E0000040E0200040E0400040E0600040E0800040E0A00040E0C00040E0E00080000000800020008000400080006000800080008000A0008000C0008000E00080200000802020008020400080206000802080008020A0008020C0008020E00080400000804020008040400080406000804080
310
008040A0008040C0008040E00080600000806020008060400080606000806080008060A0008060C0008060E00080800000808020008080400080806000808080008080A0008080C0008080E00080A0000080A0200080A0400080A0600080A0800080A0A00080A0C00080A0E00080C0000080C0200080C0400080C0600080C0
310
800080C0A00080C0C00080C0E00080E0000080E0200080E0400080E0600080E0800080E0A00080E0C00080E0E000C0000000C0002000C0004000C0006000C0008000C000A000C000C000C000E000C0200000C0202000C0204000C0206000C0208000C020A000C020C000C020E000C0400000C0402000C0404000C0406000C0
310
408000C040A000C040C000C040E000C0600000C0602000C0604000C0606000C0608000C060A000C060C000C060E000C0800000C0802000C0804000C0806000C0808000C080A000C080C000C080E000C0A00000C0A02000C0A04000C0A06000C0A08000C0A0A000C0A0C000C0A0E000C0C00000C0C02000C0C04000C0C06000
310
C0C08000C0C0A000F0FBFF00A4A0A000808080000000FF0000FF000000FFFF00FF000000FF00FF00FFFF0000FFFFFF0000000000000000000000000000000000000000000000000000000000000000000000000000000000000000000000000000000000000000000000000000000000000000000000000000000000000000
310
00000000000000000000000000000000000000000000000000000000000000000000000000000000000000000000000000000000000000000000000000000000000000000000000000000000000000000000000000000000000000000000000000000000000000000000000000000000000000000000000000000000000000
310
0000000000000000000000000000000000000000FFFFFFFFFFFFFFFFFFFFFFFFFFFFFFFFFFFFFFFFFFFFFFFFFFFF0000000000FF0000000000000000000000000000000000000000000000000000FF00000000FF0000000000000000000000000000000000000000000000000000FF00000000FF0000000000000000000000
310
000000000000000000000000000000FF00000000FFFF00000000000000000000FFFFFFFFFFFF000000000000000000FF0000000000FF000000000000000000FF000000000000FF0000000000000000FF0000000000FF000000000000000000FF00000000000000FF0000000000000000FF00000000FF0000000000000000FF
310
0000000000000000FF0000000000000000FF00000000FF00000000000000FF00000000000000000000FF00000000000000FF00000000FF0000000000000000FF0000000000000000FF0000000000000000FF00000000FF0000000000000000FF0000000000000000FF0000000000000000FF0000000000FF00000000000000
310
00FF000000000000FF000000000000000000FF0000000000FF0000000000000000FF000000000000FF000000000000000000FF0000000000FF000000000000000000FFFFFFFFFFFF00000000000000000000FFFF00000000FF0000000000000000000000000000000000000000000000000000FF00000000FF000000000000
310
0000000000000000000000000000000000000000FF00000000FF0000000000000000000000000000000000000000000000000000FF0000000000FFFFFFFFFFFFFFFFFFFFFFFFFFFFFFFFFFFFFFFFFFFFFFFFFFFF00000000000000000000000000000000000000000000000000000000000000000000000000000000000000
310
00000000000000000000000000000000000000000000000000000000000000000000000000000000000000000000000000000000000000000000000000000000000000000000000000000000000000000000000000000000000000000000000000000000000000000000000000000000000000000000000000000000000000
310
0000000000000000000000000000000000000000000000000000000000000000000000000000000000000000000000000000000000000000
1001
ACAD
1000
DesignCenter Data
1002
{
1070
     1
1070
     4
1002
}
  0
BLOCK_RECORD
  5
120E
330
1
100
AcDbSymbolTableRecord
100
AcDbBlockTableRecord
  2
_None
340
0
  0
BLOCK_RECORD
  5
1A17
330
1
100
AcDbSymbolTableRecord
100
AcDbBlockTableRecord
  2
*D5
340
0
  0
BLOCK_RECORD
  5
1A4A
330
1
100
AcDbSymbolTableRecord
100
AcDbBlockTableRecord
  2
*D6
340
0
  0
BLOCK_RECORD
  5
1BC7
330
1
100
AcDbSymbolTableRecord
100
AcDbBlockTableRecord
  2
*D7
340
0
  0
BLOCK_RECORD
  5
1BF5
330
1
100
AcDbSymbolTableRecord
100
AcDbBlockTableRecord
  2
*D8
340
0
  0
BLOCK_RECORD
  5
1C22
330
1
100
AcDbSymbolTableRecord
100
AcDbBlockTableRecord
  2
*D9
340
0
  0
BLOCK_RECORD
  5
1C6A
330
1
100
AcDbSymbolTableRecord
100
AcDbBlockTableRecord
  2
*D10
340
0
  0
BLOCK_RECORD
  5
1CA9
330
1
100
AcDbSymbolTableRecord
100
AcDbBlockTableRecord
  2
*D11
340
0
  0
BLOCK_RECORD
  5
1CF7
330
1
100
AcDbSymbolTableRecord
100
AcDbBlockTableRecord
  2
*D12
340
0
  0
BLOCK_RECORD
  5
21DE
330
1
100
AcDbSymbolTableRecord
100
AcDbBlockTableRecord
  2
*D13
340
0
  0
BLOCK_RECORD
  5
2255
330
1
100
AcDbSymbolTableRecord
100
AcDbBlockTableRecord
  2
*D14
340
0
  0
BLOCK_RECORD
  5
2292
330
1
100
AcDbSymbolTableRecord
100
AcDbBlockTableRecord
  2
1
340
0
310
2800000020000000200000000100080000000000000400000000000000000000000000000000000000000000000080000080000000808000800000008000800080800000C0C0C000C0DCC000F0CAA6000020400000206000002080000020A0000020C0000020E00000400000004020000040400000406000004080000040A0
310
000040C0000040E00000600000006020000060400000606000006080000060A0000060C0000060E00000800000008020000080400000806000008080000080A0000080C0000080E00000A0000000A0200000A0400000A0600000A0800000A0A00000A0C00000A0E00000C0000000C0200000C0400000C0600000C0800000C0
310
A00000C0C00000C0E00000E0000000E0200000E0400000E0600000E0800000E0A00000E0C00000E0E00040000000400020004000400040006000400080004000A0004000C0004000E00040200000402020004020400040206000402080004020A0004020C0004020E000404000004040200040404000404060004040800040
310
40A0004040C0004040E00040600000406020004060400040606000406080004060A0004060C0004060E00040800000408020004080400040806000408080004080A0004080C0004080E00040A0000040A0200040A0400040A0600040A0800040A0A00040A0C00040A0E00040C0000040C0200040C0400040C0600040C08000
310
40C0A00040C0C00040C0E00040E0000040E0200040E0400040E0600040E0800040E0A00040E0C00040E0E00080000000800020008000400080006000800080008000A0008000C0008000E00080200000802020008020400080206000802080008020A0008020C0008020E00080400000804020008040400080406000804080
310
008040A0008040C0008040E00080600000806020008060400080606000806080008060A0008060C0008060E00080800000808020008080400080806000808080008080A0008080C0008080E00080A0000080A0200080A0400080A0600080A0800080A0A00080A0C00080A0E00080C0000080C0200080C0400080C0600080C0
310
800080C0A00080C0C00080C0E00080E0000080E0200080E0400080E0600080E0800080E0A00080E0C00080E0E000C0000000C0002000C0004000C0006000C0008000C000A000C000C000C000E000C0200000C0202000C0204000C0206000C0208000C020A000C020C000C020E000C0400000C0402000C0404000C0406000C0
310
408000C040A000C040C000C040E000C0600000C0602000C0604000C0606000C0608000C060A000C060C000C060E000C0800000C0802000C0804000C0806000C0808000C080A000C080C000C080E000C0A00000C0A02000C0A04000C0A06000C0A08000C0A0A000C0A0C000C0A0E000C0C00000C0C02000C0C04000C0C06000
310
C0C08000C0C0A000F0FBFF00A4A0A000808080000000FF0000FF000000FFFF00FF000000FF00FF00FFFF0000FFFFFF0000000000000000000000000000000000000000000000000000000000000000000000000000000000000000000000000000000000000000000000000000000000000000000000000000000000000000
310
0000000000000000000000000000000000000000FFFFFFFFFFFFFFFFFFFFFF0000000000000000000000000000000000000000FF000000000000000000000000000000000000000000000000000000000000FF00000000000000000000000000000000000000000000000000000000000000FF000000000000000000000000
310
00000000000000000000000000000000000000FF0000000000000000000000000000000000000000000000000000000000000000FF00000000000000000000000000000000000000000000000000000000000000FF00000000000000000000000000000000000000000000000000000000000000FF00000000000000000000
310
000000000000000000000000000000000000000000FF00000000000000000000FF0000000000000000000000000000000000000000FF000000000000000000FF00000000000000000000000000000000000000000000FF0000000000000000FF00000000000000000000000000000000000000000000FF00000000000000FF
310
0000000000000000000000000000000000000000000000FF00000000000000FF0000000000000000000000000000000000000000000000FF000000000000FF000000000000000000000000000000000000000000000000FF00000000000000FF0000000000000000000000000000000000000000000000FF00000000000000
310
00FF0000000000000000000000000000000000000000000000FF00000000000000FF0000000000000000000000000000000000000000000000FF0000000000000000FF00000000000000000000000000000000000000000000FF00000000000000000000000000000000000000000000000000000000000000FF0000000000
310
0000000000000000000000000000000000000000000000000000FF0000000000000000000000000000000000000000000000000000000000000000FF00000000000000000000000000000000000000000000000000000000000000FF00000000000000000000000000000000000000000000000000000000000000FF000000
310
0000000000000000000000000000000000000000000000000000000000FF0000000000000000000000000000000000000000000000000000000000000000FFFFFFFFFFFFFF00000000000000000000000000000000000000000000000000000000000000000000000000000000000000000000000000000000000000000000
310
0000000000000000000000000000000000000000000000000000000000000000000000000000000000000000000000000000000000000000
1001
ACAD
1000
DesignCenter Data
1002
{
1070
     1
1070
     4
1002
}
  0
BLOCK_RECORD
  5
22BE
330
1
100
AcDbSymbolTableRecord
100
AcDbBlockTableRecord
  2
*D16
340
0
  0
BLOCK_RECORD
  5
2426
330
1
100
AcDbSymbolTableRecord
100
AcDbBlockTableRecord
  2
*D17
340
0
  0
BLOCK_RECORD
  5
2462
330
1
100
AcDbSymbolTableRecord
100
AcDbBlockTableRecord
  2
*D18
340
0
  0
BLOCK_RECORD
  5
248E
330
1
100
AcDbSymbolTableRecord
100
AcDbBlockTableRecord
  2
*D19
340
0
  0
BLOCK_RECORD
  5
24C1
330
1
100
AcDbSymbolTableRecord
100
AcDbBlockTableRecord
  2
*D20
340
0
  0
BLOCK_RECORD
  5
24F4
330
1
100
AcDbSymbolTableRecord
100
AcDbBlockTableRecord
  2
*D21
340
0
  0
BLOCK_RECORD
  5
2527
330
1
100
AcDbSymbolTableRecord
100
AcDbBlockTableRecord
  2
*D22
340
0
  0
BLOCK_RECORD
  5
256E
330
1
100
AcDbSymbolTableRecord
100
AcDbBlockTableRecord
  2
*D23
340
0
  0
BLOCK_RECORD
  5
25CD
330
1
100
AcDbSymbolTableRecord
100
AcDbBlockTableRecord
  2
2
340
0
310
2800000020000000200000000100080000000000000400000000000000000000000000000000000000000000000080000080000000808000800000008000800080800000C0C0C000C0DCC000F0CAA6000020400000206000002080000020A0000020C0000020E00000400000004020000040400000406000004080000040A0
310
000040C0000040E00000600000006020000060400000606000006080000060A0000060C0000060E00000800000008020000080400000806000008080000080A0000080C0000080E00000A0000000A0200000A0400000A0600000A0800000A0A00000A0C00000A0E00000C0000000C0200000C0400000C0600000C0800000C0
310
A00000C0C00000C0E00000E0000000E0200000E0400000E0600000E0800000E0A00000E0C00000E0E00040000000400020004000400040006000400080004000A0004000C0004000E00040200000402020004020400040206000402080004020A0004020C0004020E000404000004040200040404000404060004040800040
310
40A0004040C0004040E00040600000406020004060400040606000406080004060A0004060C0004060E00040800000408020004080400040806000408080004080A0004080C0004080E00040A0000040A0200040A0400040A0600040A0800040A0A00040A0C00040A0E00040C0000040C0200040C0400040C0600040C08000
310
40C0A00040C0C00040C0E00040E0000040E0200040E0400040E0600040E0800040E0A00040E0C00040E0E00080000000800020008000400080006000800080008000A0008000C0008000E00080200000802020008020400080206000802080008020A0008020C0008020E00080400000804020008040400080406000804080
310
008040A0008040C0008040E00080600000806020008060400080606000806080008060A0008060C0008060E00080800000808020008080400080806000808080008080A0008080C0008080E00080A0000080A0200080A0400080A0600080A0800080A0A00080A0C00080A0E00080C0000080C0200080C0400080C0600080C0
310
800080C0A00080C0C00080C0E00080E0000080E0200080E0400080E0600080E0800080E0A00080E0C00080E0E000C0000000C0002000C0004000C0006000C0008000C000A000C000C000C000E000C0200000C0202000C0204000C0206000C0208000C020A000C020C000C020E000C0400000C0402000C0404000C0406000C0
310
408000C040A000C040C000C040E000C0600000C0602000C0604000C0606000C0608000C060A000C060C000C060E000C0800000C0802000C0804000C0806000C0808000C080A000C080C000C080E000C0A00000C0A02000C0A04000C0A06000C0A08000C0A0A000C0A0C000C0A0E000C0C00000C0C02000C0C04000C0C06000
310
C0C08000C0C0A000F0FBFF00A4A0A000808080000000FF0000FF000000FFFF00FF000000FF00FF00FFFF0000FFFFFF0000000000000000000000000000000000000000000000000000000000000000000000000000000000000000000000000000000000000000000000000000000000000000000000000000000000000000
310
0000000000000000000000000000000000000000FFFFFFFFFFFFFFFFFFFFFF0000000000000000000000000000000000000000FFFF0000000000000000000000000000000000000000000000000000000000FFFF000000000000000000000000000000000000000000000000000000000000FF000000000000000000000000
310
00000000000000000000000000000000000000FF00000000000000000000000000000000000000000000000000000000000000FF0000000000000000000000000000000000000000000000000000000000000000FF00000000000000000000000000000000000000000000000000000000000000FF00000000000000000000
310
000000000000000000000000000000000000000000FF00000000000000000000FF0000000000000000000000000000000000000000FF000000000000000000FF000000000000000000000000000000000000000000FF000000000000000000FF00000000000000000000000000000000000000000000FF00000000000000FF
310
0000000000000000000000000000000000000000000000FF000000000000FF000000000000000000000000000000000000000000000000FF00000000000000FF0000000000000000000000000000000000000000000000FF00000000000000FF0000000000000000000000000000000000000000000000FF00000000000000
310
00FF0000000000000000000000000000000000000000000000FF00000000000000FF0000000000000000000000000000000000000000000000FF0000000000000000FF00000000000000000000000000000000000000000000FF00000000000000000000000000000000000000000000000000000000000000FF0000000000
310
0000000000000000000000000000000000000000000000000000FF0000000000000000000000000000000000000000000000000000000000000000FF00000000000000000000000000000000000000000000000000000000000000FF00000000000000000000000000000000000000000000000000000000000000FF000000
310
00000000000000000000000000000000000000000000000000000000FFFF00000000000000000000000000000000000000000000000000000000000000FFFFFFFFFFFFFFFF00000000000000000000000000000000000000000000000000000000000000000000000000000000000000000000000000000000000000000000
310
0000000000000000000000000000000000000000000000000000000000000000000000000000000000000000000000000000000000000000
1001
ACAD
1000
DesignCenter Data
1002
{
1070
     1
1070
     4
1002
}
  0
BLOCK_RECORD
  5
26E8
330
1
100
AcDbSymbolTableRecord
100
AcDbBlockTableRecord
  2
3
340
0
310
2800000020000000200000000100080000000000000400000000000000000000000000000000000000000000000080000080000000808000800000008000800080800000C0C0C000C0DCC000F0CAA6000020400000206000002080000020A0000020C0000020E00000400000004020000040400000406000004080000040A0
310
000040C0000040E00000600000006020000060400000606000006080000060A0000060C0000060E00000800000008020000080400000806000008080000080A0000080C0000080E00000A0000000A0200000A0400000A0600000A0800000A0A00000A0C00000A0E00000C0000000C0200000C0400000C0600000C0800000C0
310
A00000C0C00000C0E00000E0000000E0200000E0400000E0600000E0800000E0A00000E0C00000E0E00040000000400020004000400040006000400080004000A0004000C0004000E00040200000402020004020400040206000402080004020A0004020C0004020E000404000004040200040404000404060004040800040
310
40A0004040C0004040E00040600000406020004060400040606000406080004060A0004060C0004060E00040800000408020004080400040806000408080004080A0004080C0004080E00040A0000040A0200040A0400040A0600040A0800040A0A00040A0C00040A0E00040C0000040C0200040C0400040C0600040C08000
310
40C0A00040C0C00040C0E00040E0000040E0200040E0400040E0600040E0800040E0A00040E0C00040E0E00080000000800020008000400080006000800080008000A0008000C0008000E00080200000802020008020400080206000802080008020A0008020C0008020E00080400000804020008040400080406000804080
310
008040A0008040C0008040E00080600000806020008060400080606000806080008060A0008060C0008060E00080800000808020008080400080806000808080008080A0008080C0008080E00080A0000080A0200080A0400080A0600080A0800080A0A00080A0C00080A0E00080C0000080C0200080C0400080C0600080C0
310
800080C0A00080C0C00080C0E00080E0000080E0200080E0400080E0600080E0800080E0A00080E0C00080E0E000C0000000C0002000C0004000C0006000C0008000C000A000C000C000C000E000C0200000C0202000C0204000C0206000C0208000C020A000C020C000C020E000C0400000C0402000C0404000C0406000C0
310
408000C040A000C040C000C040E000C0600000C0602000C0604000C0606000C0608000C060A000C060C000C060E000C0800000C0802000C0804000C0806000C0808000C080A000C080C000C080E000C0A00000C0A02000C0A04000C0A06000C0A08000C0A0A000C0A0C000C0A0E000C0C00000C0C02000C0C04000C0C06000
310
C0C08000C0C0A000F0FBFF00A4A0A000808080000000FF0000FF000000FFFF00FF000000FF00FF00FFFF0000FFFFFF0000000000000000000000000000000000000000000000000000000000000000000000000000000000000000000000000000000000000000000000000000000000000000000000000000000000000000
310
0000000000000000000000000000000000000000FFFFFFFFFFFFFFFFFFFFFF0000000000000000000000000000000000000000FF00000000000000000000000000000000000000000000000000000000000000FF000000000000000000000000000000000000000000000000000000000000FF000000000000000000000000
310
00000000000000000000000000000000000000FF00000000000000000000000000000000000000000000000000000000000000FF0000000000000000000000000000000000000000000000000000000000000000FF00000000000000000000000000000000000000000000000000000000000000FF00000000000000000000
310
000000000000000000000000000000000000000000FF00000000000000000000FF0000000000000000000000000000000000000000FF000000000000000000FF000000000000000000000000000000000000000000FF000000000000000000FF00000000000000000000000000000000000000000000FF00000000000000FF
310
0000000000000000000000000000000000000000000000FF00000000000000FF0000000000000000000000000000000000000000000000FF000000000000FF000000000000000000000000000000000000000000000000FF00000000000000FF0000000000000000000000000000000000000000000000FF00000000000000
310
00FF0000000000000000000000000000000000000000000000FF00000000000000FF0000000000000000000000000000000000000000000000FF0000000000000000FF00000000000000000000000000000000000000000000FF00000000000000000000000000000000000000000000000000000000000000FF0000000000
310
0000000000000000000000000000000000000000000000000000FF0000000000000000000000000000000000000000000000000000000000000000FF00000000000000000000000000000000000000000000000000000000000000FF00000000000000000000000000000000000000000000000000000000000000FF000000
310
0000000000000000000000000000000000000000000000000000000000FF0000000000000000000000000000000000000000000000000000000000000000FFFFFFFFFFFFFF00000000000000000000000000000000000000000000000000000000000000000000000000000000000000000000000000000000000000000000
310
0000000000000000000000000000000000000000000000000000000000000000000000000000000000000000000000000000000000000000
1001
ACAD
1000
DesignCenter Data
1002
{
1070
     1
1070
     4
1002
}
  0
BLOCK_RECORD
  5
285D
330
1
100
AcDbSymbolTableRecord
100
AcDbBlockTableRecord
  2
5
340
0
310
2800000020000000200000000100080000000000000400000000000000000000000000000000000000000000000080000080000000808000800000008000800080800000C0C0C000C0DCC000F0CAA6000020400000206000002080000020A0000020C0000020E00000400000004020000040400000406000004080000040A0
310
000040C0000040E00000600000006020000060400000606000006080000060A0000060C0000060E00000800000008020000080400000806000008080000080A0000080C0000080E00000A0000000A0200000A0400000A0600000A0800000A0A00000A0C00000A0E00000C0000000C0200000C0400000C0600000C0800000C0
310
A00000C0C00000C0E00000E0000000E0200000E0400000E0600000E0800000E0A00000E0C00000E0E00040000000400020004000400040006000400080004000A0004000C0004000E00040200000402020004020400040206000402080004020A0004020C0004020E000404000004040200040404000404060004040800040
310
40A0004040C0004040E00040600000406020004060400040606000406080004060A0004060C0004060E00040800000408020004080400040806000408080004080A0004080C0004080E00040A0000040A0200040A0400040A0600040A0800040A0A00040A0C00040A0E00040C0000040C0200040C0400040C0600040C08000
310
40C0A00040C0C00040C0E00040E0000040E0200040E0400040E0600040E0800040E0A00040E0C00040E0E00080000000800020008000400080006000800080008000A0008000C0008000E00080200000802020008020400080206000802080008020A0008020C0008020E00080400000804020008040400080406000804080
310
008040A0008040C0008040E00080600000806020008060400080606000806080008060A0008060C0008060E00080800000808020008080400080806000808080008080A0008080C0008080E00080A0000080A0200080A0400080A0600080A0800080A0A00080A0C00080A0E00080C0000080C0200080C0400080C0600080C0
310
800080C0A00080C0C00080C0E00080E0000080E0200080E0400080E0600080E0800080E0A00080E0C00080E0E000C0000000C0002000C0004000C0006000C0008000C000A000C000C000C000E000C0200000C0202000C0204000C0206000C0208000C020A000C020C000C020E000C0400000C0402000C0404000C0406000C0
310
408000C040A000C040C000C040E000C0600000C0602000C0604000C0606000C0608000C060A000C060C000C060E000C0800000C0802000C0804000C0806000C0808000C080A000C080C000C080E000C0A00000C0A02000C0A04000C0A06000C0A08000C0A0A000C0A0C000C0A0E000C0C00000C0C02000C0C04000C0C06000
310
C0C08000C0C0A000F0FBFF00A4A0A000808080000000FF0000FF000000FFFF00FF000000FF00FF00FFFF0000FFFFFF0000000000000000000000000000000000000000000000000000000000000000000000000000000000000000000000000000000000000000000000000000000000000000000000000000000000000000
310
0000000000000000000000000000000000000000FFFFFFFFFFFFFFFFFFFFFF00000000000000000000000000000000000000FFFFFF0000000000000000000000000000000000000000000000000000000000FF00000000000000000000000000000000000000000000000000000000000000FF000000000000000000000000
310
00000000000000000000000000000000000000FF0000000000000000000000000000000000000000000000000000000000000000FF00000000000000000000000000000000000000000000000000000000000000FF00000000000000000000000000000000000000000000000000000000000000FF00000000000000000000
310
000000000000000000000000000000000000000000FF00000000000000000000FF0000000000000000000000000000000000000000FF000000000000000000FF00000000000000000000000000000000000000000000FF0000000000000000FF00000000000000000000000000000000000000000000FF00000000000000FF
310
0000000000000000000000000000000000000000000000FF00000000000000FF0000000000000000000000000000000000000000000000FF000000000000FF000000000000000000000000000000000000000000000000FF00000000000000FF0000000000000000000000000000000000000000000000FF00000000000000
310
00FF0000000000000000000000000000000000000000000000FF00000000000000FF0000000000000000000000000000000000000000000000FF0000000000000000FF00000000000000000000000000000000000000000000FF00000000000000000000000000000000000000000000000000000000000000FF0000000000
310
0000000000000000000000000000000000000000000000000000FF0000000000000000000000000000000000000000000000000000000000000000FF00000000000000000000000000000000000000000000000000000000000000FF00000000000000000000000000000000000000000000000000000000000000FF000000
310
00000000000000000000000000000000000000000000000000000000FFFF00000000000000000000000000000000000000000000000000000000000000FFFFFFFFFFFFFFFF00000000000000000000000000000000000000000000000000000000000000000000000000000000000000000000000000000000000000000000
310
0000000000000000000000000000000000000000000000000000000000000000000000000000000000000000000000000000000000000000
102
{BLKREFS
331
2869
102
}
1001
ACAD
1000
DesignCenter Data
1002
{
1070
     1
1070
     4
1002
}
  0
ENDTAB
  0
ENDSEC
  0
SECTION
  2
BLOCKS
  0
BLOCK
  5
20
330
1F
100
AcDbEntity
  8
0
100
AcDbBlockBegin
  2
*Model_Space
 70
     0
 10
0.0
 20
0.0
 30
0.0
  3
*Model_Space
  1

  0
ENDBLK
  5
21
330
1F
100
AcDbEntity
  8
0
100
AcDbBlockEnd
  0
BLOCK
  5
1C
330
1B
100
AcDbEntity
 67
     1
  8
0
100
AcDbBlockBegin
  2
*Paper_Space
 70
     0
 10
0.0
 20
0.0
 30
0.0
  3
*Paper_Space
  1

  0
ENDBLK
  5
1D
330
1B
100
AcDbEntity
 67
     1
  8
0
100
AcDbBlockEnd
  0
BLOCK
  5
24
330
23
100
AcDbEntity
  8
0
100
AcDbBlockBegin
  2
*Paper_Space0
 70
     0
 10
0.0
 20
0.0
 30
0.0
  3
*Paper_Space0
  1

  0
ENDBLK
  5
25
330
23
100
AcDbEntity
  8
0
100
AcDbBlockEnd
  0
BLOCK
  5
89
330
87
100
AcDbEntity
  8
0
100
AcDbBlockBegin
  2
GENAXEH
 70
     0
 10
0.0
 20
0.0
 30
0.0
  3
GENAXEH
  1

  0
LINE
  5
88
330
87
100
AcDbEntity
  8
0
100
AcDbLine
 10
-1.0
 20
0.0
 30
0.0
 11
1.0
 21
0.0
 31
0.0
  0
ENDBLK
  5
8A
330
87
100
AcDbEntity
  8
0
100
AcDbBlockEnd
  0
BLOCK
  5
21B
330
217
100
AcDbEntity
  8
0
100
AcDbBlockBegin
  2
_Open30
 70
     0
 10
0.0
 20
0.0
 30
0.0
  3
_Open30
  1

  0
LINE
  5
218
330
217
100
AcDbEntity
  8
0
  6
ByBlock
 62
     0
370
    -2
100
AcDbLine
 10
-1.0
 20
0.26794919
 30
0.0
 11
0.0
 21
0.0
 31
0.0
  0
LINE
  5
219
330
217
100
AcDbEntity
  8
0
  6
ByBlock
 62
     0
370
    -2
100
AcDbLine
 10
0.0
 20
0.0
 30
0.0
 11
-1.0
 21
-0.26794919
 31
0.0
  0
LINE
  5
21A
330
217
100
AcDbEntity
  8
0
  6
ByBlock
 62
     0
370
    -2
100
AcDbLine
 10
0.0
 20
0.0
 30
0.0
 11
-1.0
 21
0.0
 31
0.0
  0
ENDBLK
  5
21C
330
217
100
AcDbEntity
  8
0
100
AcDbBlockEnd
  0
BLOCK
  5
BE2
330
BE1
100
AcDbEntity
  8
0
100
AcDbBlockBegin
  2
ta
 70
     0
 10
0.0
 20
0.0
 30
0.0
  3
ta
  1

  0
LINE
  5
BE4
330
BE1
100
AcDbEntity
  8
AM_0
100
AcDbLine
 10
22.9066496856363
 20
9.998578643761787
 30
0.0
 11
33.44664968563633
 21
9.998578643762527
 31
0.0
  0
ARC
  5
BE5
330
BE1
100
AcDbEntity
  8
AM_0
100
AcDbCircle
 10
33.44664968563633
 20
9.598578643762522
 30
0.0
 40
0.4
100
AcDbArc
 50
0.0000000000040711
 51
90.00000000000325
1001
GENIUS_GENOBJ-N-FIL_13
1002
{
1000
OWNER
1000
GEN
1002
}
1001
GENIUS_GENODEF_13
1002
{
1000
HIER
1070
     0
1002
}
1002
{
1000
MANEDIT
1070
     0
1002
}
1002
{
1000
NOSEL
1070
     0
1002
}
1002
{
1000
BEHIND
1070
     0
1002
}
1002
{
1000
OTHER
1070
     0
1002
}
1002
{
1000
REACTOR
1002
}
  0
ARC
  5
BE6
330
BE1
100
AcDbEntity
  8
AM_0
100
AcDbCircle
 10
22.9066496856363
 20
9.598578643761783
 30
0.0
 40
0.4
100
AcDbArc
 50
90.00000000000325
 51
180.0
1001
GENIUS_GENOBJ-N-FIL_13
1002
{
1000
OWNER
1000
GEN
1002
}
1001
GENIUS_GENODEF_13
1002
{
1000
HIER
1070
     0
1002
}
1002
{
1000
MANEDIT
1070
     0
1002
}
1002
{
1000
NOSEL
1070
     0
1002
}
1002
{
1000
BEHIND
1070
     0
1002
}
1002
{
1000
OTHER
1070
     0
1002
}
1002
{
1000
REACTOR
1002
}
  0
LINE
  5
BE7
330
BE1
100
AcDbEntity
  8
AM_0
100
AcDbLine
 10
32.78664968563628
 20
2.998578643762582
 30
0.0
 11
22.24664968563627
 21
2.998578643762582
 31
0.0
  0
ARC
  5
BE8
330
BE1
100
AcDbEntity
  8
AM_0
100
AcDbCircle
 10
22.24664968563627
 20
3.398578643762589
 30
0.0
 40
0.4
100
AcDbArc
 50
180.0
 51
270.0
1001
GENIUS_GENODEF_13
1002
{
1000
HIER
1070
     0
1002
}
1002
{
1000
MANEDIT
1070
     0
1002
}
1002
{
1000
NOSEL
1070
     0
1002
}
1002
{
1000
BEHIND
1070
     0
1002
}
1002
{
1000
OTHER
1070
     0
1002
}
1002
{
1000
REACTOR
1002
}
1001
GENIUS_GENOBJ-N-FIL_13
1002
{
1000
OWNER
1000
GEN
1002
}
  0
LINE
  5
BE9
330
BE1
100
AcDbEntity
  8
AM_0
100
AcDbLine
 10
22.50664968563632
 20
9.598578643761783
 30
0.0
 11
22.50664968563632
 21
8.465263475678085
 31
0.0
  0
LINE
  5
BEA
330
BE1
100
AcDbEntity
  8
AM_0
100
AcDbLine
 10
33.18664968563627
 20
3.398578643762589
 30
0.0
 11
33.18664968563627
 21
4.531893811845151
 31
0.0
  0
ARC
  5
BEB
330
BE1
100
AcDbEntity
  8
AM_0
100
AcDbCircle
 10
33.58664968563625
 20
4.531893811845151
 30
0.0
 40
0.4
100
AcDbArc
 50
172.3666694127705
 51
180.0
1001
GENIUS_GENOBJ-N-FIL_13
1002
{
1000
OWNER
1000
GEN
1002
}
1001
GENIUS_GENODEF_13
1002
{
1000
HIER
1070
     0
1002
}
1002
{
1000
MANEDIT
1070
     0
1002
}
1002
{
1000
NOSEL
1070
     0
1002
}
1002
{
1000
BEHIND
1070
     0
1002
}
1002
{
1000
OTHER
1070
     0
1002
}
1002
{
1000
REACTOR
1002
}
  0
ARC
  5
BEC
330
BE1
100
AcDbEntity
  8
AM_0
100
AcDbCircle
 10
32.78664968563628
 20
3.398578643762589
 30
0.0
 40
0.4
100
AcDbArc
 50
270.0
 51
0.0
1001
GENIUS_GENODEF_13
1002
{
1000
HIER
1070
     0
1002
}
1002
{
1000
MANEDIT
1070
     0
1002
}
1002
{
1000
NOSEL
1070
     0
1002
}
1002
{
1000
BEHIND
1070
     0
1002
}
1002
{
1000
OTHER
1070
     0
1002
}
1002
{
1000
REACTOR
1002
}
1001
GENIUS_GENOBJ-N-FIL_13
1002
{
1000
OWNER
1000
GEN
1002
}
  0
LINE
  5
BED
330
BE1
100
AcDbEntity
  8
AM_0
100
AcDbLine
 10
21.84664968563629
 20
3.398578643762589
 30
0.0
 11
21.84664968563629
 21
4.392893218812843
 31
0.0
  0
LINE
  5
BEE
330
BE1
100
AcDbEntity
  8
AM_0
100
AcDbLine
 10
33.8466496856363
 20
9.59857864376255
 30
0.0
 11
33.84664968563635
 21
8.604264068712351
 31
0.0
  0
ARC
  5
BEF
330
BE1
100
AcDbEntity
  8
AM_0
100
AcDbCircle
 10
33.8466496856363
 20
8.038578643762548
 30
0.0
 40
0.3999999999999488
100
AcDbArc
 50
109.4712206344584
 51
180.0
  0
ARC
  5
BF0
330
BE1
100
AcDbEntity
  8
AM_0
100
AcDbCircle
 10
33.64664968563642
 20
8.604264068712351
 30
0.0
 40
0.2
100
AcDbArc
 50
289.4712206344672
 51
0.0
1001
GENIUS_GENODEF_13
1002
{
1000
HIER
1070
     0
1002
}
1002
{
1000
MANEDIT
1070
     0
1002
}
1002
{
1000
NOSEL
1070
     0
1002
}
1002
{
1000
BEHIND
1070
     0
1002
}
1002
{
1000
OTHER
1070
     0
1002
}
1002
{
1000
REACTOR
1002
}
1001
GENIUS_GENOBJ-N-FIL_13
1002
{
1000
OWNER
1000
GEN
1002
}
  0
ARC
  5
BF1
330
BE1
100
AcDbEntity
  8
AM_0
100
AcDbCircle
 10
21.84664968563629
 20
4.95857864376259
 30
0.0
 40
0.4000000000000057
100
AcDbArc
 50
289.4712206344724
 51
0.0
  0
ARC
  5
BF2
330
BE1
100
AcDbEntity
  8
AM_0
100
AcDbCircle
 10
22.04664968563628
 20
4.392893218812843
 30
0.0
 40
0.2
100
AcDbArc
 50
109.4712206344757
 51
180.0
1001
GENIUS_GENODEF_13
1002
{
1000
HIER
1070
     0
1002
}
1002
{
1000
MANEDIT
1070
     0
1002
}
1002
{
1000
NOSEL
1070
     0
1002
}
1002
{
1000
BEHIND
1070
     0
1002
}
1002
{
1000
OTHER
1070
     0
1002
}
1002
{
1000
REACTOR
1002
}
1001
GENIUS_GENOBJ-N-FIL_13
1002
{
1000
OWNER
1000
GEN
1002
}
  0
LINE
  5
BF3
330
BE1
100
AcDbEntity
  8
AM_0
100
AcDbLine
 10
22.5031050597276
 20
8.412130281212228
 30
0.0
 11
22.2501943115447
 21
6.525027006309557
 31
0.0
  0
ARC
  5
BF4
330
BE1
100
AcDbEntity
  8
AM_0
100
AcDbCircle
 10
22.64664968563597
 20
6.471893811843696
 30
0.0
 40
0.4
100
AcDbArc
 50
172.3666694127663
 51
180.0
1001
GENIUS_GENOBJ-N-FIL_13
1002
{
1000
OWNER
1000
GEN
1002
}
1001
GENIUS_GENODEF_13
1002
{
1000
HIER
1070
     0
1002
}
1002
{
1000
MANEDIT
1070
     0
1002
}
1002
{
1000
NOSEL
1070
     0
1002
}
1002
{
1000
BEHIND
1070
     0
1002
}
1002
{
1000
OTHER
1070
     0
1002
}
1002
{
1000
REACTOR
1002
}
  0
ARC
  5
BF5
330
BE1
100
AcDbEntity
  8
AM_0
100
AcDbCircle
 10
22.10664968563634
 20
8.465263475678085
 30
0.0
 40
0.4
100
AcDbArc
 50
352.3666694127663
 51
0.0
1001
GENIUS_GENOBJ-N-FIL_13
1002
{
1000
OWNER
1000
GEN
1002
}
1001
GENIUS_GENODEF_13
1002
{
1000
HIER
1070
     0
1002
}
1002
{
1000
MANEDIT
1070
     0
1002
}
1002
{
1000
NOSEL
1070
     0
1002
}
1002
{
1000
BEHIND
1070
     0
1002
}
1002
{
1000
OTHER
1070
     0
1002
}
1002
{
1000
REACTOR
1002
}
  0
LINE
  5
BF6
330
BE1
100
AcDbEntity
  8
AM_0
100
AcDbLine
 10
22.24664968563599
 20
6.471893811843696
 30
0.0
 11
22.24664968563599
 21
4.95857864376259
 31
0.0
  0
LINE
  5
BF7
330
BE1
100
AcDbEntity
  8
AM_0
100
AcDbLine
 10
33.44664968563633
 20
8.038578643762463
 30
0.0
 11
33.44664968563633
 21
6.525263475678682
 31
0.0
  0
LINE
  5
BF8
330
BE1
100
AcDbEntity
  8
AM_0
100
AcDbLine
 10
33.4431050597276
 20
6.472130281212852
 30
0.0
 11
33.190194311545
 21
4.58502700631098
 31
0.0
  0
ARC
  5
BF9
330
BE1
100
AcDbEntity
  8
AM_0
100
AcDbCircle
 10
33.04664968563634
 20
6.525263475678682
 30
0.0
 40
0.4
100
AcDbArc
 50
352.3666694127705
 51
0.0
1001
GENIUS_GENODEF_13
1002
{
1000
HIER
1070
     0
1002
}
1002
{
1000
MANEDIT
1070
     0
1002
}
1002
{
1000
NOSEL
1070
     0
1002
}
1002
{
1000
BEHIND
1070
     0
1002
}
1002
{
1000
OTHER
1070
     0
1002
}
1002
{
1000
REACTOR
1002
}
1001
GENIUS_GENOBJ-N-FIL_13
1002
{
1000
OWNER
1000
GEN
1002
}
  0
CIRCLE
  5
BFA
330
BE1
100
AcDbEntity
  8
AM_0
100
AcDbCircle
 10
27.84664968563636
 20
6.498578643762184
 30
0.0
 40
2.25
  0
ENDBLK
  5
BE3
330
BE1
100
AcDbEntity
  8
0
100
AcDbBlockEnd
  0
BLOCK
  5
120F
330
120E
100
AcDbEntity
  8
0
100
AcDbBlockBegin
  2
_None
 70
     0
 10
0.0
 20
0.0
 30
0.0
  3
_None
  1

  0
ENDBLK
  5
1210
330
120E
100
AcDbEntity
  8
0
100
AcDbBlockEnd
  0
BLOCK
  5
1A38
330
1A17
100
AcDbEntity
  8
0
100
AcDbBlockBegin
  2
*D5
 70
     1
 10
0.0
 20
0.0
 30
0.0
  3
*D5
  1

  0
LINE
  5
1B9C
330
1A17
100
AcDbEntity
  8
AM_5
 62
     3
100
AcDbLine
 10
-50.1
 20
11.0
 30
0.0
 11
-68.00251766569215
 21
11.0
 31
0.0
  0
LINE
  5
1B9D
330
1A17
100
AcDbEntity
  8
AM_5
 62
     3
100
AcDbLine
 10
-50.1
 20
-11.0
 30
0.0
 11
-68.00251766569215
 21
-10.99999999999999
 31
0.0
  0
LINE
  5
1B9E
330
1A17
100
AcDbEntity
  8
AM_5
 62
     3
100
AcDbLine
 10
-67.50251766569215
 20
8.500000000000005
 30
0.0
 11
-67.50251766569215
 21
-8.499999999999994
 31
0.0
  0
INSERT
  5
1B9F
330
1A17
100
AcDbEntity
  8
AM_5
 62
     3
100
AcDbBlockReference
  2
_Open30
 10
-67.50251766569215
 20
11.0
 30
0.0
 41
2.5
 42
2.5
 43
2.5
 50
90.0
  0
INSERT
  5
1BA0
330
1A17
100
AcDbEntity
  8
AM_5
 62
     3
100
AcDbBlockReference
  2
_Open30
 10
-67.50251766569215
 20
-10.99999999999999
 30
0.0
 41
2.5
 42
2.5
 43
2.5
 50
270.0
  0
MTEXT
  5
1BA1
330
1A17
100
AcDbEntity
  8
AM_5
 62
     2
100
AcDbMText
 10
-70.20285231136144
 20
-0.0000000000000044
 30
0.0
 40
3.399999999999999
 41
0.0
 71
     5
 72
     1
  1
%%c22
 11
0.0000000000000001
 21
1.0
 31
0.0
 73
     1
 44
1.0
  0
POINT
  5
1BA2
330
1A17
100
AcDbEntity
  8
Defpoints
 62
     0
100
AcDbPoint
 10
-50.0
 20
11.0
 30
0.0
  0
POINT
  5
1BA3
330
1A17
100
AcDbEntity
  8
Defpoints
 62
     0
100
AcDbPoint
 10
-50.0
 20
-11.0
 30
0.0
  0
POINT
  5
1BA4
330
1A17
100
AcDbEntity
  8
Defpoints
 62
     0
100
AcDbPoint
 10
-67.50251766569215
 20
-10.99999999999999
 30
0.0
  0
ENDBLK
  5
1A39
330
1A17
100
AcDbEntity
  8
0
100
AcDbBlockEnd
  0
BLOCK
  5
1A6B
330
1A4A
100
AcDbEntity
  8
0
100
AcDbBlockBegin
  2
*D6
 70
     1
 10
0.0
 20
0.0
 30
0.0
  3
*D6
  1

  0
LINE
  5
1BAE
330
1A4A
100
AcDbEntity
  8
AM_5
 62
     3
100
AcDbLine
 10
-48.6
 20
5.199999999999987
 30
0.0
 11
-60.42388441261505
 21
5.199999999999992
 31
0.0
  0
LINE
  5
1BAF
330
1A4A
100
AcDbEntity
  8
AM_5
 62
     3
100
AcDbLine
 10
-48.6
 20
-5.200000000000017
 30
0.0
 11
-60.42388441261505
 21
-5.200000000000012
 31
0.0
  0
LINE
  5
1BB0
330
1A4A
100
AcDbEntity
  8
AM_5
 62
     3
100
AcDbLine
 10
-59.92388441261505
 20
2.699999999999991
 30
0.0
 11
-59.92388441261505
 21
-2.700000000000013
 31
0.0
  0
INSERT
  5
1BB1
330
1A4A
100
AcDbEntity
  8
AM_5
 62
     3
100
AcDbBlockReference
  2
_Open30
 10
-59.92388441261505
 20
5.199999999999992
 30
0.0
 41
2.5
 42
2.5
 43
2.5
 50
90.0
  0
INSERT
  5
1BB2
330
1A4A
100
AcDbEntity
  8
AM_5
 62
     3
100
AcDbBlockReference
  2
_Open30
 10
-59.92388441261505
 20
-5.200000000000012
 30
0.0
 41
2.5
 42
2.5
 43
2.5
 50
270.0
  0
MTEXT
  5
1BB3
330
1A4A
100
AcDbEntity
  8
AM_5
 62
     2
100
AcDbMText
 10
-62.62388441261506
 20
-0.00000000000002
 30
0.0
 40
3.399999999999999
 41
0.0
 71
     5
 72
     1
  1
10.4
 11
0.0000000000000001
 21
1.0
 31
0.0
 73
     1
 44
1.0
  0
POINT
  5
1BB4
330
1A4A
100
AcDbEntity
  8
Defpoints
 62
     0
100
AcDbPoint
 10
-48.5
 20
5.199999999999987
 30
0.0
  0
POINT
  5
1BB5
330
1A4A
100
AcDbEntity
  8
Defpoints
 62
     0
100
AcDbPoint
 10
-48.5
 20
-5.200000000000017
 30
0.0
  0
POINT
  5
1BB6
330
1A4A
100
AcDbEntity
  8
Defpoints
 62
     0
100
AcDbPoint
 10
-59.92388441261505
 20
-5.200000000000012
 30
0.0
  0
ENDBLK
  5
1A6C
330
1A4A
100
AcDbEntity
  8
0
100
AcDbBlockEnd
  0
BLOCK
  5
1BE3
330
1BC7
100
AcDbEntity
  8
0
100
AcDbBlockBegin
  2
*D7
 70
     1
 10
0.0
 20
0.0
 30
0.0
  3
*D7
  1

  0
LINE
  5
1D2C
330
1BC7
100
AcDbEntity
  8
AM_5
 62
     3
100
AcDbLine
 10
-50.0
 20
-9.700000000000008
 30
0.0
 11
-50.0
 21
-33.50000100000003
 31
0.0
  0
LINE
  5
1D2D
330
1BC7
100
AcDbEntity
  8
AM_5
 62
     3
100
AcDbLine
 10
-43.69999999999999
 20
-5.300000000000016
 30
0.0
 11
-43.69999999999999
 21
-33.50000100000003
 31
0.0
  0
LINE
  5
1D2E
330
1BC7
100
AcDbEntity
  8
AM_5
 62
     3
100
AcDbLine
 10
-52.5
 20
-33.00000100000004
 30
0.0
 11
-55.0
 21
-33.00000100000004
 31
0.0
  0
LINE
  5
1D2F
330
1BC7
100
AcDbEntity
  8
AM_5
 62
     3
100
AcDbLine
 10
-41.19999999999999
 20
-33.00000100000004
 30
0.0
 11
-38.69999999999999
 21
-33.00000100000004
 31
0.0
  0
LINE
  5
1D30
330
1BC7
100
AcDbEntity
  8
AM_5
 62
     3
100
AcDbLine
 10
-50.0
 20
-33.00000100000004
 30
0.0
 11
-43.69999999999999
 21
-33.00000100000004
 31
0.0
  0
INSERT
  5
1D31
330
1BC7
100
AcDbEntity
  8
AM_5
 62
     3
100
AcDbBlockReference
  2
_Open30
 10
-50.0
 20
-33.00000100000004
 30
0.0
 41
2.5
 42
2.5
 43
2.5
  0
INSERT
  5
1D32
330
1BC7
100
AcDbEntity
  8
AM_5
 62
     3
100
AcDbBlockReference
  2
_Open30
 10
-43.69999999999999
 20
-33.00000100000004
 30
0.0
 41
2.5
 42
2.5
 43
2.5
 50
180.0
  0
MTEXT
  5
1D33
330
1BC7
100
AcDbEntity
  8
AM_5
 62
     2
100
AcDbMText
 10
-46.84999999999998
 20
-30.30000100000004
 30
0.0
 40
3.399999999999999
 41
0.0
 71
     5
 72
     1
  1
6.3
 73
     1
 44
1.0
  0
POINT
  5
1D34
330
1BC7
100
AcDbEntity
  8
Defpoints
 62
     0
100
AcDbPoint
 10
-50.0
 20
-9.600000000000008
 30
0.0
  0
POINT
  5
1D35
330
1BC7
100
AcDbEntity
  8
Defpoints
 62
     0
100
AcDbPoint
 10
-43.69999999999999
 20
-5.200000000000017
 30
0.0
  0
POINT
  5
1D36
330
1BC7
100
AcDbEntity
  8
Defpoints
 62
     0
100
AcDbPoint
 10
-43.69999999999999
 20
-33.00000100000004
 30
0.0
  0
ENDBLK
  5
1BE4
330
1BC7
100
AcDbEntity
  8
0
100
AcDbBlockEnd
  0
BLOCK
  5
1C43
330
1BF5
100
AcDbEntity
  8
0
100
AcDbBlockBegin
  2
*D8
 70
     1
 10
0.0
 20
0.0
 30
0.0
  3
*D8
  1

  0
LINE
  5
1C0A
330
1BF5
100
AcDbEntity
  8
AM_5
 62
     3
100
AcDbLine
 10
-50.0
 20
-11.1
 30
0.0
 11
-50.0
 21
-41.50000099999997
 31
0.0
  0
LINE
  5
1C0B
330
1BF5
100
AcDbEntity
  8
AM_5
 62
     3
100
AcDbLine
 10
-29.0
 20
-11.1
 30
0.0
 11
-29.0
 21
-41.50000099999997
 31
0.0
  0
LINE
  5
1C0C
330
1BF5
100
AcDbEntity
  8
AM_5
 62
     3
100
AcDbLine
 10
-47.5
 20
-41.00000099999999
 30
0.0
 11
-31.5
 21
-41.00000099999999
 31
0.0
  0
INSERT
  5
1C0D
330
1BF5
100
AcDbEntity
  8
AM_5
 62
     3
100
AcDbBlockReference
  2
_Open30
 10
-50.0
 20
-41.00000099999999
 30
0.0
 41
2.5
 42
2.5
 43
2.5
 50
180.0
  0
INSERT
  5
1C0E
330
1BF5
100
AcDbEntity
  8
AM_5
 62
     3
100
AcDbBlockReference
  2
_Open30
 10
-29.0
 20
-41.00000099999999
 30
0.0
 41
2.5
 42
2.5
 43
2.5
  0
MTEXT
  5
1C0F
330
1BF5
100
AcDbEntity
  8
AM_5
 62
     2
100
AcDbMText
 10
-39.5
 20
-38.2996663543307
 30
0.0
 40
3.399999999999999
 41
0.0
 71
     5
 72
     1
  1
21
 73
     1
 44
1.0
  0
POINT
  5
1C10
330
1BF5
100
AcDbEntity
  8
Defpoints
 62
     0
100
AcDbPoint
 10
-50.0
 20
-11.0
 30
0.0
  0
POINT
  5
1C11
330
1BF5
100
AcDbEntity
  8
Defpoints
 62
     0
100
AcDbPoint
 10
-29.0
 20
-11.0
 30
0.0
  0
POINT
  5
1C12
330
1BF5
100
AcDbEntity
  8
Defpoints
 62
     0
100
AcDbPoint
 10
-29.0
 20
-41.00000099999999
 30
0.0
  0
ENDBLK
  5
1C44
330
1BF5
100
AcDbEntity
  8
0
100
AcDbBlockEnd
  0
BLOCK
  5
1C45
330
1C22
100
AcDbEntity
  8
0
100
AcDbBlockBegin
  2
*D9
 70
     1
 10
0.0
 20
0.0
 30
0.0
  3
*D9
  1

  0
LINE
  5
1C47
330
1C22
100
AcDbEntity
  8
AM_5
 62
     3
100
AcDbLine
 10
-50.0
 20
-11.1
 30
0.0
 11
-50.0
 21
-49.50000099999993
 31
0.0
  0
LINE
  5
1C48
330
1C22
100
AcDbEntity
  8
AM_5
 62
     3
100
AcDbLine
 10
-24.00000000000001
 20
-6.099999999999998
 30
0.0
 11
-24.00000000000001
 21
-49.50000099999993
 31
0.0
  0
LINE
  5
1C49
330
1C22
100
AcDbEntity
  8
AM_5
 62
     3
100
AcDbLine
 10
-47.5
 20
-49.00000099999992
 30
0.0
 11
-26.50000000000001
 21
-49.00000099999992
 31
0.0
  0
INSERT
  5
1C4A
330
1C22
100
AcDbEntity
  8
AM_5
 62
     3
100
AcDbBlockReference
  2
_Open30
 10
-50.0
 20
-49.00000099999992
 30
0.0
 41
2.5
 42
2.5
 43
2.5
 50
180.0
  0
INSERT
  5
1C4B
330
1C22
100
AcDbEntity
  8
AM_5
 62
     3
100
AcDbBlockReference
  2
_Open30
 10
-24.00000000000001
 20
-49.00000099999992
 30
0.0
 41
2.5
 42
2.5
 43
2.5
  0
MTEXT
  5
1C4C
330
1C22
100
AcDbEntity
  8
AM_5
 62
     2
100
AcDbMText
 10
-37.00000000000001
 20
-46.29966635433063
 30
0.0
 40
3.399999999999999
 41
0.0
 71
     5
 72
     1
  1
26
 73
     1
 44
1.0
  0
POINT
  5
1C4D
330
1C22
100
AcDbEntity
  8
Defpoints
 62
     0
100
AcDbPoint
 10
-50.0
 20
-11.0
 30
0.0
  0
POINT
  5
1C4E
330
1C22
100
AcDbEntity
  8
Defpoints
 62
     0
100
AcDbPoint
 10
-24.00000000000001
 20
-6.0
 30
0.0
  0
POINT
  5
1C4F
330
1C22
100
AcDbEntity
  8
Defpoints
 62
     0
100
AcDbPoint
 10
-24.00000000000001
 20
-49.00000099999992
 30
0.0
  0
ENDBLK
  5
1C46
330
1C22
100
AcDbEntity
  8
0
100
AcDbBlockEnd
  0
BLOCK
  5
1C82
330
1C6A
100
AcDbEntity
  8
0
100
AcDbBlockBegin
  2
*D10
 70
     1
 10
0.0
 20
0.0
 30
0.0
  3
*D10
  1

  0
LINE
  5
1CDE
330
1C6A
100
AcDbEntity
  8
AM_5
 62
     3
100
AcDbLine
 10
-50.0
 20
-19.9
 30
0.0
 11
-50.0
 21
33.68937499999996
 31
0.0
  0
LINE
  5
1CDF
330
1C6A
100
AcDbEntity
  8
AM_5
 62
     3
100
AcDbLine
 10
-0.0000000000000133
 20
-24.89999999999999
 30
0.0
 11
-0.0000000000000097
 21
33.68937499999996
 31
0.0
  0
LINE
  5
1CE0
330
1C6A
100
AcDbEntity
  8
AM_5
 62
     3
100
AcDbLine
 10
-47.5
 20
33.18937499999996
 30
0.0
 11
-2.500000000000009
 21
33.18937499999996
 31
0.0
  0
INSERT
  5
1CE1
330
1C6A
100
AcDbEntity
  8
AM_5
 62
     3
100
AcDbBlockReference
  2
_Open30
 10
-50.0
 20
33.18937499999996
 30
0.0
 41
2.5
 42
2.5
 43
2.5
 50
180.0
  0
INSERT
  5
1CE2
330
1C6A
100
AcDbEntity
  8
AM_5
 62
     3
100
AcDbBlockReference
  2
_Open30
 10
-0.0000000000000098
 20
33.18937499999996
 30
0.0
 41
2.5
 42
2.5
 43
2.5
  0
MTEXT
  5
1CE3
330
1C6A
100
AcDbEntity
  8
AM_5
 62
     2
100
AcDbMText
 10
-25.0
 20
35.88937499999996
 30
0.0
 40
3.399999999999999
 41
0.0
 71
     5
 72
     1
  1
50
 73
     1
 44
1.0
  0
POINT
  5
1CE4
330
1C6A
100
AcDbEntity
  8
Defpoints
 62
     0
100
AcDbPoint
 10
-50.0
 20
-20.0
 30
0.0
  0
POINT
  5
1CE5
330
1C6A
100
AcDbEntity
  8
Defpoints
 62
     0
100
AcDbPoint
 10
-0.0000000000000133
 20
-25.0
 30
0.0
  0
POINT
  5
1CE6
330
1C6A
100
AcDbEntity
  8
Defpoints
 62
     0
100
AcDbPoint
 10
-0.0000000000000098
 20
33.18937499999996
 30
0.0
  0
ENDBLK
  5
1C83
330
1C6A
100
AcDbEntity
  8
0
100
AcDbBlockEnd
  0
BLOCK
  5
1CCA
330
1CA9
100
AcDbEntity
  8
0
100
AcDbBlockBegin
  2
*D11
 70
     1
 10
0.0
 20
0.0
 30
0.0
  3
*D11
  1

  0
LINE
  5
1D1A
330
1CA9
100
AcDbEntity
  8
AM_5
 62
     3
100
AcDbLine
 10
-1.816309356207078
 20
-25.0
 30
0.0
 11
16.49027225194388
 21
-25.0
 31
0.0
  0
LINE
  5
1D1B
330
1CA9
100
AcDbEntity
  8
AM_5
 62
     3
100
AcDbLine
 10
-2.567121106072839
 20
25.0
 30
0.0
 11
16.49027225194389
 21
25.0
 31
0.0
  0
LINE
  5
1D1C
330
1CA9
100
AcDbEntity
  8
AM_5
 62
     3
100
AcDbLine
 10
15.99027225194388
 20
-22.5
 30
0.0
 11
15.99027225194389
 21
22.5
 31
0.0
  0
INSERT
  5
1D1D
330
1CA9
100
AcDbEntity
  8
AM_5
 62
     3
100
AcDbBlockReference
  2
_Open30
 10
15.99027225194388
 20
-25.0
 30
0.0
 41
2.5
 42
2.5
 43
2.5
 50
270.0
  0
INSERT
  5
1D1E
330
1CA9
100
AcDbEntity
  8
AM_5
 62
     3
100
AcDbBlockReference
  2
_Open30
 10
15.99027225194389
 20
25.0
 30
0.0
 41
2.5
 42
2.5
 43
2.5
 50
90.0
  0
MTEXT
  5
1D1F
330
1CA9
100
AcDbEntity
  8
AM_5
 62
     2
100
AcDbMText
 10
13.29027225194388
 20
0.0000000000000011
 30
0.0
 40
3.399999999999999
 41
0.0
 71
     5
 72
     1
  1
%%c50
 11
0.0000000000000001
 21
1.0
 31
0.0
 73
     1
 44
1.0
  0
POINT
  5
1D20
330
1CA9
100
AcDbEntity
  8
Defpoints
 62
     0
100
AcDbPoint
 10
-1.916309356207078
 20
-25.0
 30
0.0
  0
POINT
  5
1D21
330
1CA9
100
AcDbEntity
  8
Defpoints
 62
     0
100
AcDbPoint
 10
-2.66712110607284
 20
25.0
 30
0.0
  0
POINT
  5
1D22
330
1CA9
100
AcDbEntity
  8
Defpoints
 62
     0
100
AcDbPoint
 10
15.99027225194389
 20
25.0
 30
0.0
  0
ENDBLK
  5
1CCB
330
1CA9
100
AcDbEntity
  8
0
100
AcDbBlockEnd
  0
BLOCK
  5
1D18
330
1CF7
100
AcDbEntity
  8
0
100
AcDbBlockBegin
  2
*D12
 70
     1
 10
0.0
 20
0.0
 30
0.0
  3
*D12
  1

  0
LINE
  5
1D23
330
1CF7
100
AcDbEntity
  8
AM_5
 62
     3
100
AcDbLine
 10
-23.9
 20
5.0
 30
0.0
 11
7.856341435887657
 21
4.999999999999991
 31
0.0
  0
LINE
  5
1D24
330
1CF7
100
AcDbEntity
  8
AM_5
 62
     3
100
AcDbLine
 10
-23.90000000000001
 20
-6.0
 30
0.0
 11
7.856341435887655
 21
-6.000000000000007
 31
0.0
  0
LINE
  5
1D25
330
1CF7
100
AcDbEntity
  8
AM_5
 62
     3
100
AcDbLine
 10
7.356341435887657
 20
2.49999999999999
 30
0.0
 11
7.356341435887657
 21
-3.500000000000008
 31
0.0
  0
INSERT
  5
1D26
330
1CF7
100
AcDbEntity
  8
AM_5
 62
     3
100
AcDbBlockReference
  2
_Open30
 10
7.356341435887657
 20
4.999999999999991
 30
0.0
 41
2.5
 42
2.5
 43
2.5
 50
90.0
  0
INSERT
  5
1D27
330
1CF7
100
AcDbEntity
  8
AM_5
 62
     3
100
AcDbBlockReference
  2
_Open30
 10
7.356341435887656
 20
-6.000000000000007
 30
0.0
 41
2.5
 42
2.5
 43
2.5
 50
270.0
  0
MTEXT
  5
1D28
330
1CF7
100
AcDbEntity
  8
AM_5
 62
     2
100
AcDbMText
 10
4.656341435887657
 20
-0.5000000000000073
 30
0.0
 40
3.399999999999999
 41
0.0
 71
     5
 72
     1
  1
%%c11
 11
0.0000000000000001
 21
1.0
 31
0.0
 73
     1
 44
1.0
  0
POINT
  5
1D29
330
1CF7
100
AcDbEntity
  8
Defpoints
 62
     0
100
AcDbPoint
 10
-24.0
 20
5.0
 30
0.0
  0
POINT
  5
1D2A
330
1CF7
100
AcDbEntity
  8
Defpoints
 62
     0
100
AcDbPoint
 10
-24.00000000000001
 20
-6.0
 30
0.0
  0
POINT
  5
1D2B
330
1CF7
100
AcDbEntity
  8
Defpoints
 62
     0
100
AcDbPoint
 10
7.356341435887656
 20
-6.000000000000007
 30
0.0
  0
ENDBLK
  5
1D19
330
1CF7
100
AcDbEntity
  8
0
100
AcDbBlockEnd
  0
BLOCK
  5
21F6
330
21DE
100
AcDbEntity
  8
0
100
AcDbBlockBegin
  2
*D13
 70
     1
 10
0.0
 20
0.0
 30
0.0
  3
*D13
  1

  0
LINE
  5
21F8
330
21DE
100
AcDbEntity
  8
AM_5
 62
     3
100
AcDbLine
 10
-29.0
 20
11.6
 30
0.0
 11
-29.0
 21
26.24491243224452
 31
0.0
  0
LINE
  5
21F9
330
21DE
100
AcDbEntity
  8
AM_5
 62
     3
100
AcDbLine
 10
-0.0000000000000011
 20
13.84491243224452
 30
0.0
 11
-0.0000000000000003
 21
26.24491243224452
 31
0.0
  0
LINE
  5
21FA
330
21DE
100
AcDbEntity
  8
AM_5
 62
     3
100
AcDbLine
 10
-26.5
 20
25.74491243224452
 30
0.0
 11
-2.5
 21
25.74491243224452
 31
0.0
  0
INSERT
  5
21FB
330
21DE
100
AcDbEntity
  8
AM_5
 62
     3
100
AcDbBlockReference
  2
_Open30
 10
-29.0
 20
25.74491243224452
 30
0.0
 41
2.5
 42
2.5
 43
2.5
 50
180.0
  0
INSERT
  5
21FC
330
21DE
100
AcDbEntity
  8
AM_5
 62
     3
100
AcDbBlockReference
  2
_Open30
 10
-0.0000000000000003
 20
25.74491243224452
 30
0.0
 41
2.5
 42
2.5
 43
2.5
  0
MTEXT
  5
21FD
330
21DE
100
AcDbEntity
  8
AM_5
 62
     2
100
AcDbMText
 10
-14.5
 20
28.44524707791381
 30
0.0
 40
3.399999999999999
 41
0.0
 71
     5
 72
     1
  1
29
 73
     1
 44
1.0
  0
POINT
  5
21FE
330
21DE
100
AcDbEntity
  8
Defpoints
 62
     0
100
AcDbPoint
 10
-29.0
 20
11.5
 30
0.0
  0
POINT
  5
21FF
330
21DE
100
AcDbEntity
  8
Defpoints
 62
     0
100
AcDbPoint
 10
-0.0000000000000011
 20
13.74491243224452
 30
0.0
  0
POINT
  5
2200
330
21DE
100
AcDbEntity
  8
Defpoints
 62
     0
100
AcDbPoint
 10
-0.0000000000000003
 20
25.74491243224452
 30
0.0
  0
ENDBLK
  5
21F7
330
21DE
100
AcDbEntity
  8
0
100
AcDbBlockEnd
  0
BLOCK
  5
225F
330
2255
100
AcDbEntity
  8
0
100
AcDbBlockBegin
  2
*D14
 70
     1
 10
0.0
 20
0.0
 30
0.0
  3
*D14
  1

  0
LINE
  5
2348
330
2255
100
AcDbEntity
  8
AM_5
 62
     3
100
AcDbLine
 10
-29.0
 20
11.6
 30
0.0
 11
-29.0
 21
22.38209194541457
 31
0.0
  0
LINE
  5
2349
330
2255
100
AcDbEntity
  8
AM_5
 62
     3
100
AcDbLine
 10
-8.999999999999987
 20
9.900000000000002
 30
0.0
 11
-8.999999999999987
 21
22.38209194541457
 31
0.0
  0
LINE
  5
234A
330
2255
100
AcDbEntity
  8
AM_5
 62
     3
100
AcDbLine
 10
-26.5
 20
21.88209194541457
 30
0.0
 11
-11.49999999999999
 21
21.88209194541457
 31
0.0
  0
INSERT
  5
234B
330
2255
100
AcDbEntity
  8
AM_5
 62
     3
100
AcDbBlockReference
  2
_Open30
 10
-29.0
 20
21.88209194541457
 30
0.0
 41
2.5
 42
2.5
 43
2.5
 50
180.0
  0
INSERT
  5
234C
330
2255
100
AcDbEntity
  8
AM_5
 62
     3
100
AcDbBlockReference
  2
_Open30
 10
-8.999999999999987
 20
21.88209194541457
 30
0.0
 41
2.5
 42
2.5
 43
2.5
  0
MTEXT
  5
234D
330
2255
100
AcDbEntity
  8
AM_5
 62
     2
100
AcDbMText
 10
-18.99999999999999
 20
24.58242659108386
 30
0.0
 40
3.399999999999999
 41
0.0
 71
     5
 72
     1
  1
20
 73
     1
 44
1.0
  0
POINT
  5
234E
330
2255
100
AcDbEntity
  8
Defpoints
 62
     0
100
AcDbPoint
 10
-29.0
 20
11.5
 30
0.0
  0
POINT
  5
234F
330
2255
100
AcDbEntity
  8
Defpoints
 62
     0
100
AcDbPoint
 10
-8.999999999999987
 20
9.800000000000002
 30
0.0
  0
POINT
  5
2350
330
2255
100
AcDbEntity
  8
Defpoints
 62
     0
100
AcDbPoint
 10
-8.999999999999987
 20
21.88209194541457
 30
0.0
  0
ENDBLK
  5
2260
330
2255
100
AcDbEntity
  8
0
100
AcDbBlockEnd
  0
BLOCK
  5
2293
330
2292
100
AcDbEntity
  8
0
100
AcDbBlockBegin
  2
1
 70
     0
 10
0.0
 20
0.0
 30
0.0
  3
1
  1

  0
LINE
  5
2295
330
2292
100
AcDbEntity
  8
AM_0
100
AcDbLine
 10
17.56196704451661
 20
22.03501682040271
 30
0.0
 11
23.19758504451661
 21
22.03501682040271
 31
0.0
  0
LINE
  5
2296
330
2292
100
AcDbEntity
  8
AM_0
100
AcDbLine
 10
18.14665904451661
 20
28.05447682040271
 30
0.0
 11
17.16804404451661
 21
22.50447682040271
 31
0.0
  0
LINE
  5
2297
330
2292
100
AcDbEntity
  8
AM_0
100
AcDbLine
 10
24.17620004451662
 20
28.38501682040271
 30
0.0
 11
18.54058204451661
 21
28.38501682040271
 31
0.0
  0
LINE
  5
2298
330
2292
100
AcDbEntity
  8
AM_0
100
AcDbLine
 10
23.59150804451661
 20
22.36555782040271
 30
0.0
 11
24.57012304451661
 21
27.91555782040271
 31
0.0
  0
ARC
  5
2299
330
2292
100
AcDbEntity
  8
AM_0
100
AcDbCircle
 10
17.56196704451661
 20
22.43501682040271
 30
0.0
 40
0.4000000269112462
100
AcDbArc
 50
169.99989465697
 51
270.0
  0
ARC
  5
229A
330
2292
100
AcDbEntity
  8
AM_0
100
AcDbCircle
 10
18.54058204451661
 20
27.98501682040271
 30
0.0
 40
0.4
100
AcDbArc
 50
90.0
 51
169.99989465697
  0
ARC
  5
229B
330
2292
100
AcDbEntity
  8
AM_0
100
AcDbCircle
 10
24.17620004451662
 20
27.98501682040271
 30
0.0
 40
0.399999853262474
100
AcDbArc
 50
350.0000357202958
 51
90.0
  0
ARC
  5
229C
330
2292
100
AcDbEntity
  8
AM_0
100
AcDbCircle
 10
23.19758504451661
 20
22.43501682040271
 30
0.0
 40
0.4
100
AcDbArc
 50
270.0
 51
350.0000357202958
  0
CIRCLE
  5
229D
330
2292
100
AcDbEntity
  8
AM_0
100
AcDbCircle
 10
20.86908304451661
 20
25.21001682040271
 30
0.0
 40
1.399999999999999
  0
ENDBLK
  5
2294
330
2292
100
AcDbEntity
  8
0
100
AcDbBlockEnd
  0
BLOCK
  5
22D8
330
22BE
100
AcDbEntity
  8
0
100
AcDbBlockBegin
  2
*D16
 70
     1
 10
0.0
 20
0.0
 30
0.0
  3
*D16
  1

  0
LINE
  5
2401
330
22BE
100
AcDbEntity
  8
AM_5
 62
     3
100
AcDbLine
 10
-0.0060768532624595
 20
10.13054114673752
 30
0.0
 11
-0.0060768532624589
 21
21.38209194541457
 31
0.0
  0
LINE
  5
2402
330
22BE
100
AcDbEntity
  8
AM_5
 62
     3
100
AcDbLine
 10
-8.999999999999984
 20
9.899999999999996
 30
0.0
 11
-8.999999999999984
 21
21.38209194541457
 31
0.0
  0
LINE
  5
2403
330
22BE
100
AcDbEntity
  8
AM_5
 62
     3
100
AcDbLine
 10
-2.506076853262459
 20
20.88209194541457
 30
0.0
 11
-6.499999999999985
 21
20.88209194541457
 31
0.0
  0
INSERT
  5
2404
330
22BE
100
AcDbEntity
  8
AM_5
 62
     3
100
AcDbBlockReference
  2
_Open30
 10
-0.0060768532624589
 20
20.88209194541457
 30
0.0
 41
2.5
 42
2.5
 43
2.5
  0
INSERT
  5
2405
330
22BE
100
AcDbEntity
  8
AM_5
 62
     3
100
AcDbBlockReference
  2
_Open30
 10
-8.999999999999984
 20
20.88209194541457
 30
0.0
 41
2.5
 42
2.5
 43
2.5
 50
180.0
  0
MTEXT
  5
2406
330
22BE
100
AcDbEntity
  8
AM_5
 62
     2
100
AcDbMText
 10
-4.503038426631222
 20
23.58209194541457
 30
0.0
 40
3.399999999999999
 41
0.0
 71
     5
 72
     1
  1
9
 73
     1
 44
1.0
  0
POINT
  5
2407
330
22BE
100
AcDbEntity
  8
Defpoints
 62
     0
100
AcDbPoint
 10
-0.0060768532624595
 20
10.03054114673752
 30
0.0
  0
POINT
  5
2408
330
22BE
100
AcDbEntity
  8
Defpoints
 62
     0
100
AcDbPoint
 10
-8.999999999999984
 20
9.799999999999997
 30
0.0
  0
POINT
  5
2409
330
22BE
100
AcDbEntity
  8
Defpoints
 62
     0
100
AcDbPoint
 10
-8.999999999999984
 20
20.88209194541457
 30
0.0
  0
ENDBLK
  5
22D9
330
22BE
100
AcDbEntity
  8
0
100
AcDbBlockEnd
  0
BLOCK
  5
243E
330
2426
100
AcDbEntity
  8
0
100
AcDbBlockBegin
  2
*D17
 70
     1
 10
0.0
 20
0.0
 30
0.0
  3
*D17
  1

  0
LINE
  5
2919
330
2426
100
AcDbEntity
  8
AM_5
 62
     3
100
AcDbLine
 10
0.0001081380897653
 20
19.31360918943727
 30
0.0
 11
0.0001081380897658
 21
27.60000000000001
 31
0.0
  0
LINE
  5
291A
330
2426
100
AcDbEntity
  8
AM_5
 62
     3
100
AcDbLine
 10
-17.99999999999998
 20
19.09999999999999
 30
0.0
 11
-17.99999999999998
 21
27.60000000000001
 31
0.0
  0
LINE
  5
291B
330
2426
100
AcDbEntity
  8
AM_5
 62
     3
100
AcDbLine
 10
-2.499891861910233
 20
27.10000000000001
 30
0.0
 11
-15.49999999999998
 21
27.10000000000001
 31
0.0
  0
INSERT
  5
291C
330
2426
100
AcDbEntity
  8
AM_5
 62
     3
100
AcDbBlockReference
  2
_Open30
 10
0.0001081380897658
 20
27.10000000000001
 30
0.0
 41
2.5
 42
2.5
 43
2.5
  0
INSERT
  5
291D
330
2426
100
AcDbEntity
  8
AM_5
 62
     3
100
AcDbBlockReference
  2
_Open30
 10
-17.99999999999998
 20
27.10000000000001
 30
0.0
 41
2.5
 42
2.5
 43
2.5
 50
180.0
  0
MTEXT
  5
291E
330
2426
100
AcDbEntity
  8
AM_5
 62
     2
100
AcDbMText
 10
-8.999945930955107
 20
29.80000000000001
 30
0.0
 40
3.399999999999999
 41
0.0
 71
     5
 72
     1
  1
18
 73
     1
 44
1.0
  0
POINT
  5
291F
330
2426
100
AcDbEntity
  8
Defpoints
 62
     0
100
AcDbPoint
 10
0.0001081380897653
 20
19.21360918943727
 30
0.0
  0
POINT
  5
2920
330
2426
100
AcDbEntity
  8
Defpoints
 62
     0
100
AcDbPoint
 10
-17.99999999999998
 20
18.99999999999999
 30
0.0
  0
POINT
  5
2921
330
2426
100
AcDbEntity
  8
Defpoints
 62
     0
100
AcDbPoint
 10
-17.99999999999998
 20
27.10000000000001
 30
0.0
  0
ENDBLK
  5
243F
330
2426
100
AcDbEntity
  8
0
100
AcDbBlockEnd
  0
BLOCK
  5
247A
330
2462
100
AcDbEntity
  8
0
100
AcDbBlockBegin
  2
*D18
 70
     1
 10
0.0
 20
0.0
 30
0.0
  3
*D18
  1

  0
LINE
  5
28FE
330
2462
100
AcDbEntity
  8
AM_5
 62
     3
100
AcDbLine
 10
-17.99999999999999
 20
15.2
 30
0.0
 11
-17.99999999999999
 21
27.60000000000001
 31
0.0
  0
LINE
  5
28FF
330
2462
100
AcDbEntity
  8
AM_5
 62
     3
100
AcDbLine
 10
-50.0
 20
11.97116570058674
 30
0.0
 11
-50.0
 21
27.60000000000001
 31
0.0
  0
LINE
  5
2900
330
2462
100
AcDbEntity
  8
AM_5
 62
     3
100
AcDbLine
 10
-20.49999999999999
 20
27.10000000000001
 30
0.0
 11
-47.5
 21
27.10000000000001
 31
0.0
  0
INSERT
  5
2901
330
2462
100
AcDbEntity
  8
AM_5
 62
     3
100
AcDbBlockReference
  2
_Open30
 10
-17.99999999999999
 20
27.10000000000001
 30
0.0
 41
2.5
 42
2.5
 43
2.5
  0
INSERT
  5
2902
330
2462
100
AcDbEntity
  8
AM_5
 62
     3
100
AcDbBlockReference
  2
_Open30
 10
-50.0
 20
27.10000000000001
 30
0.0
 41
2.5
 42
2.5
 43
2.5
 50
180.0
  0
MTEXT
  5
2903
330
2462
100
AcDbEntity
  8
AM_5
 62
     2
100
AcDbMText
 10
-33.99999999999999
 20
29.8003346456693
 30
0.0
 40
3.399999999999999
 41
0.0
 71
     5
 72
     1
  1
32
 73
     1
 44
1.0
  0
POINT
  5
2904
330
2462
100
AcDbEntity
  8
Defpoints
 62
     0
100
AcDbPoint
 10
-17.99999999999999
 20
15.1
 30
0.0
  0
POINT
  5
2905
330
2462
100
AcDbEntity
  8
Defpoints
 62
     0
100
AcDbPoint
 10
-50.0
 20
11.87116570058674
 30
0.0
  0
POINT
  5
2906
330
2462
100
AcDbEntity
  8
Defpoints
 62
     0
100
AcDbPoint
 10
-50.0
 20
27.10000000000001
 30
0.0
  0
ENDBLK
  5
247B
330
2462
100
AcDbEntity
  8
0
100
AcDbBlockEnd
  0
BLOCK
  5
24AF
330
248E
100
AcDbEntity
  8
0
100
AcDbBlockBegin
  2
*D19
 70
     1
 10
0.0
 20
0.0
 30
0.0
  3
*D19
  1

  0
LINE
  5
2924
330
248E
100
AcDbEntity
  8
AM_5
 62
     3
100
AcDbLine
 10
-3.253015405175709
 20
20.0
 30
0.0
 11
10.57616728122924
 21
20.0
 31
0.0
  0
LINE
  5
2925
330
248E
100
AcDbEntity
  8
AM_5
 62
     3
100
AcDbLine
 10
-7.399999999999985
 20
-20.0
 30
0.0
 11
10.57616728122923
 21
-20.0
 31
0.0
  0
LINE
  5
2926
330
248E
100
AcDbEntity
  8
AM_5
 62
     3
100
AcDbLine
 10
10.07616728122924
 20
17.5
 30
0.0
 11
10.07616728122923
 21
-17.5
 31
0.0
  0
INSERT
  5
2927
330
248E
100
AcDbEntity
  8
AM_5
 62
     3
100
AcDbBlockReference
  2
_Open30
 10
10.07616728122924
 20
20.0
 30
0.0
 41
2.5
 42
2.5
 43
2.5
 50
90.0
  0
INSERT
  5
2928
330
248E
100
AcDbEntity
  8
AM_5
 62
     3
100
AcDbBlockReference
  2
_Open30
 10
10.07616728122923
 20
-20.0
 30
0.0
 41
2.5
 42
2.5
 43
2.5
 50
270.0
  0
MTEXT
  5
2929
330
248E
100
AcDbEntity
  8
AM_5
 62
     2
100
AcDbMText
 10
7.376167281229233
 20
-0.0000000000000003
 30
0.0
 40
3.399999999999999
 41
0.0
 71
     5
 72
     1
  1
%%c40
 11
0.0000000000000001
 21
1.0
 31
0.0
 73
     1
 44
1.0
  0
POINT
  5
292A
330
248E
100
AcDbEntity
  8
Defpoints
 62
     0
100
AcDbPoint
 10
-3.353015405175709
 20
20.0
 30
0.0
  0
POINT
  5
292B
330
248E
100
AcDbEntity
  8
Defpoints
 62
     0
100
AcDbPoint
 10
-7.499999999999983
 20
-20.0
 30
0.0
  0
POINT
  5
292C
330
248E
100
AcDbEntity
  8
Defpoints
 62
     0
100
AcDbPoint
 10
10.07616728122923
 20
-20.0
 30
0.0
  0
ENDBLK
  5
24B0
330
248E
100
AcDbEntity
  8
0
100
AcDbBlockEnd
  0
BLOCK
  5
24D9
330
24C1
100
AcDbEntity
  8
0
100
AcDbBlockBegin
  2
*D20
 70
     1
 10
0.0
 20
0.0
 30
0.0
  3
*D20
  1

  0
LINE
  5
2910
330
24C1
100
AcDbEntity
  8
AM_5
 62
     3
100
AcDbLine
 10
0.0001081381153597
 20
19.31361121069615
 30
0.0
 11
0.0001081381153608
 21
36.68247488889274
 31
0.0
  0
LINE
  5
2911
330
24C1
100
AcDbEntity
  8
AM_5
 62
     3
100
AcDbLine
 10
-130.0
 20
-9.336566675870829
 30
0.0
 11
-130.0
 21
36.68247488889274
 31
0.0
  0
LINE
  5
2912
330
24C1
100
AcDbEntity
  8
AM_5
 62
     3
100
AcDbLine
 10
-2.499891861884639
 20
36.18247488889274
 30
0.0
 11
-127.5
 21
36.18247488889274
 31
0.0
  0
INSERT
  5
2913
330
24C1
100
AcDbEntity
  8
AM_5
 62
     3
100
AcDbBlockReference
  2
_Open30
 10
0.0001081381153607
 20
36.18247488889274
 30
0.0
 41
2.5
 42
2.5
 43
2.5
  0
INSERT
  5
2914
330
24C1
100
AcDbEntity
  8
AM_5
 62
     3
100
AcDbBlockReference
  2
_Open30
 10
-130.0
 20
36.18247488889274
 30
0.0
 41
2.5
 42
2.5
 43
2.5
 50
180.0
  0
MTEXT
  5
2915
330
24C1
100
AcDbEntity
  8
AM_5
 62
     2
100
AcDbMText
 10
-64.99994593094232
 20
38.88247488889275
 30
0.0
 40
3.399999999999999
 41
0.0
 71
     5
 72
     1
  1
130
 73
     1
 44
1.0
  0
POINT
  5
2916
330
24C1
100
AcDbEntity
  8
Defpoints
 62
     0
100
AcDbPoint
 10
0.0001081381153597
 20
19.21361121069615
 30
0.0
  0
POINT
  5
2917
330
24C1
100
AcDbEntity
  8
Defpoints
 62
     0
100
AcDbPoint
 10
-130.0
 20
-9.436566675870828
 30
0.0
  0
POINT
  5
2918
330
24C1
100
AcDbEntity
  8
Defpoints
 62
     0
100
AcDbPoint
 10
-130.0
 20
36.18247488889274
 30
0.0
  0
ENDBLK
  5
24DA
330
24C1
100
AcDbEntity
  8
0
100
AcDbBlockEnd
  0
BLOCK
  5
2515
330
24F4
100
AcDbEntity
  8
0
100
AcDbBlockBegin
  2
*D21
 70
     1
 10
0.0
 20
0.0
 30
0.0
  3
*D21
  1

  0
LINE
  5
28D1
330
24F4
100
AcDbEntity
  8
AM_5
 62
     3
100
AcDbLine
 10
-125.355075916184
 20
16.0
 30
0.0
 11
-141.0406668906196
 21
16.0
 31
0.0
  0
LINE
  5
28D2
330
24F4
100
AcDbEntity
  8
AM_5
 62
     3
100
AcDbLine
 10
-115.2251024844394
 20
-16.0
 30
0.0
 11
-141.0406668906196
 21
-15.99999999999999
 31
0.0
  0
LINE
  5
28D3
330
24F4
100
AcDbEntity
  8
AM_5
 62
     3
100
AcDbLine
 10
-140.5406668906196
 20
13.5
 30
0.0
 11
-140.5406668906196
 21
-13.49999999999999
 31
0.0
  0
INSERT
  5
28D4
330
24F4
100
AcDbEntity
  8
AM_5
 62
     3
100
AcDbBlockReference
  2
_Open30
 10
-140.5406668906196
 20
16.0
 30
0.0
 41
2.5
 42
2.5
 43
2.5
 50
90.0
  0
INSERT
  5
28D5
330
24F4
100
AcDbEntity
  8
AM_5
 62
     3
100
AcDbBlockReference
  2
_Open30
 10
-140.5406668906196
 20
-15.99999999999999
 30
0.0
 41
2.5
 42
2.5
 43
2.5
 50
270.0
  0
MTEXT
  5
28D6
330
24F4
100
AcDbEntity
  8
AM_5
 62
     2
100
AcDbMText
 10
-143.2410015362889
 20
-0.0000000000000168
 30
0.0
 40
3.399999999999999
 41
0.0
 71
     5
 72
     1
  1
%%c32
 11
0.0000000000000001
 21
1.0
 31
0.0
 73
     1
 44
1.0
  0
POINT
  5
28D7
330
24F4
100
AcDbEntity
  8
Defpoints
 62
     0
100
AcDbPoint
 10
-125.255075916184
 20
16.0
 30
0.0
  0
POINT
  5
28D8
330
24F4
100
AcDbEntity
  8
Defpoints
 62
     0
100
AcDbPoint
 10
-115.1251024844395
 20
-16.0
 30
0.0
  0
POINT
  5
28D9
330
24F4
100
AcDbEntity
  8
Defpoints
 62
     0
100
AcDbPoint
 10
-140.5406668906196
 20
-15.99999999999999
 30
0.0
  0
ENDBLK
  5
2516
330
24F4
100
AcDbEntity
  8
0
100
AcDbBlockEnd
  0
BLOCK
  5
253F
330
2527
100
AcDbEntity
  8
0
100
AcDbBlockBegin
  2
*D22
 70
     1
 10
0.0
 20
0.0
 30
0.0
  3
*D22
  1

  0
LINE
  5
2907
330
2527
100
AcDbEntity
  8
AM_5
 62
     3
100
AcDbLine
 10
-50.0
 20
11.97116570058674
 30
0.0
 11
-50.0
 21
27.60000000000001
 31
0.0
  0
LINE
  5
2908
330
2527
100
AcDbEntity
  8
AM_5
 62
     3
100
AcDbLine
 10
-130.0
 20
14.1
 30
0.0
 11
-130.0
 21
27.60000000000001
 31
0.0
  0
LINE
  5
2909
330
2527
100
AcDbEntity
  8
AM_5
 62
     3
100
AcDbLine
 10
-52.5
 20
27.10000000000001
 30
0.0
 11
-127.5
 21
27.10000000000001
 31
0.0
  0
INSERT
  5
290A
330
2527
100
AcDbEntity
  8
AM_5
 62
     3
100
AcDbBlockReference
  2
_Open30
 10
-50.0
 20
27.10000000000001
 30
0.0
 41
2.5
 42
2.5
 43
2.5
  0
INSERT
  5
290B
330
2527
100
AcDbEntity
  8
AM_5
 62
     3
100
AcDbBlockReference
  2
_Open30
 10
-130.0
 20
27.10000000000001
 30
0.0
 41
2.5
 42
2.5
 43
2.5
 50
180.0
  0
MTEXT
  5
290C
330
2527
100
AcDbEntity
  8
AM_5
 62
     2
100
AcDbMText
 10
-90.0
 20
29.80000000000001
 30
0.0
 40
3.399999999999999
 41
0.0
 71
     5
 72
     1
  1
80
 73
     1
 44
1.0
  0
POINT
  5
290D
330
2527
100
AcDbEntity
  8
Defpoints
 62
     0
100
AcDbPoint
 10
-50.0
 20
11.87116570058674
 30
0.0
  0
POINT
  5
290E
330
2527
100
AcDbEntity
  8
Defpoints
 62
     0
100
AcDbPoint
 10
-130.0
 20
14.0
 30
0.0
  0
POINT
  5
290F
330
2527
100
AcDbEntity
  8
Defpoints
 62
     0
100
AcDbPoint
 10
-130.0
 20
27.10000000000001
 30
0.0
  0
ENDBLK
  5
2540
330
2527
100
AcDbEntity
  8
0
100
AcDbBlockEnd
  0
BLOCK
  5
2597
330
256E
100
AcDbEntity
  8
0
100
AcDbBlockBegin
  2
*D23
 70
     1
 10
0.0
 20
0.0
 30
0.0
  3
*D23
  1

  0
LINE
  5
28B6
330
256E
100
AcDbEntity
  8
AM_5
 62
     3
100
AcDbLine
 10
-21.90032426225307
 20
10.25
 30
0.0
 11
-30.70649603067384
 21
10.25
 31
0.0
  0
LINE
  5
28B7
330
256E
100
AcDbEntity
  8
AM_5
 62
     3
100
AcDbLine
 10
-25.84999999999999
 20
-10.25
 30
0.0
 11
-30.70649603067385
 21
-10.25
 31
0.0
  0
LINE
  5
28B8
330
256E
100
AcDbEntity
  8
AM_5
 62
     3
100
AcDbLine
 10
-30.20649603067385
 20
7.750000000000002
 30
0.0
 11
-30.20649603067385
 21
-7.749999999999997
 31
0.0
  0
INSERT
  5
28B9
330
256E
100
AcDbEntity
  8
AM_5
 62
     3
100
AcDbBlockReference
  2
_Open30
 10
-30.20649603067384
 20
10.25
 30
0.0
 41
2.5
 42
2.5
 43
2.5
 50
90.0
  0
INSERT
  5
28BA
330
256E
100
AcDbEntity
  8
AM_5
 62
     3
100
AcDbBlockReference
  2
_Open30
 10
-30.20649603067385
 20
-10.25
 30
0.0
 41
2.5
 42
2.5
 43
2.5
 50
270.0
  0
MTEXT
  5
28BB
330
256E
100
AcDbEntity
  8
AM_5
 62
     2
100
AcDbMText
 10
-32.90683067634314
 20
-0.0000000000000023
 30
0.0
 40
3.399999999999999
 41
0.0
 71
     5
 72
     1
  1
%%c20.5
 11
0.0000000000000001
 21
1.0
 31
0.0
 73
     1
 44
1.0
  0
POINT
  5
28BC
330
256E
100
AcDbEntity
  8
Defpoints
 62
     0
100
AcDbPoint
 10
-21.80032426225307
 20
10.25
 30
0.0
  0
POINT
  5
28BD
330
256E
100
AcDbEntity
  8
Defpoints
 62
     0
100
AcDbPoint
 10
-25.74999999999999
 20
-10.25
 30
0.0
  0
POINT
  5
28BE
330
256E
100
AcDbEntity
  8
Defpoints
 62
     0
100
AcDbPoint
 10
-30.20649603067385
 20
-10.25
 30
0.0
  0
ENDBLK
  5
2598
330
256E
100
AcDbEntity
  8
0
100
AcDbBlockEnd
  0
BLOCK
  5
25CE
330
25CD
100
AcDbEntity
  8
0
100
AcDbBlockBegin
  2
2
 70
     0
 10
0.0
 20
0.0
 30
0.0
  3
2
  1

  0
LINE
  5
25D0
330
25CD
100
AcDbEntity
  8
AM_0
100
AcDbLine
 10
-19.35508873805087
 20
54.97010468212685
 30
0.0
 11
-20.47300173805087
 21
48.63010468212685
 31
0.0
  0
LINE
  5
25D1
330
25CD
100
AcDbEntity
  8
AM_0
100
AcDbLine
 10
-12.45950373805087
 20
48.35226768212685
 30
0.0
 11
-11.34159073805087
 21
54.69226768212685
 31
0.0
  0
LINE
  5
25D2
330
25CD
100
AcDbEntity
  8
AM_0
100
AcDbLine
 10
-12.12943773805086
 20
55.63118568212686
 30
0.0
 11
-18.56724173805087
 21
55.63118568212686
 31
0.0
  0
LINE
  5
25D3
330
25CD
100
AcDbEntity
  8
AM_0
100
AcDbLine
 10
-19.68515473805087
 20
47.69118568212684
 30
0.0
 11
-13.24735073805088
 21
47.69118568212684
 31
0.0
  0
CIRCLE
  5
25D4
330
25CD
100
AcDbEntity
  8
AM_0
100
AcDbCircle
 10
-15.90729573805087
 20
51.66118568212684
 30
0.0
 40
1.7
  0
SPLINE
  5
25D5
330
25CD
100
AcDbEntity
  8
AM_0
100
AcDbSpline
210
0.0
220
0.0
230
1.0
 70
     8
 71
     3
 72
    11
 73
     7
 74
     5
 42
0.0000000001
 43
0.0000000001
 44
0.0000000001
 40
0.0
 40
0.0
 40
0.0
 40
0.0
 40
0.3463026206152735
 40
0.6926163836683803
 40
1.038926020984469
 40
1.385214484674779
 40
1.385214484674779
 40
1.385214484674779
 40
1.385214484674779
 10
-19.68515473805087
 20
47.69118568212684
 30
0.0
 10
-19.80163699415225
 20
47.70610277981563
 30
0.0
 10
-20.03460525422241
 20
47.73593745515735
 30
0.0
 10
-20.31593923423001
 20
47.96190585473214
 30
0.0
 10
-20.48961139073889
 20
48.27820365879877
 30
0.0
 10
-20.47853817610602
 20
48.51280673172463
 30
0.0
 10
-20.47300173805087
 20
48.63010468212685
 30
0.0
 11
-19.68515473805087
 21
47.69118568212684
 31
0.0
 11
-20.02324873805088
 21
47.76613868212684
 31
0.0
 11
-20.29799673805088
 21
47.97696268212685
 31
0.0
 11
-20.45789973805088
 21
48.28414568212686
 31
0.0
 11
-20.47300173805087
 21
48.63010468212685
 31
0.0
  0
SPLINE
  5
25D6
330
25CD
100
AcDbEntity
  8
AM_0
100
AcDbSpline
210
0.0
220
0.0
230
1.0
 70
     8
 71
     3
 72
    11
 73
     7
 74
     5
 42
0.0000000001
 43
0.0000000001
 44
0.0000000001
 40
0.0
 40
0.0
 40
0.0
 40
0.0
 40
0.277832701602963
 40
0.5556726361876057
 40
0.8335163118705372
 40
1.111348564326929
 40
1.111348564326929
 40
1.111348564326929
 40
1.111348564326929
 10
-18.56724173805087
 20
55.63118568212686
 30
0.0
 10
-18.66041291071358
 20
55.6217271768348
 30
0.0
 10
-18.8467576816188
 20
55.6028099200119
 30
0.0
 10
-19.09086696300952
 20
55.45521872371428
 30
0.0
 10
-19.27860522398811
 20
55.24044724814593
 30
0.0
 10
-19.32959458276537
 20
55.06021763578526
 30
0.0
 10
-19.35508873805087
 20
54.97010468212685
 30
0.0
 11
-18.56724173805087
 21
55.63118568212686
 31
0.0
 11
-18.84085373805087
 21
55.58294168212684
 31
0.0
 11
-19.08147073805087
 21
55.44402268212685
 31
0.0
 11
-19.26006473805087
 21
55.23118168212684
 31
0.0
 11
-19.35508873805087
 21
54.97010468212685
 31
0.0
  0
SPLINE
  5
25D7
330
25CD
100
AcDbEntity
  8
AM_0
100
AcDbSpline
210
0.0
220
0.0
230
1.0
 70
     8
 71
     3
 72
    11
 73
     7
 74
     5
 42
0.0000000001
 43
0.0000000001
 44
0.0000000001
 40
0.0
 40
0.0
 40
0.0
 40
0.0
 40
0.3463026206152663
 40
0.6926163836683688
 40
1.038926020984451
 40
1.385213485626181
 40
1.385213485626181
 40
1.385213485626181
 40
1.385213485626181
 10
-12.12943773805086
 20
55.63118568212686
 30
0.0
 10
-12.01295548111963
 20
55.61626858463057
 30
0.0
 10
-11.77998721938976
 20
55.58643390967393
 30
0.0
 10
-11.49865325183038
 20
55.36046550721114
 30
0.0
 10
-11.3249812150278
 20
55.04416801828003
 30
0.0
 10
-11.33605434854092
 20
54.80956529066861
 30
0.0
 10
-11.34159073805087
 20
54.69226768212685
 30
0.0
 11
-12.12943773805086
 21
55.63118568212686
 31
0.0
 11
-11.79134373805087
 21
55.55623268212684
 31
0.0
 11
-11.51659573805087
 21
55.34540868212684
 31
0.0
 11
-11.35669273805087
 21
55.03822568212685
 31
0.0
 11
-11.34159073805087
 21
54.69226768212685
 31
0.0
  0
SPLINE
  5
25D8
330
25CD
100
AcDbEntity
  8
AM_0
100
AcDbSpline
210
0.0
220
0.0
230
1.0
 70
     8
 71
     3
 72
    11
 73
     7
 74
     5
 42
0.0000000001
 43
0.0000000001
 44
0.0000000001
 40
0.0
 40
0.0
 40
0.0
 40
0.0
 40
0.2778327016029735
 40
0.5556731361854832
 40
0.8335160458232858
 40
1.111349237972831
 40
1.111349237972831
 40
1.111349237972831
 40
1.111349237972831
 10
-13.24735073805088
 20
47.69118568212684
 30
0.0
 10
-13.15417950463396
 20
47.70064409794442
 30
0.0
 10
-12.96783444454441
 20
47.71956119283778
 30
0.0
 10
-12.72372618428039
 20
47.86715379146495
 30
0.0
 10
-12.53598668248759
 20
48.08192436549474
 30
0.0
 10
-12.48499775563702
 20
48.26215429385086
 30
0.0
 10
-12.45950373805087
 20
48.35226768212685
 30
0.0
 11
-13.24735073805088
 21
47.69118568212684
 31
0.0
 11
-12.97373873805087
 21
47.73942968212685
 31
0.0
 11
-12.73312173805087
 21
47.87834968212684
 31
0.0
 11
-12.55452773805087
 21
48.09118968212684
 31
0.0
 11
-12.45950373805087
 21
48.35226768212685
 31
0.0
  0
ENDBLK
  5
25CF
330
25CD
100
AcDbEntity
  8
0
100
AcDbBlockEnd
  0
BLOCK
  5
26E9
330
26E8
100
AcDbEntity
  8
0
100
AcDbBlockBegin
  2
3
 70
     0
 10
0.0
 20
0.0
 30
0.0
  3
3
  1

  0
LINE
  5
26EB
330
26E8
100
AcDbEntity
  8
AM_0
100
AcDbLine
 10
25.56790303957301
 20
59.18359481534221
 30
0.0
 11
17.520647039573
 21
59.18359481534221
 31
0.0
  0
LINE
  5
26EC
330
26E8
100
AcDbEntity
  8
AM_0
100
AcDbLine
 10
16.732801039573
 20
58.5225138153422
 30
0.0
 11
15.335410039573
 21
50.5975138153422
 31
0.0
  0
LINE
  5
26ED
330
26E8
100
AcDbEntity
  8
AM_0
100
AcDbLine
 10
16.123256039573
 20
49.6585948153422
 30
0.0
 11
24.17051203957301
 21
49.6585948153422
 31
0.0
  0
LINE
  5
26EE
330
26E8
100
AcDbEntity
  8
AM_0
100
AcDbLine
 10
24.958358039573
 20
50.3196768153422
 30
0.0
 11
26.355749039573
 21
58.24467681534222
 31
0.0
  0
ARC
  5
26EF
330
26E8
100
AcDbEntity
  8
AM_0
100
AcDbCircle
 10
16.123256039573
 20
50.45859481534222
 30
0.0
 40
0.7999998801731162
100
AcDbArc
 50
169.9999651886168
 51
270.0
  0
ARC
  5
26F0
330
26E8
100
AcDbEntity
  8
AM_0
100
AcDbCircle
 10
17.520647039573
 20
58.38359481534221
 30
0.0
 40
0.8
100
AcDbArc
 50
90.0
 51
169.9999651886168
  0
ARC
  5
26F1
330
26E8
100
AcDbEntity
  8
AM_0
100
AcDbCircle
 10
24.17051203957301
 20
50.45859481534222
 30
0.0
 40
0.8
100
AcDbArc
 50
270.0
 51
350.0000357202958
  0
ARC
  5
26F2
330
26E8
100
AcDbEntity
  8
AM_0
100
AcDbCircle
 10
25.56790303957301
 20
58.38359481534221
 30
0.0
 40
0.7999997065249449
100
AcDbArc
 50
350.0000357202958
 51
90.0
  0
CIRCLE
  5
26F3
330
26E8
100
AcDbEntity
  8
AM_0
100
AcDbCircle
 10
20.845580039573
 20
54.4210948153422
 30
0.0
 40
2.2
  0
ENDBLK
  5
26EA
330
26E8
100
AcDbEntity
  8
0
100
AcDbBlockEnd
  0
BLOCK
  5
285E
330
285D
100
AcDbEntity
  8
0
100
AcDbBlockBegin
  2
5
 70
     0
 10
0.0
 20
0.0
 30
0.0
  3
5
  1

  0
LINE
  5
2860
330
285D
100
AcDbEntity
  8
AM_0
100
AcDbLine
 10
-0.7819379999999825
 20
18.20450184237593
 30
0.0
 11
-12.06535799999999
 21
18.20450184237593
 31
0.0
  0
LINE
  5
2861
330
285D
100
AcDbEntity
  8
AM_0
100
AcDbLine
 10
-1.959345999999981
 20
6.160624842375937
 30
0.0
 11
0.0000000000000142
 21
17.27262484237593
 31
0.0
  0
LINE
  5
2862
330
285D
100
AcDbEntity
  8
AM_0
100
AcDbLine
 10
-14.02470299999999
 20
5.504501842375936
 30
0.0
 11
-2.741282999999988
 21
5.504501842375936
 31
0.0
  0
LINE
  5
2863
330
285D
100
AcDbEntity
  8
AM_0
100
AcDbLine
 10
-12.84729499999999
 20
17.54837784237594
 30
0.0
 11
-14.80664099999998
 21
6.436377842375939
 31
0.0
  0
CIRCLE
  5
2864
330
285D
100
AcDbEntity
  8
AM_0
100
AcDbCircle
 10
-7.403320999999983
 20
11.85450184237594
 30
0.0
 40
2.75
  0
SPLINE
  5
2865
330
285D
100
AcDbEntity
  8
AM_0
100
AcDbSpline
210
0.0
220
0.0
230
1.0
 70
     8
 71
     3
 72
    11
 73
     7
 74
     5
 42
0.0000000001
 43
0.0000000001
 44
0.0000000001
 40
0.0
 40
0.0
 40
0.0
 40
0.0
 40
0.3437050948778533
 40
0.6874206961138196
 40
1.03113437263106
 40
1.374824334534229
 40
1.374824334534229
 40
1.374824334534229
 40
1.374824334534229
 10
-14.02470299999999
 20
5.504501842375936
 30
0.0
 10
-14.14031153921115
 20
5.519307151538104
 30
0.0
 10
-14.37153215154884
 20
5.548918222430301
 30
0.0
 10
-14.65075619899515
 20
5.7731914854947
 30
0.0
 10
-14.82312698284514
 20
6.0871164389251
 30
0.0
 10
-14.81213620122536
 20
6.319960052168923
 30
0.0
 10
-14.80664099999998
 20
6.436377842375939
 30
0.0
 11
-14.02470299999999
 21
5.504501842375936
 31
0.0
 11
-14.36026099999998
 21
5.578892842375934
 31
0.0
 11
-14.63294799999998
 21
5.788134842375939
 31
0.0
 11
-14.79165299999998
 21
6.093014842375936
 31
0.0
 11
-14.80664099999998
 21
6.436377842375939
 31
0.0
  0
SPLINE
  5
2866
330
285D
100
AcDbEntity
  8
AM_0
100
AcDbSpline
210
0.0
220
0.0
230
1.0
 70
     8
 71
     3
 72
    11
 73
     7
 74
     5
 42
0.0000000001
 43
0.0000000001
 44
0.0000000001
 40
0.0
 40
0.0
 40
0.0
 40
0.0
 40
0.343705094877858
 40
0.6874213048796546
 40
1.03113409437984
 40
1.374825055331693
 40
1.374825055331693
 40
1.374825055331693
 40
1.374825055331693
 10
-0.7819379999999825
 20
18.20450184237593
 30
0.0
 10
-0.6663294020955074
 20
18.18969659943899
 30
0.0
 10
-0.4351084676050157
 20
18.16008563477642
 30
0.0
 10
-0.1558854358122259
 20
17.93581127953909
 30
0.0
 10
0.0164863285090237
 20
17.62188677814819
 30
0.0
 10
0.0054953264963693
 20
17.38904302297743
 30
0.0
 10
0.0000000000000142
 20
17.27262484237593
 30
0.0
 11
-0.7819379999999825
 21
18.20450184237593
 31
0.0
 11
-0.4463799999999837
 21
18.13011084237594
 31
0.0
 11
-0.1736929999999859
 21
17.92086784237594
 31
0.0
 11
-0.0149879999999882
 21
17.61598884237594
 31
0.0
 11
0.0000000000000142
 21
17.27262484237593
 31
0.0
  0
SPLINE
  5
2867
330
285D
100
AcDbEntity
  8
AM_0
100
AcDbSpline
210
0.0
220
0.0
230
1.0
 70
     8
 71
     3
 72
    11
 73
     7
 74
     5
 42
0.0000000001
 43
0.0000000001
 44
0.0000000001
 40
0.0
 40
0.0
 40
0.0
 40
0.0
 40
0.2757490154542731
 40
0.55150527418288
 40
0.8272634754480458
 40
1.103012889084779
 40
1.103012889084779
 40
1.103012889084779
 40
1.103012889084779
 10
-2.741282999999988
 20
5.504501842375936
 30
0.0
 10
-2.648810509343882
 20
5.513889231277688
 30
0.0
 10
-2.463863098998091
 20
5.532664255665693
 30
0.0
 10
-2.221586108912038
 20
5.679149885259082
 30
0.0
 10
-2.035254800832348
 20
5.892309231594939
 30
0.0
 10
-1.984648664827585
 20
6.071187255519596
 30
0.0
 10
-1.959345999999981
 20
6.160624842375937
 30
0.0
 11
-2.741282999999988
 21
5.504501842375936
 31
0.0
 11
-2.469722999999986
 21
5.552383842375938
 31
0.0
 11
-2.23091099999999
 21
5.690261842375939
 31
0.0
 11
-2.053656999999985
 21
5.901504842375934
 31
0.0
 11
-1.959345999999981
 21
6.160624842375937
 31
0.0
  0
SPLINE
  5
2868
330
285D
100
AcDbEntity
  8
AM_0
100
AcDbSpline
210
0.0
220
0.0
230
1.0
 70
     8
 71
     3
 72
    11
 73
     7
 74
     5
 42
0.0000000001
 43
0.0000000001
 44
0.0000000001
 40
0.0
 40
0.0
 40
0.0
 40
0.0
 40
0.2757491890994325
 40
0.5515058138575644
 40
0.8272641383828627
 40
1.103013552019598
 40
1.103013552019598
 40
1.103013552019598
 40
1.103013552019598
 10
-12.06535799999999
 20
18.20450184237593
 30
0.0
 10
-12.15783036638027
 20
18.1951138744614
 30
0.0
 10
-12.34277759268563
 20
18.17633768548302
 30
0.0
 10
-12.58505647630026
 20
18.0298546747781
 30
0.0
 10
-12.77138575502046
 20
17.81669306276066
 30
0.0
 10
-12.82199219089498
 20
17.63781528577551
 30
0.0
 10
-12.84729499999999
 20
17.54837784237594
 30
0.0
 11
-12.06535799999999
 21
18.20450184237593
 31
0.0
 11
-12.33691799999998
 21
18.15661884237593
 31
0.0
 11
-12.57573099999998
 21
18.01874184237594
 31
0.0
 11
-12.75298399999998
 21
17.80749784237594
 31
0.0
 11
-12.84729499999999
 21
17.54837784237594
 31
0.0
  0
ENDBLK
  5
285F
330
285D
100
AcDbEntity
  8
0
100
AcDbBlockEnd
  0
ENDSEC
  0
SECTION
  2
ENTITIES
  0
MTEXT
  5
211C
330
1F
100
AcDbEntity
  8
AM_6
100
AcDbMText
 10
-76.78184560256638
 20
-30.56204895769525
 30
0.0
 40
3.799999999999998
 41
60.06636689918344
 71
     1
 72
     5
  1
TSE4032
 73
     1
 44
1.0
  0
LINE
  5
218C
330
1F
100
AcDbEntity
  8
AM_0
100
AcDbLine
 10
-0.9999999999999859
 20
-19.00000000000004
 30
0.0
 11
-0.9999999999999859
 21
13.42227467622892
 31
0.0
  0
LINE
  5
21AD
330
1F
100
AcDbEntity
  8
AM_0
100
AcDbLine
 10
-12.91241394666201
 20
19.0
 30
0.0
 11
-17.99999999999998
 21
18.99999999999999
 31
0.0
  0
LINE
  5
21AE
330
1F
100
AcDbEntity
  8
AM_0
100
AcDbLine
 10
-17.99999999999998
 20
19.0
 30
0.0
 11
-17.99999999999999
 21
12.75
 31
0.0
  0
LINE
  5
21AF
330
1F
100
AcDbEntity
  8
AM_0
100
AcDbLine
 10
-20.49999999999999
 20
10.25
 30
0.0
 11
-44.99999999999934
 21
10.25
 31
0.0
  0
LINE
  5
21C8
330
1F
100
AcDbEntity
  8
AM_0
100
AcDbLine
 10
-50.0
 20
-13.75
 30
0.0
 11
-50.0
 21
15.0
 31
0.0
  0
LINE
  5
21C9
102
{ACAD_REACTORS
330
24FF
102
}
330
1F
100
AcDbEntity
  8
AM_0
100
AcDbLine
 10
-51.0
 20
16.0
 30
0.0
 11
-128.0
 21
16.0
 31
0.0
  0
LINE
  5
21CD
330
1F
100
AcDbEntity
  8
AM_0
100
AcDbLine
 10
-51.0
 20
16.0
 30
0.0
 11
-50.0
 21
15.0
 31
0.0
  0
LINE
  5
220D
102
{ACAD_REACTORS
330
24CC
330
2532
102
}
330
1F
100
AcDbEntity
  8
AM_0
100
AcDbLine
 10
-130.0
 20
14.0
 30
0.0
 11
-130.0
 21
-14.0
 31
0.0
  0
ARC
  5
220E
102
{ACAD_REACTORS
330
2532
102
}
330
1F
100
AcDbEntity
  8
AM_0
100
AcDbCircle
 10
-128.0
 20
14.0
 30
0.0
 40
2.0
100
AcDbArc
 50
90.0
 51
180.0
  0
LINE
  5
220F
330
1F
100
AcDbEntity
  8
AM_7
100
AcDbLine
 10
2.052878534158026
 20
0.0
 30
0.0
 11
-135.0710925720623
 21
0.0
 31
0.0
  0
LINE
  5
2243
330
1F
100
AcDbEntity
  8
AM_0
100
AcDbLine
 10
-128.0
 20
5.567764362830033
 30
0.0
 11
-60.0
 21
5.567764362830033
 31
0.0
  0
LINE
  5
2244
330
1F
100
AcDbEntity
  8
AM_0
100
AcDbLine
 10
-60.0
 20
5.567764362830025
 30
0.0
 11
-60.0
 21
0.0
 31
0.0
  0
LINE
  5
224B
330
1F
100
AcDbEntity
  8
AM_0
100
AcDbLine
 10
-50.0
 20
-13.75
 30
0.0
 11
-50.0
 21
-15.0
 31
0.0
  0
LINE
  5
224C
330
1F
100
AcDbEntity
  8
AM_0
100
AcDbLine
 10
-51.0
 20
-16.0
 30
0.0
 11
-50.0
 21
-15.0
 31
0.0
  0
LINE
  5
224D
330
1F
100
AcDbEntity
  8
AM_0
100
AcDbLine
 10
-51.0
 20
-16.0
 30
0.0
 11
-128.0
 21
-16.0
 31
0.0
  0
ARC
  5
224E
330
1F
100
AcDbEntity
  8
AM_0
100
AcDbCircle
 10
-128.0
 20
-14.0
 30
0.0
 40
2.0
100
AcDbArc
 50
180.0
 51
270.0
  0
LINE
  5
2253
330
1F
100
AcDbEntity
  8
AM_0
100
AcDbLine
 10
-128.0
 20
-5.567764362830025
 30
0.0
 11
-60.0
 21
-5.567764362830025
 31
0.0
  0
LINE
  5
2254
330
1F
100
AcDbEntity
  8
AM_0
100
AcDbLine
 10
-60.0
 20
-5.567764362830021
 30
0.0
 11
-60.0
 21
5.567764362830025
 31
0.0
  0
LINE
  5
226B
330
1F
100
AcDbEntity
  8
AM_0
100
AcDbLine
 10
-128.0
 20
16.0
 30
0.0
 11
-128.0
 21
5.567764362830033
 31
0.0
  0
LINE
  5
226C
330
1F
100
AcDbEntity
  8
AM_0
100
AcDbLine
 10
-128.0
 20
-5.567764362830025
 30
0.0
 11
-128.0
 21
-16.0
 31
0.0
  0
ARC
  5
226D
330
1F
100
AcDbEntity
  8
AM_0
100
AcDbCircle
 10
-112.0131748435385
 20
0.0000000000000249
 30
0.0
 40
16.92863191705903
100
AcDbArc
 50
160.7982010510753
 51
199.2017989489248
  0
DIMENSION
  5
2425
330
1F
100
AcDbEntity
  8
AM_5
100
AcDbDimension
  2
*D17
 10
-17.99999999999998
 20
27.10000000000001
 30
0.0
 11
-8.999945930955107
 21
29.80000000000001
 31
0.0
 70
    32
 71
     5
 42
18.00010813808975
  3
AM_JIS$0
100
AcDbAlignedDimension
 13
0.0001081380897653
 23
19.21360918943727
 33
0.0
 14
-17.99999999999998
 24
18.99999999999999
 34
0.0
100
AcDbRotatedDimension
1001
ACAD
1000
DSTYLE
1002
{
1070
    40
1040
1.0
1070
   144
1040
1.0
1070
   271
1070
     0
1002
}
  0
DIMENSION
  5
2461
330
1F
100
AcDbEntity
  8
AM_5
100
AcDbDimension
  2
*D18
 10
-50.0
 20
27.10000000000001
 30
0.0
 11
-33.99999999999999
 21
29.8003346456693
 31
0.0
 70
    32
 71
     5
 42
32.00000000000001
  3
AM_JIS$0
100
AcDbAlignedDimension
 13
-17.99999999999999
 23
15.1
 33
0.0
 14
-50.0
 24
11.87116570058674
 34
0.0
100
AcDbRotatedDimension
1001
ACAD
1000
DSTYLE
1002
{
1070
    40
1040
1.0
1070
   144
1040
1.0
1070
   271
1070
     0
1002
}
  0
LINE
  5
247C
330
1F
100
AcDbEntity
  8
AM_0
100
AcDbLine
 10
-51.0
 20
16.0
 30
0.0
 11
-51.0
 21
-16.0
 31
0.0
  0
LINE
  5
247D
330
1F
100
AcDbEntity
  8
AM_0
100
AcDbLine
 10
-50.0
 20
14.75
 30
0.0
 11
-50.0
 21
15.0
 31
0.0
  0
DIMENSION
  5
248D
330
1F
100
AcDbEntity
  8
AM_5
100
AcDbDimension
  2
*D19
 10
10.07616728122923
 20
-20.0
 30
0.0
 11
7.376167281229233
 21
-0.0000000000000003
 31
0.0
 70
    32
  1
%%c<>
 71
     5
 42
40.0
  3
AM_JIS$0
100
AcDbAlignedDimension
 13
-3.353015405175709
 23
20.0
 33
0.0
 14
-7.499999999999983
 24
-20.0
 34
0.0
 50
90.00000000000005
100
AcDbRotatedDimension
1001
ACAD
1000
DSTYLE
1002
{
1070
    40
1040
1.0
1070
   144
1040
1.0
1070
   271
1070
     0
1002
}
  0
DIMENSION
  5
24C0
102
{ACAD_XDICTIONARY
360
24CB
102
}
102
{ACAD_REACTORS
330
24CC
102
}
330
1F
100
AcDbEntity
  8
AM_5
100
AcDbDimension
  2
*D20
 10
-130.0
 20
36.18247488889274
 30
0.0
 11
-64.99994593094232
 21
38.88247488889275
 31
0.0
 70
    32
 71
     5
 42
130.0001081381154
  3
AM_JIS$0
100
AcDbAlignedDimension
 13
0.0001081381153597
 23
19.21361121069615
 33
0.0
 14
-130.0
 24
-9.436566675870828
 34
0.0
100
AcDbRotatedDimension
1001
ACAD
1000
DSTYLE
1002
{
1070
    40
1040
1.0
1070
   144
1040
1.0
1070
   271
1070
     0
1002
}
  0
DIMENSION
  5
24F3
102
{ACAD_XDICTIONARY
360
24FE
102
}
102
{ACAD_REACTORS
330
24FF
102
}
330
1F
100
AcDbEntity
  8
AM_5
100
AcDbDimension
  2
*D21
 10
-140.5406668906196
 20
-15.99999999999999
 30
0.0
 11
-143.2410015362889
 21
-0.0000000000000168
 31
0.0
 70
    32
  1
%%c<>
 71
     5
 42
32.0
  3
AM_JIS$0
100
AcDbAlignedDimension
 13
-125.255075916184
 23
16.0
 33
0.0
 14
-115.1251024844395
 24
-16.0
 34
0.0
 50
90.00000000000005
100
AcDbRotatedDimension
1001
ACAD
1000
DSTYLE
1002
{
1070
    40
1040
1.0
1070
   144
1040
1.0
1070
   271
1070
     0
1002
}
  0
DIMENSION
  5
2526
102
{ACAD_XDICTIONARY
360
2531
102
}
102
{ACAD_REACTORS
330
2532
102
}
330
1F
100
AcDbEntity
  8
AM_5
100
AcDbDimension
  2
*D22
 10
-130.0
 20
27.10000000000001
 30
0.0
 11
-90.0
 21
29.80000000000001
 31
0.0
 70
    32
 71
     5
 42
80.0
  3
AM_JIS$0
100
AcDbAlignedDimension
 13
-50.0
 23
11.87116570058674
 33
0.0
 14
-130.0
 24
14.0
 34
0.0
100
AcDbRotatedDimension
1001
ACAD
1000
DSTYLE
1002
{
1070
    40
1040
1.0
1070
   144
1040
1.0
1070
   271
1070
     0
1002
}
  0
DIMENSION
  5
256D
330
1F
100
AcDbEntity
  8
AM_5
100
AcDbDimension
  2
*D23
 10
-30.20649603067385
 20
-10.25
 30
0.0
 11
-32.90683067634314
 21
-0.0000000000000023
 31
0.0
 70
    32
  1
%%c<>
 71
     5
 42
20.5
  3
AM_JIS$0
100
AcDbAlignedDimension
 13
-21.80032426225307
 23
10.25
 33
0.0
 14
-25.74999999999999
 24
-10.25
 34
0.0
 50
90.00000000000005
100
AcDbRotatedDimension
1001
ACAD
1000
DSTYLE
1002
{
1070
   271
1070
     1
1002
}
  0
ARC
  5
275E
330
1F
100
AcDbEntity
  8
AM_0
100
AcDbCircle
 10
-44.99516815920855
 20
15.26166509556995
 30
0.0
 40
5.011667424803803
100
AcDbArc
 50
182.9928413527435
 51
269.9447600760282
  0
INSERT
  5
2869
330
1F
100
AcDbEntity
  8
AM_0
100
AcDbBlockReference
  2
5
 10
-0.0044843115741945
 20
1.795498157624065
 30
0.0
  0
LINE
  5
28A1
330
1F
100
AcDbEntity
  8
AM_0
100
AcDbLine
 10
-20.49999999999999
 20
-10.25
 30
0.0
 11
-44.99999999999825
 21
-10.25
 31
0.0
  0
ARC
  5
28A2
330
1F
100
AcDbEntity
  8
AM_0
100
AcDbCircle
 10
-44.99516815920855
 20
-15.26166509556995
 30
0.0
 40
5.011667424803803
100
AcDbArc
 50
90.05523992397185
 51
177.0071586472565
  0
ARC
  5
28AC
330
1F
100
AcDbEntity
  8
AM_0
100
AcDbCircle
 10
-20.49999999999999
 20
12.75
 30
0.0
 40
2.5
100
AcDbArc
 50
270.0
 51
0.0
  0
LINE
  5
292E
330
1F
100
AcDbEntity
  8
AM_0
100
AcDbLine
 10
-0.9999999999999859
 20
-19.00000000000004
 30
0.0
 11
-17.99999999999998
 21
-18.99999999999999
 31
0.0
  0
LINE
  5
292F
330
1F
100
AcDbEntity
  8
AM_0
100
AcDbLine
 10
-17.99999999999998
 20
-19.0
 30
0.0
 11
-17.99999999999999
 21
-12.75
 31
0.0
  0
ARC
  5
2930
330
1F
100
AcDbEntity
  8
AM_0
100
AcDbCircle
 10
-20.49999999999999
 20
-12.75
 30
0.0
 40
2.5
100
AcDbArc
 50
0.0
 51
90.00000000000005
  0
LINE
  5
2931
330
1F
100
AcDbEntity
  8
AM_3
 48
0.3
100
AcDbLine
 10
-3.771916817601718
 20
-7.300000000000003
 30
0.0
 11
-15.05533681760172
 21
-7.300000000000003
 31
0.0
  0
LINE
  5
2932
330
1F
100
AcDbEntity
  8
AM_3
 48
0.3
100
AcDbLine
 10
-4.949324817601717
 20
-19.343877
 30
0.0
 11
-2.989978817601721
 21
-8.231877000000004
 31
0.0
  0
LINE
  5
2933
330
1F
100
AcDbEntity
  8
AM_0
100
AcDbLine
 10
-17.01468181760172
 20
-20.0
 30
0.0
 11
-5.731261817601724
 21
-20.0
 31
0.0
  0
LINE
  5
2934
330
1F
100
AcDbEntity
  8
AM_3
 48
0.3
100
AcDbLine
 10
-15.83727381760172
 20
-7.956123999999995
 30
0.0
 11
-17.79661981760172
 21
-19.06812399999999
 31
0.0
  0
CIRCLE
  5
2935
330
1F
100
AcDbEntity
  8
AM_3
 48
0.3
100
AcDbCircle
 10
-10.39329981760172
 20
-13.65
 30
0.0
 40
2.75
  0
SPLINE
  5
2936
330
1F
100
AcDbEntity
  8
AM_0
100
AcDbSpline
210
0.0
220
0.0
230
1.0
 70
     8
 71
     3
 72
    11
 73
     7
 74
     5
 42
0.0000000001
 43
0.0000000001
 44
0.0000000001
 40
0.0
 40
0.0
 40
0.0
 40
0.0
 40
0.3437050948778612
 40
0.6874206961138208
 40
1.031134372631064
 40
1.374824334534245
 40
1.374824334534245
 40
1.374824334534245
 40
1.374824334534245
 10
-17.01468181760172
 20
-20.0
 30
0.0
 10
-17.13029035681289
 20
-19.98519469083783
 30
0.0
 10
-17.36151096915058
 20
-19.95558361994563
 30
0.0
 10
-17.64073501659689
 20
-19.73131035688124
 30
0.0
 10
-17.81310580044688
 20
-19.41738540345084
 30
0.0
 10
-17.80211501882711
 20
-19.18454179020701
 30
0.0
 10
-17.79661981760172
 20
-19.06812399999999
 30
0.0
 11
-17.01468181760172
 21
-20.0
 31
0.0
 11
-17.35023981760172
 21
-19.925609
 31
0.0
 11
-17.62292681760172
 21
-19.716367
 31
0.0
 11
-17.78163181760172
 21
-19.411487
 31
0.0
 11
-17.79661981760172
 21
-19.06812399999999
 31
0.0
  0
SPLINE
  5
2937
330
1F
100
AcDbEntity
  8
AM_3
 48
0.3
100
AcDbSpline
210
0.0
220
0.0
230
1.0
 70
     8
 71
     3
 72
    11
 73
     7
 74
     5
 42
0.0000000001
 43
0.0000000001
 44
0.0000000001
 40
0.0
 40
0.0
 40
0.0
 40
0.0
 40
0.3437050948778593
 40
0.6874213048796561
 40
1.031134094379841
 40
1.374825055331691
 40
1.374825055331691
 40
1.374825055331691
 40
1.374825055331691
 10
-3.771916817601718
 20
-7.300000000000003
 30
0.0
 10
-3.656308219697243
 20
-7.314805242936945
 30
0.0
 10
-3.425087285206751
 20
-7.344416207599512
 30
0.0
 10
-3.145864253413961
 20
-7.56869056283684
 30
0.0
 10
-2.973492489092712
 20
-7.88261506422774
 30
0.0
 10
-2.984483491105366
 20
-8.115458819398499
 30
0.0
 10
-2.989978817601721
 20
-8.231877000000004
 30
0.0
 11
-3.771916817601718
 21
-7.300000000000003
 31
0.0
 11
-3.436358817601719
 21
-7.374390999999994
 31
0.0
 11
-3.163671817601721
 21
-7.583633999999996
 31
0.0
 11
-3.004966817601723
 21
-7.888512999999996
 31
0.0
 11
-2.989978817601721
 21
-8.231877000000004
 31
0.0
  0
SPLINE
  5
2938
330
1F
100
AcDbEntity
  8
AM_0
100
AcDbSpline
210
0.0
220
0.0
230
1.0
 70
     8
 71
     3
 72
    11
 73
     7
 74
     5
 42
0.0000000001
 43
0.0000000001
 44
0.0000000001
 40
0.0
 40
0.0
 40
0.0
 40
0.0
 40
0.2757490154542717
 40
0.5515052741828781
 40
0.8272634754480478
 40
1.103012889084778
 40
1.103012889084778
 40
1.103012889084778
 40
1.103012889084778
 10
-5.731261817601724
 20
-20.0
 30
0.0
 10
-5.638789326945618
 20
-19.99061261109824
 30
0.0
 10
-5.453841916599826
 20
-19.97183758671024
 30
0.0
 10
-5.211564926513775
 20
-19.82535195711685
 30
0.0
 10
-5.025233618434088
 20
-19.61219261078099
 30
0.0
 10
-4.974627482429323
 20
-19.43331458685634
 30
0.0
 10
-4.949324817601717
 20
-19.343877
 30
0.0
 11
-5.731261817601724
 21
-20.0
 31
0.0
 11
-5.459701817601724
 21
-19.952118
 31
0.0
 11
-5.220889817601728
 21
-19.81424
 31
0.0
 11
-5.043635817601722
 21
-19.602997
 31
0.0
 11
-4.949324817601717
 21
-19.343877
 31
0.0
  0
SPLINE
  5
2939
330
1F
100
AcDbEntity
  8
AM_3
 48
0.3
100
AcDbSpline
210
0.0
220
0.0
230
1.0
 70
     8
 71
     3
 72
    11
 73
     7
 74
     5
 42
0.0000000001
 43
0.0000000001
 44
0.0000000001
 40
0.0
 40
0.0
 40
0.0
 40
0.0
 40
0.2757491890994412
 40
0.5515058138575771
 40
0.8272641383828759
 40
1.103013552019601
 40
1.103013552019601
 40
1.103013552019601
 40
1.103013552019601
 10
-15.05533681760172
 20
-7.300000000000003
 30
0.0
 10
-15.14780918398201
 20
-7.309387967914524
 30
0.0
 10
-15.33275641028738
 20
-7.328164156892907
 30
0.0
 10
-15.57503529390199
 20
-7.474647167597838
 30
0.0
 10
-15.7613645726222
 20
-7.687808779615274
 30
0.0
 10
-15.81197100849672
 20
-7.86668655660042
 30
0.0
 10
-15.83727381760172
 20
-7.956123999999995
 30
0.0
 11
-15.05533681760172
 21
-7.300000000000003
 31
0.0
 11
-15.32689681760172
 21
-7.347883000000002
 31
0.0
 11
-15.56570981760172
 21
-7.485759999999999
 31
0.0
 11
-15.74296281760172
 21
-7.697003999999998
 31
0.0
 11
-15.83727381760172
 21
-7.956123999999995
 31
0.0
  0
LINE
  5
293A
330
1F
100
AcDbEntity
  8
AM_0
100
AcDbLine
 10
-17.79661981760172
 20
-19.06812399999999
 30
0.0
 11
-17.78460771474859
 21
-18.99999999999999
 31
0.0
  0
LINE
  5
293B
330
1F
100
AcDbEntity
  8
AM_0
100
AcDbLine
 10
-4.949324817601717
 20
-19.343877
 30
0.0
 11
-4.888690006186856
 21
-19.00000000000003
 31
0.0
  0
ENDSEC
  0
SECTION
  2
OBJECTS
  0
DICTIONARY
  5
C
330
0
100
AcDbDictionary
281
     1
  3
ACAD_COLOR
350
BE
  3
ACAD_GROUP
350
D
  3
ACAD_LAYOUT
350
1A
  3
ACAD_MATERIAL
350
BD
  3
ACAD_MLINESTYLE
350
17
  3
ACAD_PLOTSETTINGS
350
19
  3
ACAD_PLOTSTYLENAME
350
E
  3
ACAD_TABLESTYLE
350
11A
  3
AcDbVariableDictionary
350
94
  3
AcmDictionary
350
5B
  3
AMG
350
41
  3
AMGSNAPSETTINGS
350
1B8
  0
DICTIONARY
  5
34B
330
2
100
AcDbDictionary
280
     1
281
     1
  3
AMLAYER_GROUPCOLORS
360
34C
  0
DICTIONARY
  5
8F
330
1F
100
AcDbDictionary
280
     1
281
     1
  3
ACAD_SORTENTS
360
7DB
  0
DICTIONARY
  5
24CB
330
24C0
100
AcDbDictionary
280
     1
281
     1
  3
ACAD_DIMASSOC
360
24CC
  0
DICTIONARY
  5
24FE
330
24F3
100
AcDbDictionary
280
     1
281
     1
  3
ACAD_DIMASSOC
360
24FF
  0
DICTIONARY
  5
2531
330
2526
100
AcDbDictionary
280
     1
281
     1
  3
ACAD_DIMASSOC
360
2532
  0
DICTIONARY
  5
BE
102
{ACAD_REACTORS
330
C
102
}
330
C
100
AcDbDictionary
281
     1
  0
DICTIONARY
  5
D
102
{ACAD_REACTORS
330
C
102
}
330
C
100
AcDbDictionary
281
     1
  0
DICTIONARY
  5
1A
102
{ACAD_REACTORS
330
C
102
}
330
C
100
AcDbDictionary
281
     1
  3
\M+1838C\M+18343\M+18341\M+18345\M+183671
350
1E
  3
\M+1838C\M+18343\M+18341\M+18345\M+183672
350
26
  3
Model
350
22
  0
DICTIONARY
  5
BD
102
{ACAD_REACTORS
330
C
102
}
330
C
100
AcDbDictionary
281
     1
  0
DICTIONARY
  5
17
102
{ACAD_REACTORS
330
C
102
}
330
C
100
AcDbDictionary
281
     1
  3
Standard
350
18
  0
DICTIONARY
  5
19
102
{ACAD_REACTORS
330
C
102
}
330
C
100
AcDbDictionary
281
     1
  0
ACDBDICTIONARYWDFLT
  5
E
102
{ACAD_REACTORS
330
C
102
}
330
C
100
AcDbDictionary
281
     1
  3
Normal
350
F
100
AcDbDictionaryWithDefault
340
F
  0
DICTIONARY
  5
11A
102
{ACAD_REACTORS
330
C
102
}
330
C
100
AcDbDictionary
281
     1
  3
Standard
350
11B
  0
DICTIONARY
  5
94
102
{ACAD_REACTORS
330
C
102
}
330
C
100
AcDbDictionary
281
     1
  3
CTABLESTYLE
350
138
  3
DIMASSOC
350
96
  3
INDEXCTL
350
95
  3
PROJECTNAME
350
D34
  0
DICTIONARY
  5
5B
102
{ACAD_REACTORS
330
C
102
}
330
C
100
AcDbDictionary
281
     1
  3
AcmBOM
350
1B5
  3
AcmStdDictionary
350
61
  3
AMDTSECTSYM_ARROWCOLOR
350
123
  0
DICTIONARY
  5
41
102
{ACAD_REACTORS
330
C
102
}
330
C
100
AcDbDictionary
281
     1
  0
DICTIONARY
  5
1B8
102
{ACAD_REACTORS
330
C
102
}
330
C
100
AcDbDictionary
281
     1
  0
DICTIONARY
  5
34C
102
{ACAD_REACTORS
330
34B
102
}
330
34B
100
AcDbDictionary
280
     1
281
     1
  0
SORTENTSTABLE
  5
7DB
102
{ACAD_REACTORS
330
8F
102
}
330
8F
100
AcDbSortentsTable
330
1F
331
28A1
  5
2935
331
211C
  5
211C
331
2869
  5
2891
331
247D
  5
25D9
331
224C
  5
226B
331
2930
  5
2939
331
2461
  5
24F3
331
2243
  5
224E
331
2933
  5
292E
331
248D
  5
261A
331
226D
  5
248D
331
2936
  5
2931
331
21C9
  5
2244
331
220D
  5
2248
331
24C0
  5
2690
331
292E
  5
2937
331
21AE
  5
21AE
331
2939
  5
2934
331
275E
  5
220F
331
24F3
  5
2692
331
2425
  5
24C0
331
2254
  5
2461
331
28AC
  5
21CD
331
218C
  5
218C
331
2938
  5
2933
331
224E
  5
226D
331
2932
  5
28AC
331
2935
  5
2930
331
21AD
  5
21AD
331
226C
  5
247D
331
247C
  5
256D
331
224B
  5
2254
331
220F
  5
224D
331
21C8
  5
220E
331
256D
  5
2846
331
28A2
  5
2936
331
2244
  5
2253
331
2253
  5
2425
331
2931
  5
28A2
331
226B
  5
247C
331
2526
  5
2693
331
2937
  5
2932
331
292F
  5
2938
331
21AF
  5
21DD
331
220E
  5
2245
331
21CD
  5
2243
331
2934
  5
292F
331
224D
  5
226C
  0
DIMASSOC
  5
24CC
102
{ACAD_REACTORS
330
24CB
102
}
330
24CB
100
AcDbDimAssoc
330
24C0
 90
        2
 70
     0
 71
     0
  1
AcDbOsnapPointRef
 72
    10
331
220D
 73
     0
 91
        0
 40
0.8370202384239583
 10
0.0
 20
0.0
 30
0.0
 75
     0
  0
DIMASSOC
  5
24FF
102
{ACAD_REACTORS
330
24FE
102
}
330
24FE
100
AcDbDimAssoc
330
24F3
 90
        1
 70
     0
 71
     0
  1
AcDbOsnapPointRef
 72
    10
331
21C9
 73
     0
 91
        0
 40
0.9643516352751181
 10
0.0
 20
0.0
 30
0.0
 75
     0
  0
DIMASSOC
  5
2532
102
{ACAD_REACTORS
330
2531
102
}
330
2531
100
AcDbDimAssoc
330
2526
 90
        2
 70
     0
 71
     0
  1
AcDbOsnapPointRef
 72
     6
331
220D
 73
     0
 91
        0
 40
0.0
 10
0.0
 20
0.0
 30
0.0
332
220E
 74
     0
 92
        0
 75
     0
  0
LAYOUT
  5
1E
102
{ACAD_REACTORS
330
1A
102
}
330
1A
100
AcDbPlotSettings
  1

  2

  4

  6

 40
0.0
 41
0.0
 42
0.0
 43
0.0
 44
0.0
 45
0.0
 46
0.0
 47
0.0
 48
0.0
 49
0.0
140
0.0
141
0.0
142
1.0
143
1.0
 70
   688
 72
     0
 73
     0
 74
     5
  7
sei_cad.ctb
 75
    16
147
1.0
 76
     0
 77
     2
 78
   300
148
0.0
149
0.0
100
AcDbLayout
  1
\M+1838C\M+18343\M+18341\M+18345\M+183671
 70
     1
 71
     1
 10
0.0
 20
0.0
 11
420.0
 21
297.0
 12
0.0
 22
0.0
 32
0.0
 14
1.000000000000000E+20
 24
1.000000000000000E+20
 34
1.000000000000000E+20
 15
-1.000000000000000E+20
 25
-1.000000000000000E+20
 35
-1.000000000000000E+20
146
0.0
 13
0.0
 23
0.0
 33
0.0
 16
1.0
 26
0.0
 36
0.0
 17
0.0
 27
1.0
 37
0.0
 76
     0
330
1B
  0
LAYOUT
  5
26
102
{ACAD_REACTORS
330
1A
102
}
330
1A
100
AcDbPlotSettings
  1

  2

  4

  6

 40
0.0
 41
0.0
 42
0.0
 43
0.0
 44
0.0
 45
0.0
 46
0.0
 47
0.0
 48
0.0
 49
0.0
140
0.0
141
0.0
142
1.0
143
1.0
 70
   688
 72
     0
 73
     0
 74
     5
  7
sei_cad.ctb
 75
    16
147
1.0
 76
     0
 77
     2
 78
   300
148
0.0
149
0.0
100
AcDbLayout
  1
\M+1838C\M+18343\M+18341\M+18345\M+183672
 70
     1
 71
     2
 10
0.0
 20
0.0
 11
12.0
 21
9.0
 12
0.0
 22
0.0
 32
0.0
 14
0.0
 24
0.0
 34
0.0
 15
0.0
 25
0.0
 35
0.0
146
0.0
 13
0.0
 23
0.0
 33
0.0
 16
1.0
 26
0.0
 36
0.0
 17
0.0
 27
1.0
 37
0.0
 76
     0
330
23
  0
LAYOUT
  5
22
102
{ACAD_REACTORS
330
1A
102
}
330
1A
100
AcDbPlotSettings
  1

  2
DocuCentre-IV C5570
  4
A4
  6

 40
4.900083065032958
 41
4.900057315826416
 42
4.90008544921875
 43
4.90008544921875
 44
210.0156707763672
 45
297.0106506347656
 46
37.71304823779619
 47
0.0000000000000048
 48
-150.3235063366069
 49
-45.7513895042249
140
21.48769047344917
141
28.89844596462088
142
1.0
143
0.5982065143939308
 70
 11956
 72
     1
 73
     1
 74
     4
  7
sei_cad.ctb
 75
     0
147
1.671663507397848
 76
     0
 77
     2
 78
   300
148
150.3235063366069
149
45.7513895042249
100
AcDbLayout
  1
Model
 70
     1
 71
     0
 10
0.0
 20
0.0
 11
12.0
 21
9.0
 12
0.0
 22
0.0
 32
0.0
 14
0.0
 24
0.0
 34
0.0
 15
0.0
 25
0.0
 35
0.0
146
0.0
 13
0.0
 23
0.0
 33
0.0
 16
1.0
 26
0.0
 36
0.0
 17
0.0
 27
1.0
 37
0.0
 76
     0
330
1F
1001
ACAD_PSEXT
1000
DocuCentre-IV C5570
1000
FX DocuCentre-IV C5570
1000
133.153.16.72
1000

1070
     0
  0
MLINESTYLE
  5
18
102
{ACAD_REACTORS
330
17
102
}
330
17
100
AcDbMlineStyle
  2
STANDARD
 70
     0
  3

 62
   256
 51
90.0
 52
90.0
 71
     2
 49
0.5
 62
   256
  6
BYLAYER
 49
-0.5
 62
   256
  6
BYLAYER
  0
ACDBPLACEHOLDER
  5
F
102
{ACAD_REACTORS
330
E
102
}
330
E
  0
TABLESTYLE
  5
11B
102
{ACAD_REACTORS
330
11A
102
}
330
11A
100
AcDbTableStyle
  3
Standard
 70
     0
 71
     0
 40
1.5
 41
1.5
280
     0
281
     0
  7
STANDARD
140
4.5
170
     2
 62
     0
 63
     7
283
     0
274
    -2
284
     1
 64
     0
275
    -2
285
     1
 65
     0
276
    -2
286
     1
 66
     0
277
    -2
287
     1
 67
     0
278
    -2
288
     1
 68
     0
279
    -2
289
     1
 69
     0
  7
STANDARD
140
6.0
170
     5
 62
     0
 63
     7
283
     0
274
    -2
284
     1
 64
     0
275
    -2
285
     1
 65
     0
276
    -2
286
     1
 66
     0
277
    -2
287
     1
 67
     0
278
    -2
288
     1
 68
     0
279
    -2
289
     1
 69
     0
  7
STANDARD
140
4.5
170
     5
 62
     0
 63
     7
283
     0
274
    -2
284
     1
 64
     0
275
    -2
285
     1
 65
     0
276
    -2
286
     1
 66
     0
277
    -2
287
     1
 67
     0
278
    -2
288
     1
 68
     0
279
    -2
289
     1
 69
     0
  0
DICTIONARYVAR
  5
138
102
{ACAD_REACTORS
330
94
102
}
330
94
100
DictionaryVariables
280
     0
  1
STANDARD
  0
DICTIONARYVAR
  5
96
102
{ACAD_REACTORS
330
94
102
}
330
94
100
DictionaryVariables
280
     0
  1
2
  0
DICTIONARYVAR
  5
95
102
{ACAD_REACTORS
330
94
102
}
330
94
100
DictionaryVariables
280
     0
  1
0
  0
DICTIONARYVAR
  5
D34
102
{ACAD_REACTORS
330
94
102
}
330
94
100
DictionaryVariables
280
     0
  1

  0
DICTIONARY
  5
1B5
102
{ACAD_REACTORS
330
5B
102
}
330
5B
100
AcDbDictionary
281
     1
  0
DICTIONARY
  5
61
102
{ACAD_REACTORS
330
5B
102
}
330
5B
100
AcDbDictionary
281
     1
  0
XRECORD
  5
123
102
{ACAD_REACTORS
330
5B
102
}
330
5B
100
AcDbXrecord
280
     1
 90
-1023410169
  0
ENDSEC
  0
EOF
