  0
SECTION
  2
HEADER
  9
$ACADVER
  1
AC1014
  9
$ACADMAINTVER
 70
     9
  9
$DWGCODEPAGE
  3
ANSI_932
  9
$INSBASE
 10
0.0
 20
0.0
 30
0.0
  9
$EXTMIN
 10
-92.37678106511793
 20
-117.7900010099999
 30
-0.00000001
  9
$EXTMAX
 10
28.85844144231784
 20
61.29
 30
0.00000001
  9
$LIMMIN
 10
-131.605828770373
 20
-132.757812951113
  9
$LIMMAX
 10
45.58014645149228
 20
84.75544910298538
  9
$ORTHOMODE
 70
     0
  9
$REGENMODE
 70
     1
  9
$FILLMODE
 70
     1
  9
$QTEXTMODE
 70
     0
  9
$MIRRTEXT
 70
     0
  9
$DRAGMODE
 70
     2
  9
$LTSCALE
 40
1.0
  9
$OSMODE
 70
    55
  9
$ATTMODE
 70
     1
  9
$TEXTSIZE
 40
2.5
  9
$TRACEWID
 40
1.0
  9
$TEXTSTYLE
  7
STANDARD
  9
$CLAYER
  8
AM_0
  9
$CELTYPE
  6
BYLAYER
  9
$CECOLOR
 62
   256
  9
$CELTSCALE
 40
1.0
  9
$DELOBJ
 70
     1
  9
$DISPSILH
 70
     0
  9
$DIMSCALE
 40
1.0
  9
$DIMASZ
 40
2.5
  9
$DIMEXO
 40
1.0
  9
$DIMDLI
 40
12.0
  9
$DIMRND
 40
0.0
  9
$DIMDLE
 40
0.0
  9
$DIMEXE
 40
1.0
  9
$DIMTP
 40
0.1
  9
$DIMTM
 40
0.1
  9
$DIMTXT
 40
3.2
  9
$DIMCEN
 40
0.0
  9
$DIMTSZ
 40
0.0
  9
$DIMTOL
 70
     0
  9
$DIMLIM
 70
     0
  9
$DIMTIH
 70
     0
  9
$DIMTOH
 70
     0
  9
$DIMSE1
 70
     0
  9
$DIMSE2
 70
     0
  9
$DIMTAD
 70
     3
  9
$DIMZIN
 70
     8
  9
$DIMBLK
  1
OPEN30
  9
$DIMASO
 70
     1
  9
$DIMSHO
 70
     1
  9
$DIMPOST
  1

  9
$DIMAPOST
  1
"
  9
$DIMALT
 70
     0
  9
$DIMALTD
 70
     2
  9
$DIMALTF
 40
0.0393701
  9
$DIMLFAC
 40
1.0
  9
$DIMTOFL
 70
     1
  9
$DIMTVP
 40
0.0
  9
$DIMTIX
 70
     0
  9
$DIMSOXD
 70
     0
  9
$DIMSAH
 70
     0
  9
$DIMBLK1
  1

  9
$DIMBLK2
  1

  9
$DIMSTYLE
  2
AM_JIS
  9
$DIMCLRD
 70
   256
  9
$DIMCLRE
 70
   256
  9
$DIMCLRT
 70
     2
  9
$DIMTFAC
 40
0.71
  9
$DIMGAP
 40
1.5
  9
$DIMJUST
 70
     0
  9
$DIMSD1
 70
     0
  9
$DIMSD2
 70
     0
  9
$DIMTOLJ
 70
     0
  9
$DIMTZIN
 70
     0
  9
$DIMALTZ
 70
     0
  9
$DIMALTTZ
 70
     0
  9
$DIMFIT
 70
     3
  9
$DIMUPT
 70
     0
  9
$DIMUNIT
 70
     2
  9
$DIMDEC
 70
     3
  9
$DIMTDEC
 70
     3
  9
$DIMALTU
 70
     2
  9
$DIMALTTD
 70
     2
  9
$DIMTXSTY
  7
ASAMI
  9
$DIMAUNIT
 70
     0
  9
$LUNITS
 70
     2
  9
$LUPREC
 70
     2
  9
$SKETCHINC
 40
1.0
  9
$FILLETRAD
 40
1.0
  9
$AUNITS
 70
     0
  9
$AUPREC
 70
     0
  9
$MENU
  1
.
  9
$ELEVATION
 40
0.0
  9
$PELEVATION
 40
0.0
  9
$THICKNESS
 40
0.0
  9
$LIMCHECK
 70
     0
  9
$BLIPMODE
 70
     0
  9
$CHAMFERA
 40
1.0
  9
$CHAMFERB
 40
1.0
  9
$CHAMFERC
 40
20.0
  9
$CHAMFERD
 40
0.0
  9
$SKPOLY
 70
     0
  9
$TDCREATE
 40
2452836.771637361
  9
$TDUPDATE
 40
2453152.366695902
  9
$TDINDWG
 40
0.0782700463
  9
$TDUSRTIMER
 40
0.0782700463
  9
$USRTIMER
 70
     1
  9
$ANGBASE
 50
0.0
  9
$ANGDIR
 70
     0
  9
$PDMODE
 70
     0
  9
$PDSIZE
 40
0.0
  9
$PLINEWID
 40
0.0
  9
$COORDS
 70
     1
  9
$SPLFRAME
 70
     0
  9
$SPLINETYPE
 70
     6
  9
$SPLINESEGS
 70
     8
  9
$ATTDIA
 70
     1
  9
$ATTREQ
 70
     1
  9
$HANDLING
 70
 12289
  9
$HANDSEED
  5
45B4
  9
$SURFTAB1
 70
     6
  9
$SURFTAB2
 70
     6
  9
$SURFTYPE
 70
     6
  9
$SURFU
 70
     6
  9
$SURFV
 70
     6
  9
$UCSNAME
  2

  9
$UCSORG
 10
0.0
 20
0.0
 30
0.0
  9
$UCSXDIR
 10
1.0
 20
0.0
 30
0.0
  9
$UCSYDIR
 10
0.0
 20
1.0
 30
0.0
  9
$PUCSNAME
  2

  9
$PUCSORG
 10
0.0
 20
0.0
 30
0.0
  9
$PUCSXDIR
 10
1.0
 20
0.0
 30
0.0
  9
$PUCSYDIR
 10
0.0
 20
1.0
 30
0.0
  9
$USERI1
 70
     0
  9
$USERI2
 70
     0
  9
$USERI3
 70
     0
  9
$USERI4
 70
     0
  9
$USERI5
 70
     0
  9
$USERR1
 40
0.0
  9
$USERR2
 40
0.0
  9
$USERR3
 40
0.0
  9
$USERR4
 40
0.0
  9
$USERR5
 40
0.0
  9
$WORLDVIEW
 70
     1
  9
$SHADEDGE
 70
     3
  9
$SHADEDIF
 70
    70
  9
$TILEMODE
 70
     1
  9
$MAXACTVP
 70
    64
  9
$PINSBASE
 10
0.0
 20
0.0
 30
0.0
  9
$PLIMCHECK
 70
     0
  9
$PEXTMIN
 10
1.000000000000000E+20
 20
1.000000000000000E+20
 30
1.000000000000000E+20
  9
$PEXTMAX
 10
-1.000000000000000E+20
 20
-1.000000000000000E+20
 30
-1.000000000000000E+20
  9
$PLIMMIN
 10
0.0
 20
0.0
  9
$PLIMMAX
 10
841.0
 20
594.0
  9
$UNITMODE
 70
     0
  9
$VISRETAIN
 70
     1
  9
$PLINEGEN
 70
     0
  9
$PSLTSCALE
 70
     0
  9
$TREEDEPTH
 70
  3020
  9
$PICKSTYLE
 70
     0
  9
$CMLSTYLE
  2
STANDARD
  9
$CMLJUST
 70
     0
  9
$CMLSCALE
 40
20.0
  9
$PROXYGRAPHICS
 70
     1
  9
$MEASUREMENT
 70
     1
  0
ENDSEC
  0
SECTION
  2
CLASSES
  0
CLASS
  1
ACDBDICTIONARYWDFLT
  2
AcDbDictionaryWithDefault
  3
AutoCAD 2000
 90
        0
280
     0
281
     0
  0
CLASS
  1
ACDBPLACEHOLDER
  2
AcDbPlaceHolder
  3
AutoCAD 2000
 90
        0
280
     0
281
     0
  0
CLASS
  1
LAYOUT
  2
AcDbLayout
  3
AutoCAD 2000
 90
        0
280
     0
281
     0
  0
CLASS
  1
AMGSETTINGSOBJ
  2
AmgSettingsObj
  3
"AcadM|Product Description: AutoCAD Mechanical 2000|Company: Autodesk"
 90
        0
280
     0
281
     0
  0
CLASS
  1
ACME_DOCUMENT
  2
AcMeDbDoc
  3
AcMeServices
 90
        0
280
     0
281
     0
  0
CLASS
  1
ACMESCOPE
  2
AcMeScope
  3
AcMeServices
 90
        0
280
     0
281
     0
  0
CLASS
  1
ACMECOMMANDHISTORY
  2
AcMeCommandHistory
  3
AcMeServices
 90
        0
280
     0
281
     0
  0
CLASS
  1
DICTIONARYVAR
  2
AcDbDictionaryVar
  3
AutoCAD 2000
 90
        0
280
     0
281
     0
  0
CLASS
  1
ACIMSYSVARMAN
  2
AcImSysVarManager
  3
AcMeServices
 90
        0
280
     0
281
     0
  0
CLASS
  1
ACIMREALSYSVAR
  2
AcImRealSysVar
  3
AcMeServices
 90
        0
280
     0
281
     0
  0
CLASS
  1
ACIMINTSYSVAR
  2
AcImIntSysVar
  3
AcMeServices
 90
        0
280
     0
281
     0
  0
CLASS
  1
ACMEDRAWINGMAN
  2
AcMeDrawingMan
  3
AcMeServices
 90
        0
280
     0
281
     0
  0
CLASS
  1
ACMEVIEW
  2
AcMeView
  3
AcMeServices
 90
        0
280
     0
281
     0
  0
CLASS
  1
ACDBENTITYCACHE
  2
AcMeEntityCache
  3
AcMeServices
 90
        0
280
     0
281
     0
  0
CLASS
  1
GSMANAGER
  2
AcMeGSManager
  3
AcMeServices
 90
        0
280
     0
281
     0
  0
CLASS
  1
AmdtInternalReactor
  2
AmdtInternalReactor
  3
AcMeServices
 90
        0
280
     0
281
     0
  0
CLASS
  1
ACMESTATEMGR
  2
AcMeStateMgr
  3
AcMeServices
 90
        0
280
     0
281
     0
  0
CLASS
  1
ACME_DATABASE
  2
AcMeDbDatabase
  3
AcMeServices
 90
        0
280
     0
281
     0
  0
CLASS
  1
ACRFINSADJUSTERMGR
  2
AcRfInsAdjusterMgr
  3
AcMeServices
 90
        0
280
     0
281
     0
  0
CLASS
  1
ACMDATADICTIONARY
  2
AcmDataDictionary
  3
"AcmSymBB|Product Description: AutoCAD Mechanical 2000|Company: Autodesk"
 90
        0
280
     0
281
     0
  0
CLASS
  1
ACMDATAENTRYBLOCK
  2
AcmDataEntryBlock
  3
"AcmSymBB|Product Description: AutoCAD Mechanical 2000|Company: Autodesk"
 90
        0
280
     0
281
     0
  0
CLASS
  1
AMGOBJPROPCFG
  2
AmgObjPropCfg
  3
"AmgLay|Product Description: AutoCAD Mechanical 2000|Company: Autodesk"
 90
        1
280
     0
281
     0
  0
CLASS
  1
ACAMGFILTERDAT
  2
AcAmgFilterDat
  3
"AcadM|Product Description: AutoCAD Mechanical 2000|Company: Autodesk"
 90
        0
280
     0
281
     0
  0
CLASS
  1
LAYER_INDEX
  2
AcDbLayerIndex
  3
AutoCAD 2000
 90
        0
280
     0
281
     0
  0
CLASS
  1
IDBUFFER
  2
AcDbIdBuffer
  3
AutoCAD 2000
 90
        0
280
     0
281
     0
  0
CLASS
  1
ACIMSTRSYSVAR
  2
AcImStrSysVar
  3
AcMeServices
 90
        0
280
     0
281
     0
  0
CLASS
  1
ACMSTANDARDJIS
  2
AcmStandardJIS
  3
"AcmSymBB|Product Description: AutoCAD Mechanical 2000|Company: Autodesk"
 90
        0
280
     0
281
     0
  0
CLASS
  1
ACMSURFSTANDARDJIS
  2
AcmSurfTextStdJIS
  3
"AcmSymBB|Product Description: AutoCAD Mechanical 2000|Company: Autodesk"
 90
        0
280
     0
281
     0
  0
CLASS
  1
ACMFCFSTANDARDJIS
  2
AcmFCFStdJIS
  3
"AcmSymBB|Product Description: AutoCAD Mechanical 2000|Company: Autodesk"
 90
        0
280
     0
281
     0
  0
CLASS
  1
ACMWELDSTANDARDJIS
  2
AcmWeldingStdJIS
  3
"AcmSymBB|Product Description: AutoCAD Mechanical 2000|Company: Autodesk"
 90
        0
280
     0
281
     0
  0
CLASS
  1
ACMIDSTANDARDJIS
  2
AcmIdStdJIS
  3
"AcmSymBB|Product Description: AutoCAD Mechanical 2000|Company: Autodesk"
 90
        0
280
     0
281
     0
  0
CLASS
  1
ACMDATUMSTANDARDJIS
  2
AcmDatumStdJIS
  3
"AcmSymBB|Product Description: AutoCAD Mechanical 2000|Company: Autodesk"
 90
        0
280
     0
281
     0
  0
CLASS
  1
ACMBOMSTANDARDJIS
  2
AcmBOMStdJIS
  3
"AcmSymBB|Product Description: AutoCAD Mechanical 2000|Company: Autodesk"
 90
        0
280
     0
281
     0
  0
CLASS
  1
ACMSTANDARDANSI
  2
AcmStandardANSI
  3
"AcmSymBB|Product Description: AutoCAD Mechanical 2000|Company: Autodesk"
 90
        0
280
     0
281
     0
  0
CLASS
  1
ACMSURFSTANDARDANSI
  2
AcmSurfTextStdANSI
  3
"AcmSymBB|Product Description: AutoCAD Mechanical 2000|Company: Autodesk"
 90
        0
280
     0
281
     0
  0
CLASS
  1
ACMFCFSTANDARDANSI
  2
AcmFCFStdANSI
  3
"AcmSymBB|Product Description: AutoCAD Mechanical 2000|Company: Autodesk"
 90
        0
280
     0
281
     0
  0
CLASS
  1
ACMWELDSTANDARDANSI
  2
AcmWeldingStdANSI
  3
"AcmSymBB|Product Description: AutoCAD Mechanical 2000|Company: Autodesk"
 90
        0
280
     0
281
     0
  0
CLASS
  1
ACMIDSTANDARDANSI
  2
AcmIdStdANSI
  3
"AcmSymBB|Product Description: AutoCAD Mechanical 2000|Company: Autodesk"
 90
        0
280
     0
281
     0
  0
CLASS
  1
ACMDATUMSTANDARDANSI
  2
AcmDatumStdANSI
  3
"AcmSymBB|Product Description: AutoCAD Mechanical 2000|Company: Autodesk"
 90
        0
280
     0
281
     0
  0
CLASS
  1
ACMBOMSTANDARDANSI
  2
AcmBOMStdANSI
  3
"AcmSymBB|Product Description: AutoCAD Mechanical 2000|Company: Autodesk"
 90
        0
280
     0
281
     0
  0
CLASS
  1
ACMSTANDARDBSI
  2
AcmStandardBSI
  3
"AcmSymBB|Product Description: AutoCAD Mechanical 2000|Company: Autodesk"
 90
        0
280
     0
281
     0
  0
CLASS
  1
ACMSURFSTANDARDBSI
  2
AcmSurfTextStdBSI
  3
"AcmSymBB|Product Description: AutoCAD Mechanical 2000|Company: Autodesk"
 90
        0
280
     0
281
     0
  0
CLASS
  1
ACMFCFSTANDARDBSI
  2
AcmFCFStdBSI
  3
"AcmSymBB|Product Description: AutoCAD Mechanical 2000|Company: Autodesk"
 90
        0
280
     0
281
     0
  0
CLASS
  1
ACMWELDSTANDARDBSI
  2
AcmWeldingStdBSI
  3
"AcmSymBB|Product Description: AutoCAD Mechanical 2000|Company: Autodesk"
 90
        0
280
     0
281
     0
  0
CLASS
  1
ACMIDSTANDARDBSI
  2
AcmIdStdBSI
  3
"AcmSymBB|Product Description: AutoCAD Mechanical 2000|Company: Autodesk"
 90
        0
280
     0
281
     0
  0
CLASS
  1
ACMDATUMSTANDARDBSI
  2
AcmDatumStdBSI
  3
"AcmSymBB|Product Description: AutoCAD Mechanical 2000|Company: Autodesk"
 90
        0
280
     0
281
     0
  0
CLASS
  1
ACMBOMSTANDARDBSI
  2
AcmBOMStdBSI
  3
"AcmSymBB|Product Description: AutoCAD Mechanical 2000|Company: Autodesk"
 90
        0
280
     0
281
     0
  0
CLASS
  1
SORTENTSTABLE
  2
AcDbSortentsTable
  3
AutoCAD 2000
 90
        0
280
     0
281
     0
  0
CLASS
  1
LONG_TRANSACTION
  2
AcDbLongTransaction
  3
AutoCAD 2000
 90
        0
280
     0
281
     0
  0
CLASS
  1
LWPOLYLINE
  2
AcDbPolyline
  3
AutoCAD 2000
 90
        0
280
     0
281
     1
  0
CLASS
  1
HATCH
  2
AcDbHatch
  3
AutoCAD 2000
 90
        0
280
     0
281
     1
  0
CLASS
  1
XRECORD
  2
AcDbXrecord
  3
AutoCAD 2000
 90
        0
280
     0
281
     0
  0
ENDSEC
  0
SECTION
  2
TABLES
  0
TABLE
  2
VPORT
  5
8
330
0
100
AcDbSymbolTable
 70
     3
  0
VPORT
  5
4589
330
8
100
AcDbSymbolTableRecord
100
AcDbViewportTableRecord
  2
*ACTIVE
 70
     0
 10
0.0
 20
0.0
 11
1.0
 21
1.0
 12
-31.75892499494981
 22
-27.42803754757474
 13
0.0
 23
0.0
 14
2.5
 24
2.5
 15
10.0
 25
10.0
 16
0.0
 26
0.0
 36
1.0
 17
0.0
 27
0.0
 37
0.0
 40
181.8477638187563
 41
1.56570841889117
 42
50.0
 43
0.0
 44
0.0
 50
0.0
 51
0.0
 71
     0
 72
   100
 73
     1
 74
     3
 75
     0
 76
     0
 77
     0
 78
     0
  0
ENDTAB
  0
TABLE
  2
LTYPE
  5
5
330
0
100
AcDbSymbolTable
 70
    10
  0
LTYPE
  5
14
330
5
100
AcDbSymbolTableRecord
100
AcDbLinetypeTableRecord
  2
BYBLOCK
 70
     0
  3

 72
    65
 73
     0
 40
0.0
  0
LTYPE
  5
15
330
5
100
AcDbSymbolTableRecord
100
AcDbLinetypeTableRecord
  2
BYLAYER
 70
     0
  3

 72
    65
 73
     0
 40
0.0
  0
LTYPE
  5
16
330
5
100
AcDbSymbolTableRecord
100
AcDbLinetypeTableRecord
  2
CONTINUOUS
 70
     0
  3
Solid line
 72
    65
 73
     0
 40
0.0
  0
LTYPE
  5
4B
330
5
100
AcDbSymbolTableRecord
100
AcDbLinetypeTableRecord
  2
AM_ISO02W050
 70
     0
  3
__ __ __ __ __ __ __ __ __ __ __ __ __ __ __
 72
    65
 73
     2
 40
7.5
 49
6.0
 74
     0
 49
-1.5
 74
     0
  0
LTYPE
  5
4C
330
5
100
AcDbSymbolTableRecord
100
AcDbLinetypeTableRecord
  2
AM_ISO08W050
 70
     0
  3
____ . ____ . ____ . ____ . ____ . ____ . ____
 72
    65
 73
     4
 40
18.0
 49
12.0
 74
     0
 49
-1.5
 74
     0
 49
3.0
 74
     0
 49
-1.5
 74
     0
  0
LTYPE
  5
4D
330
5
100
AcDbSymbolTableRecord
100
AcDbLinetypeTableRecord
  2
AM_ISO09W050
 70
     0
  3
_____ . . _____ . . _____ . . ____ .. ____
 72
    65
 73
     6
 40
22.5
 49
12.0
 74
     0
 49
-1.5
 74
     0
 49
3.0
 74
     0
 49
-1.5
 74
     0
 49
3.0
 74
     0
 49
-1.5
 74
     0
  0
LTYPE
  5
4E
330
5
100
AcDbSymbolTableRecord
100
AcDbLinetypeTableRecord
  2
AMCONSTR
 70
     0
  3
_______________________
 72
    65
 73
     2
 40
9999.0
 49
9999.0
 74
     0
 49
0.0
 74
     0
  0
LTYPE
  5
4F
330
5
100
AcDbSymbolTableRecord
100
AcDbLinetypeTableRecord
  2
AM_ISO02W050X2
 70
     0
  3
 _ _ _ _ _ _ _ _ _ _ _ _
 72
    65
 73
     2
 40
3.75
 49
3.0
 74
     0
 49
-0.75
 74
     0
  0
LTYPE
  5
50
330
5
100
AcDbSymbolTableRecord
100
AcDbLinetypeTableRecord
  2
AM_ISO08W050X2
 70
     0
  3
__ . __ . __ . __ . __ . __
 72
    65
 73
     4
 40
9.0
 49
6.0
 74
     0
 49
-0.75
 74
     0
 49
1.5
 74
     0
 49
-0.75
 74
     0
  0
LTYPE
  5
53
330
5
100
AcDbSymbolTableRecord
100
AcDbLinetypeTableRecord
  2
AMZIGZAG
 70
     0
  3
/\/-/\/-/\/-/\/-/\/-/\/
 72
    65
 73
     2
 40
11.00009999999999
 49
0.0001
 74
     4
 75
   135
340
52
 46
0.04
 50
0.0
 44
0.0
 45
0.0
 49
-11.0
 74
     0
  0
LTYPE
  5
166
330
5
100
AcDbSymbolTableRecord
100
AcDbLinetypeTableRecord
  2
ACJISTGL
 70
     0
  3
_ _ _ _ _
 72
    65
 73
     2
 40
3.0
 49
2.0
 74
     0
 49
-1.0
 74
     0
  0
LTYPE
  5
26A
330
5
100
AcDbSymbolTableRecord
100
AcDbLinetypeTableRecord
  2
ACJISTGB
 70
     0
  3
__ . . __ . .
 72
    65
 73
     6
 40
9.0
 49
4.0
 74
     0
 49
-1.0
 74
     0
 49
1.0
 74
     0
 49
-1.0
 74
     0
 49
1.0
 74
     0
 49
-1.0
 74
     0
  0
ENDTAB
  0
TABLE
  2
LAYER
  5
2
330
0
100
AcDbSymbolTable
 70
     8
  0
LAYER
  5
10
330
2
100
AcDbSymbolTableRecord
100
AcDbLayerTableRecord
  2
0
 70
     0
 62
     7
  6
CONTINUOUS
  0
LAYER
  5
3F9
330
2
100
AcDbSymbolTableRecord
100
AcDbLayerTableRecord
  2
AM_0
 70
     0
 62
     7
  6
CONTINUOUS
  0
LAYER
  5
BD5
330
2
100
AcDbSymbolTableRecord
100
AcDbLayerTableRecord
  2
AM_7
 70
     0
 62
     4
  6
AM_ISO08W050
  0
LAYER
  5
BD6
330
2
100
AcDbSymbolTableRecord
100
AcDbLayerTableRecord
  2
AM_5
 70
     0
 62
     3
  6
CONTINUOUS
  0
LAYER
  5
BD7
330
2
100
AcDbSymbolTableRecord
100
AcDbLayerTableRecord
  2
DEFPOINTS
 70
     0
 62
     7
  6
CONTINUOUS
  0
LAYER
  5
E59
330
2
100
AcDbSymbolTableRecord
100
AcDbLayerTableRecord
  2
AM_6
 70
     0
 62
     2
  6
CONTINUOUS
  0
LAYER
  5
1E31
330
2
100
AcDbSymbolTableRecord
100
AcDbLayerTableRecord
  2
AM_11
 70
     0
 62
     3
  6
AM_ISO09W050
  0
LAYER
  5
1E41
330
2
100
AcDbSymbolTableRecord
100
AcDbLayerTableRecord
  2
AM_3
 70
     0
 62
     6
  6
ACJISTGL
  0
ENDTAB
  0
TABLE
  2
STYLE
  5
3
330
0
100
AcDbSymbolTable
 70
     5
  0
STYLE
  5
11
330
3
100
AcDbSymbolTableRecord
100
AcDbTextStyleTableRecord
  2
STANDARD
 70
     0
 40
0.0
 41
1.0
 50
0.0
 71
     0
 42
2.5
  3
simplex.shx
  4
EXTFONT.SHX
  0
STYLE
  5
52
330
3
100
AcDbSymbolTableRecord
100
AcDbTextStyleTableRecord
  2

 70
     1
 40
0.0
 41
1.0
 50
0.0
 71
     0
 42
2.5
  3
ltypeshp.shx
  4

  0
STYLE
  5
6B
330
3
100
AcDbSymbolTableRecord
100
AcDbTextStyleTableRecord
  2
ASAMI
 70
     0
 40
0.0
 41
1.0
 50
0.0
 71
     0
 42
2.5
  3
simplex.shx
  4
EXTFONT.SHX
  0
STYLE
  5
262
330
3
100
AcDbSymbolTableRecord
100
AcDbTextStyleTableRecord
  2
ACJISTS
 70
     0
 40
1.0
 41
1.0
 50
0.0
 71
     0
 42
2.5
  3
simplex.shx
  4
bigfont.shx
  0
STYLE
  5
269
330
3
100
AcDbSymbolTableRecord
100
AcDbTextStyleTableRecord
  2
ACJISGDT
 70
     0
 40
0.0
 41
1.0
 50
0.0
 71
     0
 42
2.5
  3
amgdtans.shx
  4

  0
ENDTAB
  0
TABLE
  2
VIEW
  5
6
330
0
100
AcDbSymbolTable
 70
     0
  0
ENDTAB
  0
TABLE
  2
UCS
  5
7
330
0
100
AcDbSymbolTable
 70
     0
  0
ENDTAB
  0
TABLE
  2
APPID
  5
9
330
0
100
AcDbSymbolTable
 70
    13
  0
APPID
  5
12
330
9
100
AcDbSymbolTableRecord
100
AcDbRegAppTableRecord
  2
ACAD
 70
     0
  0
APPID
  5
30
330
9
100
AcDbSymbolTableRecord
100
AcDbRegAppTableRecord
  2
MCAD_NO_VIS
 70
     0
  0
APPID
  5
31
330
9
100
AcDbSymbolTableRecord
100
AcDbRegAppTableRecord
  2
ACAD_TEMP_GRAPHIC
 70
     0
  0
APPID
  5
2C2
330
9
100
AcDbSymbolTableRecord
100
AcDbRegAppTableRecord
  2
GENIUS_GENDTOL_13
 70
     0
  0
APPID
  5
339
330
9
100
AcDbSymbolTableRecord
100
AcDbRegAppTableRecord
  2
GENIUS_GENODEF_13
 70
     0
  0
APPID
  5
33A
330
9
100
AcDbSymbolTableRecord
100
AcDbRegAppTableRecord
  2
GENIUS_GENOBJ-N-RSBK_13
 70
     0
  0
APPID
  5
33B
330
9
100
AcDbSymbolTableRecord
100
AcDbRegAppTableRecord
  2
GENIUS_GENOBJ-N-LIB_13
 70
     0
  0
APPID
  5
33C
330
9
100
AcDbSymbolTableRecord
100
AcDbRegAppTableRecord
  2
GENIUS_GENSCALE_13
 70
     0
  0
APPID
  5
378
330
9
100
AcDbSymbolTableRecord
100
AcDbRegAppTableRecord
  2
GENIUS_GENDIMSH_14
 70
     0
  0
APPID
  5
BD8
330
9
100
AcDbSymbolTableRecord
100
AcDbRegAppTableRecord
  2
GENIUS_GENOBJ-N-CEN_13
 70
     0
  0
APPID
  5
BD9
330
9
100
AcDbSymbolTableRecord
100
AcDbRegAppTableRecord
  2
GENIUS_GENFIL_13
 70
     0
  0
APPID
  5
BDA
330
9
100
AcDbSymbolTableRecord
100
AcDbRegAppTableRecord
  2
GENIUS_GENOBJ-N-CHA_13
 70
     0
  0
APPID
  5
2BC1
330
9
100
AcDbSymbolTableRecord
100
AcDbRegAppTableRecord
  2
GENIUS_GENOBJ-N-FIL_13
 70
     0
  0
ENDTAB
  0
TABLE
  2
DIMSTYLE
  5
A
330
0
100
AcDbSymbolTable
 70
     9
  0
DIMSTYLE
105
58
102
{ACAD_REACTORS
330
3F7A
330
3F79
330
3F7B
330
4011
330
4010
330
4012
330
4073
330
4072
102
}
330
A
100
AcDbSymbolTableRecord
100
AcDbDimStyleTableRecord
  2
AM_JIS
 70
     0
  3

  4
"
  5
OPEN30
  6

  7

 40
1.0
 41
2.5
 42
1.0
 43
12.0
 44
1.0
 45
0.0
 46
0.0
 47
0.1
 48
0.1
140
3.2
141
0.0
142
0.0
143
0.0393701
144
1.0
145
0.0
146
0.71
147
1.5
 71
     0
 72
     0
 73
     0
 74
     0
 75
     0
 76
     0
 77
     3
 78
     8
170
     0
171
     2
172
     1
173
     0
174
     0
175
     0
176
   256
177
   256
178
     2
270
     2
271
     3
272
     3
273
     2
274
     2
340
6B
275
     0
280
     0
281
     0
282
     0
283
     0
284
     0
285
     0
286
     0
287
     3
288
     0
  0
DIMSTYLE
105
5F
330
A
100
AcDbSymbolTableRecord
100
AcDbDimStyleTableRecord
  2
AM_JIS$3
 70
     0
  3

  4
"
  5
OPEN30
  6

  7

 40
1.0
 41
2.5
 42
1.0
 43
10.0
 44
1.0
 45
0.0
 46
0.0
 47
0.1
 48
0.1
140
3.2
141
0.0
142
0.0
143
0.0393701
144
1.0
145
0.0
146
0.71
147
1.5
 71
     0
 72
     0
 73
     0
 74
     1
 75
     0
 76
     0
 77
     3
 78
     8
170
     0
171
     2
172
     0
173
     0
174
     0
175
     0
176
   256
177
   256
178
     2
270
     2
271
     2
272
     3
273
     2
274
     2
340
6B
275
     0
280
     0
281
     0
282
     0
283
     0
284
     0
285
     0
286
     0
287
     0
288
     1
  0
DIMSTYLE
105
60
330
A
100
AcDbSymbolTableRecord
100
AcDbDimStyleTableRecord
  2
AM_JIS$4
 70
     0
  3

  4
"
  5
OPEN30
  6

  7

 40
1.0
 41
2.5
 42
1.0
 43
10.0
 44
1.0
 45
0.0
 46
0.0
 47
0.1
 48
0.1
140
3.2
141
0.0
142
0.0
143
0.0393701
144
1.0
145
0.0
146
0.71
147
1.5
 71
     0
 72
     0
 73
     0
 74
     1
 75
     0
 76
     0
 77
     3
 78
     8
170
     0
171
     2
172
     0
173
     0
174
     0
175
     0
176
   256
177
   256
178
     2
270
     2
271
     2
272
     3
273
     2
274
     2
340
6B
275
     0
280
     0
281
     0
282
     0
283
     0
284
     0
285
     0
286
     0
287
     0
288
     1
  0
DIMSTYLE
105
61
330
A
100
AcDbSymbolTableRecord
100
AcDbDimStyleTableRecord
  2
AM_JIS$6
 70
     0
  3

  4
"
  5
OPEN30
  6

  7

 40
1.0
 41
2.5
 42
1.0
 43
10.0
 44
1.0
 45
0.0
 46
0.0
 47
0.1
 48
0.1
140
3.2
141
0.0
142
0.0
143
0.0393701
144
1.0
145
0.0
146
0.71
147
1.5
 71
     0
 72
     0
 73
     0
 74
     0
 75
     0
 76
     0
 77
     0
 78
     8
170
     0
171
     2
172
     1
173
     0
174
     0
175
     0
176
   256
177
   256
178
     2
270
     2
271
     2
272
     2
273
     2
274
     2
340
6B
275
     0
280
     0
281
     0
282
     0
283
     0
284
     0
285
     0
286
     0
287
     3
288
     0
  0
DIMSTYLE
105
62
330
A
100
AcDbSymbolTableRecord
100
AcDbDimStyleTableRecord
  2
AM_JIS$7
 70
     0
  3

  4
"
  5
OPEN30
  6

  7

 40
1.0
 41
2.5
 42
1.0
 43
10.0
 44
1.0
 45
0.0
 46
0.0
 47
0.1
 48
0.1
140
3.2
141
0.0
142
0.0
143
0.0393701
144
1.0
145
0.0
146
0.71
147
1.5
 71
     0
 72
     0
 73
     0
 74
     0
 75
     0
 76
     0
 77
     3
 78
     8
170
     0
171
     2
172
     1
173
     0
174
     0
175
     0
176
   256
177
   256
178
     2
270
     2
271
     2
272
     3
273
     2
274
     2
340
6B
275
     0
280
     0
281
     0
282
     0
283
     0
284
     0
285
     0
286
     0
287
     3
288
     0
  0
DIMSTYLE
105
63
330
A
100
AcDbSymbolTableRecord
100
AcDbDimStyleTableRecord
  2
AM_JIS$SF
 70
     0
  3

  4
"
  5
OPEN30
  6

  7

 40
1.0
 41
2.5
 42
1.0
 43
10.0
 44
1.0
 45
0.0
 46
0.0
 47
0.1
 48
0.1
140
3.2
141
0.0
142
0.0
143
0.0393701
144
1.0
145
0.0
146
0.71
147
1.5
 71
     0
 72
     0
 73
     0
 74
     0
 75
     1
 76
     1
 77
     3
 78
     8
170
     0
171
     2
172
     1
173
     0
174
     0
175
     0
176
   256
177
   256
178
     2
270
     2
271
     2
272
     2
273
     2
274
     2
340
6B
275
     0
280
     0
281
     0
282
     0
283
     0
284
     0
285
     0
286
     0
287
     3
288
     0
  0
DIMSTYLE
105
68
330
A
100
AcDbSymbolTableRecord
100
AcDbDimStyleTableRecord
  2
AM_JIS$SH
 70
     0
  3

  4
"
  5

  6
GENAXEH
  7
OPEN30
 40
1.0
 41
2.5
 42
1.0
 43
10.0
 44
1.0
 45
0.0
 46
0.0
 47
0.1
 48
0.1
140
3.2
141
0.0
142
0.0
143
0.0393701
144
2.0
145
0.0
146
0.71
147
1.5
 71
     0
 72
     0
 73
     0
 74
     0
 75
     1
 76
     1
 77
     3
 78
     8
170
     0
171
     2
172
     1
173
     1
174
     0
175
     0
176
   256
177
   256
178
     2
270
     2
271
     2
272
     2
273
     2
274
     2
340
6B
275
     0
280
     0
281
     0
282
     0
283
     0
284
     0
285
     0
286
     0
287
     3
288
     0
  0
DIMSTYLE
105
B34
102
{ACAD_REACTORS
330
43B1
102
}
330
A
100
AcDbSymbolTableRecord
100
AcDbDimStyleTableRecord
  2
AM_JIS$2
 70
     0
  3

  4
"
  5
OPEN30
  6

  7

 40
1.0
 41
2.5
 42
1.0
 43
12.0
 44
1.0
 45
0.0
 46
0.0
 47
0.1
 48
0.1
140
3.2
141
0.0
142
0.0
143
0.0393701
144
1.0
145
0.0
146
0.71
147
1.5
 71
     0
 72
     0
 73
     0
 74
     0
 75
     0
 76
     0
 77
     3
 78
     8
170
     0
171
     2
172
     1
173
     0
174
     0
175
     0
176
   256
177
   256
178
     2
270
     2
271
     3
272
     3
273
     2
274
     2
340
6B
275
     0
280
     0
281
     0
282
     0
283
     0
284
     0
285
     0
286
     0
287
     3
288
     0
  0
DIMSTYLE
105
1E42
330
A
100
AcDbSymbolTableRecord
100
AcDbDimStyleTableRecord
  2
AM_JIS$0
 70
     0
  3

  4
"
  5
OPEN30
  6

  7

 40
2.0
 41
2.5
 42
1.0
 43
10.0
 44
1.0
 45
0.0
 46
0.0
 47
0.1
 48
0.1
140
2.5
141
0.0
142
0.0
143
0.0393701
144
1.0
145
0.0
146
0.71
147
1.0
 71
     0
 72
     0
 73
     0
 74
     0
 75
     0
 76
     0
 77
     3
 78
     8
170
     0
171
     2
172
     1
173
     0
174
     0
175
     0
176
   256
177
   256
178
     4
270
     2
271
     3
272
     3
273
     2
274
     2
340
6B
275
     0
280
     0
281
     0
282
     0
283
     0
284
     0
285
     0
286
     0
287
     3
288
     0
  0
ENDTAB
  0
TABLE
  2
BLOCK_RECORD
  5
1
330
0
100
AcDbSymbolTable
 70
    14
  0
BLOCK_RECORD
  5
1F
102
{ACAD_XDICTIONARY
360
74
102
}
330
1
100
AcDbSymbolTableRecord
100
AcDbBlockTableRecord
  2
*MODEL_SPACE
  0
BLOCK_RECORD
  5
101
102
{ACAD_XDICTIONARY
360
45B2
102
}
330
1
100
AcDbSymbolTableRecord
100
AcDbBlockTableRecord
  2
*PAPER_SPACE
  0
BLOCK_RECORD
  5
59
330
1
100
AcDbSymbolTableRecord
100
AcDbBlockTableRecord
  2
_OPEN30
  0
BLOCK_RECORD
  5
64
330
1
100
AcDbSymbolTableRecord
100
AcDbBlockTableRecord
  2
GENAXEH
  0
BLOCK_RECORD
  5
3F7C
330
1
100
AcDbSymbolTableRecord
100
AcDbBlockTableRecord
  2
*D5
  0
BLOCK_RECORD
  5
3F88
330
1
100
AcDbSymbolTableRecord
100
AcDbBlockTableRecord
  2
*D6
  0
BLOCK_RECORD
  5
3F94
330
1
100
AcDbSymbolTableRecord
100
AcDbBlockTableRecord
  2
*D7
  0
BLOCK_RECORD
  5
4013
330
1
100
AcDbSymbolTableRecord
100
AcDbBlockTableRecord
  2
*D8
  0
BLOCK_RECORD
  5
401F
330
1
100
AcDbSymbolTableRecord
100
AcDbBlockTableRecord
  2
*D9
  0
BLOCK_RECORD
  5
402B
330
1
100
AcDbSymbolTableRecord
100
AcDbBlockTableRecord
  2
*D10
  0
BLOCK_RECORD
  5
4074
330
1
100
AcDbSymbolTableRecord
100
AcDbBlockTableRecord
  2
*D11
  0
BLOCK_RECORD
  5
4080
330
1
100
AcDbSymbolTableRecord
100
AcDbBlockTableRecord
  2
*D12
  0
BLOCK_RECORD
  5
43B2
330
1
100
AcDbSymbolTableRecord
100
AcDbBlockTableRecord
  2
*D13
  0
ENDTAB
  0
ENDSEC
  0
SECTION
  2
BLOCKS
  0
BLOCK
  5
20
330
1F
100
AcDbEntity
  8
0
100
AcDbBlockBegin
  2
*MODEL_SPACE
 70
     0
 10
0.0
 20
0.0
 30
0.0
  3
*MODEL_SPACE
  1

  0
ENDBLK
  5
21
330
1F
100
AcDbEntity
  8
0
100
AcDbBlockEnd
  0
BLOCK
  5
103
330
101
100
AcDbEntity
 67
     1
  8
0
100
AcDbBlockBegin
  2
*PAPER_SPACE
 70
     0
 10
0.0
 20
0.0
 30
0.0
  3
*PAPER_SPACE
  1

  0
ENDBLK
  5
104
330
101
100
AcDbEntity
 67
     1
  8
0
100
AcDbBlockEnd
  0
BLOCK
  5
5D
330
59
100
AcDbEntity
  8
0
100
AcDbBlockBegin
  2
_OPEN30
 70
     0
 10
0.0
 20
0.0
 30
0.0
  3
_OPEN30
  1

  0
LINE
  5
5A
330
59
100
AcDbEntity
  8
0
 62
     0
100
AcDbLine
 10
-1.0
 20
0.26794919
 30
0.0
 11
0.0
 21
0.0
 31
0.0
  0
LINE
  5
5B
330
59
100
AcDbEntity
  8
0
 62
     0
100
AcDbLine
 10
0.0
 20
0.0
 30
0.0
 11
-1.0
 21
-0.26794919
 31
0.0
  0
LINE
  5
5C
330
59
100
AcDbEntity
  8
0
 62
     0
100
AcDbLine
 10
0.0
 20
0.0
 30
0.0
 11
-1.0
 21
0.0
 31
0.0
  0
ENDBLK
  5
5E
330
59
100
AcDbEntity
  8
0
100
AcDbBlockEnd
  0
BLOCK
  5
66
330
64
100
AcDbEntity
  8
0
100
AcDbBlockBegin
  2
GENAXEH
 70
     0
 10
0.0
 20
0.0
 30
0.0
  3
GENAXEH
  1

  0
LINE
  5
65
330
64
100
AcDbEntity
  8
0
100
AcDbLine
 10
-1.0
 20
0.0
 30
0.0
 11
1.0
 21
0.0
 31
0.0
  0
ENDBLK
  5
67
330
64
100
AcDbEntity
  8
0
100
AcDbBlockEnd
  0
BLOCK
  5
3F86
330
3F7C
100
AcDbEntity
  8
0
100
AcDbBlockBegin
  2
*D5
 70
     1
 10
0.0
 20
0.0
 30
0.0
  3
*D5
  1

  0
LINE
  5
450D
330
3F7C
100
AcDbEntity
  8
AM_5
100
AcDbLine
 10
-49.00000000000005
 20
35.00000000000003
 30
0.0
 11
-88.67678106511792
 21
35.00000000000004
 31
0.0
  0
LINE
  5
450E
330
3F7C
100
AcDbEntity
  8
AM_5
100
AcDbLine
 10
-49.00000000000003
 20
-35.00000000000002
 30
0.0
 11
-88.67678106511794
 21
-35.00000000000001
 31
0.0
  0
LINE
  5
450F
330
3F7C
100
AcDbEntity
  8
AM_5
100
AcDbLine
 10
-87.67678106511793
 20
32.50000000000004
 30
0.0
 11
-87.67678106511795
 21
-32.50000000000001
 31
0.0
  0
INSERT
  5
4510
330
3F7C
100
AcDbEntity
  8
AM_5
100
AcDbBlockReference
  2
_OPEN30
 10
-87.67678106511793
 20
35.00000000000004
 30
0.0
 41
2.5
 42
2.5
 43
2.5
 50
90.0
  0
INSERT
  5
4511
330
3F7C
100
AcDbEntity
  8
AM_5
100
AcDbBlockReference
  2
_OPEN30
 10
-87.67678106511795
 20
-35.00000000000001
 30
0.0
 41
2.5
 42
2.5
 43
2.5
 50
270.0
  0
MTEXT
  5
4512
330
3F7C
100
AcDbEntity
  8
AM_5
 62
     2
100
AcDbMText
 10
-90.77678106511793
 20
-0.0000000000000014
 30
0.0
 40
3.2
 41
0.0
 71
     5
 72
     1
  1
%%c70
  7
ASAMI
 11
0.0000000000000001
 21
1.0
 31
0.0
1001
ACAD
1000
MTEXTBEGIN
1070
    73
1070
     1
1070
    44
1040
1.0
1070
    74
1070
     0
1000
MTEXTEND
  0
POINT
  5
4513
330
3F7C
100
AcDbEntity
  8
DEFPOINTS
 62
     0
100
AcDbPoint
 10
-48.00000000000006
 20
35.00000000000003
 30
0.0
  0
POINT
  5
4514
330
3F7C
100
AcDbEntity
  8
DEFPOINTS
 62
     0
100
AcDbPoint
 10
-48.00000000000003
 20
-35.00000000000002
 30
0.0
  0
POINT
  5
4515
330
3F7C
100
AcDbEntity
  8
DEFPOINTS
 62
     0
100
AcDbPoint
 10
-87.67678106511795
 20
-35.00000000000001
 30
0.0
  0
ENDBLK
  5
3F87
330
3F7C
100
AcDbEntity
  8
0
100
AcDbBlockEnd
  0
BLOCK
  5
3F92
330
3F88
100
AcDbEntity
  8
0
100
AcDbBlockBegin
  2
*D6
 70
     1
 10
0.0
 20
0.0
 30
0.0
  3
*D6
  1

  0
LINE
  5
439B
330
3F88
100
AcDbEntity
  8
AM_5
100
AcDbLine
 10
-48.50000000000003
 20
15.87503270956085
 30
0.0
 11
-78.67678106511795
 21
15.87503270956086
 31
0.0
  0
LINE
  5
439C
330
3F88
100
AcDbEntity
  8
AM_5
100
AcDbLine
 10
-48.50000000000003
 20
-15.87503270956084
 30
0.0
 11
-78.67678106511795
 21
-15.87503270956083
 31
0.0
  0
LINE
  5
439D
330
3F88
100
AcDbEntity
  8
AM_5
100
AcDbLine
 10
-77.67678106511795
 20
13.37503270956086
 30
0.0
 11
-77.67678106511795
 21
-13.37503270956083
 31
0.0
  0
INSERT
  5
439E
330
3F88
100
AcDbEntity
  8
AM_5
100
AcDbBlockReference
  2
_OPEN30
 10
-77.67678106511795
 20
15.87503270956086
 30
0.0
 41
2.5
 42
2.5
 43
2.5
 50
90.0
  0
INSERT
  5
439F
330
3F88
100
AcDbEntity
  8
AM_5
100
AcDbBlockReference
  2
_OPEN30
 10
-77.67678106511795
 20
-15.87503270956083
 30
0.0
 41
2.5
 42
2.5
 43
2.5
 50
270.0
  0
MTEXT
  5
43A0
330
3F88
100
AcDbEntity
  8
AM_5
 62
     2
100
AcDbMText
 10
-80.77678106511795
 20
0.0000000000000042
 30
0.0
 40
3.2
 41
0.0
 71
     5
 72
     1
  1
%%c31.75
  7
ASAMI
 11
0.0000000000000001
 21
1.0
 31
0.0
1001
ACAD
1000
MTEXTBEGIN
1070
    73
1070
     1
1070
    44
1040
1.0
1070
    74
1070
     0
1000
MTEXTEND
  0
POINT
  5
43A1
330
3F88
100
AcDbEntity
  8
DEFPOINTS
 62
     0
100
AcDbPoint
 10
-47.50000000000002
 20
15.87503270956085
 30
0.0
  0
POINT
  5
43A2
330
3F88
100
AcDbEntity
  8
DEFPOINTS
 62
     0
100
AcDbPoint
 10
-47.50000000000002
 20
-15.87503270956084
 30
0.0
  0
POINT
  5
43A3
330
3F88
100
AcDbEntity
  8
DEFPOINTS
 62
     0
100
AcDbPoint
 10
-77.67678106511795
 20
-15.87503270956083
 30
0.0
  0
ENDBLK
  5
3F93
330
3F88
100
AcDbEntity
  8
0
100
AcDbBlockEnd
  0
BLOCK
  5
3F9E
330
3F94
100
AcDbEntity
  8
0
100
AcDbBlockBegin
  2
*D7
 70
     1
 10
0.0
 20
0.0
 30
0.0
  3
*D7
  1

  0
LINE
  5
434E
330
3F94
100
AcDbEntity
  8
AM_5
100
AcDbLine
 10
-50.00000000000003
 20
6.35000000000003
 30
0.0
 11
-68.67678106511795
 21
6.350000000000035
 31
0.0
  0
LINE
  5
434F
330
3F94
100
AcDbEntity
  8
AM_5
100
AcDbLine
 10
-50.00000000000003
 20
-6.350000000000014
 30
0.0
 11
-68.67678106511795
 21
-6.35000000000001
 31
0.0
  0
LINE
  5
4350
330
3F94
100
AcDbEntity
  8
AM_5
100
AcDbLine
 10
-67.67678106511795
 20
8.850000000000033
 30
0.0
 11
-67.67678106511795
 21
11.35000000000003
 31
0.0
  0
LINE
  5
4351
330
3F94
100
AcDbEntity
  8
AM_5
100
AcDbLine
 10
-67.67678106511795
 20
-8.850000000000012
 30
0.0
 11
-67.67678106511795
 21
-11.35000000000001
 31
0.0
  0
LINE
  5
4352
330
3F94
100
AcDbEntity
  8
AM_5
100
AcDbLine
 10
-67.67678106511795
 20
6.350000000000035
 30
0.0
 11
-67.67678106511795
 21
-6.35000000000001
 31
0.0
  0
INSERT
  5
4353
330
3F94
100
AcDbEntity
  8
AM_5
100
AcDbBlockReference
  2
_OPEN30
 10
-67.67678106511795
 20
6.350000000000035
 30
0.0
 41
2.5
 42
2.5
 43
2.5
 50
270.0
  0
INSERT
  5
4354
330
3F94
100
AcDbEntity
  8
AM_5
100
AcDbBlockReference
  2
_OPEN30
 10
-67.67678106511795
 20
-6.35000000000001
 30
0.0
 41
2.5
 42
2.5
 43
2.5
 50
90.0
  0
MTEXT
  5
4355
330
3F94
100
AcDbEntity
  8
AM_5
 62
     2
100
AcDbMText
 10
-70.77678106511794
 20
-0.000000000000028
 30
0.0
 40
3.2
 41
0.0
 71
     5
 72
     1
  1
12.7
  7
ASAMI
 11
0.0000000000000001
 21
1.0
 31
0.0
1001
ACAD
1000
MTEXTBEGIN
1070
    73
1070
     1
1070
    44
1040
1.0
1070
    74
1070
     0
1000
MTEXTEND
  0
POINT
  5
4356
330
3F94
100
AcDbEntity
  8
DEFPOINTS
 62
     0
100
AcDbPoint
 10
-49.00000000000003
 20
6.350000000000029
 30
0.0
  0
POINT
  5
4357
330
3F94
100
AcDbEntity
  8
DEFPOINTS
 62
     0
100
AcDbPoint
 10
-49.00000000000003
 20
-6.350000000000015
 30
0.0
  0
POINT
  5
4358
330
3F94
100
AcDbEntity
  8
DEFPOINTS
 62
     0
100
AcDbPoint
 10
-67.67678106511795
 20
-6.35000000000001
 30
0.0
  0
ENDBLK
  5
3F9F
330
3F94
100
AcDbEntity
  8
0
100
AcDbBlockEnd
  0
BLOCK
  5
401D
330
4013
100
AcDbEntity
  8
0
100
AcDbBlockBegin
  2
*D8
 70
     1
 10
0.0
 20
0.0
 30
0.0
  3
*D8
  1

  0
LINE
  5
433C
330
4013
100
AcDbEntity
  8
AM_5
100
AcDbLine
 10
-50.00000000000006
 20
-34.00000000000002
 30
0.0
 11
-50.00000000000007
 21
-96.29000100999995
 31
0.0
  0
LINE
  5
433D
330
4013
100
AcDbEntity
  8
AM_5
100
AcDbLine
 10
0.0000000000000568
 20
-51.0000000000296
 30
0.0
 11
0.000000000000054
 21
-96.29000100999995
 31
0.0
  0
LINE
  5
433E
330
4013
100
AcDbEntity
  8
AM_5
100
AcDbLine
 10
-47.50000000000006
 20
-95.29000100999995
 30
0.0
 11
-2.499999999999945
 21
-95.29000100999995
 31
0.0
  0
INSERT
  5
433F
330
4013
100
AcDbEntity
  8
AM_5
100
AcDbBlockReference
  2
_OPEN30
 10
-50.00000000000007
 20
-95.29000100999995
 30
0.0
 41
2.5
 42
2.5
 43
2.5
 50
180.0
  0
INSERT
  5
4340
330
4013
100
AcDbEntity
  8
AM_5
100
AcDbBlockReference
  2
_OPEN30
 10
0.0000000000000541
 20
-95.29000100999995
 30
0.0
 41
2.5
 42
2.5
 43
2.5
  0
MTEXT
  5
4341
330
4013
100
AcDbEntity
  8
AM_5
 62
     2
100
AcDbMText
 10
-25.0
 20
-92.19000100999997
 30
0.0
 40
3.2
 41
0.0
 71
     5
 72
     1
  1
50
  7
ASAMI
1001
ACAD
1000
MTEXTBEGIN
1070
    73
1070
     1
1070
    44
1040
1.0
1070
    74
1070
     0
1000
MTEXTEND
  0
POINT
  5
4342
330
4013
100
AcDbEntity
  8
DEFPOINTS
 62
     0
100
AcDbPoint
 10
-50.00000000000006
 20
-33.00000000000002
 30
0.0
  0
POINT
  5
4343
330
4013
100
AcDbEntity
  8
DEFPOINTS
 62
     0
100
AcDbPoint
 10
0.0000000000000568
 20
-50.00000000002961
 30
0.0
  0
POINT
  5
4344
330
4013
100
AcDbEntity
  8
DEFPOINTS
 62
     0
100
AcDbPoint
 10
0.0000000000000541
 20
-95.29000100999995
 30
0.0
  0
ENDBLK
  5
401E
330
4013
100
AcDbEntity
  8
0
100
AcDbBlockEnd
  0
BLOCK
  5
4029
330
401F
100
AcDbEntity
  8
0
100
AcDbBlockBegin
  2
*D9
 70
     1
 10
0.0
 20
0.0
 30
0.0
  3
*D9
  1

  0
LINE
  5
4345
330
401F
100
AcDbEntity
  8
AM_5
100
AcDbLine
 10
-50.00000000000006
 20
-34.00000000000002
 30
0.0
 11
-50.00000000000006
 21
-86.29000100999995
 31
0.0
  0
LINE
  5
4346
330
401F
100
AcDbEntity
  8
AM_5
100
AcDbLine
 10
-18.00000000000005
 20
-23.99999999999999
 30
0.0
 11
-18.00000000000006
 21
-86.29000100999995
 31
0.0
  0
LINE
  5
4347
330
401F
100
AcDbEntity
  8
AM_5
100
AcDbLine
 10
-47.50000000000006
 20
-85.29000100999995
 30
0.0
 11
-20.50000000000006
 21
-85.29000100999995
 31
0.0
  0
INSERT
  5
4348
330
401F
100
AcDbEntity
  8
AM_5
100
AcDbBlockReference
  2
_OPEN30
 10
-50.00000000000006
 20
-85.29000100999995
 30
0.0
 41
2.5
 42
2.5
 43
2.5
 50
180.0
  0
INSERT
  5
4349
330
401F
100
AcDbEntity
  8
AM_5
100
AcDbBlockReference
  2
_OPEN30
 10
-18.00000000000006
 20
-85.29000100999995
 30
0.0
 41
2.5
 42
2.5
 43
2.5
  0
MTEXT
  5
434A
330
401F
100
AcDbEntity
  8
AM_5
 62
     2
100
AcDbMText
 10
-34.00000000000005
 20
-82.19000100999997
 30
0.0
 40
3.2
 41
0.0
 71
     5
 72
     1
  1
32
  7
ASAMI
1001
ACAD
1000
MTEXTBEGIN
1070
    73
1070
     1
1070
    44
1040
1.0
1070
    74
1070
     0
1000
MTEXTEND
  0
POINT
  5
434B
330
401F
100
AcDbEntity
  8
DEFPOINTS
 62
     0
100
AcDbPoint
 10
-50.00000000000006
 20
-33.00000000000002
 30
0.0
  0
POINT
  5
434C
330
401F
100
AcDbEntity
  8
DEFPOINTS
 62
     0
100
AcDbPoint
 10
-18.00000000000005
 20
-22.99999999999999
 30
0.0
  0
POINT
  5
434D
330
401F
100
AcDbEntity
  8
DEFPOINTS
 62
     0
100
AcDbPoint
 10
-18.00000000000006
 20
-85.29000100999995
 30
0.0
  0
ENDBLK
  5
402A
330
401F
100
AcDbEntity
  8
0
100
AcDbBlockEnd
  0
BLOCK
  5
4037
330
402B
100
AcDbEntity
  8
0
100
AcDbBlockBegin
  2
*D10
 70
     1
 10
0.0
 20
0.0
 30
0.0
  3
*D10
  1

  0
LINE
  5
4374
330
402B
100
AcDbEntity
  8
AM_5
100
AcDbLine
 10
-50.00000000000006
 20
-34.00000000000002
 30
0.0
 11
-50.00000000000006
 21
-76.29000100999995
 31
0.0
  0
LINE
  5
4375
330
402B
100
AcDbEntity
  8
AM_5
100
AcDbLine
 10
-42.00000000000005
 20
-7.349999999999987
 30
0.0
 11
-42.00000000000006
 21
-76.29000100999997
 31
0.0
  0
LINE
  5
4376
330
402B
100
AcDbEntity
  8
AM_5
100
AcDbLine
 10
-52.50000000000006
 20
-75.29000100999995
 30
0.0
 11
-55.00000000000006
 21
-75.29000100999995
 31
0.0
  0
LINE
  5
4377
330
402B
100
AcDbEntity
  8
AM_5
100
AcDbLine
 10
-39.50000000000006
 20
-75.29000100999995
 30
0.0
 11
-37.00000000000006
 21
-75.29000100999995
 31
0.0
  0
LINE
  5
4378
330
402B
100
AcDbEntity
  8
AM_5
100
AcDbLine
 10
-50.00000000000006
 20
-75.29000100999995
 30
0.0
 11
-42.00000000000006
 21
-75.29000100999995
 31
0.0
  0
INSERT
  5
4379
330
402B
100
AcDbEntity
  8
AM_5
100
AcDbBlockReference
  2
_OPEN30
 10
-50.00000000000006
 20
-75.29000100999995
 30
0.0
 41
2.5
 42
2.5
 43
2.5
  0
INSERT
  5
437A
330
402B
100
AcDbEntity
  8
AM_5
100
AcDbBlockReference
  2
_OPEN30
 10
-42.00000000000006
 20
-75.29000100999995
 30
0.0
 41
2.5
 42
2.5
 43
2.5
 50
180.0
  0
MTEXT
  5
437B
330
402B
100
AcDbEntity
  8
AM_5
 62
     2
100
AcDbMText
 10
-46.00000000000005
 20
-72.19000100999996
 30
0.0
 40
3.2
 41
0.0
 71
     5
 72
     1
  1
8
  7
ASAMI
1001
ACAD
1000
MTEXTBEGIN
1070
    73
1070
     1
1070
    44
1040
1.0
1070
    74
1070
     0
1000
MTEXTEND
  0
POINT
  5
437C
330
402B
100
AcDbEntity
  8
DEFPOINTS
 62
     0
100
AcDbPoint
 10
-50.00000000000006
 20
-33.00000000000002
 30
0.0
  0
POINT
  5
437D
330
402B
100
AcDbEntity
  8
DEFPOINTS
 62
     0
100
AcDbPoint
 10
-42.00000000000005
 20
-6.349999999999987
 30
0.0
  0
POINT
  5
437E
330
402B
100
AcDbEntity
  8
DEFPOINTS
 62
     0
100
AcDbPoint
 10
-42.00000000000006
 20
-75.29000100999995
 30
0.0
  0
ENDBLK
  5
4038
330
402B
100
AcDbEntity
  8
0
100
AcDbBlockEnd
  0
BLOCK
  5
407E
330
4074
100
AcDbEntity
  8
0
100
AcDbBlockBegin
  2
*D11
 70
     1
 10
0.0
 20
0.0
 30
0.0
  3
*D11
  1

  0
LINE
  5
436B
330
4074
100
AcDbEntity
  8
AM_5
100
AcDbLine
 10
0.9999999999999715
 20
50.0
 30
0.0
 11
28.85844144231784
 21
50.0
 31
0.0
  0
LINE
  5
436C
330
4074
100
AcDbEntity
  8
AM_5
100
AcDbLine
 10
1.000000000000056
 20
-50.00000000002961
 30
0.0
 11
28.85844144231782
 21
-50.00000000002962
 31
0.0
  0
LINE
  5
436D
330
4074
100
AcDbEntity
  8
AM_5
100
AcDbLine
 10
27.85844144231784
 20
47.5
 30
0.0
 11
27.85844144231782
 21
-47.50000000002962
 31
0.0
  0
INSERT
  5
436E
330
4074
100
AcDbEntity
  8
AM_5
100
AcDbBlockReference
  2
_OPEN30
 10
27.85844144231784
 20
50.0
 30
0.0
 41
2.5
 42
2.5
 43
2.5
 50
90.0
  0
INSERT
  5
436F
330
4074
100
AcDbEntity
  8
AM_5
100
AcDbBlockReference
  2
_OPEN30
 10
27.85844144231782
 20
-50.00000000002962
 30
0.0
 41
2.5
 42
2.5
 43
2.5
 50
270.0
  0
MTEXT
  5
4370
330
4074
100
AcDbEntity
  8
AM_5
 62
     2
100
AcDbMText
 10
24.75844144231783
 20
-0.0000000000148019
 30
0.0
 40
3.2
 41
0.0
 71
     5
 72
     1
  1
%%c100
  7
ASAMI
 11
0.0000000000000001
 21
1.0
 31
0.0
1001
ACAD
1000
MTEXTBEGIN
1070
    73
1070
     1
1070
    44
1040
1.0
1070
    74
1070
     0
1000
MTEXTEND
  0
POINT
  5
4371
330
4074
100
AcDbEntity
  8
DEFPOINTS
 62
     0
100
AcDbPoint
 10
-0.0000000000000284
 20
50.0
 30
0.0
  0
POINT
  5
4372
330
4074
100
AcDbEntity
  8
DEFPOINTS
 62
     0
100
AcDbPoint
 10
0.0000000000000568
 20
-50.00000000002961
 30
0.0
  0
POINT
  5
4373
330
4074
100
AcDbEntity
  8
DEFPOINTS
 62
     0
100
AcDbPoint
 10
27.85844144231782
 20
-50.00000000002962
 30
0.0
  0
ENDBLK
  5
407F
330
4074
100
AcDbEntity
  8
0
100
AcDbBlockEnd
  0
BLOCK
  5
408A
330
4080
100
AcDbEntity
  8
0
100
AcDbBlockBegin
  2
*D12
 70
     1
 10
0.0
 20
0.0
 30
0.0
  3
*D12
  1

  0
LINE
  5
437F
330
4080
100
AcDbEntity
  8
AM_5
100
AcDbLine
 10
-14.00000000000014
 20
23.0
 30
0.0
 11
18.85844144231782
 21
22.99999999999999
 31
0.0
  0
LINE
  5
4380
330
4080
100
AcDbEntity
  8
AM_5
100
AcDbLine
 10
-14.00000000000014
 20
-22.99999999999999
 30
0.0
 11
18.85844144231782
 21
-23.0
 31
0.0
  0
LINE
  5
4381
330
4080
100
AcDbEntity
  8
AM_5
100
AcDbLine
 10
17.85844144231783
 20
20.49999999999999
 30
0.0
 11
17.85844144231782
 21
-20.5
 31
0.0
  0
INSERT
  5
4382
330
4080
100
AcDbEntity
  8
AM_5
100
AcDbBlockReference
  2
_OPEN30
 10
17.85844144231783
 20
22.99999999999999
 30
0.0
 41
2.5
 42
2.5
 43
2.5
 50
90.0
  0
INSERT
  5
4383
330
4080
100
AcDbEntity
  8
AM_5
100
AcDbBlockReference
  2
_OPEN30
 10
17.85844144231782
 20
-23.0
 30
0.0
 41
2.5
 42
2.5
 43
2.5
 50
270.0
  0
MTEXT
  5
4384
330
4080
100
AcDbEntity
  8
AM_5
 62
     2
100
AcDbMText
 10
14.75844144231782
 20
-0.0000000000000007
 30
0.0
 40
3.2
 41
0.0
 71
     5
 72
     1
  1
%%c46
  7
ASAMI
 11
0.0000000000000001
 21
1.0
 31
0.0
1001
ACAD
1000
MTEXTBEGIN
1070
    73
1070
     1
1070
    44
1040
1.0
1070
    74
1070
     0
1000
MTEXTEND
  0
POINT
  5
4385
330
4080
100
AcDbEntity
  8
DEFPOINTS
 62
     0
100
AcDbPoint
 10
-15.00000000000014
 20
23.0
 30
0.0
  0
POINT
  5
4386
330
4080
100
AcDbEntity
  8
DEFPOINTS
 62
     0
100
AcDbPoint
 10
-15.00000000000014
 20
-22.99999999999999
 30
0.0
  0
POINT
  5
4387
330
4080
100
AcDbEntity
  8
DEFPOINTS
 62
     0
100
AcDbPoint
 10
17.85844144231782
 20
-23.0
 30
0.0
  0
ENDBLK
  5
408B
330
4080
100
AcDbEntity
  8
0
100
AcDbBlockEnd
  0
BLOCK
  5
43C2
330
43B2
100
AcDbEntity
  8
0
100
AcDbBlockBegin
  2
*D13
 70
     1
 10
0.0
 20
0.0
 30
0.0
  3
*D13
  1

  0
LINE
  5
4488
330
43B2
100
AcDbEntity
  8
AM_5
100
AcDbLine
 10
-6.684458140310301
 20
-57.06159047098834
 30
0.0
 11
-16.55398169378299
 21
-67.48794545975075
 31
0.0
  0
LINE
  5
4489
330
43B2
100
AcDbEntity
  8
AM_5
100
AcDbLine
 10
0.0000000000000568
 20
-51.00000000002961
 30
0.0
 11
0.0000000000000746
 21
-74.08033526181312
 31
0.0
  0
ARC
  5
448A
330
43B2
100
AcDbEntity
  8
AM_5
100
AcDbCircle
 10
0.0000000000000639
 20
-49.99999999999992
 30
0.0
 40
23.08033526181319
100
AcDbArc
 50
232.7807180942102
 51
263.790836927219
  0
INSERT
  5
448B
330
43B2
100
AcDbEntity
  8
AM_5
100
AcDbBlockReference
  2
_OPEN30
 10
-15.86653355347265
 20
-66.76171198876234
 30
0.0
 41
2.5
 42
2.5
 43
2.5
 50
139.6761365578197
  0
INSERT
  5
448C
330
43B2
100
AcDbEntity
  8
AM_5
100
AcDbBlockReference
  2
_OPEN30
 10
0.0000000000000782
 20
-73.08033526181311
 30
0.0
 41
2.5
 42
2.5
 43
2.5
 50
356.8954184636095
  0
MTEXT
  5
448D
330
43B2
100
AcDbEntity
  8
AM_5
 62
     2
100
AcDbMText
 10
-7.392272167134802
 20
-68.56254587553809
 30
0.0
 40
3.2
 41
0.0
 71
     5
 72
     1
  1
45%%d
  7
ASAMI
 11
0.9290407609433493
 21
-0.3699773837760927
 31
0.0
1001
ACAD
1000
MTEXTBEGIN
1070
    73
1070
     1
1070
    44
1040
1.0
1070
    74
1070
     0
1000
MTEXTEND
  0
POINT
  5
448E
330
43B2
100
AcDbEntity
  8
DEFPOINTS
 62
     0
100
AcDbPoint
 10
-11.17275779788912
 20
-70.19582528611794
 30
0.0
  0
POINT
  5
448F
330
43B2
100
AcDbEntity
  8
DEFPOINTS
 62
     0
100
AcDbPoint
 10
-5.99700999999996
 20
-56.33535699999995
 30
0.0
  0
POINT
  5
4490
330
43B2
100
AcDbEntity
  8
DEFPOINTS
 62
     0
100
AcDbPoint
 10
-0.0000000000000249
 20
50.00000000000001
 30
0.0
  0
POINT
  5
4491
330
43B2
100
AcDbEntity
  8
DEFPOINTS
 62
     0
100
AcDbPoint
 10
0.0000000000000568
 20
-50.00000000002962
 30
0.0
  0
POINT
  5
4492
330
43B2
100
AcDbEntity
  8
DEFPOINTS
 62
     0
100
AcDbPoint
 10
-0.0000000000000249
 20
-50.00000000000001
 30
0.0
  0
ENDBLK
  5
43C3
330
43B2
100
AcDbEntity
  8
0
100
AcDbBlockEnd
  0
ENDSEC
  0
SECTION
  2
ENTITIES
  0
LINE
  5
2F53
330
1F
100
AcDbEntity
  8
AM_3
100
AcDbLine
 10
-2.000000000000085
 20
46.80000000000002
 30
0.0
 11
-2.000000000000085
 21
45.02106729942516
 31
0.0
  0
LINE
  5
2F54
330
1F
100
AcDbEntity
  8
AM_0
100
AcDbLine
 10
-15.00000000000008
 20
33.1008583713475
 30
0.0
 11
-15.00000000000005
 21
28.00085837134751
 31
0.0
  0
LINE
  5
2F55
330
1F
100
AcDbEntity
  8
AM_0
100
AcDbLine
 10
-50.00000000000003
 20
33.00000000000004
 30
0.0
 11
-50.0
 21
7.350000000000033
 31
0.0
  0
LINE
  5
2F56
330
1F
100
AcDbEntity
  8
AM_0
100
AcDbLine
 10
-15.00000000000014
 20
-22.99999999999999
 30
0.0
 11
-15.00000000000014
 21
23.0
 31
0.0
  0
LINE
  5
2F57
330
1F
100
AcDbEntity
  8
AM_0
100
AcDbLine
 10
-18.00000000000005
 20
-22.99999999999999
 30
0.0
 11
-18.00000000000002
 21
0.0000000000000071
 31
0.0
  0
LINE
  5
2F58
330
1F
100
AcDbEntity
  8
AM_0
100
AcDbLine
 10
-14.50000000000014
 20
-22.99999999999999
 30
0.0
 11
-14.50000000000014
 21
0.0000000000000071
 31
0.0
  0
LINE
  5
2F59
330
1F
100
AcDbEntity
  8
AM_0
100
AcDbLine
 10
-50.00000000000003
 20
-33.00000000000002
 30
0.0
 11
-50.0
 21
-7.349999999999958
 31
0.0
  0
LINE
  5
2F5A
330
1F
100
AcDbEntity
  8
AM_3
100
AcDbLine
 10
-2.000000000000085
 20
-46.8
 30
0.0
 11
-2.000000000000085
 21
-45.02106729942514
 31
0.0
  0
LINE
  5
2F5B
330
1F
100
AcDbEntity
  8
AM_0
100
AcDbLine
 10
-11.30000000000012
 20
-61.28999999999998
 30
0.0
 11
-30.32673012021047
 21
-61.28999999999996
 31
0.0
  0
LINE
  5
2F5C
330
1F
100
AcDbEntity
  8
AM_0
100
AcDbLine
 10
-39.98598838310115
 20
-53.87819045102517
 30
0.0
 11
-44.44858775408394
 21
-37.22354286469245
 31
0.0
  0
LINE
  5
2F60
330
1F
100
AcDbEntity
  8
AM_0
100
AcDbLine
 10
-48.00000000000006
 20
-35.00000000000002
 30
0.0
 11
-47.34636523295111
 21
-35.00000000000002
 31
0.0
  0
LINE
  5
2F61
330
1F
100
AcDbEntity
  8
AM_3
100
AcDbLine
 10
-2.000000000000085
 20
-50.39999999999999
 30
0.0
 11
-2.000000000000085
 21
-46.8
 31
0.0
  0
LINE
  5
2F65
330
1F
100
AcDbEntity
  8
AM_0
100
AcDbLine
 10
-14.50000000000011
 20
-28.0008583713475
 30
0.0
 11
-14.50000000000014
 21
-22.99999999999999
 31
0.0
  0
LINE
  5
2F66
330
1F
100
AcDbEntity
  8
AM_0
100
AcDbLine
 10
-15.00000000000014
 20
-22.99999999999999
 30
0.0
 11
-14.50000000000014
 21
-23.49999999999999
 31
0.0
  0
LINE
  5
2F67
330
1F
100
AcDbEntity
  8
AM_0
100
AcDbLine
 10
-18.00000000000005
 20
-22.99999999999999
 30
0.0
 11
-15.00000000000014
 21
-22.99999999999999
 31
0.0
  0
LINE
  5
2F69
330
1F
100
AcDbEntity
  8
AM_0
100
AcDbLine
 10
-36.74000000000003
 20
-15.62499999999998
 30
0.0
 11
-19.00000000000005
 21
-15.62499999999998
 31
0.0
  0
LINE
  5
2F6A
330
1F
100
AcDbEntity
  8
AM_0
100
AcDbLine
 10
-36.74000000000003
 20
15.625
 30
0.0
 11
-19.00000000000004
 21
15.625
 31
0.0
  0
LINE
  5
2F6B
330
1F
100
AcDbEntity
  8
AM_7
100
AcDbLine
 10
-53.67678006511795
 20
0.0000000000000071
 30
0.0
 11
3.858440442317828
 21
0.0
 31
0.0
  0
LINE
  5
2F6C
330
1F
100
AcDbEntity
  8
AM_0
100
AcDbLine
 10
-42.00000000000005
 20
6.350000000000001
 30
0.0
 11
-42.00000000000005
 21
0.0000000000000071
 31
0.0
  0
LINE
  5
2F6D
330
1F
100
AcDbEntity
  8
AM_0
100
AcDbLine
 10
-36.74000000000003
 20
-15.62499999999998
 30
0.0
 11
-43.90000000000006
 21
-15.87503270956084
 31
0.0
  0
LINE
  5
2F6E
330
1F
100
AcDbEntity
  8
AM_0
100
AcDbLine
 10
-43.90000000000006
 20
-15.87503270956084
 30
0.0
 11
-47.50000000000002
 21
-15.87503270956084
 31
0.0
  0
LINE
  5
2F6F
330
1F
100
AcDbEntity
  8
AM_0
100
AcDbLine
 10
-43.90000000000006
 20
-15.87503270956084
 30
0.0
 11
-43.90000000000006
 21
-6.349999999999994
 31
0.0
  0
LINE
  5
2F72
330
1F
100
AcDbEntity
  8
AM_0
100
AcDbLine
 10
-49.00000000000003
 20
-6.350000000000015
 30
0.0
 11
-42.00000000000002
 21
-6.349999999999987
 31
0.0
  0
LINE
  5
2F74
330
1F
100
AcDbEntity
  8
AM_0
100
AcDbLine
 10
-42.00000000000005
 20
-6.349999999999987
 30
0.0
 11
-42.00000000000005
 21
0.0000000000000071
 31
0.0
  0
LINE
  5
2F76
330
1F
100
AcDbEntity
  8
AM_0
100
AcDbLine
 10
-36.74000000000003
 20
15.625
 30
0.0
 11
-43.90000000000006
 21
15.87503270956085
 31
0.0
  0
LINE
  5
2F77
330
1F
100
AcDbEntity
  8
AM_0
100
AcDbLine
 10
-49.0
 20
6.350000000000028
 30
0.0
 11
-42.00000000000002
 21
6.350000000000001
 31
0.0
  0
LINE
  5
2F78
330
1F
100
AcDbEntity
  8
AM_0
100
AcDbLine
 10
-43.90000000000006
 20
15.87503270956085
 30
0.0
 11
-43.90000000000006
 21
6.350000000000008
 31
0.0
  0
LINE
  5
2F79
330
1F
100
AcDbEntity
  8
AM_0
100
AcDbLine
 10
-43.90000000000006
 20
15.87503270956085
 30
0.0
 11
-47.50000000000001
 21
15.87503270956085
 31
0.0
  0
LINE
  5
2F7B
330
1F
100
AcDbEntity
  8
AM_0
100
AcDbLine
 10
-36.74000000000003
 20
15.625
 30
0.0
 11
-36.74000000000003
 21
-15.62499999999998
 31
0.0
  0
LINE
  5
2F7C
330
1F
100
AcDbEntity
  8
AM_0
100
AcDbLine
 10
-14.50000000000014
 20
23.0
 30
0.0
 11
-14.50000000000014
 21
0.0000000000000071
 31
0.0
  0
LINE
  5
2F7D
330
1F
100
AcDbEntity
  8
AM_0
100
AcDbLine
 10
-18.00000000000005
 20
23.0
 30
0.0
 11
-18.00000000000003
 21
0.0000000000000027
 31
0.0
  0
LINE
  5
2F81
330
1F
100
AcDbEntity
  8
AM_0
100
AcDbLine
 10
-15.00000000000014
 20
23.0
 30
0.0
 11
-14.50000000000014
 21
23.5
 31
0.0
  0
LINE
  5
2F82
330
1F
100
AcDbEntity
  8
AM_0
100
AcDbLine
 10
-15.00000000000005
 20
28.00085837134751
 30
0.0
 11
-14.50000000000008
 21
28.00085837134751
 31
0.0
  0
LINE
  5
2F83
330
1F
100
AcDbEntity
  8
AM_0
100
AcDbLine
 10
-14.50000000000011
 20
28.0008583713475
 30
0.0
 11
-14.50000000000014
 21
23.0
 31
0.0
  0
LINE
  5
2F84
330
1F
100
AcDbEntity
  8
AM_0
100
AcDbLine
 10
-18.00000000000005
 20
23.0
 30
0.0
 11
-15.00000000000014
 21
23.0
 31
0.0
  0
LINE
  5
2F85
330
1F
100
AcDbEntity
  8
AM_0
100
AcDbLine
 10
-11.30000000000012
 20
61.29
 30
0.0
 11
-30.32673012021048
 21
61.28999999999996
 31
0.0
  0
LINE
  5
2F87
330
1F
100
AcDbEntity
  8
AM_0
100
AcDbLine
 10
-39.98598838310115
 20
53.87819045102514
 30
0.0
 11
-44.44858775408392
 21
37.22354286469247
 31
0.0
  0
LINE
  5
2F8A
330
1F
100
AcDbEntity
  8
AM_0
100
AcDbLine
 10
-48.00000000000004
 20
35.00000000000004
 30
0.0
 11
-47.34636523295113
 21
35.00000000000003
 31
0.0
  0
LINE
  5
2F8B
330
1F
100
AcDbEntity
  8
AM_3
100
AcDbLine
 10
-7.017343055261918
 20
56.27514686793563
 30
0.0
 11
-2.000000000000085
 21
50.40000000000001
 31
0.0
  0
LINE
  5
2F8C
330
1F
100
AcDbEntity
  8
AM_3
100
AcDbLine
 10
-2.000000000000085
 20
46.80000000000002
 30
0.0
 11
-10.73736719384375
 21
37.59273610384566
 31
0.0
  0
LINE
  5
2F8D
330
1F
100
AcDbEntity
  8
AM_3
100
AcDbLine
 10
-2.000000000000085
 20
50.40000000000001
 30
0.0
 11
-2.000000000000085
 21
46.80000000000005
 31
0.0
  0
LINE
  5
3A61
330
1F
100
AcDbEntity
  8
AM_3
100
AcDbLine
 10
-7.017343055261935
 20
-56.27514686793562
 30
0.0
 11
-2.000000000000085
 21
-50.4
 31
0.0
  0
LINE
  5
3B29
330
1F
100
AcDbEntity
  8
AM_3
100
AcDbLine
 10
-2.000000000000085
 20
-46.8
 30
0.0
 11
-10.73736719384374
 21
-37.59273610384566
 31
0.0
  0
LINE
  5
3B2A
330
1F
100
AcDbEntity
  8
AM_0
100
AcDbLine
 10
-15.00000000000008
 20
-33.10085837134749
 30
0.0
 11
-15.00000000000005
 21
-28.0008583713475
 31
0.0
  0
LINE
  5
3B2B
330
1F
100
AcDbEntity
  8
AM_0
100
AcDbLine
 10
-15.00000000000005
 20
-28.0008583713475
 30
0.0
 11
-14.50000000000008
 21
-28.0008583713475
 31
0.0
  0
DIMENSION
  5
3F79
330
1F
100
AcDbEntity
  8
AM_5
100
AcDbDimension
  2
*D6
 10
-77.67678106511795
 20
-15.87503270956083
 30
0.0
 11
-80.77678106511795
 21
0.0000000000000042
 31
0.0
 70
    32
  1
%%c<>
  3
AM_JIS
100
AcDbAlignedDimension
 13
-47.50000000000002
 23
15.87503270956085
 33
0.0
 14
-47.50000000000002
 24
-15.87503270956084
 34
0.0
 50
90.0
100
AcDbRotatedDimension
1001
GENIUS_GENDTOL_13
1000

1000
h7
1000

1040
0.0
  0
DIMENSION
  5
3F7A
330
1F
100
AcDbEntity
  8
AM_5
100
AcDbDimension
  2
*D5
 10
-87.67678106511795
 20
-35.00000000000001
 30
0.0
 11
-90.77678106511793
 21
-0.0000000000000014
 31
0.0
 70
    32
  1
%%c<>
  3
AM_JIS
100
AcDbAlignedDimension
 13
-48.00000000000006
 23
35.00000000000003
 33
0.0
 14
-48.00000000000003
 24
-35.00000000000002
 34
0.0
 50
90.0
100
AcDbRotatedDimension
1001
GENIUS_GENDTOL_13
1000

1000
h7
1000

1040
0.0
  0
DIMENSION
  5
3F7B
330
1F
100
AcDbEntity
  8
AM_5
100
AcDbDimension
  2
*D7
 10
-67.67678106511795
 20
-6.35000000000001
 30
0.0
 11
-67.67678106511795
 21
-0.0000000000000284
 31
0.0
 70
   160
  3
AM_JIS
100
AcDbAlignedDimension
 13
-49.00000000000003
 23
6.350000000000029
 33
0.0
 14
-49.00000000000003
 24
-6.350000000000015
 34
0.0
 50
90.0
100
AcDbRotatedDimension
  0
DIMENSION
  5
4010
330
1F
100
AcDbEntity
  8
AM_5
100
AcDbDimension
  2
*D9
 10
-18.00000000000006
 20
-85.29000100999995
 30
0.0
 11
-34.00000000000005
 21
-82.19000100999997
 31
0.0
 70
    32
  3
AM_JIS
100
AcDbAlignedDimension
 13
-50.00000000000006
 23
-33.00000000000002
 33
0.0
 14
-18.00000000000005
 24
-22.99999999999999
 34
0.0
100
AcDbRotatedDimension
  0
DIMENSION
  5
4011
330
1F
100
AcDbEntity
  8
AM_5
100
AcDbDimension
  2
*D8
 10
0.0000000000000541
 20
-95.29000100999995
 30
0.0
 11
-25.0
 21
-92.19000100999997
 31
0.0
 70
    32
  3
AM_JIS
100
AcDbAlignedDimension
 13
-50.00000000000006
 23
-33.00000000000002
 33
0.0
 14
0.0000000000000568
 24
-50.00000000002961
 34
0.0
100
AcDbRotatedDimension
  0
DIMENSION
  5
4012
330
1F
100
AcDbEntity
  8
AM_5
100
AcDbDimension
  2
*D10
 10
-42.00000000000006
 20
-75.29000100999995
 30
0.0
 11
-46.00000000000005
 21
-72.19000100999996
 31
0.0
 70
    32
  3
AM_JIS
100
AcDbAlignedDimension
 13
-50.00000000000006
 23
-33.00000000000002
 33
0.0
 14
-42.00000000000005
 24
-6.349999999999987
 34
0.0
100
AcDbRotatedDimension
  0
DIMENSION
  5
4072
330
1F
100
AcDbEntity
  8
AM_5
100
AcDbDimension
  2
*D12
 10
17.85844144231782
 20
-23.0
 30
0.0
 11
14.75844144231782
 21
-0.0000000000000007
 31
0.0
 70
    32
  1
%%c<>
  3
AM_JIS
100
AcDbAlignedDimension
 13
-15.00000000000014
 23
23.0
 33
0.0
 14
-15.00000000000014
 24
-22.99999999999999
 34
0.0
 50
90.0
100
AcDbRotatedDimension
1001
GENIUS_GENDTOL_13
1000

1000
h7
1000

1040
0.0
  0
DIMENSION
  5
4073
330
1F
100
AcDbEntity
  8
AM_5
100
AcDbDimension
  2
*D11
 10
27.85844144231782
 20
-50.00000000002962
 30
0.0
 11
24.75844144231783
 21
-0.0000000000148019
 31
0.0
 70
    32
  1
%%c<>
  3
AM_JIS
100
AcDbAlignedDimension
 13
-0.0000000000000284
 23
50.0
 33
0.0
 14
0.0000000000000568
 24
-50.00000000002961
 34
0.0
 50
90.0
100
AcDbRotatedDimension
1001
GENIUS_GENDTOL_13
1000

1000
h7
1000

1040
0.0
  0
ELLIPSE
  5
41FC
330
1F
100
AcDbEntity
  8
AM_0
100
AcDbEllipse
 10
-10.09351400000005
 20
63.96218099999988
 30
0.0
 11
9.077921428430002
 21
8.593098541228002
 31
0.0
210
0.0
220
0.0
230
1.0
 40
0.40306016
 41
3.504973911650779
 42
4.120812155185199
  0
ELLIPSE
  5
41FD
330
1F
100
AcDbEntity
  8
AM_0
100
AcDbEllipse
 10
-7.443830000000076
 20
61.1630029999999
 30
0.0
 11
16.752346230429
 21
0.4186277243570003
 31
0.0
210
0.0
220
0.0
230
1.0
 40
0.09565589915869
 41
3.387269475739639
 42
3.69919915740975
  0
ELLIPSE
  5
41FE
330
1F
100
AcDbEntity
  8
AM_0
100
AcDbEllipse
 10
-7.443830000000076
 20
61.1630029999999
 30
0.0
 11
16.752346230429
 21
0.4186277243570003
 31
0.0
210
0.0
220
0.0
230
1.0
 40
0.09565589915869
 41
3.87803142890441
 42
4.206720239215379
  0
ELLIPSE
  5
41FF
330
1F
100
AcDbEntity
  8
AM_0
100
AcDbEllipse
 10
-18.81142500000001
 20
57.20436399999995
 30
0.0
 11
-2.555150043760999
 21
1.584164467601999
 31
0.0
210
0.0
220
0.0
230
1.0
 40
0.4962014217725701
 41
1.08230269278924
 42
1.665047343793309
  0
ELLIPSE
  5
4200
330
1F
100
AcDbEntity
  8
AM_0
100
AcDbEllipse
 10
-22.98706600000005
 20
51.47857499999987
 30
0.0
 11
-2.290639612009
 21
1.949631823684
 31
0.0
210
0.0
220
0.0
230
1.0
 40
0.2334633752270999
 41
1.137178375746189
 42
2.70797645986774
  0
ELLIPSE
  5
4201
330
1F
100
AcDbEntity
  8
AM_0
100
AcDbEllipse
 10
-21.32796199999998
 20
59.86288300000001
 30
0.0
 11
-2.555150043760999
 21
1.584164467601999
 31
0.0
210
0.0
220
0.0
230
1.0
 40
0.4962014217725701
 41
0.636245101584397
 42
1.08230269278924
  0
ELLIPSE
  5
4202
330
1F
100
AcDbEntity
  8
AM_0
100
AcDbEllipse
 10
-17.43595800000005
 20
60.27145799999995
 30
0.0
 11
4.438020644030999
 21
0.167170474016
 31
0.0
210
0.0
220
0.0
230
1.0
 40
0.1084187763219
 41
3.46551503352552
 42
4.13902372390823
  0
ELLIPSE
  5
4203
330
1F
100
AcDbEntity
  8
AM_0
100
AcDbEllipse
 10
-25.50360300000003
 20
54.13709399999994
 30
0.0
 11
-2.290639612009
 21
1.949631823684
 31
0.0
210
0.0
220
0.0
230
1.0
 40
0.2334633752270999
 41
0.017551370222918
 42
1.137178375746189
  0
ELLIPSE
  5
4204
330
1F
100
AcDbEntity
  8
AM_0
100
AcDbEllipse
 10
-9.643704999999982
 20
63.79440499999987
 30
0.0
 11
9.077921428430002
 21
8.593098541228002
 31
0.0
210
0.0
220
0.0
230
1.0
 40
0.40306016
 41
3.625988081971029
 42
4.12191071214064
  0
ELLIPSE
  5
4205
330
1F
100
AcDbEntity
  8
AM_0
100
AcDbEllipse
 10
-9.917886999999979
 20
49.32116599999996
 30
0.0
 11
-3.832724215734998
 21
2.376246174469999
 31
0.0
210
0.0
220
0.0
230
1.0
 40
0.49620175355538
 41
0.62109220314602
 42
1.543512159643229
  0
SPLINE
  5
4206
330
1F
100
AcDbEntity
  8
AM_0
100
AcDbSpline
210
0.0
220
0.0
230
1.0
 70
     8
 71
     3
 72
    11
 73
     7
 74
     5
 42
0.0000000001
 43
0.0000000001
 44
0.0000000001
 40
0.0
 40
0.0
 40
0.0
 40
0.0
 40
0.7145181739501214
 40
1.36084130803244
 40
1.911022652545419
 40
2.350779522819131
 40
2.350779522819131
 40
2.350779522819131
 40
2.350779522819131
 10
-19.35353300000011
 20
55.79303399999993
 30
0.0
 10
-19.17232732741413
 20
55.63801453590195
 30
0.0
 10
-18.82721061310923
 20
55.34277097459781
 30
0.0
 10
-18.30269540553817
 20
54.98264271620204
 30
0.0
 10
-17.81906404457452
 20
54.71548412688036
 30
0.0
 10
-17.49260069719482
 20
54.65607369370729
 30
0.0
 10
-17.34757700000002
 20
54.62968200000001
 30
0.0
 11
-19.35353300000011
 21
55.79303399999993
 31
0.0
 11
-18.80208900000005
 21
55.33867099999998
 31
0.0
 11
-18.26894000000007
 21
54.97331399999996
 31
0.0
 11
-17.77596499999995
 21
54.72902899999997
 31
0.0
 11
-17.34757700000002
 21
54.62968200000001
 31
0.0
  0
SPLINE
  5
4207
330
1F
100
AcDbEntity
  8
AM_0
100
AcDbSpline
210
0.0
220
0.0
230
1.0
 70
     8
 71
     3
 72
    11
 73
     7
 74
     5
 42
0.0000000001
 43
0.0000000001
 44
0.0000000001
 40
0.0
 40
0.0
 40
0.0
 40
0.0
 40
1.781054617354863
 40
3.506378295465364
 40
4.920552749393833
 40
5.969191171666241
 40
5.969191171666241
 40
5.969191171666241
 40
5.969191171666241
 10
-19.82818899999998
 20
59.77655699999992
 30
0.0
 10
-19.25985277908187
 20
59.58650945978327
 30
0.0
 10
-18.14096413291916
 20
59.21236115257869
 30
0.0
 10
-16.85272836077714
 20
58.18392189548212
 30
0.0
 10
-16.06357801541629
 20
56.87134831193649
 30
0.0
 10
-16.31929748466014
 20
56.05917878263387
 30
0.0
 10
-16.42818000000002
 20
55.71336599999995
 30
0.0
 11
-19.82818899999998
 21
59.77655699999992
 31
0.0
 11
-18.17501299999995
 21
59.11386199999993
 31
0.0
 11
-16.84084500000008
 21
58.01990699999988
 31
0.0
 11
-16.23202500000004
 21
56.74349499999994
 31
0.0
 11
-16.42818000000002
 21
55.71336599999995
 31
0.0
  0
SPLINE
  5
4208
330
1F
100
AcDbEntity
  8
AM_0
100
AcDbSpline
210
0.0
220
0.0
230
1.0
 70
     8
 71
     3
 72
    11
 73
     7
 74
     5
 42
0.0000000001
 43
0.0000000001
 44
0.0000000001
 40
0.0
 40
0.0
 40
0.0
 40
0.0
 40
0.1207363178004091
 40
0.2580229741986187
 40
0.4180017894774544
 40
0.6037199231020301
 40
0.6037199231020301
 40
0.6037199231020301
 40
0.6037199231020301
 10
-22.17381100000002
 20
59.71473799999991
 30
0.0
 10
-22.14685712745774
 20
59.74498397208217
 30
0.0
 10
-22.08925458924693
 20
59.80962198503776
 30
0.0
 10
-21.96465254621984
 20
59.87673668321869
 30
0.0
 10
-21.81237042443227
 20
59.92991447984579
 30
0.0
 10
-21.69855099951296
 20
59.94937582010337
 30
0.0
 10
-21.63740399999997
 20
59.9598309999999
 30
0.0
 11
-22.17381100000002
 21
59.71473799999991
 31
0.0
 11
-22.08872099999999
 21
59.80039399999988
 31
0.0
 11
-21.97032600000003
 21
59.86989399999994
 31
0.0
 11
-21.81945299999998
 21
59.92309699999999
 31
0.0
 11
-21.63740399999997
 21
59.9598309999999
 31
0.0
  0
SPLINE
  5
4209
330
1F
100
AcDbEntity
  8
AM_0
100
AcDbSpline
210
0.0
220
0.0
230
1.0
 70
     8
 71
     3
 72
    11
 73
     7
 74
     5
 42
0.0000000001
 43
0.0000000001
 44
0.0000000001
 40
0.0
 40
0.0
 40
0.0
 40
0.0
 40
1.513558911605338
 40
3.99214604379376
 40
6.507770778066351
 40
7.753678117367641
 40
7.753678117367641
 40
7.753678117367641
 40
7.753678117367641
 10
-16.42818000000002
 20
55.71336599999995
 30
0.0
 10
-16.93614524980388
 20
55.54120967743727
 30
0.0
 10
-18.2759487069672
 20
55.08713208801339
 30
0.0
 10
-20.00834584413085
 20
56.83215596907277
 30
0.0
 10
-21.73059397914479
 20
58.06475525000583
 30
0.0
 10
-22.06353361196675
 20
59.30420370323887
 30
0.0
 10
-22.17381100000002
 20
59.71473799999991
 30
0.0
 11
-16.42818000000002
 21
55.71336599999995
 31
0.0
 11
-17.912248
 21
55.41603999999995
 31
0.0
 11
-20.01053100000004
 21
56.73535899999991
 31
0.0
 11
-21.76560899999995
 21
58.537599
 31
0.0
 11
-22.17381100000002
 21
59.71473799999991
 31
0.0
  0
SPLINE
  5
420A
330
1F
100
AcDbEntity
  8
AM_0
100
AcDbSpline
210
0.0
220
0.0
230
1.0
 70
     8
 71
     3
 72
    11
 73
     7
 74
     5
 42
0.0000000001
 43
0.0000000001
 44
0.0000000001
 40
0.0
 40
0.0
 40
0.0
 40
0.0
 40
0.2757246160955127
 40
0.5070860214551301
 40
0.6974850349662192
 40
0.8565604683587228
 40
0.8565604683587228
 40
0.8565604683587228
 40
0.8565604683587228
 10
-13.29620700000001
 20
51.5616379999999
 30
0.0
 10
-13.38757462432709
 20
51.5500172203748
 30
0.0
 10
-13.55560911383301
 20
51.52864540747775
 30
0.0
 10
-13.77907028851533
 20
51.46447944298877
 30
0.0
 10
-13.9585741795349
 20
51.38249602217843
 30
0.0
 10
-14.03874738207368
 20
51.29665948252722
 30
0.0
 10
-14.07524100000003
 20
51.25758799999995
 30
0.0
 11
-13.29620700000001
 21
51.5616379999999
 31
0.0
 11
-13.56866200000004
 21
51.51930199999993
 31
0.0
 11
-13.79075500000001
 21
51.45447300000001
 31
0.0
 11
-13.95999399999996
 21
51.36723799999994
 31
0.0
 11
-14.07524100000003
 21
51.25758799999995
 31
0.0
  0
SPLINE
  5
420B
330
1F
100
AcDbEntity
  8
AM_0
100
AcDbSpline
210
0.0
220
0.0
230
1.0
 70
     8
 71
     3
 72
    11
 73
     7
 74
     5
 42
0.0000000001
 43
0.0000000001
 44
0.0000000001
 40
0.0
 40
0.0
 40
0.0
 40
0.0
 40
1.04468105891218
 40
1.941535364311431
 40
2.612928259511313
 40
3.043453414123564
 40
3.043453414123564
 40
3.043453414123564
 40
3.043453414123564
 10
-10.34738000000007
 20
50.52299199999993
 30
0.0
 10
-10.681571841457
 20
50.62763605495788
 30
0.0
 10
-11.30266597647333
 20
50.82211659199121
 30
0.0
 10
-12.15996442972294
 20
50.91391644495432
 30
0.0
 10
-12.85805737414936
 20
50.9348706959097
 30
0.0
 10
-13.16688243205376
 20
50.723249507082
 30
0.0
 10
-13.28754199999994
 20
50.64056800000003
 30
0.0
 11
-10.34738000000007
 21
50.52299199999993
 31
0.0
 11
-11.354565
 21
50.80036699999994
 31
0.0
 11
-12.2447920000001
 21
50.90919499999996
 31
0.0
 11
-12.91395700000001
 21
50.85454499999992
 31
0.0
 11
-13.28754199999994
 21
50.64056800000003
 31
0.0
  0
SPLINE
  5
420C
330
1F
100
AcDbEntity
  8
AM_0
100
AcDbSpline
210
0.0
220
0.0
230
1.0
 70
     8
 71
     3
 72
    11
 73
     7
 74
     5
 42
0.0000000001
 43
0.0000000001
 44
0.0000000001
 40
0.0
 40
0.0
 40
0.0
 40
0.0
 40
0.2146183478177614
 40
0.4696810224724298
 40
0.8052848875887608
 40
1.233282542633635
 40
1.233282542633635
 40
1.233282542633635
 40
1.233282542633635
 10
-14.07524100000003
 20
51.25758799999995
 30
0.0
 10
-14.10678712289283
 20
51.19123776499131
 30
0.0
 10
-14.17582416192508
 20
51.04603374801415
 30
0.0
 10
-14.10683558555129
 20
50.77085475246192
 30
0.0
 10
-13.95462697926997
 20
50.47007686298083
 30
0.0
 10
-13.8048940893177
 20
50.26299571376019
 30
0.0
 10
-13.72096899999999
 20
50.14692700000001
 30
0.0
 11
-14.07524100000003
 21
51.25758799999995
 31
0.0
 11
-14.14706300000003
 21
51.05534399999989
 31
0.0
 11
-14.10671400000004
 21
50.8034929999999
 31
0.0
 11
-13.96154900000001
 21
50.50090899999987
 31
0.0
 11
-13.72096899999999
 21
50.14692700000001
 31
0.0
  0
SPLINE
  5
420D
330
1F
100
AcDbEntity
  8
AM_0
100
AcDbSpline
210
0.0
220
0.0
230
1.0
 70
     8
 71
     3
 72
    11
 73
     7
 74
     5
 42
0.0000000001
 43
0.0000000001
 44
0.0000000001
 40
0.0
 40
0.0
 40
0.0
 40
0.0
 40
1.246889020983929
 40
3.762516581837279
 40
6.241279187984521
 40
7.756416322911885
 40
7.756416322911885
 40
7.756416322911885
 40
7.756416322911885
 10
-13.28754199999994
 20
50.64056800000003
 30
0.0
 10
-13.1776612653797
 20
50.22954327196307
 30
0.0
 10
-12.84609359650497
 20
48.98926660839609
 30
0.0
 10
-11.12299635797096
 20
47.75638346405793
 30
0.0
 10
-9.388616046632105
 20
46.01251516904149
 30
0.0
 10
-8.048661831852282
 20
46.46841032169181
 30
0.0
 10
-7.54033300000006
 20
46.64135999999997
 30
0.0
 11
-13.28754199999994
 21
50.64056800000003
 31
0.0
 11
-12.880233
 21
49.4620809999999
 31
0.0
 11
-11.12503800000004
 21
47.65995099999987
 31
0.0
 11
-9.025623000000024
 21
46.34210399999996
 31
0.0
 11
-7.54033300000006
 21
46.64135999999997
 31
0.0
  0
LINE
  5
420E
330
1F
100
AcDbEntity
  8
AM_0
100
AcDbLine
 10
-13.09297800000004
 20
59.67165299999988
 30
0.0
 11
-8.863547000000068
 21
55.20359999999994
 31
0.0
  0
LINE
  5
420F
330
1F
100
AcDbEntity
  8
AM_0
100
AcDbLine
 10
-13.09297800000004
 20
59.67165299999988
 30
0.0
 11
-11.37718600000008
 21
59.25518399999988
 31
0.0
  0
LINE
  5
4210
330
1F
100
AcDbEntity
  8
AM_0
100
AcDbLine
 10
-15.11383700000001
 20
59.51769599999989
 30
0.0
 11
-15.52351400000012
 21
59.5583079999999
 31
0.0
  0
LINE
  5
4211
330
1F
100
AcDbEntity
  8
AM_0
100
AcDbLine
 10
-19.35353300000011
 20
55.79303399999993
 30
0.0
 11
-23.683412
 21
60.36720199999991
 31
0.0
  0
LINE
  5
4212
330
1F
100
AcDbEntity
  8
AM_0
100
AcDbLine
 10
-24.87076500000003
 20
60.09628799999997
 30
0.0
 11
-27.80187800000001
 21
56.07703999999991
 31
0.0
  0
LINE
  5
4213
330
1F
100
AcDbEntity
  8
AM_0
100
AcDbLine
 10
-15.52351400000012
 20
59.5583079999999
 30
0.0
 11
-12.28105100000007
 21
56.13290699999994
 31
0.0
  0
LINE
  5
4214
330
1F
100
AcDbEntity
  8
AM_0
100
AcDbLine
 10
-15.33329399999994
 20
59.53945099999987
 30
0.0
 11
-13.09297800000004
 21
59.67165299999988
 31
0.0
  0
LINE
  5
4215
330
1F
100
AcDbEntity
  8
AM_0
100
AcDbLine
 10
-24.36253400000001
 20
51.81243799999993
 30
0.0
 11
-20.70467500000009
 21
56.82822699999998
 31
0.0
  0
LINE
  5
4216
330
1F
100
AcDbEntity
  8
AM_0
100
AcDbLine
 10
-23.22121200000006
 20
59.48674599999993
 30
0.0
 11
-26.87907099999998
 21
54.47095700000001
 31
0.0
  0
LINE
  5
4217
330
1F
100
AcDbEntity
  8
AM_0
100
AcDbLine
 10
-10.87808899999995
 20
37.62689299999989
 30
0.0
 11
-23.68107300000011
 21
51.15221399999996
 31
0.0
  0
LINE
  5
4218
330
1F
100
AcDbEntity
  8
AM_0
100
AcDbLine
 10
-26.87907099999998
 20
54.47095700000001
 30
0.0
 11
-24.36253400000001
 21
51.81243799999993
 31
0.0
  0
LINE
  5
4219
330
1F
100
AcDbEntity
  8
AM_0
100
AcDbLine
 10
-19.95171400000006
 20
49.15557999999988
 30
0.0
 11
-16.06439800000001
 21
54.48600799999997
 31
0.0
  0
LINE
  5
421A
330
1F
100
AcDbEntity
  8
AM_0
100
AcDbLine
 10
-14.07521499999998
 20
51.25762399999997
 30
0.0
 11
-17.79983099999995
 21
46.15029599999991
 31
0.0
  0
LINE
  5
421B
330
1F
100
AcDbEntity
  8
AM_0
100
AcDbLine
 10
-17.34757700000002
 20
54.62968200000001
 30
0.0
 11
-21.09966299999999
 21
49.48468600000001
 31
0.0
  0
LINE
  5
421C
330
1F
100
AcDbEntity
  8
AM_0
100
AcDbLine
 10
-19.920444
 20
49.19845799999997
 30
0.0
 11
-21.09966299999999
 21
49.48468600000001
 31
0.0
  0
LINE
  5
421D
330
1F
100
AcDbEntity
  8
AM_0
100
AcDbLine
 10
-19.95171400000006
 20
49.15557999999988
 30
0.0
 11
-17.49830800000009
 21
46.56375499999991
 31
0.0
  0
LINE
  5
421E
330
1F
100
AcDbEntity
  8
AM_0
100
AcDbLine
 10
-23.22121200000006
 20
59.48674599999993
 30
0.0
 11
-20.70467500000009
 21
56.82822699999998
 31
0.0
  0
LINE
  5
421F
330
1F
100
AcDbEntity
  8
AM_0
100
AcDbLine
 10
-13.72096899999999
 20
50.14692700000001
 30
0.0
 11
-11.201106
 21
47.48489499999994
 31
0.0
  0
LINE
  5
4220
330
1F
100
AcDbEntity
  8
AM_0
100
AcDbLine
 10
-15.11383700000001
 20
59.51769599999989
 30
0.0
 11
-11.96858
 21
56.19498599999998
 31
0.0
  0
LINE
  5
4221
330
1F
100
AcDbEntity
  8
AM_0
100
AcDbLine
 10
-13.29620700000001
 20
51.5616379999999
 30
0.0
 11
-16.06439800000001
 21
54.48600799999997
 31
0.0
  0
LINE
  5
4222
330
1F
100
AcDbEntity
  8
AM_0
100
AcDbLine
 10
-12.28105100000007
 20
56.13290699999994
 30
0.0
 11
-11.96858
 21
56.19498599999998
 31
0.0
  0
LINE
  5
4223
330
1F
100
AcDbEntity
  8
AM_0
100
AcDbLine
 10
-11.96858
 20
56.19498599999998
 30
0.0
 11
-12.42913200000001
 21
55.65699499999994
 31
0.0
  0
ELLIPSE
  5
4224
330
1F
100
AcDbEntity
  8
AM_0
100
AcDbEllipse
 10
-21.07925200000002
 20
60.20392399999992
 30
0.0
 11
3.804017266616
 21
0.143288961596
 31
0.0
210
0.0
220
0.0
230
0.9999999999999998
 40
0.1084186759450099
 41
2.382733006633379
 42
3.056298966713689
  0
LINE
  5
4225
330
1F
100
AcDbEntity
  8
AM_0
100
AcDbLine
 10
-23.683412
 20
60.36720199999991
 30
0.0
 11
-23.85021599999995
 21
60.383738
 31
0.0
  0
LINE
  5
4226
330
1F
100
AcDbEntity
  8
AM_0
100
AcDbLine
 10
-11.50836600000005
 20
56.03281199999993
 30
0.0
 11
-9.746788000000066
 21
54.17184699999996
 31
0.0
  0
LINE
  5
4227
330
1F
100
AcDbEntity
  8
AM_0
100
AcDbLine
 10
-10.45730500000004
 20
59.03190399999995
 30
0.0
 11
-7.803841999999946
 21
56.22873499999992
 31
0.0
  0
LINE
  5
4228
330
1F
100
AcDbEntity
  8
AM_0
100
AcDbLine
 10
-8.235951000000028
 20
55.93672299999992
 30
0.0
 11
-11.37718600000008
 21
59.25518399999988
 31
0.0
  0
LINE
  5
4229
330
1F
100
AcDbEntity
  8
AM_0
100
AcDbLine
 10
-11.37718600000008
 20
59.25518399999988
 30
0.0
 11
-8.235951000000028
 21
55.93672299999992
 31
0.0
  0
LINE
  5
422A
330
1F
100
AcDbEntity
  8
AM_0
100
AcDbLine
 10
-11.82083700000001
 20
55.970732
 30
0.0
 11
-11.50836600000005
 21
56.03281199999993
 31
0.0
  0
LINE
  5
422B
330
1F
100
AcDbEntity
  8
AM_0
100
AcDbLine
 10
-11.37718600000008
 20
59.25518399999988
 30
0.0
 11
-10.45730500000004
 21
59.03190399999995
 31
0.0
  0
LINE
  5
422C
330
1F
100
AcDbEntity
  8
AM_0
100
AcDbLine
 10
-5.99700999999996
 20
56.33535699999994
 30
0.0
 11
-7.995662000000066
 21
56.21741599999996
 31
0.0
  0
LINE
  5
422D
330
1F
100
AcDbEntity
  8
AM_0
100
AcDbLine
 10
-9.746788000000066
 20
54.17184699999996
 30
0.0
 11
-7.995662000000066
 21
56.21741599999996
 31
0.0
  0
LINE
  5
422E
330
1F
100
AcDbEntity
  8
AM_0
100
AcDbLine
 10
-5.99700999999996
 20
56.33535699999994
 30
0.0
 11
-0.0000000000000284
 21
50.0
 31
0.0
  0
ELLIPSE
  5
422F
330
1F
100
AcDbEntity
  8
AM_0
100
AcDbEllipse
 10
-14.35241899999996
 20
43.24037699999997
 30
0.0
 11
-3.435959798769999
 21
2.924448059599999
 31
0.0
210
0.0
220
0.0
230
1.0
 40
0.23346323854036
 41
0.017551380496699
 42
2.70797623664354
  0
SPLINE
  5
4230
330
1F
100
AcDbEntity
  8
AM_0
100
AcDbSpline
210
0.0
220
0.0
230
1.0
 70
     8
 71
     3
 72
    11
 73
     7
 74
     5
 42
0.0000000001
 43
0.0000000001
 44
0.0000000001
 40
0.0
 40
0.0
 40
0.0
 40
0.0
 40
1.229155053773598
 40
2.359789102299002
 40
3.335199407222895
 40
4.139374811623017
 40
4.139374811623017
 40
4.139374811623017
 40
4.139374811623017
 10
-11.201106
 20
47.48489499999994
 30
0.0
 10
-10.89390440179948
 20
47.21267312055537
 30
0.0
 10
-10.30412447011645
 20
46.69004888161296
 30
0.0
 10
-9.388153712938011
 20
46.06415380825926
 30
0.0
 10
-8.50282408781315
 20
45.61770055815367
 30
0.0
 10
-7.904413313091208
 20
45.59171402938639
 30
0.0
 10
-7.633998000000048
 20
45.57997099999989
 30
0.0
 11
-11.201106
 21
47.48489499999994
 31
0.0
 11
-10.26368199999993
 21
46.68987399999992
 31
0.0
 11
-9.327570999999949
 21
46.05581599999994
 31
0.0
 11
-8.433597000000105
 21
45.66564199999993
 31
0.0
 11
-7.633998000000048
 21
45.57997099999989
 31
0.0
  0
SPLINE
  5
4231
330
1F
100
AcDbEntity
  8
AM_0
100
AcDbSpline
210
0.0
220
0.0
230
1.0
 70
     8
 71
     3
 72
    11
 73
     7
 74
     5
 42
0.0000000001
 43
0.0000000001
 44
0.0000000001
 40
0.0
 40
0.0
 40
0.0
 40
0.0
 40
0.9468400005941315
 40
2.192326962004693
 40
3.71928700721647
 40
5.361660633557678
 40
5.361660633557678
 40
5.361660633557678
 40
5.361660633557678
 10
-7.54033300000006
 20
46.64135999999997
 30
0.0
 10
-7.432544620300316
 20
46.94919295523084
 30
0.0
 10
-7.182969854914116
 20
47.66195380935908
 30
0.0
 10
-7.783167120362147
 20
48.86726248144774
 30
0.0
 10
-8.857603625743223
 20
49.88874157894494
 30
0.0
 10
-9.838876619651795
 20
50.30650415077179
 30
0.0
 10
-10.34738000000007
 20
50.52299199999993
 30
0.0
 11
-7.54033300000006
 21
46.64135999999997
 31
0.0
 11
-7.329511000000053
 21
47.56443100000002
 31
0.0
 11
-7.783622999999948
 21
48.72418099999993
 31
0.0
 11
-8.878250000000008
 21
49.78879299999995
 31
0.0
 11
-10.34738000000007
 21
50.52299199999993
 31
0.0
  0
LINE
  5
4232
330
1F
100
AcDbEntity
  8
AM_0
100
AcDbLine
 10
-7.633998000000048
 20
45.57997099999989
 30
0.0
 11
-11.52131399999998
 21
40.24954299999991
 31
0.0
  0
LINE
  5
4233
330
1F
100
AcDbEntity
  8
AM_0
100
AcDbLine
 10
-11.82083700000001
 20
55.970732
 30
0.0
 11
-2.407291000000014
 21
46.02608099999998
 31
0.0
  0
LINE
  5
4234
330
1F
100
AcDbEntity
  8
AM_0
100
AcDbLine
 10
-4.903556000000008
 20
42.69547799999987
 30
0.0
 11
-7.633998000000048
 21
45.57997099999989
 31
0.0
  0
LINE
  5
4235
330
1F
100
AcDbEntity
  8
AM_0
100
AcDbLine
 10
-9.746788000000066
 20
54.17184699999996
 30
0.0
 11
-2.247256000000021
 21
46.24919599999999
 31
0.0
  0
ELLIPSE
  5
4236
330
1F
100
AcDbEntity
  8
AM_0
100
AcDbEllipse
 10
2.426974000000058
 20
51.04270699999996
 30
0.0
 11
8.063423839663
 21
9.664547013867
 31
0.0
210
0.0
220
0.0
230
1.0
 40
0.04746598979819
 41
2.155669251262539
 42
2.651588309760209
  0
LINE
  5
4237
330
1F
100
AcDbEntity
  8
AM_0
100
AcDbLine
 10
-9.162296999999995
 20
37.21042499999999
 30
0.0
 11
-10.87808899999995
 21
37.62689299999989
 31
0.0
  0
LINE
  5
4238
330
1F
100
AcDbEntity
  8
AM_0
100
AcDbLine
 10
-11.52131399999998
 20
40.24954299999991
 30
0.0
 11
-9.188138000000009
 21
37.78473099999997
 31
0.0
  0
LINE
  5
4239
330
1F
100
AcDbEntity
  8
AM_0
100
AcDbLine
 10
-10.00459900000001
 20
38.64725599999998
 30
0.0
 11
-10.87808899999995
 21
37.62689299999989
 31
0.0
  0
LINE
  5
423A
330
1F
100
AcDbEntity
  8
AM_0
100
AcDbLine
 10
-7.921439999999989
 20
38.10396900000001
 30
0.0
 11
-1.803872999999981
 21
45.25017200000003
 31
0.0
  0
LINE
  5
423B
330
1F
100
AcDbEntity
  8
AM_0
100
AcDbLine
 10
-6.648630000000053
 20
40.69537199999991
 30
0.0
 11
-6.036706000000009
 21
40.73148199999992
 31
0.0
  0
LINE
  5
423C
330
1F
100
AcDbEntity
  8
AM_0
100
AcDbLine
 10
-9.162296999999995
 20
37.21042499999999
 30
0.0
 11
-6.153991000000047
 21
40.724561
 31
0.0
  0
LINE
  5
423D
330
1F
100
AcDbEntity
  8
AM_0
100
AcDbLine
 10
-4.903556000000008
 20
42.69547799999987
 30
0.0
 11
-9.188138000000009
 21
37.78473099999997
 31
0.0
  0
LINE
  5
423E
330
1F
100
AcDbEntity
  8
AM_0
100
AcDbLine
 10
-8.89067700000001
 20
37.52771599999995
 30
0.0
 11
-7.921439999999989
 21
38.10396900000001
 31
0.0
  0
LINE
  5
423F
330
1F
100
AcDbEntity
  8
AM_0
100
AcDbLine
 10
-2.247256000000021
 20
46.24919599999999
 30
0.0
 11
-2.407291000000014
 21
46.02608099999998
 31
0.0
  0
LINE
  5
4240
330
1F
100
AcDbEntity
  8
AM_0
100
AcDbLine
 10
-0.0056559999999593
 20
47.77661899999999
 30
0.0
 11
-6.036706000000009
 21
40.73148199999992
 31
0.0
  0
LINE
  5
4241
330
1F
100
AcDbEntity
  8
AM_0
100
AcDbLine
 10
-1.803872999999981
 20
45.25017200000003
 30
0.0
 11
-1.145716000000021
 21
46.44486399999994
 31
0.0
  0
LINE
  5
4242
330
1F
100
AcDbEntity
  8
AM_0
100
AcDbLine
 10
-0.0056559999999593
 20
47.77661899999999
 30
0.0
 11
-0.0000000000000284
 21
50.0
 31
0.0
  0
LINE
  5
4244
330
1F
100
AcDbEntity
  8
AM_11
100
AcDbLine
 10
-0.0000000000000284
 20
50.0
 30
0.0
 11
0.0000000000000568
 21
-50.00000000002961
 31
0.0
  0
ELLIPSE
  5
4245
330
1F
100
AcDbEntity
  8
AM_0
100
AcDbEllipse
 10
-21.07925200000002
 20
-60.20392399999992
 30
0.0
 11
3.804017266616
 21
-0.143288961596
 31
0.0
210
0.0
220
0.0
230
-0.9999999999999998
 40
0.1084186759450099
 41
2.382733006633379
 42
3.056298966713689
  0
SPLINE
  5
4246
330
1F
100
AcDbEntity
  8
AM_0
100
AcDbSpline
210
0.0
220
0.0
230
1.0
 70
     8
 71
     3
 72
    11
 73
     7
 74
     5
 42
0.0000000001
 43
0.0000000001
 44
0.0000000001
 40
0.0
 40
0.0
 40
0.0
 40
0.0
 40
0.1207363178004091
 40
0.2580229741986187
 40
0.4180017894774544
 40
0.6037199231020301
 40
0.6037199231020301
 40
0.6037199231020301
 40
0.6037199231020301
 10
-22.17381100000002
 20
-59.71473799999991
 30
0.0
 10
-22.14685712745774
 20
-59.74498397208217
 30
0.0
 10
-22.08925458924693
 20
-59.80962198503776
 30
0.0
 10
-21.96465254621984
 20
-59.87673668321869
 30
0.0
 10
-21.81237042443227
 20
-59.92991447984579
 30
0.0
 10
-21.69855099951296
 20
-59.94937582010337
 30
0.0
 10
-21.63740399999997
 20
-59.9598309999999
 30
0.0
 11
-22.17381100000002
 21
-59.71473799999991
 31
0.0
 11
-22.08872099999999
 21
-59.80039399999988
 31
0.0
 11
-21.97032600000003
 21
-59.86989399999994
 31
0.0
 11
-21.81945299999998
 21
-59.92309699999999
 31
0.0
 11
-21.63740399999997
 21
-59.9598309999999
 31
0.0
  0
SPLINE
  5
4247
330
1F
100
AcDbEntity
  8
AM_0
100
AcDbSpline
210
0.0
220
0.0
230
1.0
 70
     8
 71
     3
 72
    11
 73
     7
 74
     5
 42
0.0000000001
 43
0.0000000001
 44
0.0000000001
 40
0.0
 40
0.0
 40
0.0
 40
0.0
 40
0.7145181739501214
 40
1.36084130803244
 40
1.911022652545419
 40
2.350779522819131
 40
2.350779522819131
 40
2.350779522819131
 40
2.350779522819131
 10
-19.35353300000011
 20
-55.79303399999993
 30
0.0
 10
-19.17232732741413
 20
-55.63801453590195
 30
0.0
 10
-18.82721061310923
 20
-55.34277097459781
 30
0.0
 10
-18.30269540553817
 20
-54.98264271620204
 30
0.0
 10
-17.81906404457452
 20
-54.71548412688036
 30
0.0
 10
-17.49260069719482
 20
-54.65607369370729
 30
0.0
 10
-17.34757700000002
 20
-54.62968200000001
 30
0.0
 11
-19.35353300000011
 21
-55.79303399999993
 31
0.0
 11
-18.80208900000005
 21
-55.33867099999998
 31
0.0
 11
-18.26894000000007
 21
-54.97331399999996
 31
0.0
 11
-17.77596499999995
 21
-54.72902899999997
 31
0.0
 11
-17.34757700000002
 21
-54.62968200000001
 31
0.0
  0
ELLIPSE
  5
4248
330
1F
100
AcDbEntity
  8
AM_0
100
AcDbEllipse
 10
-25.50360300000003
 20
-54.13709399999994
 30
0.0
 11
-2.290639612009
 21
-1.949631823684
 31
0.0
210
0.0
220
0.0
230
-1.0
 40
0.2334633752270999
 41
0.017551370222918
 42
1.137178375746189
  0
ELLIPSE
  5
4249
330
1F
100
AcDbEntity
  8
AM_0
100
AcDbEllipse
 10
-17.43595800000005
 20
-60.27145799999995
 30
0.0
 11
4.438020644030999
 21
-0.167170474016
 31
0.0
210
0.0
220
0.0
230
-1.0
 40
0.1084187763219
 41
3.46551503352552
 42
4.13902372390823
  0
ELLIPSE
  5
424A
330
1F
100
AcDbEntity
  8
AM_0
100
AcDbEllipse
 10
-21.32796199999998
 20
-59.86288300000001
 30
0.0
 11
-2.555150043760999
 21
-1.584164467601999
 31
0.0
210
0.0
220
0.0
230
-1.0
 40
0.4962014217725701
 41
0.636245101584397
 42
1.08230269278924
  0
ELLIPSE
  5
424B
330
1F
100
AcDbEntity
  8
AM_0
100
AcDbEllipse
 10
-18.81142500000001
 20
-57.20436399999995
 30
0.0
 11
-2.555150043760999
 21
-1.584164467601999
 31
0.0
210
0.0
220
0.0
230
-1.0
 40
0.4962014217725701
 41
1.08230269278924
 42
1.665047343793309
  0
ELLIPSE
  5
424C
330
1F
100
AcDbEntity
  8
AM_0
100
AcDbEllipse
 10
-7.443830000000076
 20
-61.1630029999999
 30
0.0
 11
16.752346230429
 21
-0.4186277243570003
 31
0.0
210
0.0
220
0.0
230
-1.0
 40
0.09565589915869
 41
3.387269475739639
 42
3.69919915740975
  0
LINE
  5
424D
330
1F
100
AcDbEntity
  8
AM_0
100
AcDbLine
 10
-23.22121200000006
 20
-59.48674599999993
 30
0.0
 11
-20.70467500000009
 21
-56.82822699999998
 31
0.0
  0
LINE
  5
424E
330
1F
100
AcDbEntity
  8
AM_0
100
AcDbLine
 10
-23.22121200000006
 20
-59.48674599999993
 30
0.0
 11
-26.87907099999998
 21
-54.47095700000001
 31
0.0
  0
LINE
  5
424F
330
1F
100
AcDbEntity
  8
AM_0
100
AcDbLine
 10
-24.87076500000003
 20
-60.09628799999997
 30
0.0
 11
-27.80187800000001
 21
-56.07703999999991
 31
0.0
  0
LINE
  5
4250
330
1F
100
AcDbEntity
  8
AM_0
100
AcDbLine
 10
-19.35353300000011
 20
-55.79303399999993
 30
0.0
 11
-23.683412
 21
-60.36720199999991
 31
0.0
  0
LINE
  5
4251
330
1F
100
AcDbEntity
  8
AM_0
100
AcDbLine
 10
-24.36253400000001
 20
-51.81243799999993
 30
0.0
 11
-20.70467500000009
 21
-56.82822699999998
 31
0.0
  0
LINE
  5
4252
330
1F
100
AcDbEntity
  8
AM_0
100
AcDbLine
 10
-26.87907099999998
 20
-54.47095700000001
 30
0.0
 11
-24.36253400000001
 21
-51.81243799999993
 31
0.0
  0
LINE
  5
4253
330
1F
100
AcDbEntity
  8
AM_0
100
AcDbLine
 10
-23.683412
 20
-60.36720199999991
 30
0.0
 11
-23.85021599999995
 21
-60.383738
 31
0.0
  0
ELLIPSE
  5
4254
330
1F
100
AcDbEntity
  8
AM_0
100
AcDbEllipse
 10
-14.35241899999996
 20
-43.24037699999997
 30
0.0
 11
-3.435959798769999
 21
-2.924448059599999
 31
0.0
210
0.0
220
0.0
230
-1.0
 40
0.23346323854036
 41
0.017551380496699
 42
2.70797623664354
  0
SPLINE
  5
4255
330
1F
100
AcDbEntity
  8
AM_0
100
AcDbSpline
210
0.0
220
0.0
230
1.0
 70
     8
 71
     3
 72
    11
 73
     7
 74
     5
 42
0.0000000001
 43
0.0000000001
 44
0.0000000001
 40
0.0
 40
0.0
 40
0.0
 40
0.0
 40
1.246889020983929
 40
3.762516581837279
 40
6.241279187984521
 40
7.756416322911885
 40
7.756416322911885
 40
7.756416322911885
 40
7.756416322911885
 10
-13.28754199999994
 20
-50.64056800000003
 30
0.0
 10
-13.1776612653797
 20
-50.22954327196307
 30
0.0
 10
-12.84609359650497
 20
-48.98926660839609
 30
0.0
 10
-11.12299635797096
 20
-47.75638346405793
 30
0.0
 10
-9.388616046632105
 20
-46.01251516904149
 30
0.0
 10
-8.048661831852282
 20
-46.46841032169181
 30
0.0
 10
-7.54033300000006
 20
-46.64135999999997
 30
0.0
 11
-13.28754199999994
 21
-50.64056800000003
 31
0.0
 11
-12.880233
 21
-49.4620809999999
 31
0.0
 11
-11.12503800000004
 21
-47.65995099999987
 31
0.0
 11
-9.025623000000024
 21
-46.34210399999996
 31
0.0
 11
-7.54033300000006
 21
-46.64135999999997
 31
0.0
  0
SPLINE
  5
4256
330
1F
100
AcDbEntity
  8
AM_0
100
AcDbSpline
210
0.0
220
0.0
230
1.0
 70
     8
 71
     3
 72
    11
 73
     7
 74
     5
 42
0.0000000001
 43
0.0000000001
 44
0.0000000001
 40
0.0
 40
0.0
 40
0.0
 40
0.0
 40
0.2146183478177614
 40
0.4696810224724298
 40
0.8052848875887608
 40
1.233282542633635
 40
1.233282542633635
 40
1.233282542633635
 40
1.233282542633635
 10
-14.07524100000003
 20
-51.25758799999995
 30
0.0
 10
-14.10678712289283
 20
-51.19123776499131
 30
0.0
 10
-14.17582416192508
 20
-51.04603374801415
 30
0.0
 10
-14.10683558555129
 20
-50.77085475246192
 30
0.0
 10
-13.95462697926997
 20
-50.47007686298083
 30
0.0
 10
-13.8048940893177
 20
-50.26299571376019
 30
0.0
 10
-13.72096899999999
 20
-50.14692700000001
 30
0.0
 11
-14.07524100000003
 21
-51.25758799999995
 31
0.0
 11
-14.14706300000003
 21
-51.05534399999989
 31
0.0
 11
-14.10671400000004
 21
-50.8034929999999
 31
0.0
 11
-13.96154900000001
 21
-50.50090899999987
 31
0.0
 11
-13.72096899999999
 21
-50.14692700000001
 31
0.0
  0
SPLINE
  5
4257
330
1F
100
AcDbEntity
  8
AM_0
100
AcDbSpline
210
0.0
220
0.0
230
1.0
 70
     8
 71
     3
 72
    11
 73
     7
 74
     5
 42
0.0000000001
 43
0.0000000001
 44
0.0000000001
 40
0.0
 40
0.0
 40
0.0
 40
0.0
 40
1.04468105891218
 40
1.941535364311431
 40
2.612928259511313
 40
3.043453414123564
 40
3.043453414123564
 40
3.043453414123564
 40
3.043453414123564
 10
-10.34738000000007
 20
-50.52299199999993
 30
0.0
 10
-10.681571841457
 20
-50.62763605495788
 30
0.0
 10
-11.30266597647333
 20
-50.82211659199121
 30
0.0
 10
-12.15996442972294
 20
-50.91391644495432
 30
0.0
 10
-12.85805737414936
 20
-50.9348706959097
 30
0.0
 10
-13.16688243205376
 20
-50.723249507082
 30
0.0
 10
-13.28754199999994
 20
-50.64056800000003
 30
0.0
 11
-10.34738000000007
 21
-50.52299199999993
 31
0.0
 11
-11.354565
 21
-50.80036699999994
 31
0.0
 11
-12.2447920000001
 21
-50.90919499999996
 31
0.0
 11
-12.91395700000001
 21
-50.85454499999992
 31
0.0
 11
-13.28754199999994
 21
-50.64056800000003
 31
0.0
  0
SPLINE
  5
4258
330
1F
100
AcDbEntity
  8
AM_0
100
AcDbSpline
210
0.0
220
0.0
230
1.0
 70
     8
 71
     3
 72
    11
 73
     7
 74
     5
 42
0.0000000001
 43
0.0000000001
 44
0.0000000001
 40
0.0
 40
0.0
 40
0.0
 40
0.0
 40
0.2757246160955127
 40
0.5070860214551301
 40
0.6974850349662192
 40
0.8565604683587228
 40
0.8565604683587228
 40
0.8565604683587228
 40
0.8565604683587228
 10
-13.29620700000001
 20
-51.5616379999999
 30
0.0
 10
-13.38757462432709
 20
-51.5500172203748
 30
0.0
 10
-13.55560911383301
 20
-51.52864540747775
 30
0.0
 10
-13.77907028851533
 20
-51.46447944298877
 30
0.0
 10
-13.9585741795349
 20
-51.38249602217843
 30
0.0
 10
-14.03874738207368
 20
-51.29665948252722
 30
0.0
 10
-14.07524100000003
 20
-51.25758799999995
 30
0.0
 11
-13.29620700000001
 21
-51.5616379999999
 31
0.0
 11
-13.56866200000004
 21
-51.51930199999993
 31
0.0
 11
-13.79075500000001
 21
-51.45447300000001
 31
0.0
 11
-13.95999399999996
 21
-51.36723799999994
 31
0.0
 11
-14.07524100000003
 21
-51.25758799999995
 31
0.0
  0
SPLINE
  5
4259
330
1F
100
AcDbEntity
  8
AM_0
100
AcDbSpline
210
0.0
220
0.0
230
1.0
 70
     8
 71
     3
 72
    11
 73
     7
 74
     5
 42
0.0000000001
 43
0.0000000001
 44
0.0000000001
 40
0.0
 40
0.0
 40
0.0
 40
0.0
 40
1.513558911605338
 40
3.99214604379376
 40
6.507770778066351
 40
7.753678117367641
 40
7.753678117367641
 40
7.753678117367641
 40
7.753678117367641
 10
-16.42818000000002
 20
-55.71336599999995
 30
0.0
 10
-16.93614524980388
 20
-55.54120967743727
 30
0.0
 10
-18.2759487069672
 20
-55.08713208801339
 30
0.0
 10
-20.00834584413085
 20
-56.83215596907277
 30
0.0
 10
-21.73059397914479
 20
-58.06475525000583
 30
0.0
 10
-22.06353361196675
 20
-59.30420370323887
 30
0.0
 10
-22.17381100000002
 20
-59.71473799999991
 30
0.0
 11
-16.42818000000002
 21
-55.71336599999995
 31
0.0
 11
-17.912248
 21
-55.41603999999995
 31
0.0
 11
-20.01053100000004
 21
-56.73535899999991
 31
0.0
 11
-21.76560899999995
 21
-58.537599
 31
0.0
 11
-22.17381100000002
 21
-59.71473799999991
 31
0.0
  0
SPLINE
  5
425A
330
1F
100
AcDbEntity
  8
AM_0
100
AcDbSpline
210
0.0
220
0.0
230
1.0
 70
     8
 71
     3
 72
    11
 73
     7
 74
     5
 42
0.0000000001
 43
0.0000000001
 44
0.0000000001
 40
0.0
 40
0.0
 40
0.0
 40
0.0
 40
1.781054617354863
 40
3.506378295465364
 40
4.920552749393833
 40
5.969191171666241
 40
5.969191171666241
 40
5.969191171666241
 40
5.969191171666241
 10
-19.82818899999998
 20
-59.77655699999992
 30
0.0
 10
-19.25985277908187
 20
-59.58650945978327
 30
0.0
 10
-18.14096413291916
 20
-59.21236115257869
 30
0.0
 10
-16.85272836077714
 20
-58.18392189548212
 30
0.0
 10
-16.06357801541629
 20
-56.87134831193649
 30
0.0
 10
-16.31929748466014
 20
-56.05917878263387
 30
0.0
 10
-16.42818000000002
 20
-55.71336599999995
 30
0.0
 11
-19.82818899999998
 21
-59.77655699999992
 31
0.0
 11
-18.17501299999995
 21
-59.11386199999993
 31
0.0
 11
-16.84084500000008
 21
-58.01990699999988
 31
0.0
 11
-16.23202500000004
 21
-56.74349499999994
 31
0.0
 11
-16.42818000000002
 21
-55.71336599999995
 31
0.0
  0
ELLIPSE
  5
425B
330
1F
100
AcDbEntity
  8
AM_0
100
AcDbEllipse
 10
-9.917886999999979
 20
-49.32116599999996
 30
0.0
 11
-3.832724215734998
 21
-2.376246174469999
 31
0.0
210
0.0
220
0.0
230
-1.0
 40
0.49620175355538
 41
0.62109220314602
 42
1.543512159643229
  0
ELLIPSE
  5
425C
330
1F
100
AcDbEntity
  8
AM_0
100
AcDbEllipse
 10
-9.643704999999982
 20
-63.79440499999987
 30
0.0
 11
9.077921428430002
 21
-8.593098541228002
 31
0.0
210
0.0
220
0.0
230
-1.0
 40
0.40306016
 41
3.625988081971029
 42
4.12191071214064
  0
ELLIPSE
  5
425D
330
1F
100
AcDbEntity
  8
AM_0
100
AcDbEllipse
 10
-22.98706600000005
 20
-51.47857499999987
 30
0.0
 11
-2.290639612009
 21
-1.949631823684
 31
0.0
210
0.0
220
0.0
230
-1.0
 40
0.2334633752270999
 41
1.137178375746189
 42
2.70797645986774
  0
ELLIPSE
  5
425E
330
1F
100
AcDbEntity
  8
AM_0
100
AcDbEllipse
 10
-7.443830000000076
 20
-61.1630029999999
 30
0.0
 11
16.752346230429
 21
-0.4186277243570003
 31
0.0
210
0.0
220
0.0
230
-1.0
 40
0.09565589915869
 41
3.87803142890441
 42
4.206720239215379
  0
ELLIPSE
  5
425F
330
1F
100
AcDbEntity
  8
AM_0
100
AcDbEllipse
 10
-10.09351400000005
 20
-63.96218099999988
 30
0.0
 11
9.077921428430002
 21
-8.593098541228002
 31
0.0
210
0.0
220
0.0
230
-1.0
 40
0.40306016
 41
3.504973911650779
 42
4.120812155185199
  0
LINE
  5
4260
330
1F
100
AcDbEntity
  8
AM_0
100
AcDbLine
 10
-10.87808899999995
 20
-37.62689299999989
 30
0.0
 11
-23.68107300000011
 21
-51.15221399999996
 31
0.0
  0
LINE
  5
4261
330
1F
100
AcDbEntity
  8
AM_0
100
AcDbLine
 10
-13.29620700000001
 20
-51.5616379999999
 30
0.0
 11
-16.06439800000001
 21
-54.48600799999997
 31
0.0
  0
LINE
  5
4262
330
1F
100
AcDbEntity
  8
AM_0
100
AcDbLine
 10
-15.11383700000001
 20
-59.51769599999989
 30
0.0
 11
-11.96858
 21
-56.19498599999998
 31
0.0
  0
LINE
  5
4263
330
1F
100
AcDbEntity
  8
AM_0
100
AcDbLine
 10
-14.07521499999998
 20
-51.25762399999997
 30
0.0
 11
-17.79983099999995
 21
-46.15029599999991
 31
0.0
  0
LINE
  5
4264
330
1F
100
AcDbEntity
  8
AM_0
100
AcDbLine
 10
-15.33329399999994
 20
-59.53945099999987
 30
0.0
 11
-13.09297800000004
 21
-59.67165299999988
 31
0.0
  0
LINE
  5
4265
330
1F
100
AcDbEntity
  8
AM_0
100
AcDbLine
 10
-15.52351400000012
 20
-59.5583079999999
 30
0.0
 11
-12.28105100000007
 21
-56.13290699999994
 31
0.0
  0
LINE
  5
4266
330
1F
100
AcDbEntity
  8
AM_0
100
AcDbLine
 10
-17.34757700000002
 20
-54.62968200000001
 30
0.0
 11
-21.09966299999999
 21
-49.48468600000001
 31
0.0
  0
LINE
  5
4267
330
1F
100
AcDbEntity
  8
AM_0
100
AcDbLine
 10
-19.95171400000006
 20
-49.15557999999988
 30
0.0
 11
-16.06439800000001
 21
-54.48600799999997
 31
0.0
  0
LINE
  5
4268
330
1F
100
AcDbEntity
  8
AM_0
100
AcDbLine
 10
-19.95171400000006
 20
-49.15557999999988
 30
0.0
 11
-17.49830800000009
 21
-46.56375499999991
 31
0.0
  0
LINE
  5
4269
330
1F
100
AcDbEntity
  8
AM_0
100
AcDbLine
 10
-19.920444
 20
-49.19845799999997
 30
0.0
 11
-21.09966299999999
 21
-49.48468600000001
 31
0.0
  0
LINE
  5
426A
330
1F
100
AcDbEntity
  8
AM_0
100
AcDbLine
 10
-15.11383700000001
 20
-59.51769599999989
 30
0.0
 11
-15.52351400000012
 21
-59.5583079999999
 31
0.0
  0
LINE
  5
426B
330
1F
100
AcDbEntity
  8
AM_0
100
AcDbLine
 10
-13.09297800000004
 20
-59.67165299999988
 30
0.0
 11
-11.37718600000008
 21
-59.25518399999988
 31
0.0
  0
LINE
  5
426C
330
1F
100
AcDbEntity
  8
AM_0
100
AcDbLine
 10
-13.09297800000004
 20
-59.67165299999988
 30
0.0
 11
-8.863547000000068
 21
-55.20359999999994
 31
0.0
  0
LINE
  5
426D
330
1F
100
AcDbEntity
  8
AM_0
100
AcDbLine
 10
-13.72096899999999
 20
-50.14692700000001
 30
0.0
 11
-11.201106
 21
-47.48489499999994
 31
0.0
  0
LINE
  5
426E
330
1F
100
AcDbEntity
  8
AM_0
100
AcDbLine
 10
-11.96858
 20
-56.19498599999998
 30
0.0
 11
-12.42913200000001
 21
-55.65699499999994
 31
0.0
  0
LINE
  5
426F
330
1F
100
AcDbEntity
  8
AM_0
100
AcDbLine
 10
-12.28105100000007
 20
-56.13290699999994
 30
0.0
 11
-11.96858
 21
-56.19498599999998
 31
0.0
  0
LINE
  5
4270
330
1F
100
AcDbEntity
  8
AM_0
100
AcDbLine
 10
-8.89067700000001
 20
-37.52771599999995
 30
0.0
 11
-7.921439999999989
 21
-38.10396900000001
 31
0.0
  0
LINE
  5
4271
330
1F
100
AcDbEntity
  8
AM_0
100
AcDbLine
 10
-4.903556000000008
 20
-42.69547799999987
 30
0.0
 11
-9.188138000000009
 21
-37.78473099999997
 31
0.0
  0
LINE
  5
4272
330
1F
100
AcDbEntity
  8
AM_0
100
AcDbLine
 10
-9.162296999999995
 20
-37.21042499999999
 30
0.0
 11
-6.153991000000047
 21
-40.724561
 31
0.0
  0
LINE
  5
4273
330
1F
100
AcDbEntity
  8
AM_0
100
AcDbLine
 10
-11.52131399999998
 20
-40.24954299999991
 30
0.0
 11
-9.188138000000009
 21
-37.78473099999997
 31
0.0
  0
LINE
  5
4274
330
1F
100
AcDbEntity
  8
AM_0
100
AcDbLine
 10
-9.162296999999995
 20
-37.21042499999999
 30
0.0
 11
-10.87808899999995
 21
-37.62689299999989
 31
0.0
  0
LINE
  5
4275
330
1F
100
AcDbEntity
  8
AM_0
100
AcDbLine
 10
-10.00459900000001
 20
-38.64725599999998
 30
0.0
 11
-10.87808899999995
 21
-37.62689299999989
 31
0.0
  0
LINE
  5
4276
330
1F
100
AcDbEntity
  8
AM_0
100
AcDbLine
 10
-6.648630000000053
 20
-40.69537199999991
 30
0.0
 11
-6.036706000000009
 21
-40.73148199999992
 31
0.0
  0
LINE
  5
4277
330
1F
100
AcDbEntity
  8
AM_0
100
AcDbLine
 10
-0.0056559999999593
 20
-47.77661899999999
 30
0.0
 11
-6.036706000000009
 21
-40.73148199999992
 31
0.0
  0
LINE
  5
4278
330
1F
100
AcDbEntity
  8
AM_0
100
AcDbLine
 10
-7.921439999999989
 20
-38.10396900000001
 30
0.0
 11
-1.803872999999981
 21
-45.25017200000003
 31
0.0
  0
SPLINE
  5
4279
330
1F
100
AcDbEntity
  8
AM_0
100
AcDbSpline
210
0.0
220
0.0
230
1.0
 70
     8
 71
     3
 72
    11
 73
     7
 74
     5
 42
0.0000000001
 43
0.0000000001
 44
0.0000000001
 40
0.0
 40
0.0
 40
0.0
 40
0.0
 40
0.9468400005941315
 40
2.192326962004693
 40
3.71928700721647
 40
5.361660633557678
 40
5.361660633557678
 40
5.361660633557678
 40
5.361660633557678
 10
-7.54033300000006
 20
-46.64135999999997
 30
0.0
 10
-7.432544620300316
 20
-46.94919295523084
 30
0.0
 10
-7.182969854914116
 20
-47.66195380935908
 30
0.0
 10
-7.783167120362147
 20
-48.86726248144774
 30
0.0
 10
-8.857603625743223
 20
-49.88874157894494
 30
0.0
 10
-9.838876619651795
 20
-50.30650415077179
 30
0.0
 10
-10.34738000000007
 20
-50.52299199999993
 30
0.0
 11
-7.54033300000006
 21
-46.64135999999997
 31
0.0
 11
-7.329511000000053
 21
-47.56443100000002
 31
0.0
 11
-7.783622999999948
 21
-48.72418099999993
 31
0.0
 11
-8.878250000000008
 21
-49.78879299999995
 31
0.0
 11
-10.34738000000007
 21
-50.52299199999993
 31
0.0
  0
SPLINE
  5
427A
330
1F
100
AcDbEntity
  8
AM_0
100
AcDbSpline
210
0.0
220
0.0
230
1.0
 70
     8
 71
     3
 72
    11
 73
     7
 74
     5
 42
0.0000000001
 43
0.0000000001
 44
0.0000000001
 40
0.0
 40
0.0
 40
0.0
 40
0.0
 40
1.229155053773598
 40
2.359789102299002
 40
3.335199407222895
 40
4.139374811623017
 40
4.139374811623017
 40
4.139374811623017
 40
4.139374811623017
 10
-11.201106
 20
-47.48489499999994
 30
0.0
 10
-10.89390440179948
 20
-47.21267312055537
 30
0.0
 10
-10.30412447011645
 20
-46.69004888161296
 30
0.0
 10
-9.388153712938011
 20
-46.06415380825926
 30
0.0
 10
-8.50282408781315
 20
-45.61770055815367
 30
0.0
 10
-7.904413313091208
 20
-45.59171402938639
 30
0.0
 10
-7.633998000000048
 20
-45.57997099999989
 30
0.0
 11
-11.201106
 21
-47.48489499999994
 31
0.0
 11
-10.26368199999993
 21
-46.68987399999992
 31
0.0
 11
-9.327570999999949
 21
-46.05581599999994
 31
0.0
 11
-8.433597000000105
 21
-45.66564199999993
 31
0.0
 11
-7.633998000000048
 21
-45.57997099999989
 31
0.0
  0
LINE
  5
427B
330
1F
100
AcDbEntity
  8
AM_0
100
AcDbLine
 10
-4.903556000000008
 20
-42.69547799999987
 30
0.0
 11
-7.633998000000048
 21
-45.57997099999989
 31
0.0
  0
LINE
  5
427C
330
1F
100
AcDbEntity
  8
AM_0
100
AcDbLine
 10
-7.633998000000048
 20
-45.57997099999989
 30
0.0
 11
-11.52131399999998
 21
-40.24954299999991
 31
0.0
  0
LINE
  5
427D
330
1F
100
AcDbEntity
  8
AM_0
100
AcDbLine
 10
-11.82083700000001
 20
-55.970732
 30
0.0
 11
-2.407291000000014
 21
-46.02608099999998
 31
0.0
  0
LINE
  5
427E
330
1F
100
AcDbEntity
  8
AM_0
100
AcDbLine
 10
-10.45730500000004
 20
-59.03190399999995
 30
0.0
 11
-7.803841999999946
 21
-56.22873499999992
 31
0.0
  0
LINE
  5
427F
330
1F
100
AcDbEntity
  8
AM_0
100
AcDbLine
 10
-11.82083700000001
 20
-55.970732
 30
0.0
 11
-11.50836600000005
 21
-56.03281199999993
 31
0.0
  0
LINE
  5
4280
330
1F
100
AcDbEntity
  8
AM_0
100
AcDbLine
 10
-11.50836600000005
 20
-56.03281199999993
 30
0.0
 11
-9.746788000000066
 21
-54.17184699999996
 31
0.0
  0
LINE
  5
4281
330
1F
100
AcDbEntity
  8
AM_0
100
AcDbLine
 10
-11.37718600000008
 20
-59.25518399999988
 30
0.0
 11
-8.235951000000028
 21
-55.93672299999992
 31
0.0
  0
LINE
  5
4282
330
1F
100
AcDbEntity
  8
AM_0
100
AcDbLine
 10
-8.235951000000028
 20
-55.93672299999992
 30
0.0
 11
-11.37718600000008
 21
-59.25518399999988
 31
0.0
  0
LINE
  5
4283
330
1F
100
AcDbEntity
  8
AM_0
100
AcDbLine
 10
-11.37718600000008
 20
-59.25518399999988
 30
0.0
 11
-10.45730500000004
 21
-59.03190399999995
 31
0.0
  0
LINE
  5
4284
330
1F
100
AcDbEntity
  8
AM_0
100
AcDbLine
 10
-9.746788000000066
 20
-54.17184699999996
 30
0.0
 11
-7.995662000000066
 21
-56.21741599999996
 31
0.0
  0
LINE
  5
4285
330
1F
100
AcDbEntity
  8
AM_0
100
AcDbLine
 10
-5.99700999999996
 20
-56.33535699999994
 30
0.0
 11
-7.995662000000066
 21
-56.21741599999996
 31
0.0
  0
LINE
  5
4286
330
1F
100
AcDbEntity
  8
AM_0
100
AcDbLine
 10
-5.99700999999996
 20
-56.33535699999994
 30
0.0
 11
-0.0000000000000284
 21
-50.0
 31
0.0
  0
LINE
  5
4287
330
1F
100
AcDbEntity
  8
AM_0
100
AcDbLine
 10
-0.0056559999999593
 20
-47.77661899999999
 30
0.0
 11
-0.0000000000000284
 21
-50.0
 31
0.0
  0
LINE
  5
4288
330
1F
100
AcDbEntity
  8
AM_0
100
AcDbLine
 10
-9.746788000000066
 20
-54.17184699999996
 30
0.0
 11
-2.247256000000021
 21
-46.24919599999999
 31
0.0
  0
ELLIPSE
  5
4289
330
1F
100
AcDbEntity
  8
AM_0
100
AcDbEllipse
 10
2.426974000000058
 20
-51.04270699999996
 30
0.0
 11
8.063423839663
 21
-9.664547013867
 31
0.0
210
0.0
220
0.0
230
-1.0
 40
0.04746598979819
 41
2.155669251262539
 42
2.651588309760209
  0
LINE
  5
428A
330
1F
100
AcDbEntity
  8
AM_0
100
AcDbLine
 10
-1.803872999999981
 20
-45.25017200000003
 30
0.0
 11
-1.145716000000021
 21
-46.44486399999994
 31
0.0
  0
LINE
  5
428B
330
1F
100
AcDbEntity
  8
AM_0
100
AcDbLine
 10
-2.247256000000021
 20
-46.24919599999999
 30
0.0
 11
-2.407291000000014
 21
-46.02608099999998
 31
0.0
  0
LINE
  5
438B
330
1F
100
AcDbEntity
  8
AM_0
100
AcDbLine
 10
-11.30000000000012
 20
61.29
 30
0.0
 11
-7.017343055261918
 21
56.27514686793563
 31
0.0
  0
LINE
  5
438C
330
1F
100
AcDbEntity
  8
AM_0
100
AcDbLine
 10
-15.00000000000008
 20
33.1008583713475
 30
0.0
 11
-10.73736719384375
 21
37.59273610384566
 31
0.0
  0
LINE
  5
438D
330
1F
100
AcDbEntity
  8
AM_0
100
AcDbLine
 10
-2.000000000000085
 20
45.02106729942515
 30
0.0
 11
-2.000000000000085
 21
0.0000000000000071
 31
0.0
  0
LINE
  5
438E
330
1F
100
AcDbEntity
  8
AM_0
100
AcDbLine
 10
-2.000000000000085
 20
0.0000000000000071
 30
0.0
 11
-2.000000000000085
 21
-45.02106729942515
 31
0.0
  0
LINE
  5
438F
330
1F
100
AcDbEntity
  8
AM_0
100
AcDbLine
 10
-15.00000000000008
 20
-33.10085837134749
 30
0.0
 11
-10.73736719384374
 21
-37.59273610384566
 31
0.0
  0
LINE
  5
4390
330
1F
100
AcDbEntity
  8
AM_0
100
AcDbLine
 10
-11.30000000000012
 20
-61.28999999999998
 30
0.0
 11
-7.017343055261935
 21
-56.27514686793562
 31
0.0
  0
DIMENSION
  5
43B1
330
1F
100
AcDbEntity
  8
AM_5
100
AcDbDimension
  2
*D13
 10
-0.0000000000000284
 20
-50.0
 30
0.0
 11
-7.392272167134798
 21
-68.56254587553809
 31
0.0
 70
    34
  1
45%%d
  3
AM_JIS$2
100
AcDb2LineAngularDimension
 13
-0.0000000000000284
 23
50.0
 33
0.0
 14
0.0000000000000568
 24
-50.00000000002961
 34
0.0
 15
-5.99700999999996
 25
-56.33535699999994
 35
0.0
 16
-11.17275779788912
 26
-70.19582528611794
 36
0.0
1001
ACAD
1000
DSTYLE
1002
{
1070
   179
1070
     3
1002
}
1001
GENIUS_GENDTOL_13
1000

1000
h7
1000

1040
0.0
  0
TEXT
  5
44AC
330
1F
100
AcDbEntity
  8
AM_6
100
AcDbText
 10
-40.71428571428569
 20
-117.7900010099999
 30
0.0
 40
5.0
  1
UFO4100
 72
     4
 11
-24.99999999999999
 21
-115.2900010099999
 31
0.0
100
AcDbText
  0
ARC
  5
44EC
330
1F
100
AcDbEntity
  8
AM_0
100
AcDbCircle
 10
-30.32673012021047
 20
51.28999999999996
 30
0.0
 40
10.0
100
AcDbArc
 50
90.00000000000007
 51
165.0000000000001
1001
GENIUS_GENODEF_13
1002
{
1000
HIER
1070
     0
1002
}
1002
{
1000
MANEDIT
1070
     0
1002
}
1002
{
1000
NOSEL
1070
     0
1002
}
1002
{
1000
BEHIND
1070
     0
1002
}
1002
{
1000
REACTOR
1002
}
1001
GENIUS_GENOBJ-N-FIL_13
1002
{
1000
OWNER
1000
GEN
1002
}
  0
ARC
  5
44EF
330
1F
100
AcDbEntity
  8
AM_0
100
AcDbCircle
 10
-47.34636523295113
 20
38.00000000000003
 30
0.0
 40
3.0
100
AcDbArc
 50
270.0
 51
345.0000000000001
1001
GENIUS_GENODEF_13
1002
{
1000
HIER
1070
     0
1002
}
1002
{
1000
MANEDIT
1070
     0
1002
}
1002
{
1000
NOSEL
1070
     0
1002
}
1002
{
1000
BEHIND
1070
     0
1002
}
1002
{
1000
REACTOR
1002
}
1001
GENIUS_GENOBJ-N-FIL_13
1002
{
1000
OWNER
1000
GEN
1002
}
  0
ARC
  5
4517
330
1F
100
AcDbEntity
  8
AM_0
100
AcDbCircle
 10
-48.00000000000004
 20
33.00000000000004
 30
0.0
 40
2.0
100
AcDbArc
 50
90.0
 51
180.0
1001
GENIUS_GENODEF_13
1002
{
1000
HIER
1070
     0
1002
}
1002
{
1000
MANEDIT
1070
     0
1002
}
1002
{
1000
NOSEL
1070
     0
1002
}
1002
{
1000
BEHIND
1070
     0
1002
}
1002
{
1000
REACTOR
1002
}
1001
GENIUS_GENOBJ-N-FIL_13
1002
{
1000
OWNER
1000
GEN
1002
}
  0
ARC
  5
451A
330
1F
100
AcDbEntity
  8
AM_0
100
AcDbCircle
 10
-47.50000000000001
 20
18.37503270956085
 30
0.0
 40
2.5
100
AcDbArc
 50
180.0
 51
270.0
1001
GENIUS_GENODEF_13
1002
{
1000
HIER
1070
     0
1002
}
1002
{
1000
MANEDIT
1070
     0
1002
}
1002
{
1000
NOSEL
1070
     0
1002
}
1002
{
1000
BEHIND
1070
     0
1002
}
1002
{
1000
REACTOR
1002
}
1001
GENIUS_GENOBJ-N-FIL_13
1002
{
1000
OWNER
1000
GEN
1002
}
  0
ARC
  5
451D
330
1F
100
AcDbEntity
  8
AM_0
100
AcDbCircle
 10
-19.00000000000004
 20
16.625
 30
0.0
 40
1.0
100
AcDbArc
 50
270.0
 51
0.0000000000000636
1001
GENIUS_GENODEF_13
1002
{
1000
HIER
1070
     0
1002
}
1002
{
1000
MANEDIT
1070
     0
1002
}
1002
{
1000
NOSEL
1070
     0
1002
}
1002
{
1000
BEHIND
1070
     0
1002
}
1002
{
1000
REACTOR
1002
}
1001
GENIUS_GENOBJ-N-FIL_13
1002
{
1000
OWNER
1000
GEN
1002
}
  0
LINE
  5
4520
330
1F
100
AcDbEntity
  8
AM_0
100
AcDbLine
 10
-49.0
 20
6.350000000000028
 30
0.0
 11
-50.0
 21
7.350000000000033
 31
0.0
1001
GENIUS_GENFIL_13
1070
     0
1040
1.0
1040
1.0
1040
20.0
1040
0.0
1002
{
1002
}
1001
GENIUS_GENODEF_13
1002
{
1000
HIER
1070
     0
1002
}
1002
{
1000
MANEDIT
1070
     0
1002
}
1002
{
1000
NOSEL
1070
     0
1002
}
1002
{
1000
BEHIND
1070
     0
1002
}
1002
{
1000
REACTOR
1002
}
1001
GENIUS_GENOBJ-N-CHA_13
1002
{
1000
OWNER
1000
GEN
1002
}
  0
ARC
  5
4522
330
1F
100
AcDbEntity
  8
AM_0
100
AcDbCircle
 10
-30.32673012021047
 20
-51.28999999999994
 30
0.0
 40
10.0
100
AcDbArc
 50
194.9999999999998
 51
269.9999999999999
1001
GENIUS_GENODEF_13
1002
{
1000
HIER
1070
     0
1002
}
1002
{
1000
MANEDIT
1070
     0
1002
}
1002
{
1000
NOSEL
1070
     0
1002
}
1002
{
1000
BEHIND
1070
     0
1002
}
1002
{
1000
REACTOR
1002
}
1001
GENIUS_GENOBJ-N-FIL_13
1002
{
1000
OWNER
1000
GEN
1002
}
  0
ARC
  5
4523
330
1F
100
AcDbEntity
  8
AM_0
100
AcDbCircle
 10
-47.34636523295113
 20
-38.00000000000002
 30
0.0
 40
3.0
100
AcDbArc
 50
14.99999999999989
 51
90.00000000000003
1001
GENIUS_GENODEF_13
1002
{
1000
HIER
1070
     0
1002
}
1002
{
1000
MANEDIT
1070
     0
1002
}
1002
{
1000
NOSEL
1070
     0
1002
}
1002
{
1000
BEHIND
1070
     0
1002
}
1002
{
1000
REACTOR
1002
}
1001
GENIUS_GENOBJ-N-FIL_13
1002
{
1000
OWNER
1000
GEN
1002
}
  0
ARC
  5
4524
330
1F
100
AcDbEntity
  8
AM_0
100
AcDbCircle
 10
-48.00000000000004
 20
-33.00000000000002
 30
0.0
 40
2.0
100
AcDbArc
 50
179.9999999999999
 51
270.0
1001
GENIUS_GENODEF_13
1002
{
1000
HIER
1070
     0
1002
}
1002
{
1000
MANEDIT
1070
     0
1002
}
1002
{
1000
NOSEL
1070
     0
1002
}
1002
{
1000
BEHIND
1070
     0
1002
}
1002
{
1000
REACTOR
1002
}
1001
GENIUS_GENOBJ-N-FIL_13
1002
{
1000
OWNER
1000
GEN
1002
}
  0
ARC
  5
4525
330
1F
100
AcDbEntity
  8
AM_0
100
AcDbCircle
 10
-47.50000000000001
 20
-18.37503270956084
 30
0.0
 40
2.5
100
AcDbArc
 50
90.00000000000003
 51
179.9999999999999
1001
GENIUS_GENODEF_13
1002
{
1000
HIER
1070
     0
1002
}
1002
{
1000
MANEDIT
1070
     0
1002
}
1002
{
1000
NOSEL
1070
     0
1002
}
1002
{
1000
BEHIND
1070
     0
1002
}
1002
{
1000
REACTOR
1002
}
1001
GENIUS_GENOBJ-N-FIL_13
1002
{
1000
OWNER
1000
GEN
1002
}
  0
ARC
  5
4526
330
1F
100
AcDbEntity
  8
AM_0
100
AcDbCircle
 10
-19.00000000000004
 20
-16.62499999999998
 30
0.0
 40
1.0
100
AcDbArc
 50
359.9999999999999
 51
90.00000000000003
1001
GENIUS_GENODEF_13
1002
{
1000
HIER
1070
     0
1002
}
1002
{
1000
MANEDIT
1070
     0
1002
}
1002
{
1000
NOSEL
1070
     0
1002
}
1002
{
1000
BEHIND
1070
     0
1002
}
1002
{
1000
REACTOR
1002
}
1001
GENIUS_GENOBJ-N-FIL_13
1002
{
1000
OWNER
1000
GEN
1002
}
  0
LINE
  5
4527
330
1F
100
AcDbEntity
  8
AM_0
100
AcDbLine
 10
-49.0
 20
-6.350000000000014
 30
0.0
 11
-50.0
 21
-7.350000000000019
 31
0.0
1001
GENIUS_GENFIL_13
1070
     0
1040
1.0
1040
1.0
1040
20.0
1040
0.0
1002
{
1002
}
1001
GENIUS_GENODEF_13
1002
{
1000
HIER
1070
     0
1002
}
1002
{
1000
MANEDIT
1070
     0
1002
}
1002
{
1000
NOSEL
1070
     0
1002
}
1002
{
1000
BEHIND
1070
     0
1002
}
1002
{
1000
REACTOR
1002
}
1001
GENIUS_GENOBJ-N-CHA_13
1002
{
1000
OWNER
1000
GEN
1002
}
  0
VIEWPORT
  5
110
330
101
100
AcDbEntity
 67
     1
  8
0
100
AcDbViewport
 10
420.5
 20
297.0
 30
0.0
 40
948.9782706766916
 41
628.452
 68
     1
 69
     1
1001
ACAD
1000
MVIEW
1002
{
1070
    16
1010
0.0
1020
0.0
1030
0.0
1010
0.0
1020
0.0
1030
1.0
1040
0.0
1040
628.452
1040
420.5
1040
297.0
1040
50.0
1040
0.0
1040
0.0
1070
     0
1070
   100
1070
     1
1070
     1
1070
     0
1070
     0
1070
     0
1070
     0
1040
0.0
1040
0.0
1040
0.0
1040
10.0
1040
10.0
1040
10.0
1040
10.0
1070
     0
1002
{
1002
}
1002
}
  0
ENDSEC
  0
SECTION
  2
OBJECTS
  0
DICTIONARY
  5
C
330
0
100
AcDbDictionary
  3
ACAD_GROUP
350
D
  3
ACAD_LAYOUT
350
1A
  3
ACAD_MLINESTYLE
350
17
  3
ACAD_PLOTSETTINGS
350
19
  3
ACAD_PLOTSTYLENAME
350
E
  3
ACDBVARIABLEDICTIONARY
350
34
  3
ACMDICTIONARY
350
43
  3
AMG
350
2B
  3
AMGSNAPSETTINGS
350
6E
  3
DWGPROPS
350
457D
  3
ACDBHEADERROUNDTRIPXREC
350
458A
  0
DICTIONARY
  5
74
330
1F
100
AcDbDictionary
280
     1
  3
ACAD_SORTENTS
360
4516
  3
ACAD_INDEX
360
457F
  3
ACAD_LAYOUTSELFREF
360
45AD
  0
DICTIONARY
  5
45B2
330
101
100
AcDbDictionary
280
     1
  3
ACAD_LAYOUTSELFREF
360
45B3
  0
DICTIONARY
  5
D
102
{ACAD_REACTORS
330
C
102
}
330
C
100
AcDbDictionary
  0
DICTIONARY
  5
1A
102
{ACAD_REACTORS
330
C
102
}
330
C
100
AcDbDictionary
  0
DICTIONARY
  5
17
102
{ACAD_REACTORS
330
C
102
}
330
C
100
AcDbDictionary
  3
STANDARD
350
18
  0
DICTIONARY
  5
19
102
{ACAD_REACTORS
330
C
102
}
330
C
100
AcDbDictionary
  0
ACDBDICTIONARYWDFLT
  5
E
102
{ACAD_REACTORS
330
C
102
}
330
C
100
AcDbDictionary
281
     1
  3
Normal
350
F
100
AcDbDictionaryWithDefault
340
F
  0
DICTIONARY
  5
34
102
{ACAD_REACTORS
330
C
102
}
330
C
100
AcDbDictionary
  3
INDEXCTL
350
35
  3
SORTENTS
350
B5E
  0
DICTIONARY
  5
43
102
{ACAD_REACTORS
330
C
102
}
330
C
100
AcDbDictionary
  3
ACMSTDDICTIONARY
350
260
  0
DICTIONARY
  5
2B
102
{ACAD_REACTORS
330
C
102
}
330
C
100
AcDbDictionary
  3
ACMGSETTINGS
350
2C
  0
DICTIONARY
  5
6E
102
{ACAD_REACTORS
330
C
102
}
330
C
100
AcDbDictionary
  0
XRECORD
  5
457D
102
{ACAD_REACTORS
330
C
102
}
330
C
100
AcDbXrecord
  1
DWGPROPS COOKIE
  2

  3

  4

  6

  7

  8

  9

300
AmdtFileType=82
301
=
302
=
303
=
304
=
305
=
306
=
307
=
308
=
309
=
 40
0.0782139814814815
 41
2452836.771637361
 42
2452908.368631632
  1

 90
        1
  0
DICTIONARY
  5
458A
102
{ACAD_REACTORS
330
C
102
}
330
C
100
AcDbDictionary
  3
TSTACKALIGN
350
458B
  3
TSTACKSIZE
350
458C
  3
HYPERLINKBASE
350
458D
  3
STYLESHEET
350
458E
  3
LAYOUTDICT
350
458F
  3
PLOTSETDICT
350
4590
  3
PLOTSTYLNAMDICT
350
4591
  3
LWETCUNION
350
4592
  3
INSUNITS
350
4593
  3
CEPSNTYPE
350
4594
  3
FINGERPRINTGUID
350
4595
  3
VERSIONGUID
350
4596
  3
PSVPSCALE
350
4597
  3
DIMSTYLEDATA
350
4598
  3
PUCSORTHOREF
350
4599
  3
PUCSORTHOVIEW
350
459A
  3
PUCSBASE
350
459B
  3
PUCSORGTOP
350
459C
  3
PUCSORGBOTTOM
350
459D
  3
PUCSORGLEFT
350
459E
  3
PUCSORGRIGHT
350
459F
  3
PUCSORGFRONT
350
45A0
  3
PUCSORGBACK
350
45A1
  3
UCSORTHOREF
350
45A2
  3
UCSORTHOVIEW
350
45A3
  3
UCSBASE
350
45A4
  3
UCSORGTOP
350
45A5
  3
UCSORGBOTTOM
350
45A6
  3
UCSORGLEFT
350
45A7
  3
UCSORGRIGHT
350
45A8
  3
UCSORGFRONT
350
45A9
  3
UCSORGBACK
350
45AA
  0
SORTENTSTABLE
  5
4516
102
{ACAD_REACTORS
330
74
102
}
330
74
100
AcDbSortentsTable
330
1F
331
426A
  5
4269
331
423A
  5
4239
331
420B
  5
420A
331
2F82
  5
2F82
331
2F5B
  5
2F5B
331
424D
  5
424C
331
4274
  5
4273
331
4287
  5
4286
331
2F65
  5
2F65
331
4228
  5
4227
331
4262
  5
4261
331
2F53
  5
2F53
331
4203
  5
4202
331
4245
  5
4244
331
438E
  5
438D
331
4216
  5
4215
331
2F8D
  5
2F8C
331
427F
  5
427E
331
4220
  5
421F
331
4233
  5
4232
331
425A
  5
4259
331
426D
  5
426C
331
2F85
  5
2F85
331
420E
  5
420D
331
423D
  5
423C
331
4277
  5
4276
331
428A
  5
4289
331
4218
  5
4217
331
4252
  5
4251
331
422B
  5
422A
331
3F7A
  5
3F79
331
4265
  5
4264
331
4206
  5
4205
331
2F7D
  5
2F7D
331
2F56
  5
2F56
331
4248
  5
4247
331
2F60
  5
2F60
331
4282
  5
4281
331
4223
  5
4222
331
3B2A
  5
3B29
331
425D
  5
425C
331
4236
  5
4235
331
41FE
  5
41FD
331
4211
  5
4210
331
4240
  5
423F
331
427A
  5
4279
331
4012
  5
4011
331
421B
  5
421A
331
2F6B
  5
2F6B
331
4255
  5
4254
331
422E
  5
422D
331
4268
  5
4267
331
4209
  5
4208
331
4238
  5
4237
331
2F59
  5
2F59
331
4272
  5
4271
331
424B
  5
424A
331
4285
  5
4284
331
4226
  5
4225
331
2F76
  5
2F76
331
4260
  5
425F
331
2F78
  5
2F78
331
4201
  5
4200
331
438C
  5
438B
331
4214
  5
4213
331
2F8B
  5
2F8A
331
427D
  5
427C
331
421E
  5
421D
331
2F6E
  5
2F6E
331
4258
  5
4257
331
4231
  5
4230
331
43B1
  5
4390
331
426B
  5
426A
331
2F83
  5
2F83
331
2F5C
  5
2F5C
331
420C
  5
420B
331
423B
  5
423A
331
4275
  5
4274
331
424E
  5
424D
331
4288
  5
4287
331
2F66
  5
2F66
331
4229
  5
4228
331
4250
  5
424F
331
4263
  5
4262
331
4204
  5
4203
331
2F54
  5
2F54
331
2F7B
  5
2F7B
331
4246
  5
4245
331
4217
  5
4216
331
438F
  5
438E
331
4280
  5
427F
331
4221
  5
4220
331
4234
  5
4233
331
425B
  5
425A
331
426E
  5
426D
331
41FC
  5
4073
331
420F
  5
420E
331
423E
  5
423D
331
4278
  5
4277
331
4010
  5
3F7B
331
4219
  5
4218
331
2F69
  5
2F69
331
428B
  5
428A
331
3F7B
  5
3F7A
331
422C
  5
422B
331
4253
  5
4252
331
4266
  5
4265
331
4207
  5
4206
331
2F57
  5
2F57
331
4249
  5
4248
331
4270
  5
426F
331
3A61
  5
2F8D
331
4283
  5
4282
331
2F61
  5
2F61
331
44EC
  5
44AC
331
4224
  5
4223
331
3B2B
  5
3B2A
331
2F74
  5
2F74
331
4237
  5
4236
331
425E
  5
425D
331
41FF
  5
41FE
331
4212
  5
4211
331
4241
  5
4240
331
44AC
  5
43B1
331
427B
  5
427A
331
4072
  5
4012
331
421C
  5
421B
331
2F6C
  5
2F6C
331
422F
  5
422E
331
4256
  5
4255
331
4269
  5
4268
331
4239
  5
4238
331
420A
  5
4209
331
2F5A
  5
2F5A
331
2F81
  5
2F81
331
4273
  5
4272
331
424C
  5
424B
331
44EF
  5
44EC
331
4286
  5
4285
331
4227
  5
4226
331
2F77
  5
2F77
331
4261
  5
4260
331
4202
  5
4201
331
2F79
  5
2F79
331
4244
  5
4242
331
2F8C
  5
2F8B
331
4215
  5
4214
331
438D
  5
438C
331
427E
  5
427D
331
2F6F
  5
2F6F
331
421F
  5
421E
331
4232
  5
4231
331
4259
  5
4258
331
426C
  5
426B
331
423C
  5
423B
331
420D
  5
420C
331
2F84
  5
2F84
331
424F
  5
424E
331
4276
  5
4275
331
2F67
  5
2F67
331
4289
  5
4288
331
3F79
  5
3B2B
331
422A
  5
4229
331
4251
  5
4250
331
4264
  5
4263
331
4205
  5
4204
331
2F55
  5
2F55
331
2F7C
  5
2F7C
331
4390
  5
438F
331
4247
  5
4246
331
4281
  5
4280
331
4222
  5
4221
331
2F72
  5
2F72
331
3B29
  5
3A61
331
4235
  5
4234
331
425C
  5
425B
331
41FD
  5
41FC
331
426F
  5
426E
331
2F87
  5
2F87
331
4210
  5
420F
331
423F
  5
423E
331
4279
  5
4278
331
4011
  5
4010
331
421A
  5
4219
331
2F6A
  5
2F6A
331
4254
  5
4253
331
422D
  5
422C
331
4267
  5
4266
331
4208
  5
4207
331
2F58
  5
2F58
331
424A
  5
4249
331
4271
  5
4270
331
4284
  5
4283
331
4225
  5
4224
331
425F
  5
425E
331
4200
  5
41FF
331
4242
  5
4241
331
2F8A
  5
44EF
331
4213
  5
4212
331
438B
  5
428B
331
4073
  5
4072
331
427C
  5
427B
331
2F6D
  5
2F6D
331
421D
  5
421C
331
4230
  5
422F
331
4257
  5
4256
  0
DICTIONARY
  5
457F
102
{ACAD_REACTORS
330
74
102
}
330
74
100
AcDbDictionary
  3
*A1
350
4580
  0
XRECORD
  5
45AD
102
{ACAD_REACTORS
330
74
102
}
330
74
100
AcDbXrecord
340
1F
  0
XRECORD
  5
45B3
102
{ACAD_REACTORS
330
45B2
102
}
330
45B2
100
AcDbXrecord
340
101
  0
MLINESTYLE
  5
18
102
{ACAD_REACTORS
330
17
102
}
330
17
100
AcDbMlineStyle
  2
STANDARD
 70
     0
  3

 62
   256
 51
90.0
 52
90.0
 71
     2
 49
0.5
 62
   256
  6
BYLAYER
 49
-0.5
 62
   256
  6
BYLAYER
  0
ACDBPLACEHOLDER
  5
F
102
{ACAD_REACTORS
330
E
102
}
330
E
100
AcDbPlaceHolder
280
     0
  0
DICTIONARYVAR
  5
35
102
{ACAD_REACTORS
330
34
102
}
330
34
100
DictionaryVariables
280
     0
  1
1
  0
DICTIONARYVAR
  5
B5E
102
{ACAD_REACTORS
330
34
102
}
330
34
100
DictionaryVariables
280
     0
  1
127
  0
DICTIONARY
  5
260
102
{ACAD_REACTORS
330
43
102
}
330
43
100
AcDbDictionary
  0
DICTIONARY
  5
2C
102
{ACAD_REACTORS
330
2B
102
}
330
2B
100
AcDbDictionary
  3
DWGSETTINGS
350
2D
  0
XRECORD
  5
458B
102
{ACAD_REACTORS
330
458A
102
}
330
458A
100
AcDbXrecord
 90
        1
  0
XRECORD
  5
458C
102
{ACAD_REACTORS
330
458A
102
}
330
458A
100
AcDbXrecord
 90
       70
  0
XRECORD
  5
458D
102
{ACAD_REACTORS
330
458A
102
}
330
458A
100
AcDbXrecord
  1

  0
XRECORD
  5
458E
102
{ACAD_REACTORS
330
458A
102
}
330
458A
100
AcDbXrecord
  1
ASAMI.ctb
  0
XRECORD
  5
458F
102
{ACAD_REACTORS
330
458A
102
}
330
458A
100
AcDbXrecord
340
1A
  0
XRECORD
  5
4590
102
{ACAD_REACTORS
330
458A
102
}
330
458A
100
AcDbXrecord
340
19
  0
XRECORD
  5
4591
102
{ACAD_REACTORS
330
458A
102
}
330
458A
100
AcDbXrecord
340
E
  0
XRECORD
  5
4592
102
{ACAD_REACTORS
330
458A
102
}
330
458A
100
AcDbXrecord
 90
    10781
  0
XRECORD
  5
4593
102
{ACAD_REACTORS
330
458A
102
}
330
458A
100
AcDbXrecord
 90
        4
  0
XRECORD
  5
4594
102
{ACAD_REACTORS
330
458A
102
}
330
458A
100
AcDbXrecord
 90
        0
  0
XRECORD
  5
4595
102
{ACAD_REACTORS
330
458A
102
}
330
458A
100
AcDbXrecord
  1
{AFB28963-8C59-40AE-9337-C84526B81ACE}
  0
XRECORD
  5
4596
102
{ACAD_REACTORS
330
458A
102
}
330
458A
100
AcDbXrecord
  1
{58DDD774-8578-414E-9377-D5B74020D3AD}
  0
XRECORD
  5
4597
102
{ACAD_REACTORS
330
458A
102
}
330
458A
100
AcDbXrecord
 40
0.0
  0
XRECORD
  5
4598
102
{ACAD_REACTORS
330
458A
102
}
330
458A
100
AcDbXrecord
1000
DSTYLE
1002
{
1070
    79
 70
     2
1070
   341
340
59
1070
   342
340
59
1070
   371
 70
    -1
1070
   372
 70
    -1
1002
}
  0
XRECORD
  5
4599
102
{ACAD_REACTORS
330
458A
102
}
330
458A
100
AcDbXrecord
340
0
  0
XRECORD
  5
459A
102
{ACAD_REACTORS
330
458A
102
}
330
458A
100
AcDbXrecord
 70
     0
  0
XRECORD
  5
459B
102
{ACAD_REACTORS
330
458A
102
}
330
458A
100
AcDbXrecord
340
0
  0
XRECORD
  5
459C
102
{ACAD_REACTORS
330
458A
102
}
330
458A
100
AcDbXrecord
 10
0.0
 20
0.0
 30
0.0
  0
XRECORD
  5
459D
102
{ACAD_REACTORS
330
458A
102
}
330
458A
100
AcDbXrecord
 10
0.0
 20
0.0
 30
0.0
  0
XRECORD
  5
459E
102
{ACAD_REACTORS
330
458A
102
}
330
458A
100
AcDbXrecord
 10
0.0
 20
0.0
 30
0.0
  0
XRECORD
  5
459F
102
{ACAD_REACTORS
330
458A
102
}
330
458A
100
AcDbXrecord
 10
0.0
 20
0.0
 30
0.0
  0
XRECORD
  5
45A0
102
{ACAD_REACTORS
330
458A
102
}
330
458A
100
AcDbXrecord
 10
0.0
 20
0.0
 30
0.0
  0
XRECORD
  5
45A1
102
{ACAD_REACTORS
330
458A
102
}
330
458A
100
AcDbXrecord
 10
0.0
 20
0.0
 30
0.0
  0
XRECORD
  5
45A2
102
{ACAD_REACTORS
330
458A
102
}
330
458A
100
AcDbXrecord
340
0
  0
XRECORD
  5
45A3
102
{ACAD_REACTORS
330
458A
102
}
330
458A
100
AcDbXrecord
 70
     0
  0
XRECORD
  5
45A4
102
{ACAD_REACTORS
330
458A
102
}
330
458A
100
AcDbXrecord
340
0
  0
XRECORD
  5
45A5
102
{ACAD_REACTORS
330
458A
102
}
330
458A
100
AcDbXrecord
 10
0.0
 20
0.0
 30
0.0
  0
XRECORD
  5
45A6
102
{ACAD_REACTORS
330
458A
102
}
330
458A
100
AcDbXrecord
 10
0.0
 20
0.0
 30
0.0
  0
XRECORD
  5
45A7
102
{ACAD_REACTORS
330
458A
102
}
330
458A
100
AcDbXrecord
 10
0.0
 20
0.0
 30
0.0
  0
XRECORD
  5
45A8
102
{ACAD_REACTORS
330
458A
102
}
330
458A
100
AcDbXrecord
 10
0.0
 20
0.0
 30
0.0
  0
XRECORD
  5
45A9
102
{ACAD_REACTORS
330
458A
102
}
330
458A
100
AcDbXrecord
 10
0.0
 20
0.0
 30
0.0
  0
XRECORD
  5
45AA
102
{ACAD_REACTORS
330
458A
102
}
330
458A
100
AcDbXrecord
 10
0.0
 20
0.0
 30
0.0
  0
LAYER_INDEX
  5
4580
102
{ACAD_REACTORS
330
457F
102
}
330
457F
100
AcDbIndex
 40
2453152.366695902
100
AcDbLayerIndex
  8
0
360
4581
 90
        0
  8
AM_0
360
4582
 90
      196
  8
AM_7
360
4583
 90
        1
  8
AM_5
360
4584
 90
        9
  8
Defpoints
360
4585
 90
        0
  8
AM_6
360
4586
 90
        1
  8
AM_11
360
4587
 90
        1
  8
AM_3
360
4588
 90
        8
  0
XRECORD
  5
2D
102
{ACAD_REACTORS
330
2C
102
}
330
2C
100
AcDbXrecord
  1
VERSION
140
15.0
  1
PRODUCT
  2
AutoCAD Mechanical 2000
  0
IDBUFFER
  5
4581
330
0
100
AcDbIdBuffer
  0
IDBUFFER
  5
4582
330
0
100
AcDbIdBuffer
330
424A
330
424B
330
424C
330
424D
330
424E
330
424F
330
4250
330
4251
330
4252
330
4253
330
4254
330
4255
330
4256
330
4257
330
4258
330
4259
330
425A
330
425B
330
425C
330
425D
330
425E
330
425F
330
4260
330
4261
330
4262
330
4263
330
4264
330
4265
330
4266
330
4267
330
4268
330
4269
330
426A
330
426B
330
426C
330
426D
330
426E
330
426F
330
4270
330
4271
330
4272
330
4273
330
4274
330
4275
330
4276
330
4277
330
4278
330
4279
330
427A
330
427B
330
427C
330
427D
330
427E
330
427F
330
4280
330
4281
330
4282
330
4283
330
4284
330
4285
330
4286
330
4287
330
4288
330
4289
330
428A
330
428B
330
438B
330
438C
330
438D
330
438E
330
438F
330
4390
330
44EC
330
44EF
330
4517
330
451A
330
451D
330
4520
330
4522
330
4523
330
4524
330
4525
330
4526
330
4527
330
2F54
330
2F55
330
2F56
330
2F57
330
2F58
330
2F59
330
2F5B
330
2F5C
330
2F60
330
2F65
330
2F66
330
2F67
330
2F69
330
2F6A
330
2F6C
330
2F6D
330
2F6E
330
2F6F
330
2F72
330
2F74
330
2F76
330
2F77
330
2F78
330
2F79
330
2F7B
330
2F7C
330
2F7D
330
2F81
330
2F82
330
2F83
330
2F84
330
2F85
330
2F87
330
2F8A
330
3B2A
330
3B2B
330
41FC
330
41FD
330
41FE
330
41FF
330
4200
330
4201
330
4202
330
4203
330
4204
330
4205
330
4206
330
4207
330
4208
330
4209
330
420A
330
420B
330
420C
330
420D
330
420E
330
420F
330
4210
330
4211
330
4212
330
4213
330
4214
330
4215
330
4216
330
4217
330
4218
330
4219
330
421A
330
421B
330
421C
330
421D
330
421E
330
421F
330
4220
330
4221
330
4222
330
4223
330
4224
330
4225
330
4226
330
4227
330
4228
330
4229
330
422A
330
422B
330
422C
330
422D
330
422E
330
422F
330
4230
330
4231
330
4232
330
4233
330
4234
330
4235
330
4236
330
4237
330
4238
330
4239
330
423A
330
423B
330
423C
330
423D
330
423E
330
423F
330
4240
330
4241
330
4242
330
4245
330
4246
330
4247
330
4248
330
4249
  0
IDBUFFER
  5
4583
330
0
100
AcDbIdBuffer
330
2F6B
  0
IDBUFFER
  5
4584
330
0
100
AcDbIdBuffer
330
3F79
330
3F7A
330
3F7B
330
4010
330
4011
330
4012
330
4072
330
4073
330
43B1
  0
IDBUFFER
  5
4585
330
0
100
AcDbIdBuffer
  0
IDBUFFER
  5
4586
330
0
100
AcDbIdBuffer
330
44AC
  0
IDBUFFER
  5
4587
330
0
100
AcDbIdBuffer
330
4244
  0
IDBUFFER
  5
4588
330
0
100
AcDbIdBuffer
330
2F53
330
2F5A
330
2F61
330
2F8B
330
2F8C
330
2F8D
330
3A61
330
3B29
  0
ENDSEC
  0
EOF
