  0
SECTION
  2
HEADER
  9
$ACADVER
  1
AC1014
  9
$ACADMAINTVER
 70
     9
  9
$DWGCODEPAGE
  3
ANSI_932
  9
$INSBASE
 10
0.0
 20
0.0
 30
0.0
  9
$EXTMIN
 10
-106.9169586078557
 20
-129.6000010099999
 30
-0.00000001
  9
$EXTMAX
 10
31.72245897107841
 20
73.10000000000001
 30
0.00000001
  9
$LIMMIN
 10
-131.7401665788534
 20
-162.1220464083511
  9
$LIMMAX
 10
73.78866167364162
 20
127.1629260641186
  9
$ORTHOMODE
 70
     0
  9
$REGENMODE
 70
     1
  9
$FILLMODE
 70
     1
  9
$QTEXTMODE
 70
     0
  9
$MIRRTEXT
 70
     0
  9
$DRAGMODE
 70
     2
  9
$LTSCALE
 40
1.0
  9
$OSMODE
 70
    55
  9
$ATTMODE
 70
     1
  9
$TEXTSIZE
 40
2.5
  9
$TRACEWID
 40
1.0
  9
$TEXTSTYLE
  7
STANDARD
  9
$CLAYER
  8
AM_0
  9
$CELTYPE
  6
BYLAYER
  9
$CECOLOR
 62
   256
  9
$CELTSCALE
 40
1.0
  9
$DELOBJ
 70
     1
  9
$DISPSILH
 70
     0
  9
$DIMSCALE
 40
1.0
  9
$DIMASZ
 40
2.5
  9
$DIMEXO
 40
1.0
  9
$DIMDLI
 40
12.0
  9
$DIMRND
 40
0.0
  9
$DIMDLE
 40
0.0
  9
$DIMEXE
 40
1.0
  9
$DIMTP
 40
0.1
  9
$DIMTM
 40
0.1
  9
$DIMTXT
 40
3.2
  9
$DIMCEN
 40
0.0
  9
$DIMTSZ
 40
0.0
  9
$DIMTOL
 70
     0
  9
$DIMLIM
 70
     0
  9
$DIMTIH
 70
     0
  9
$DIMTOH
 70
     0
  9
$DIMSE1
 70
     0
  9
$DIMSE2
 70
     0
  9
$DIMTAD
 70
     3
  9
$DIMZIN
 70
     8
  9
$DIMBLK
  1
OPEN30
  9
$DIMASO
 70
     1
  9
$DIMSHO
 70
     1
  9
$DIMPOST
  1

  9
$DIMAPOST
  1
"
  9
$DIMALT
 70
     0
  9
$DIMALTD
 70
     2
  9
$DIMALTF
 40
0.0393701
  9
$DIMLFAC
 40
1.0
  9
$DIMTOFL
 70
     1
  9
$DIMTVP
 40
0.0
  9
$DIMTIX
 70
     0
  9
$DIMSOXD
 70
     0
  9
$DIMSAH
 70
     0
  9
$DIMBLK1
  1

  9
$DIMBLK2
  1

  9
$DIMSTYLE
  2
AM_JIS
  9
$DIMCLRD
 70
   256
  9
$DIMCLRE
 70
   256
  9
$DIMCLRT
 70
     2
  9
$DIMTFAC
 40
0.71
  9
$DIMGAP
 40
1.5
  9
$DIMJUST
 70
     0
  9
$DIMSD1
 70
     0
  9
$DIMSD2
 70
     0
  9
$DIMTOLJ
 70
     0
  9
$DIMTZIN
 70
     0
  9
$DIMALTZ
 70
     0
  9
$DIMALTTZ
 70
     0
  9
$DIMFIT
 70
     3
  9
$DIMUPT
 70
     0
  9
$DIMUNIT
 70
     2
  9
$DIMDEC
 70
     3
  9
$DIMTDEC
 70
     3
  9
$DIMALTU
 70
     2
  9
$DIMALTTD
 70
     2
  9
$DIMTXSTY
  7
ASAMI
  9
$DIMAUNIT
 70
     0
  9
$LUNITS
 70
     2
  9
$LUPREC
 70
     2
  9
$SKETCHINC
 40
1.0
  9
$FILLETRAD
 40
1.0
  9
$AUNITS
 70
     0
  9
$AUPREC
 70
     0
  9
$MENU
  1
.
  9
$ELEVATION
 40
0.0
  9
$PELEVATION
 40
0.0
  9
$THICKNESS
 40
0.0
  9
$LIMCHECK
 70
     0
  9
$BLIPMODE
 70
     0
  9
$CHAMFERA
 40
1.0
  9
$CHAMFERB
 40
1.0
  9
$CHAMFERC
 40
20.0
  9
$CHAMFERD
 40
0.0
  9
$SKPOLY
 70
     0
  9
$TDCREATE
 40
2452836.771637361
  9
$TDUPDATE
 40
2453152.366781806
  9
$TDINDWG
 40
0.0930908218
  9
$TDUSRTIMER
 40
0.0930908218
  9
$USRTIMER
 70
     1
  9
$ANGBASE
 50
0.0
  9
$ANGDIR
 70
     0
  9
$PDMODE
 70
     0
  9
$PDSIZE
 40
0.0
  9
$PLINEWID
 40
0.0
  9
$COORDS
 70
     1
  9
$SPLFRAME
 70
     0
  9
$SPLINETYPE
 70
     6
  9
$SPLINESEGS
 70
     8
  9
$ATTDIA
 70
     1
  9
$ATTREQ
 70
     1
  9
$HANDLING
 70
 12289
  9
$HANDSEED
  5
5767
  9
$SURFTAB1
 70
     6
  9
$SURFTAB2
 70
     6
  9
$SURFTYPE
 70
     6
  9
$SURFU
 70
     6
  9
$SURFV
 70
     6
  9
$UCSNAME
  2

  9
$UCSORG
 10
0.0
 20
0.0
 30
0.0
  9
$UCSXDIR
 10
1.0
 20
0.0
 30
0.0
  9
$UCSYDIR
 10
0.0
 20
1.0
 30
0.0
  9
$PUCSNAME
  2

  9
$PUCSORG
 10
0.0
 20
0.0
 30
0.0
  9
$PUCSXDIR
 10
1.0
 20
0.0
 30
0.0
  9
$PUCSYDIR
 10
0.0
 20
1.0
 30
0.0
  9
$USERI1
 70
     0
  9
$USERI2
 70
     0
  9
$USERI3
 70
     0
  9
$USERI4
 70
     0
  9
$USERI5
 70
     0
  9
$USERR1
 40
0.0
  9
$USERR2
 40
0.0
  9
$USERR3
 40
0.0
  9
$USERR4
 40
0.0
  9
$USERR5
 40
0.0
  9
$WORLDVIEW
 70
     1
  9
$SHADEDGE
 70
     3
  9
$SHADEDIF
 70
    70
  9
$TILEMODE
 70
     1
  9
$MAXACTVP
 70
    64
  9
$PINSBASE
 10
0.0
 20
0.0
 30
0.0
  9
$PLIMCHECK
 70
     0
  9
$PEXTMIN
 10
1.000000000000000E+20
 20
1.000000000000000E+20
 30
1.000000000000000E+20
  9
$PEXTMAX
 10
-1.000000000000000E+20
 20
-1.000000000000000E+20
 30
-1.000000000000000E+20
  9
$PLIMMIN
 10
0.0
 20
0.0
  9
$PLIMMAX
 10
841.0
 20
594.0
  9
$UNITMODE
 70
     0
  9
$VISRETAIN
 70
     1
  9
$PLINEGEN
 70
     0
  9
$PSLTSCALE
 70
     0
  9
$TREEDEPTH
 70
  3020
  9
$PICKSTYLE
 70
     0
  9
$CMLSTYLE
  2
STANDARD
  9
$CMLJUST
 70
     0
  9
$CMLSCALE
 40
20.0
  9
$PROXYGRAPHICS
 70
     1
  9
$MEASUREMENT
 70
     1
  0
ENDSEC
  0
SECTION
  2
CLASSES
  0
CLASS
  1
ACDBDICTIONARYWDFLT
  2
AcDbDictionaryWithDefault
  3
AutoCAD 2000
 90
        0
280
     0
281
     0
  0
CLASS
  1
ACDBPLACEHOLDER
  2
AcDbPlaceHolder
  3
AutoCAD 2000
 90
        0
280
     0
281
     0
  0
CLASS
  1
LAYOUT
  2
AcDbLayout
  3
AutoCAD 2000
 90
        0
280
     0
281
     0
  0
CLASS
  1
AMGSETTINGSOBJ
  2
AmgSettingsObj
  3
"AcadM|Product Description: AutoCAD Mechanical 2000|Company: Autodesk"
 90
        0
280
     0
281
     0
  0
CLASS
  1
ACME_DOCUMENT
  2
AcMeDbDoc
  3
AcMeServices
 90
        0
280
     0
281
     0
  0
CLASS
  1
ACMESCOPE
  2
AcMeScope
  3
AcMeServices
 90
        0
280
     0
281
     0
  0
CLASS
  1
ACMECOMMANDHISTORY
  2
AcMeCommandHistory
  3
AcMeServices
 90
        0
280
     0
281
     0
  0
CLASS
  1
DICTIONARYVAR
  2
AcDbDictionaryVar
  3
AutoCAD 2000
 90
        0
280
     0
281
     0
  0
CLASS
  1
ACIMSYSVARMAN
  2
AcImSysVarManager
  3
AcMeServices
 90
        0
280
     0
281
     0
  0
CLASS
  1
ACIMREALSYSVAR
  2
AcImRealSysVar
  3
AcMeServices
 90
        0
280
     0
281
     0
  0
CLASS
  1
ACIMINTSYSVAR
  2
AcImIntSysVar
  3
AcMeServices
 90
        0
280
     0
281
     0
  0
CLASS
  1
ACMEDRAWINGMAN
  2
AcMeDrawingMan
  3
AcMeServices
 90
        0
280
     0
281
     0
  0
CLASS
  1
ACMEVIEW
  2
AcMeView
  3
AcMeServices
 90
        0
280
     0
281
     0
  0
CLASS
  1
ACDBENTITYCACHE
  2
AcMeEntityCache
  3
AcMeServices
 90
        0
280
     0
281
     0
  0
CLASS
  1
GSMANAGER
  2
AcMeGSManager
  3
AcMeServices
 90
        0
280
     0
281
     0
  0
CLASS
  1
AmdtInternalReactor
  2
AmdtInternalReactor
  3
AcMeServices
 90
        0
280
     0
281
     0
  0
CLASS
  1
ACMESTATEMGR
  2
AcMeStateMgr
  3
AcMeServices
 90
        0
280
     0
281
     0
  0
CLASS
  1
ACME_DATABASE
  2
AcMeDbDatabase
  3
AcMeServices
 90
        0
280
     0
281
     0
  0
CLASS
  1
ACRFINSADJUSTERMGR
  2
AcRfInsAdjusterMgr
  3
AcMeServices
 90
        0
280
     0
281
     0
  0
CLASS
  1
ACMDATADICTIONARY
  2
AcmDataDictionary
  3
"AcmSymBB|Product Description: AutoCAD Mechanical 2000|Company: Autodesk"
 90
        0
280
     0
281
     0
  0
CLASS
  1
ACMDATAENTRYBLOCK
  2
AcmDataEntryBlock
  3
"AcmSymBB|Product Description: AutoCAD Mechanical 2000|Company: Autodesk"
 90
        0
280
     0
281
     0
  0
CLASS
  1
AMGOBJPROPCFG
  2
AmgObjPropCfg
  3
"AmgLay|Product Description: AutoCAD Mechanical 2000|Company: Autodesk"
 90
        1
280
     0
281
     0
  0
CLASS
  1
ACAMGFILTERDAT
  2
AcAmgFilterDat
  3
"AcadM|Product Description: AutoCAD Mechanical 2000|Company: Autodesk"
 90
        0
280
     0
281
     0
  0
CLASS
  1
LAYER_INDEX
  2
AcDbLayerIndex
  3
AutoCAD 2000
 90
        0
280
     0
281
     0
  0
CLASS
  1
IDBUFFER
  2
AcDbIdBuffer
  3
AutoCAD 2000
 90
        0
280
     0
281
     0
  0
CLASS
  1
ACIMSTRSYSVAR
  2
AcImStrSysVar
  3
AcMeServices
 90
        0
280
     0
281
     0
  0
CLASS
  1
ACMSTANDARDJIS
  2
AcmStandardJIS
  3
"AcmSymBB|Product Description: AutoCAD Mechanical 2000|Company: Autodesk"
 90
        0
280
     0
281
     0
  0
CLASS
  1
ACMSURFSTANDARDJIS
  2
AcmSurfTextStdJIS
  3
"AcmSymBB|Product Description: AutoCAD Mechanical 2000|Company: Autodesk"
 90
        0
280
     0
281
     0
  0
CLASS
  1
ACMFCFSTANDARDJIS
  2
AcmFCFStdJIS
  3
"AcmSymBB|Product Description: AutoCAD Mechanical 2000|Company: Autodesk"
 90
        0
280
     0
281
     0
  0
CLASS
  1
ACMWELDSTANDARDJIS
  2
AcmWeldingStdJIS
  3
"AcmSymBB|Product Description: AutoCAD Mechanical 2000|Company: Autodesk"
 90
        0
280
     0
281
     0
  0
CLASS
  1
ACMIDSTANDARDJIS
  2
AcmIdStdJIS
  3
"AcmSymBB|Product Description: AutoCAD Mechanical 2000|Company: Autodesk"
 90
        0
280
     0
281
     0
  0
CLASS
  1
ACMDATUMSTANDARDJIS
  2
AcmDatumStdJIS
  3
"AcmSymBB|Product Description: AutoCAD Mechanical 2000|Company: Autodesk"
 90
        0
280
     0
281
     0
  0
CLASS
  1
ACMBOMSTANDARDJIS
  2
AcmBOMStdJIS
  3
"AcmSymBB|Product Description: AutoCAD Mechanical 2000|Company: Autodesk"
 90
        0
280
     0
281
     0
  0
CLASS
  1
ACMSTANDARDANSI
  2
AcmStandardANSI
  3
"AcmSymBB|Product Description: AutoCAD Mechanical 2000|Company: Autodesk"
 90
        0
280
     0
281
     0
  0
CLASS
  1
ACMSURFSTANDARDANSI
  2
AcmSurfTextStdANSI
  3
"AcmSymBB|Product Description: AutoCAD Mechanical 2000|Company: Autodesk"
 90
        0
280
     0
281
     0
  0
CLASS
  1
ACMFCFSTANDARDANSI
  2
AcmFCFStdANSI
  3
"AcmSymBB|Product Description: AutoCAD Mechanical 2000|Company: Autodesk"
 90
        0
280
     0
281
     0
  0
CLASS
  1
ACMWELDSTANDARDANSI
  2
AcmWeldingStdANSI
  3
"AcmSymBB|Product Description: AutoCAD Mechanical 2000|Company: Autodesk"
 90
        0
280
     0
281
     0
  0
CLASS
  1
ACMIDSTANDARDANSI
  2
AcmIdStdANSI
  3
"AcmSymBB|Product Description: AutoCAD Mechanical 2000|Company: Autodesk"
 90
        0
280
     0
281
     0
  0
CLASS
  1
ACMDATUMSTANDARDANSI
  2
AcmDatumStdANSI
  3
"AcmSymBB|Product Description: AutoCAD Mechanical 2000|Company: Autodesk"
 90
        0
280
     0
281
     0
  0
CLASS
  1
ACMBOMSTANDARDANSI
  2
AcmBOMStdANSI
  3
"AcmSymBB|Product Description: AutoCAD Mechanical 2000|Company: Autodesk"
 90
        0
280
     0
281
     0
  0
CLASS
  1
ACMSTANDARDBSI
  2
AcmStandardBSI
  3
"AcmSymBB|Product Description: AutoCAD Mechanical 2000|Company: Autodesk"
 90
        0
280
     0
281
     0
  0
CLASS
  1
ACMSURFSTANDARDBSI
  2
AcmSurfTextStdBSI
  3
"AcmSymBB|Product Description: AutoCAD Mechanical 2000|Company: Autodesk"
 90
        0
280
     0
281
     0
  0
CLASS
  1
ACMFCFSTANDARDBSI
  2
AcmFCFStdBSI
  3
"AcmSymBB|Product Description: AutoCAD Mechanical 2000|Company: Autodesk"
 90
        0
280
     0
281
     0
  0
CLASS
  1
ACMWELDSTANDARDBSI
  2
AcmWeldingStdBSI
  3
"AcmSymBB|Product Description: AutoCAD Mechanical 2000|Company: Autodesk"
 90
        0
280
     0
281
     0
  0
CLASS
  1
ACMIDSTANDARDBSI
  2
AcmIdStdBSI
  3
"AcmSymBB|Product Description: AutoCAD Mechanical 2000|Company: Autodesk"
 90
        0
280
     0
281
     0
  0
CLASS
  1
ACMDATUMSTANDARDBSI
  2
AcmDatumStdBSI
  3
"AcmSymBB|Product Description: AutoCAD Mechanical 2000|Company: Autodesk"
 90
        0
280
     0
281
     0
  0
CLASS
  1
ACMBOMSTANDARDBSI
  2
AcmBOMStdBSI
  3
"AcmSymBB|Product Description: AutoCAD Mechanical 2000|Company: Autodesk"
 90
        0
280
     0
281
     0
  0
CLASS
  1
LONG_TRANSACTION
  2
AcDbLongTransaction
  3
AutoCAD 2000
 90
        0
280
     0
281
     0
  0
CLASS
  1
LWPOLYLINE
  2
AcDbPolyline
  3
AutoCAD 2000
 90
        0
280
     0
281
     1
  0
CLASS
  1
HATCH
  2
AcDbHatch
  3
AutoCAD 2000
 90
        0
280
     0
281
     1
  0
CLASS
  1
XRECORD
  2
AcDbXrecord
  3
AutoCAD 2000
 90
        0
280
     0
281
     0
  0
ENDSEC
  0
SECTION
  2
TABLES
  0
TABLE
  2
VPORT
  5
8
330
0
100
AcDbSymbolTable
 70
     3
  0
VPORT
  5
573C
330
8
100
AcDbSymbolTableRecord
100
AcDbViewportTableRecord
  2
*ACTIVE
 70
     0
 10
0.0
 20
0.0
 11
1.0
 21
1.0
 12
-37.58956352992837
 22
-27.02408848333451
 13
0.0
 23
0.0
 14
2.5
 24
2.5
 15
10.0
 25
10.0
 16
0.0
 26
0.0
 36
1.0
 17
0.0
 27
0.0
 37
0.0
 40
206.4300927092539
 41
1.56570841889117
 42
50.0
 43
0.0
 44
0.0
 50
0.0
 51
0.0
 71
     0
 72
   100
 73
     1
 74
     3
 75
     0
 76
     0
 77
     0
 78
     0
  0
ENDTAB
  0
TABLE
  2
LTYPE
  5
5
330
0
100
AcDbSymbolTable
 70
    10
  0
LTYPE
  5
14
330
5
100
AcDbSymbolTableRecord
100
AcDbLinetypeTableRecord
  2
BYBLOCK
 70
     0
  3

 72
    65
 73
     0
 40
0.0
  0
LTYPE
  5
15
330
5
100
AcDbSymbolTableRecord
100
AcDbLinetypeTableRecord
  2
BYLAYER
 70
     0
  3

 72
    65
 73
     0
 40
0.0
  0
LTYPE
  5
16
330
5
100
AcDbSymbolTableRecord
100
AcDbLinetypeTableRecord
  2
CONTINUOUS
 70
     0
  3
Solid line
 72
    65
 73
     0
 40
0.0
  0
LTYPE
  5
4B
330
5
100
AcDbSymbolTableRecord
100
AcDbLinetypeTableRecord
  2
AM_ISO02W050
 70
     0
  3
__ __ __ __ __ __ __ __ __ __ __ __ __ __ __
 72
    65
 73
     2
 40
7.5
 49
6.0
 74
     0
 49
-1.5
 74
     0
  0
LTYPE
  5
4C
330
5
100
AcDbSymbolTableRecord
100
AcDbLinetypeTableRecord
  2
AM_ISO08W050
 70
     0
  3
____ . ____ . ____ . ____ . ____ . ____ . ____
 72
    65
 73
     4
 40
18.0
 49
12.0
 74
     0
 49
-1.5
 74
     0
 49
3.0
 74
     0
 49
-1.5
 74
     0
  0
LTYPE
  5
4D
330
5
100
AcDbSymbolTableRecord
100
AcDbLinetypeTableRecord
  2
AM_ISO09W050
 70
     0
  3
_____ . . _____ . . _____ . . ____ .. ____
 72
    65
 73
     6
 40
22.5
 49
12.0
 74
     0
 49
-1.5
 74
     0
 49
3.0
 74
     0
 49
-1.5
 74
     0
 49
3.0
 74
     0
 49
-1.5
 74
     0
  0
LTYPE
  5
4E
330
5
100
AcDbSymbolTableRecord
100
AcDbLinetypeTableRecord
  2
AMCONSTR
 70
     0
  3
_______________________
 72
    65
 73
     2
 40
9999.0
 49
9999.0
 74
     0
 49
0.0
 74
     0
  0
LTYPE
  5
4F
330
5
100
AcDbSymbolTableRecord
100
AcDbLinetypeTableRecord
  2
AM_ISO02W050X2
 70
     0
  3
 _ _ _ _ _ _ _ _ _ _ _ _
 72
    65
 73
     2
 40
3.75
 49
3.0
 74
     0
 49
-0.75
 74
     0
  0
LTYPE
  5
50
330
5
100
AcDbSymbolTableRecord
100
AcDbLinetypeTableRecord
  2
AM_ISO08W050X2
 70
     0
  3
__ . __ . __ . __ . __ . __
 72
    65
 73
     4
 40
9.0
 49
6.0
 74
     0
 49
-0.75
 74
     0
 49
1.5
 74
     0
 49
-0.75
 74
     0
  0
LTYPE
  5
53
330
5
100
AcDbSymbolTableRecord
100
AcDbLinetypeTableRecord
  2
AMZIGZAG
 70
     0
  3
/\/-/\/-/\/-/\/-/\/-/\/
 72
    65
 73
     2
 40
11.00009999999999
 49
0.0001
 74
     4
 75
   135
340
52
 46
0.04
 50
0.0
 44
0.0
 45
0.0
 49
-11.0
 74
     0
  0
LTYPE
  5
166
330
5
100
AcDbSymbolTableRecord
100
AcDbLinetypeTableRecord
  2
ACJISTGL
 70
     0
  3
_ _ _ _ _
 72
    65
 73
     2
 40
3.0
 49
2.0
 74
     0
 49
-1.0
 74
     0
  0
LTYPE
  5
26A
330
5
100
AcDbSymbolTableRecord
100
AcDbLinetypeTableRecord
  2
ACJISTGB
 70
     0
  3
__ . . __ . .
 72
    65
 73
     6
 40
9.0
 49
4.0
 74
     0
 49
-1.0
 74
     0
 49
1.0
 74
     0
 49
-1.0
 74
     0
 49
1.0
 74
     0
 49
-1.0
 74
     0
  0
ENDTAB
  0
TABLE
  2
LAYER
  5
2
330
0
100
AcDbSymbolTable
 70
     8
  0
LAYER
  5
10
330
2
100
AcDbSymbolTableRecord
100
AcDbLayerTableRecord
  2
0
 70
     0
 62
     7
  6
CONTINUOUS
  0
LAYER
  5
3F9
330
2
100
AcDbSymbolTableRecord
100
AcDbLayerTableRecord
  2
AM_0
 70
     0
 62
     7
  6
CONTINUOUS
  0
LAYER
  5
BD5
330
2
100
AcDbSymbolTableRecord
100
AcDbLayerTableRecord
  2
AM_7
 70
     0
 62
     4
  6
AM_ISO08W050
  0
LAYER
  5
BD6
330
2
100
AcDbSymbolTableRecord
100
AcDbLayerTableRecord
  2
AM_5
 70
     0
 62
     3
  6
CONTINUOUS
  0
LAYER
  5
BD7
330
2
100
AcDbSymbolTableRecord
100
AcDbLayerTableRecord
  2
DEFPOINTS
 70
     0
 62
     7
  6
CONTINUOUS
  0
LAYER
  5
E59
330
2
100
AcDbSymbolTableRecord
100
AcDbLayerTableRecord
  2
AM_6
 70
     0
 62
     2
  6
CONTINUOUS
  0
LAYER
  5
1E31
330
2
100
AcDbSymbolTableRecord
100
AcDbLayerTableRecord
  2
AM_11
 70
     0
 62
     3
  6
AM_ISO09W050
  0
LAYER
  5
1E41
330
2
100
AcDbSymbolTableRecord
100
AcDbLayerTableRecord
  2
AM_3
 70
     0
 62
     6
  6
ACJISTGL
  0
ENDTAB
  0
TABLE
  2
STYLE
  5
3
330
0
100
AcDbSymbolTable
 70
     5
  0
STYLE
  5
11
330
3
100
AcDbSymbolTableRecord
100
AcDbTextStyleTableRecord
  2
STANDARD
 70
     0
 40
0.0
 41
1.0
 50
0.0
 71
     0
 42
2.5
  3
simplex.shx
  4
EXTFONT.SHX
  0
STYLE
  5
52
330
3
100
AcDbSymbolTableRecord
100
AcDbTextStyleTableRecord
  2

 70
     1
 40
0.0
 41
1.0
 50
0.0
 71
     0
 42
2.5
  3
ltypeshp.shx
  4

  0
STYLE
  5
6B
330
3
100
AcDbSymbolTableRecord
100
AcDbTextStyleTableRecord
  2
ASAMI
 70
     0
 40
0.0
 41
1.0
 50
0.0
 71
     0
 42
2.5
  3
simplex.shx
  4
EXTFONT.SHX
  0
STYLE
  5
262
330
3
100
AcDbSymbolTableRecord
100
AcDbTextStyleTableRecord
  2
ACJISTS
 70
     0
 40
1.0
 41
1.0
 50
0.0
 71
     0
 42
2.5
  3
simplex.shx
  4
bigfont.shx
  0
STYLE
  5
269
330
3
100
AcDbSymbolTableRecord
100
AcDbTextStyleTableRecord
  2
ACJISGDT
 70
     0
 40
0.0
 41
1.0
 50
0.0
 71
     0
 42
2.5
  3
amgdtans.shx
  4

  0
ENDTAB
  0
TABLE
  2
VIEW
  5
6
330
0
100
AcDbSymbolTable
 70
     0
  0
ENDTAB
  0
TABLE
  2
UCS
  5
7
330
0
100
AcDbSymbolTable
 70
     0
  0
ENDTAB
  0
TABLE
  2
APPID
  5
9
330
0
100
AcDbSymbolTable
 70
    13
  0
APPID
  5
12
330
9
100
AcDbSymbolTableRecord
100
AcDbRegAppTableRecord
  2
ACAD
 70
     0
  0
APPID
  5
30
330
9
100
AcDbSymbolTableRecord
100
AcDbRegAppTableRecord
  2
MCAD_NO_VIS
 70
     0
  0
APPID
  5
31
330
9
100
AcDbSymbolTableRecord
100
AcDbRegAppTableRecord
  2
ACAD_TEMP_GRAPHIC
 70
     0
  0
APPID
  5
2C2
330
9
100
AcDbSymbolTableRecord
100
AcDbRegAppTableRecord
  2
GENIUS_GENDTOL_13
 70
     0
  0
APPID
  5
339
330
9
100
AcDbSymbolTableRecord
100
AcDbRegAppTableRecord
  2
GENIUS_GENODEF_13
 70
     0
  0
APPID
  5
33A
330
9
100
AcDbSymbolTableRecord
100
AcDbRegAppTableRecord
  2
GENIUS_GENOBJ-N-RSBK_13
 70
     0
  0
APPID
  5
33B
330
9
100
AcDbSymbolTableRecord
100
AcDbRegAppTableRecord
  2
GENIUS_GENOBJ-N-LIB_13
 70
     0
  0
APPID
  5
33C
330
9
100
AcDbSymbolTableRecord
100
AcDbRegAppTableRecord
  2
GENIUS_GENSCALE_13
 70
     0
  0
APPID
  5
378
330
9
100
AcDbSymbolTableRecord
100
AcDbRegAppTableRecord
  2
GENIUS_GENDIMSH_14
 70
     0
  0
APPID
  5
BD8
330
9
100
AcDbSymbolTableRecord
100
AcDbRegAppTableRecord
  2
GENIUS_GENOBJ-N-CEN_13
 70
     0
  0
APPID
  5
BD9
330
9
100
AcDbSymbolTableRecord
100
AcDbRegAppTableRecord
  2
GENIUS_GENFIL_13
 70
     0
  0
APPID
  5
BDA
330
9
100
AcDbSymbolTableRecord
100
AcDbRegAppTableRecord
  2
GENIUS_GENOBJ-N-CHA_13
 70
     0
  0
APPID
  5
2BC1
330
9
100
AcDbSymbolTableRecord
100
AcDbRegAppTableRecord
  2
GENIUS_GENOBJ-N-FIL_13
 70
     0
  0
ENDTAB
  0
TABLE
  2
DIMSTYLE
  5
A
330
0
100
AcDbSymbolTable
 70
     9
  0
DIMSTYLE
105
58
102
{ACAD_REACTORS
330
5119
330
5118
330
511A
330
5170
330
5171
330
5172
330
520E
330
520D
102
}
330
A
100
AcDbSymbolTableRecord
100
AcDbDimStyleTableRecord
  2
AM_JIS
 70
     0
  3

  4
"
  5
OPEN30
  6

  7

 40
1.0
 41
2.5
 42
1.0
 43
12.0
 44
1.0
 45
0.0
 46
0.0
 47
0.1
 48
0.1
140
3.2
141
0.0
142
0.0
143
0.0393701
144
1.0
145
0.0
146
0.71
147
1.5
 71
     0
 72
     0
 73
     0
 74
     0
 75
     0
 76
     0
 77
     3
 78
     8
170
     0
171
     2
172
     1
173
     0
174
     0
175
     0
176
   256
177
   256
178
     2
270
     2
271
     3
272
     3
273
     2
274
     2
340
6B
275
     0
280
     0
281
     0
282
     0
283
     0
284
     0
285
     0
286
     0
287
     3
288
     0
  0
DIMSTYLE
105
5F
330
A
100
AcDbSymbolTableRecord
100
AcDbDimStyleTableRecord
  2
AM_JIS$3
 70
     0
  3

  4
"
  5
OPEN30
  6

  7

 40
1.0
 41
2.5
 42
1.0
 43
10.0
 44
1.0
 45
0.0
 46
0.0
 47
0.1
 48
0.1
140
3.2
141
0.0
142
0.0
143
0.0393701
144
1.0
145
0.0
146
0.71
147
1.5
 71
     0
 72
     0
 73
     0
 74
     1
 75
     0
 76
     0
 77
     3
 78
     8
170
     0
171
     2
172
     0
173
     0
174
     0
175
     0
176
   256
177
   256
178
     2
270
     2
271
     2
272
     3
273
     2
274
     2
340
6B
275
     0
280
     0
281
     0
282
     0
283
     0
284
     0
285
     0
286
     0
287
     0
288
     1
  0
DIMSTYLE
105
60
330
A
100
AcDbSymbolTableRecord
100
AcDbDimStyleTableRecord
  2
AM_JIS$4
 70
     0
  3

  4
"
  5
OPEN30
  6

  7

 40
1.0
 41
2.5
 42
1.0
 43
10.0
 44
1.0
 45
0.0
 46
0.0
 47
0.1
 48
0.1
140
3.2
141
0.0
142
0.0
143
0.0393701
144
1.0
145
0.0
146
0.71
147
1.5
 71
     0
 72
     0
 73
     0
 74
     1
 75
     0
 76
     0
 77
     3
 78
     8
170
     0
171
     2
172
     0
173
     0
174
     0
175
     0
176
   256
177
   256
178
     2
270
     2
271
     2
272
     3
273
     2
274
     2
340
6B
275
     0
280
     0
281
     0
282
     0
283
     0
284
     0
285
     0
286
     0
287
     0
288
     1
  0
DIMSTYLE
105
61
330
A
100
AcDbSymbolTableRecord
100
AcDbDimStyleTableRecord
  2
AM_JIS$6
 70
     0
  3

  4
"
  5
OPEN30
  6

  7

 40
1.0
 41
2.5
 42
1.0
 43
10.0
 44
1.0
 45
0.0
 46
0.0
 47
0.1
 48
0.1
140
3.2
141
0.0
142
0.0
143
0.0393701
144
1.0
145
0.0
146
0.71
147
1.5
 71
     0
 72
     0
 73
     0
 74
     0
 75
     0
 76
     0
 77
     0
 78
     8
170
     0
171
     2
172
     1
173
     0
174
     0
175
     0
176
   256
177
   256
178
     2
270
     2
271
     2
272
     2
273
     2
274
     2
340
6B
275
     0
280
     0
281
     0
282
     0
283
     0
284
     0
285
     0
286
     0
287
     3
288
     0
  0
DIMSTYLE
105
62
330
A
100
AcDbSymbolTableRecord
100
AcDbDimStyleTableRecord
  2
AM_JIS$7
 70
     0
  3

  4
"
  5
OPEN30
  6

  7

 40
1.0
 41
2.5
 42
1.0
 43
10.0
 44
1.0
 45
0.0
 46
0.0
 47
0.1
 48
0.1
140
3.2
141
0.0
142
0.0
143
0.0393701
144
1.0
145
0.0
146
0.71
147
1.5
 71
     0
 72
     0
 73
     0
 74
     0
 75
     0
 76
     0
 77
     3
 78
     8
170
     0
171
     2
172
     1
173
     0
174
     0
175
     0
176
   256
177
   256
178
     2
270
     2
271
     2
272
     3
273
     2
274
     2
340
6B
275
     0
280
     0
281
     0
282
     0
283
     0
284
     0
285
     0
286
     0
287
     3
288
     0
  0
DIMSTYLE
105
63
330
A
100
AcDbSymbolTableRecord
100
AcDbDimStyleTableRecord
  2
AM_JIS$SF
 70
     0
  3

  4
"
  5
OPEN30
  6

  7

 40
1.0
 41
2.5
 42
1.0
 43
10.0
 44
1.0
 45
0.0
 46
0.0
 47
0.1
 48
0.1
140
3.2
141
0.0
142
0.0
143
0.0393701
144
1.0
145
0.0
146
0.71
147
1.5
 71
     0
 72
     0
 73
     0
 74
     0
 75
     1
 76
     1
 77
     3
 78
     8
170
     0
171
     2
172
     1
173
     0
174
     0
175
     0
176
   256
177
   256
178
     2
270
     2
271
     2
272
     2
273
     2
274
     2
340
6B
275
     0
280
     0
281
     0
282
     0
283
     0
284
     0
285
     0
286
     0
287
     3
288
     0
  0
DIMSTYLE
105
68
330
A
100
AcDbSymbolTableRecord
100
AcDbDimStyleTableRecord
  2
AM_JIS$SH
 70
     0
  3

  4
"
  5

  6
GENAXEH
  7
OPEN30
 40
1.0
 41
2.5
 42
1.0
 43
10.0
 44
1.0
 45
0.0
 46
0.0
 47
0.1
 48
0.1
140
3.2
141
0.0
142
0.0
143
0.0393701
144
2.0
145
0.0
146
0.71
147
1.5
 71
     0
 72
     0
 73
     0
 74
     0
 75
     1
 76
     1
 77
     3
 78
     8
170
     0
171
     2
172
     1
173
     1
174
     0
175
     0
176
   256
177
   256
178
     2
270
     2
271
     2
272
     2
273
     2
274
     2
340
6B
275
     0
280
     0
281
     0
282
     0
283
     0
284
     0
285
     0
286
     0
287
     3
288
     0
  0
DIMSTYLE
105
B34
102
{ACAD_REACTORS
330
55C6
102
}
330
A
100
AcDbSymbolTableRecord
100
AcDbDimStyleTableRecord
  2
AM_JIS$2
 70
     0
  3

  4
"
  5
OPEN30
  6

  7

 40
1.0
 41
2.5
 42
1.0
 43
12.0
 44
1.0
 45
0.0
 46
0.0
 47
0.1
 48
0.1
140
3.2
141
0.0
142
0.0
143
0.0393701
144
1.0
145
0.0
146
0.71
147
1.5
 71
     0
 72
     0
 73
     0
 74
     0
 75
     0
 76
     0
 77
     3
 78
     8
170
     0
171
     2
172
     1
173
     0
174
     0
175
     0
176
   256
177
   256
178
     2
270
     2
271
     3
272
     3
273
     2
274
     2
340
6B
275
     0
280
     0
281
     0
282
     0
283
     0
284
     0
285
     0
286
     0
287
     3
288
     0
  0
DIMSTYLE
105
1E42
330
A
100
AcDbSymbolTableRecord
100
AcDbDimStyleTableRecord
  2
AM_JIS$0
 70
     0
  3

  4
"
  5
OPEN30
  6

  7

 40
2.0
 41
2.5
 42
1.0
 43
10.0
 44
1.0
 45
0.0
 46
0.0
 47
0.1
 48
0.1
140
2.5
141
0.0
142
0.0
143
0.0393701
144
1.0
145
0.0
146
0.71
147
1.0
 71
     0
 72
     0
 73
     0
 74
     0
 75
     0
 76
     0
 77
     3
 78
     8
170
     0
171
     2
172
     1
173
     0
174
     0
175
     0
176
   256
177
   256
178
     4
270
     2
271
     3
272
     3
273
     2
274
     2
340
6B
275
     0
280
     0
281
     0
282
     0
283
     0
284
     0
285
     0
286
     0
287
     3
288
     0
  0
ENDTAB
  0
TABLE
  2
BLOCK_RECORD
  5
1
330
0
100
AcDbSymbolTable
 70
    14
  0
BLOCK_RECORD
  5
1F
102
{ACAD_XDICTIONARY
360
74
102
}
330
1
100
AcDbSymbolTableRecord
100
AcDbBlockTableRecord
  2
*MODEL_SPACE
  0
BLOCK_RECORD
  5
101
102
{ACAD_XDICTIONARY
360
5765
102
}
330
1
100
AcDbSymbolTableRecord
100
AcDbBlockTableRecord
  2
*PAPER_SPACE
  0
BLOCK_RECORD
  5
59
330
1
100
AcDbSymbolTableRecord
100
AcDbBlockTableRecord
  2
_OPEN30
  0
BLOCK_RECORD
  5
64
330
1
100
AcDbSymbolTableRecord
100
AcDbBlockTableRecord
  2
GENAXEH
  0
BLOCK_RECORD
  5
511B
330
1
100
AcDbSymbolTableRecord
100
AcDbBlockTableRecord
  2
*D5
  0
BLOCK_RECORD
  5
5127
330
1
100
AcDbSymbolTableRecord
100
AcDbBlockTableRecord
  2
*D6
  0
BLOCK_RECORD
  5
5133
330
1
100
AcDbSymbolTableRecord
100
AcDbBlockTableRecord
  2
*D7
  0
BLOCK_RECORD
  5
5173
330
1
100
AcDbSymbolTableRecord
100
AcDbBlockTableRecord
  2
*D8
  0
BLOCK_RECORD
  5
517F
330
1
100
AcDbSymbolTableRecord
100
AcDbBlockTableRecord
  2
*D9
  0
BLOCK_RECORD
  5
518B
330
1
100
AcDbSymbolTableRecord
100
AcDbBlockTableRecord
  2
*D10
  0
BLOCK_RECORD
  5
520F
330
1
100
AcDbSymbolTableRecord
100
AcDbBlockTableRecord
  2
*D11
  0
BLOCK_RECORD
  5
521B
330
1
100
AcDbSymbolTableRecord
100
AcDbBlockTableRecord
  2
*D12
  0
BLOCK_RECORD
  5
55C7
330
1
100
AcDbSymbolTableRecord
100
AcDbBlockTableRecord
  2
*D13
  0
ENDTAB
  0
ENDSEC
  0
SECTION
  2
BLOCKS
  0
BLOCK
  5
20
330
1F
100
AcDbEntity
  8
0
100
AcDbBlockBegin
  2
*MODEL_SPACE
 70
     0
 10
0.0
 20
0.0
 30
0.0
  3
*MODEL_SPACE
  1

  0
ENDBLK
  5
21
330
1F
100
AcDbEntity
  8
0
100
AcDbBlockEnd
  0
BLOCK
  5
103
330
101
100
AcDbEntity
 67
     1
  8
0
100
AcDbBlockBegin
  2
*PAPER_SPACE
 70
     0
 10
0.0
 20
0.0
 30
0.0
  3
*PAPER_SPACE
  1

  0
ENDBLK
  5
104
330
101
100
AcDbEntity
 67
     1
  8
0
100
AcDbBlockEnd
  0
BLOCK
  5
5D
330
59
100
AcDbEntity
  8
0
100
AcDbBlockBegin
  2
_OPEN30
 70
     0
 10
0.0
 20
0.0
 30
0.0
  3
_OPEN30
  1

  0
LINE
  5
5A
330
59
100
AcDbEntity
  8
0
 62
     0
100
AcDbLine
 10
-1.0
 20
0.26794919
 30
0.0
 11
0.0
 21
0.0
 31
0.0
  0
LINE
  5
5B
330
59
100
AcDbEntity
  8
0
 62
     0
100
AcDbLine
 10
0.0
 20
0.0
 30
0.0
 11
-1.0
 21
-0.26794919
 31
0.0
  0
LINE
  5
5C
330
59
100
AcDbEntity
  8
0
 62
     0
100
AcDbLine
 10
0.0
 20
0.0
 30
0.0
 11
-1.0
 21
0.0
 31
0.0
  0
ENDBLK
  5
5E
330
59
100
AcDbEntity
  8
0
100
AcDbBlockEnd
  0
BLOCK
  5
66
330
64
100
AcDbEntity
  8
0
100
AcDbBlockBegin
  2
GENAXEH
 70
     0
 10
0.0
 20
0.0
 30
0.0
  3
GENAXEH
  1

  0
LINE
  5
65
330
64
100
AcDbEntity
  8
0
100
AcDbLine
 10
-1.0
 20
0.0
 30
0.0
 11
1.0
 21
0.0
 31
0.0
  0
ENDBLK
  5
67
330
64
100
AcDbEntity
  8
0
100
AcDbBlockEnd
  0
BLOCK
  5
5125
330
511B
100
AcDbEntity
  8
0
100
AcDbBlockBegin
  2
*D5
 70
     1
 10
0.0
 20
0.0
 30
0.0
  3
*D5
  1

  0
LINE
  5
55A0
330
511B
100
AcDbEntity
  8
AM_5
100
AcDbLine
 10
-61.50000000000003
 20
19.04999999999999
 30
0.0
 11
-93.21695860785572
 21
19.05
 31
0.0
  0
LINE
  5
55A1
330
511B
100
AcDbEntity
  8
AM_5
100
AcDbLine
 10
-61.50000000000003
 20
-19.04999999999996
 30
0.0
 11
-93.21695860785572
 21
-19.04999999999995
 31
0.0
  0
LINE
  5
55A2
330
511B
100
AcDbEntity
  8
AM_5
100
AcDbLine
 10
-92.21695860785573
 20
16.55
 30
0.0
 11
-92.21695860785573
 21
-16.54999999999995
 31
0.0
  0
INSERT
  5
55A3
330
511B
100
AcDbEntity
  8
AM_5
100
AcDbBlockReference
  2
_OPEN30
 10
-92.21695860785573
 20
19.05
 30
0.0
 41
2.5
 42
2.5
 43
2.5
 50
90.0
  0
INSERT
  5
55A4
330
511B
100
AcDbEntity
  8
AM_5
100
AcDbBlockReference
  2
_OPEN30
 10
-92.21695860785573
 20
-19.04999999999995
 30
0.0
 41
2.5
 42
2.5
 43
2.5
 50
270.0
  0
MTEXT
  5
55A5
330
511B
100
AcDbEntity
  8
AM_5
 62
     2
100
AcDbMText
 10
-95.31695860785573
 20
0.0000000000000131
 30
0.0
 40
3.2
 41
0.0
 71
     5
 72
     1
  1
%%c38.1
  7
ASAMI
 11
0.0000000000000001
 21
1.0
 31
0.0
1001
ACAD
1000
MTEXTBEGIN
1070
    73
1070
     1
1070
    44
1040
1.0
1070
    74
1070
     0
1000
MTEXTEND
  0
POINT
  5
55A6
330
511B
100
AcDbEntity
  8
DEFPOINTS
 62
     0
100
AcDbPoint
 10
-60.50000000000003
 20
19.04999999999999
 30
0.0
  0
POINT
  5
55A7
330
511B
100
AcDbEntity
  8
DEFPOINTS
 62
     0
100
AcDbPoint
 10
-60.50000000000003
 20
-19.04999999999996
 30
0.0
  0
POINT
  5
55A8
330
511B
100
AcDbEntity
  8
DEFPOINTS
 62
     0
100
AcDbPoint
 10
-92.21695860785573
 20
-19.04999999999995
 30
0.0
  0
ENDBLK
  5
5126
330
511B
100
AcDbEntity
  8
0
100
AcDbBlockEnd
  0
BLOCK
  5
5131
330
5127
100
AcDbEntity
  8
0
100
AcDbBlockBegin
  2
*D6
 70
     1
 10
0.0
 20
0.0
 30
0.0
  3
*D6
  1

  0
LINE
  5
557A
330
5127
100
AcDbEntity
  8
AM_5
100
AcDbLine
 10
-62.00000000000002
 20
37.50000000000001
 30
0.0
 11
-103.2169586078557
 21
37.50000000000002
 31
0.0
  0
LINE
  5
557B
330
5127
100
AcDbEntity
  8
AM_5
100
AcDbLine
 10
-62.00000000000002
 20
-37.49999999999998
 30
0.0
 11
-103.2169586078557
 21
-37.49999999999998
 31
0.0
  0
LINE
  5
557C
330
5127
100
AcDbEntity
  8
AM_5
100
AcDbLine
 10
-102.2169586078557
 20
35.00000000000002
 30
0.0
 11
-102.2169586078557
 21
-34.99999999999998
 31
0.0
  0
INSERT
  5
557D
330
5127
100
AcDbEntity
  8
AM_5
100
AcDbBlockReference
  2
_OPEN30
 10
-102.2169586078557
 20
37.50000000000002
 30
0.0
 41
2.5
 42
2.5
 43
2.5
 50
90.0
  0
INSERT
  5
557E
330
5127
100
AcDbEntity
  8
AM_5
100
AcDbBlockReference
  2
_OPEN30
 10
-102.2169586078557
 20
-37.49999999999998
 30
0.0
 41
2.5
 42
2.5
 43
2.5
 50
270.0
  0
MTEXT
  5
557F
330
5127
100
AcDbEntity
  8
AM_5
 62
     2
100
AcDbMText
 10
-105.3169586078557
 20
0.0000000000000066
 30
0.0
 40
3.2
 41
0.0
 71
     5
 72
     1
  1
%%c75
  7
ASAMI
 11
0.0000000000000001
 21
1.0
 31
0.0
1001
ACAD
1000
MTEXTBEGIN
1070
    73
1070
     1
1070
    44
1040
1.0
1070
    74
1070
     0
1000
MTEXTEND
  0
POINT
  5
5580
330
5127
100
AcDbEntity
  8
DEFPOINTS
 62
     0
100
AcDbPoint
 10
-61.00000000000003
 20
37.50000000000001
 30
0.0
  0
POINT
  5
5581
330
5127
100
AcDbEntity
  8
DEFPOINTS
 62
     0
100
AcDbPoint
 10
-61.00000000000003
 20
-37.49999999999998
 30
0.0
  0
POINT
  5
5582
330
5127
100
AcDbEntity
  8
DEFPOINTS
 62
     0
100
AcDbPoint
 10
-102.2169586078557
 20
-37.49999999999998
 30
0.0
  0
ENDBLK
  5
5132
330
5127
100
AcDbEntity
  8
0
100
AcDbBlockEnd
  0
BLOCK
  5
513F
330
5133
100
AcDbEntity
  8
0
100
AcDbBlockBegin
  2
*D7
 70
     1
 10
0.0
 20
0.0
 30
0.0
  3
*D7
  1

  0
LINE
  5
5595
330
5133
100
AcDbEntity
  8
AM_5
100
AcDbLine
 10
-63.00000000000008
 20
7.949999999999974
 30
0.0
 11
-83.21695860785572
 21
7.949999999999979
 31
0.0
  0
LINE
  5
5596
330
5133
100
AcDbEntity
  8
AM_5
100
AcDbLine
 10
-63.00000000000008
 20
-7.949999999999945
 30
0.0
 11
-83.21695860785572
 21
-7.94999999999994
 31
0.0
  0
LINE
  5
5597
330
5133
100
AcDbEntity
  8
AM_5
100
AcDbLine
 10
-82.21695860785573
 20
10.44999999999997
 30
0.0
 11
-82.21695860785573
 21
12.94999999999997
 31
0.0
  0
LINE
  5
5598
330
5133
100
AcDbEntity
  8
AM_5
100
AcDbLine
 10
-82.21695860785573
 20
-10.44999999999994
 30
0.0
 11
-82.21695860785573
 21
-12.94999999999994
 31
0.0
  0
LINE
  5
5599
330
5133
100
AcDbEntity
  8
AM_5
100
AcDbLine
 10
-82.21695860785573
 20
7.949999999999979
 30
0.0
 11
-82.21695860785573
 21
-7.94999999999994
 31
0.0
  0
INSERT
  5
559A
330
5133
100
AcDbEntity
  8
AM_5
100
AcDbBlockReference
  2
_OPEN30
 10
-82.21695860785573
 20
7.949999999999979
 30
0.0
 41
2.5
 42
2.5
 43
2.5
 50
270.0
  0
INSERT
  5
559B
330
5133
100
AcDbEntity
  8
AM_5
100
AcDbBlockReference
  2
_OPEN30
 10
-82.21695860785573
 20
-7.94999999999994
 30
0.0
 41
2.5
 42
2.5
 43
2.5
 50
90.0
  0
MTEXT
  5
559C
330
5133
100
AcDbEntity
  8
AM_5
 62
     2
100
AcDbMText
 10
-85.31695860785573
 20
-0.0000000000000423
 30
0.0
 40
3.2
 41
0.0
 71
     5
 72
     1
  1
15.9
  7
ASAMI
 11
0.0000000000000001
 21
1.0
 31
0.0
1001
ACAD
1000
MTEXTBEGIN
1070
    73
1070
     1
1070
    44
1040
1.0
1070
    74
1070
     0
1000
MTEXTEND
  0
POINT
  5
559D
330
5133
100
AcDbEntity
  8
DEFPOINTS
 62
     0
100
AcDbPoint
 10
-62.00000000000009
 20
7.949999999999974
 30
0.0
  0
POINT
  5
559E
330
5133
100
AcDbEntity
  8
DEFPOINTS
 62
     0
100
AcDbPoint
 10
-62.00000000000009
 20
-7.949999999999945
 30
0.0
  0
POINT
  5
559F
330
5133
100
AcDbEntity
  8
DEFPOINTS
 62
     0
100
AcDbPoint
 10
-82.21695860785573
 20
-7.94999999999994
 30
0.0
  0
ENDBLK
  5
5140
330
5133
100
AcDbEntity
  8
0
100
AcDbBlockEnd
  0
BLOCK
  5
517D
330
5173
100
AcDbEntity
  8
0
100
AcDbBlockBegin
  2
*D8
 70
     1
 10
0.0
 20
0.0
 30
0.0
  3
*D8
  1

  0
LINE
  5
558C
330
5173
100
AcDbEntity
  8
AM_5
100
AcDbLine
 10
-63.00000000000006
 20
-36.49999999999998
 30
0.0
 11
-63.00000000000006
 21
-98.10000100999998
 31
0.0
  0
LINE
  5
558D
330
5173
100
AcDbEntity
  8
AM_5
100
AcDbLine
 10
-24.99999999999997
 20
-28.99999999999998
 30
0.0
 11
-24.99999999999997
 21
-98.10000100999998
 31
0.0
  0
LINE
  5
558E
330
5173
100
AcDbEntity
  8
AM_5
100
AcDbLine
 10
-60.50000000000006
 20
-97.10000100999998
 30
0.0
 11
-27.49999999999997
 21
-97.10000100999998
 31
0.0
  0
INSERT
  5
558F
330
5173
100
AcDbEntity
  8
AM_5
100
AcDbBlockReference
  2
_OPEN30
 10
-63.00000000000006
 20
-97.10000100999998
 30
0.0
 41
2.5
 42
2.5
 43
2.5
 50
180.0
  0
INSERT
  5
5590
330
5173
100
AcDbEntity
  8
AM_5
100
AcDbBlockReference
  2
_OPEN30
 10
-24.99999999999997
 20
-97.10000100999998
 30
0.0
 41
2.5
 42
2.5
 43
2.5
  0
MTEXT
  5
5591
330
5173
100
AcDbEntity
  8
AM_5
 62
     2
100
AcDbMText
 10
-44.00000000000002
 20
-94.00000100999998
 30
0.0
 40
3.2
 41
0.0
 71
     5
 72
     1
  1
38
  7
ASAMI
1001
ACAD
1000
MTEXTBEGIN
1070
    73
1070
     1
1070
    44
1040
1.0
1070
    74
1070
     0
1000
MTEXTEND
  0
POINT
  5
5592
330
5173
100
AcDbEntity
  8
DEFPOINTS
 62
     0
100
AcDbPoint
 10
-63.00000000000006
 20
-35.49999999999998
 30
0.0
  0
POINT
  5
5593
330
5173
100
AcDbEntity
  8
DEFPOINTS
 62
     0
100
AcDbPoint
 10
-24.99999999999997
 20
-27.99999999999998
 30
0.0
  0
POINT
  5
5594
330
5173
100
AcDbEntity
  8
DEFPOINTS
 62
     0
100
AcDbPoint
 10
-24.99999999999997
 20
-97.10000100999998
 30
0.0
  0
ENDBLK
  5
517E
330
5173
100
AcDbEntity
  8
0
100
AcDbBlockEnd
  0
BLOCK
  5
5189
330
517F
100
AcDbEntity
  8
0
100
AcDbBlockBegin
  2
*D9
 70
     1
 10
0.0
 20
0.0
 30
0.0
  3
*D9
  1

  0
LINE
  5
5568
330
517F
100
AcDbEntity
  8
AM_5
100
AcDbLine
 10
-63.00000000000006
 20
-36.49999999999998
 30
0.0
 11
-63.00000000000006
 21
-108.1000010099999
 31
0.0
  0
LINE
  5
5569
330
517F
100
AcDbEntity
  8
AM_5
100
AcDbLine
 10
0.0000000000000568
 20
-63.50000000004468
 30
0.0
 11
0.0000000000000541
 21
-108.1000010099999
 31
0.0
  0
LINE
  5
556A
330
517F
100
AcDbEntity
  8
AM_5
100
AcDbLine
 10
-60.50000000000006
 20
-107.1000010099999
 30
0.0
 11
-2.499999999999945
 21
-107.1000010099999
 31
0.0
  0
INSERT
  5
556B
330
517F
100
AcDbEntity
  8
AM_5
100
AcDbBlockReference
  2
_OPEN30
 10
-63.00000000000006
 20
-107.1000010099999
 30
0.0
 41
2.5
 42
2.5
 43
2.5
 50
180.0
  0
INSERT
  5
556C
330
517F
100
AcDbEntity
  8
AM_5
100
AcDbBlockReference
  2
_OPEN30
 10
0.0000000000000541
 20
-107.1000010099999
 30
0.0
 41
2.5
 42
2.5
 43
2.5
  0
MTEXT
  5
556D
330
517F
100
AcDbEntity
  8
AM_5
 62
     2
100
AcDbMText
 10
-31.5
 20
-104.0000010099999
 30
0.0
 40
3.2
 41
0.0
 71
     5
 72
     1
  1
63
  7
ASAMI
1001
ACAD
1000
MTEXTBEGIN
1070
    73
1070
     1
1070
    44
1040
1.0
1070
    74
1070
     0
1000
MTEXTEND
  0
POINT
  5
556E
330
517F
100
AcDbEntity
  8
DEFPOINTS
 62
     0
100
AcDbPoint
 10
-63.00000000000006
 20
-35.49999999999998
 30
0.0
  0
POINT
  5
556F
330
517F
100
AcDbEntity
  8
DEFPOINTS
 62
     0
100
AcDbPoint
 10
0.0000000000000568
 20
-62.50000000004468
 30
0.0
  0
POINT
  5
5570
330
517F
100
AcDbEntity
  8
DEFPOINTS
 62
     0
100
AcDbPoint
 10
0.0000000000000541
 20
-107.1000010099999
 30
0.0
  0
ENDBLK
  5
518A
330
517F
100
AcDbEntity
  8
0
100
AcDbBlockEnd
  0
BLOCK
  5
5197
330
518B
100
AcDbEntity
  8
0
100
AcDbBlockBegin
  2
*D10
 70
     1
 10
0.0
 20
0.0
 30
0.0
  3
*D10
  1

  0
LINE
  5
5583
330
518B
100
AcDbEntity
  8
AM_5
100
AcDbLine
 10
-63.00000000000006
 20
-36.49999999999998
 30
0.0
 11
-63.00000000000006
 21
-88.10000100999998
 31
0.0
  0
LINE
  5
5584
330
518B
100
AcDbEntity
  8
AM_5
100
AcDbLine
 10
-52.99999999999991
 20
-8.949999999999974
 30
0.0
 11
-52.99999999999992
 21
-88.10000100999998
 31
0.0
  0
LINE
  5
5585
330
518B
100
AcDbEntity
  8
AM_5
100
AcDbLine
 10
-60.50000000000006
 20
-87.10000100999998
 30
0.0
 11
-55.49999999999992
 21
-87.10000100999998
 31
0.0
  0
INSERT
  5
5586
330
518B
100
AcDbEntity
  8
AM_5
100
AcDbBlockReference
  2
_OPEN30
 10
-63.00000000000006
 20
-87.10000100999998
 30
0.0
 41
2.5
 42
2.5
 43
2.5
 50
180.0
  0
INSERT
  5
5587
330
518B
100
AcDbEntity
  8
AM_5
100
AcDbBlockReference
  2
_OPEN30
 10
-52.99999999999992
 20
-87.10000100999998
 30
0.0
 41
2.5
 42
2.5
 43
2.5
  0
MTEXT
  5
5588
330
518B
100
AcDbEntity
  8
AM_5
 62
     2
100
AcDbMText
 10
-57.99999999999998
 20
-84.00000100999999
 30
0.0
 40
3.2
 41
0.0
 71
     5
 72
     1
  1
10
  7
ASAMI
1001
ACAD
1000
MTEXTBEGIN
1070
    73
1070
     1
1070
    44
1040
1.0
1070
    74
1070
     0
1000
MTEXTEND
  0
POINT
  5
5589
330
518B
100
AcDbEntity
  8
DEFPOINTS
 62
     0
100
AcDbPoint
 10
-63.00000000000006
 20
-35.49999999999998
 30
0.0
  0
POINT
  5
558A
330
518B
100
AcDbEntity
  8
DEFPOINTS
 62
     0
100
AcDbPoint
 10
-52.99999999999991
 20
-7.949999999999974
 30
0.0
  0
POINT
  5
558B
330
518B
100
AcDbEntity
  8
DEFPOINTS
 62
     0
100
AcDbPoint
 10
-52.99999999999992
 20
-87.10000100999998
 30
0.0
  0
ENDBLK
  5
5198
330
518B
100
AcDbEntity
  8
0
100
AcDbBlockEnd
  0
BLOCK
  5
5219
330
520F
100
AcDbEntity
  8
0
100
AcDbBlockBegin
  2
*D11
 70
     1
 10
0.0
 20
0.0
 30
0.0
  3
*D11
  1

  0
LINE
  5
5571
330
520F
100
AcDbEntity
  8
AM_5
100
AcDbLine
 10
-20.50000000000002
 20
27.99999999999998
 30
0.0
 11
21.72245897107839
 21
27.99999999999997
 31
0.0
  0
LINE
  5
5572
330
520F
100
AcDbEntity
  8
AM_5
100
AcDbLine
 10
-20.50000000000002
 20
-27.99999999999995
 30
0.0
 11
21.72245897107838
 21
-27.99999999999997
 31
0.0
  0
LINE
  5
5573
330
520F
100
AcDbEntity
  8
AM_5
100
AcDbLine
 10
20.72245897107839
 20
25.49999999999997
 30
0.0
 11
20.72245897107838
 21
-25.49999999999997
 31
0.0
  0
INSERT
  5
5574
330
520F
100
AcDbEntity
  8
AM_5
100
AcDbBlockReference
  2
_OPEN30
 10
20.72245897107839
 20
27.99999999999997
 30
0.0
 41
2.5
 42
2.5
 43
2.5
 50
90.0
  0
INSERT
  5
5575
330
520F
100
AcDbEntity
  8
AM_5
100
AcDbBlockReference
  2
_OPEN30
 10
20.72245897107838
 20
-27.99999999999997
 30
0.0
 41
2.5
 42
2.5
 43
2.5
 50
270.0
  0
MTEXT
  5
5576
330
520F
100
AcDbEntity
  8
AM_5
 62
     2
100
AcDbMText
 10
17.62245897107838
 20
0.0000000000000062
 30
0.0
 40
3.2
 41
0.0
 71
     5
 72
     1
  1
%%c56
  7
ASAMI
 11
0.0000000000000001
 21
1.0
 31
0.0
1001
ACAD
1000
MTEXTBEGIN
1070
    73
1070
     1
1070
    44
1040
1.0
1070
    74
1070
     0
1000
MTEXTEND
  0
POINT
  5
5577
330
520F
100
AcDbEntity
  8
DEFPOINTS
 62
     0
100
AcDbPoint
 10
-21.50000000000003
 20
27.99999999999998
 30
0.0
  0
POINT
  5
5578
330
520F
100
AcDbEntity
  8
DEFPOINTS
 62
     0
100
AcDbPoint
 10
-21.50000000000003
 20
-27.99999999999995
 30
0.0
  0
POINT
  5
5579
330
520F
100
AcDbEntity
  8
DEFPOINTS
 62
     0
100
AcDbPoint
 10
20.72245897107838
 20
-27.99999999999997
 30
0.0
  0
ENDBLK
  5
521A
330
520F
100
AcDbEntity
  8
0
100
AcDbBlockEnd
  0
BLOCK
  5
5225
330
521B
100
AcDbEntity
  8
0
100
AcDbBlockBegin
  2
*D12
 70
     1
 10
0.0
 20
0.0
 30
0.0
  3
*D12
  1

  0
LINE
  5
55A9
330
521B
100
AcDbEntity
  8
AM_5
100
AcDbLine
 10
0.9999999999999431
 20
62.50000000000001
 30
0.0
 11
31.72245897107841
 21
62.5
 31
0.0
  0
LINE
  5
55AA
330
521B
100
AcDbEntity
  8
AM_5
100
AcDbLine
 10
1.000000000000056
 20
-62.49999999999986
 30
0.0
 11
31.72245897107838
 21
-62.49999999999987
 31
0.0
  0
LINE
  5
55AB
330
521B
100
AcDbEntity
  8
AM_5
100
AcDbLine
 10
30.72245897107841
 20
60.0
 30
0.0
 11
30.72245897107838
 21
-59.99999999999987
 31
0.0
  0
INSERT
  5
55AC
330
521B
100
AcDbEntity
  8
AM_5
100
AcDbBlockReference
  2
_OPEN30
 10
30.72245897107841
 20
62.5
 30
0.0
 41
2.5
 42
2.5
 43
2.5
 50
90.0
  0
INSERT
  5
55AD
330
521B
100
AcDbEntity
  8
AM_5
100
AcDbBlockReference
  2
_OPEN30
 10
30.72245897107838
 20
-62.49999999999987
 30
0.0
 41
2.5
 42
2.5
 43
2.5
 50
270.0
  0
MTEXT
  5
55AE
330
521B
100
AcDbEntity
  8
AM_5
 62
     2
100
AcDbMText
 10
27.62245897107839
 20
0.0000000000000731
 30
0.0
 40
3.2
 41
0.0
 71
     5
 72
     1
  1
%%c125
  7
ASAMI
 11
0.0000000000000001
 21
1.0
 31
0.0
1001
ACAD
1000
MTEXTBEGIN
1070
    73
1070
     1
1070
    44
1040
1.0
1070
    74
1070
     0
1000
MTEXTEND
  0
POINT
  5
55AF
330
521B
100
AcDbEntity
  8
DEFPOINTS
 62
     0
100
AcDbPoint
 10
-0.0000000000000568
 20
62.50000000000001
 30
0.0
  0
POINT
  5
55B0
330
521B
100
AcDbEntity
  8
DEFPOINTS
 62
     0
100
AcDbPoint
 10
0.0000000000000568
 20
-62.49999999999986
 30
0.0
  0
POINT
  5
55B1
330
521B
100
AcDbEntity
  8
DEFPOINTS
 62
     0
100
AcDbPoint
 10
30.72245897107838
 20
-62.49999999999987
 30
0.0
  0
ENDBLK
  5
5226
330
521B
100
AcDbEntity
  8
0
100
AcDbBlockEnd
  0
BLOCK
  5
55D7
330
55C7
100
AcDbEntity
  8
0
100
AcDbBlockBegin
  2
*D13
 70
     1
 10
0.0
 20
0.0
 30
0.0
  3
*D13
  1

  0
LINE
  5
569C
330
55C7
100
AcDbEntity
  8
AM_5
100
AcDbLine
 10
-6.684458140310333
 20
-69.56159047098832
 30
0.0
 11
-21.19139190249777
 21
-84.88699502405902
 31
0.0
  0
LINE
  5
569D
330
55C7
100
AcDbEntity
  8
AM_5
100
AcDbLine
 10
0.0000000000000568
 20
-63.50000000004468
 30
0.0
 11
0.0000000000000853
 21
-93.32616805528203
 31
0.0
  0
ARC
  5
569E
330
55C7
100
AcDbEntity
  8
AM_5
100
AcDbCircle
 10
0.0000000000000533
 20
-62.49999999999987
 30
0.0
 40
29.82616805528217
100
AcDbArc
 50
231.3754377333031
 51
265.1961172881261
  0
INSERT
  5
569F
330
55C7
100
AcDbEntity
  8
AM_5
100
AcDbBlockReference
  2
_OPEN30
 10
-20.50394376218743
 20
-84.16076155307063
 30
0.0
 41
2.5
 42
2.5
 43
2.5
 50
138.9734963773662
  0
INSERT
  5
56A0
330
55C7
100
AcDbEntity
  8
AM_5
100
AcDbBlockReference
  2
_OPEN30
 10
0.0000000000000817
 20
-92.32616805528206
 30
0.0
 41
2.5
 42
2.5
 43
2.5
 50
357.5980586440631
  0
MTEXT
  5
56A1
330
55C7
100
AcDbEntity
  8
AM_5
 62
     2
100
AcDbMText
 10
-9.888077735453435
 20
-87.32969950717906
 30
0.0
 40
3.2
 41
0.0
 71
     5
 72
     1
  1
45%%d
  7
ASAMI
 11
0.9290407609433493
 21
-0.3699773837760927
 31
0.0
1001
ACAD
1000
MTEXTBEGIN
1070
    73
1070
     1
1070
    44
1040
1.0
1070
    74
1070
     0
1000
MTEXTEND
  0
POINT
  5
56A2
330
55C7
100
AcDbEntity
  8
DEFPOINTS
 62
     0
100
AcDbPoint
 10
-14.43828904306074
 20
-88.59858445147857
 30
0.0
  0
POINT
  5
56A3
330
55C7
100
AcDbEntity
  8
DEFPOINTS
 62
     0
100
AcDbPoint
 10
-5.997009999999992
 20
-68.83535699999993
 30
0.0
  0
POINT
  5
56A4
330
55C7
100
AcDbEntity
  8
DEFPOINTS
 62
     0
100
AcDbPoint
 10
-0.0000000000000604
 20
62.50000000000001
 30
0.0
  0
POINT
  5
56A5
330
55C7
100
AcDbEntity
  8
DEFPOINTS
 62
     0
100
AcDbPoint
 10
0.0000000000000568
 20
-62.50000000004469
 30
0.0
  0
POINT
  5
56A6
330
55C7
100
AcDbEntity
  8
DEFPOINTS
 62
     0
100
AcDbPoint
 10
-0.0000000000000568
 20
-62.5
 30
0.0
  0
ENDBLK
  5
55D8
330
55C7
100
AcDbEntity
  8
0
100
AcDbBlockEnd
  0
ENDSEC
  0
SECTION
  2
ENTITIES
  0
TEXT
  5
E5A
330
1F
100
AcDbEntity
  8
AM_6
100
AcDbText
 10
-47.2142857142857
 20
-129.6000010099999
 30
0.0
 40
5.0
  1
UFO4125
 72
     4
 11
-31.49999999999999
 21
-127.1000010099999
 31
0.0
100
AcDbText
  0
LINE
  5
44DA
330
1F
100
AcDbEntity
  8
AM_7
100
AcDbLine
 10
-68.21695760785573
 20
0.0000000000000142
 30
0.0
 11
6.722457971078398
 21
0.0
 31
0.0
  0
LINE
  5
44DB
330
1F
100
AcDbEntity
  8
AM_3
100
AcDbLine
 10
-2.000000000000028
 20
58.80000000000002
 30
0.0
 11
-2.000000000000028
 21
57.52106729942526
 31
0.0
  0
LINE
  5
44DC
330
1F
100
AcDbEntity
  8
AM_0
100
AcDbLine
 10
-20.50000000000002
 20
33.78000000000001
 30
0.0
 11
-20.50000000000002
 21
27.99999999999998
 31
0.0
  0
LINE
  5
44DD
330
1F
100
AcDbEntity
  8
AM_0
100
AcDbLine
 10
-63.00000000000002
 20
35.50000000000001
 30
0.0
 11
-63.00000000000003
 21
8.949999999999974
 31
0.0
  0
LINE
  5
44DF
330
1F
100
AcDbEntity
  8
AM_0
100
AcDbLine
 10
-21.50000000000003
 20
-27.99999999999995
 30
0.0
 11
-21.50000000000003
 21
27.99999999999998
 31
0.0
  0
LINE
  5
44E0
330
1F
100
AcDbEntity
  8
AM_0
100
AcDbLine
 10
-24.99999999999997
 20
-27.99999999999998
 30
0.0
 11
-25.00000000000014
 21
0.0000000000000142
 31
0.0
  0
LINE
  5
44E1
330
1F
100
AcDbEntity
  8
AM_0
100
AcDbLine
 10
-20.50000000000002
 20
-27.99999999999995
 30
0.0
 11
-20.50000000000002
 21
0.0000000000000142
 31
0.0
  0
LINE
  5
44E2
330
1F
100
AcDbEntity
  8
AM_0
100
AcDbLine
 10
-63.00000000000003
 20
-35.49999999999998
 30
0.0
 11
-63.00000000000003
 21
-8.949999999999945
 31
0.0
  0
LINE
  5
44E3
330
1F
100
AcDbEntity
  8
AM_0
100
AcDbLine
 10
-30.49009518031565
 20
-73.09999999999998
 30
0.0
 11
-11.3000000000002
 21
-73.09999999999998
 31
0.0
  0
LINE
  5
44E5
330
1F
100
AcDbEntity
  8
AM_0
100
AcDbLine
 10
-44.97898257465166
 20
-61.98228567653778
 30
0.0
 11
-49.95020054406714
 21
-43.42944763917983
 31
0.0
  0
LINE
  5
44E7
330
1F
100
AcDbEntity
  8
AM_0
100
AcDbLine
 10
-61.00000000000003
 20
-37.49999999999998
 30
0.0
 11
-57.67760715437967
 21
-37.49999999999998
 31
0.0
  0
LINE
  5
44E9
330
1F
100
AcDbEntity
  8
AM_0
100
AcDbLine
 10
-21.00000000000008
 20
-38.77999999999994
 30
0.0
 11
-21.00000000000002
 21
-33.77999999999998
 31
0.0
  0
LINE
  5
44EA
330
1F
100
AcDbEntity
  8
AM_0
100
AcDbLine
 10
-21.00000000000002
 20
-33.77999999999998
 30
0.0
 11
-20.50000000000002
 21
-33.77999999999998
 31
0.0
  0
LINE
  5
44EB
330
1F
100
AcDbEntity
  8
AM_0
100
AcDbLine
 10
-24.99999999999997
 20
-27.99999999999995
 30
0.0
 11
-21.50000000000003
 21
-27.99999999999995
 31
0.0
  0
LINE
  5
44EC
330
1F
100
AcDbEntity
  8
AM_0
100
AcDbLine
 10
-21.50000000000003
 20
-27.99999999999995
 30
0.0
 11
-20.50000000000002
 21
-28.99999999999995
 31
0.0
  0
LINE
  5
44ED
330
1F
100
AcDbEntity
  8
AM_0
100
AcDbLine
 10
-20.50000000000002
 20
-33.77999999999998
 30
0.0
 11
-20.50000000000002
 21
-27.99999999999995
 31
0.0
  0
LINE
  5
44EE
330
1F
100
AcDbEntity
  8
AM_3
100
AcDbLine
 10
-2.000000000000028
 20
-62.39999999999999
 30
0.0
 11
-2.000000000000028
 21
-58.79999999999999
 31
0.0
  0
LINE
  5
44F0
330
1F
100
AcDbEntity
  8
AM_0
100
AcDbLine
 10
-20.50000000000002
 20
27.99999999999998
 30
0.0
 11
-20.50000000000002
 21
0.0000000000000142
 31
0.0
  0
LINE
  5
44F1
330
1F
100
AcDbEntity
  8
AM_0
100
AcDbLine
 10
-24.99999999999997
 20
28.00000000000001
 30
0.0
 11
-25.00000000000014
 21
0.000000000000006
 31
0.0
  0
LINE
  5
44F2
330
1F
100
AcDbEntity
  8
AM_0
100
AcDbLine
 10
-52.99999999999991
 20
7.950000000000002
 30
0.0
 11
-52.99999999999991
 21
-0.0000000000000142
 31
0.0
  0
LINE
  5
44F3
330
1F
100
AcDbEntity
  8
AM_0
100
AcDbLine
 10
-51.74093667927317
 20
-18.80000000000001
 30
0.0
 11
-26.00000000000008
 21
-18.79999999999996
 31
0.0
  0
LINE
  5
44F6
330
1F
100
AcDbEntity
  8
AM_0
100
AcDbLine
 10
-60.50000000000003
 20
-19.04999999999996
 30
0.0
 11
-58.90000000000012
 21
-19.04999999999996
 31
0.0
  0
LINE
  5
44F7
330
1F
100
AcDbEntity
  8
AM_0
100
AcDbLine
 10
-58.90000000000012
 20
-19.04999999999996
 30
0.0
 11
-51.74093667927317
 21
-18.80000000000001
 31
0.0
  0
LINE
  5
44F8
330
1F
100
AcDbEntity
  8
AM_0
100
AcDbLine
 10
-58.90000000000012
 20
-19.04999999999996
 30
0.0
 11
-58.90000000000013
 21
-7.949999999999945
 31
0.0
  0
LINE
  5
44F9
330
1F
100
AcDbEntity
  8
AM_0
100
AcDbLine
 10
-51.74093667927317
 20
-18.80000000000001
 30
0.0
 11
-51.74093667927317
 21
18.80000000000005
 31
0.0
  0
LINE
  5
44FA
330
1F
100
AcDbEntity
  8
AM_0
100
AcDbLine
 10
-62.00000000000009
 20
-7.949999999999945
 30
0.0
 11
-52.99999999999991
 21
-7.949999999999945
 31
0.0
  0
LINE
  5
44FB
330
1F
100
AcDbEntity
  8
AM_0
100
AcDbLine
 10
-52.99999999999991
 20
-7.949999999999974
 30
0.0
 11
-52.99999999999991
 21
0.0000000000000426
 31
0.0
  0
LINE
  5
44FD
330
1F
100
AcDbEntity
  8
AM_0
100
AcDbLine
 10
-51.74093667927317
 20
18.80000000000005
 30
0.0
 11
-26.00000000000002
 21
18.8
 31
0.0
  0
LINE
  5
44FF
330
1F
100
AcDbEntity
  8
AM_0
100
AcDbLine
 10
-58.90000000000012
 20
19.04999999999999
 30
0.0
 11
-58.90000000000012
 21
7.949999999999975
 31
0.0
  0
LINE
  5
4501
330
1F
100
AcDbEntity
  8
AM_0
100
AcDbLine
 10
-62.00000000000002
 20
7.949999999999974
 30
0.0
 11
-52.99999999999991
 21
7.949999999999974
 31
0.0
  0
LINE
  5
4503
330
1F
100
AcDbEntity
  8
AM_0
100
AcDbLine
 10
-58.90000000000012
 20
19.04999999999999
 30
0.0
 11
-51.74093667927317
 21
18.80000000000005
 31
0.0
  0
LINE
  5
4504
330
1F
100
AcDbEntity
  8
AM_0
100
AcDbLine
 10
-60.50000000000002
 20
19.04999999999999
 30
0.0
 11
-58.90000000000012
 21
19.04999999999999
 31
0.0
  0
LINE
  5
4506
330
1F
100
AcDbEntity
  8
AM_0
100
AcDbLine
 10
-21.50000000000003
 20
27.99999999999998
 30
0.0
 11
-20.50000000000002
 21
28.99999999999998
 31
0.0
  0
LINE
  5
4507
330
1F
100
AcDbEntity
  8
AM_0
100
AcDbLine
 10
-24.99999999999997
 20
27.99999999999998
 30
0.0
 11
-21.50000000000003
 21
27.99999999999998
 31
0.0
  0
LINE
  5
4509
330
1F
100
AcDbEntity
  8
AM_3
100
AcDbLine
 10
-2.000000000000028
 20
58.80000000000002
 30
0.0
 11
-10.3523333496652
 21
49.99927822840545
 31
0.0
  0
LINE
  5
450A
330
1F
100
AcDbEntity
  8
AM_0
100
AcDbLine
 10
-30.49009518031567
 20
73.10000000000001
 30
0.0
 11
-11.3000000000002
 21
73.10000000000001
 31
0.0
  0
LINE
  5
450B
330
1F
100
AcDbEntity
  8
AM_0
100
AcDbLine
 10
-44.9789825746517
 20
61.9822856765378
 30
0.0
 11
-49.95020054406714
 21
43.42944763917986
 31
0.0
  0
LINE
  5
450E
330
1F
100
AcDbEntity
  8
AM_0
100
AcDbLine
 10
-57.67760715437969
 20
37.50000000000001
 30
0.0
 11
-61.00000000000002
 21
37.50000000000001
 31
0.0
  0
LINE
  5
450F
330
1F
100
AcDbEntity
  8
AM_0
100
AcDbLine
 10
-21.00000000000002
 20
33.78000000000001
 30
0.0
 11
-20.50000000000002
 21
33.78000000000001
 31
0.0
  0
LINE
  5
4510
330
1F
100
AcDbEntity
  8
AM_0
100
AcDbLine
 10
-21.00000000000008
 20
38.78
 30
0.0
 11
-21.00000000000002
 21
33.78000000000001
 31
0.0
  0
LINE
  5
4512
330
1F
100
AcDbEntity
  8
AM_3
100
AcDbLine
 10
-7.515467068759674
 20
68.74575243394916
 30
0.0
 11
-2.000000000000028
 21
62.40000000000001
 31
0.0
  0
LINE
  5
4513
330
1F
100
AcDbEntity
  8
AM_3
100
AcDbLine
 10
-2.0
 20
62.39999999999996
 30
0.0
 11
-2.000000000000028
 21
58.80000000000002
 31
0.0
  0
LINE
  5
4D55
330
1F
100
AcDbEntity
  8
AM_3
100
AcDbLine
 10
-7.515467068759683
 20
-68.74575243394912
 30
0.0
 11
-2.000000000000028
 21
-62.39999999999999
 31
0.0
  0
LINE
  5
5009
330
1F
100
AcDbEntity
  8
AM_3
100
AcDbLine
 10
-2.000000000000028
 20
-58.79999999999999
 30
0.0
 11
-10.35233334966521
 21
-49.99927822840541
 31
0.0
  0
DIMENSION
  5
5118
330
1F
100
AcDbEntity
  8
AM_5
100
AcDbDimension
  2
*D6
 10
-102.2169586078557
 20
-37.49999999999998
 30
0.0
 11
-105.3169586078557
 21
0.0000000000000066
 31
0.0
 70
    32
  1
%%c<>
  3
AM_JIS
100
AcDbAlignedDimension
 13
-61.00000000000003
 23
37.50000000000001
 33
0.0
 14
-61.00000000000003
 24
-37.49999999999998
 34
0.0
 50
90.0
100
AcDbRotatedDimension
1001
GENIUS_GENDTOL_13
1000

1000
h7
1000

1040
0.0
  0
DIMENSION
  5
5119
330
1F
100
AcDbEntity
  8
AM_5
100
AcDbDimension
  2
*D5
 10
-92.21695860785573
 20
-19.04999999999995
 30
0.0
 11
-95.31695860785573
 21
0.0000000000000131
 31
0.0
 70
    32
  1
%%c<>
  3
AM_JIS
100
AcDbAlignedDimension
 13
-60.50000000000003
 23
19.04999999999999
 33
0.0
 14
-60.50000000000003
 24
-19.04999999999996
 34
0.0
 50
90.0
100
AcDbRotatedDimension
1001
GENIUS_GENDTOL_13
1000

1000
h7
1000

1040
0.0
  0
DIMENSION
  5
511A
330
1F
100
AcDbEntity
  8
AM_5
100
AcDbDimension
  2
*D7
 10
-82.21695860785573
 20
-7.94999999999994
 30
0.0
 11
-82.21695860785573
 21
-0.0000000000000426
 31
0.0
 70
   160
  3
AM_JIS
100
AcDbAlignedDimension
 13
-62.00000000000009
 23
7.949999999999974
 33
0.0
 14
-62.00000000000009
 24
-7.949999999999945
 34
0.0
 50
90.0
100
AcDbRotatedDimension
  0
DIMENSION
  5
5170
330
1F
100
AcDbEntity
  8
AM_5
100
AcDbDimension
  2
*D8
 10
-24.99999999999997
 20
-97.10000100999998
 30
0.0
 11
-44.00000000000002
 21
-94.00000100999998
 31
0.0
 70
    32
  3
AM_JIS
100
AcDbAlignedDimension
 13
-63.00000000000006
 23
-35.49999999999998
 33
0.0
 14
-24.99999999999997
 24
-27.99999999999998
 34
0.0
100
AcDbRotatedDimension
  0
DIMENSION
  5
5171
330
1F
100
AcDbEntity
  8
AM_5
100
AcDbDimension
  2
*D9
 10
0.0000000000000541
 20
-107.1000010099999
 30
0.0
 11
-31.5
 21
-104.0000010099999
 31
0.0
 70
    32
  3
AM_JIS
100
AcDbAlignedDimension
 13
-63.00000000000006
 23
-35.49999999999998
 33
0.0
 14
0.0000000000000568
 24
-62.50000000004468
 34
0.0
100
AcDbRotatedDimension
  0
DIMENSION
  5
5172
330
1F
100
AcDbEntity
  8
AM_5
100
AcDbDimension
  2
*D10
 10
-52.99999999999992
 20
-87.10000100999998
 30
0.0
 11
-57.99999999999998
 21
-84.00000100999999
 31
0.0
 70
    32
  3
AM_JIS
100
AcDbAlignedDimension
 13
-63.00000000000006
 23
-35.49999999999998
 33
0.0
 14
-52.99999999999991
 24
-7.949999999999974
 34
0.0
100
AcDbRotatedDimension
  0
DIMENSION
  5
520D
330
1F
100
AcDbEntity
  8
AM_5
100
AcDbDimension
  2
*D12
 10
30.72245897107838
 20
-62.49999999999987
 30
0.0
 11
27.62245897107839
 21
0.0000000000000731
 31
0.0
 70
    32
  1
%%c<>
  3
AM_JIS
100
AcDbAlignedDimension
 13
-0.0000000000000568
 23
62.50000000000001
 33
0.0
 14
0.0000000000000568
 24
-62.49999999999986
 34
0.0
 50
90.0
100
AcDbRotatedDimension
1001
GENIUS_GENDTOL_13
1000

1000
h7
1000

1040
0.0
  0
DIMENSION
  5
520E
330
1F
100
AcDbEntity
  8
AM_5
100
AcDbDimension
  2
*D11
 10
20.72245897107838
 20
-27.99999999999997
 30
0.0
 11
17.62245897107838
 21
0.0000000000000062
 31
0.0
 70
    32
  1
%%c<>
  3
AM_JIS
100
AcDbAlignedDimension
 13
-21.50000000000003
 23
27.99999999999998
 33
0.0
 14
-21.50000000000003
 24
-27.99999999999995
 34
0.0
 50
90.0
100
AcDbRotatedDimension
1001
GENIUS_GENDTOL_13
1000

1000
h7
1000

1040
0.0
  0
LINE
  5
53D9
330
1F
100
AcDbEntity
  8
AM_0
100
AcDbLine
 10
-26.87907100000001
 20
66.97095700000001
 30
0.0
 11
-24.36253400000004
 21
64.31243799999994
 31
0.0
  0
LINE
  5
53DA
330
1F
100
AcDbEntity
  8
AM_0
100
AcDbLine
 10
-23.22121200000009
 20
71.98674599999994
 30
0.0
 11
-26.87907100000001
 21
66.97095700000001
 31
0.0
  0
LINE
  5
53DB
330
1F
100
AcDbEntity
  8
AM_0
100
AcDbLine
 10
-24.87076500000006
 20
72.59628799999997
 30
0.0
 11
-27.80187800000004
 21
68.57703999999991
 31
0.0
  0
ELLIPSE
  5
53DC
330
1F
100
AcDbEntity
  8
AM_0
100
AcDbEllipse
 10
-25.50360300000005
 20
66.63709399999994
 30
0.0
 11
-2.290639612009
 21
1.949631823684
 31
0.0
210
0.0
220
0.0
230
1.0
 40
0.2334633752270999
 41
0.017551370222918
 42
1.137178375746189
  0
ELLIPSE
  5
53DD
330
1F
100
AcDbEntity
  8
AM_0
100
AcDbEllipse
 10
-21.07925200000005
 20
72.70392399999993
 30
0.0
 11
3.804017266616
 21
0.143288961596
 31
0.0
210
0.0
220
0.0
230
0.9999999999999998
 40
0.1084186759450099
 41
2.382733006633379
 42
3.056298966713689
  0
ELLIPSE
  5
53DE
330
1F
100
AcDbEntity
  8
AM_0
100
AcDbEllipse
 10
-9.643705000000011
 20
76.29440499999988
 30
0.0
 11
9.077921428430002
 21
8.593098541228002
 31
0.0
210
0.0
220
0.0
230
1.0
 40
0.40306016
 41
3.625988081971029
 42
4.12191071214064
  0
ELLIPSE
  5
53DF
330
1F
100
AcDbEntity
  8
AM_0
100
AcDbEllipse
 10
-17.43595800000008
 20
72.77145799999996
 30
0.0
 11
4.438020644030999
 21
0.167170474016
 31
0.0
210
0.0
220
0.0
230
1.0
 40
0.1084187763219
 41
3.46551503352552
 42
4.13902372390823
  0
ELLIPSE
  5
53E0
330
1F
100
AcDbEntity
  8
AM_0
100
AcDbEllipse
 10
-21.32796200000001
 20
72.36288300000002
 30
0.0
 11
-2.555150043760999
 21
1.584164467601999
 31
0.0
210
0.0
220
0.0
230
1.0
 40
0.4962014217725701
 41
0.636245101584397
 42
1.08230269278924
  0
ELLIPSE
  5
53E1
330
1F
100
AcDbEntity
  8
AM_0
100
AcDbEllipse
 10
-18.81142500000004
 20
69.70436399999996
 30
0.0
 11
-2.555150043760999
 21
1.584164467601999
 31
0.0
210
0.0
220
0.0
230
1.0
 40
0.4962014217725701
 41
1.08230269278924
 42
1.665047343793309
  0
ELLIPSE
  5
53E2
330
1F
100
AcDbEntity
  8
AM_0
100
AcDbEllipse
 10
-7.443830000000104
 20
73.6630029999999
 30
0.0
 11
16.752346230429
 21
0.4186277243570003
 31
0.0
210
0.0
220
0.0
230
1.0
 40
0.09565589915869
 41
3.87803142890441
 42
4.206720239215379
  0
ELLIPSE
  5
53E3
330
1F
100
AcDbEntity
  8
AM_0
100
AcDbEllipse
 10
-7.443830000000104
 20
73.6630029999999
 30
0.0
 11
16.752346230429
 21
0.4186277243570003
 31
0.0
210
0.0
220
0.0
230
1.0
 40
0.09565589915869
 41
3.387269475739639
 42
3.69919915740975
  0
ELLIPSE
  5
53E4
330
1F
100
AcDbEntity
  8
AM_0
100
AcDbEllipse
 10
-10.09351400000008
 20
76.46218099999988
 30
0.0
 11
9.077921428430002
 21
8.593098541228002
 31
0.0
210
0.0
220
0.0
230
1.0
 40
0.40306016
 41
3.504973911650779
 42
4.120812155185199
  0
SPLINE
  5
53E5
330
1F
100
AcDbEntity
  8
AM_0
100
AcDbSpline
210
0.0
220
0.0
230
1.0
 70
     8
 71
     3
 72
    11
 73
     7
 74
     5
 42
0.0000000001
 43
0.0000000001
 44
0.0000000001
 40
0.0
 40
0.0
 40
0.0
 40
0.0
 40
1.513558911605338
 40
3.99214604379376
 40
6.507770778066351
 40
7.753678117367641
 40
7.753678117367641
 40
7.753678117367641
 40
7.753678117367641
 10
-16.42818000000005
 20
68.21336599999996
 30
0.0
 10
-16.93614524980391
 20
68.04120967743727
 30
0.0
 10
-18.27594870696723
 20
67.5871320880134
 30
0.0
 10
-20.00834584413087
 20
69.33215596907278
 30
0.0
 10
-21.73059397914483
 20
70.56475525000585
 30
0.0
 10
-22.06353361196677
 20
71.80420370323888
 30
0.0
 10
-22.17381100000005
 20
72.21473799999991
 30
0.0
 11
-16.42818000000005
 21
68.21336599999996
 31
0.0
 11
-17.91224800000003
 21
67.91603999999996
 31
0.0
 11
-20.01053100000007
 21
69.23535899999992
 31
0.0
 11
-21.76560899999998
 21
71.03759900000001
 31
0.0
 11
-22.17381100000005
 21
72.21473799999991
 31
0.0
  0
SPLINE
  5
53E6
330
1F
100
AcDbEntity
  8
AM_0
100
AcDbSpline
210
0.0
220
0.0
230
1.0
 70
     8
 71
     3
 72
    11
 73
     7
 74
     5
 42
0.0000000001
 43
0.0000000001
 44
0.0000000001
 40
0.0
 40
0.0
 40
0.0
 40
0.0
 40
0.1207363178004091
 40
0.2580229741986187
 40
0.4180017894774544
 40
0.6037199231020301
 40
0.6037199231020301
 40
0.6037199231020301
 40
0.6037199231020301
 10
-22.17381100000005
 20
72.21473799999991
 30
0.0
 10
-22.14685712745777
 20
72.24498397208218
 30
0.0
 10
-22.08925458924697
 20
72.30962198503778
 30
0.0
 10
-21.96465254621986
 20
72.37673668321871
 30
0.0
 10
-21.8123704244323
 20
72.4299144798458
 30
0.0
 10
-21.69855099951299
 20
72.44937582010336
 30
0.0
 10
-21.637404
 20
72.45983099999991
 30
0.0
 11
-22.17381100000005
 21
72.21473799999991
 31
0.0
 11
-22.08872100000002
 21
72.30039399999988
 31
0.0
 11
-21.97032600000005
 21
72.36989399999995
 31
0.0
 11
-21.81945300000001
 21
72.42309699999999
 31
0.0
 11
-21.637404
 21
72.45983099999991
 31
0.0
  0
SPLINE
  5
53E7
330
1F
100
AcDbEntity
  8
AM_0
100
AcDbSpline
210
0.0
220
0.0
230
1.0
 70
     8
 71
     3
 72
    11
 73
     7
 74
     5
 42
0.0000000001
 43
0.0000000001
 44
0.0000000001
 40
0.0
 40
0.0
 40
0.0
 40
0.0
 40
1.781054617354863
 40
3.506378295465364
 40
4.920552749393833
 40
5.969191171666241
 40
5.969191171666241
 40
5.969191171666241
 40
5.969191171666241
 10
-19.828189
 20
72.27655699999992
 30
0.0
 10
-19.2598527790819
 20
72.08650945978327
 30
0.0
 10
-18.14096413291919
 20
71.71236115257869
 30
0.0
 10
-16.85272836077717
 20
70.68392189548212
 30
0.0
 10
-16.06357801541632
 20
69.3713483119365
 30
0.0
 10
-16.31929748466017
 20
68.55917878263387
 30
0.0
 10
-16.42818000000005
 20
68.21336599999996
 30
0.0
 11
-19.828189
 21
72.27655699999992
 31
0.0
 11
-18.17501299999998
 21
71.61386199999994
 31
0.0
 11
-16.84084500000011
 21
70.51990699999989
 31
0.0
 11
-16.23202500000007
 21
69.24349499999995
 31
0.0
 11
-16.42818000000005
 21
68.21336599999996
 31
0.0
  0
SPLINE
  5
53E8
330
1F
100
AcDbEntity
  8
AM_0
100
AcDbSpline
210
0.0
220
0.0
230
1.0
 70
     8
 71
     3
 72
    11
 73
     7
 74
     5
 42
0.0000000001
 43
0.0000000001
 44
0.0000000001
 40
0.0
 40
0.0
 40
0.0
 40
0.0
 40
0.7145181739501214
 40
1.36084130803244
 40
1.911022652545419
 40
2.350779522819131
 40
2.350779522819131
 40
2.350779522819131
 40
2.350779522819131
 10
-19.35353300000014
 20
68.29303399999993
 30
0.0
 10
-19.17232732741416
 20
68.13801453590196
 30
0.0
 10
-18.82721061310926
 20
67.84277097459782
 30
0.0
 10
-18.3026954055382
 20
67.48264271620204
 30
0.0
 10
-17.81906404457456
 20
67.21548412688036
 30
0.0
 10
-17.49260069719485
 20
67.15607369370729
 30
0.0
 10
-17.34757700000005
 20
67.12968200000002
 30
0.0
 11
-19.35353300000014
 21
68.29303399999993
 31
0.0
 11
-18.80208900000008
 21
67.83867099999999
 31
0.0
 11
-18.2689400000001
 21
67.47331399999997
 31
0.0
 11
-17.77596499999998
 21
67.22902899999998
 31
0.0
 11
-17.34757700000005
 21
67.12968200000002
 31
0.0
  0
LINE
  5
53E9
330
1F
100
AcDbEntity
  8
AM_0
100
AcDbLine
 10
-17.34757700000005
 20
67.12968200000002
 30
0.0
 11
-21.09966300000002
 21
61.98468600000002
 31
0.0
  0
LINE
  5
53EA
330
1F
100
AcDbEntity
  8
AM_0
100
AcDbLine
 10
-19.95171400000009
 20
61.65557999999989
 30
0.0
 11
-16.06439800000003
 21
66.98600799999998
 31
0.0
  0
LINE
  5
53EB
330
1F
100
AcDbEntity
  8
AM_0
100
AcDbLine
 10
-19.35353300000014
 20
68.29303399999993
 30
0.0
 11
-23.68341200000003
 21
72.86720199999992
 31
0.0
  0
LINE
  5
53EC
330
1F
100
AcDbEntity
  8
AM_0
100
AcDbLine
 10
-24.36253400000004
 20
64.31243799999994
 30
0.0
 11
-20.70467500000012
 21
69.32822699999999
 31
0.0
  0
LINE
  5
53ED
330
1F
100
AcDbEntity
  8
AM_0
100
AcDbLine
 10
-23.22121200000009
 20
71.98674599999994
 30
0.0
 11
-20.70467500000012
 21
69.32822699999999
 31
0.0
  0
LINE
  5
53EE
330
1F
100
AcDbEntity
  8
AM_0
100
AcDbLine
 10
-13.29620700000003
 20
64.06163799999991
 30
0.0
 11
-16.06439800000003
 21
66.98600799999998
 31
0.0
  0
ELLIPSE
  5
53EF
330
1F
100
AcDbEntity
  8
AM_0
100
AcDbEllipse
 10
-22.98706600000008
 20
63.97857499999988
 30
0.0
 11
-2.290639612009
 21
1.949631823684
 31
0.0
210
0.0
220
0.0
230
1.0
 40
0.2334633752270999
 41
1.137178375746189
 42
2.70797645986774
  0
LINE
  5
53F0
330
1F
100
AcDbEntity
  8
AM_0
100
AcDbLine
 10
-10.87808899999998
 20
50.1268929999999
 30
0.0
 11
-23.68107300000013
 21
63.65221399999997
 31
0.0
  0
LINE
  5
53F1
330
1F
100
AcDbEntity
  8
AM_0
100
AcDbLine
 10
-23.68341200000003
 20
72.86720199999992
 30
0.0
 11
-23.85021599999999
 21
72.88373800000001
 31
0.0
  0
ELLIPSE
  5
53F2
330
1F
100
AcDbEntity
  8
AM_0
100
AcDbEllipse
 10
-14.35241899999999
 20
55.74037699999998
 30
0.0
 11
-3.435959798769999
 21
2.924448059599999
 31
0.0
210
0.0
220
0.0
230
1.0
 40
0.23346323854036
 41
0.017551380496699
 42
2.70797623664354
  0
ELLIPSE
  5
53F3
330
1F
100
AcDbEntity
  8
AM_0
100
AcDbEllipse
 10
-9.917887000000007
 20
61.82116599999996
 30
0.0
 11
-3.832724215734998
 21
2.376246174469999
 31
0.0
210
0.0
220
0.0
230
1.0
 40
0.49620175355538
 41
0.62109220314602
 42
1.543512159643229
  0
SPLINE
  5
53F4
330
1F
100
AcDbEntity
  8
AM_0
100
AcDbSpline
210
0.0
220
0.0
230
1.0
 70
     8
 71
     3
 72
    11
 73
     7
 74
     5
 42
0.0000000001
 43
0.0000000001
 44
0.0000000001
 40
0.0
 40
0.0
 40
0.0
 40
0.0
 40
1.246889020983929
 40
3.762516581837279
 40
6.241279187984521
 40
7.756416322911885
 40
7.756416322911885
 40
7.756416322911885
 40
7.756416322911885
 10
-13.28754199999997
 20
63.14056800000004
 30
0.0
 10
-13.17766126537973
 20
62.72954327196308
 30
0.0
 10
-12.846093596505
 20
61.4892666083961
 30
0.0
 10
-11.12299635797099
 20
60.25638346405792
 30
0.0
 10
-9.388616046632137
 20
58.51251516904152
 30
0.0
 10
-8.04866183185231
 20
58.96841032169181
 30
0.0
 10
-7.540333000000089
 20
59.14135999999998
 30
0.0
 11
-13.28754199999997
 21
63.14056800000004
 31
0.0
 11
-12.88023300000003
 21
61.96208099999991
 31
0.0
 11
-11.12503800000007
 21
60.15995099999988
 31
0.0
 11
-9.025623000000052
 21
58.84210399999997
 31
0.0
 11
-7.540333000000089
 21
59.14135999999998
 31
0.0
  0
SPLINE
  5
53F5
330
1F
100
AcDbEntity
  8
AM_0
100
AcDbSpline
210
0.0
220
0.0
230
1.0
 70
     8
 71
     3
 72
    11
 73
     7
 74
     5
 42
0.0000000001
 43
0.0000000001
 44
0.0000000001
 40
0.0
 40
0.0
 40
0.0
 40
0.0
 40
0.2146183478177614
 40
0.4696810224724298
 40
0.8052848875887608
 40
1.233282542633635
 40
1.233282542633635
 40
1.233282542633635
 40
1.233282542633635
 10
-14.07524100000006
 20
63.75758799999996
 30
0.0
 10
-14.10678712289286
 20
63.69123776499132
 30
0.0
 10
-14.17582416192511
 20
63.54603374801414
 30
0.0
 10
-14.10683558555132
 20
63.27085475246193
 30
0.0
 10
-13.95462697926999
 20
62.97007686298083
 30
0.0
 10
-13.80489408931772
 20
62.76299571376021
 30
0.0
 10
-13.72096900000002
 20
62.64692700000002
 30
0.0
 11
-14.07524100000006
 21
63.75758799999996
 31
0.0
 11
-14.14706300000005
 21
63.55534399999989
 31
0.0
 11
-14.10671400000006
 21
63.30349299999991
 31
0.0
 11
-13.96154900000004
 21
63.00090899999988
 31
0.0
 11
-13.72096900000002
 21
62.64692700000002
 31
0.0
  0
SPLINE
  5
53F6
330
1F
100
AcDbEntity
  8
AM_0
100
AcDbSpline
210
0.0
220
0.0
230
1.0
 70
     8
 71
     3
 72
    11
 73
     7
 74
     5
 42
0.0000000001
 43
0.0000000001
 44
0.0000000001
 40
0.0
 40
0.0
 40
0.0
 40
0.0
 40
1.04468105891218
 40
1.941535364311431
 40
2.612928259511313
 40
3.043453414123564
 40
3.043453414123564
 40
3.043453414123564
 40
3.043453414123564
 10
-10.3473800000001
 20
63.02299199999994
 30
0.0
 10
-10.68157184145703
 20
63.12763605495788
 30
0.0
 10
-11.30266597647336
 20
63.32211659199122
 30
0.0
 10
-12.15996442972297
 20
63.41391644495434
 30
0.0
 10
-12.85805737414938
 20
63.4348706959097
 30
0.0
 10
-13.16688243205379
 20
63.223249507082
 30
0.0
 10
-13.28754199999997
 20
63.14056800000004
 30
0.0
 11
-10.3473800000001
 21
63.02299199999994
 31
0.0
 11
-11.35456500000003
 21
63.30036699999995
 31
0.0
 11
-12.24479200000013
 21
63.40919499999997
 31
0.0
 11
-12.91395700000004
 21
63.35454499999993
 31
0.0
 11
-13.28754199999997
 21
63.14056800000004
 31
0.0
  0
SPLINE
  5
53F7
330
1F
100
AcDbEntity
  8
AM_0
100
AcDbSpline
210
0.0
220
0.0
230
1.0
 70
     8
 71
     3
 72
    11
 73
     7
 74
     5
 42
0.0000000001
 43
0.0000000001
 44
0.0000000001
 40
0.0
 40
0.0
 40
0.0
 40
0.0
 40
0.2757246160955127
 40
0.5070860214551301
 40
0.6974850349662192
 40
0.8565604683587228
 40
0.8565604683587228
 40
0.8565604683587228
 40
0.8565604683587228
 10
-13.29620700000003
 20
64.06163799999991
 30
0.0
 10
-13.38757462432711
 20
64.05001722037481
 30
0.0
 10
-13.55560911383304
 20
64.02864540747777
 30
0.0
 10
-13.77907028851536
 20
63.96447944298877
 30
0.0
 10
-13.95857417953493
 20
63.88249602217845
 30
0.0
 10
-14.03874738207371
 20
63.79665948252724
 30
0.0
 10
-14.07524100000006
 20
63.75758799999996
 30
0.0
 11
-13.29620700000003
 21
64.06163799999991
 31
0.0
 11
-13.56866200000007
 21
64.01930199999994
 31
0.0
 11
-13.79075500000004
 21
63.95447300000002
 31
0.0
 11
-13.95999399999999
 21
63.86723799999995
 31
0.0
 11
-14.07524100000006
 21
63.75758799999996
 31
0.0
  0
LINE
  5
53F8
330
1F
100
AcDbEntity
  8
AM_0
100
AcDbLine
 10
-13.72096900000002
 20
62.64692700000002
 30
0.0
 11
-11.20110600000003
 21
59.98489499999995
 31
0.0
  0
LINE
  5
53F9
330
1F
100
AcDbEntity
  8
AM_0
100
AcDbLine
 10
-19.95171400000009
 20
61.65557999999989
 30
0.0
 11
-17.49830800000012
 21
59.06375499999992
 31
0.0
  0
LINE
  5
53FA
330
1F
100
AcDbEntity
  8
AM_0
100
AcDbLine
 10
-19.92044400000003
 20
61.69845799999997
 30
0.0
 11
-21.09966300000002
 21
61.98468600000002
 31
0.0
  0
LINE
  5
53FB
330
1F
100
AcDbEntity
  8
AM_0
100
AcDbLine
 10
-14.07521500000001
 20
63.75762399999998
 30
0.0
 11
-17.79983099999998
 21
58.65029599999992
 31
0.0
  0
LINE
  5
53FC
330
1F
100
AcDbEntity
  8
AM_0
100
AcDbLine
 10
-7.633998000000076
 20
58.0799709999999
 30
0.0
 11
-11.52131400000001
 21
52.74954299999992
 31
0.0
  0
LINE
  5
53FD
330
1F
100
AcDbEntity
  8
AM_0
100
AcDbLine
 10
-9.162297000000023
 20
49.710425
 30
0.0
 11
-10.87808899999998
 21
50.1268929999999
 31
0.0
  0
LINE
  5
53FE
330
1F
100
AcDbEntity
  8
AM_0
100
AcDbLine
 10
-9.162297000000023
 20
49.710425
 30
0.0
 11
-6.153991000000075
 21
53.22456100000001
 31
0.0
  0
LINE
  5
53FF
330
1F
100
AcDbEntity
  8
AM_0
100
AcDbLine
 10
-11.52131400000001
 20
52.74954299999992
 30
0.0
 11
-9.188138000000037
 21
50.28473099999998
 31
0.0
  0
LINE
  5
5400
330
1F
100
AcDbEntity
  8
AM_0
100
AcDbLine
 10
-10.00459900000004
 20
51.14725599999998
 30
0.0
 11
-10.87808899999998
 21
50.1268929999999
 31
0.0
  0
LINE
  5
5401
330
1F
100
AcDbEntity
  8
AM_0
100
AcDbLine
 10
-8.890677000000039
 20
50.02771599999995
 30
0.0
 11
-7.921440000000018
 21
50.60396900000002
 31
0.0
  0
LINE
  5
5402
330
1F
100
AcDbEntity
  8
AM_0
100
AcDbLine
 10
-6.648630000000082
 20
53.19537199999992
 30
0.0
 11
-6.036706000000037
 21
53.23148199999993
 31
0.0
  0
LINE
  5
5403
330
1F
100
AcDbEntity
  8
AM_0
100
AcDbLine
 10
-0.0056559999999877
 20
60.276619
 30
0.0
 11
-6.036706000000037
 21
53.23148199999993
 31
0.0
  0
LINE
  5
5404
330
1F
100
AcDbEntity
  8
AM_0
100
AcDbLine
 10
-4.903556000000037
 20
55.19547799999988
 30
0.0
 11
-9.188138000000037
 21
50.28473099999998
 31
0.0
  0
LINE
  5
5405
330
1F
100
AcDbEntity
  8
AM_0
100
AcDbLine
 10
-7.921440000000018
 20
50.60396900000002
 30
0.0
 11
-1.80387300000001
 21
57.75017200000004
 31
0.0
  0
SPLINE
  5
5406
330
1F
100
AcDbEntity
  8
AM_0
100
AcDbSpline
210
0.0
220
0.0
230
1.0
 70
     8
 71
     3
 72
    11
 73
     7
 74
     5
 42
0.0000000001
 43
0.0000000001
 44
0.0000000001
 40
0.0
 40
0.0
 40
0.0
 40
0.0
 40
1.229155053773598
 40
2.359789102299002
 40
3.335199407222895
 40
4.139374811623017
 40
4.139374811623017
 40
4.139374811623017
 40
4.139374811623017
 10
-11.20110600000003
 20
59.98489499999995
 30
0.0
 10
-10.89390440179951
 20
59.71267312055537
 30
0.0
 10
-10.30412447011648
 20
59.19004888161296
 30
0.0
 10
-9.388153712938041
 20
58.56415380825927
 30
0.0
 10
-8.502824087813177
 20
58.11770055815369
 30
0.0
 10
-7.904413313091238
 20
58.0917140293864
 30
0.0
 10
-7.633998000000076
 20
58.0799709999999
 30
0.0
 11
-11.20110600000003
 21
59.98489499999995
 31
0.0
 11
-10.26368199999996
 21
59.18987399999993
 31
0.0
 11
-9.327570999999977
 21
58.55581599999995
 31
0.0
 11
-8.433597000000133
 21
58.16564199999994
 31
0.0
 11
-7.633998000000076
 21
58.0799709999999
 31
0.0
  0
SPLINE
  5
5407
330
1F
100
AcDbEntity
  8
AM_0
100
AcDbSpline
210
0.0
220
0.0
230
1.0
 70
     8
 71
     3
 72
    11
 73
     7
 74
     5
 42
0.0000000001
 43
0.0000000001
 44
0.0000000001
 40
0.0
 40
0.0
 40
0.0
 40
0.0
 40
0.9468400005941315
 40
2.192326962004693
 40
3.71928700721647
 40
5.361660633557678
 40
5.361660633557678
 40
5.361660633557678
 40
5.361660633557678
 10
-7.540333000000089
 20
59.14135999999998
 30
0.0
 10
-7.432544620300343
 20
59.44919295523085
 30
0.0
 10
-7.182969854914143
 20
60.16195380935908
 30
0.0
 10
-7.783167120362176
 20
61.36726248144775
 30
0.0
 10
-8.857603625743253
 20
62.38874157894495
 30
0.0
 10
-9.838876619651822
 20
62.80650415077179
 30
0.0
 10
-10.3473800000001
 20
63.02299199999994
 30
0.0
 11
-7.540333000000089
 21
59.14135999999998
 31
0.0
 11
-7.329511000000081
 21
60.06443100000002
 31
0.0
 11
-7.783622999999977
 21
61.22418099999994
 31
0.0
 11
-8.878250000000036
 21
62.28879299999995
 31
0.0
 11
-10.3473800000001
 21
63.02299199999994
 31
0.0
  0
LINE
  5
5408
330
1F
100
AcDbEntity
  8
AM_0
100
AcDbLine
 10
-4.903556000000037
 20
55.19547799999988
 30
0.0
 11
-7.633998000000076
 21
58.0799709999999
 31
0.0
  0
LINE
  5
5409
330
1F
100
AcDbEntity
  8
AM_0
100
AcDbLine
 10
-11.82083700000003
 20
68.47073200000001
 30
0.0
 11
-2.407291000000043
 21
58.52608099999999
 31
0.0
  0
LINE
  5
540A
330
1F
100
AcDbEntity
  8
AM_0
100
AcDbLine
 10
-9.746788000000094
 20
66.67184699999997
 30
0.0
 11
-2.247256000000049
 21
58.749196
 31
0.0
  0
ELLIPSE
  5
540B
330
1F
100
AcDbEntity
  8
AM_0
100
AcDbEllipse
 10
2.426974000000029
 20
63.54270699999997
 30
0.0
 11
8.063423839663
 21
9.664547013867
 31
0.0
210
0.0
220
0.0
230
1.0
 40
0.04746598979819
 41
2.155669251262539
 42
2.651588309760209
  0
LINE
  5
540C
330
1F
100
AcDbEntity
  8
AM_0
100
AcDbLine
 10
-1.80387300000001
 20
57.75017200000004
 30
0.0
 11
-1.145716000000049
 21
58.94486399999995
 31
0.0
  0
LINE
  5
540D
330
1F
100
AcDbEntity
  8
AM_0
100
AcDbLine
 10
-2.247256000000049
 20
58.749196
 30
0.0
 11
-2.407291000000043
 21
58.52608099999999
 31
0.0
  0
LINE
  5
540F
330
1F
100
AcDbEntity
  8
AM_0
100
AcDbLine
 10
-0.0056559999999877
 20
60.276619
 30
0.0
 11
-0.0000000000000568
 21
62.50000000000001
 31
0.0
  0
LINE
  5
5410
330
1F
100
AcDbEntity
  8
AM_11
100
AcDbLine
 10
-0.0000000000000568
 20
62.50000000000001
 30
0.0
 11
0.0000000000000568
 21
-62.50000000004468
 31
0.0
  0
LINE
  5
5411
330
1F
100
AcDbEntity
  8
AM_0
100
AcDbLine
 10
-5.997009999999988
 20
68.83535699999995
 30
0.0
 11
-0.0000000000000568
 21
62.50000000000001
 31
0.0
  0
LINE
  5
5412
330
1F
100
AcDbEntity
  8
AM_0
100
AcDbLine
 10
-15.11383700000004
 20
72.0176959999999
 30
0.0
 11
-11.96858000000003
 21
68.69498599999999
 31
0.0
  0
LINE
  5
5413
330
1F
100
AcDbEntity
  8
AM_0
100
AcDbLine
 10
-13.09297800000007
 20
72.17165299999989
 30
0.0
 11
-11.3771860000001
 21
71.75518399999988
 31
0.0
  0
LINE
  5
5414
330
1F
100
AcDbEntity
  8
AM_0
100
AcDbLine
 10
-13.09297800000007
 20
72.17165299999989
 30
0.0
 11
-8.863547000000096
 21
67.70359999999995
 31
0.0
  0
LINE
  5
5415
330
1F
100
AcDbEntity
  8
AM_0
100
AcDbLine
 10
-15.52351400000014
 20
72.05830799999991
 30
0.0
 11
-12.2810510000001
 21
68.63290699999994
 31
0.0
  0
LINE
  5
5416
330
1F
100
AcDbEntity
  8
AM_0
100
AcDbLine
 10
-15.33329399999996
 20
72.03945099999988
 30
0.0
 11
-13.09297800000007
 21
72.17165299999989
 31
0.0
  0
LINE
  5
5417
330
1F
100
AcDbEntity
  8
AM_0
100
AcDbLine
 10
-15.11383700000004
 20
72.0176959999999
 30
0.0
 11
-15.52351400000014
 21
72.05830799999991
 31
0.0
  0
LINE
  5
5418
330
1F
100
AcDbEntity
  8
AM_0
100
AcDbLine
 10
-11.3771860000001
 20
71.75518399999988
 30
0.0
 11
-8.235951000000056
 21
68.43672299999993
 31
0.0
  0
LINE
  5
5419
330
1F
100
AcDbEntity
  8
AM_0
100
AcDbLine
 10
-8.235951000000056
 20
68.43672299999993
 30
0.0
 11
-11.3771860000001
 21
71.75518399999988
 31
0.0
  0
LINE
  5
541A
330
1F
100
AcDbEntity
  8
AM_0
100
AcDbLine
 10
-11.50836600000008
 20
68.53281199999994
 30
0.0
 11
-9.746788000000094
 21
66.67184699999997
 31
0.0
  0
LINE
  5
541B
330
1F
100
AcDbEntity
  8
AM_0
100
AcDbLine
 10
-11.82083700000003
 20
68.47073200000001
 30
0.0
 11
-11.50836600000008
 21
68.53281199999994
 31
0.0
  0
LINE
  5
541C
330
1F
100
AcDbEntity
  8
AM_0
100
AcDbLine
 10
-11.96858000000003
 20
68.69498599999999
 30
0.0
 11
-12.42913200000003
 21
68.15699499999995
 31
0.0
  0
LINE
  5
541D
330
1F
100
AcDbEntity
  8
AM_0
100
AcDbLine
 10
-12.2810510000001
 20
68.63290699999994
 30
0.0
 11
-11.96858000000003
 21
68.69498599999999
 31
0.0
  0
LINE
  5
541E
330
1F
100
AcDbEntity
  8
AM_0
100
AcDbLine
 10
-11.3771860000001
 20
71.75518399999988
 30
0.0
 11
-10.45730500000007
 21
71.53190399999996
 31
0.0
  0
LINE
  5
541F
330
1F
100
AcDbEntity
  8
AM_0
100
AcDbLine
 10
-9.746788000000094
 20
66.67184699999997
 30
0.0
 11
-7.995662000000095
 21
68.71741599999997
 31
0.0
  0
LINE
  5
5420
330
1F
100
AcDbEntity
  8
AM_0
100
AcDbLine
 10
-5.997009999999988
 20
68.83535699999995
 30
0.0
 11
-7.995662000000095
 21
68.71741599999997
 31
0.0
  0
LINE
  5
5421
330
1F
100
AcDbEntity
  8
AM_0
100
AcDbLine
 10
-10.45730500000007
 20
71.53190399999996
 30
0.0
 11
-7.803841999999974
 21
68.72873499999993
 31
0.0
  0
ELLIPSE
  5
54C2
330
1F
100
AcDbEntity
  8
AM_0
100
AcDbEllipse
 10
-22.98706600000008
 20
-63.97857499999985
 30
0.0
 11
-2.290639612009
 21
-1.949631823684
 31
0.0
210
0.0
220
0.0
230
-1.0
 40
0.2334633752270999
 41
1.137178375746189
 42
2.70797645986774
  0
SPLINE
  5
54C3
330
1F
100
AcDbEntity
  8
AM_0
100
AcDbSpline
210
0.0
220
0.0
230
1.0
 70
     8
 71
     3
 72
    11
 73
     7
 74
     5
 42
0.0000000001
 43
0.0000000001
 44
0.0000000001
 40
0.0
 40
0.0
 40
0.0
 40
0.0
 40
0.7145181739501214
 40
1.36084130803244
 40
1.911022652545419
 40
2.350779522819131
 40
2.350779522819131
 40
2.350779522819131
 40
2.350779522819131
 10
-19.35353300000014
 20
-68.2930339999999
 30
0.0
 10
-19.17232732741416
 20
-68.13801453590193
 30
0.0
 10
-18.82721061310926
 20
-67.84277097459778
 30
0.0
 10
-18.3026954055382
 20
-67.48264271620204
 30
0.0
 10
-17.81906404457456
 20
-67.21548412688031
 30
0.0
 10
-17.49260069719485
 20
-67.15607369370728
 30
0.0
 10
-17.34757700000005
 20
-67.12968199999998
 30
0.0
 11
-19.35353300000014
 21
-68.2930339999999
 31
0.0
 11
-18.80208900000008
 21
-67.83867099999996
 31
0.0
 11
-18.2689400000001
 21
-67.47331399999994
 31
0.0
 11
-17.77596499999998
 21
-67.22902899999995
 31
0.0
 11
-17.34757700000005
 21
-67.12968199999998
 31
0.0
  0
SPLINE
  5
54C4
330
1F
100
AcDbEntity
  8
AM_0
100
AcDbSpline
210
0.0
220
0.0
230
1.0
 70
     8
 71
     3
 72
    11
 73
     7
 74
     5
 42
0.0000000001
 43
0.0000000001
 44
0.0000000001
 40
0.0
 40
0.0
 40
0.0
 40
0.0
 40
1.781054617354863
 40
3.506378295465364
 40
4.920552749393833
 40
5.969191171666241
 40
5.969191171666241
 40
5.969191171666241
 40
5.969191171666241
 10
-19.828189
 20
-72.27655699999989
 30
0.0
 10
-19.2598527790819
 20
-72.08650945978324
 30
0.0
 10
-18.14096413291919
 20
-71.71236115257865
 30
0.0
 10
-16.85272836077717
 20
-70.68392189548212
 30
0.0
 10
-16.06357801541632
 20
-69.37134831193647
 30
0.0
 10
-16.31929748466017
 20
-68.55917878263385
 30
0.0
 10
-16.42818000000005
 20
-68.21336599999994
 30
0.0
 11
-19.828189
 21
-72.27655699999989
 31
0.0
 11
-18.17501299999998
 21
-71.61386199999991
 31
0.0
 11
-16.84084500000011
 21
-70.51990699999986
 31
0.0
 11
-16.23202500000007
 21
-69.24349499999992
 31
0.0
 11
-16.42818000000005
 21
-68.21336599999994
 31
0.0
  0
SPLINE
  5
54C5
330
1F
100
AcDbEntity
  8
AM_0
100
AcDbSpline
210
0.0
220
0.0
230
1.0
 70
     8
 71
     3
 72
    11
 73
     7
 74
     5
 42
0.0000000001
 43
0.0000000001
 44
0.0000000001
 40
0.0
 40
0.0
 40
0.0
 40
0.0
 40
0.1207363178004091
 40
0.2580229741986187
 40
0.4180017894774544
 40
0.6037199231020301
 40
0.6037199231020301
 40
0.6037199231020301
 40
0.6037199231020301
 10
-22.17381100000005
 20
-72.21473799999988
 30
0.0
 10
-22.14685712745777
 20
-72.24498397208215
 30
0.0
 10
-22.08925458924697
 20
-72.30962198503775
 30
0.0
 10
-21.96465254621986
 20
-72.37673668321867
 30
0.0
 10
-21.8123704244323
 20
-72.42991447984576
 30
0.0
 10
-21.69855099951299
 20
-72.44937582010336
 30
0.0
 10
-21.637404
 20
-72.45983099999988
 30
0.0
 11
-22.17381100000005
 21
-72.21473799999988
 31
0.0
 11
-22.08872100000002
 21
-72.30039399999985
 31
0.0
 11
-21.97032600000005
 21
-72.36989399999991
 31
0.0
 11
-21.81945300000001
 21
-72.42309699999997
 31
0.0
 11
-21.637404
 21
-72.45983099999988
 31
0.0
  0
SPLINE
  5
54C6
330
1F
100
AcDbEntity
  8
AM_0
100
AcDbSpline
210
0.0
220
0.0
230
1.0
 70
     8
 71
     3
 72
    11
 73
     7
 74
     5
 42
0.0000000001
 43
0.0000000001
 44
0.0000000001
 40
0.0
 40
0.0
 40
0.0
 40
0.0
 40
1.513558911605338
 40
3.99214604379376
 40
6.507770778066351
 40
7.753678117367641
 40
7.753678117367641
 40
7.753678117367641
 40
7.753678117367641
 10
-16.42818000000005
 20
-68.21336599999994
 30
0.0
 10
-16.93614524980391
 20
-68.04120967743724
 30
0.0
 10
-18.27594870696723
 20
-67.58713208801338
 30
0.0
 10
-20.00834584413087
 20
-69.33215596907274
 30
0.0
 10
-21.73059397914483
 20
-70.56475525000582
 30
0.0
 10
-22.06353361196677
 20
-71.80420370323886
 30
0.0
 10
-22.17381100000005
 20
-72.21473799999988
 30
0.0
 11
-16.42818000000005
 21
-68.21336599999994
 31
0.0
 11
-17.91224800000003
 21
-67.91603999999994
 31
0.0
 11
-20.01053100000007
 21
-69.23535899999989
 31
0.0
 11
-21.76560899999998
 21
-71.03759899999999
 31
0.0
 11
-22.17381100000005
 21
-72.21473799999988
 31
0.0
  0
ELLIPSE
  5
54C7
330
1F
100
AcDbEntity
  8
AM_0
100
AcDbEllipse
 10
-7.443830000000104
 20
-73.66300299999988
 30
0.0
 11
16.752346230429
 21
-0.4186277243570003
 31
0.0
210
0.0
220
0.0
230
-1.0
 40
0.09565589915869
 41
3.387269475739639
 42
3.69919915740975
  0
ELLIPSE
  5
54C8
330
1F
100
AcDbEntity
  8
AM_0
100
AcDbEllipse
 10
-7.443830000000104
 20
-73.66300299999988
 30
0.0
 11
16.752346230429
 21
-0.4186277243570003
 31
0.0
210
0.0
220
0.0
230
-1.0
 40
0.09565589915869
 41
3.87803142890441
 42
4.206720239215379
  0
ELLIPSE
  5
54C9
330
1F
100
AcDbEntity
  8
AM_0
100
AcDbEllipse
 10
-18.81142500000004
 20
-69.70436399999993
 30
0.0
 11
-2.555150043760999
 21
-1.584164467601999
 31
0.0
210
0.0
220
0.0
230
-1.0
 40
0.4962014217725701
 41
1.08230269278924
 42
1.665047343793309
  0
ELLIPSE
  5
54CA
330
1F
100
AcDbEntity
  8
AM_0
100
AcDbEllipse
 10
-21.32796200000001
 20
-72.362883
 30
0.0
 11
-2.555150043760999
 21
-1.584164467601999
 31
0.0
210
0.0
220
0.0
230
-1.0
 40
0.4962014217725701
 41
0.636245101584397
 42
1.08230269278924
  0
ELLIPSE
  5
54CB
330
1F
100
AcDbEntity
  8
AM_0
100
AcDbEllipse
 10
-17.43595800000008
 20
-72.77145799999992
 30
0.0
 11
4.438020644030999
 21
-0.167170474016
 31
0.0
210
0.0
220
0.0
230
-1.0
 40
0.1084187763219
 41
3.46551503352552
 42
4.13902372390823
  0
ELLIPSE
  5
54CC
330
1F
100
AcDbEntity
  8
AM_0
100
AcDbEllipse
 10
-21.07925200000005
 20
-72.7039239999999
 30
0.0
 11
3.804017266616
 21
-0.143288961596
 31
0.0
210
0.0
220
0.0
230
-0.9999999999999998
 40
0.1084186759450099
 41
2.382733006633379
 42
3.056298966713689
  0
ELLIPSE
  5
54CD
330
1F
100
AcDbEntity
  8
AM_0
100
AcDbEllipse
 10
-25.50360300000005
 20
-66.63709399999992
 30
0.0
 11
-2.290639612009
 21
-1.949631823684
 31
0.0
210
0.0
220
0.0
230
-1.0
 40
0.2334633752270999
 41
0.017551370222918
 42
1.137178375746189
  0
LINE
  5
54CE
330
1F
100
AcDbEntity
  8
AM_0
100
AcDbLine
 10
-23.22121200000009
 20
-71.98674599999991
 30
0.0
 11
-20.70467500000012
 21
-69.32822699999995
 31
0.0
  0
LINE
  5
54CF
330
1F
100
AcDbEntity
  8
AM_0
100
AcDbLine
 10
-19.35353300000014
 20
-68.2930339999999
 30
0.0
 11
-23.68341200000003
 21
-72.86720199999989
 31
0.0
  0
LINE
  5
54D0
330
1F
100
AcDbEntity
  8
AM_0
100
AcDbLine
 10
-24.87076500000006
 20
-72.59628799999994
 30
0.0
 11
-27.80187800000004
 21
-68.57703999999988
 31
0.0
  0
LINE
  5
54D1
330
1F
100
AcDbEntity
  8
AM_0
100
AcDbLine
 10
-23.22121200000009
 20
-71.98674599999991
 30
0.0
 11
-26.87907100000001
 21
-66.97095699999998
 31
0.0
  0
LINE
  5
54D2
330
1F
100
AcDbEntity
  8
AM_0
100
AcDbLine
 10
-24.36253400000004
 20
-64.31243799999991
 30
0.0
 11
-20.70467500000012
 21
-69.32822699999995
 31
0.0
  0
LINE
  5
54D3
330
1F
100
AcDbEntity
  8
AM_0
100
AcDbLine
 10
-26.87907100000001
 20
-66.97095699999998
 30
0.0
 11
-24.36253400000004
 21
-64.31243799999991
 31
0.0
  0
LINE
  5
54D4
330
1F
100
AcDbEntity
  8
AM_0
100
AcDbLine
 10
-19.92044400000003
 20
-61.69845799999994
 30
0.0
 11
-21.09966300000002
 21
-61.98468599999999
 31
0.0
  0
LINE
  5
54D5
330
1F
100
AcDbEntity
  8
AM_0
100
AcDbLine
 10
-19.95171400000009
 20
-61.65557999999986
 30
0.0
 11
-16.06439800000003
 21
-66.98600799999995
 31
0.0
  0
LINE
  5
54D6
330
1F
100
AcDbEntity
  8
AM_0
100
AcDbLine
 10
-17.34757700000005
 20
-67.12968199999998
 30
0.0
 11
-21.09966300000002
 21
-61.98468599999999
 31
0.0
  0
LINE
  5
54D7
330
1F
100
AcDbEntity
  8
AM_0
100
AcDbLine
 10
-23.68341200000003
 20
-72.86720199999989
 30
0.0
 11
-23.85021599999999
 21
-72.88373799999998
 31
0.0
  0
LINE
  5
54D8
330
1F
100
AcDbEntity
  8
AM_0
100
AcDbLine
 10
-15.11383700000004
 20
-72.01769599999988
 30
0.0
 11
-15.52351400000014
 21
-72.05830799999988
 31
0.0
  0
SPLINE
  5
54D9
330
1F
100
AcDbEntity
  8
AM_0
100
AcDbSpline
210
0.0
220
0.0
230
1.0
 70
     8
 71
     3
 72
    11
 73
     7
 74
     5
 42
0.0000000001
 43
0.0000000001
 44
0.0000000001
 40
0.0
 40
0.0
 40
0.0
 40
0.0
 40
0.2757246160955127
 40
0.5070860214551301
 40
0.6974850349662192
 40
0.8565604683587228
 40
0.8565604683587228
 40
0.8565604683587228
 40
0.8565604683587228
 10
-13.29620700000003
 20
-64.06163799999989
 30
0.0
 10
-13.38757462432711
 20
-64.05001722037479
 30
0.0
 10
-13.55560911383304
 20
-64.02864540747774
 30
0.0
 10
-13.77907028851536
 20
-63.96447944298876
 30
0.0
 10
-13.95857417953493
 20
-63.8824960221784
 30
0.0
 10
-14.03874738207371
 20
-63.79665948252721
 30
0.0
 10
-14.07524100000006
 20
-63.75758799999992
 30
0.0
 11
-13.29620700000003
 21
-64.06163799999989
 31
0.0
 11
-13.56866200000007
 21
-64.01930199999991
 31
0.0
 11
-13.79075500000004
 21
-63.95447299999999
 31
0.0
 11
-13.95999399999999
 21
-63.86723799999991
 31
0.0
 11
-14.07524100000006
 21
-63.75758799999992
 31
0.0
  0
SPLINE
  5
54DA
330
1F
100
AcDbEntity
  8
AM_0
100
AcDbSpline
210
0.0
220
0.0
230
1.0
 70
     8
 71
     3
 72
    11
 73
     7
 74
     5
 42
0.0000000001
 43
0.0000000001
 44
0.0000000001
 40
0.0
 40
0.0
 40
0.0
 40
0.0
 40
1.04468105891218
 40
1.941535364311431
 40
2.612928259511313
 40
3.043453414123564
 40
3.043453414123564
 40
3.043453414123564
 40
3.043453414123564
 10
-10.3473800000001
 20
-63.02299199999992
 30
0.0
 10
-10.68157184145703
 20
-63.12763605495788
 30
0.0
 10
-11.30266597647336
 20
-63.32211659199121
 30
0.0
 10
-12.15996442972297
 20
-63.41391644495429
 30
0.0
 10
-12.85805737414938
 20
-63.43487069590968
 30
0.0
 10
-13.16688243205379
 20
-63.22324950708196
 30
0.0
 10
-13.28754199999997
 20
-63.14056800000002
 30
0.0
 11
-10.3473800000001
 21
-63.02299199999992
 31
0.0
 11
-11.35456500000003
 21
-63.30036699999992
 31
0.0
 11
-12.24479200000013
 21
-63.40919499999994
 31
0.0
 11
-12.91395700000004
 21
-63.3545449999999
 31
0.0
 11
-13.28754199999997
 21
-63.14056800000002
 31
0.0
  0
SPLINE
  5
54DB
330
1F
100
AcDbEntity
  8
AM_0
100
AcDbSpline
210
0.0
220
0.0
230
1.0
 70
     8
 71
     3
 72
    11
 73
     7
 74
     5
 42
0.0000000001
 43
0.0000000001
 44
0.0000000001
 40
0.0
 40
0.0
 40
0.0
 40
0.0
 40
0.2146183478177614
 40
0.4696810224724298
 40
0.8052848875887608
 40
1.233282542633635
 40
1.233282542633635
 40
1.233282542633635
 40
1.233282542633635
 10
-14.07524100000006
 20
-63.75758799999992
 30
0.0
 10
-14.10678712289286
 20
-63.69123776499129
 30
0.0
 10
-14.17582416192511
 20
-63.54603374801413
 30
0.0
 10
-14.10683558555132
 20
-63.2708547524619
 30
0.0
 10
-13.95462697926999
 20
-62.9700768629808
 30
0.0
 10
-13.80489408931772
 20
-62.76299571376016
 30
0.0
 10
-13.72096900000002
 20
-62.64692699999999
 30
0.0
 11
-14.07524100000006
 21
-63.75758799999992
 31
0.0
 11
-14.14706300000005
 21
-63.55534399999986
 31
0.0
 11
-14.10671400000006
 21
-63.30349299999987
 31
0.0
 11
-13.96154900000004
 21
-63.00090899999985
 31
0.0
 11
-13.72096900000002
 21
-62.64692699999999
 31
0.0
  0
SPLINE
  5
54DC
330
1F
100
AcDbEntity
  8
AM_0
100
AcDbSpline
210
0.0
220
0.0
230
1.0
 70
     8
 71
     3
 72
    11
 73
     7
 74
     5
 42
0.0000000001
 43
0.0000000001
 44
0.0000000001
 40
0.0
 40
0.0
 40
0.0
 40
0.0
 40
1.246889020983929
 40
3.762516581837279
 40
6.241279187984521
 40
7.756416322911885
 40
7.756416322911885
 40
7.756416322911885
 40
7.756416322911885
 10
-13.28754199999997
 20
-63.14056800000002
 30
0.0
 10
-13.17766126537973
 20
-62.72954327196305
 30
0.0
 10
-12.846093596505
 20
-61.48926660839607
 30
0.0
 10
-11.12299635797099
 20
-60.2563834640579
 30
0.0
 10
-9.388616046632137
 20
-58.51251516904148
 30
0.0
 10
-8.04866183185231
 20
-58.96841032169179
 30
0.0
 10
-7.540333000000089
 20
-59.14135999999995
 30
0.0
 11
-13.28754199999997
 21
-63.14056800000002
 31
0.0
 11
-12.88023300000003
 21
-61.96208099999989
 31
0.0
 11
-11.12503800000007
 21
-60.15995099999985
 31
0.0
 11
-9.025623000000052
 21
-58.84210399999993
 31
0.0
 11
-7.540333000000089
 21
-59.14135999999995
 31
0.0
  0
ELLIPSE
  5
54DD
330
1F
100
AcDbEntity
  8
AM_0
100
AcDbEllipse
 10
-9.917887000000007
 20
-61.82116599999993
 30
0.0
 11
-3.832724215734998
 21
-2.376246174469999
 31
0.0
210
0.0
220
0.0
230
-1.0
 40
0.49620175355538
 41
0.62109220314602
 42
1.543512159643229
  0
ELLIPSE
  5
54DE
330
1F
100
AcDbEntity
  8
AM_0
100
AcDbEllipse
 10
-14.35241899999999
 20
-55.74037699999995
 30
0.0
 11
-3.435959798769999
 21
-2.924448059599999
 31
0.0
210
0.0
220
0.0
230
-1.0
 40
0.23346323854036
 41
0.017551380496699
 42
2.70797623664354
  0
ELLIPSE
  5
54DF
330
1F
100
AcDbEntity
  8
AM_0
100
AcDbEllipse
 10
-10.09351400000008
 20
-76.46218099999986
 30
0.0
 11
9.077921428430002
 21
-8.593098541228002
 31
0.0
210
0.0
220
0.0
230
-1.0
 40
0.40306016
 41
3.504973911650779
 42
4.120812155185199
  0
ELLIPSE
  5
54E0
330
1F
100
AcDbEntity
  8
AM_0
100
AcDbEllipse
 10
-9.643705000000011
 20
-76.29440499999986
 30
0.0
 11
9.077921428430002
 21
-8.593098541228002
 31
0.0
210
0.0
220
0.0
230
-1.0
 40
0.40306016
 41
3.625988081971029
 42
4.12191071214064
  0
LINE
  5
54E1
330
1F
100
AcDbEntity
  8
AM_0
100
AcDbLine
 10
-10.87808899999998
 20
-50.12689299999987
 30
0.0
 11
-23.68107300000013
 21
-63.65221399999994
 31
0.0
  0
LINE
  5
54E2
330
1F
100
AcDbEntity
  8
AM_0
100
AcDbLine
 10
-15.33329399999996
 20
-72.03945099999986
 30
0.0
 11
-13.09297800000007
 21
-72.17165299999987
 31
0.0
  0
LINE
  5
54E3
330
1F
100
AcDbEntity
  8
AM_0
100
AcDbLine
 10
-15.52351400000014
 20
-72.05830799999988
 30
0.0
 11
-12.2810510000001
 21
-68.63290699999992
 31
0.0
  0
LINE
  5
54E4
330
1F
100
AcDbEntity
  8
AM_0
100
AcDbLine
 10
-15.11383700000004
 20
-72.01769599999988
 30
0.0
 11
-11.96858000000003
 21
-68.69498599999996
 31
0.0
  0
LINE
  5
54E5
330
1F
100
AcDbEntity
  8
AM_0
100
AcDbLine
 10
-14.07521500000001
 20
-63.75762399999995
 30
0.0
 11
-17.79983099999998
 21
-58.65029599999989
 31
0.0
  0
LINE
  5
54E6
330
1F
100
AcDbEntity
  8
AM_0
100
AcDbLine
 10
-13.29620700000003
 20
-64.06163799999989
 30
0.0
 11
-16.06439800000003
 21
-66.98600799999995
 31
0.0
  0
LINE
  5
54E7
330
1F
100
AcDbEntity
  8
AM_0
100
AcDbLine
 10
-19.95171400000009
 20
-61.65557999999986
 30
0.0
 11
-17.49830800000012
 21
-59.06375499999988
 31
0.0
  0
LINE
  5
54E8
330
1F
100
AcDbEntity
  8
AM_0
100
AcDbLine
 10
-13.09297800000007
 20
-72.17165299999987
 30
0.0
 11
-8.863547000000096
 21
-67.70359999999993
 31
0.0
  0
LINE
  5
54E9
330
1F
100
AcDbEntity
  8
AM_0
100
AcDbLine
 10
-13.72096900000002
 20
-62.64692699999999
 30
0.0
 11
-11.20110600000003
 21
-59.98489499999992
 31
0.0
  0
LINE
  5
54EA
330
1F
100
AcDbEntity
  8
AM_0
100
AcDbLine
 10
-12.2810510000001
 20
-68.63290699999992
 30
0.0
 11
-11.96858000000003
 21
-68.69498599999996
 31
0.0
  0
LINE
  5
54EB
330
1F
100
AcDbEntity
  8
AM_0
100
AcDbLine
 10
-11.96858000000003
 20
-68.69498599999996
 30
0.0
 11
-12.42913200000003
 21
-68.15699499999992
 31
0.0
  0
LINE
  5
54EC
330
1F
100
AcDbEntity
  8
AM_0
100
AcDbLine
 10
-13.09297800000007
 20
-72.17165299999987
 30
0.0
 11
-11.3771860000001
 21
-71.75518399999986
 31
0.0
  0
ELLIPSE
  5
54ED
330
1F
100
AcDbEntity
  8
AM_0
100
AcDbEllipse
 10
2.426974000000029
 20
-63.54270699999993
 30
0.0
 11
8.063423839663
 21
-9.664547013867
 31
0.0
210
0.0
220
0.0
230
-1.0
 40
0.04746598979819
 41
2.155669251262539
 42
2.651588309760209
  0
LINE
  5
54EE
330
1F
100
AcDbEntity
  8
AM_0
100
AcDbLine
 10
-7.921440000000018
 20
-50.60396899999999
 30
0.0
 11
-1.80387300000001
 21
-57.750172
 31
0.0
  0
LINE
  5
54EF
330
1F
100
AcDbEntity
  8
AM_0
100
AcDbLine
 10
-4.903556000000037
 20
-55.19547799999985
 30
0.0
 11
-9.188138000000037
 21
-50.28473099999995
 31
0.0
  0
LINE
  5
54F0
330
1F
100
AcDbEntity
  8
AM_0
100
AcDbLine
 10
-7.633998000000076
 20
-58.07997099999987
 30
0.0
 11
-11.52131400000001
 21
-52.74954299999989
 31
0.0
  0
LINE
  5
54F1
330
1F
100
AcDbEntity
  8
AM_0
100
AcDbLine
 10
-8.890677000000039
 20
-50.02771599999992
 30
0.0
 11
-7.921440000000018
 21
-50.60396899999999
 31
0.0
  0
LINE
  5
54F2
330
1F
100
AcDbEntity
  8
AM_0
100
AcDbLine
 10
-9.162297000000023
 20
-49.71042499999997
 30
0.0
 11
-6.153991000000075
 21
-53.22456099999998
 31
0.0
  0
LINE
  5
54F3
330
1F
100
AcDbEntity
  8
AM_0
100
AcDbLine
 10
-11.52131400000001
 20
-52.74954299999989
 30
0.0
 11
-9.188138000000037
 21
-50.28473099999995
 31
0.0
  0
LINE
  5
54F4
330
1F
100
AcDbEntity
  8
AM_0
100
AcDbLine
 10
-9.162297000000023
 20
-49.71042499999997
 30
0.0
 11
-10.87808899999998
 21
-50.12689299999987
 31
0.0
  0
LINE
  5
54F5
330
1F
100
AcDbEntity
  8
AM_0
100
AcDbLine
 10
-10.00459900000004
 20
-51.14725599999996
 30
0.0
 11
-10.87808899999998
 21
-50.12689299999987
 31
0.0
  0
LINE
  5
54F6
330
1F
100
AcDbEntity
  8
AM_0
100
AcDbLine
 10
-6.648630000000082
 20
-53.19537199999989
 30
0.0
 11
-6.036706000000037
 21
-53.2314819999999
 31
0.0
  0
LINE
  5
54F7
330
1F
100
AcDbEntity
  8
AM_0
100
AcDbLine
 10
-4.903556000000037
 20
-55.19547799999985
 30
0.0
 11
-7.633998000000076
 21
-58.07997099999987
 31
0.0
  0
LINE
  5
54F8
330
1F
100
AcDbEntity
  8
AM_0
100
AcDbLine
 10
-2.247256000000049
 20
-58.74919599999997
 30
0.0
 11
-2.407291000000043
 21
-58.52608099999996
 31
0.0
  0
LINE
  5
54F9
330
1F
100
AcDbEntity
  8
AM_0
100
AcDbLine
 10
-9.746788000000094
 20
-66.67184699999994
 30
0.0
 11
-2.247256000000049
 21
-58.74919599999997
 31
0.0
  0
LINE
  5
54FA
330
1F
100
AcDbEntity
  8
AM_0
100
AcDbLine
 10
-11.82083700000003
 20
-68.47073199999998
 30
0.0
 11
-2.407291000000043
 21
-58.52608099999996
 31
0.0
  0
SPLINE
  5
54FB
330
1F
100
AcDbEntity
  8
AM_0
100
AcDbSpline
210
0.0
220
0.0
230
1.0
 70
     8
 71
     3
 72
    11
 73
     7
 74
     5
 42
0.0000000001
 43
0.0000000001
 44
0.0000000001
 40
0.0
 40
0.0
 40
0.0
 40
0.0
 40
0.9468400005941315
 40
2.192326962004693
 40
3.71928700721647
 40
5.361660633557678
 40
5.361660633557678
 40
5.361660633557678
 40
5.361660633557678
 10
-7.540333000000089
 20
-59.14135999999995
 30
0.0
 10
-7.432544620300343
 20
-59.44919295523082
 30
0.0
 10
-7.182969854914143
 20
-60.16195380935906
 30
0.0
 10
-7.783167120362176
 20
-61.36726248144772
 30
0.0
 10
-8.857603625743253
 20
-62.38874157894493
 30
0.0
 10
-9.838876619651822
 20
-62.80650415077176
 30
0.0
 10
-10.3473800000001
 20
-63.02299199999992
 30
0.0
 11
-7.540333000000089
 21
-59.14135999999995
 31
0.0
 11
-7.329511000000081
 21
-60.064431
 31
0.0
 11
-7.783622999999977
 21
-61.22418099999991
 31
0.0
 11
-8.878250000000036
 21
-62.28879299999992
 31
0.0
 11
-10.3473800000001
 21
-63.02299199999992
 31
0.0
  0
SPLINE
  5
54FC
330
1F
100
AcDbEntity
  8
AM_0
100
AcDbSpline
210
0.0
220
0.0
230
1.0
 70
     8
 71
     3
 72
    11
 73
     7
 74
     5
 42
0.0000000001
 43
0.0000000001
 44
0.0000000001
 40
0.0
 40
0.0
 40
0.0
 40
0.0
 40
1.229155053773598
 40
2.359789102299002
 40
3.335199407222895
 40
4.139374811623017
 40
4.139374811623017
 40
4.139374811623017
 40
4.139374811623017
 10
-11.20110600000003
 20
-59.98489499999992
 30
0.0
 10
-10.89390440179951
 20
-59.71267312055535
 30
0.0
 10
-10.30412447011648
 20
-59.19004888161295
 30
0.0
 10
-9.388153712938041
 20
-58.56415380825923
 30
0.0
 10
-8.502824087813177
 20
-58.11770055815365
 30
0.0
 10
-7.904413313091238
 20
-58.09171402938638
 30
0.0
 10
-7.633998000000076
 20
-58.07997099999987
 30
0.0
 11
-11.20110600000003
 21
-59.98489499999992
 31
0.0
 11
-10.26368199999996
 21
-59.1898739999999
 31
0.0
 11
-9.327570999999977
 21
-58.55581599999992
 31
0.0
 11
-8.433597000000133
 21
-58.16564199999992
 31
0.0
 11
-7.633998000000076
 21
-58.07997099999987
 31
0.0
  0
LINE
  5
54FD
330
1F
100
AcDbEntity
  8
AM_0
100
AcDbLine
 10
-1.80387300000001
 20
-57.750172
 30
0.0
 11
-1.145716000000049
 21
-58.94486399999992
 31
0.0
  0
LINE
  5
54FE
330
1F
100
AcDbEntity
  8
AM_0
100
AcDbLine
 10
-0.0056559999999877
 20
-60.27661899999997
 30
0.0
 11
-6.036706000000037
 21
-53.2314819999999
 31
0.0
  0
LINE
  5
54FF
330
1F
100
AcDbEntity
  8
AM_0
100
AcDbLine
 10
-5.997009999999988
 20
-68.83535699999992
 30
0.0
 11
-0.0000000000000568
 21
-62.49999999999999
 31
0.0
  0
LINE
  5
5500
330
1F
100
AcDbEntity
  8
AM_0
100
AcDbLine
 10
-0.0056559999999877
 20
-60.27661899999997
 30
0.0
 11
-0.0000000000000568
 21
-62.49999999999999
 31
0.0
  0
LINE
  5
5501
330
1F
100
AcDbEntity
  8
AM_0
100
AcDbLine
 10
-5.997009999999988
 20
-68.83535699999992
 30
0.0
 11
-7.995662000000095
 21
-68.71741599999994
 31
0.0
  0
LINE
  5
5502
330
1F
100
AcDbEntity
  8
AM_0
100
AcDbLine
 10
-10.45730500000007
 20
-71.53190399999992
 30
0.0
 11
-7.803841999999974
 21
-68.7287349999999
 31
0.0
  0
LINE
  5
5503
330
1F
100
AcDbEntity
  8
AM_0
100
AcDbLine
 10
-8.235951000000056
 20
-68.4367229999999
 30
0.0
 11
-11.3771860000001
 21
-71.75518399999986
 31
0.0
  0
LINE
  5
5504
330
1F
100
AcDbEntity
  8
AM_0
100
AcDbLine
 10
-11.3771860000001
 20
-71.75518399999986
 30
0.0
 11
-8.235951000000056
 21
-68.4367229999999
 31
0.0
  0
LINE
  5
5505
330
1F
100
AcDbEntity
  8
AM_0
100
AcDbLine
 10
-9.746788000000094
 20
-66.67184699999994
 30
0.0
 11
-7.995662000000095
 21
-68.71741599999994
 31
0.0
  0
LINE
  5
5506
330
1F
100
AcDbEntity
  8
AM_0
100
AcDbLine
 10
-11.50836600000008
 20
-68.5328119999999
 30
0.0
 11
-9.746788000000094
 21
-66.67184699999994
 31
0.0
  0
LINE
  5
5507
330
1F
100
AcDbEntity
  8
AM_0
100
AcDbLine
 10
-11.3771860000001
 20
-71.75518399999986
 30
0.0
 11
-10.45730500000007
 21
-71.53190399999992
 31
0.0
  0
LINE
  5
5508
330
1F
100
AcDbEntity
  8
AM_0
100
AcDbLine
 10
-11.82083700000003
 20
-68.47073199999998
 30
0.0
 11
-11.50836600000008
 21
-68.5328119999999
 31
0.0
  0
LINE
  5
55B4
330
1F
100
AcDbEntity
  8
AM_0
100
AcDbLine
 10
-10.3523333496652
 20
49.99927822840545
 30
0.0
 11
-21.00000000000008
 21
38.78
 31
0.0
  0
LINE
  5
55B5
330
1F
100
AcDbEntity
  8
AM_0
100
AcDbLine
 10
-7.515467068759674
 20
68.74575243394916
 30
0.0
 11
-11.3000000000002
 21
73.10000000000001
 31
0.0
  0
LINE
  5
55B6
330
1F
100
AcDbEntity
  8
AM_0
100
AcDbLine
 10
-2.000000000000028
 20
57.52106729942525
 30
0.0
 11
-1.999999999999985
 21
0.0000000000000017
 31
0.0
  0
LINE
  5
55B7
330
1F
100
AcDbEntity
  8
AM_0
100
AcDbLine
 10
-7.515467068759674
 20
-68.74575243394914
 30
0.0
 11
-11.3000000000002
 21
-73.09999999999998
 31
0.0
  0
LINE
  5
55B8
330
1F
100
AcDbEntity
  8
AM_0
100
AcDbLine
 10
-10.3523333496652
 20
-49.99927822840542
 30
0.0
 11
-21.00000000000008
 21
-38.77999999999997
 31
0.0
  0
LINE
  5
55B9
330
1F
100
AcDbEntity
  8
AM_0
100
AcDbLine
 10
-2.000000000000028
 20
-57.52106729942522
 30
0.0
 11
-1.999999999999985
 21
0.0000000000000268
 31
0.0
  0
DIMENSION
  5
55C6
330
1F
100
AcDbEntity
  8
AM_5
100
AcDbDimension
  2
*D13
 10
-0.0000000000000568
 20
-62.49999999999999
 30
0.0
 11
-9.888077735453428
 21
-87.32969950717906
 31
0.0
 70
    34
  1
45%%d
  3
AM_JIS$2
100
AcDb2LineAngularDimension
 13
-0.0000000000000568
 23
62.50000000000001
 33
0.0
 14
0.0000000000000568
 24
-62.50000000004468
 34
0.0
 15
-5.997009999999988
 25
-68.83535699999992
 35
0.0
 16
-14.43828904306074
 26
-88.59858445147857
 36
0.0
1001
ACAD
1000
DSTYLE
1002
{
1070
   179
1070
     3
1002
}
1001
GENIUS_GENDTOL_13
1000

1000
h7
1000

1040
0.0
  0
ARC
  5
56C4
330
1F
100
AcDbEntity
  8
AM_0
100
AcDbCircle
 10
-30.49009518031567
 20
58.10000000000001
 30
0.0
 40
15.0
100
AcDbArc
 50
90.0
 51
165.0
1001
GENIUS_GENODEF_13
1002
{
1000
HIER
1070
     0
1002
}
1002
{
1000
MANEDIT
1070
     0
1002
}
1002
{
1000
NOSEL
1070
     0
1002
}
1002
{
1000
BEHIND
1070
     0
1002
}
1002
{
1000
REACTOR
1002
}
1001
GENIUS_GENOBJ-N-FIL_13
1002
{
1000
OWNER
1000
GEN
1002
}
  0
ARC
  5
56C7
330
1F
100
AcDbEntity
  8
AM_0
100
AcDbCircle
 10
-57.67760715437969
 20
45.50000000000001
 30
0.0
 40
8.0
100
AcDbArc
 50
270.0
 51
345.0000000000001
1001
GENIUS_GENODEF_13
1002
{
1000
HIER
1070
     0
1002
}
1002
{
1000
MANEDIT
1070
     0
1002
}
1002
{
1000
NOSEL
1070
     0
1002
}
1002
{
1000
BEHIND
1070
     0
1002
}
1002
{
1000
REACTOR
1002
}
1001
GENIUS_GENOBJ-N-FIL_13
1002
{
1000
OWNER
1000
GEN
1002
}
  0
ARC
  5
56CA
330
1F
100
AcDbEntity
  8
AM_0
100
AcDbCircle
 10
-61.00000000000002
 20
35.50000000000001
 30
0.0
 40
2.0
100
AcDbArc
 50
90.0
 51
180.0
1001
GENIUS_GENODEF_13
1002
{
1000
HIER
1070
     0
1002
}
1002
{
1000
MANEDIT
1070
     0
1002
}
1002
{
1000
NOSEL
1070
     0
1002
}
1002
{
1000
BEHIND
1070
     0
1002
}
1002
{
1000
REACTOR
1002
}
1001
GENIUS_GENOBJ-N-FIL_13
1002
{
1000
OWNER
1000
GEN
1002
}
  0
ARC
  5
56CD
330
1F
100
AcDbEntity
  8
AM_0
100
AcDbCircle
 10
-60.50000000000002
 20
21.54999999999999
 30
0.0
 40
2.5
100
AcDbArc
 50
180.0
 51
270.0
1001
GENIUS_GENODEF_13
1002
{
1000
HIER
1070
     0
1002
}
1002
{
1000
MANEDIT
1070
     0
1002
}
1002
{
1000
NOSEL
1070
     0
1002
}
1002
{
1000
BEHIND
1070
     0
1002
}
1002
{
1000
REACTOR
1002
}
1001
GENIUS_GENOBJ-N-FIL_13
1002
{
1000
OWNER
1000
GEN
1002
}
  0
ARC
  5
56D0
330
1F
100
AcDbEntity
  8
AM_0
100
AcDbCircle
 10
-26.00000000000002
 20
19.8
 30
0.0
 40
1.0
100
AcDbArc
 50
269.9999999999998
 51
359.9999999999996
1001
GENIUS_GENODEF_13
1002
{
1000
HIER
1070
     0
1002
}
1002
{
1000
MANEDIT
1070
     0
1002
}
1002
{
1000
NOSEL
1070
     0
1002
}
1002
{
1000
BEHIND
1070
     0
1002
}
1002
{
1000
REACTOR
1002
}
1001
GENIUS_GENOBJ-N-FIL_13
1002
{
1000
OWNER
1000
GEN
1002
}
  0
LINE
  5
56D3
330
1F
100
AcDbEntity
  8
AM_0
100
AcDbLine
 10
-62.00000000000002
 20
7.949999999999974
 30
0.0
 11
-63.00000000000003
 21
8.949999999999974
 31
0.0
1001
GENIUS_GENFIL_13
1070
     0
1040
1.0
1040
1.0
1040
20.0
1040
0.0
1002
{
1002
}
1001
GENIUS_GENODEF_13
1002
{
1000
HIER
1070
     0
1002
}
1002
{
1000
MANEDIT
1070
     0
1002
}
1002
{
1000
NOSEL
1070
     0
1002
}
1002
{
1000
BEHIND
1070
     0
1002
}
1002
{
1000
REACTOR
1002
}
1001
GENIUS_GENOBJ-N-CHA_13
1002
{
1000
OWNER
1000
GEN
1002
}
  0
ARC
  5
56D5
330
1F
100
AcDbEntity
  8
AM_0
100
AcDbCircle
 10
-30.49009518031545
 20
-58.09999999999984
 30
0.0
 40
15.0
100
AcDbArc
 50
195.0000000000001
 51
270.0000000000002
1001
GENIUS_GENODEF_13
1002
{
1000
HIER
1070
     0
1002
}
1002
{
1000
MANEDIT
1070
     0
1002
}
1002
{
1000
NOSEL
1070
     0
1002
}
1002
{
1000
BEHIND
1070
     0
1002
}
1002
{
1000
REACTOR
1002
}
1001
GENIUS_GENOBJ-N-FIL_13
1002
{
1000
OWNER
1000
GEN
1002
}
  0
ARC
  5
56D6
330
1F
100
AcDbEntity
  8
AM_0
100
AcDbCircle
 10
-57.67760715437951
 20
-45.49999999999994
 30
0.0
 40
8.0
100
AcDbArc
 50
15.00000000000011
 51
90.00000000000021
1001
GENIUS_GENODEF_13
1002
{
1000
HIER
1070
     0
1002
}
1002
{
1000
MANEDIT
1070
     0
1002
}
1002
{
1000
NOSEL
1070
     0
1002
}
1002
{
1000
BEHIND
1070
     0
1002
}
1002
{
1000
REACTOR
1002
}
1001
GENIUS_GENOBJ-N-FIL_13
1002
{
1000
OWNER
1000
GEN
1002
}
  0
ARC
  5
56D7
330
1F
100
AcDbEntity
  8
AM_0
100
AcDbCircle
 10
-60.99999999999988
 20
-35.49999999999995
 30
0.0
 40
2.0
100
AcDbArc
 50
180.0000000000002
 51
270.0000000000002
1001
GENIUS_GENODEF_13
1002
{
1000
HIER
1070
     0
1002
}
1002
{
1000
MANEDIT
1070
     0
1002
}
1002
{
1000
NOSEL
1070
     0
1002
}
1002
{
1000
BEHIND
1070
     0
1002
}
1002
{
1000
REACTOR
1002
}
1001
GENIUS_GENOBJ-N-FIL_13
1002
{
1000
OWNER
1000
GEN
1002
}
  0
ARC
  5
56D8
330
1F
100
AcDbEntity
  8
AM_0
100
AcDbCircle
 10
-60.49999999999994
 20
-21.54999999999994
 30
0.0
 40
2.5
100
AcDbArc
 50
90.00000000000021
 51
180.0000000000002
1001
GENIUS_GENODEF_13
1002
{
1000
HIER
1070
     0
1002
}
1002
{
1000
MANEDIT
1070
     0
1002
}
1002
{
1000
NOSEL
1070
     0
1002
}
1002
{
1000
BEHIND
1070
     0
1002
}
1002
{
1000
REACTOR
1002
}
1001
GENIUS_GENOBJ-N-FIL_13
1002
{
1000
OWNER
1000
GEN
1002
}
  0
ARC
  5
56D9
330
1F
100
AcDbEntity
  8
AM_0
100
AcDbCircle
 10
-25.99999999999994
 20
-19.79999999999981
 30
0.0
 40
1.0
100
AcDbArc
 50
0.0000000000005843
 51
90.00000000000031
1001
GENIUS_GENODEF_13
1002
{
1000
HIER
1070
     0
1002
}
1002
{
1000
MANEDIT
1070
     0
1002
}
1002
{
1000
NOSEL
1070
     0
1002
}
1002
{
1000
BEHIND
1070
     0
1002
}
1002
{
1000
REACTOR
1002
}
1001
GENIUS_GENOBJ-N-FIL_13
1002
{
1000
OWNER
1000
GEN
1002
}
  0
LINE
  5
56DA
330
1F
100
AcDbEntity
  8
AM_0
100
AcDbLine
 10
-62.0
 20
-7.949999999999922
 30
0.0
 11
-62.99999999999999
 21
-8.949999999999926
 31
0.0
1001
GENIUS_GENFIL_13
1070
     0
1040
1.0
1040
1.0
1040
20.0
1040
0.0
1002
{
1002
}
1001
GENIUS_GENODEF_13
1002
{
1000
HIER
1070
     0
1002
}
1002
{
1000
MANEDIT
1070
     0
1002
}
1002
{
1000
NOSEL
1070
     0
1002
}
1002
{
1000
BEHIND
1070
     0
1002
}
1002
{
1000
REACTOR
1002
}
1001
GENIUS_GENOBJ-N-CHA_13
1002
{
1000
OWNER
1000
GEN
1002
}
  0
VIEWPORT
  5
110
330
101
100
AcDbEntity
 67
     1
  8
0
100
AcDbViewport
 10
420.5
 20
297.0
 30
0.0
 40
948.9782706766916
 41
628.452
 68
     1
 69
     1
1001
ACAD
1000
MVIEW
1002
{
1070
    16
1010
0.0
1020
0.0
1030
0.0
1010
0.0
1020
0.0
1030
1.0
1040
0.0
1040
628.452
1040
420.5
1040
297.0
1040
50.0
1040
0.0
1040
0.0
1070
     0
1070
   100
1070
     1
1070
     1
1070
     0
1070
     0
1070
     0
1070
     0
1040
0.0
1040
0.0
1040
0.0
1040
10.0
1040
10.0
1040
10.0
1040
10.0
1070
     0
1002
{
1002
}
1002
}
  0
ENDSEC
  0
SECTION
  2
OBJECTS
  0
DICTIONARY
  5
C
330
0
100
AcDbDictionary
  3
ACAD_GROUP
350
D
  3
ACAD_LAYOUT
350
1A
  3
ACAD_MLINESTYLE
350
17
  3
ACAD_PLOTSETTINGS
350
19
  3
ACAD_PLOTSTYLENAME
350
E
  3
ACDBVARIABLEDICTIONARY
350
34
  3
ACMDICTIONARY
350
43
  3
AMG
350
2B
  3
AMGSNAPSETTINGS
350
6E
  3
DWGPROPS
350
5730
  3
ACDBHEADERROUNDTRIPXREC
350
573D
  0
DICTIONARY
  5
74
330
1F
100
AcDbDictionary
280
     1
  3
ACAD_INDEX
360
5732
  3
ACAD_LAYOUTSELFREF
360
5760
  0
DICTIONARY
  5
5765
330
101
100
AcDbDictionary
280
     1
  3
ACAD_LAYOUTSELFREF
360
5766
  0
DICTIONARY
  5
D
102
{ACAD_REACTORS
330
C
102
}
330
C
100
AcDbDictionary
  0
DICTIONARY
  5
1A
102
{ACAD_REACTORS
330
C
102
}
330
C
100
AcDbDictionary
  0
DICTIONARY
  5
17
102
{ACAD_REACTORS
330
C
102
}
330
C
100
AcDbDictionary
  3
STANDARD
350
18
  0
DICTIONARY
  5
19
102
{ACAD_REACTORS
330
C
102
}
330
C
100
AcDbDictionary
  0
ACDBDICTIONARYWDFLT
  5
E
102
{ACAD_REACTORS
330
C
102
}
330
C
100
AcDbDictionary
281
     1
  3
Normal
350
F
100
AcDbDictionaryWithDefault
340
F
  0
DICTIONARY
  5
34
102
{ACAD_REACTORS
330
C
102
}
330
C
100
AcDbDictionary
  3
INDEXCTL
350
35
  3
SORTENTS
350
B5E
  0
DICTIONARY
  5
43
102
{ACAD_REACTORS
330
C
102
}
330
C
100
AcDbDictionary
  3
ACMSTDDICTIONARY
350
260
  0
DICTIONARY
  5
2B
102
{ACAD_REACTORS
330
C
102
}
330
C
100
AcDbDictionary
  3
ACMGSETTINGS
350
2C
  0
DICTIONARY
  5
6E
102
{ACAD_REACTORS
330
C
102
}
330
C
100
AcDbDictionary
  0
XRECORD
  5
5730
102
{ACAD_REACTORS
330
C
102
}
330
C
100
AcDbXrecord
  1
DWGPROPS COOKIE
  2

  3

  4

  6

  7

  8

  9

300
AmdtFileType=82
301
=
302
=
303
=
304
=
305
=
306
=
307
=
308
=
309
=
 40
0.0930343981481482
 41
2452836.771637361
 42
2452908.370207152
  1

 90
        1
  0
DICTIONARY
  5
573D
102
{ACAD_REACTORS
330
C
102
}
330
C
100
AcDbDictionary
  3
TSTACKALIGN
350
573E
  3
TSTACKSIZE
350
573F
  3
HYPERLINKBASE
350
5740
  3
STYLESHEET
350
5741
  3
LAYOUTDICT
350
5742
  3
PLOTSETDICT
350
5743
  3
PLOTSTYLNAMDICT
350
5744
  3
LWETCUNION
350
5745
  3
INSUNITS
350
5746
  3
CEPSNTYPE
350
5747
  3
FINGERPRINTGUID
350
5748
  3
VERSIONGUID
350
5749
  3
PSVPSCALE
350
574A
  3
DIMSTYLEDATA
350
574B
  3
PUCSORTHOREF
350
574C
  3
PUCSORTHOVIEW
350
574D
  3
PUCSBASE
350
574E
  3
PUCSORGTOP
350
574F
  3
PUCSORGBOTTOM
350
5750
  3
PUCSORGLEFT
350
5751
  3
PUCSORGRIGHT
350
5752
  3
PUCSORGFRONT
350
5753
  3
PUCSORGBACK
350
5754
  3
UCSORTHOREF
350
5755
  3
UCSORTHOVIEW
350
5756
  3
UCSBASE
350
5757
  3
UCSORGTOP
350
5758
  3
UCSORGBOTTOM
350
5759
  3
UCSORGLEFT
350
575A
  3
UCSORGRIGHT
350
575B
  3
UCSORGFRONT
350
575C
  3
UCSORGBACK
350
575D
  0
DICTIONARY
  5
5732
102
{ACAD_REACTORS
330
74
102
}
330
74
100
AcDbDictionary
  3
*A1
350
5733
  0
XRECORD
  5
5760
102
{ACAD_REACTORS
330
74
102
}
330
74
100
AcDbXrecord
340
1F
  0
XRECORD
  5
5766
102
{ACAD_REACTORS
330
5765
102
}
330
5765
100
AcDbXrecord
340
101
  0
MLINESTYLE
  5
18
102
{ACAD_REACTORS
330
17
102
}
330
17
100
AcDbMlineStyle
  2
STANDARD
 70
     0
  3

 62
   256
 51
90.0
 52
90.0
 71
     2
 49
0.5
 62
   256
  6
BYLAYER
 49
-0.5
 62
   256
  6
BYLAYER
  0
ACDBPLACEHOLDER
  5
F
102
{ACAD_REACTORS
330
E
102
}
330
E
100
AcDbPlaceHolder
280
     0
  0
DICTIONARYVAR
  5
35
102
{ACAD_REACTORS
330
34
102
}
330
34
100
DictionaryVariables
280
     0
  1
1
  0
DICTIONARYVAR
  5
B5E
102
{ACAD_REACTORS
330
34
102
}
330
34
100
DictionaryVariables
280
     0
  1
96
  0
DICTIONARY
  5
260
102
{ACAD_REACTORS
330
43
102
}
330
43
100
AcDbDictionary
  0
DICTIONARY
  5
2C
102
{ACAD_REACTORS
330
2B
102
}
330
2B
100
AcDbDictionary
  3
DWGSETTINGS
350
2D
  0
XRECORD
  5
573E
102
{ACAD_REACTORS
330
573D
102
}
330
573D
100
AcDbXrecord
 90
        1
  0
XRECORD
  5
573F
102
{ACAD_REACTORS
330
573D
102
}
330
573D
100
AcDbXrecord
 90
       70
  0
XRECORD
  5
5740
102
{ACAD_REACTORS
330
573D
102
}
330
573D
100
AcDbXrecord
  1

  0
XRECORD
  5
5741
102
{ACAD_REACTORS
330
573D
102
}
330
573D
100
AcDbXrecord
  1
ASAMI.ctb
  0
XRECORD
  5
5742
102
{ACAD_REACTORS
330
573D
102
}
330
573D
100
AcDbXrecord
340
1A
  0
XRECORD
  5
5743
102
{ACAD_REACTORS
330
573D
102
}
330
573D
100
AcDbXrecord
340
19
  0
XRECORD
  5
5744
102
{ACAD_REACTORS
330
573D
102
}
330
573D
100
AcDbXrecord
340
E
  0
XRECORD
  5
5745
102
{ACAD_REACTORS
330
573D
102
}
330
573D
100
AcDbXrecord
 90
    10781
  0
XRECORD
  5
5746
102
{ACAD_REACTORS
330
573D
102
}
330
573D
100
AcDbXrecord
 90
        4
  0
XRECORD
  5
5747
102
{ACAD_REACTORS
330
573D
102
}
330
573D
100
AcDbXrecord
 90
        0
  0
XRECORD
  5
5748
102
{ACAD_REACTORS
330
573D
102
}
330
573D
100
AcDbXrecord
  1
{AFB28963-8C59-40AE-9337-C84526B81ACE}
  0
XRECORD
  5
5749
102
{ACAD_REACTORS
330
573D
102
}
330
573D
100
AcDbXrecord
  1
{9DBE1374-F6B8-4322-A25B-042551331A4C}
  0
XRECORD
  5
574A
102
{ACAD_REACTORS
330
573D
102
}
330
573D
100
AcDbXrecord
 40
0.0
  0
XRECORD
  5
574B
102
{ACAD_REACTORS
330
573D
102
}
330
573D
100
AcDbXrecord
1000
DSTYLE
1002
{
1070
    79
 70
     2
1070
   341
340
59
1070
   342
340
59
1070
   371
 70
    -1
1070
   372
 70
    -1
1002
}
  0
XRECORD
  5
574C
102
{ACAD_REACTORS
330
573D
102
}
330
573D
100
AcDbXrecord
340
0
  0
XRECORD
  5
574D
102
{ACAD_REACTORS
330
573D
102
}
330
573D
100
AcDbXrecord
 70
     0
  0
XRECORD
  5
574E
102
{ACAD_REACTORS
330
573D
102
}
330
573D
100
AcDbXrecord
340
0
  0
XRECORD
  5
574F
102
{ACAD_REACTORS
330
573D
102
}
330
573D
100
AcDbXrecord
 10
0.0
 20
0.0
 30
0.0
  0
XRECORD
  5
5750
102
{ACAD_REACTORS
330
573D
102
}
330
573D
100
AcDbXrecord
 10
0.0
 20
0.0
 30
0.0
  0
XRECORD
  5
5751
102
{ACAD_REACTORS
330
573D
102
}
330
573D
100
AcDbXrecord
 10
0.0
 20
0.0
 30
0.0
  0
XRECORD
  5
5752
102
{ACAD_REACTORS
330
573D
102
}
330
573D
100
AcDbXrecord
 10
0.0
 20
0.0
 30
0.0
  0
XRECORD
  5
5753
102
{ACAD_REACTORS
330
573D
102
}
330
573D
100
AcDbXrecord
 10
0.0
 20
0.0
 30
0.0
  0
XRECORD
  5
5754
102
{ACAD_REACTORS
330
573D
102
}
330
573D
100
AcDbXrecord
 10
0.0
 20
0.0
 30
0.0
  0
XRECORD
  5
5755
102
{ACAD_REACTORS
330
573D
102
}
330
573D
100
AcDbXrecord
340
0
  0
XRECORD
  5
5756
102
{ACAD_REACTORS
330
573D
102
}
330
573D
100
AcDbXrecord
 70
     0
  0
XRECORD
  5
5757
102
{ACAD_REACTORS
330
573D
102
}
330
573D
100
AcDbXrecord
340
0
  0
XRECORD
  5
5758
102
{ACAD_REACTORS
330
573D
102
}
330
573D
100
AcDbXrecord
 10
0.0
 20
0.0
 30
0.0
  0
XRECORD
  5
5759
102
{ACAD_REACTORS
330
573D
102
}
330
573D
100
AcDbXrecord
 10
0.0
 20
0.0
 30
0.0
  0
XRECORD
  5
575A
102
{ACAD_REACTORS
330
573D
102
}
330
573D
100
AcDbXrecord
 10
0.0
 20
0.0
 30
0.0
  0
XRECORD
  5
575B
102
{ACAD_REACTORS
330
573D
102
}
330
573D
100
AcDbXrecord
 10
0.0
 20
0.0
 30
0.0
  0
XRECORD
  5
575C
102
{ACAD_REACTORS
330
573D
102
}
330
573D
100
AcDbXrecord
 10
0.0
 20
0.0
 30
0.0
  0
XRECORD
  5
575D
102
{ACAD_REACTORS
330
573D
102
}
330
573D
100
AcDbXrecord
 10
0.0
 20
0.0
 30
0.0
  0
LAYER_INDEX
  5
5733
102
{ACAD_REACTORS
330
5732
102
}
330
5732
100
AcDbIndex
 40
2453152.366781806
100
AcDbLayerIndex
  8
0
360
5734
 90
        0
  8
AM_0
360
5735
 90
      196
  8
AM_7
360
5736
 90
        1
  8
AM_5
360
5737
 90
        9
  8
Defpoints
360
5738
 90
        0
  8
AM_6
360
5739
 90
        1
  8
AM_11
360
573A
 90
        1
  8
AM_3
360
573B
 90
        7
  0
XRECORD
  5
2D
102
{ACAD_REACTORS
330
2C
102
}
330
2C
100
AcDbXrecord
  1
VERSION
140
15.0
  1
PRODUCT
  2
AutoCAD Mechanical 2000
  0
IDBUFFER
  5
5734
330
0
100
AcDbIdBuffer
  0
IDBUFFER
  5
5735
330
0
100
AcDbIdBuffer
330
54C7
330
54C8
330
54C9
330
54CA
330
54CB
330
54CC
330
54CD
330
54CE
330
54CF
330
54D0
330
54D1
330
54D2
330
54D3
330
54D4
330
54D5
330
54D6
330
54D7
330
54D8
330
54D9
330
54DA
330
54DB
330
54DC
330
54DD
330
54DE
330
54DF
330
54E0
330
54E1
330
54E2
330
54E3
330
54E4
330
54E5
330
54E6
330
54E7
330
54E8
330
54E9
330
54EA
330
54EB
330
54EC
330
54ED
330
54EE
330
54EF
330
54F0
330
54F1
330
54F2
330
54F3
330
54F4
330
54F5
330
54F6
330
54F7
330
54F8
330
54F9
330
54FA
330
54FB
330
54FC
330
54FD
330
54FE
330
54FF
330
5500
330
5501
330
5502
330
5503
330
5504
330
5505
330
5506
330
5507
330
5508
330
55B4
330
55B5
330
55B6
330
55B7
330
55B8
330
55B9
330
56C4
330
56C7
330
56CA
330
56CD
330
56D0
330
56D3
330
56D5
330
56D6
330
56D7
330
56D8
330
56D9
330
56DA
330
44DC
330
44DD
330
44DF
330
44E0
330
44E1
330
44E2
330
44E3
330
44E5
330
44E7
330
44E9
330
44EA
330
44EB
330
44EC
330
44ED
330
44F0
330
44F1
330
44F2
330
44F3
330
44F6
330
44F7
330
44F8
330
44F9
330
44FA
330
44FB
330
44FD
330
44FF
330
4501
330
4503
330
4504
330
4506
330
4507
330
450A
330
450B
330
450E
330
450F
330
4510
330
53D9
330
53DA
330
53DB
330
53DC
330
53DD
330
53DE
330
53DF
330
53E0
330
53E1
330
53E2
330
53E3
330
53E4
330
53E5
330
53E6
330
53E7
330
53E8
330
53E9
330
53EA
330
53EB
330
53EC
330
53ED
330
53EE
330
53EF
330
53F0
330
53F1
330
53F2
330
53F3
330
53F4
330
53F5
330
53F6
330
53F7
330
53F8
330
53F9
330
53FA
330
53FB
330
53FC
330
53FD
330
53FE
330
53FF
330
5400
330
5401
330
5402
330
5403
330
5404
330
5405
330
5406
330
5407
330
5408
330
5409
330
540A
330
540B
330
540C
330
540D
330
540F
330
5411
330
5412
330
5413
330
5414
330
5415
330
5416
330
5417
330
5418
330
5419
330
541A
330
541B
330
541C
330
541D
330
541E
330
541F
330
5420
330
5421
330
54C2
330
54C3
330
54C4
330
54C5
330
54C6
  0
IDBUFFER
  5
5736
330
0
100
AcDbIdBuffer
330
44DA
  0
IDBUFFER
  5
5737
330
0
100
AcDbIdBuffer
330
5118
330
5119
330
511A
330
5170
330
5171
330
5172
330
520D
330
520E
330
55C6
  0
IDBUFFER
  5
5738
330
0
100
AcDbIdBuffer
  0
IDBUFFER
  5
5739
330
0
100
AcDbIdBuffer
330
E5A
  0
IDBUFFER
  5
573A
330
0
100
AcDbIdBuffer
330
5410
  0
IDBUFFER
  5
573B
330
0
100
AcDbIdBuffer
330
44DB
330
44EE
330
4509
330
4512
330
4513
330
4D55
330
5009
  0
ENDSEC
  0
EOF
