  0
SECTION
  2
HEADER
  9
$ACADVER
  1
AC1014
  9
$ACADMAINTVER
 70
     9
  9
$DWGCODEPAGE
  3
ANSI_932
  9
$INSBASE
 10
0.0
 20
0.0
 30
0.0
  9
$EXTMIN
 10
-117.0318678176014
 20
-166.8837398957973
 30
-0.00000001
  9
$EXTMAX
 10
21.97912562390156
 20
110.5819223869407
 30
0.00000001
  9
$LIMMIN
 10
-159.8916161115933
 20
-201.2141302298662
  9
$LIMMAX
 10
57.8407756388151
 20
146.1796654179054
  9
$ORTHOMODE
 70
     0
  9
$REGENMODE
 70
     1
  9
$FILLMODE
 70
     1
  9
$QTEXTMODE
 70
     0
  9
$MIRRTEXT
 70
     0
  9
$DRAGMODE
 70
     2
  9
$LTSCALE
 40
1.0
  9
$OSMODE
 70
    55
  9
$ATTMODE
 70
     1
  9
$TEXTSIZE
 40
2.5
  9
$TRACEWID
 40
1.0
  9
$TEXTSTYLE
  7
STANDARD
  9
$CLAYER
  8
AM_0
  9
$CELTYPE
  6
BYLAYER
  9
$CECOLOR
 62
   256
  9
$CELTSCALE
 40
1.0
  9
$DELOBJ
 70
     1
  9
$DISPSILH
 70
     0
  9
$DIMSCALE
 40
1.0
  9
$DIMASZ
 40
2.5
  9
$DIMEXO
 40
1.0
  9
$DIMDLI
 40
12.0
  9
$DIMRND
 40
0.0
  9
$DIMDLE
 40
0.0
  9
$DIMEXE
 40
1.0
  9
$DIMTP
 40
0.1
  9
$DIMTM
 40
0.1
  9
$DIMTXT
 40
3.2
  9
$DIMCEN
 40
0.0
  9
$DIMTSZ
 40
0.0
  9
$DIMTOL
 70
     0
  9
$DIMLIM
 70
     0
  9
$DIMTIH
 70
     0
  9
$DIMTOH
 70
     0
  9
$DIMSE1
 70
     0
  9
$DIMSE2
 70
     0
  9
$DIMTAD
 70
     3
  9
$DIMZIN
 70
     8
  9
$DIMBLK
  1
OPEN30
  9
$DIMASO
 70
     1
  9
$DIMSHO
 70
     1
  9
$DIMPOST
  1

  9
$DIMAPOST
  1
"
  9
$DIMALT
 70
     0
  9
$DIMALTD
 70
     2
  9
$DIMALTF
 40
0.0393701
  9
$DIMLFAC
 40
1.0
  9
$DIMTOFL
 70
     1
  9
$DIMTVP
 40
0.0
  9
$DIMTIX
 70
     0
  9
$DIMSOXD
 70
     0
  9
$DIMSAH
 70
     0
  9
$DIMBLK1
  1

  9
$DIMBLK2
  1

  9
$DIMSTYLE
  2
AM_JIS
  9
$DIMCLRD
 70
   256
  9
$DIMCLRE
 70
   256
  9
$DIMCLRT
 70
     2
  9
$DIMTFAC
 40
0.71
  9
$DIMGAP
 40
1.5
  9
$DIMJUST
 70
     0
  9
$DIMSD1
 70
     0
  9
$DIMSD2
 70
     0
  9
$DIMTOLJ
 70
     0
  9
$DIMTZIN
 70
     0
  9
$DIMALTZ
 70
     0
  9
$DIMALTTZ
 70
     0
  9
$DIMFIT
 70
     3
  9
$DIMUPT
 70
     0
  9
$DIMUNIT
 70
     2
  9
$DIMDEC
 70
     3
  9
$DIMTDEC
 70
     3
  9
$DIMALTU
 70
     2
  9
$DIMALTTD
 70
     2
  9
$DIMTXSTY
  7
ASAMI
  9
$DIMAUNIT
 70
     0
  9
$LUNITS
 70
     2
  9
$LUPREC
 70
     2
  9
$SKETCHINC
 40
1.0
  9
$FILLETRAD
 40
2.0
  9
$AUNITS
 70
     0
  9
$AUPREC
 70
     0
  9
$MENU
  1
.
  9
$ELEVATION
 40
0.0
  9
$PELEVATION
 40
0.0
  9
$THICKNESS
 40
0.0
  9
$LIMCHECK
 70
     0
  9
$BLIPMODE
 70
     0
  9
$CHAMFERA
 40
1.0
  9
$CHAMFERB
 40
1.0
  9
$CHAMFERC
 40
20.0
  9
$CHAMFERD
 40
0.0
  9
$SKPOLY
 70
     0
  9
$TDCREATE
 40
2452836.771637361
  9
$TDUPDATE
 40
2453152.366953437
  9
$TDINDWG
 40
0.1248043287
  9
$TDUSRTIMER
 40
0.1248043287
  9
$USRTIMER
 70
     1
  9
$ANGBASE
 50
0.0
  9
$ANGDIR
 70
     0
  9
$PDMODE
 70
     0
  9
$PDSIZE
 40
0.0
  9
$PLINEWID
 40
0.0
  9
$COORDS
 70
     1
  9
$SPLFRAME
 70
     0
  9
$SPLINETYPE
 70
     6
  9
$SPLINESEGS
 70
     8
  9
$ATTDIA
 70
     1
  9
$ATTREQ
 70
     1
  9
$HANDLING
 70
 12289
  9
$HANDSEED
  5
7D95
  9
$SURFTAB1
 70
     6
  9
$SURFTAB2
 70
     6
  9
$SURFTYPE
 70
     6
  9
$SURFU
 70
     6
  9
$SURFV
 70
     6
  9
$UCSNAME
  2

  9
$UCSORG
 10
0.0
 20
0.0
 30
0.0
  9
$UCSXDIR
 10
1.0
 20
0.0
 30
0.0
  9
$UCSYDIR
 10
0.0
 20
1.0
 30
0.0
  9
$PUCSNAME
  2

  9
$PUCSORG
 10
0.0
 20
0.0
 30
0.0
  9
$PUCSXDIR
 10
1.0
 20
0.0
 30
0.0
  9
$PUCSYDIR
 10
0.0
 20
1.0
 30
0.0
  9
$USERI1
 70
     0
  9
$USERI2
 70
     0
  9
$USERI3
 70
     0
  9
$USERI4
 70
     0
  9
$USERI5
 70
     0
  9
$USERR1
 40
0.0
  9
$USERR2
 40
0.0
  9
$USERR3
 40
0.0
  9
$USERR4
 40
0.0
  9
$USERR5
 40
0.0
  9
$WORLDVIEW
 70
     1
  9
$SHADEDGE
 70
     3
  9
$SHADEDIF
 70
    70
  9
$TILEMODE
 70
     1
  9
$MAXACTVP
 70
    64
  9
$PINSBASE
 10
0.0
 20
0.0
 30
0.0
  9
$PLIMCHECK
 70
     0
  9
$PEXTMIN
 10
1.000000000000000E+20
 20
1.000000000000000E+20
 30
1.000000000000000E+20
  9
$PEXTMAX
 10
-1.000000000000000E+20
 20
-1.000000000000000E+20
 30
-1.000000000000000E+20
  9
$PLIMMIN
 10
0.0
 20
0.0
  9
$PLIMMAX
 10
841.0
 20
594.0
  9
$UNITMODE
 70
     0
  9
$VISRETAIN
 70
     1
  9
$PLINEGEN
 70
     0
  9
$PSLTSCALE
 70
     0
  9
$TREEDEPTH
 70
  3020
  9
$PICKSTYLE
 70
     0
  9
$CMLSTYLE
  2
STANDARD
  9
$CMLJUST
 70
     0
  9
$CMLSCALE
 40
20.0
  9
$PROXYGRAPHICS
 70
     1
  9
$MEASUREMENT
 70
     1
  0
ENDSEC
  0
SECTION
  2
CLASSES
  0
CLASS
  1
ACDBDICTIONARYWDFLT
  2
AcDbDictionaryWithDefault
  3
AutoCAD 2000
 90
        0
280
     0
281
     0
  0
CLASS
  1
ACDBPLACEHOLDER
  2
AcDbPlaceHolder
  3
AutoCAD 2000
 90
        0
280
     0
281
     0
  0
CLASS
  1
LAYOUT
  2
AcDbLayout
  3
AutoCAD 2000
 90
        0
280
     0
281
     0
  0
CLASS
  1
AMGSETTINGSOBJ
  2
AmgSettingsObj
  3
"AcadM|Product Description: AutoCAD Mechanical 2000|Company: Autodesk"
 90
        0
280
     0
281
     0
  0
CLASS
  1
ACME_DOCUMENT
  2
AcMeDbDoc
  3
AcMeServices
 90
        0
280
     0
281
     0
  0
CLASS
  1
ACMESCOPE
  2
AcMeScope
  3
AcMeServices
 90
        0
280
     0
281
     0
  0
CLASS
  1
ACMECOMMANDHISTORY
  2
AcMeCommandHistory
  3
AcMeServices
 90
        0
280
     0
281
     0
  0
CLASS
  1
DICTIONARYVAR
  2
AcDbDictionaryVar
  3
AutoCAD 2000
 90
        0
280
     0
281
     0
  0
CLASS
  1
ACIMSYSVARMAN
  2
AcImSysVarManager
  3
AcMeServices
 90
        0
280
     0
281
     0
  0
CLASS
  1
ACIMREALSYSVAR
  2
AcImRealSysVar
  3
AcMeServices
 90
        0
280
     0
281
     0
  0
CLASS
  1
ACIMINTSYSVAR
  2
AcImIntSysVar
  3
AcMeServices
 90
        0
280
     0
281
     0
  0
CLASS
  1
ACMEDRAWINGMAN
  2
AcMeDrawingMan
  3
AcMeServices
 90
        0
280
     0
281
     0
  0
CLASS
  1
ACMEVIEW
  2
AcMeView
  3
AcMeServices
 90
        0
280
     0
281
     0
  0
CLASS
  1
ACDBENTITYCACHE
  2
AcMeEntityCache
  3
AcMeServices
 90
        0
280
     0
281
     0
  0
CLASS
  1
GSMANAGER
  2
AcMeGSManager
  3
AcMeServices
 90
        0
280
     0
281
     0
  0
CLASS
  1
AmdtInternalReactor
  2
AmdtInternalReactor
  3
AcMeServices
 90
        0
280
     0
281
     0
  0
CLASS
  1
ACMESTATEMGR
  2
AcMeStateMgr
  3
AcMeServices
 90
        0
280
     0
281
     0
  0
CLASS
  1
ACME_DATABASE
  2
AcMeDbDatabase
  3
AcMeServices
 90
        0
280
     0
281
     0
  0
CLASS
  1
ACRFINSADJUSTERMGR
  2
AcRfInsAdjusterMgr
  3
AcMeServices
 90
        0
280
     0
281
     0
  0
CLASS
  1
ACMDATADICTIONARY
  2
AcmDataDictionary
  3
"AcmSymBB|Product Description: AutoCAD Mechanical 2000|Company: Autodesk"
 90
        0
280
     0
281
     0
  0
CLASS
  1
ACMDATAENTRYBLOCK
  2
AcmDataEntryBlock
  3
"AcmSymBB|Product Description: AutoCAD Mechanical 2000|Company: Autodesk"
 90
        0
280
     0
281
     0
  0
CLASS
  1
AMGOBJPROPCFG
  2
AmgObjPropCfg
  3
"AmgLay|Product Description: AutoCAD Mechanical 2000|Company: Autodesk"
 90
        1
280
     0
281
     0
  0
CLASS
  1
ACAMGFILTERDAT
  2
AcAmgFilterDat
  3
"AcadM|Product Description: AutoCAD Mechanical 2000|Company: Autodesk"
 90
        0
280
     0
281
     0
  0
CLASS
  1
LAYER_INDEX
  2
AcDbLayerIndex
  3
AutoCAD 2000
 90
        0
280
     0
281
     0
  0
CLASS
  1
IDBUFFER
  2
AcDbIdBuffer
  3
AutoCAD 2000
 90
        0
280
     0
281
     0
  0
CLASS
  1
ACIMSTRSYSVAR
  2
AcImStrSysVar
  3
AcMeServices
 90
        0
280
     0
281
     0
  0
CLASS
  1
ACMSTANDARDJIS
  2
AcmStandardJIS
  3
"AcmSymBB|Product Description: AutoCAD Mechanical 2000|Company: Autodesk"
 90
        0
280
     0
281
     0
  0
CLASS
  1
ACMSURFSTANDARDJIS
  2
AcmSurfTextStdJIS
  3
"AcmSymBB|Product Description: AutoCAD Mechanical 2000|Company: Autodesk"
 90
        0
280
     0
281
     0
  0
CLASS
  1
ACMFCFSTANDARDJIS
  2
AcmFCFStdJIS
  3
"AcmSymBB|Product Description: AutoCAD Mechanical 2000|Company: Autodesk"
 90
        0
280
     0
281
     0
  0
CLASS
  1
ACMWELDSTANDARDJIS
  2
AcmWeldingStdJIS
  3
"AcmSymBB|Product Description: AutoCAD Mechanical 2000|Company: Autodesk"
 90
        0
280
     0
281
     0
  0
CLASS
  1
ACMIDSTANDARDJIS
  2
AcmIdStdJIS
  3
"AcmSymBB|Product Description: AutoCAD Mechanical 2000|Company: Autodesk"
 90
        0
280
     0
281
     0
  0
CLASS
  1
ACMDATUMSTANDARDJIS
  2
AcmDatumStdJIS
  3
"AcmSymBB|Product Description: AutoCAD Mechanical 2000|Company: Autodesk"
 90
        0
280
     0
281
     0
  0
CLASS
  1
ACMBOMSTANDARDJIS
  2
AcmBOMStdJIS
  3
"AcmSymBB|Product Description: AutoCAD Mechanical 2000|Company: Autodesk"
 90
        0
280
     0
281
     0
  0
CLASS
  1
ACMSTANDARDANSI
  2
AcmStandardANSI
  3
"AcmSymBB|Product Description: AutoCAD Mechanical 2000|Company: Autodesk"
 90
        0
280
     0
281
     0
  0
CLASS
  1
ACMSURFSTANDARDANSI
  2
AcmSurfTextStdANSI
  3
"AcmSymBB|Product Description: AutoCAD Mechanical 2000|Company: Autodesk"
 90
        0
280
     0
281
     0
  0
CLASS
  1
ACMFCFSTANDARDANSI
  2
AcmFCFStdANSI
  3
"AcmSymBB|Product Description: AutoCAD Mechanical 2000|Company: Autodesk"
 90
        0
280
     0
281
     0
  0
CLASS
  1
ACMWELDSTANDARDANSI
  2
AcmWeldingStdANSI
  3
"AcmSymBB|Product Description: AutoCAD Mechanical 2000|Company: Autodesk"
 90
        0
280
     0
281
     0
  0
CLASS
  1
ACMIDSTANDARDANSI
  2
AcmIdStdANSI
  3
"AcmSymBB|Product Description: AutoCAD Mechanical 2000|Company: Autodesk"
 90
        0
280
     0
281
     0
  0
CLASS
  1
ACMDATUMSTANDARDANSI
  2
AcmDatumStdANSI
  3
"AcmSymBB|Product Description: AutoCAD Mechanical 2000|Company: Autodesk"
 90
        0
280
     0
281
     0
  0
CLASS
  1
ACMBOMSTANDARDANSI
  2
AcmBOMStdANSI
  3
"AcmSymBB|Product Description: AutoCAD Mechanical 2000|Company: Autodesk"
 90
        0
280
     0
281
     0
  0
CLASS
  1
ACMSTANDARDBSI
  2
AcmStandardBSI
  3
"AcmSymBB|Product Description: AutoCAD Mechanical 2000|Company: Autodesk"
 90
        0
280
     0
281
     0
  0
CLASS
  1
ACMSURFSTANDARDBSI
  2
AcmSurfTextStdBSI
  3
"AcmSymBB|Product Description: AutoCAD Mechanical 2000|Company: Autodesk"
 90
        0
280
     0
281
     0
  0
CLASS
  1
ACMFCFSTANDARDBSI
  2
AcmFCFStdBSI
  3
"AcmSymBB|Product Description: AutoCAD Mechanical 2000|Company: Autodesk"
 90
        0
280
     0
281
     0
  0
CLASS
  1
ACMWELDSTANDARDBSI
  2
AcmWeldingStdBSI
  3
"AcmSymBB|Product Description: AutoCAD Mechanical 2000|Company: Autodesk"
 90
        0
280
     0
281
     0
  0
CLASS
  1
ACMIDSTANDARDBSI
  2
AcmIdStdBSI
  3
"AcmSymBB|Product Description: AutoCAD Mechanical 2000|Company: Autodesk"
 90
        0
280
     0
281
     0
  0
CLASS
  1
ACMDATUMSTANDARDBSI
  2
AcmDatumStdBSI
  3
"AcmSymBB|Product Description: AutoCAD Mechanical 2000|Company: Autodesk"
 90
        0
280
     0
281
     0
  0
CLASS
  1
ACMBOMSTANDARDBSI
  2
AcmBOMStdBSI
  3
"AcmSymBB|Product Description: AutoCAD Mechanical 2000|Company: Autodesk"
 90
        0
280
     0
281
     0
  0
CLASS
  1
LONG_TRANSACTION
  2
AcDbLongTransaction
  3
AutoCAD 2000
 90
        0
280
     0
281
     0
  0
CLASS
  1
LWPOLYLINE
  2
AcDbPolyline
  3
AutoCAD 2000
 90
        0
280
     0
281
     1
  0
CLASS
  1
HATCH
  2
AcDbHatch
  3
AutoCAD 2000
 90
        0
280
     0
281
     1
  0
CLASS
  1
XRECORD
  2
AcDbXrecord
  3
AutoCAD 2000
 90
        0
280
     0
281
     0
  0
ENDSEC
  0
SECTION
  2
TABLES
  0
TABLE
  2
VPORT
  5
8
330
0
100
AcDbSymbolTable
 70
     3
  0
VPORT
  5
7D6A
330
8
100
AcDbSymbolTableRecord
100
AcDbViewportTableRecord
  2
*ACTIVE
 70
     0
 10
0.0
 20
0.0
 11
1.0
 21
1.0
 12
-1.275009148486759
 22
-28.06925930808029
 13
0.0
 23
0.0
 14
2.5
 24
2.5
 15
10.0
 25
10.0
 16
0.0
 26
0.0
 36
1.0
 17
0.0
 27
0.0
 37
0.0
 40
300.7470874985647
 41
1.56570841889117
 42
50.0
 43
0.0
 44
0.0
 50
0.0
 51
0.0
 71
     0
 72
   100
 73
     1
 74
     3
 75
     0
 76
     0
 77
     0
 78
     0
  0
ENDTAB
  0
TABLE
  2
LTYPE
  5
5
330
0
100
AcDbSymbolTable
 70
    10
  0
LTYPE
  5
14
330
5
100
AcDbSymbolTableRecord
100
AcDbLinetypeTableRecord
  2
BYBLOCK
 70
     0
  3

 72
    65
 73
     0
 40
0.0
  0
LTYPE
  5
15
330
5
100
AcDbSymbolTableRecord
100
AcDbLinetypeTableRecord
  2
BYLAYER
 70
     0
  3

 72
    65
 73
     0
 40
0.0
  0
LTYPE
  5
16
330
5
100
AcDbSymbolTableRecord
100
AcDbLinetypeTableRecord
  2
CONTINUOUS
 70
     0
  3
Solid line
 72
    65
 73
     0
 40
0.0
  0
LTYPE
  5
4B
330
5
100
AcDbSymbolTableRecord
100
AcDbLinetypeTableRecord
  2
AM_ISO02W050
 70
     0
  3
__ __ __ __ __ __ __ __ __ __ __ __ __ __ __
 72
    65
 73
     2
 40
7.5
 49
6.0
 74
     0
 49
-1.5
 74
     0
  0
LTYPE
  5
4C
330
5
100
AcDbSymbolTableRecord
100
AcDbLinetypeTableRecord
  2
AM_ISO08W050
 70
     0
  3
____ . ____ . ____ . ____ . ____ . ____ . ____
 72
    65
 73
     4
 40
18.0
 49
12.0
 74
     0
 49
-1.5
 74
     0
 49
3.0
 74
     0
 49
-1.5
 74
     0
  0
LTYPE
  5
4D
330
5
100
AcDbSymbolTableRecord
100
AcDbLinetypeTableRecord
  2
AM_ISO09W050
 70
     0
  3
_____ . . _____ . . _____ . . ____ .. ____
 72
    65
 73
     6
 40
22.5
 49
12.0
 74
     0
 49
-1.5
 74
     0
 49
3.0
 74
     0
 49
-1.5
 74
     0
 49
3.0
 74
     0
 49
-1.5
 74
     0
  0
LTYPE
  5
4E
330
5
100
AcDbSymbolTableRecord
100
AcDbLinetypeTableRecord
  2
AMCONSTR
 70
     0
  3
_______________________
 72
    65
 73
     2
 40
9999.0
 49
9999.0
 74
     0
 49
0.0
 74
     0
  0
LTYPE
  5
4F
330
5
100
AcDbSymbolTableRecord
100
AcDbLinetypeTableRecord
  2
AM_ISO02W050X2
 70
     0
  3
 _ _ _ _ _ _ _ _ _ _ _ _
 72
    65
 73
     2
 40
3.75
 49
3.0
 74
     0
 49
-0.75
 74
     0
  0
LTYPE
  5
50
330
5
100
AcDbSymbolTableRecord
100
AcDbLinetypeTableRecord
  2
AM_ISO08W050X2
 70
     0
  3
__ . __ . __ . __ . __ . __
 72
    65
 73
     4
 40
9.0
 49
6.0
 74
     0
 49
-0.75
 74
     0
 49
1.5
 74
     0
 49
-0.75
 74
     0
  0
LTYPE
  5
53
330
5
100
AcDbSymbolTableRecord
100
AcDbLinetypeTableRecord
  2
AMZIGZAG
 70
     0
  3
/\/-/\/-/\/-/\/-/\/-/\/
 72
    65
 73
     2
 40
11.00009999999999
 49
0.0001
 74
     4
 75
   135
340
52
 46
0.04
 50
0.0
 44
0.0
 45
0.0
 49
-11.0
 74
     0
  0
LTYPE
  5
166
330
5
100
AcDbSymbolTableRecord
100
AcDbLinetypeTableRecord
  2
ACJISTGL
 70
     0
  3
_ _ _ _ _
 72
    65
 73
     2
 40
3.0
 49
2.0
 74
     0
 49
-1.0
 74
     0
  0
LTYPE
  5
26A
330
5
100
AcDbSymbolTableRecord
100
AcDbLinetypeTableRecord
  2
ACJISTGB
 70
     0
  3
__ . . __ . .
 72
    65
 73
     6
 40
9.0
 49
4.0
 74
     0
 49
-1.0
 74
     0
 49
1.0
 74
     0
 49
-1.0
 74
     0
 49
1.0
 74
     0
 49
-1.0
 74
     0
  0
ENDTAB
  0
TABLE
  2
LAYER
  5
2
330
0
100
AcDbSymbolTable
 70
     8
  0
LAYER
  5
10
330
2
100
AcDbSymbolTableRecord
100
AcDbLayerTableRecord
  2
0
 70
     0
 62
     7
  6
CONTINUOUS
  0
LAYER
  5
3F9
330
2
100
AcDbSymbolTableRecord
100
AcDbLayerTableRecord
  2
AM_0
 70
     0
 62
     7
  6
CONTINUOUS
  0
LAYER
  5
BD5
330
2
100
AcDbSymbolTableRecord
100
AcDbLayerTableRecord
  2
AM_7
 70
     0
 62
     4
  6
AM_ISO08W050
  0
LAYER
  5
BD6
330
2
100
AcDbSymbolTableRecord
100
AcDbLayerTableRecord
  2
AM_5
 70
     0
 62
     3
  6
CONTINUOUS
  0
LAYER
  5
BD7
330
2
100
AcDbSymbolTableRecord
100
AcDbLayerTableRecord
  2
DEFPOINTS
 70
     0
 62
     7
  6
CONTINUOUS
  0
LAYER
  5
E59
330
2
100
AcDbSymbolTableRecord
100
AcDbLayerTableRecord
  2
AM_6
 70
     0
 62
     2
  6
CONTINUOUS
  0
LAYER
  5
1E31
330
2
100
AcDbSymbolTableRecord
100
AcDbLayerTableRecord
  2
AM_11
 70
     0
 62
     3
  6
AM_ISO09W050
  0
LAYER
  5
1E41
330
2
100
AcDbSymbolTableRecord
100
AcDbLayerTableRecord
  2
AM_3
 70
     0
 62
     6
  6
ACJISTGL
  0
ENDTAB
  0
TABLE
  2
STYLE
  5
3
330
0
100
AcDbSymbolTable
 70
     5
  0
STYLE
  5
11
330
3
100
AcDbSymbolTableRecord
100
AcDbTextStyleTableRecord
  2
STANDARD
 70
     0
 40
0.0
 41
1.0
 50
0.0
 71
     0
 42
2.5
  3
simplex.shx
  4
EXTFONT.SHX
  0
STYLE
  5
52
330
3
100
AcDbSymbolTableRecord
100
AcDbTextStyleTableRecord
  2

 70
     1
 40
0.0
 41
1.0
 50
0.0
 71
     0
 42
2.5
  3
ltypeshp.shx
  4

  0
STYLE
  5
6B
330
3
100
AcDbSymbolTableRecord
100
AcDbTextStyleTableRecord
  2
ASAMI
 70
     0
 40
0.0
 41
1.0
 50
0.0
 71
     0
 42
2.5
  3
simplex.shx
  4
EXTFONT.SHX
  0
STYLE
  5
262
330
3
100
AcDbSymbolTableRecord
100
AcDbTextStyleTableRecord
  2
ACJISTS
 70
     0
 40
1.0
 41
1.0
 50
0.0
 71
     0
 42
2.5
  3
simplex.shx
  4
bigfont.shx
  0
STYLE
  5
269
330
3
100
AcDbSymbolTableRecord
100
AcDbTextStyleTableRecord
  2
ACJISGDT
 70
     0
 40
0.0
 41
1.0
 50
0.0
 71
     0
 42
2.5
  3
amgdtans.shx
  4

  0
ENDTAB
  0
TABLE
  2
VIEW
  5
6
330
0
100
AcDbSymbolTable
 70
     0
  0
ENDTAB
  0
TABLE
  2
UCS
  5
7
330
0
100
AcDbSymbolTable
 70
     0
  0
ENDTAB
  0
TABLE
  2
APPID
  5
9
330
0
100
AcDbSymbolTable
 70
    13
  0
APPID
  5
12
330
9
100
AcDbSymbolTableRecord
100
AcDbRegAppTableRecord
  2
ACAD
 70
     0
  0
APPID
  5
30
330
9
100
AcDbSymbolTableRecord
100
AcDbRegAppTableRecord
  2
MCAD_NO_VIS
 70
     0
  0
APPID
  5
31
330
9
100
AcDbSymbolTableRecord
100
AcDbRegAppTableRecord
  2
ACAD_TEMP_GRAPHIC
 70
     0
  0
APPID
  5
2C2
330
9
100
AcDbSymbolTableRecord
100
AcDbRegAppTableRecord
  2
GENIUS_GENDTOL_13
 70
     0
  0
APPID
  5
339
330
9
100
AcDbSymbolTableRecord
100
AcDbRegAppTableRecord
  2
GENIUS_GENODEF_13
 70
     0
  0
APPID
  5
33A
330
9
100
AcDbSymbolTableRecord
100
AcDbRegAppTableRecord
  2
GENIUS_GENOBJ-N-RSBK_13
 70
     0
  0
APPID
  5
33B
330
9
100
AcDbSymbolTableRecord
100
AcDbRegAppTableRecord
  2
GENIUS_GENOBJ-N-LIB_13
 70
     0
  0
APPID
  5
33C
330
9
100
AcDbSymbolTableRecord
100
AcDbRegAppTableRecord
  2
GENIUS_GENSCALE_13
 70
     0
  0
APPID
  5
378
330
9
100
AcDbSymbolTableRecord
100
AcDbRegAppTableRecord
  2
GENIUS_GENDIMSH_14
 70
     0
  0
APPID
  5
BD8
330
9
100
AcDbSymbolTableRecord
100
AcDbRegAppTableRecord
  2
GENIUS_GENOBJ-N-CEN_13
 70
     0
  0
APPID
  5
BD9
330
9
100
AcDbSymbolTableRecord
100
AcDbRegAppTableRecord
  2
GENIUS_GENFIL_13
 70
     0
  0
APPID
  5
BDA
330
9
100
AcDbSymbolTableRecord
100
AcDbRegAppTableRecord
  2
GENIUS_GENOBJ-N-CHA_13
 70
     0
  0
APPID
  5
2BC1
330
9
100
AcDbSymbolTableRecord
100
AcDbRegAppTableRecord
  2
GENIUS_GENOBJ-N-FIL_13
 70
     0
  0
ENDTAB
  0
TABLE
  2
DIMSTYLE
  5
A
330
0
100
AcDbSymbolTable
 70
     9
  0
DIMSTYLE
105
58
102
{ACAD_REACTORS
330
7550
330
7551
330
7552
330
75DC
330
75DA
330
75DB
330
7639
102
}
330
A
100
AcDbSymbolTableRecord
100
AcDbDimStyleTableRecord
  2
AM_JIS
 70
     0
  3

  4
"
  5
OPEN30
  6

  7

 40
1.0
 41
2.5
 42
1.0
 43
12.0
 44
1.0
 45
0.0
 46
0.0
 47
0.1
 48
0.1
140
3.2
141
0.0
142
0.0
143
0.0393701
144
1.0
145
0.0
146
0.71
147
1.5
 71
     0
 72
     0
 73
     0
 74
     0
 75
     0
 76
     0
 77
     3
 78
     8
170
     0
171
     2
172
     1
173
     0
174
     0
175
     0
176
   256
177
   256
178
     2
270
     2
271
     3
272
     3
273
     2
274
     2
340
6B
275
     0
280
     0
281
     0
282
     0
283
     0
284
     0
285
     0
286
     0
287
     3
288
     0
  0
DIMSTYLE
105
5F
330
A
100
AcDbSymbolTableRecord
100
AcDbDimStyleTableRecord
  2
AM_JIS$3
 70
     0
  3

  4
"
  5
OPEN30
  6

  7

 40
1.0
 41
2.5
 42
1.0
 43
10.0
 44
1.0
 45
0.0
 46
0.0
 47
0.1
 48
0.1
140
3.2
141
0.0
142
0.0
143
0.0393701
144
1.0
145
0.0
146
0.71
147
1.5
 71
     0
 72
     0
 73
     0
 74
     1
 75
     0
 76
     0
 77
     3
 78
     8
170
     0
171
     2
172
     0
173
     0
174
     0
175
     0
176
   256
177
   256
178
     2
270
     2
271
     2
272
     3
273
     2
274
     2
340
6B
275
     0
280
     0
281
     0
282
     0
283
     0
284
     0
285
     0
286
     0
287
     0
288
     1
  0
DIMSTYLE
105
60
330
A
100
AcDbSymbolTableRecord
100
AcDbDimStyleTableRecord
  2
AM_JIS$4
 70
     0
  3

  4
"
  5
OPEN30
  6

  7

 40
1.0
 41
2.5
 42
1.0
 43
10.0
 44
1.0
 45
0.0
 46
0.0
 47
0.1
 48
0.1
140
3.2
141
0.0
142
0.0
143
0.0393701
144
1.0
145
0.0
146
0.71
147
1.5
 71
     0
 72
     0
 73
     0
 74
     1
 75
     0
 76
     0
 77
     3
 78
     8
170
     0
171
     2
172
     0
173
     0
174
     0
175
     0
176
   256
177
   256
178
     2
270
     2
271
     2
272
     3
273
     2
274
     2
340
6B
275
     0
280
     0
281
     0
282
     0
283
     0
284
     0
285
     0
286
     0
287
     0
288
     1
  0
DIMSTYLE
105
61
330
A
100
AcDbSymbolTableRecord
100
AcDbDimStyleTableRecord
  2
AM_JIS$6
 70
     0
  3

  4
"
  5
OPEN30
  6

  7

 40
1.0
 41
2.5
 42
1.0
 43
10.0
 44
1.0
 45
0.0
 46
0.0
 47
0.1
 48
0.1
140
3.2
141
0.0
142
0.0
143
0.0393701
144
1.0
145
0.0
146
0.71
147
1.5
 71
     0
 72
     0
 73
     0
 74
     0
 75
     0
 76
     0
 77
     0
 78
     8
170
     0
171
     2
172
     1
173
     0
174
     0
175
     0
176
   256
177
   256
178
     2
270
     2
271
     2
272
     2
273
     2
274
     2
340
6B
275
     0
280
     0
281
     0
282
     0
283
     0
284
     0
285
     0
286
     0
287
     3
288
     0
  0
DIMSTYLE
105
62
330
A
100
AcDbSymbolTableRecord
100
AcDbDimStyleTableRecord
  2
AM_JIS$7
 70
     0
  3

  4
"
  5
OPEN30
  6

  7

 40
1.0
 41
2.5
 42
1.0
 43
10.0
 44
1.0
 45
0.0
 46
0.0
 47
0.1
 48
0.1
140
3.2
141
0.0
142
0.0
143
0.0393701
144
1.0
145
0.0
146
0.71
147
1.5
 71
     0
 72
     0
 73
     0
 74
     0
 75
     0
 76
     0
 77
     3
 78
     8
170
     0
171
     2
172
     1
173
     0
174
     0
175
     0
176
   256
177
   256
178
     2
270
     2
271
     2
272
     3
273
     2
274
     2
340
6B
275
     0
280
     0
281
     0
282
     0
283
     0
284
     0
285
     0
286
     0
287
     3
288
     0
  0
DIMSTYLE
105
63
330
A
100
AcDbSymbolTableRecord
100
AcDbDimStyleTableRecord
  2
AM_JIS$SF
 70
     0
  3

  4
"
  5
OPEN30
  6

  7

 40
1.0
 41
2.5
 42
1.0
 43
10.0
 44
1.0
 45
0.0
 46
0.0
 47
0.1
 48
0.1
140
3.2
141
0.0
142
0.0
143
0.0393701
144
1.0
145
0.0
146
0.71
147
1.5
 71
     0
 72
     0
 73
     0
 74
     0
 75
     1
 76
     1
 77
     3
 78
     8
170
     0
171
     2
172
     1
173
     0
174
     0
175
     0
176
   256
177
   256
178
     2
270
     2
271
     2
272
     2
273
     2
274
     2
340
6B
275
     0
280
     0
281
     0
282
     0
283
     0
284
     0
285
     0
286
     0
287
     3
288
     0
  0
DIMSTYLE
105
68
330
A
100
AcDbSymbolTableRecord
100
AcDbDimStyleTableRecord
  2
AM_JIS$SH
 70
     0
  3

  4
"
  5

  6
GENAXEH
  7
OPEN30
 40
1.0
 41
2.5
 42
1.0
 43
10.0
 44
1.0
 45
0.0
 46
0.0
 47
0.1
 48
0.1
140
3.2
141
0.0
142
0.0
143
0.0393701
144
2.0
145
0.0
146
0.71
147
1.5
 71
     0
 72
     0
 73
     0
 74
     0
 75
     1
 76
     1
 77
     3
 78
     8
170
     0
171
     2
172
     1
173
     1
174
     0
175
     0
176
   256
177
   256
178
     2
270
     2
271
     2
272
     2
273
     2
274
     2
340
6B
275
     0
280
     0
281
     0
282
     0
283
     0
284
     0
285
     0
286
     0
287
     3
288
     0
  0
DIMSTYLE
105
B34
102
{ACAD_REACTORS
330
7BD1
102
}
330
A
100
AcDbSymbolTableRecord
100
AcDbDimStyleTableRecord
  2
AM_JIS$2
 70
     0
  3

  4
"
  5
OPEN30
  6

  7

 40
1.0
 41
2.5
 42
1.0
 43
12.0
 44
1.0
 45
0.0
 46
0.0
 47
0.1
 48
0.1
140
3.2
141
0.0
142
0.0
143
0.0393701
144
1.0
145
0.0
146
0.71
147
1.5
 71
     0
 72
     0
 73
     0
 74
     0
 75
     0
 76
     0
 77
     3
 78
     8
170
     0
171
     2
172
     1
173
     0
174
     0
175
     0
176
   256
177
   256
178
     2
270
     2
271
     3
272
     3
273
     2
274
     2
340
6B
275
     0
280
     0
281
     0
282
     0
283
     0
284
     0
285
     0
286
     0
287
     3
288
     0
  0
DIMSTYLE
105
1E42
330
A
100
AcDbSymbolTableRecord
100
AcDbDimStyleTableRecord
  2
AM_JIS$0
 70
     0
  3

  4
"
  5
OPEN30
  6

  7

 40
2.0
 41
2.5
 42
1.0
 43
10.0
 44
1.0
 45
0.0
 46
0.0
 47
0.1
 48
0.1
140
2.5
141
0.0
142
0.0
143
0.0393701
144
1.0
145
0.0
146
0.71
147
1.0
 71
     0
 72
     0
 73
     0
 74
     0
 75
     0
 76
     0
 77
     3
 78
     8
170
     0
171
     2
172
     1
173
     0
174
     0
175
     0
176
   256
177
   256
178
     4
270
     2
271
     3
272
     3
273
     2
274
     2
340
6B
275
     0
280
     0
281
     0
282
     0
283
     0
284
     0
285
     0
286
     0
287
     3
288
     0
  0
ENDTAB
  0
TABLE
  2
BLOCK_RECORD
  5
1
330
0
100
AcDbSymbolTable
 70
    13
  0
BLOCK_RECORD
  5
1F
102
{ACAD_XDICTIONARY
360
74
102
}
330
1
100
AcDbSymbolTableRecord
100
AcDbBlockTableRecord
  2
*MODEL_SPACE
  0
BLOCK_RECORD
  5
101
102
{ACAD_XDICTIONARY
360
7D93
102
}
330
1
100
AcDbSymbolTableRecord
100
AcDbBlockTableRecord
  2
*PAPER_SPACE
  0
BLOCK_RECORD
  5
59
330
1
100
AcDbSymbolTableRecord
100
AcDbBlockTableRecord
  2
_OPEN30
  0
BLOCK_RECORD
  5
64
330
1
100
AcDbSymbolTableRecord
100
AcDbBlockTableRecord
  2
GENAXEH
  0
BLOCK_RECORD
  5
7553
330
1
100
AcDbSymbolTableRecord
100
AcDbBlockTableRecord
  2
*D5
  0
BLOCK_RECORD
  5
755F
330
1
100
AcDbSymbolTableRecord
100
AcDbBlockTableRecord
  2
*D6
  0
BLOCK_RECORD
  5
756B
330
1
100
AcDbSymbolTableRecord
100
AcDbBlockTableRecord
  2
*D7
  0
BLOCK_RECORD
  5
75DD
330
1
100
AcDbSymbolTableRecord
100
AcDbBlockTableRecord
  2
*D8
  0
BLOCK_RECORD
  5
75E9
330
1
100
AcDbSymbolTableRecord
100
AcDbBlockTableRecord
  2
*D9
  0
BLOCK_RECORD
  5
75F5
330
1
100
AcDbSymbolTableRecord
100
AcDbBlockTableRecord
  2
*D10
  0
BLOCK_RECORD
  5
763A
330
1
100
AcDbSymbolTableRecord
100
AcDbBlockTableRecord
  2
*D11
  0
BLOCK_RECORD
  5
7BD2
330
1
100
AcDbSymbolTableRecord
100
AcDbBlockTableRecord
  2
*D12
  0
ENDTAB
  0
ENDSEC
  0
SECTION
  2
BLOCKS
  0
BLOCK
  5
20
330
1F
100
AcDbEntity
  8
0
100
AcDbBlockBegin
  2
*MODEL_SPACE
 70
     0
 10
0.0
 20
0.0
 30
0.0
  3
*MODEL_SPACE
  1

  0
ENDBLK
  5
21
330
1F
100
AcDbEntity
  8
0
100
AcDbBlockEnd
  0
BLOCK
  5
103
330
101
100
AcDbEntity
 67
     1
  8
0
100
AcDbBlockBegin
  2
*PAPER_SPACE
 70
     0
 10
0.0
 20
0.0
 30
0.0
  3
*PAPER_SPACE
  1

  0
ENDBLK
  5
104
330
101
100
AcDbEntity
 67
     1
  8
0
100
AcDbBlockEnd
  0
BLOCK
  5
5D
330
59
100
AcDbEntity
  8
0
100
AcDbBlockBegin
  2
_OPEN30
 70
     0
 10
0.0
 20
0.0
 30
0.0
  3
_OPEN30
  1

  0
LINE
  5
5A
330
59
100
AcDbEntity
  8
0
 62
     0
100
AcDbLine
 10
-1.0
 20
0.26794919
 30
0.0
 11
0.0
 21
0.0
 31
0.0
  0
LINE
  5
5B
330
59
100
AcDbEntity
  8
0
 62
     0
100
AcDbLine
 10
0.0
 20
0.0
 30
0.0
 11
-1.0
 21
-0.26794919
 31
0.0
  0
LINE
  5
5C
330
59
100
AcDbEntity
  8
0
 62
     0
100
AcDbLine
 10
0.0
 20
0.0
 30
0.0
 11
-1.0
 21
0.0
 31
0.0
  0
ENDBLK
  5
5E
330
59
100
AcDbEntity
  8
0
100
AcDbBlockEnd
  0
BLOCK
  5
66
330
64
100
AcDbEntity
  8
0
100
AcDbBlockBegin
  2
GENAXEH
 70
     0
 10
0.0
 20
0.0
 30
0.0
  3
GENAXEH
  1

  0
LINE
  5
65
330
64
100
AcDbEntity
  8
0
100
AcDbLine
 10
-1.0
 20
0.0
 30
0.0
 11
1.0
 21
0.0
 31
0.0
  0
ENDBLK
  5
67
330
64
100
AcDbEntity
  8
0
100
AcDbBlockEnd
  0
BLOCK
  5
755D
330
7553
100
AcDbEntity
  8
0
100
AcDbBlockBegin
  2
*D5
 70
     1
 10
0.0
 20
0.0
 30
0.0
  3
*D5
  1

  0
LINE
  5
7835
330
7553
100
AcDbEntity
  8
AM_5
100
AcDbLine
 10
-62.00000000000009
 20
65.0
 30
0.0
 11
-113.3318678176013
 21
65.00000000000001
 31
0.0
  0
LINE
  5
7836
330
7553
100
AcDbEntity
  8
AM_5
100
AcDbLine
 10
-62.00000000000009
 20
-65.0
 30
0.0
 11
-113.3318678176014
 21
-64.99999999999999
 31
0.0
  0
LINE
  5
7837
330
7553
100
AcDbEntity
  8
AM_5
100
AcDbLine
 10
-112.3318678176014
 20
62.50000000000001
 30
0.0
 11
-112.3318678176014
 21
-62.49999999999999
 31
0.0
  0
INSERT
  5
7838
330
7553
100
AcDbEntity
  8
AM_5
100
AcDbBlockReference
  2
_OPEN30
 10
-112.3318678176014
 20
65.00000000000001
 30
0.0
 41
2.5
 42
2.5
 43
2.5
 50
90.0
  0
INSERT
  5
7839
330
7553
100
AcDbEntity
  8
AM_5
100
AcDbBlockReference
  2
_OPEN30
 10
-112.3318678176014
 20
-64.99999999999999
 30
0.0
 41
2.5
 42
2.5
 43
2.5
 50
270.0
  0
MTEXT
  5
783A
330
7553
100
AcDbEntity
  8
AM_5
 62
     2
100
AcDbMText
 10
-115.4318678176013
 20
-0.000000000000007
 30
0.0
 40
3.2
 41
0.0
 71
     5
 72
     1
  1
%%c130
  7
ASAMI
 11
0.0000000000000001
 21
1.0
 31
0.0
1001
ACAD
1000
MTEXTBEGIN
1070
    73
1070
     1
1070
    44
1040
1.0
1070
    74
1070
     0
1000
MTEXTEND
  0
POINT
  5
783B
330
7553
100
AcDbEntity
  8
DEFPOINTS
 62
     0
100
AcDbPoint
 10
-61.00000000000008
 20
65.0
 30
0.0
  0
POINT
  5
783C
330
7553
100
AcDbEntity
  8
DEFPOINTS
 62
     0
100
AcDbPoint
 10
-61.00000000000008
 20
-65.0
 30
0.0
  0
POINT
  5
783D
330
7553
100
AcDbEntity
  8
DEFPOINTS
 62
     0
100
AcDbPoint
 10
-112.3318678176014
 20
-64.99999999999999
 30
0.0
  0
ENDBLK
  5
755E
330
7553
100
AcDbEntity
  8
0
100
AcDbBlockEnd
  0
BLOCK
  5
7569
330
755F
100
AcDbEntity
  8
0
100
AcDbBlockBegin
  2
*D6
 70
     1
 10
0.0
 20
0.0
 30
0.0
  3
*D6
  1

  0
LINE
  5
783E
330
755F
100
AcDbEntity
  8
AM_5
100
AcDbLine
 10
-61.00000000000003
 20
23.81250000000001
 30
0.0
 11
-103.3318678176014
 21
23.81250000000002
 31
0.0
  0
LINE
  5
783F
330
755F
100
AcDbEntity
  8
AM_5
100
AcDbLine
 10
-61.00000000000003
 20
-23.8125
 30
0.0
 11
-103.3318678176014
 21
-23.81249999999999
 31
0.0
  0
LINE
  5
7840
330
755F
100
AcDbEntity
  8
AM_5
100
AcDbLine
 10
-102.3318678176014
 20
21.31250000000002
 30
0.0
 11
-102.3318678176014
 21
-21.31249999999999
 31
0.0
  0
INSERT
  5
7841
330
755F
100
AcDbEntity
  8
AM_5
100
AcDbBlockReference
  2
_OPEN30
 10
-102.3318678176014
 20
23.81250000000002
 30
0.0
 41
2.5
 42
2.5
 43
2.5
 50
90.0
  0
INSERT
  5
7842
330
755F
100
AcDbEntity
  8
AM_5
100
AcDbBlockReference
  2
_OPEN30
 10
-102.3318678176014
 20
-23.81249999999999
 30
0.0
 41
2.5
 42
2.5
 43
2.5
 50
270.0
  0
MTEXT
  5
7843
330
755F
100
AcDbEntity
  8
AM_5
 62
     2
100
AcDbMText
 10
-105.4318678176014
 20
-0.0000000000000005
 30
0.0
 40
3.2
 41
0.0
 71
     5
 72
     1
  1
%%c47.625
  7
ASAMI
 11
0.0000000000000001
 21
1.0
 31
0.0
1001
ACAD
1000
MTEXTBEGIN
1070
    73
1070
     1
1070
    44
1040
1.0
1070
    74
1070
     0
1000
MTEXTEND
  0
POINT
  5
7844
330
755F
100
AcDbEntity
  8
DEFPOINTS
 62
     0
100
AcDbPoint
 10
-60.00000000000003
 20
23.81250000000001
 30
0.0
  0
POINT
  5
7845
330
755F
100
AcDbEntity
  8
DEFPOINTS
 62
     0
100
AcDbPoint
 10
-60.00000000000003
 20
-23.8125
 30
0.0
  0
POINT
  5
7846
330
755F
100
AcDbEntity
  8
DEFPOINTS
 62
     0
100
AcDbPoint
 10
-102.3318678176014
 20
-23.81249999999999
 30
0.0
  0
ENDBLK
  5
756A
330
755F
100
AcDbEntity
  8
0
100
AcDbBlockEnd
  0
BLOCK
  5
7575
330
756B
100
AcDbEntity
  8
0
100
AcDbBlockBegin
  2
*D7
 70
     1
 10
0.0
 20
0.0
 30
0.0
  3
*D7
  1

  0
LINE
  5
7847
330
756B
100
AcDbEntity
  8
AM_5
100
AcDbLine
 10
-63.00000000000008
 20
12.69999999999996
 30
0.0
 11
-93.33186781760142
 21
12.69999999999996
 31
0.0
  0
LINE
  5
7848
330
756B
100
AcDbEntity
  8
AM_5
100
AcDbLine
 10
-62.90000000000003
 20
-12.69999999999996
 30
0.0
 11
-93.33186781760142
 21
-12.69999999999995
 31
0.0
  0
LINE
  5
7849
330
756B
100
AcDbEntity
  8
AM_5
100
AcDbLine
 10
-92.33186781760142
 20
10.19999999999996
 30
0.0
 11
-92.33186781760142
 21
-10.19999999999995
 31
0.0
  0
INSERT
  5
784A
330
756B
100
AcDbEntity
  8
AM_5
100
AcDbBlockReference
  2
_OPEN30
 10
-92.33186781760142
 20
12.69999999999996
 30
0.0
 41
2.5
 42
2.5
 43
2.5
 50
90.0
  0
INSERT
  5
784B
330
756B
100
AcDbEntity
  8
AM_5
100
AcDbBlockReference
  2
_OPEN30
 10
-92.33186781760142
 20
-12.69999999999995
 30
0.0
 41
2.5
 42
2.5
 43
2.5
 50
270.0
  0
MTEXT
  5
784C
330
756B
100
AcDbEntity
  8
AM_5
 62
     2
100
AcDbMText
 10
-95.43186781760141
 20
-0.000000000000028
 30
0.0
 40
3.2
 41
0.0
 71
     5
 72
     1
  1
25.4
  7
ASAMI
 11
0.0000000000000001
 21
1.0
 31
0.0
1001
ACAD
1000
MTEXTBEGIN
1070
    73
1070
     1
1070
    44
1040
1.0
1070
    74
1070
     0
1000
MTEXTEND
  0
POINT
  5
784D
330
756B
100
AcDbEntity
  8
DEFPOINTS
 62
     0
100
AcDbPoint
 10
-62.00000000000009
 20
12.69999999999996
 30
0.0
  0
POINT
  5
784E
330
756B
100
AcDbEntity
  8
DEFPOINTS
 62
     0
100
AcDbPoint
 10
-61.90000000000003
 20
-12.69999999999996
 30
0.0
  0
POINT
  5
784F
330
756B
100
AcDbEntity
  8
DEFPOINTS
 62
     0
100
AcDbPoint
 10
-92.33186781760142
 20
-12.69999999999995
 30
0.0
  0
ENDBLK
  5
7576
330
756B
100
AcDbEntity
  8
0
100
AcDbBlockEnd
  0
BLOCK
  5
75E7
330
75DD
100
AcDbEntity
  8
0
100
AcDbBlockBegin
  2
*D8
 70
     1
 10
0.0
 20
0.0
 30
0.0
  3
*D8
  1

  0
LINE
  5
781A
330
75DD
100
AcDbEntity
  8
AM_5
100
AcDbLine
 10
-63.00000000000008
 20
-64.0
 30
0.0
 11
-63.00000000000009
 21
-125.3837398957972
 31
0.0
  0
LINE
  5
781B
330
75DD
100
AcDbEntity
  8
AM_5
100
AcDbLine
 10
-49.00000000000009
 20
-13.69999999999996
 30
0.0
 11
-49.00000000000009
 21
-125.3837398957972
 31
0.0
  0
LINE
  5
781C
330
75DD
100
AcDbEntity
  8
AM_5
100
AcDbLine
 10
-60.50000000000009
 20
-124.3837398957972
 30
0.0
 11
-51.50000000000009
 21
-124.3837398957972
 31
0.0
  0
INSERT
  5
781D
330
75DD
100
AcDbEntity
  8
AM_5
100
AcDbBlockReference
  2
_OPEN30
 10
-63.00000000000009
 20
-124.3837398957972
 30
0.0
 41
2.5
 42
2.5
 43
2.5
 50
180.0
  0
INSERT
  5
781E
330
75DD
100
AcDbEntity
  8
AM_5
100
AcDbBlockReference
  2
_OPEN30
 10
-49.00000000000009
 20
-124.3837398957972
 30
0.0
 41
2.5
 42
2.5
 43
2.5
  0
MTEXT
  5
781F
330
75DD
100
AcDbEntity
  8
AM_5
 62
     2
100
AcDbMText
 10
-56.00000000000009
 20
-121.2837398957972
 30
0.0
 40
3.2
 41
0.0
 71
     5
 72
     1
  1
14
  7
ASAMI
1001
ACAD
1000
MTEXTBEGIN
1070
    73
1070
     1
1070
    44
1040
1.0
1070
    74
1070
     0
1000
MTEXTEND
  0
POINT
  5
7820
330
75DD
100
AcDbEntity
  8
DEFPOINTS
 62
     0
100
AcDbPoint
 10
-63.00000000000008
 20
-63.0
 30
0.0
  0
POINT
  5
7821
330
75DD
100
AcDbEntity
  8
DEFPOINTS
 62
     0
100
AcDbPoint
 10
-49.00000000000009
 20
-12.69999999999996
 30
0.0
  0
POINT
  5
7822
330
75DD
100
AcDbEntity
  8
DEFPOINTS
 62
     0
100
AcDbPoint
 10
-49.00000000000009
 20
-124.3837398957972
 30
0.0
  0
ENDBLK
  5
75E8
330
75DD
100
AcDbEntity
  8
0
100
AcDbBlockEnd
  0
BLOCK
  5
75F3
330
75E9
100
AcDbEntity
  8
0
100
AcDbBlockBegin
  2
*D9
 70
     1
 10
0.0
 20
0.0
 30
0.0
  3
*D9
  1

  0
LINE
  5
782C
330
75E9
100
AcDbEntity
  8
AM_5
100
AcDbLine
 10
-63.00000000000008
 20
-64.0
 30
0.0
 11
-63.00000000000009
 21
-135.3837398957972
 31
0.0
  0
LINE
  5
782D
330
75E9
100
AcDbEntity
  8
AM_5
100
AcDbLine
 10
-28.00000000000008
 20
-65.99999999999997
 30
0.0
 11
-28.00000000000009
 21
-135.3837398957972
 31
0.0
  0
LINE
  5
782E
330
75E9
100
AcDbEntity
  8
AM_5
100
AcDbLine
 10
-60.50000000000009
 20
-134.3837398957972
 30
0.0
 11
-30.50000000000009
 21
-134.3837398957972
 31
0.0
  0
INSERT
  5
782F
330
75E9
100
AcDbEntity
  8
AM_5
100
AcDbBlockReference
  2
_OPEN30
 10
-63.00000000000009
 20
-134.3837398957972
 30
0.0
 41
2.5
 42
2.5
 43
2.5
 50
180.0
  0
INSERT
  5
7830
330
75E9
100
AcDbEntity
  8
AM_5
100
AcDbBlockReference
  2
_OPEN30
 10
-28.00000000000009
 20
-134.3837398957972
 30
0.0
 41
2.5
 42
2.5
 43
2.5
  0
MTEXT
  5
7831
330
75E9
100
AcDbEntity
  8
AM_5
 62
     2
100
AcDbMText
 10
-45.50000000000009
 20
-131.2837398957972
 30
0.0
 40
3.2
 41
0.0
 71
     5
 72
     1
  1
35
  7
ASAMI
1001
ACAD
1000
MTEXTBEGIN
1070
    73
1070
     1
1070
    44
1040
1.0
1070
    74
1070
     0
1000
MTEXTEND
  0
POINT
  5
7832
330
75E9
100
AcDbEntity
  8
DEFPOINTS
 62
     0
100
AcDbPoint
 10
-63.00000000000008
 20
-63.0
 30
0.0
  0
POINT
  5
7833
330
75E9
100
AcDbEntity
  8
DEFPOINTS
 62
     0
100
AcDbPoint
 10
-28.00000000000008
 20
-64.99999999999997
 30
0.0
  0
POINT
  5
7834
330
75E9
100
AcDbEntity
  8
DEFPOINTS
 62
     0
100
AcDbPoint
 10
-28.00000000000009
 20
-134.3837398957972
 30
0.0
  0
ENDBLK
  5
75F4
330
75E9
100
AcDbEntity
  8
0
100
AcDbBlockEnd
  0
BLOCK
  5
75FF
330
75F5
100
AcDbEntity
  8
0
100
AcDbBlockBegin
  2
*D10
 70
     1
 10
0.0
 20
0.0
 30
0.0
  3
*D10
  1

  0
LINE
  5
7823
330
75F5
100
AcDbEntity
  8
AM_5
100
AcDbLine
 10
-63.00000000000008
 20
-64.0
 30
0.0
 11
-63.00000000000009
 21
-145.3837398957972
 31
0.0
  0
LINE
  5
7824
330
75F5
100
AcDbEntity
  8
AM_5
100
AcDbLine
 10
0.0000000000000568
 20
-101.0
 30
0.0
 11
0.0000000000000541
 21
-145.3837398957972
 31
0.0
  0
LINE
  5
7825
330
75F5
100
AcDbEntity
  8
AM_5
100
AcDbLine
 10
-60.50000000000009
 20
-144.3837398957972
 30
0.0
 11
-2.499999999999945
 21
-144.3837398957972
 31
0.0
  0
INSERT
  5
7826
330
75F5
100
AcDbEntity
  8
AM_5
100
AcDbBlockReference
  2
_OPEN30
 10
-63.00000000000009
 20
-144.3837398957972
 30
0.0
 41
2.5
 42
2.5
 43
2.5
 50
180.0
  0
INSERT
  5
7827
330
75F5
100
AcDbEntity
  8
AM_5
100
AcDbBlockReference
  2
_OPEN30
 10
0.0000000000000541
 20
-144.3837398957972
 30
0.0
 41
2.5
 42
2.5
 43
2.5
  0
MTEXT
  5
7828
330
75F5
100
AcDbEntity
  8
AM_5
 62
     2
100
AcDbMText
 10
-31.50000000000002
 20
-141.2837398957972
 30
0.0
 40
3.2
 41
0.0
 71
     5
 72
     1
  1
63
  7
ASAMI
1001
ACAD
1000
MTEXTBEGIN
1070
    73
1070
     1
1070
    44
1040
1.0
1070
    74
1070
     0
1000
MTEXTEND
  0
POINT
  5
7829
330
75F5
100
AcDbEntity
  8
DEFPOINTS
 62
     0
100
AcDbPoint
 10
-63.00000000000008
 20
-63.0
 30
0.0
  0
POINT
  5
782A
330
75F5
100
AcDbEntity
  8
DEFPOINTS
 62
     0
100
AcDbPoint
 10
0.0000000000000568
 20
-100.0
 30
0.0
  0
POINT
  5
782B
330
75F5
100
AcDbEntity
  8
DEFPOINTS
 62
     0
100
AcDbPoint
 10
0.0000000000000541
 20
-144.3837398957972
 30
0.0
  0
ENDBLK
  5
7600
330
75F5
100
AcDbEntity
  8
0
100
AcDbBlockEnd
  0
BLOCK
  5
7644
330
763A
100
AcDbEntity
  8
0
100
AcDbBlockBegin
  2
*D11
 70
     1
 10
0.0
 20
0.0
 30
0.0
  3
*D11
  1

  0
LINE
  5
7811
330
763A
100
AcDbEntity
  8
AM_5
100
AcDbLine
 10
0.9999999999999147
 20
100.0
 30
0.0
 11
21.97912562390156
 21
100.0
 31
0.0
  0
LINE
  5
7812
330
763A
100
AcDbEntity
  8
AM_5
100
AcDbLine
 10
1.000000000000056
 20
-100.0
 30
0.0
 11
21.97912562390152
 21
-100.0
 31
0.0
  0
LINE
  5
7813
330
763A
100
AcDbEntity
  8
AM_5
100
AcDbLine
 10
20.97912562390156
 20
97.5
 30
0.0
 11
20.97912562390152
 21
-97.5
 31
0.0
  0
INSERT
  5
7814
330
763A
100
AcDbEntity
  8
AM_5
100
AcDbBlockReference
  2
_OPEN30
 10
20.97912562390156
 20
100.0
 30
0.0
 41
2.5
 42
2.5
 43
2.5
 50
90.0
  0
INSERT
  5
7815
330
763A
100
AcDbEntity
  8
AM_5
100
AcDbBlockReference
  2
_OPEN30
 10
20.97912562390152
 20
-100.0
 30
0.0
 41
2.5
 42
2.5
 43
2.5
 50
270.0
  0
MTEXT
  5
7816
330
763A
100
AcDbEntity
  8
AM_5
 62
     2
100
AcDbMText
 10
17.87912562390154
 20
-0.0000000000000009
 30
0.0
 40
3.2
 41
0.0
 71
     5
 72
     1
  1
%%c200
  7
ASAMI
 11
0.0000000000000001
 21
1.0
 31
0.0
1001
ACAD
1000
MTEXTBEGIN
1070
    73
1070
     1
1070
    44
1040
1.0
1070
    74
1070
     0
1000
MTEXTEND
  0
POINT
  5
7817
330
763A
100
AcDbEntity
  8
DEFPOINTS
 62
     0
100
AcDbPoint
 10
-0.0000000000000853
 20
100.0
 30
0.0
  0
POINT
  5
7818
330
763A
100
AcDbEntity
  8
DEFPOINTS
 62
     0
100
AcDbPoint
 10
0.0000000000000568
 20
-100.0
 30
0.0
  0
POINT
  5
7819
330
763A
100
AcDbEntity
  8
DEFPOINTS
 62
     0
100
AcDbPoint
 10
20.97912562390152
 20
-100.0
 30
0.0
  0
ENDBLK
  5
7645
330
763A
100
AcDbEntity
  8
0
100
AcDbBlockEnd
  0
BLOCK
  5
7BE2
330
7BD2
100
AcDbEntity
  8
0
100
AcDbBlockBegin
  2
*D12
 70
     1
 10
0.0
 20
0.0
 30
0.0
  3
*D12
  1

  0
LINE
  5
7D39
330
7BD2
100
AcDbEntity
  8
AM_5
100
AcDbLine
 10
-6.684458140310216
 20
-107.0615904709883
 30
0.0
 11
-20.75359230614761
 21
-121.9244950887023
 31
0.0
  0
LINE
  5
7D3A
330
7BD2
100
AcDbEntity
  8
AM_5
100
AcDbLine
 10
0.0000000000000639
 20
-100.9999999999999
 30
0.0
 11
0.0000000000000782
 21
-130.1893206035565
 31
0.0
  0
ARC
  5
7D3B
330
7BD2
100
AcDbEntity
  8
AM_5
100
AcDbCircle
 10
0.0000000000000568
 20
-99.99999999999996
 30
0.0
 40
29.18932060355657
100
AcDbArc
 50
231.4803114694832
 51
265.0912435519461
  0
INSERT
  5
7D3C
330
7BD2
100
AcDbEntity
  8
AM_5
100
AcDbBlockReference
  2
_OPEN30
 10
-20.06614416583726
 20
-121.1982616177139
 30
0.0
 41
2.5
 42
2.5
 43
2.5
 50
139.0259332454563
  0
INSERT
  5
7D3D
330
7BD2
100
AcDbEntity
  8
AM_5
100
AcDbBlockReference
  2
_OPEN30
 10
0.0000000000000711
 20
-129.1893206035565
 30
0.0
 41
2.5
 42
2.5
 43
2.5
 50
357.545621775973
  0
MTEXT
  5
7D3E
330
7BD2
100
AcDbEntity
  8
AM_5
 62
     2
100
AcDbMText
 10
-9.652458581399514
 20
-124.2380422660231
 30
0.0
 40
3.2
 41
0.0
 71
     5
 72
     1
  1
45%%d
  7
ASAMI
 11
0.9290407609433488
 21
-0.3699773837760944
 31
0.0
1001
ACAD
1000
MTEXTBEGIN
1070
    73
1070
     1
1070
    44
1040
1.0
1070
    74
1070
     0
1000
MTEXTEND
  0
POINT
  5
7D3F
330
7BD2
100
AcDbEntity
  8
DEFPOINTS
 62
     0
100
AcDbPoint
 10
-14.13000312556343
 20
-125.5413282538081
 30
0.0
  0
POINT
  5
7D40
330
7BD2
100
AcDbEntity
  8
DEFPOINTS
 62
     0
100
AcDbPoint
 10
-0.0000000000000853
 20
100.0
 30
0.0
  0
POINT
  5
7D41
330
7BD2
100
AcDbEntity
  8
DEFPOINTS
 62
     0
100
AcDbPoint
 10
-5.997009999999875
 20
-106.3353569999998
 30
0.0
  0
POINT
  5
7D42
330
7BD2
100
AcDbEntity
  8
DEFPOINTS
 62
     0
100
AcDbPoint
 10
0.0000000000000497
 20
-99.99999999999998
 30
0.0
  0
POINT
  5
7D43
330
7BD2
100
AcDbEntity
  8
DEFPOINTS
 62
     0
100
AcDbPoint
 10
0.0000000000000497
 20
-99.99999999999996
 30
0.0
  0
ENDBLK
  5
7BE3
330
7BD2
100
AcDbEntity
  8
0
100
AcDbBlockEnd
  0
ENDSEC
  0
SECTION
  2
ENTITIES
  0
TEXT
  5
E5A
330
1F
100
AcDbEntity
  8
AM_6
100
AcDbText
 10
-47.69047619047618
 20
-166.8837398957972
 30
0.0
 40
5.0
  1
UFO4200
 72
     4
 11
-31.5
 21
-164.3837398957972
 31
0.0
100
AcDbText
  0
LINE
  5
6727
330
1F
100
AcDbEntity
  8
AM_3
100
AcDbLine
 10
-2.000000000000085
 20
96.0467092775775
 30
0.0
 11
-2.000000000000085
 21
95.0210672994252
 31
0.0
  0
LINE
  5
6728
330
1F
100
AcDbEntity
  8
AM_0
100
AcDbLine
 10
-28.00000000000008
 20
65.0
 30
0.0
 11
-28.00000000000008
 21
0.0
 31
0.0
  0
LINE
  5
6729
330
1F
100
AcDbEntity
  8
AM_0
100
AcDbLine
 10
-63.00000000000007
 20
63.0
 30
0.0
 11
-63.00000000000002
 21
13.69999999999996
 31
0.0
  0
LINE
  5
672A
330
1F
100
AcDbEntity
  8
AM_7
100
AcDbLine
 10
-67.62678716908718
 20
-50.80000000000001
 30
0.0
 11
-19.506057160283
 21
-50.80000000000001
 31
0.0
  0
LINE
  5
672B
330
1F
100
AcDbEntity
  8
AM_11
100
AcDbLine
 10
-61.49999999999997
 20
-59.79999999999995
 30
0.0
 11
-28.70000000000024
 21
-59.80000000000001
 31
0.0
  0
LINE
  5
672C
330
1F
100
AcDbEntity
  8
AM_0
100
AcDbLine
 10
-44.97898257465178
 20
-98.88228567653783
 30
0.0
 11
-52.66752179122992
 21
-70.18826668428236
 31
0.0
  0
LINE
  5
672E
330
1F
100
AcDbEntity
  8
AM_11
100
AcDbLine
 10
-61.50000000000009
 20
-41.80000000000004
 30
0.0
 11
-28.70000000000001
 21
-41.80000000000004
 31
0.0
  0
LINE
  5
672F
330
1F
100
AcDbEntity
  8
AM_0
100
AcDbLine
 10
-42.81000000000014
 20
23.5125
 30
0.0
 11
-51.40087598487625
 21
23.81250000000001
 31
0.0
  0
LINE
  5
6730
330
1F
100
AcDbEntity
  8
AM_7
100
AcDbLine
 10
-78.33186681760142
 20
0.0
 30
0.0
 11
6.979124623901526
 21
0.0
 31
0.0
  0
LINE
  5
6731
330
1F
100
AcDbEntity
  8
AM_0
100
AcDbLine
 10
-51.40087598487625
 20
-23.8125
 30
0.0
 11
-51.40087598487625
 21
-17.84494378886095
 31
0.0
  0
LINE
  5
6732
330
1F
100
AcDbEntity
  8
AM_0
100
AcDbLine
 10
-63.00000000000008
 20
-63.0
 30
0.0
 11
-63.00000000000003
 21
-13.69999999999993
 31
0.0
  0
LINE
  5
6733
330
1F
100
AcDbEntity
  8
AM_11
100
AcDbLine
 10
-61.50000000000009
 20
-59.80000000000003
 30
0.0
 11
-61.50000000000009
 21
-41.80000000000001
 31
0.0
  0
LINE
  5
6735
330
1F
100
AcDbEntity
  8
AM_0
100
AcDbLine
 10
-61.00000000000008
 20
-65.0
 30
0.0
 11
-59.42900257525341
 21
-65.0
 31
0.0
  0
LINE
  5
6737
330
1F
100
AcDbEntity
  8
AM_11
100
AcDbLine
 10
-63.00000000000008
 20
-61.29999999999999
 30
0.0
 11
-61.50000000000009
 21
-59.79999999999998
 31
0.0
  0
LINE
  5
6738
330
1F
100
AcDbEntity
  8
AM_11
100
AcDbLine
 10
-63.00000000000008
 20
-40.30000000000003
 30
0.0
 11
-61.50000000000009
 21
-41.80000000000004
 31
0.0
  0
LINE
  5
673B
330
1F
100
AcDbEntity
  8
AM_0
100
AcDbLine
 10
-49.00000000000009
 20
12.69999999999998
 30
0.0
 11
-49.00000000000009
 21
0.0
 31
0.0
  0
LINE
  5
673C
330
1F
100
AcDbEntity
  8
AM_0
100
AcDbLine
 10
-49.00000000000009
 20
-12.69999999999998
 30
0.0
 11
-49.00000000000009
 21
0.0
 31
0.0
  0
LINE
  5
673D
330
1F
100
AcDbEntity
  8
AM_0
100
AcDbLine
 10
-62.00000000000009
 20
-12.69999999999996
 30
0.0
 11
-49.00000000000009
 21
-12.69999999999996
 31
0.0
  0
LINE
  5
673F
330
1F
100
AcDbEntity
  8
AM_0
100
AcDbLine
 10
-51.40087598487625
 20
23.81250000000001
 30
0.0
 11
-51.40087598487625
 21
12.69999999999996
 31
0.0
  0
LINE
  5
6740
330
1F
100
AcDbEntity
  8
AM_0
100
AcDbLine
 10
-62.00000000000002
 20
12.69999999999996
 30
0.0
 11
-49.00000000000009
 21
12.69999999999996
 31
0.0
  0
LINE
  5
6743
330
1F
100
AcDbEntity
  8
AM_0
100
AcDbLine
 10
-60.00000000000004
 20
23.81250000000001
 30
0.0
 11
-51.40087598487625
 21
23.81250000000001
 31
0.0
  0
LINE
  5
6744
330
1F
100
AcDbEntity
  8
AM_3
100
AcDbLine
 10
-2.000000000000085
 20
-96.0467092775775
 30
0.0
 11
-10.04106316824539
 21
-87.4237247406193
 31
0.0
  0
LINE
  5
6745
330
1F
100
AcDbEntity
  8
AM_0
100
AcDbLine
 10
-2.000000000000085
 20
-95.02106729942505
 30
0.0
 11
-2.000000000000085
 21
0.0
 31
0.0
  0
LINE
  5
6747
330
1F
100
AcDbEntity
  8
AM_3
100
AcDbLine
 10
-7.773488068196266
 20
-106.2305265443522
 30
0.0
 11
-2.000000000000085
 21
-99.7467092775776
 31
0.0
  0
LINE
  5
6748
330
1F
100
AcDbEntity
  8
AM_3
100
AcDbLine
 10
-24.94098485419751
 20
-110.0
 30
0.0
 11
-21.93725331627156
 21
-110.0
 31
0.0
  0
LINE
  5
6749
330
1F
100
AcDbEntity
  8
AM_3
100
AcDbLine
 10
-2.000000000000085
 20
-99.74670927757749
 30
0.0
 11
-2.000000000000085
 21
-96.0467092775775
 31
0.0
  0
LINE
  5
674A
330
1F
100
AcDbEntity
  8
AM_0
100
AcDbLine
 10
-42.81000000000017
 20
-23.5125
 30
0.0
 11
-42.81000000000014
 21
0.0850000000000009
 31
0.0
  0
LINE
  5
674B
330
1F
100
AcDbEntity
  8
AM_0
100
AcDbLine
 10
-28.00000000000008
 20
-65.0
 30
0.0
 11
-28.00000000000008
 21
0.0
 31
0.0
  0
LINE
  5
674C
330
1F
100
AcDbEntity
  8
AM_11
100
AcDbLine
 10
-28.70000000000013
 20
-59.8000000000001
 30
0.0
 11
-28.70000000000013
 21
-41.79999999999998
 31
0.0
  0
LINE
  5
674D
330
1F
100
AcDbEntity
  8
AM_0
100
AcDbLine
 10
-23.20000000000013
 20
-64.99999999999997
 30
0.0
 11
-23.20000000000013
 21
0.0
 31
0.0
  0
LINE
  5
674E
330
1F
100
AcDbEntity
  8
AM_0
100
AcDbLine
 10
-23.00000000000008
 20
-70.0269663670592
 30
0.0
 11
-22.50000000000008
 21
-70.0269663670592
 31
0.0
  0
LINE
  5
674F
330
1F
100
AcDbEntity
  8
AM_0
100
AcDbLine
 10
-22.50000000000008
 20
-70.02696636705917
 30
0.0
 11
-22.50000000000008
 21
-65.69999999999996
 31
0.0
  0
LINE
  5
6750
330
1F
100
AcDbEntity
  8
AM_0
100
AcDbLine
 10
-28.00000000000008
 20
-64.99999999999997
 30
0.0
 11
-23.20000000000013
 21
-65.0
 31
0.0
  0
LINE
  5
6751
330
1F
100
AcDbEntity
  8
AM_0
100
AcDbLine
 10
-23.20000000000013
 20
-64.99999999999997
 30
0.0
 11
-22.50000000000008
 21
-65.69999999999996
 31
0.0
  0
LINE
  5
6752
330
1F
100
AcDbEntity
  8
AM_0
100
AcDbLine
 10
-23.00000000000008
 20
-73.52696636705923
 30
0.0
 11
-23.00000000000008
 21
-70.0269663670592
 31
0.0
  0
LINE
  5
6753
330
1F
100
AcDbEntity
  8
AM_11
100
AcDbLine
 10
-28.70000000000013
 20
-59.80000000000001
 30
0.0
 11
-28.00000000000008
 21
-60.5
 31
0.0
  0
LINE
  5
6754
330
1F
100
AcDbEntity
  8
AM_11
100
AcDbLine
 10
-28.70000000000013
 20
-41.80000000000001
 30
0.0
 11
-28.00000000000008
 21
-41.10000000000002
 31
0.0
  0
LINE
  5
6757
330
1F
100
AcDbEntity
  8
AM_0
100
AcDbLine
 10
-42.81000000000014
 20
23.515
 30
0.0
 11
-42.81000000000014
 21
0.0
 31
0.0
  0
LINE
  5
6758
330
1F
100
AcDbEntity
  8
AM_0
100
AcDbLine
 10
-42.81000000000014
 20
23.5125
 30
0.0
 11
-30.00000000000008
 21
23.51250000000003
 31
0.0
  0
LINE
  5
675A
330
1F
100
AcDbEntity
  8
AM_11
100
AcDbLine
 10
-61.50000000000009
 20
41.80000000000004
 30
0.0
 11
-28.70000000000001
 21
41.80000000000004
 31
0.0
  0
LINE
  5
675B
330
1F
100
AcDbEntity
  8
AM_11
100
AcDbLine
 10
-61.49999999999997
 20
59.79999999999995
 30
0.0
 11
-28.70000000000024
 21
59.80000000000001
 31
0.0
  0
LINE
  5
675C
330
1F
100
AcDbEntity
  8
AM_7
100
AcDbLine
 10
-67.62678716908718
 20
50.80000000000001
 30
0.0
 11
-19.506057160283
 21
50.80000000000001
 31
0.0
  0
LINE
  5
675D
330
1F
100
AcDbEntity
  8
AM_0
100
AcDbLine
 10
-44.97898257465176
 20
98.88228567653783
 30
0.0
 11
-52.66752179122987
 21
70.18826668428236
 31
0.0
  0
LINE
  5
675E
330
1F
100
AcDbEntity
  8
AM_11
100
AcDbLine
 10
-61.50000000000009
 20
59.80000000000003
 30
0.0
 11
-61.50000000000009
 21
41.80000000000001
 31
0.0
  0
LINE
  5
675F
330
1F
100
AcDbEntity
  8
AM_11
100
AcDbLine
 10
-63.00000000000008
 20
40.30000000000003
 30
0.0
 11
-61.50000000000009
 21
41.80000000000004
 31
0.0
  0
LINE
  5
6760
330
1F
100
AcDbEntity
  8
AM_11
100
AcDbLine
 10
-63.00000000000008
 20
61.29999999999999
 30
0.0
 11
-61.50000000000009
 21
59.79999999999998
 31
0.0
  0
LINE
  5
6763
330
1F
100
AcDbEntity
  8
AM_0
100
AcDbLine
 10
-61.00000000000008
 20
65.0
 30
0.0
 11
-59.42900257525335
 21
65.0
 31
0.0
  0
LINE
  5
6764
330
1F
100
AcDbEntity
  8
AM_3
100
AcDbLine
 10
-2.000000000000085
 20
96.0467092775775
 30
0.0
 11
-10.04106316824538
 21
87.4237247406193
 31
0.0
  0
LINE
  5
6765
330
1F
100
AcDbEntity
  8
AM_11
100
AcDbLine
 10
-28.70000000000013
 20
59.8000000000001
 30
0.0
 11
-28.70000000000013
 21
41.79999999999998
 31
0.0
  0
LINE
  5
6766
330
1F
100
AcDbEntity
  8
AM_0
100
AcDbLine
 10
-23.20000000000013
 20
64.99999999999997
 30
0.0
 11
-23.20000000000013
 21
0.0
 31
0.0
  0
LINE
  5
6767
330
1F
100
AcDbEntity
  8
AM_11
100
AcDbLine
 10
-28.70000000000013
 20
41.80000000000001
 30
0.0
 11
-28.00000000000008
 21
41.10000000000002
 31
0.0
  0
LINE
  5
6768
330
1F
100
AcDbEntity
  8
AM_0
100
AcDbLine
 10
-23.00000000000008
 20
73.52696636705923
 30
0.0
 11
-23.00000000000008
 21
70.0269663670592
 31
0.0
  0
LINE
  5
6769
330
1F
100
AcDbEntity
  8
AM_11
100
AcDbLine
 10
-28.70000000000013
 20
59.80000000000001
 30
0.0
 11
-28.00000000000008
 21
60.5
 31
0.0
  0
LINE
  5
676A
330
1F
100
AcDbEntity
  8
AM_0
100
AcDbLine
 10
-23.20000000000013
 20
64.99999999999997
 30
0.0
 11
-22.50000000000008
 21
65.69999999999996
 31
0.0
  0
LINE
  5
676B
330
1F
100
AcDbEntity
  8
AM_0
100
AcDbLine
 10
-28.00000000000008
 20
64.99999999999997
 30
0.0
 11
-23.20000000000013
 21
65.0
 31
0.0
  0
LINE
  5
676C
330
1F
100
AcDbEntity
  8
AM_0
100
AcDbLine
 10
-23.00000000000008
 20
70.0269663670592
 30
0.0
 11
-22.50000000000008
 21
70.0269663670592
 31
0.0
  0
LINE
  5
676D
330
1F
100
AcDbEntity
  8
AM_0
100
AcDbLine
 10
-22.50000000000008
 20
70.02696636705917
 30
0.0
 11
-22.50000000000008
 21
65.69999999999996
 31
0.0
  0
LINE
  5
676F
330
1F
100
AcDbEntity
  8
AM_3
100
AcDbLine
 10
-24.94098485419765
 20
110.0
 30
0.0
 11
-21.93725331627164
 21
110.0
 31
0.0
  0
LINE
  5
6770
330
1F
100
AcDbEntity
  8
AM_3
100
AcDbLine
 10
-2.000000000000085
 20
99.74670927757749
 30
0.0
 11
-2.000000000000085
 21
96.0467092775775
 31
0.0
  0
LINE
  5
6771
330
1F
100
AcDbEntity
  8
AM_3
100
AcDbLine
 10
-7.773488068196308
 20
106.2305265443522
 30
0.0
 11
-2.000000000000085
 21
99.7467092775776
 31
0.0
  0
DIMENSION
  5
7550
330
1F
100
AcDbEntity
  8
AM_5
100
AcDbDimension
  2
*D5
 10
-112.3318678176014
 20
-64.99999999999999
 30
0.0
 11
-115.4318678176013
 21
-0.000000000000007
 31
0.0
 70
    32
  1
%%c<>
  3
AM_JIS
100
AcDbAlignedDimension
 13
-61.00000000000008
 23
65.0
 33
0.0
 14
-61.00000000000008
 24
-65.0
 34
0.0
 50
90.0
100
AcDbRotatedDimension
1001
GENIUS_GENDTOL_13
1000

1000
h7
1000

1040
0.0
  0
DIMENSION
  5
7551
330
1F
100
AcDbEntity
  8
AM_5
100
AcDbDimension
  2
*D6
 10
-102.3318678176014
 20
-23.81249999999999
 30
0.0
 11
-105.4318678176014
 21
-0.0000000000000005
 31
0.0
 70
    32
  1
%%c<>
  3
AM_JIS
100
AcDbAlignedDimension
 13
-60.00000000000003
 23
23.81250000000001
 33
0.0
 14
-60.00000000000003
 24
-23.8125
 34
0.0
 50
90.0
100
AcDbRotatedDimension
1001
GENIUS_GENDTOL_13
1000

1000
h7
1000

1040
0.0
  0
DIMENSION
  5
7552
330
1F
100
AcDbEntity
  8
AM_5
100
AcDbDimension
  2
*D7
 10
-92.33186781760142
 20
-12.69999999999995
 30
0.0
 11
-92.33186781760142
 21
-0.0000000000000284
 31
0.0
 70
   160
  3
AM_JIS
100
AcDbAlignedDimension
 13
-62.00000000000009
 23
12.69999999999996
 33
0.0
 14
-61.90000000000003
 24
-12.69999999999996
 34
0.0
 50
90.0
100
AcDbRotatedDimension
  0
DIMENSION
  5
75DA
330
1F
100
AcDbEntity
  8
AM_5
100
AcDbDimension
  2
*D9
 10
-28.00000000000009
 20
-134.3837398957972
 30
0.0
 11
-45.50000000000009
 21
-131.2837398957972
 31
0.0
 70
    32
  3
AM_JIS
100
AcDbAlignedDimension
 13
-63.00000000000008
 23
-63.0
 33
0.0
 14
-28.00000000000008
 24
-64.99999999999997
 34
0.0
100
AcDbRotatedDimension
  0
DIMENSION
  5
75DB
330
1F
100
AcDbEntity
  8
AM_5
100
AcDbDimension
  2
*D10
 10
0.0000000000000541
 20
-144.3837398957972
 30
0.0
 11
-31.50000000000002
 21
-141.2837398957972
 31
0.0
 70
    32
  3
AM_JIS
100
AcDbAlignedDimension
 13
-63.00000000000008
 23
-63.0
 33
0.0
 14
0.0000000000000568
 24
-100.0
 34
0.0
100
AcDbRotatedDimension
  0
DIMENSION
  5
75DC
330
1F
100
AcDbEntity
  8
AM_5
100
AcDbDimension
  2
*D8
 10
-49.00000000000009
 20
-124.3837398957972
 30
0.0
 11
-56.00000000000009
 21
-121.2837398957972
 31
0.0
 70
    32
  3
AM_JIS
100
AcDbAlignedDimension
 13
-63.00000000000008
 23
-63.0
 33
0.0
 14
-49.00000000000009
 24
-12.69999999999996
 34
0.0
100
AcDbRotatedDimension
  0
DIMENSION
  5
7639
330
1F
100
AcDbEntity
  8
AM_5
100
AcDbDimension
  2
*D11
 10
20.97912562390152
 20
-100.0
 30
0.0
 11
17.87912562390154
 21
-0.0000000000000009
 31
0.0
 70
    32
  1
%%c<>
  3
AM_JIS
100
AcDbAlignedDimension
 13
-0.0000000000000853
 23
100.0
 33
0.0
 14
0.0000000000000568
 24
-100.0
 34
0.0
 50
90.0
100
AcDbRotatedDimension
1001
GENIUS_GENDTOL_13
1000

1000
h7
1000

1040
0.0
  0
ELLIPSE
  5
769F
330
1F
100
AcDbEntity
  8
AM_0
100
AcDbEllipse
 10
-21.07925200000008
 20
110.2039239999999
 30
0.0
 11
3.804017266616
 21
0.143288961596
 31
0.0
210
0.0
220
0.0
230
0.9999999999999998
 40
0.1084186759450099
 41
2.382733006633379
 42
3.056298966713689
  0
LINE
  5
76A0
330
1F
100
AcDbEntity
  8
AM_0
100
AcDbLine
 10
-23.22121200000012
 20
109.4867459999999
 30
0.0
 11
-26.87907100000003
 21
104.4709569999999
 31
0.0
  0
LINE
  5
76A1
330
1F
100
AcDbEntity
  8
AM_0
100
AcDbLine
 10
-26.87907100000003
 20
104.4709569999999
 30
0.0
 11
-24.36253400000007
 21
101.8124379999999
 31
0.0
  0
LINE
  5
76A2
330
1F
100
AcDbEntity
  8
AM_0
100
AcDbLine
 10
-24.87076500000009
 20
110.0962879999999
 30
0.0
 11
-27.80187800000007
 21
106.0770399999998
 31
0.0
  0
ELLIPSE
  5
76A3
330
1F
100
AcDbEntity
  8
AM_0
100
AcDbEllipse
 10
-25.50360300000008
 20
104.1370939999999
 30
0.0
 11
-2.290639612009
 21
1.949631823684
 31
0.0
210
0.0
220
0.0
230
1.0
 40
0.2334633752270999
 41
0.017551370222918
 42
1.137178375746189
  0
SPLINE
  5
76A5
330
1F
100
AcDbEntity
  8
AM_0
100
AcDbSpline
210
0.0
220
0.0
230
1.0
 70
     8
 71
     3
 72
    11
 73
     7
 74
     5
 42
0.0000000001
 43
0.0000000001
 44
0.0000000001
 40
0.0
 40
0.0
 40
0.0
 40
0.0
 40
0.9468400005941315
 40
2.192326962004693
 40
3.71928700721647
 40
5.361660633557678
 40
5.361660633557678
 40
5.361660633557678
 40
5.361660633557678
 10
-7.540333000000117
 20
96.64135999999997
 30
0.0
 10
-7.432544620300371
 20
96.94919295523085
 30
0.0
 10
-7.182969854914172
 20
97.66195380935906
 30
0.0
 10
-7.783167120362205
 20
98.86726248144775
 30
0.0
 10
-8.85760362574328
 20
99.88874157894494
 30
0.0
 10
-9.838876619651852
 20
100.3065041507718
 30
0.0
 10
-10.34738000000013
 20
100.5229919999999
 30
0.0
 11
-7.540333000000117
 21
96.64135999999997
 31
0.0
 11
-7.32951100000011
 21
97.56443100000002
 31
0.0
 11
-7.783623000000005
 21
98.72418099999993
 31
0.0
 11
-8.878250000000065
 21
99.78879299999995
 31
0.0
 11
-10.34738000000013
 21
100.5229919999999
 31
0.0
  0
SPLINE
  5
76A6
330
1F
100
AcDbEntity
  8
AM_0
100
AcDbSpline
210
0.0
220
0.0
230
1.0
 70
     8
 71
     3
 72
    11
 73
     7
 74
     5
 42
0.0000000001
 43
0.0000000001
 44
0.0000000001
 40
0.0
 40
0.0
 40
0.0
 40
0.0
 40
1.229155053773598
 40
2.359789102299002
 40
3.335199407222895
 40
4.139374811623017
 40
4.139374811623017
 40
4.139374811623017
 40
4.139374811623017
 10
-11.20110600000006
 20
97.48489499999994
 30
0.0
 10
-10.89390440179954
 20
97.21267312055537
 30
0.0
 10
-10.30412447011651
 20
96.69004888161296
 30
0.0
 10
-9.38815371293807
 20
96.06415380825927
 30
0.0
 10
-8.502824087813205
 20
95.61770055815363
 30
0.0
 10
-7.904413313091266
 20
95.59171402938638
 30
0.0
 10
-7.633998000000104
 20
95.57997099999989
 30
0.0
 11
-11.20110600000006
 21
97.48489499999994
 31
0.0
 11
-10.26368199999998
 21
96.68987399999991
 31
0.0
 11
-9.327571000000006
 21
96.05581599999993
 31
0.0
 11
-8.433597000000162
 21
95.66564199999993
 31
0.0
 11
-7.633998000000104
 21
95.57997099999989
 31
0.0
  0
SPLINE
  5
76A7
330
1F
100
AcDbEntity
  8
AM_0
100
AcDbSpline
210
0.0
220
0.0
230
1.0
 70
     8
 71
     3
 72
    11
 73
     7
 74
     5
 42
0.0000000001
 43
0.0000000001
 44
0.0000000001
 40
0.0
 40
0.0
 40
0.0
 40
0.0
 40
1.246889020983929
 40
3.762516581837279
 40
6.241279187984521
 40
7.756416322911885
 40
7.756416322911885
 40
7.756416322911885
 40
7.756416322911885
 10
-13.287542
 20
100.640568
 30
0.0
 10
-13.17766126537976
 20
100.229543271963
 30
0.0
 10
-12.84609359650503
 20
98.98926660839608
 30
0.0
 10
-11.12299635797102
 20
97.75638346405791
 30
0.0
 10
-9.388616046632165
 20
96.01251516904149
 30
0.0
 10
-8.048661831852339
 20
96.46841032169181
 30
0.0
 10
-7.540333000000117
 20
96.64135999999997
 30
0.0
 11
-13.287542
 21
100.640568
 31
0.0
 11
-12.88023300000006
 21
99.4620809999999
 31
0.0
 11
-11.1250380000001
 21
97.65995099999987
 31
0.0
 11
-9.025623000000081
 21
96.34210399999995
 31
0.0
 11
-7.540333000000117
 21
96.64135999999997
 31
0.0
  0
SPLINE
  5
76A8
330
1F
100
AcDbEntity
  8
AM_0
100
AcDbSpline
210
0.0
220
0.0
230
1.0
 70
     8
 71
     3
 72
    11
 73
     7
 74
     5
 42
0.0000000001
 43
0.0000000001
 44
0.0000000001
 40
0.0
 40
0.0
 40
0.0
 40
0.0
 40
0.2757246160955127
 40
0.5070860214551301
 40
0.6974850349662192
 40
0.8565604683587228
 40
0.8565604683587228
 40
0.8565604683587228
 40
0.8565604683587228
 10
-13.29620700000006
 20
101.5616379999999
 30
0.0
 10
-13.38757462432714
 20
101.5500172203747
 30
0.0
 10
-13.55560911383306
 20
101.5286454074777
 30
0.0
 10
-13.77907028851538
 20
101.4644794429887
 30
0.0
 10
-13.95857417953496
 20
101.3824960221784
 30
0.0
 10
-14.03874738207374
 20
101.2966594825272
 30
0.0
 10
-14.07524100000009
 20
101.2575879999999
 30
0.0
 11
-13.29620700000006
 21
101.5616379999999
 31
0.0
 11
-13.5686620000001
 21
101.5193019999999
 31
0.0
 11
-13.79075500000007
 21
101.454473
 31
0.0
 11
-13.95999400000002
 21
101.3672379999999
 31
0.0
 11
-14.07524100000009
 21
101.2575879999999
 31
0.0
  0
SPLINE
  5
76A9
330
1F
100
AcDbEntity
  8
AM_0
100
AcDbSpline
210
0.0
220
0.0
230
1.0
 70
     8
 71
     3
 72
    11
 73
     7
 74
     5
 42
0.0000000001
 43
0.0000000001
 44
0.0000000001
 40
0.0
 40
0.0
 40
0.0
 40
0.0
 40
1.04468105891218
 40
1.941535364311431
 40
2.612928259511313
 40
3.043453414123564
 40
3.043453414123564
 40
3.043453414123564
 40
3.043453414123564
 10
-10.34738000000013
 20
100.5229919999999
 30
0.0
 10
-10.68157184145706
 20
100.6276360549578
 30
0.0
 10
-11.30266597647339
 20
100.8221165919912
 30
0.0
 10
-12.15996442972299
 20
100.9139164449543
 30
0.0
 10
-12.85805737414941
 20
100.9348706959096
 30
0.0
 10
-13.16688243205382
 20
100.723249507082
 30
0.0
 10
-13.287542
 20
100.640568
 30
0.0
 11
-10.34738000000013
 21
100.5229919999999
 31
0.0
 11
-11.35456500000006
 21
100.8003669999999
 31
0.0
 11
-12.24479200000016
 21
100.9091949999999
 31
0.0
 11
-12.91395700000006
 21
100.8545449999999
 31
0.0
 11
-13.287542
 21
100.640568
 31
0.0
  0
SPLINE
  5
76AA
330
1F
100
AcDbEntity
  8
AM_0
100
AcDbSpline
210
0.0
220
0.0
230
1.0
 70
     8
 71
     3
 72
    11
 73
     7
 74
     5
 42
0.0000000001
 43
0.0000000001
 44
0.0000000001
 40
0.0
 40
0.0
 40
0.0
 40
0.0
 40
0.2146183478177614
 40
0.4696810224724298
 40
0.8052848875887608
 40
1.233282542633635
 40
1.233282542633635
 40
1.233282542633635
 40
1.233282542633635
 10
-14.07524100000009
 20
101.2575879999999
 30
0.0
 10
-14.10678712289289
 20
101.1912377649913
 30
0.0
 10
-14.17582416192514
 20
101.0460337480141
 30
0.0
 10
-14.10683558555135
 20
100.7708547524619
 30
0.0
 10
-13.95462697927002
 20
100.4700768629808
 30
0.0
 10
-13.80489408931775
 20
100.2629957137601
 30
0.0
 10
-13.72096900000005
 20
100.146927
 30
0.0
 11
-14.07524100000009
 21
101.2575879999999
 31
0.0
 11
-14.14706300000008
 21
101.0553439999998
 31
0.0
 11
-14.10671400000009
 21
100.8034929999998
 31
0.0
 11
-13.96154900000007
 21
100.5009089999998
 31
0.0
 11
-13.72096900000005
 21
100.146927
 31
0.0
  0
SPLINE
  5
76AB
330
1F
100
AcDbEntity
  8
AM_0
100
AcDbSpline
210
0.0
220
0.0
230
1.0
 70
     8
 71
     3
 72
    11
 73
     7
 74
     5
 42
0.0000000001
 43
0.0000000001
 44
0.0000000001
 40
0.0
 40
0.0
 40
0.0
 40
0.0
 40
0.7145181739501214
 40
1.36084130803244
 40
1.911022652545419
 40
2.350779522819131
 40
2.350779522819131
 40
2.350779522819131
 40
2.350779522819131
 10
-19.35353300000016
 20
105.7930339999999
 30
0.0
 10
-19.17232732741418
 20
105.6380145359019
 30
0.0
 10
-18.82721061310929
 20
105.3427709745977
 30
0.0
 10
-18.30269540553823
 20
104.982642716202
 30
0.0
 10
-17.81906404457458
 20
104.7154841268803
 30
0.0
 10
-17.49260069719488
 20
104.6560736937072
 30
0.0
 10
-17.34757700000008
 20
104.629682
 30
0.0
 11
-19.35353300000016
 21
105.7930339999999
 31
0.0
 11
-18.80208900000011
 21
105.3386709999999
 31
0.0
 11
-18.26894000000012
 21
104.9733139999999
 31
0.0
 11
-17.77596500000001
 21
104.7290289999999
 31
0.0
 11
-17.34757700000008
 21
104.629682
 31
0.0
  0
SPLINE
  5
76AC
330
1F
100
AcDbEntity
  8
AM_0
100
AcDbSpline
210
0.0
220
0.0
230
1.0
 70
     8
 71
     3
 72
    11
 73
     7
 74
     5
 42
0.0000000001
 43
0.0000000001
 44
0.0000000001
 40
0.0
 40
0.0
 40
0.0
 40
0.0
 40
1.781054617354863
 40
3.506378295465364
 40
4.920552749393833
 40
5.969191171666241
 40
5.969191171666241
 40
5.969191171666241
 40
5.969191171666241
 10
-19.82818900000003
 20
109.7765569999999
 30
0.0
 10
-19.25985277908193
 20
109.5865094597832
 30
0.0
 10
-18.14096413291921
 20
109.2123611525786
 30
0.0
 10
-16.8527283607772
 20
108.1839218954821
 30
0.0
 10
-16.06357801541634
 20
106.8713483119364
 30
0.0
 10
-16.31929748466019
 20
106.0591787826338
 30
0.0
 10
-16.42818000000008
 20
105.7133659999999
 30
0.0
 11
-19.82818900000003
 21
109.7765569999999
 31
0.0
 11
-18.175013
 21
109.1138619999999
 31
0.0
 11
-16.84084500000014
 21
108.0199069999998
 31
0.0
 11
-16.2320250000001
 21
106.7434949999999
 31
0.0
 11
-16.42818000000008
 21
105.7133659999999
 31
0.0
  0
SPLINE
  5
76AD
330
1F
100
AcDbEntity
  8
AM_0
100
AcDbSpline
210
0.0
220
0.0
230
1.0
 70
     8
 71
     3
 72
    11
 73
     7
 74
     5
 42
0.0000000001
 43
0.0000000001
 44
0.0000000001
 40
0.0
 40
0.0
 40
0.0
 40
0.0
 40
0.1207363178004091
 40
0.2580229741986187
 40
0.4180017894774544
 40
0.6037199231020301
 40
0.6037199231020301
 40
0.6037199231020301
 40
0.6037199231020301
 10
-22.17381100000008
 20
109.7147379999998
 30
0.0
 10
-22.1468571274578
 20
109.7449839720821
 30
0.0
 10
-22.08925458924699
 20
109.8096219850377
 30
0.0
 10
-21.96465254621989
 20
109.8767366832186
 30
0.0
 10
-21.81237042443233
 20
109.9299144798457
 30
0.0
 10
-21.69855099951301
 20
109.9493758201033
 30
0.0
 10
-21.63740400000003
 20
109.9598309999999
 30
0.0
 11
-22.17381100000008
 21
109.7147379999998
 31
0.0
 11
-22.08872100000005
 21
109.8003939999998
 31
0.0
 11
-21.97032600000008
 21
109.8698939999999
 31
0.0
 11
-21.81945300000003
 21
109.9230969999999
 31
0.0
 11
-21.63740400000003
 21
109.9598309999999
 31
0.0
  0
SPLINE
  5
76AE
330
1F
100
AcDbEntity
  8
AM_0
100
AcDbSpline
210
0.0
220
0.0
230
1.0
 70
     8
 71
     3
 72
    11
 73
     7
 74
     5
 42
0.0000000001
 43
0.0000000001
 44
0.0000000001
 40
0.0
 40
0.0
 40
0.0
 40
0.0
 40
1.513558911605338
 40
3.99214604379376
 40
6.507770778066351
 40
7.753678117367641
 40
7.753678117367641
 40
7.753678117367641
 40
7.753678117367641
 10
-16.42818000000008
 20
105.7133659999999
 30
0.0
 10
-16.93614524980394
 20
105.5412096774372
 30
0.0
 10
-18.27594870696726
 20
105.0871320880134
 30
0.0
 10
-20.00834584413091
 20
106.8321559690727
 30
0.0
 10
-21.73059397914485
 20
108.0647552500058
 30
0.0
 10
-22.06353361196681
 20
109.3042037032388
 30
0.0
 10
-22.17381100000008
 20
109.7147379999998
 30
0.0
 11
-16.42818000000008
 21
105.7133659999999
 31
0.0
 11
-17.91224800000006
 21
105.4160399999999
 31
0.0
 11
-20.0105310000001
 21
106.7353589999999
 31
0.0
 11
-21.76560900000001
 21
108.5375989999999
 31
0.0
 11
-22.17381100000008
 21
109.7147379999998
 31
0.0
  0
ELLIPSE
  5
76AF
330
1F
100
AcDbEntity
  8
AM_0
100
AcDbEllipse
 10
-9.643705000000039
 20
113.7944049999998
 30
0.0
 11
9.077921428430002
 21
8.593098541228002
 31
0.0
210
0.0
220
0.0
230
1.0
 40
0.40306016
 41
3.625988081971029
 42
4.12191071214064
  0
ELLIPSE
  5
76B0
330
1F
100
AcDbEntity
  8
AM_0
100
AcDbEllipse
 10
-17.43595800000011
 20
110.2714579999999
 30
0.0
 11
4.438020644030999
 21
0.167170474016
 31
0.0
210
0.0
220
0.0
230
1.0
 40
0.1084187763219
 41
3.46551503352552
 42
4.13902372390823
  0
ELLIPSE
  5
76B1
330
1F
100
AcDbEntity
  8
AM_0
100
AcDbEllipse
 10
-21.32796200000004
 20
109.862883
 30
0.0
 11
-2.555150043760999
 21
1.584164467601999
 31
0.0
210
0.0
220
0.0
230
1.0
 40
0.4962014217725701
 41
0.636245101584397
 42
1.08230269278924
  0
ELLIPSE
  5
76B2
330
1F
100
AcDbEntity
  8
AM_0
100
AcDbEllipse
 10
-18.81142500000007
 20
107.2043639999999
 30
0.0
 11
-2.555150043760999
 21
1.584164467601999
 31
0.0
210
0.0
220
0.0
230
1.0
 40
0.4962014217725701
 41
1.08230269278924
 42
1.665047343793309
  0
ELLIPSE
  5
76B3
330
1F
100
AcDbEntity
  8
AM_0
100
AcDbEllipse
 10
-7.443830000000133
 20
111.1630029999998
 30
0.0
 11
16.752346230429
 21
0.4186277243570003
 31
0.0
210
0.0
220
0.0
230
1.0
 40
0.09565589915869
 41
3.87803142890441
 42
4.206720239215379
  0
ELLIPSE
  5
76B4
330
1F
100
AcDbEntity
  8
AM_0
100
AcDbEllipse
 10
-7.443830000000133
 20
111.1630029999998
 30
0.0
 11
16.752346230429
 21
0.4186277243570003
 31
0.0
210
0.0
220
0.0
230
1.0
 40
0.09565589915869
 41
3.387269475739639
 42
3.69919915740975
  0
ELLIPSE
  5
76B5
330
1F
100
AcDbEntity
  8
AM_0
100
AcDbEllipse
 10
-10.09351400000011
 20
113.9621809999998
 30
0.0
 11
9.077921428430002
 21
8.593098541228002
 31
0.0
210
0.0
220
0.0
230
1.0
 40
0.40306016
 41
3.504973911650779
 42
4.120812155185199
  0
ELLIPSE
  5
76B6
330
1F
100
AcDbEntity
  8
AM_0
100
AcDbEllipse
 10
-22.98706600000011
 20
101.4785749999998
 30
0.0
 11
-2.290639612009
 21
1.949631823684
 31
0.0
210
0.0
220
0.0
230
1.0
 40
0.2334633752270999
 41
1.137178375746189
 42
2.70797645986774
  0
ELLIPSE
  5
76B7
330
1F
100
AcDbEntity
  8
AM_0
100
AcDbEllipse
 10
-14.35241900000002
 20
93.24037699999996
 30
0.0
 11
-3.435959798769999
 21
2.924448059599999
 31
0.0
210
0.0
220
0.0
230
1.0
 40
0.23346323854036
 41
0.017551380496699
 42
2.70797623664354
  0
ELLIPSE
  5
76B8
330
1F
100
AcDbEntity
  8
AM_0
100
AcDbEllipse
 10
-9.917887000000035
 20
99.32116599999995
 30
0.0
 11
-3.832724215734998
 21
2.376246174469999
 31
0.0
210
0.0
220
0.0
230
1.0
 40
0.49620175355538
 41
0.62109220314602
 42
1.543512159643229
  0
ELLIPSE
  5
76B9
330
1F
100
AcDbEntity
  8
AM_0
100
AcDbEllipse
 10
2.426974000000001
 20
101.0427069999999
 30
0.0
 11
8.063423839663
 21
9.664547013867
 31
0.0
210
0.0
220
0.0
230
1.0
 40
0.04746598979819
 41
2.155669251262539
 42
2.651588309760209
  0
LINE
  5
76BA
330
1F
100
AcDbEntity
  8
AM_0
100
AcDbLine
 10
-13.0929780000001
 20
109.6716529999998
 30
0.0
 11
-11.37718600000013
 21
109.2551839999998
 31
0.0
  0
LINE
  5
76BB
330
1F
100
AcDbEntity
  8
AM_0
100
AcDbLine
 10
-13.0929780000001
 20
109.6716529999998
 30
0.0
 11
-8.863547000000124
 21
105.2035999999999
 31
0.0
  0
LINE
  5
76BC
330
1F
100
AcDbEntity
  8
AM_0
100
AcDbLine
 10
-13.72096900000005
 20
100.146927
 30
0.0
 11
-11.20110600000006
 21
97.48489499999994
 31
0.0
  0
LINE
  5
76BD
330
1F
100
AcDbEntity
  8
AM_0
100
AcDbLine
 10
-15.52351400000017
 20
109.5583079999999
 30
0.0
 11
-12.28105100000013
 21
106.1329069999999
 31
0.0
  0
LINE
  5
76BE
330
1F
100
AcDbEntity
  8
AM_0
100
AcDbLine
 10
-15.11383700000007
 20
109.5176959999998
 30
0.0
 11
-11.96858000000005
 21
106.1949859999999
 31
0.0
  0
LINE
  5
76BF
330
1F
100
AcDbEntity
  8
AM_0
100
AcDbLine
 10
-10.87808900000001
 20
87.62689299999989
 30
0.0
 11
-23.68107300000017
 21
101.1522139999999
 31
0.0
  0
LINE
  5
76C0
330
1F
100
AcDbEntity
  8
AM_0
100
AcDbLine
 10
-19.95171400000012
 20
99.15557999999988
 30
0.0
 11
-17.49830800000015
 21
96.5637549999999
 31
0.0
  0
LINE
  5
76C1
330
1F
100
AcDbEntity
  8
AM_0
100
AcDbLine
 10
-14.07521500000004
 20
101.2576239999999
 30
0.0
 11
-17.79983100000001
 21
96.15029599999992
 31
0.0
  0
LINE
  5
76C2
330
1F
100
AcDbEntity
  8
AM_0
100
AcDbLine
 10
-19.95171400000012
 20
99.15557999999988
 30
0.0
 11
-16.06439800000006
 21
104.4860079999999
 31
0.0
  0
LINE
  5
76C3
330
1F
100
AcDbEntity
  8
AM_0
100
AcDbLine
 10
-17.34757700000008
 20
104.629682
 30
0.0
 11
-21.09966300000004
 21
99.48468600000001
 31
0.0
  0
LINE
  5
76C4
330
1F
100
AcDbEntity
  8
AM_0
100
AcDbLine
 10
-19.35353300000016
 20
105.7930339999999
 30
0.0
 11
-23.68341200000006
 21
110.3672019999999
 31
0.0
  0
LINE
  5
76C5
330
1F
100
AcDbEntity
  8
AM_0
100
AcDbLine
 10
-24.36253400000007
 20
101.8124379999999
 30
0.0
 11
-20.70467500000015
 21
106.8282269999999
 31
0.0
  0
LINE
  5
76C6
330
1F
100
AcDbEntity
  8
AM_0
100
AcDbLine
 10
-19.92044400000006
 20
99.19845799999997
 30
0.0
 11
-21.09966300000004
 21
99.48468600000001
 31
0.0
  0
LINE
  5
76C7
330
1F
100
AcDbEntity
  8
AM_0
100
AcDbLine
 10
-23.22121200000012
 20
109.4867459999999
 30
0.0
 11
-20.70467500000015
 21
106.8282269999999
 31
0.0
  0
LINE
  5
76C8
330
1F
100
AcDbEntity
  8
AM_0
100
AcDbLine
 10
-23.68341200000006
 20
110.3672019999999
 30
0.0
 11
-23.85021600000001
 21
110.3837379999999
 31
0.0
  0
LINE
  5
76C9
330
1F
100
AcDbEntity
  8
AM_0
100
AcDbLine
 10
-13.29620700000006
 20
101.5616379999999
 30
0.0
 11
-16.06439800000006
 21
104.4860079999999
 31
0.0
  0
LINE
  5
76CA
330
1F
100
AcDbEntity
  8
AM_0
100
AcDbLine
 10
-15.33329399999999
 20
109.5394509999998
 30
0.0
 11
-13.0929780000001
 21
109.6716529999998
 31
0.0
  0
LINE
  5
76CB
330
1F
100
AcDbEntity
  8
AM_0
100
AcDbLine
 10
-15.11383700000007
 20
109.5176959999998
 30
0.0
 11
-15.52351400000017
 21
109.5583079999999
 31
0.0
  0
LINE
  5
76CC
330
1F
100
AcDbEntity
  8
AM_0
100
AcDbLine
 10
-9.746788000000123
 20
104.1718469999999
 30
0.0
 11
-2.247256000000078
 21
96.24919599999998
 31
0.0
  0
LINE
  5
76CD
330
1F
100
AcDbEntity
  8
AM_0
100
AcDbLine
 10
-0.0056560000000161
 20
97.77661899999998
 30
0.0
 11
-6.036706000000066
 21
90.73148199999991
 31
0.0
  0
LINE
  5
76CE
330
1F
100
AcDbEntity
  8
AM_0
100
AcDbLine
 10
-11.82083700000006
 20
105.970732
 30
0.0
 11
-2.407291000000071
 21
96.02608099999997
 31
0.0
  0
LINE
  5
76CF
330
1F
100
AcDbEntity
  8
AM_0
100
AcDbLine
 10
-4.903556000000065
 20
92.69547799999987
 30
0.0
 11
-9.188138000000066
 21
87.78473099999997
 31
0.0
  0
LINE
  5
76D0
330
1F
100
AcDbEntity
  8
AM_0
100
AcDbLine
 10
-7.921440000000046
 20
88.103969
 30
0.0
 11
-1.803873000000038
 21
95.25017200000002
 31
0.0
  0
LINE
  5
76D1
330
1F
100
AcDbEntity
  8
AM_0
100
AcDbLine
 10
-4.903556000000065
 20
92.69547799999987
 30
0.0
 11
-7.633998000000104
 21
95.57997099999989
 31
0.0
  0
LINE
  5
76D2
330
1F
100
AcDbEntity
  8
AM_0
100
AcDbLine
 10
-11.52131400000004
 20
90.2495429999999
 30
0.0
 11
-9.188138000000066
 21
87.78473099999997
 31
0.0
  0
LINE
  5
76D3
330
1F
100
AcDbEntity
  8
AM_0
100
AcDbLine
 10
-9.162297000000052
 20
87.21042499999999
 30
0.0
 11
-6.153991000000104
 21
90.724561
 31
0.0
  0
LINE
  5
76D4
330
1F
100
AcDbEntity
  8
AM_0
100
AcDbLine
 10
-9.162297000000052
 20
87.21042499999999
 30
0.0
 11
-10.87808900000001
 21
87.62689299999989
 31
0.0
  0
LINE
  5
76D5
330
1F
100
AcDbEntity
  8
AM_0
100
AcDbLine
 10
-10.00459900000006
 20
88.64725599999998
 30
0.0
 11
-10.87808900000001
 21
87.62689299999989
 31
0.0
  0
LINE
  5
76D6
330
1F
100
AcDbEntity
  8
AM_0
100
AcDbLine
 10
-8.890677000000067
 20
87.52771599999993
 30
0.0
 11
-7.921440000000046
 21
88.103969
 31
0.0
  0
LINE
  5
76D7
330
1F
100
AcDbEntity
  8
AM_0
100
AcDbLine
 10
-7.633998000000104
 20
95.57997099999989
 30
0.0
 11
-11.52131400000004
 21
90.2495429999999
 31
0.0
  0
LINE
  5
76D8
330
1F
100
AcDbEntity
  8
AM_0
100
AcDbLine
 10
-6.64863000000011
 20
90.6953719999999
 30
0.0
 11
-6.036706000000066
 21
90.73148199999991
 31
0.0
  0
LINE
  5
76D9
330
1F
100
AcDbEntity
  8
AM_0
100
AcDbLine
 10
-2.247256000000078
 20
96.24919599999998
 30
0.0
 11
-2.407291000000071
 21
96.02608099999997
 31
0.0
  0
LINE
  5
76DA
330
1F
100
AcDbEntity
  8
AM_0
100
AcDbLine
 10
-1.803873000000038
 20
95.25017200000002
 30
0.0
 11
-1.145716000000078
 21
96.44486399999994
 31
0.0
  0
LINE
  5
76DB
330
1F
100
AcDbEntity
  8
AM_0
100
AcDbLine
 10
-5.997010000000017
 20
106.3353569999999
 30
0.0
 11
-0.0000000000000853
 21
100.0
 31
0.0
  0
LINE
  5
76DC
330
1F
100
AcDbEntity
  8
AM_0
100
AcDbLine
 10
-9.746788000000123
 20
104.1718469999999
 30
0.0
 11
-7.995662000000123
 21
106.2174159999999
 31
0.0
  0
LINE
  5
76DD
330
1F
100
AcDbEntity
  8
AM_0
100
AcDbLine
 10
-11.5083660000001
 20
106.0328119999999
 30
0.0
 11
-9.746788000000123
 21
104.1718469999999
 31
0.0
  0
LINE
  5
76DE
330
1F
100
AcDbEntity
  8
AM_0
100
AcDbLine
 10
-10.4573050000001
 20
109.0319039999999
 30
0.0
 11
-7.803842000000003
 21
106.2287349999999
 31
0.0
  0
LINE
  5
76DF
330
1F
100
AcDbEntity
  8
AM_0
100
AcDbLine
 10
-8.235951000000085
 20
105.9367229999999
 30
0.0
 11
-11.37718600000013
 21
109.2551839999998
 31
0.0
  0
LINE
  5
76E0
330
1F
100
AcDbEntity
  8
AM_0
100
AcDbLine
 10
-11.37718600000013
 20
109.2551839999998
 30
0.0
 11
-8.235951000000085
 21
105.9367229999999
 31
0.0
  0
LINE
  5
76E1
330
1F
100
AcDbEntity
  8
AM_0
100
AcDbLine
 10
-11.37718600000013
 20
109.2551839999998
 30
0.0
 11
-10.4573050000001
 21
109.0319039999999
 31
0.0
  0
LINE
  5
76E2
330
1F
100
AcDbEntity
  8
AM_0
100
AcDbLine
 10
-12.28105100000013
 20
106.1329069999999
 30
0.0
 11
-11.96858000000005
 21
106.1949859999999
 31
0.0
  0
LINE
  5
76E3
330
1F
100
AcDbEntity
  8
AM_0
100
AcDbLine
 10
-11.96858000000005
 20
106.1949859999999
 30
0.0
 11
-12.42913200000006
 21
105.6569949999999
 31
0.0
  0
LINE
  5
76E4
330
1F
100
AcDbEntity
  8
AM_0
100
AcDbLine
 10
-11.82083700000006
 20
105.970732
 30
0.0
 11
-11.5083660000001
 21
106.0328119999999
 31
0.0
  0
LINE
  5
76E5
330
1F
100
AcDbEntity
  8
AM_0
100
AcDbLine
 10
-5.997010000000017
 20
106.3353569999999
 30
0.0
 11
-7.995662000000123
 21
106.2174159999999
 31
0.0
  0
LINE
  5
76E6
330
1F
100
AcDbEntity
  8
AM_0
100
AcDbLine
 10
-0.0056560000000161
 20
97.77661899999998
 30
0.0
 11
-0.0000000000000853
 21
100.0
 31
0.0
  0
LINE
  5
76E7
330
1F
100
AcDbEntity
  8
AM_11
100
AcDbLine
 10
-0.0000000000000853
 20
100.0
 30
0.0
 11
0.0000000000000568
 21
-99.99999999999992
 31
0.0
  0
ELLIPSE
  5
770F
330
1F
100
AcDbEntity
  8
AM_0
100
AcDbEllipse
 10
2.426974000000143
 20
-101.0427069999999
 30
0.0
 11
8.063423839663013
 21
-9.664547013866991
 31
0.0
210
0.0
220
0.0
230
-1.0
 40
0.04746598979819
 41
2.155669251262539
 42
2.651588309760209
  0
ELLIPSE
  5
7710
330
1F
100
AcDbEntity
  8
AM_0
100
AcDbEllipse
 10
-9.917886999999893
 20
-99.32116599999993
 30
0.0
 11
-3.832724215734996
 21
-2.376246174470004
 31
0.0
210
0.0
220
0.0
230
-1.0
 40
0.49620175355538
 41
0.62109220314602
 42
1.543512159643229
  0
ELLIPSE
  5
7711
330
1F
100
AcDbEntity
  8
AM_0
100
AcDbEllipse
 10
-14.35241899999991
 20
-93.24037699999994
 30
0.0
 11
-3.435959798769995
 21
-2.924448059600004
 31
0.0
210
0.0
220
0.0
230
-1.0
 40
0.23346323854036
 41
0.017551380496699
 42
2.70797623664354
  0
ELLIPSE
  5
7712
330
1F
100
AcDbEntity
  8
AM_0
100
AcDbEllipse
 10
-22.98706599999996
 20
-101.4785749999998
 30
0.0
 11
-2.290639612008997
 21
-1.949631823684003
 31
0.0
210
0.0
220
0.0
230
-1.0
 40
0.2334633752270999
 41
1.137178375746189
 42
2.70797645986774
  0
ELLIPSE
  5
7713
330
1F
100
AcDbEntity
  8
AM_0
100
AcDbEllipse
 10
-10.09351399999997
 20
-113.9621809999998
 30
0.0
 11
9.077921428430014
 21
-8.593098541227989
 31
0.0
210
0.0
220
0.0
230
-0.9999999999999998
 40
0.40306016
 41
3.504973911650779
 42
4.120812155185199
  0
ELLIPSE
  5
7714
330
1F
100
AcDbEntity
  8
AM_0
100
AcDbEllipse
 10
-7.443829999999991
 20
-111.1630029999998
 30
0.0
 11
16.752346230429
 21
-0.4186277243569782
 31
0.0
210
0.0
220
0.0
230
-1.0
 40
0.09565589915869
 41
3.387269475739639
 42
3.69919915740975
  0
ELLIPSE
  5
7715
330
1F
100
AcDbEntity
  8
AM_0
100
AcDbEllipse
 10
-7.443829999999991
 20
-111.1630029999998
 30
0.0
 11
16.752346230429
 21
-0.4186277243569782
 31
0.0
210
0.0
220
0.0
230
-1.0
 40
0.09565589915869
 41
3.87803142890441
 42
4.206720239215379
  0
ELLIPSE
  5
7716
330
1F
100
AcDbEntity
  8
AM_0
100
AcDbEllipse
 10
-18.81142499999993
 20
-107.2043639999999
 30
0.0
 11
-2.555150043760997
 21
-1.584164467602003
 31
0.0
210
0.0
220
0.0
230
-0.9999999999999998
 40
0.4962014217725701
 41
1.08230269278924
 42
1.665047343793309
  0
ELLIPSE
  5
7717
330
1F
100
AcDbEntity
  8
AM_0
100
AcDbEllipse
 10
-21.3279619999999
 20
-109.862883
 30
0.0
 11
-2.555150043760997
 21
-1.584164467602003
 31
0.0
210
0.0
220
0.0
230
-0.9999999999999998
 40
0.4962014217725701
 41
0.636245101584397
 42
1.08230269278924
  0
ELLIPSE
  5
7718
330
1F
100
AcDbEntity
  8
AM_0
100
AcDbEllipse
 10
-17.43595799999997
 20
-110.2714579999999
 30
0.0
 11
4.438020644030999
 21
-0.1671704740159941
 31
0.0
210
0.0
220
0.0
230
-1.0
 40
0.1084187763219
 41
3.46551503352552
 42
4.13902372390823
  0
ELLIPSE
  5
7719
330
1F
100
AcDbEntity
  8
AM_0
100
AcDbEllipse
 10
-9.643704999999897
 20
-113.7944049999998
 30
0.0
 11
9.077921428430014
 21
-8.593098541227989
 31
0.0
210
0.0
220
0.0
230
-0.9999999999999998
 40
0.40306016
 41
3.625988081971029
 42
4.12191071214064
  0
SPLINE
  5
771A
330
1F
100
AcDbEntity
  8
AM_0
100
AcDbSpline
210
0.0
220
0.0
230
1.0
 70
     8
 71
     3
 72
    11
 73
     7
 74
     5
 42
0.0000000001
 43
0.0000000001
 44
0.0000000001
 40
0.0
 40
0.0
 40
0.0
 40
0.0
 40
1.513558911605333
 40
3.992146043793755
 40
6.507770778066346
 40
7.753678117367636
 40
7.753678117367636
 40
7.753678117367636
 40
7.753678117367636
 10
-16.42817999999994
 20
-105.7133659999999
 30
0.0
 10
-16.9361452498038
 20
-105.5412096774372
 30
0.0
 10
-18.27594870696712
 20
-105.0871320880133
 30
0.0
 10
-20.00834584413077
 20
-106.8321559690727
 30
0.0
 10
-21.73059397914471
 20
-108.0647552500058
 30
0.0
 10
-22.06353361196665
 20
-109.3042037032388
 30
0.0
 10
-22.17381099999994
 20
-109.7147379999998
 30
0.0
 11
-16.42817999999994
 21
-105.7133659999999
 31
0.0
 11
-17.91224799999992
 21
-105.4160399999999
 31
0.0
 11
-20.01053099999996
 21
-106.7353589999999
 31
0.0
 11
-21.76560899999987
 21
-108.5375989999999
 31
0.0
 11
-22.17381099999994
 21
-109.7147379999998
 31
0.0
  0
SPLINE
  5
771B
330
1F
100
AcDbEntity
  8
AM_0
100
AcDbSpline
210
0.0
220
0.0
230
1.0
 70
     8
 71
     3
 72
    11
 73
     7
 74
     5
 42
0.0000000001
 43
0.0000000001
 44
0.0000000001
 40
0.0
 40
0.0
 40
0.0
 40
0.0
 40
0.1207363178004091
 40
0.2580229741986187
 40
0.4180017894774544
 40
0.6037199231020301
 40
0.6037199231020301
 40
0.6037199231020301
 40
0.6037199231020301
 10
-22.17381099999994
 20
-109.7147379999998
 30
0.0
 10
-22.14685712745766
 20
-109.7449839720821
 30
0.0
 10
-22.08925458924685
 20
-109.8096219850377
 30
0.0
 10
-21.96465254621975
 20
-109.8767366832186
 30
0.0
 10
-21.81237042443219
 20
-109.9299144798457
 30
0.0
 10
-21.69855099951287
 20
-109.9493758201033
 30
0.0
 10
-21.63740399999988
 20
-109.9598309999999
 30
0.0
 11
-22.17381099999994
 21
-109.7147379999998
 31
0.0
 11
-22.0887209999999
 21
-109.8003939999998
 31
0.0
 11
-21.97032599999994
 21
-109.8698939999999
 31
0.0
 11
-21.81945299999989
 21
-109.9230969999999
 31
0.0
 11
-21.63740399999988
 21
-109.9598309999999
 31
0.0
  0
SPLINE
  5
771C
330
1F
100
AcDbEntity
  8
AM_0
100
AcDbSpline
210
0.0
220
0.0
230
1.0
 70
     8
 71
     3
 72
    11
 73
     7
 74
     5
 42
0.0000000001
 43
0.0000000001
 44
0.0000000001
 40
0.0
 40
0.0
 40
0.0
 40
0.0
 40
1.781054617354863
 40
3.506378295465364
 40
4.920552749393858
 40
5.969191171666267
 40
5.969191171666267
 40
5.969191171666267
 40
5.969191171666267
 10
-19.82818899999989
 20
-109.7765569999999
 30
0.0
 10
-19.25985277908179
 20
-109.5865094597832
 30
0.0
 10
-18.14096413291908
 20
-109.2123611525787
 30
0.0
 10
-16.85272836077704
 20
-108.183921895482
 30
0.0
 10
-16.06357801541621
 20
-106.8713483119364
 30
0.0
 10
-16.31929748466005
 20
-106.0591787826338
 30
0.0
 10
-16.42817999999994
 20
-105.7133659999999
 30
0.0
 11
-19.82818899999989
 21
-109.7765569999999
 31
0.0
 11
-18.17501299999986
 21
-109.1138619999999
 31
0.0
 11
-16.840845
 21
-108.0199069999998
 31
0.0
 11
-16.23202499999996
 21
-106.7434949999999
 31
0.0
 11
-16.42817999999994
 21
-105.7133659999999
 31
0.0
  0
SPLINE
  5
771D
330
1F
100
AcDbEntity
  8
AM_0
100
AcDbSpline
210
0.0
220
0.0
230
1.0
 70
     8
 71
     3
 72
    11
 73
     7
 74
     5
 42
0.0000000001
 43
0.0000000001
 44
0.0000000001
 40
0.0
 40
0.0
 40
0.0
 40
0.0
 40
0.7145181739501214
 40
1.36084130803244
 40
1.911022652545419
 40
2.350779522819131
 40
2.350779522819131
 40
2.350779522819131
 40
2.350779522819131
 10
-19.35353300000002
 20
-105.7930339999999
 30
0.0
 10
-19.17232732741404
 20
-105.6380145359019
 30
0.0
 10
-18.82721061310915
 20
-105.3427709745977
 30
0.0
 10
-18.30269540553809
 20
-104.982642716202
 30
0.0
 10
-17.81906404457444
 20
-104.7154841268803
 30
0.0
 10
-17.49260069719474
 20
-104.6560736937072
 30
0.0
 10
-17.34757699999994
 20
-104.629682
 30
0.0
 11
-19.35353300000002
 21
-105.7930339999999
 31
0.0
 11
-18.80208899999996
 21
-105.3386709999999
 31
0.0
 11
-18.26893999999998
 21
-104.9733139999999
 31
0.0
 11
-17.77596499999987
 21
-104.7290289999999
 31
0.0
 11
-17.34757699999994
 21
-104.629682
 31
0.0
  0
SPLINE
  5
771E
330
1F
100
AcDbEntity
  8
AM_0
100
AcDbSpline
210
0.0
220
0.0
230
1.0
 70
     8
 71
     3
 72
    11
 73
     7
 74
     5
 42
0.0000000001
 43
0.0000000001
 44
0.0000000001
 40
0.0
 40
0.0
 40
0.0
 40
0.0
 40
0.2146183478177614
 40
0.4696810224724298
 40
0.8052848875887608
 40
1.233282542633635
 40
1.233282542633635
 40
1.233282542633635
 40
1.233282542633635
 10
-14.07524099999994
 20
-101.2575879999999
 30
0.0
 10
-14.10678712289275
 20
-101.1912377649912
 30
0.0
 10
-14.175824161925
 20
-101.0460337480141
 30
0.0
 10
-14.10683558555121
 20
-100.7708547524618
 30
0.0
 10
-13.95462697926988
 20
-100.4700768629808
 30
0.0
 10
-13.80489408931761
 20
-100.2629957137601
 30
0.0
 10
-13.72096899999991
 20
-100.1469269999999
 30
0.0
 11
-14.07524099999994
 21
-101.2575879999999
 31
0.0
 11
-14.14706299999994
 21
-101.0553439999998
 31
0.0
 11
-14.10671399999995
 21
-100.8034929999998
 31
0.0
 11
-13.96154899999993
 21
-100.5009089999998
 31
0.0
 11
-13.72096899999991
 21
-100.1469269999999
 31
0.0
  0
SPLINE
  5
771F
330
1F
100
AcDbEntity
  8
AM_0
100
AcDbSpline
210
0.0
220
0.0
230
1.0
 70
     8
 71
     3
 72
    11
 73
     7
 74
     5
 42
0.0000000001
 43
0.0000000001
 44
0.0000000001
 40
0.0
 40
0.0
 40
0.0
 40
0.0
 40
1.04468105891218
 40
1.941535364311431
 40
2.612928259511313
 40
3.043453414123564
 40
3.043453414123564
 40
3.043453414123564
 40
3.043453414123564
 10
-10.34737999999998
 20
-100.5229919999998
 30
0.0
 10
-10.68157184145692
 20
-100.6276360549578
 30
0.0
 10
-11.30266597647324
 20
-100.8221165919912
 30
0.0
 10
-12.15996442972285
 20
-100.9139164449542
 30
0.0
 10
-12.85805737414927
 20
-100.9348706959096
 30
0.0
 10
-13.16688243205367
 20
-100.7232495070819
 30
0.0
 10
-13.28754199999986
 20
-100.640568
 30
0.0
 11
-10.34737999999998
 21
-100.5229919999998
 31
0.0
 11
-11.35456499999992
 21
-100.8003669999999
 31
0.0
 11
-12.24479200000001
 21
-100.9091949999999
 31
0.0
 11
-12.91395699999992
 21
-100.8545449999998
 31
0.0
 11
-13.28754199999986
 21
-100.640568
 31
0.0
  0
SPLINE
  5
7720
330
1F
100
AcDbEntity
  8
AM_0
100
AcDbSpline
210
0.0
220
0.0
230
1.0
 70
     8
 71
     3
 72
    11
 73
     7
 74
     5
 42
0.0000000001
 43
0.0000000001
 44
0.0000000001
 40
0.0
 40
0.0
 40
0.0
 40
0.0
 40
0.2757246160955127
 40
0.5070860214551301
 40
0.6974850349662192
 40
0.8565604683587228
 40
0.8565604683587228
 40
0.8565604683587228
 40
0.8565604683587228
 10
-13.29620699999992
 20
-101.5616379999998
 30
0.0
 10
-13.387574624327
 20
-101.5500172203747
 30
0.0
 10
-13.55560911383292
 20
-101.5286454074777
 30
0.0
 10
-13.77907028851524
 20
-101.4644794429887
 30
0.0
 10
-13.95857417953481
 20
-101.3824960221783
 30
0.0
 10
-14.0387473820736
 20
-101.2966594825271
 30
0.0
 10
-14.07524099999994
 20
-101.2575879999999
 30
0.0
 11
-13.29620699999992
 21
-101.5616379999998
 31
0.0
 11
-13.56866199999996
 21
-101.5193019999999
 31
0.0
 11
-13.79075499999993
 21
-101.4544729999999
 31
0.0
 11
-13.95999399999988
 21
-101.3672379999998
 31
0.0
 11
-14.07524099999994
 21
-101.2575879999999
 31
0.0
  0
SPLINE
  5
7721
330
1F
100
AcDbEntity
  8
AM_0
100
AcDbSpline
210
0.0
220
0.0
230
1.0
 70
     8
 71
     3
 72
    11
 73
     7
 74
     5
 42
0.0000000001
 43
0.0000000001
 44
0.0000000001
 40
0.0
 40
0.0
 40
0.0
 40
0.0
 40
1.246889020983929
 40
3.762516581837259
 40
6.241279187984502
 40
7.756416322911865
 40
7.756416322911865
 40
7.756416322911865
 40
7.756416322911865
 10
-13.28754199999986
 20
-100.640568
 30
0.0
 10
-13.17766126537961
 20
-100.229543271963
 30
0.0
 10
-12.84609359650489
 20
-98.98926660839606
 30
0.0
 10
-11.1229963579709
 20
-97.75638346405791
 30
0.0
 10
-9.388616046632048
 20
-96.01251516904149
 30
0.0
 10
-8.048661831852225
 20
-96.46841032169177
 30
0.0
 10
-7.540333000000003
 20
-96.64135999999993
 30
0.0
 11
-13.28754199999986
 21
-100.640568
 31
0.0
 11
-12.88023299999991
 21
-99.46208099999987
 31
0.0
 11
-11.12503799999998
 21
-97.65995099999983
 31
0.0
 11
-9.025622999999967
 21
-96.34210399999993
 31
0.0
 11
-7.540333000000003
 21
-96.64135999999993
 31
0.0
  0
SPLINE
  5
7722
330
1F
100
AcDbEntity
  8
AM_0
100
AcDbSpline
210
0.0
220
0.0
230
1.0
 70
     8
 71
     3
 72
    11
 73
     7
 74
     5
 42
0.0000000001
 43
0.0000000001
 44
0.0000000001
 40
0.0
 40
0.0
 40
0.0
 40
0.0
 40
1.229155053773598
 40
2.359789102299002
 40
3.335199407222895
 40
4.139374811623017
 40
4.139374811623017
 40
4.139374811623017
 40
4.139374811623017
 10
-11.20110599999995
 20
-97.4848949999999
 30
0.0
 10
-10.89390440179942
 20
-97.21267312055534
 30
0.0
 10
-10.3041244701164
 20
-96.69004888161294
 30
0.0
 10
-9.388153712937954
 20
-96.06415380825922
 30
0.0
 10
-8.502824087813094
 20
-95.61770055815363
 30
0.0
 10
-7.904413313091152
 20
-95.59171402938636
 30
0.0
 10
-7.633997999999991
 20
-95.57997099999985
 30
0.0
 11
-11.20110599999995
 21
-97.4848949999999
 31
0.0
 11
-10.26368199999987
 21
-96.6898739999999
 31
0.0
 11
-9.327570999999892
 21
-96.05581599999991
 31
0.0
 11
-8.433597000000048
 21
-95.66564199999991
 31
0.0
 11
-7.633997999999991
 21
-95.57997099999985
 31
0.0
  0
SPLINE
  5
7723
330
1F
100
AcDbEntity
  8
AM_0
100
AcDbSpline
210
0.0
220
0.0
230
1.0
 70
     8
 71
     3
 72
    11
 73
     7
 74
     5
 42
0.0000000001
 43
0.0000000001
 44
0.0000000001
 40
0.0
 40
0.0
 40
0.0
 40
0.0
 40
0.9468400005941315
 40
2.192326962004682
 40
3.719287007216459
 40
5.361660633557668
 40
5.361660633557668
 40
5.361660633557668
 40
5.361660633557668
 10
-7.540333000000003
 20
-96.64135999999993
 30
0.0
 10
-7.43254462030026
 20
-96.9491929552308
 30
0.0
 10
-7.182969854914065
 20
-97.66195380935904
 30
0.0
 10
-7.783167120362052
 20
-98.86726248144769
 30
0.0
 10
-8.857603625743143
 20
-99.88874157894493
 30
0.0
 10
-9.83887661965171
 20
-100.3065041507717
 30
0.0
 10
-10.34737999999998
 20
-100.5229919999998
 30
0.0
 11
-7.540333000000003
 21
-96.64135999999993
 31
0.0
 11
-7.329510999999996
 21
-97.56443099999998
 31
0.0
 11
-7.783622999999863
 21
-98.7241809999999
 31
0.0
 11
-8.878249999999923
 21
-99.78879299999992
 31
0.0
 11
-10.34737999999998
 21
-100.5229919999998
 31
0.0
  0
ELLIPSE
  5
7724
330
1F
100
AcDbEntity
  8
AM_0
100
AcDbEllipse
 10
-25.50360299999994
 20
-104.1370939999999
 30
0.0
 11
-2.290639612008997
 21
-1.949631823684003
 31
0.0
210
0.0
220
0.0
230
-1.0
 40
0.2334633752270999
 41
0.017551370222918
 42
1.137178375746189
  0
ELLIPSE
  5
7725
330
1F
100
AcDbEntity
  8
AM_0
100
AcDbEllipse
 10
-21.07925199999994
 20
-110.2039239999999
 30
0.0
 11
3.804017266616
 21
-0.143288961595995
 31
0.0
210
0.0
220
0.0
230
-1.0
 40
0.1084186759450099
 41
2.382733006633379
 42
3.056298966713689
  0
LINE
  5
7727
330
1F
100
AcDbEntity
  8
AM_0
100
AcDbLine
 10
-5.997009999999875
 20
-106.3353569999998
 30
0.0
 11
0.0000000000000568
 21
-99.99999999999998
 31
0.0
  0
LINE
  5
7728
330
1F
100
AcDbEntity
  8
AM_0
100
AcDbLine
 10
-7.921439999999932
 20
-88.10396899999998
 30
0.0
 11
-1.803872999999924
 21
-95.25017199999998
 31
0.0
  0
LINE
  5
7729
330
1F
100
AcDbEntity
  8
AM_0
100
AcDbLine
 10
-0.0056559999999024
 20
-97.77661899999996
 30
0.0
 11
-6.036705999999952
 21
-90.73148199999989
 31
0.0
  0
LINE
  5
772A
330
1F
100
AcDbEntity
  8
AM_0
100
AcDbLine
 10
-7.633997999999991
 20
-95.57997099999985
 30
0.0
 11
-11.52131399999993
 21
-90.24954299999988
 31
0.0
  0
LINE
  5
772B
330
1F
100
AcDbEntity
  8
AM_0
100
AcDbLine
 10
-4.903555999999952
 20
-92.69547799999983
 30
0.0
 11
-7.633997999999991
 21
-95.57997099999985
 31
0.0
  0
LINE
  5
772C
330
1F
100
AcDbEntity
  8
AM_0
100
AcDbLine
 10
-10.8780889999999
 20
-87.62689299999985
 30
0.0
 11
-23.68107300000002
 21
-101.1522139999999
 31
0.0
  0
LINE
  5
772D
330
1F
100
AcDbEntity
  8
AM_0
100
AcDbLine
 10
-8.890676999999953
 20
-87.52771599999991
 30
0.0
 11
-7.921439999999932
 21
-88.10396899999998
 31
0.0
  0
LINE
  5
772E
330
1F
100
AcDbEntity
  8
AM_0
100
AcDbLine
 10
-9.162296999999938
 20
-87.21042499999995
 30
0.0
 11
-6.15399099999999
 21
-90.72456099999996
 31
0.0
  0
LINE
  5
772F
330
1F
100
AcDbEntity
  8
AM_0
100
AcDbLine
 10
-4.903555999999952
 20
-92.69547799999983
 30
0.0
 11
-9.188137999999952
 21
-87.78473099999994
 31
0.0
  0
LINE
  5
7730
330
1F
100
AcDbEntity
  8
AM_0
100
AcDbLine
 10
-10.00459899999995
 20
-88.64725599999994
 30
0.0
 11
-10.8780889999999
 21
-87.62689299999985
 31
0.0
  0
LINE
  5
7731
330
1F
100
AcDbEntity
  8
AM_0
100
AcDbLine
 10
-9.162296999999938
 20
-87.21042499999995
 30
0.0
 11
-10.8780889999999
 21
-87.62689299999985
 31
0.0
  0
LINE
  5
7732
330
1F
100
AcDbEntity
  8
AM_0
100
AcDbLine
 10
-11.52131399999993
 20
-90.24954299999988
 30
0.0
 11
-9.188137999999952
 21
-87.78473099999994
 31
0.0
  0
LINE
  5
7733
330
1F
100
AcDbEntity
  8
AM_0
100
AcDbLine
 10
-6.648629999999997
 20
-90.69537199999988
 30
0.0
 11
-6.036705999999952
 21
-90.73148199999989
 31
0.0
  0
LINE
  5
7734
330
1F
100
AcDbEntity
  8
AM_0
100
AcDbLine
 10
-13.29620699999992
 20
-101.5616379999998
 30
0.0
 11
-16.06439799999992
 21
-104.4860079999999
 31
0.0
  0
LINE
  5
7735
330
1F
100
AcDbEntity
  8
AM_0
100
AcDbLine
 10
-14.0752149999999
 20
-101.2576239999999
 30
0.0
 11
-17.79983099999989
 21
-96.15029599999992
 31
0.0
  0
LINE
  5
7736
330
1F
100
AcDbEntity
  8
AM_0
100
AcDbLine
 10
-23.22121199999997
 20
-109.4867459999999
 30
0.0
 11
-20.704675
 21
-106.8282269999999
 31
0.0
  0
LINE
  5
7737
330
1F
100
AcDbEntity
  8
AM_0
100
AcDbLine
 10
-24.36253399999992
 20
-101.8124379999999
 30
0.0
 11
-20.704675
 21
-106.8282269999999
 31
0.0
  0
LINE
  5
7738
330
1F
100
AcDbEntity
  8
AM_0
100
AcDbLine
 10
-19.35353300000002
 20
-105.7930339999999
 30
0.0
 11
-23.68341199999992
 21
-110.3672019999999
 31
0.0
  0
LINE
  5
7739
330
1F
100
AcDbEntity
  8
AM_0
100
AcDbLine
 10
-26.87907099999989
 20
-104.4709569999999
 30
0.0
 11
-24.36253399999992
 21
-101.8124379999999
 31
0.0
  0
LINE
  5
773A
330
1F
100
AcDbEntity
  8
AM_0
100
AcDbLine
 10
-24.87076499999995
 20
-110.0962879999999
 30
0.0
 11
-27.80187799999993
 21
-106.0770399999998
 31
0.0
  0
LINE
  5
773B
330
1F
100
AcDbEntity
  8
AM_0
100
AcDbLine
 10
-23.22121199999997
 20
-109.4867459999999
 30
0.0
 11
-26.87907099999989
 21
-104.4709569999999
 31
0.0
  0
LINE
  5
773C
330
1F
100
AcDbEntity
  8
AM_0
100
AcDbLine
 10
-23.68341199999992
 20
-110.3672019999999
 30
0.0
 11
-23.85021599999987
 21
-110.3837379999999
 31
0.0
  0
LINE
  5
773D
330
1F
100
AcDbEntity
  8
AM_0
100
AcDbLine
 10
-17.34757699999994
 20
-104.629682
 30
0.0
 11
-21.0996629999999
 21
-99.48468600000001
 31
0.0
  0
LINE
  5
773E
330
1F
100
AcDbEntity
  8
AM_0
100
AcDbLine
 10
-19.95171399999998
 20
-99.15557999999988
 30
0.0
 11
-16.06439799999992
 21
-104.4860079999999
 31
0.0
  0
LINE
  5
773F
330
1F
100
AcDbEntity
  8
AM_0
100
AcDbLine
 10
-19.95171399999998
 20
-99.15557999999988
 30
0.0
 11
-17.49830800000003
 21
-96.5637549999999
 31
0.0
  0
LINE
  5
7740
330
1F
100
AcDbEntity
  8
AM_0
100
AcDbLine
 10
-19.92044399999991
 20
-99.19845799999997
 30
0.0
 11
-21.0996629999999
 21
-99.48468600000001
 31
0.0
  0
LINE
  5
7741
330
1F
100
AcDbEntity
  8
AM_0
100
AcDbLine
 10
-11.37718599999999
 20
-109.2551839999998
 30
0.0
 11
-8.235950999999943
 21
-105.9367229999998
 31
0.0
  0
LINE
  5
7742
330
1F
100
AcDbEntity
  8
AM_0
100
AcDbLine
 10
-8.235950999999943
 20
-105.9367229999998
 30
0.0
 11
-11.37718599999999
 21
-109.2551839999998
 31
0.0
  0
LINE
  5
7743
330
1F
100
AcDbEntity
  8
AM_0
100
AcDbLine
 10
-10.45730499999996
 20
-109.0319039999999
 30
0.0
 11
-7.80384199999986
 21
-106.2287349999998
 31
0.0
  0
LINE
  5
7744
330
1F
100
AcDbEntity
  8
AM_0
100
AcDbLine
 10
-9.74678799999998
 20
-104.1718469999999
 30
0.0
 11
-7.995661999999981
 21
-106.2174159999999
 31
0.0
  0
LINE
  5
7745
330
1F
100
AcDbEntity
  8
AM_0
100
AcDbLine
 10
-11.82083699999992
 20
-105.9707319999999
 30
0.0
 11
-2.407290999999958
 21
-96.02608099999995
 31
0.0
  0
LINE
  5
7746
330
1F
100
AcDbEntity
  8
AM_0
100
AcDbLine
 10
-9.74678799999998
 20
-104.1718469999999
 30
0.0
 11
-2.247255999999964
 21
-96.24919599999996
 31
0.0
  0
LINE
  5
7747
330
1F
100
AcDbEntity
  8
AM_0
100
AcDbLine
 10
-13.72096899999991
 20
-100.1469269999999
 30
0.0
 11
-11.20110599999995
 21
-97.4848949999999
 31
0.0
  0
LINE
  5
7748
330
1F
100
AcDbEntity
  8
AM_0
100
AcDbLine
 10
-11.96857999999991
 20
-106.1949859999999
 30
0.0
 11
-12.42913199999992
 21
-105.6569949999999
 31
0.0
  0
LINE
  5
7749
330
1F
100
AcDbEntity
  8
AM_0
100
AcDbLine
 10
-12.28105099999999
 20
-106.1329069999999
 30
0.0
 11
-11.96857999999991
 21
-106.1949859999999
 31
0.0
  0
LINE
  5
774A
330
1F
100
AcDbEntity
  8
AM_0
100
AcDbLine
 10
-15.11383699999993
 20
-109.5176959999998
 30
0.0
 11
-11.96857999999991
 21
-106.1949859999999
 31
0.0
  0
LINE
  5
774B
330
1F
100
AcDbEntity
  8
AM_0
100
AcDbLine
 10
-13.09297799999995
 20
-109.6716529999998
 30
0.0
 11
-8.863546999999982
 21
-105.2035999999999
 31
0.0
  0
LINE
  5
774C
330
1F
100
AcDbEntity
  8
AM_0
100
AcDbLine
 10
-13.09297799999995
 20
-109.6716529999998
 30
0.0
 11
-11.37718599999999
 21
-109.2551839999998
 31
0.0
  0
LINE
  5
774D
330
1F
100
AcDbEntity
  8
AM_0
100
AcDbLine
 10
-15.52351400000003
 20
-109.5583079999998
 30
0.0
 11
-12.28105099999999
 21
-106.1329069999999
 31
0.0
  0
LINE
  5
774E
330
1F
100
AcDbEntity
  8
AM_0
100
AcDbLine
 10
-15.33329399999985
 20
-109.5394509999998
 30
0.0
 11
-13.09297799999995
 21
-109.6716529999998
 31
0.0
  0
LINE
  5
774F
330
1F
100
AcDbEntity
  8
AM_0
100
AcDbLine
 10
-15.11383699999993
 20
-109.5176959999998
 30
0.0
 11
-15.52351400000003
 21
-109.5583079999998
 31
0.0
  0
LINE
  5
7750
330
1F
100
AcDbEntity
  8
AM_0
100
AcDbLine
 10
-11.50836599999996
 20
-106.0328119999998
 30
0.0
 11
-9.74678799999998
 21
-104.1718469999999
 31
0.0
  0
LINE
  5
7751
330
1F
100
AcDbEntity
  8
AM_0
100
AcDbLine
 10
-11.82083699999992
 20
-105.9707319999999
 30
0.0
 11
-11.50836599999996
 21
-106.0328119999998
 31
0.0
  0
LINE
  5
7752
330
1F
100
AcDbEntity
  8
AM_0
100
AcDbLine
 10
-11.37718599999999
 20
-109.2551839999998
 30
0.0
 11
-10.45730499999996
 21
-109.0319039999999
 31
0.0
  0
LINE
  5
7753
330
1F
100
AcDbEntity
  8
AM_0
100
AcDbLine
 10
-2.247255999999964
 20
-96.24919599999996
 30
0.0
 11
-2.407290999999958
 21
-96.02608099999995
 31
0.0
  0
LINE
  5
7754
330
1F
100
AcDbEntity
  8
AM_0
100
AcDbLine
 10
-5.997009999999875
 20
-106.3353569999998
 30
0.0
 11
-7.995661999999981
 21
-106.2174159999999
 31
0.0
  0
LINE
  5
7755
330
1F
100
AcDbEntity
  8
AM_0
100
AcDbLine
 10
-0.0056559999999024
 20
-97.77661899999996
 30
0.0
 11
0.0000000000000568
 21
-99.99999999999998
 31
0.0
  0
LINE
  5
7756
330
1F
100
AcDbEntity
  8
AM_0
100
AcDbLine
 10
-1.803872999999924
 20
-95.25017199999998
 30
0.0
 11
-1.145715999999964
 21
-96.44486399999991
 31
0.0
  0
LINE
  5
7807
330
1F
100
AcDbEntity
  8
AM_0
100
AcDbLine
 10
-60.00000000000003
 20
-23.81250000000001
 30
0.0
 11
-51.40087598487625
 21
-23.81250000000001
 31
0.0
  0
LINE
  5
780A
330
1F
100
AcDbEntity
  8
AM_0
100
AcDbLine
 10
-42.81000000000014
 20
-23.5125
 30
0.0
 11
-30.00000000000008
 21
-23.51250000000003
 31
0.0
  0
LINE
  5
780B
330
1F
100
AcDbEntity
  8
AM_0
100
AcDbLine
 10
-42.81000000000014
 20
-23.5125
 30
0.0
 11
-51.40087598487625
 21
-23.81250000000001
 31
0.0
  0
LINE
  5
780C
330
1F
100
AcDbEntity
  8
AM_0
100
AcDbLine
 10
-51.40087598487625
 20
-23.81250000000001
 30
0.0
 11
-51.40087598487625
 21
-12.69999999999996
 31
0.0
  0
LINE
  5
7945
330
1F
100
AcDbEntity
  8
AM_0
100
AcDbLine
 10
-24.94098485419751
 20
-110.0
 30
0.0
 11
-30.4900951803157
 21
-110.0
 31
0.0
  0
LINE
  5
7946
330
1F
100
AcDbEntity
  8
AM_0
100
AcDbLine
 10
-21.93725331627156
 20
-110.0
 30
0.0
 11
-11.13000000000005
 21
-110.0
 31
0.0
  0
LINE
  5
7947
330
1F
100
AcDbEntity
  8
AM_0
100
AcDbLine
 10
-11.13000000000005
 20
-110.0
 30
0.0
 11
-7.771892794992781
 21
-106.2287349999998
 31
0.0
  0
LINE
  5
7948
330
1F
100
AcDbEntity
  8
AM_3
100
AcDbLine
 10
-2.000000000000085
 20
-96.0467092775775
 30
0.0
 11
-2.000000000000085
 21
-95.02106729942505
 31
0.0
  0
LINE
  5
7949
330
1F
100
AcDbEntity
  8
AM_0
100
AcDbLine
 10
-10.02019299999992
 20
-87.41865899999991
 30
0.0
 11
-23.00000000000008
 21
-73.52696636705923
 31
0.0
  0
LINE
  5
794A
330
1F
100
AcDbEntity
  8
AM_0
100
AcDbLine
 10
-30.49009518031577
 20
110.0
 30
0.0
 11
-24.94098485419765
 21
110.0
 31
0.0
  0
LINE
  5
794B
330
1F
100
AcDbEntity
  8
AM_0
100
AcDbLine
 10
-21.93725331627164
 20
110.0
 30
0.0
 11
-11.13000000000008
 21
110.0
 31
0.0
  0
LINE
  5
794C
330
1F
100
AcDbEntity
  8
AM_0
100
AcDbLine
 10
-11.13000000000008
 20
110.0
 30
0.0
 11
-7.773488068196305
 21
106.2305265443522
 31
0.0
  0
LINE
  5
794D
330
1F
100
AcDbEntity
  8
AM_0
100
AcDbLine
 10
-10.04106316824538
 20
87.4237247406193
 30
0.0
 11
-23.00000000000008
 21
73.52696636705923
 31
0.0
  0
LINE
  5
794E
330
1F
100
AcDbEntity
  8
AM_0
100
AcDbLine
 10
-2.000000000000085
 20
95.0210672994252
 30
0.0
 11
-2.000000000000014
 21
0.0
 31
0.0
  0
ARC
  5
7A2B
330
1F
100
AcDbEntity
  8
AM_0
100
AcDbCircle
 10
-30.49009518031573
 20
95.00000000000001
 30
0.0
 40
15.0
100
AcDbArc
 50
90.00000000000017
 51
165.0
1001
GENIUS_GENODEF_13
1002
{
1000
HIER
1070
     0
1002
}
1002
{
1000
MANEDIT
1070
     0
1002
}
1002
{
1000
NOSEL
1070
     0
1002
}
1002
{
1000
BEHIND
1070
     0
1002
}
1002
{
1000
REACTOR
1002
}
1001
GENIUS_GENOBJ-N-FIL_13
1002
{
1000
OWNER
1000
GEN
1002
}
  0
ARC
  5
7A2E
330
1F
100
AcDbEntity
  8
AM_0
100
AcDbCircle
 10
-59.42900257525335
 20
72.0
 30
0.0
 40
7.0
100
AcDbArc
 50
270.0
 51
345.0
1001
GENIUS_GENODEF_13
1002
{
1000
HIER
1070
     0
1002
}
1002
{
1000
MANEDIT
1070
     0
1002
}
1002
{
1000
NOSEL
1070
     0
1002
}
1002
{
1000
BEHIND
1070
     0
1002
}
1002
{
1000
REACTOR
1002
}
1001
GENIUS_GENOBJ-N-FIL_13
1002
{
1000
OWNER
1000
GEN
1002
}
  0
ARC
  5
7A35
330
1F
100
AcDbEntity
  8
AM_0
100
AcDbCircle
 10
-61.00000000000008
 20
63.0
 30
0.0
 40
2.0
100
AcDbArc
 50
90.0
 51
180.0
1001
GENIUS_GENODEF_13
1002
{
1000
HIER
1070
     0
1002
}
1002
{
1000
MANEDIT
1070
     0
1002
}
1002
{
1000
NOSEL
1070
     0
1002
}
1002
{
1000
BEHIND
1070
     0
1002
}
1002
{
1000
REACTOR
1002
}
1001
GENIUS_GENOBJ-N-FIL_13
1002
{
1000
OWNER
1000
GEN
1002
}
  0
ARC
  5
7A38
330
1F
100
AcDbEntity
  8
AM_0
100
AcDbCircle
 10
-60.00000000000004
 20
26.81250000000002
 30
0.0
 40
3.0
100
AcDbArc
 50
180.0
 51
270.0
1001
GENIUS_GENODEF_13
1002
{
1000
HIER
1070
     0
1002
}
1002
{
1000
MANEDIT
1070
     0
1002
}
1002
{
1000
NOSEL
1070
     0
1002
}
1002
{
1000
BEHIND
1070
     0
1002
}
1002
{
1000
REACTOR
1002
}
1001
GENIUS_GENOBJ-N-FIL_13
1002
{
1000
OWNER
1000
GEN
1002
}
  0
ARC
  5
7A3B
330
1F
100
AcDbEntity
  8
AM_0
100
AcDbCircle
 10
-30.00000000000008
 20
25.51250000000003
 30
0.0
 40
2.0
100
AcDbArc
 50
270.0000000000001
 51
0.0
1001
GENIUS_GENODEF_13
1002
{
1000
HIER
1070
     0
1002
}
1002
{
1000
MANEDIT
1070
     0
1002
}
1002
{
1000
NOSEL
1070
     0
1002
}
1002
{
1000
BEHIND
1070
     0
1002
}
1002
{
1000
REACTOR
1002
}
1001
GENIUS_GENOBJ-N-FIL_13
1002
{
1000
OWNER
1000
GEN
1002
}
  0
LINE
  5
7A3E
330
1F
100
AcDbEntity
  8
AM_0
100
AcDbLine
 10
-62.00000000000002
 20
12.69999999999996
 30
0.0
 11
-63.00000000000002
 21
13.69999999999996
 31
0.0
1001
GENIUS_GENFIL_13
1070
     0
1040
1.0
1040
1.0
1040
20.0
1040
0.0
1002
{
1002
}
1001
GENIUS_GENODEF_13
1002
{
1000
HIER
1070
     0
1002
}
1002
{
1000
MANEDIT
1070
     0
1002
}
1002
{
1000
NOSEL
1070
     0
1002
}
1002
{
1000
BEHIND
1070
     0
1002
}
1002
{
1000
REACTOR
1002
}
1001
GENIUS_GENOBJ-N-CHA_13
1002
{
1000
OWNER
1000
GEN
1002
}
  0
ARC
  5
7A46
330
1F
100
AcDbEntity
  8
AM_0
100
AcDbCircle
 10
-61.00000000000008
 20
-63.0
 30
0.0
 40
2.0
100
AcDbArc
 50
179.9999999999999
 51
270.0
1001
GENIUS_GENODEF_13
1002
{
1000
HIER
1070
     0
1002
}
1002
{
1000
MANEDIT
1070
     0
1002
}
1002
{
1000
NOSEL
1070
     0
1002
}
1002
{
1000
BEHIND
1070
     0
1002
}
1002
{
1000
REACTOR
1002
}
1001
GENIUS_GENOBJ-N-FIL_13
1002
{
1000
OWNER
1000
GEN
1002
}
  0
ARC
  5
7A47
330
1F
100
AcDbEntity
  8
AM_0
100
AcDbCircle
 10
-60.00000000000004
 20
-26.81250000000002
 30
0.0
 40
3.0
100
AcDbArc
 50
90.00000000000003
 51
179.9999999999999
1001
GENIUS_GENODEF_13
1002
{
1000
HIER
1070
     0
1002
}
1002
{
1000
MANEDIT
1070
     0
1002
}
1002
{
1000
NOSEL
1070
     0
1002
}
1002
{
1000
BEHIND
1070
     0
1002
}
1002
{
1000
REACTOR
1002
}
1001
GENIUS_GENOBJ-N-FIL_13
1002
{
1000
OWNER
1000
GEN
1002
}
  0
ARC
  5
7A48
330
1F
100
AcDbEntity
  8
AM_0
100
AcDbCircle
 10
-30.00000000000008
 20
-25.51250000000003
 30
0.0
 40
2.0
100
AcDbArc
 50
0.0
 51
89.99999999999991
1001
GENIUS_GENODEF_13
1002
{
1000
HIER
1070
     0
1002
}
1002
{
1000
MANEDIT
1070
     0
1002
}
1002
{
1000
NOSEL
1070
     0
1002
}
1002
{
1000
BEHIND
1070
     0
1002
}
1002
{
1000
REACTOR
1002
}
1001
GENIUS_GENOBJ-N-FIL_13
1002
{
1000
OWNER
1000
GEN
1002
}
  0
ARC
  5
7A49
330
1F
100
AcDbEntity
  8
AM_0
100
AcDbCircle
 10
-30.49009518031573
 20
-95.00000000000001
 30
0.0
 40
15.0
100
AcDbArc
 50
194.9999999999999
 51
269.9999999999998
1001
GENIUS_GENODEF_13
1002
{
1000
HIER
1070
     0
1002
}
1002
{
1000
MANEDIT
1070
     0
1002
}
1002
{
1000
NOSEL
1070
     0
1002
}
1002
{
1000
BEHIND
1070
     0
1002
}
1002
{
1000
REACTOR
1002
}
1001
GENIUS_GENOBJ-N-FIL_13
1002
{
1000
OWNER
1000
GEN
1002
}
  0
ARC
  5
7A4A
330
1F
100
AcDbEntity
  8
AM_0
100
AcDbCircle
 10
-59.42900257525335
 20
-72.0
 30
0.0
 40
7.0
100
AcDbArc
 50
14.99999999999999
 51
90.00000000000003
1001
GENIUS_GENODEF_13
1002
{
1000
HIER
1070
     0
1002
}
1002
{
1000
MANEDIT
1070
     0
1002
}
1002
{
1000
NOSEL
1070
     0
1002
}
1002
{
1000
BEHIND
1070
     0
1002
}
1002
{
1000
REACTOR
1002
}
1001
GENIUS_GENOBJ-N-FIL_13
1002
{
1000
OWNER
1000
GEN
1002
}
  0
LINE
  5
7A4B
330
1F
100
AcDbEntity
  8
AM_0
100
AcDbLine
 10
-62.00000000000002
 20
-12.69999999999996
 30
0.0
 11
-63.00000000000002
 21
-13.69999999999996
 31
0.0
1001
GENIUS_GENFIL_13
1070
     0
1040
1.0
1040
1.0
1040
20.0
1040
0.0
1002
{
1002
}
1001
GENIUS_GENODEF_13
1002
{
1000
HIER
1070
     0
1002
}
1002
{
1000
MANEDIT
1070
     0
1002
}
1002
{
1000
NOSEL
1070
     0
1002
}
1002
{
1000
BEHIND
1070
     0
1002
}
1002
{
1000
REACTOR
1002
}
1001
GENIUS_GENOBJ-N-CHA_13
1002
{
1000
OWNER
1000
GEN
1002
}
  0
DIMENSION
  5
7BD1
330
1F
100
AcDbEntity
  8
AM_5
100
AcDbDimension
  2
*D12
 10
0.0000000000000568
 20
-99.99999999999994
 30
0.0
 11
-9.652458581399521
 21
-124.2380422660231
 31
0.0
 70
    34
  1
45%%d
  3
AM_JIS$2
100
AcDb2LineAngularDimension
 13
-5.997009999999875
 23
-106.3353569999998
 33
0.0
 14
0.0000000000000568
 24
-99.99999999999998
 34
0.0
 15
-0.0000000000000853
 25
100.0
 35
0.0
 16
-14.13000312556343
 26
-125.5413282538081
 36
0.0
1001
ACAD
1000
DSTYLE
1002
{
1070
   179
1070
     3
1002
}
1001
GENIUS_GENDTOL_13
1000

1000
h7
1000

1040
0.0
  0
VIEWPORT
  5
110
330
101
100
AcDbEntity
 67
     1
  8
0
100
AcDbViewport
 10
420.5
 20
297.0
 30
0.0
 40
948.9782706766916
 41
628.452
 68
     1
 69
     1
1001
ACAD
1000
MVIEW
1002
{
1070
    16
1010
0.0
1020
0.0
1030
0.0
1010
0.0
1020
0.0
1030
1.0
1040
0.0
1040
628.452
1040
420.5
1040
297.0
1040
50.0
1040
0.0
1040
0.0
1070
     0
1070
   100
1070
     1
1070
     1
1070
     0
1070
     0
1070
     0
1070
     0
1040
0.0
1040
0.0
1040
0.0
1040
10.0
1040
10.0
1040
10.0
1040
10.0
1070
     0
1002
{
1002
}
1002
}
  0
ENDSEC
  0
SECTION
  2
OBJECTS
  0
DICTIONARY
  5
C
330
0
100
AcDbDictionary
  3
ACAD_GROUP
350
D
  3
ACAD_LAYOUT
350
1A
  3
ACAD_MLINESTYLE
350
17
  3
ACAD_PLOTSETTINGS
350
19
  3
ACAD_PLOTSTYLENAME
350
E
  3
ACDBVARIABLEDICTIONARY
350
34
  3
ACMDICTIONARY
350
43
  3
AMG
350
2B
  3
AMGSNAPSETTINGS
350
6E
  3
DWGPROPS
350
7D5E
  3
ACDBHEADERROUNDTRIPXREC
350
7D6B
  0
DICTIONARY
  5
74
330
1F
100
AcDbDictionary
280
     1
  3
ACAD_INDEX
360
7D60
  3
ACAD_LAYOUTSELFREF
360
7D8E
  0
DICTIONARY
  5
7D93
330
101
100
AcDbDictionary
280
     1
  3
ACAD_LAYOUTSELFREF
360
7D94
  0
DICTIONARY
  5
D
102
{ACAD_REACTORS
330
C
102
}
330
C
100
AcDbDictionary
  0
DICTIONARY
  5
1A
102
{ACAD_REACTORS
330
C
102
}
330
C
100
AcDbDictionary
  0
DICTIONARY
  5
17
102
{ACAD_REACTORS
330
C
102
}
330
C
100
AcDbDictionary
  3
STANDARD
350
18
  0
DICTIONARY
  5
19
102
{ACAD_REACTORS
330
C
102
}
330
C
100
AcDbDictionary
  0
ACDBDICTIONARYWDFLT
  5
E
102
{ACAD_REACTORS
330
C
102
}
330
C
100
AcDbDictionary
281
     1
  3
Normal
350
F
100
AcDbDictionaryWithDefault
340
F
  0
DICTIONARY
  5
34
102
{ACAD_REACTORS
330
C
102
}
330
C
100
AcDbDictionary
  3
INDEXCTL
350
35
  3
SORTENTS
350
B5E
  0
DICTIONARY
  5
43
102
{ACAD_REACTORS
330
C
102
}
330
C
100
AcDbDictionary
  3
ACMSTDDICTIONARY
350
260
  0
DICTIONARY
  5
2B
102
{ACAD_REACTORS
330
C
102
}
330
C
100
AcDbDictionary
  3
ACMGSETTINGS
350
2C
  0
DICTIONARY
  5
6E
102
{ACAD_REACTORS
330
C
102
}
330
C
100
AcDbDictionary
  0
XRECORD
  5
7D5E
102
{ACAD_REACTORS
330
C
102
}
330
C
100
AcDbXrecord
  1
DWGPROPS COOKIE
  2

  3

  4

  6

  7

  8

  9

300
AmdtFileType=82
301
=
302
=
303
=
304
=
305
=
306
=
307
=
308
=
309
=
 40
0.1247477199074074
 41
2452836.771637361
 42
2453076.541831944
  1

 90
        1
  0
DICTIONARY
  5
7D6B
102
{ACAD_REACTORS
330
C
102
}
330
C
100
AcDbDictionary
  3
TSTACKALIGN
350
7D6C
  3
TSTACKSIZE
350
7D6D
  3
HYPERLINKBASE
350
7D6E
  3
STYLESHEET
350
7D6F
  3
LAYOUTDICT
350
7D70
  3
PLOTSETDICT
350
7D71
  3
PLOTSTYLNAMDICT
350
7D72
  3
LWETCUNION
350
7D73
  3
INSUNITS
350
7D74
  3
CEPSNTYPE
350
7D75
  3
FINGERPRINTGUID
350
7D76
  3
VERSIONGUID
350
7D77
  3
PSVPSCALE
350
7D78
  3
DIMSTYLEDATA
350
7D79
  3
PUCSORTHOREF
350
7D7A
  3
PUCSORTHOVIEW
350
7D7B
  3
PUCSBASE
350
7D7C
  3
PUCSORGTOP
350
7D7D
  3
PUCSORGBOTTOM
350
7D7E
  3
PUCSORGLEFT
350
7D7F
  3
PUCSORGRIGHT
350
7D80
  3
PUCSORGFRONT
350
7D81
  3
PUCSORGBACK
350
7D82
  3
UCSORTHOREF
350
7D83
  3
UCSORTHOVIEW
350
7D84
  3
UCSBASE
350
7D85
  3
UCSORGTOP
350
7D86
  3
UCSORGBOTTOM
350
7D87
  3
UCSORGLEFT
350
7D88
  3
UCSORGRIGHT
350
7D89
  3
UCSORGFRONT
350
7D8A
  3
UCSORGBACK
350
7D8B
  0
DICTIONARY
  5
7D60
102
{ACAD_REACTORS
330
74
102
}
330
74
100
AcDbDictionary
  3
*A1
350
7D61
  0
XRECORD
  5
7D8E
102
{ACAD_REACTORS
330
74
102
}
330
74
100
AcDbXrecord
340
1F
  0
XRECORD
  5
7D94
102
{ACAD_REACTORS
330
7D93
102
}
330
7D93
100
AcDbXrecord
340
101
  0
MLINESTYLE
  5
18
102
{ACAD_REACTORS
330
17
102
}
330
17
100
AcDbMlineStyle
  2
STANDARD
 70
     0
  3

 62
   256
 51
90.0
 52
90.0
 71
     2
 49
0.5
 62
   256
  6
BYLAYER
 49
-0.5
 62
   256
  6
BYLAYER
  0
ACDBPLACEHOLDER
  5
F
102
{ACAD_REACTORS
330
E
102
}
330
E
100
AcDbPlaceHolder
280
     0
  0
DICTIONARYVAR
  5
35
102
{ACAD_REACTORS
330
34
102
}
330
34
100
DictionaryVariables
280
     0
  1
1
  0
DICTIONARYVAR
  5
B5E
102
{ACAD_REACTORS
330
34
102
}
330
34
100
DictionaryVariables
280
     0
  1
96
  0
DICTIONARY
  5
260
102
{ACAD_REACTORS
330
43
102
}
330
43
100
AcDbDictionary
  0
DICTIONARY
  5
2C
102
{ACAD_REACTORS
330
2B
102
}
330
2B
100
AcDbDictionary
  3
DWGSETTINGS
350
2D
  0
XRECORD
  5
7D6C
102
{ACAD_REACTORS
330
7D6B
102
}
330
7D6B
100
AcDbXrecord
 90
        1
  0
XRECORD
  5
7D6D
102
{ACAD_REACTORS
330
7D6B
102
}
330
7D6B
100
AcDbXrecord
 90
       70
  0
XRECORD
  5
7D6E
102
{ACAD_REACTORS
330
7D6B
102
}
330
7D6B
100
AcDbXrecord
  1

  0
XRECORD
  5
7D6F
102
{ACAD_REACTORS
330
7D6B
102
}
330
7D6B
100
AcDbXrecord
  1
ASAMI.ctb
  0
XRECORD
  5
7D70
102
{ACAD_REACTORS
330
7D6B
102
}
330
7D6B
100
AcDbXrecord
340
1A
  0
XRECORD
  5
7D71
102
{ACAD_REACTORS
330
7D6B
102
}
330
7D6B
100
AcDbXrecord
340
19
  0
XRECORD
  5
7D72
102
{ACAD_REACTORS
330
7D6B
102
}
330
7D6B
100
AcDbXrecord
340
E
  0
XRECORD
  5
7D73
102
{ACAD_REACTORS
330
7D6B
102
}
330
7D6B
100
AcDbXrecord
 90
    10781
  0
XRECORD
  5
7D74
102
{ACAD_REACTORS
330
7D6B
102
}
330
7D6B
100
AcDbXrecord
 90
        4
  0
XRECORD
  5
7D75
102
{ACAD_REACTORS
330
7D6B
102
}
330
7D6B
100
AcDbXrecord
 90
        0
  0
XRECORD
  5
7D76
102
{ACAD_REACTORS
330
7D6B
102
}
330
7D6B
100
AcDbXrecord
  1
{AFB28963-8C59-40AE-9337-C84526B81ACE}
  0
XRECORD
  5
7D77
102
{ACAD_REACTORS
330
7D6B
102
}
330
7D6B
100
AcDbXrecord
  1
{AC0C2BA1-62D3-4387-9D6D-A071C7F5483E}
  0
XRECORD
  5
7D78
102
{ACAD_REACTORS
330
7D6B
102
}
330
7D6B
100
AcDbXrecord
 40
0.0
  0
XRECORD
  5
7D79
102
{ACAD_REACTORS
330
7D6B
102
}
330
7D6B
100
AcDbXrecord
1000
DSTYLE
1002
{
1070
    79
 70
     2
1070
   341
340
59
1070
   342
340
59
1070
   371
 70
    -1
1070
   372
 70
    -1
1002
}
  0
XRECORD
  5
7D7A
102
{ACAD_REACTORS
330
7D6B
102
}
330
7D6B
100
AcDbXrecord
340
0
  0
XRECORD
  5
7D7B
102
{ACAD_REACTORS
330
7D6B
102
}
330
7D6B
100
AcDbXrecord
 70
     0
  0
XRECORD
  5
7D7C
102
{ACAD_REACTORS
330
7D6B
102
}
330
7D6B
100
AcDbXrecord
340
0
  0
XRECORD
  5
7D7D
102
{ACAD_REACTORS
330
7D6B
102
}
330
7D6B
100
AcDbXrecord
 10
0.0
 20
0.0
 30
0.0
  0
XRECORD
  5
7D7E
102
{ACAD_REACTORS
330
7D6B
102
}
330
7D6B
100
AcDbXrecord
 10
0.0
 20
0.0
 30
0.0
  0
XRECORD
  5
7D7F
102
{ACAD_REACTORS
330
7D6B
102
}
330
7D6B
100
AcDbXrecord
 10
0.0
 20
0.0
 30
0.0
  0
XRECORD
  5
7D80
102
{ACAD_REACTORS
330
7D6B
102
}
330
7D6B
100
AcDbXrecord
 10
0.0
 20
0.0
 30
0.0
  0
XRECORD
  5
7D81
102
{ACAD_REACTORS
330
7D6B
102
}
330
7D6B
100
AcDbXrecord
 10
0.0
 20
0.0
 30
0.0
  0
XRECORD
  5
7D82
102
{ACAD_REACTORS
330
7D6B
102
}
330
7D6B
100
AcDbXrecord
 10
0.0
 20
0.0
 30
0.0
  0
XRECORD
  5
7D83
102
{ACAD_REACTORS
330
7D6B
102
}
330
7D6B
100
AcDbXrecord
340
0
  0
XRECORD
  5
7D84
102
{ACAD_REACTORS
330
7D6B
102
}
330
7D6B
100
AcDbXrecord
 70
     0
  0
XRECORD
  5
7D85
102
{ACAD_REACTORS
330
7D6B
102
}
330
7D6B
100
AcDbXrecord
340
0
  0
XRECORD
  5
7D86
102
{ACAD_REACTORS
330
7D6B
102
}
330
7D6B
100
AcDbXrecord
 10
0.0
 20
0.0
 30
0.0
  0
XRECORD
  5
7D87
102
{ACAD_REACTORS
330
7D6B
102
}
330
7D6B
100
AcDbXrecord
 10
0.0
 20
0.0
 30
0.0
  0
XRECORD
  5
7D88
102
{ACAD_REACTORS
330
7D6B
102
}
330
7D6B
100
AcDbXrecord
 10
0.0
 20
0.0
 30
0.0
  0
XRECORD
  5
7D89
102
{ACAD_REACTORS
330
7D6B
102
}
330
7D6B
100
AcDbXrecord
 10
0.0
 20
0.0
 30
0.0
  0
XRECORD
  5
7D8A
102
{ACAD_REACTORS
330
7D6B
102
}
330
7D6B
100
AcDbXrecord
 10
0.0
 20
0.0
 30
0.0
  0
XRECORD
  5
7D8B
102
{ACAD_REACTORS
330
7D6B
102
}
330
7D6B
100
AcDbXrecord
 10
0.0
 20
0.0
 30
0.0
  0
LAYER_INDEX
  5
7D61
102
{ACAD_REACTORS
330
7D60
102
}
330
7D60
100
AcDbIndex
 40
2453152.366953437
100
AcDbLayerIndex
  8
0
360
7D62
 90
        0
  8
AM_0
360
7D63
 90
      199
  8
AM_7
360
7D64
 90
        3
  8
AM_5
360
7D65
 90
        8
  8
Defpoints
360
7D66
 90
        0
  8
AM_6
360
7D67
 90
        1
  8
AM_11
360
7D68
 90
       17
  8
AM_3
360
7D69
 90
       10
  0
XRECORD
  5
2D
102
{ACAD_REACTORS
330
2C
102
}
330
2C
100
AcDbXrecord
  1
VERSION
140
15.0
  1
PRODUCT
  2
AutoCAD Mechanical 2000
  0
IDBUFFER
  5
7D62
330
0
100
AcDbIdBuffer
  0
IDBUFFER
  5
7D63
330
0
100
AcDbIdBuffer
330
7718
330
7719
330
771A
330
771B
330
771C
330
771D
330
771E
330
771F
330
7720
330
7721
330
7722
330
7723
330
7724
330
7725
330
7727
330
7728
330
7729
330
772A
330
772B
330
772C
330
772D
330
772E
330
772F
330
7730
330
7731
330
7732
330
7733
330
7734
330
7735
330
7736
330
7737
330
7738
330
7739
330
773A
330
773B
330
773C
330
773D
330
773E
330
773F
330
7740
330
7741
330
7742
330
7743
330
7744
330
7745
330
7746
330
7747
330
7748
330
7749
330
774A
330
774B
330
774C
330
774D
330
774E
330
774F
330
7750
330
7751
330
7752
330
7753
330
7754
330
7755
330
7756
330
7807
330
780A
330
780B
330
780C
330
7945
330
7946
330
7947
330
7949
330
794A
330
794B
330
794C
330
794D
330
794E
330
7A2B
330
7A2E
330
7A35
330
7A38
330
7A3B
330
7A3E
330
7A46
330
7A47
330
7A48
330
7A49
330
7A4A
330
7A4B
330
6728
330
6729
330
672C
330
672F
330
6731
330
6732
330
6735
330
673B
330
673C
330
673D
330
673F
330
6740
330
6743
330
6745
330
674A
330
674B
330
674D
330
674E
330
674F
330
6750
330
6751
330
6752
330
6757
330
6758
330
675D
330
6763
330
6766
330
6768
330
676A
330
676B
330
676C
330
676D
330
769F
330
76A0
330
76A1
330
76A2
330
76A3
330
76A5
330
76A6
330
76A7
330
76A8
330
76A9
330
76AA
330
76AB
330
76AC
330
76AD
330
76AE
330
76AF
330
76B0
330
76B1
330
76B2
330
76B3
330
76B4
330
76B5
330
76B6
330
76B7
330
76B8
330
76B9
330
76BA
330
76BB
330
76BC
330
76BD
330
76BE
330
76BF
330
76C0
330
76C1
330
76C2
330
76C3
330
76C4
330
76C5
330
76C6
330
76C7
330
76C8
330
76C9
330
76CA
330
76CB
330
76CC
330
76CD
330
76CE
330
76CF
330
76D0
330
76D1
330
76D2
330
76D3
330
76D4
330
76D5
330
76D6
330
76D7
330
76D8
330
76D9
330
76DA
330
76DB
330
76DC
330
76DD
330
76DE
330
76DF
330
76E0
330
76E1
330
76E2
330
76E3
330
76E4
330
76E5
330
76E6
330
770F
330
7710
330
7711
330
7712
330
7713
330
7714
330
7715
330
7716
330
7717
  0
IDBUFFER
  5
7D64
330
0
100
AcDbIdBuffer
330
672A
330
6730
330
675C
  0
IDBUFFER
  5
7D65
330
0
100
AcDbIdBuffer
330
7550
330
7551
330
7552
330
75DA
330
75DB
330
75DC
330
7639
330
7BD1
  0
IDBUFFER
  5
7D66
330
0
100
AcDbIdBuffer
  0
IDBUFFER
  5
7D67
330
0
100
AcDbIdBuffer
330
E5A
  0
IDBUFFER
  5
7D68
330
0
100
AcDbIdBuffer
330
76E7
330
672B
330
672E
330
6733
330
6737
330
6738
330
674C
330
6753
330
6754
330
675A
330
675B
330
675E
330
675F
330
6760
330
6765
330
6767
330
6769
  0
IDBUFFER
  5
7D69
330
0
100
AcDbIdBuffer
330
6727
330
6744
330
6747
330
6748
330
6749
330
6764
330
676F
330
6770
330
6771
330
7948
  0
ENDSEC
  0
EOF
