  0
SECTION
  2
HEADER
  9
$ACADVER
  1
AC1014
  9
$ACADMAINTVER
 70
     9
  9
$DWGCODEPAGE
  3
ANSI_932
  9
$INSBASE
 10
0.0
 20
0.0
 30
0.0
  9
$EXTMIN
 10
-116.3267881690867
 20
-191.8837398957972
 30
-0.00000001
  9
$EXTMAX
 10
28.94189982773426
 20
135.5819223869407
 30
0.00000001
  9
$LIMMIN
 10
-193.6408059821209
 20
-220.8098153833811
  9
$LIMMAX
 10
114.7688130823606
 20
175.3588606381521
  9
$ORTHOMODE
 70
     0
  9
$REGENMODE
 70
     1
  9
$FILLMODE
 70
     1
  9
$QTEXTMODE
 70
     0
  9
$MIRRTEXT
 70
     0
  9
$DRAGMODE
 70
     2
  9
$LTSCALE
 40
1.0
  9
$OSMODE
 70
    55
  9
$ATTMODE
 70
     1
  9
$TEXTSIZE
 40
2.5
  9
$TRACEWID
 40
1.0
  9
$TEXTSTYLE
  7
STANDARD
  9
$CLAYER
  8
AM_0
  9
$CELTYPE
  6
BYLAYER
  9
$CECOLOR
 62
   256
  9
$CELTSCALE
 40
1.0
  9
$DELOBJ
 70
     1
  9
$DISPSILH
 70
     0
  9
$DIMSCALE
 40
1.0
  9
$DIMASZ
 40
2.5
  9
$DIMEXO
 40
1.0
  9
$DIMDLI
 40
12.0
  9
$DIMRND
 40
0.0
  9
$DIMDLE
 40
0.0
  9
$DIMEXE
 40
1.0
  9
$DIMTP
 40
0.1
  9
$DIMTM
 40
0.1
  9
$DIMTXT
 40
3.2
  9
$DIMCEN
 40
0.0
  9
$DIMTSZ
 40
0.0
  9
$DIMTOL
 70
     0
  9
$DIMLIM
 70
     0
  9
$DIMTIH
 70
     0
  9
$DIMTOH
 70
     0
  9
$DIMSE1
 70
     0
  9
$DIMSE2
 70
     0
  9
$DIMTAD
 70
     3
  9
$DIMZIN
 70
     8
  9
$DIMBLK
  1
OPEN30
  9
$DIMASO
 70
     1
  9
$DIMSHO
 70
     1
  9
$DIMPOST
  1

  9
$DIMAPOST
  1
"
  9
$DIMALT
 70
     0
  9
$DIMALTD
 70
     2
  9
$DIMALTF
 40
0.0393701
  9
$DIMLFAC
 40
1.0
  9
$DIMTOFL
 70
     1
  9
$DIMTVP
 40
0.0
  9
$DIMTIX
 70
     0
  9
$DIMSOXD
 70
     0
  9
$DIMSAH
 70
     0
  9
$DIMBLK1
  1

  9
$DIMBLK2
  1

  9
$DIMSTYLE
  2
AM_JIS
  9
$DIMCLRD
 70
   256
  9
$DIMCLRE
 70
   256
  9
$DIMCLRT
 70
     2
  9
$DIMTFAC
 40
0.71
  9
$DIMGAP
 40
1.5
  9
$DIMJUST
 70
     0
  9
$DIMSD1
 70
     0
  9
$DIMSD2
 70
     0
  9
$DIMTOLJ
 70
     0
  9
$DIMTZIN
 70
     0
  9
$DIMALTZ
 70
     0
  9
$DIMALTTZ
 70
     0
  9
$DIMFIT
 70
     3
  9
$DIMUPT
 70
     0
  9
$DIMUNIT
 70
     2
  9
$DIMDEC
 70
     3
  9
$DIMTDEC
 70
     3
  9
$DIMALTU
 70
     2
  9
$DIMALTTD
 70
     2
  9
$DIMTXSTY
  7
ASAMI
  9
$DIMAUNIT
 70
     0
  9
$LUNITS
 70
     2
  9
$LUPREC
 70
     2
  9
$SKETCHINC
 40
1.0
  9
$FILLETRAD
 40
1.0
  9
$AUNITS
 70
     0
  9
$AUPREC
 70
     0
  9
$MENU
  1
.
  9
$ELEVATION
 40
0.0
  9
$PELEVATION
 40
0.0
  9
$THICKNESS
 40
0.0
  9
$LIMCHECK
 70
     0
  9
$BLIPMODE
 70
     0
  9
$CHAMFERA
 40
1.0
  9
$CHAMFERB
 40
1.0
  9
$CHAMFERC
 40
20.0
  9
$CHAMFERD
 40
0.0
  9
$SKPOLY
 70
     0
  9
$TDCREATE
 40
2452836.771637361
  9
$TDUPDATE
 40
2453152.367039514
  9
$TDINDWG
 40
0.1336219676
  9
$TDUSRTIMER
 40
0.1336219676
  9
$USRTIMER
 70
     1
  9
$ANGBASE
 50
0.0
  9
$ANGDIR
 70
     0
  9
$PDMODE
 70
     0
  9
$PDSIZE
 40
0.0
  9
$PLINEWID
 40
0.0
  9
$COORDS
 70
     1
  9
$SPLFRAME
 70
     0
  9
$SPLINETYPE
 70
     6
  9
$SPLINESEGS
 70
     8
  9
$ATTDIA
 70
     1
  9
$ATTREQ
 70
     1
  9
$HANDLING
 70
 12289
  9
$HANDSEED
  5
909E
  9
$SURFTAB1
 70
     6
  9
$SURFTAB2
 70
     6
  9
$SURFTYPE
 70
     6
  9
$SURFU
 70
     6
  9
$SURFV
 70
     6
  9
$UCSNAME
  2

  9
$UCSORG
 10
0.0
 20
0.0
 30
0.0
  9
$UCSXDIR
 10
1.0
 20
0.0
 30
0.0
  9
$UCSYDIR
 10
0.0
 20
1.0
 30
0.0
  9
$PUCSNAME
  2

  9
$PUCSORG
 10
0.0
 20
0.0
 30
0.0
  9
$PUCSXDIR
 10
1.0
 20
0.0
 30
0.0
  9
$PUCSYDIR
 10
0.0
 20
1.0
 30
0.0
  9
$USERI1
 70
     0
  9
$USERI2
 70
     0
  9
$USERI3
 70
     0
  9
$USERI4
 70
     0
  9
$USERI5
 70
     0
  9
$USERR1
 40
0.0
  9
$USERR2
 40
0.0
  9
$USERR3
 40
0.0
  9
$USERR4
 40
0.0
  9
$USERR5
 40
0.0
  9
$WORLDVIEW
 70
     1
  9
$SHADEDGE
 70
     3
  9
$SHADEDIF
 70
    70
  9
$TILEMODE
 70
     1
  9
$MAXACTVP
 70
    64
  9
$PINSBASE
 10
0.0
 20
0.0
 30
0.0
  9
$PLIMCHECK
 70
     0
  9
$PEXTMIN
 10
1.000000000000000E+20
 20
1.000000000000000E+20
 30
1.000000000000000E+20
  9
$PEXTMAX
 10
-1.000000000000000E+20
 20
-1.000000000000000E+20
 30
-1.000000000000000E+20
  9
$PLIMMIN
 10
0.0
 20
0.0
  9
$PLIMMAX
 10
841.0
 20
594.0
  9
$UNITMODE
 70
     0
  9
$VISRETAIN
 70
     1
  9
$PLINEGEN
 70
     0
  9
$PSLTSCALE
 70
     0
  9
$TREEDEPTH
 70
  3020
  9
$PICKSTYLE
 70
     0
  9
$CMLSTYLE
  2
STANDARD
  9
$CMLJUST
 70
     0
  9
$CMLSCALE
 40
20.0
  9
$PROXYGRAPHICS
 70
     1
  9
$MEASUREMENT
 70
     1
  0
ENDSEC
  0
SECTION
  2
CLASSES
  0
CLASS
  1
ACDBDICTIONARYWDFLT
  2
AcDbDictionaryWithDefault
  3
AutoCAD 2000
 90
        0
280
     0
281
     0
  0
CLASS
  1
ACDBPLACEHOLDER
  2
AcDbPlaceHolder
  3
AutoCAD 2000
 90
        0
280
     0
281
     0
  0
CLASS
  1
LAYOUT
  2
AcDbLayout
  3
AutoCAD 2000
 90
        0
280
     0
281
     0
  0
CLASS
  1
AMGSETTINGSOBJ
  2
AmgSettingsObj
  3
"AcadM|Product Description: AutoCAD Mechanical 2000|Company: Autodesk"
 90
        0
280
     0
281
     0
  0
CLASS
  1
ACME_DOCUMENT
  2
AcMeDbDoc
  3
AcMeServices
 90
        0
280
     0
281
     0
  0
CLASS
  1
ACMESCOPE
  2
AcMeScope
  3
AcMeServices
 90
        0
280
     0
281
     0
  0
CLASS
  1
ACMECOMMANDHISTORY
  2
AcMeCommandHistory
  3
AcMeServices
 90
        0
280
     0
281
     0
  0
CLASS
  1
DICTIONARYVAR
  2
AcDbDictionaryVar
  3
AutoCAD 2000
 90
        0
280
     0
281
     0
  0
CLASS
  1
ACIMSYSVARMAN
  2
AcImSysVarManager
  3
AcMeServices
 90
        0
280
     0
281
     0
  0
CLASS
  1
ACIMREALSYSVAR
  2
AcImRealSysVar
  3
AcMeServices
 90
        0
280
     0
281
     0
  0
CLASS
  1
ACIMINTSYSVAR
  2
AcImIntSysVar
  3
AcMeServices
 90
        0
280
     0
281
     0
  0
CLASS
  1
ACMEDRAWINGMAN
  2
AcMeDrawingMan
  3
AcMeServices
 90
        0
280
     0
281
     0
  0
CLASS
  1
ACMEVIEW
  2
AcMeView
  3
AcMeServices
 90
        0
280
     0
281
     0
  0
CLASS
  1
ACDBENTITYCACHE
  2
AcMeEntityCache
  3
AcMeServices
 90
        0
280
     0
281
     0
  0
CLASS
  1
GSMANAGER
  2
AcMeGSManager
  3
AcMeServices
 90
        0
280
     0
281
     0
  0
CLASS
  1
AmdtInternalReactor
  2
AmdtInternalReactor
  3
AcMeServices
 90
        0
280
     0
281
     0
  0
CLASS
  1
ACMESTATEMGR
  2
AcMeStateMgr
  3
AcMeServices
 90
        0
280
     0
281
     0
  0
CLASS
  1
ACME_DATABASE
  2
AcMeDbDatabase
  3
AcMeServices
 90
        0
280
     0
281
     0
  0
CLASS
  1
ACRFINSADJUSTERMGR
  2
AcRfInsAdjusterMgr
  3
AcMeServices
 90
        0
280
     0
281
     0
  0
CLASS
  1
ACMDATADICTIONARY
  2
AcmDataDictionary
  3
"AcmSymBB|Product Description: AutoCAD Mechanical 2000|Company: Autodesk"
 90
        0
280
     0
281
     0
  0
CLASS
  1
ACMDATAENTRYBLOCK
  2
AcmDataEntryBlock
  3
"AcmSymBB|Product Description: AutoCAD Mechanical 2000|Company: Autodesk"
 90
        0
280
     0
281
     0
  0
CLASS
  1
AMGOBJPROPCFG
  2
AmgObjPropCfg
  3
"AmgLay|Product Description: AutoCAD Mechanical 2000|Company: Autodesk"
 90
        1
280
     0
281
     0
  0
CLASS
  1
ACAMGFILTERDAT
  2
AcAmgFilterDat
  3
"AcadM|Product Description: AutoCAD Mechanical 2000|Company: Autodesk"
 90
        0
280
     0
281
     0
  0
CLASS
  1
LAYER_INDEX
  2
AcDbLayerIndex
  3
AutoCAD 2000
 90
        0
280
     0
281
     0
  0
CLASS
  1
IDBUFFER
  2
AcDbIdBuffer
  3
AutoCAD 2000
 90
        0
280
     0
281
     0
  0
CLASS
  1
ACIMSTRSYSVAR
  2
AcImStrSysVar
  3
AcMeServices
 90
        0
280
     0
281
     0
  0
CLASS
  1
ACMSTANDARDJIS
  2
AcmStandardJIS
  3
"AcmSymBB|Product Description: AutoCAD Mechanical 2000|Company: Autodesk"
 90
        0
280
     0
281
     0
  0
CLASS
  1
ACMSURFSTANDARDJIS
  2
AcmSurfTextStdJIS
  3
"AcmSymBB|Product Description: AutoCAD Mechanical 2000|Company: Autodesk"
 90
        0
280
     0
281
     0
  0
CLASS
  1
ACMFCFSTANDARDJIS
  2
AcmFCFStdJIS
  3
"AcmSymBB|Product Description: AutoCAD Mechanical 2000|Company: Autodesk"
 90
        0
280
     0
281
     0
  0
CLASS
  1
ACMWELDSTANDARDJIS
  2
AcmWeldingStdJIS
  3
"AcmSymBB|Product Description: AutoCAD Mechanical 2000|Company: Autodesk"
 90
        0
280
     0
281
     0
  0
CLASS
  1
ACMIDSTANDARDJIS
  2
AcmIdStdJIS
  3
"AcmSymBB|Product Description: AutoCAD Mechanical 2000|Company: Autodesk"
 90
        0
280
     0
281
     0
  0
CLASS
  1
ACMDATUMSTANDARDJIS
  2
AcmDatumStdJIS
  3
"AcmSymBB|Product Description: AutoCAD Mechanical 2000|Company: Autodesk"
 90
        0
280
     0
281
     0
  0
CLASS
  1
ACMBOMSTANDARDJIS
  2
AcmBOMStdJIS
  3
"AcmSymBB|Product Description: AutoCAD Mechanical 2000|Company: Autodesk"
 90
        0
280
     0
281
     0
  0
CLASS
  1
ACMSTANDARDANSI
  2
AcmStandardANSI
  3
"AcmSymBB|Product Description: AutoCAD Mechanical 2000|Company: Autodesk"
 90
        0
280
     0
281
     0
  0
CLASS
  1
ACMSURFSTANDARDANSI
  2
AcmSurfTextStdANSI
  3
"AcmSymBB|Product Description: AutoCAD Mechanical 2000|Company: Autodesk"
 90
        0
280
     0
281
     0
  0
CLASS
  1
ACMFCFSTANDARDANSI
  2
AcmFCFStdANSI
  3
"AcmSymBB|Product Description: AutoCAD Mechanical 2000|Company: Autodesk"
 90
        0
280
     0
281
     0
  0
CLASS
  1
ACMWELDSTANDARDANSI
  2
AcmWeldingStdANSI
  3
"AcmSymBB|Product Description: AutoCAD Mechanical 2000|Company: Autodesk"
 90
        0
280
     0
281
     0
  0
CLASS
  1
ACMIDSTANDARDANSI
  2
AcmIdStdANSI
  3
"AcmSymBB|Product Description: AutoCAD Mechanical 2000|Company: Autodesk"
 90
        0
280
     0
281
     0
  0
CLASS
  1
ACMDATUMSTANDARDANSI
  2
AcmDatumStdANSI
  3
"AcmSymBB|Product Description: AutoCAD Mechanical 2000|Company: Autodesk"
 90
        0
280
     0
281
     0
  0
CLASS
  1
ACMBOMSTANDARDANSI
  2
AcmBOMStdANSI
  3
"AcmSymBB|Product Description: AutoCAD Mechanical 2000|Company: Autodesk"
 90
        0
280
     0
281
     0
  0
CLASS
  1
ACMSTANDARDBSI
  2
AcmStandardBSI
  3
"AcmSymBB|Product Description: AutoCAD Mechanical 2000|Company: Autodesk"
 90
        0
280
     0
281
     0
  0
CLASS
  1
ACMSURFSTANDARDBSI
  2
AcmSurfTextStdBSI
  3
"AcmSymBB|Product Description: AutoCAD Mechanical 2000|Company: Autodesk"
 90
        0
280
     0
281
     0
  0
CLASS
  1
ACMFCFSTANDARDBSI
  2
AcmFCFStdBSI
  3
"AcmSymBB|Product Description: AutoCAD Mechanical 2000|Company: Autodesk"
 90
        0
280
     0
281
     0
  0
CLASS
  1
ACMWELDSTANDARDBSI
  2
AcmWeldingStdBSI
  3
"AcmSymBB|Product Description: AutoCAD Mechanical 2000|Company: Autodesk"
 90
        0
280
     0
281
     0
  0
CLASS
  1
ACMIDSTANDARDBSI
  2
AcmIdStdBSI
  3
"AcmSymBB|Product Description: AutoCAD Mechanical 2000|Company: Autodesk"
 90
        0
280
     0
281
     0
  0
CLASS
  1
ACMDATUMSTANDARDBSI
  2
AcmDatumStdBSI
  3
"AcmSymBB|Product Description: AutoCAD Mechanical 2000|Company: Autodesk"
 90
        0
280
     0
281
     0
  0
CLASS
  1
ACMBOMSTANDARDBSI
  2
AcmBOMStdBSI
  3
"AcmSymBB|Product Description: AutoCAD Mechanical 2000|Company: Autodesk"
 90
        0
280
     0
281
     0
  0
CLASS
  1
LONG_TRANSACTION
  2
AcDbLongTransaction
  3
AutoCAD 2000
 90
        0
280
     0
281
     0
  0
CLASS
  1
LWPOLYLINE
  2
AcDbPolyline
  3
AutoCAD 2000
 90
        0
280
     0
281
     1
  0
CLASS
  1
HATCH
  2
AcDbHatch
  3
AutoCAD 2000
 90
        0
280
     0
281
     1
  0
CLASS
  1
XRECORD
  2
AcDbXrecord
  3
AutoCAD 2000
 90
        0
280
     0
281
     0
  0
ENDSEC
  0
SECTION
  2
TABLES
  0
TABLE
  2
VPORT
  5
8
330
0
100
AcDbSymbolTable
 70
     3
  0
VPORT
  5
9073
330
8
100
AcDbSymbolTableRecord
100
AcDbViewportTableRecord
  2
*ACTIVE
 70
     0
 10
0.0
 20
0.0
 11
1.0
 21
1.0
 12
-43.68312221999338
 22
-27.2139292439202
 13
0.0
 23
0.0
 14
2.5
 24
2.5
 15
10.0
 25
10.0
 16
0.0
 26
0.0
 36
1.0
 17
0.0
 27
0.0
 37
0.0
 40
331.3916415027436
 41
1.56570841889117
 42
50.0
 43
0.0
 44
0.0
 50
0.0
 51
0.0
 71
     0
 72
   100
 73
     1
 74
     3
 75
     0
 76
     0
 77
     0
 78
     0
  0
ENDTAB
  0
TABLE
  2
LTYPE
  5
5
330
0
100
AcDbSymbolTable
 70
    10
  0
LTYPE
  5
14
330
5
100
AcDbSymbolTableRecord
100
AcDbLinetypeTableRecord
  2
BYBLOCK
 70
     0
  3

 72
    65
 73
     0
 40
0.0
  0
LTYPE
  5
15
330
5
100
AcDbSymbolTableRecord
100
AcDbLinetypeTableRecord
  2
BYLAYER
 70
     0
  3

 72
    65
 73
     0
 40
0.0
  0
LTYPE
  5
16
330
5
100
AcDbSymbolTableRecord
100
AcDbLinetypeTableRecord
  2
CONTINUOUS
 70
     0
  3
Solid line
 72
    65
 73
     0
 40
0.0
  0
LTYPE
  5
4B
330
5
100
AcDbSymbolTableRecord
100
AcDbLinetypeTableRecord
  2
AM_ISO02W050
 70
     0
  3
__ __ __ __ __ __ __ __ __ __ __ __ __ __ __
 72
    65
 73
     2
 40
7.5
 49
6.0
 74
     0
 49
-1.5
 74
     0
  0
LTYPE
  5
4C
330
5
100
AcDbSymbolTableRecord
100
AcDbLinetypeTableRecord
  2
AM_ISO08W050
 70
     0
  3
____ . ____ . ____ . ____ . ____ . ____ . ____
 72
    65
 73
     4
 40
18.0
 49
12.0
 74
     0
 49
-1.5
 74
     0
 49
3.0
 74
     0
 49
-1.5
 74
     0
  0
LTYPE
  5
4D
330
5
100
AcDbSymbolTableRecord
100
AcDbLinetypeTableRecord
  2
AM_ISO09W050
 70
     0
  3
_____ . . _____ . . _____ . . ____ .. ____
 72
    65
 73
     6
 40
22.5
 49
12.0
 74
     0
 49
-1.5
 74
     0
 49
3.0
 74
     0
 49
-1.5
 74
     0
 49
3.0
 74
     0
 49
-1.5
 74
     0
  0
LTYPE
  5
4E
330
5
100
AcDbSymbolTableRecord
100
AcDbLinetypeTableRecord
  2
AMCONSTR
 70
     0
  3
_______________________
 72
    65
 73
     2
 40
9999.0
 49
9999.0
 74
     0
 49
0.0
 74
     0
  0
LTYPE
  5
4F
330
5
100
AcDbSymbolTableRecord
100
AcDbLinetypeTableRecord
  2
AM_ISO02W050X2
 70
     0
  3
 _ _ _ _ _ _ _ _ _ _ _ _
 72
    65
 73
     2
 40
3.75
 49
3.0
 74
     0
 49
-0.75
 74
     0
  0
LTYPE
  5
50
330
5
100
AcDbSymbolTableRecord
100
AcDbLinetypeTableRecord
  2
AM_ISO08W050X2
 70
     0
  3
__ . __ . __ . __ . __ . __
 72
    65
 73
     4
 40
9.0
 49
6.0
 74
     0
 49
-0.75
 74
     0
 49
1.5
 74
     0
 49
-0.75
 74
     0
  0
LTYPE
  5
53
330
5
100
AcDbSymbolTableRecord
100
AcDbLinetypeTableRecord
  2
AMZIGZAG
 70
     0
  3
/\/-/\/-/\/-/\/-/\/-/\/
 72
    65
 73
     2
 40
11.00009999999999
 49
0.0001
 74
     4
 75
   135
340
52
 46
0.04
 50
0.0
 44
0.0
 45
0.0
 49
-11.0
 74
     0
  0
LTYPE
  5
166
330
5
100
AcDbSymbolTableRecord
100
AcDbLinetypeTableRecord
  2
ACJISTGL
 70
     0
  3
_ _ _ _ _
 72
    65
 73
     2
 40
3.0
 49
2.0
 74
     0
 49
-1.0
 74
     0
  0
LTYPE
  5
26A
330
5
100
AcDbSymbolTableRecord
100
AcDbLinetypeTableRecord
  2
ACJISTGB
 70
     0
  3
__ . . __ . .
 72
    65
 73
     6
 40
9.0
 49
4.0
 74
     0
 49
-1.0
 74
     0
 49
1.0
 74
     0
 49
-1.0
 74
     0
 49
1.0
 74
     0
 49
-1.0
 74
     0
  0
ENDTAB
  0
TABLE
  2
LAYER
  5
2
330
0
100
AcDbSymbolTable
 70
     8
  0
LAYER
  5
10
330
2
100
AcDbSymbolTableRecord
100
AcDbLayerTableRecord
  2
0
 70
     0
 62
     7
  6
CONTINUOUS
  0
LAYER
  5
3F9
330
2
100
AcDbSymbolTableRecord
100
AcDbLayerTableRecord
  2
AM_0
 70
     0
 62
     7
  6
CONTINUOUS
  0
LAYER
  5
BD5
330
2
100
AcDbSymbolTableRecord
100
AcDbLayerTableRecord
  2
AM_7
 70
     0
 62
     4
  6
AM_ISO08W050
  0
LAYER
  5
BD6
330
2
100
AcDbSymbolTableRecord
100
AcDbLayerTableRecord
  2
AM_5
 70
     0
 62
     3
  6
CONTINUOUS
  0
LAYER
  5
BD7
330
2
100
AcDbSymbolTableRecord
100
AcDbLayerTableRecord
  2
DEFPOINTS
 70
     0
 62
     7
  6
CONTINUOUS
  0
LAYER
  5
E59
330
2
100
AcDbSymbolTableRecord
100
AcDbLayerTableRecord
  2
AM_6
 70
     0
 62
     2
  6
CONTINUOUS
  0
LAYER
  5
1E31
330
2
100
AcDbSymbolTableRecord
100
AcDbLayerTableRecord
  2
AM_11
 70
     0
 62
     3
  6
AM_ISO09W050
  0
LAYER
  5
1E41
330
2
100
AcDbSymbolTableRecord
100
AcDbLayerTableRecord
  2
AM_3
 70
     0
 62
     6
  6
ACJISTGL
  0
ENDTAB
  0
TABLE
  2
STYLE
  5
3
330
0
100
AcDbSymbolTable
 70
     5
  0
STYLE
  5
11
330
3
100
AcDbSymbolTableRecord
100
AcDbTextStyleTableRecord
  2
STANDARD
 70
     0
 40
0.0
 41
1.0
 50
0.0
 71
     0
 42
2.5
  3
simplex.shx
  4
EXTFONT.SHX
  0
STYLE
  5
52
330
3
100
AcDbSymbolTableRecord
100
AcDbTextStyleTableRecord
  2

 70
     1
 40
0.0
 41
1.0
 50
0.0
 71
     0
 42
2.5
  3
ltypeshp.shx
  4

  0
STYLE
  5
6B
330
3
100
AcDbSymbolTableRecord
100
AcDbTextStyleTableRecord
  2
ASAMI
 70
     0
 40
0.0
 41
1.0
 50
0.0
 71
     0
 42
2.5
  3
simplex.shx
  4
EXTFONT.SHX
  0
STYLE
  5
262
330
3
100
AcDbSymbolTableRecord
100
AcDbTextStyleTableRecord
  2
ACJISTS
 70
     0
 40
1.0
 41
1.0
 50
0.0
 71
     0
 42
2.5
  3
simplex.shx
  4
bigfont.shx
  0
STYLE
  5
269
330
3
100
AcDbSymbolTableRecord
100
AcDbTextStyleTableRecord
  2
ACJISGDT
 70
     0
 40
0.0
 41
1.0
 50
0.0
 71
     0
 42
2.5
  3
amgdtans.shx
  4

  0
ENDTAB
  0
TABLE
  2
VIEW
  5
6
330
0
100
AcDbSymbolTable
 70
     0
  0
ENDTAB
  0
TABLE
  2
UCS
  5
7
330
0
100
AcDbSymbolTable
 70
     0
  0
ENDTAB
  0
TABLE
  2
APPID
  5
9
330
0
100
AcDbSymbolTable
 70
    13
  0
APPID
  5
12
330
9
100
AcDbSymbolTableRecord
100
AcDbRegAppTableRecord
  2
ACAD
 70
     0
  0
APPID
  5
30
330
9
100
AcDbSymbolTableRecord
100
AcDbRegAppTableRecord
  2
MCAD_NO_VIS
 70
     0
  0
APPID
  5
31
330
9
100
AcDbSymbolTableRecord
100
AcDbRegAppTableRecord
  2
ACAD_TEMP_GRAPHIC
 70
     0
  0
APPID
  5
2C2
330
9
100
AcDbSymbolTableRecord
100
AcDbRegAppTableRecord
  2
GENIUS_GENDTOL_13
 70
     0
  0
APPID
  5
339
330
9
100
AcDbSymbolTableRecord
100
AcDbRegAppTableRecord
  2
GENIUS_GENODEF_13
 70
     0
  0
APPID
  5
33A
330
9
100
AcDbSymbolTableRecord
100
AcDbRegAppTableRecord
  2
GENIUS_GENOBJ-N-RSBK_13
 70
     0
  0
APPID
  5
33B
330
9
100
AcDbSymbolTableRecord
100
AcDbRegAppTableRecord
  2
GENIUS_GENOBJ-N-LIB_13
 70
     0
  0
APPID
  5
33C
330
9
100
AcDbSymbolTableRecord
100
AcDbRegAppTableRecord
  2
GENIUS_GENSCALE_13
 70
     0
  0
APPID
  5
378
330
9
100
AcDbSymbolTableRecord
100
AcDbRegAppTableRecord
  2
GENIUS_GENDIMSH_14
 70
     0
  0
APPID
  5
BD8
330
9
100
AcDbSymbolTableRecord
100
AcDbRegAppTableRecord
  2
GENIUS_GENOBJ-N-CEN_13
 70
     0
  0
APPID
  5
BD9
330
9
100
AcDbSymbolTableRecord
100
AcDbRegAppTableRecord
  2
GENIUS_GENFIL_13
 70
     0
  0
APPID
  5
BDA
330
9
100
AcDbSymbolTableRecord
100
AcDbRegAppTableRecord
  2
GENIUS_GENOBJ-N-CHA_13
 70
     0
  0
APPID
  5
2BC1
330
9
100
AcDbSymbolTableRecord
100
AcDbRegAppTableRecord
  2
GENIUS_GENOBJ-N-FIL_13
 70
     0
  0
ENDTAB
  0
TABLE
  2
DIMSTYLE
  5
A
330
0
100
AcDbSymbolTable
 70
     9
  0
DIMSTYLE
105
58
102
{ACAD_REACTORS
330
8B47
330
8B49
330
8B48
330
8BD1
330
8C56
330
8C54
330
8C55
330
8DBA
330
8DEB
102
}
330
A
100
AcDbSymbolTableRecord
100
AcDbDimStyleTableRecord
  2
AM_JIS
 70
     0
  3

  4
"
  5
OPEN30
  6

  7

 40
1.0
 41
2.5
 42
1.0
 43
12.0
 44
1.0
 45
0.0
 46
0.0
 47
0.1
 48
0.1
140
3.2
141
0.0
142
0.0
143
0.0393701
144
1.0
145
0.0
146
0.71
147
1.5
 71
     0
 72
     0
 73
     0
 74
     0
 75
     0
 76
     0
 77
     3
 78
     8
170
     0
171
     2
172
     1
173
     0
174
     0
175
     0
176
   256
177
   256
178
     2
270
     2
271
     3
272
     3
273
     2
274
     2
340
6B
275
     0
280
     0
281
     0
282
     0
283
     0
284
     0
285
     0
286
     0
287
     3
288
     0
  0
DIMSTYLE
105
5F
330
A
100
AcDbSymbolTableRecord
100
AcDbDimStyleTableRecord
  2
AM_JIS$3
 70
     0
  3

  4
"
  5
OPEN30
  6

  7

 40
1.0
 41
2.5
 42
1.0
 43
10.0
 44
1.0
 45
0.0
 46
0.0
 47
0.1
 48
0.1
140
3.2
141
0.0
142
0.0
143
0.0393701
144
1.0
145
0.0
146
0.71
147
1.5
 71
     0
 72
     0
 73
     0
 74
     1
 75
     0
 76
     0
 77
     3
 78
     8
170
     0
171
     2
172
     0
173
     0
174
     0
175
     0
176
   256
177
   256
178
     2
270
     2
271
     2
272
     3
273
     2
274
     2
340
6B
275
     0
280
     0
281
     0
282
     0
283
     0
284
     0
285
     0
286
     0
287
     0
288
     1
  0
DIMSTYLE
105
60
330
A
100
AcDbSymbolTableRecord
100
AcDbDimStyleTableRecord
  2
AM_JIS$4
 70
     0
  3

  4
"
  5
OPEN30
  6

  7

 40
1.0
 41
2.5
 42
1.0
 43
10.0
 44
1.0
 45
0.0
 46
0.0
 47
0.1
 48
0.1
140
3.2
141
0.0
142
0.0
143
0.0393701
144
1.0
145
0.0
146
0.71
147
1.5
 71
     0
 72
     0
 73
     0
 74
     1
 75
     0
 76
     0
 77
     3
 78
     8
170
     0
171
     2
172
     0
173
     0
174
     0
175
     0
176
   256
177
   256
178
     2
270
     2
271
     2
272
     3
273
     2
274
     2
340
6B
275
     0
280
     0
281
     0
282
     0
283
     0
284
     0
285
     0
286
     0
287
     0
288
     1
  0
DIMSTYLE
105
61
330
A
100
AcDbSymbolTableRecord
100
AcDbDimStyleTableRecord
  2
AM_JIS$6
 70
     0
  3

  4
"
  5
OPEN30
  6

  7

 40
1.0
 41
2.5
 42
1.0
 43
10.0
 44
1.0
 45
0.0
 46
0.0
 47
0.1
 48
0.1
140
3.2
141
0.0
142
0.0
143
0.0393701
144
1.0
145
0.0
146
0.71
147
1.5
 71
     0
 72
     0
 73
     0
 74
     0
 75
     0
 76
     0
 77
     0
 78
     8
170
     0
171
     2
172
     1
173
     0
174
     0
175
     0
176
   256
177
   256
178
     2
270
     2
271
     2
272
     2
273
     2
274
     2
340
6B
275
     0
280
     0
281
     0
282
     0
283
     0
284
     0
285
     0
286
     0
287
     3
288
     0
  0
DIMSTYLE
105
62
330
A
100
AcDbSymbolTableRecord
100
AcDbDimStyleTableRecord
  2
AM_JIS$7
 70
     0
  3

  4
"
  5
OPEN30
  6

  7

 40
1.0
 41
2.5
 42
1.0
 43
10.0
 44
1.0
 45
0.0
 46
0.0
 47
0.1
 48
0.1
140
3.2
141
0.0
142
0.0
143
0.0393701
144
1.0
145
0.0
146
0.71
147
1.5
 71
     0
 72
     0
 73
     0
 74
     0
 75
     0
 76
     0
 77
     3
 78
     8
170
     0
171
     2
172
     1
173
     0
174
     0
175
     0
176
   256
177
   256
178
     2
270
     2
271
     2
272
     3
273
     2
274
     2
340
6B
275
     0
280
     0
281
     0
282
     0
283
     0
284
     0
285
     0
286
     0
287
     3
288
     0
  0
DIMSTYLE
105
63
330
A
100
AcDbSymbolTableRecord
100
AcDbDimStyleTableRecord
  2
AM_JIS$SF
 70
     0
  3

  4
"
  5
OPEN30
  6

  7

 40
1.0
 41
2.5
 42
1.0
 43
10.0
 44
1.0
 45
0.0
 46
0.0
 47
0.1
 48
0.1
140
3.2
141
0.0
142
0.0
143
0.0393701
144
1.0
145
0.0
146
0.71
147
1.5
 71
     0
 72
     0
 73
     0
 74
     0
 75
     1
 76
     1
 77
     3
 78
     8
170
     0
171
     2
172
     1
173
     0
174
     0
175
     0
176
   256
177
   256
178
     2
270
     2
271
     2
272
     2
273
     2
274
     2
340
6B
275
     0
280
     0
281
     0
282
     0
283
     0
284
     0
285
     0
286
     0
287
     3
288
     0
  0
DIMSTYLE
105
68
330
A
100
AcDbSymbolTableRecord
100
AcDbDimStyleTableRecord
  2
AM_JIS$SH
 70
     0
  3

  4
"
  5

  6
GENAXEH
  7
OPEN30
 40
1.0
 41
2.5
 42
1.0
 43
10.0
 44
1.0
 45
0.0
 46
0.0
 47
0.1
 48
0.1
140
3.2
141
0.0
142
0.0
143
0.0393701
144
2.0
145
0.0
146
0.71
147
1.5
 71
     0
 72
     0
 73
     0
 74
     0
 75
     1
 76
     1
 77
     3
 78
     8
170
     0
171
     2
172
     1
173
     1
174
     0
175
     0
176
   256
177
   256
178
     2
270
     2
271
     2
272
     2
273
     2
274
     2
340
6B
275
     0
280
     0
281
     0
282
     0
283
     0
284
     0
285
     0
286
     0
287
     3
288
     0
  0
DIMSTYLE
105
B34
102
{ACAD_REACTORS
330
8EFA
102
}
330
A
100
AcDbSymbolTableRecord
100
AcDbDimStyleTableRecord
  2
AM_JIS$2
 70
     0
  3

  4
"
  5
OPEN30
  6

  7

 40
1.0
 41
2.5
 42
1.0
 43
12.0
 44
1.0
 45
0.0
 46
0.0
 47
0.1
 48
0.1
140
3.2
141
0.0
142
0.0
143
0.0393701
144
1.0
145
0.0
146
0.71
147
1.5
 71
     0
 72
     0
 73
     0
 74
     0
 75
     0
 76
     0
 77
     3
 78
     8
170
     0
171
     2
172
     1
173
     0
174
     0
175
     0
176
   256
177
   256
178
     2
270
     2
271
     3
272
     3
273
     2
274
     2
340
6B
275
     0
280
     0
281
     0
282
     0
283
     0
284
     0
285
     0
286
     0
287
     3
288
     0
  0
DIMSTYLE
105
1E42
330
A
100
AcDbSymbolTableRecord
100
AcDbDimStyleTableRecord
  2
AM_JIS$0
 70
     0
  3

  4
"
  5
OPEN30
  6

  7

 40
2.0
 41
2.5
 42
1.0
 43
10.0
 44
1.0
 45
0.0
 46
0.0
 47
0.1
 48
0.1
140
2.5
141
0.0
142
0.0
143
0.0393701
144
1.0
145
0.0
146
0.71
147
1.0
 71
     0
 72
     0
 73
     0
 74
     0
 75
     0
 76
     0
 77
     3
 78
     8
170
     0
171
     2
172
     1
173
     0
174
     0
175
     0
176
   256
177
   256
178
     4
270
     2
271
     3
272
     3
273
     2
274
     2
340
6B
275
     0
280
     0
281
     0
282
     0
283
     0
284
     0
285
     0
286
     0
287
     3
288
     0
  0
ENDTAB
  0
TABLE
  2
BLOCK_RECORD
  5
1
330
0
100
AcDbSymbolTable
 70
    15
  0
BLOCK_RECORD
  5
1F
102
{ACAD_XDICTIONARY
360
74
102
}
330
1
100
AcDbSymbolTableRecord
100
AcDbBlockTableRecord
  2
*MODEL_SPACE
  0
BLOCK_RECORD
  5
101
102
{ACAD_XDICTIONARY
360
909C
102
}
330
1
100
AcDbSymbolTableRecord
100
AcDbBlockTableRecord
  2
*PAPER_SPACE
  0
BLOCK_RECORD
  5
59
330
1
100
AcDbSymbolTableRecord
100
AcDbBlockTableRecord
  2
_OPEN30
  0
BLOCK_RECORD
  5
64
330
1
100
AcDbSymbolTableRecord
100
AcDbBlockTableRecord
  2
GENAXEH
  0
BLOCK_RECORD
  5
8B4A
330
1
100
AcDbSymbolTableRecord
100
AcDbBlockTableRecord
  2
*D5
  0
BLOCK_RECORD
  5
8B56
330
1
100
AcDbSymbolTableRecord
100
AcDbBlockTableRecord
  2
*D6
  0
BLOCK_RECORD
  5
8B62
330
1
100
AcDbSymbolTableRecord
100
AcDbBlockTableRecord
  2
*D7
  0
BLOCK_RECORD
  5
8BD2
330
1
100
AcDbSymbolTableRecord
100
AcDbBlockTableRecord
  2
*D8
  0
BLOCK_RECORD
  5
8C57
330
1
100
AcDbSymbolTableRecord
100
AcDbBlockTableRecord
  2
*D9
  0
BLOCK_RECORD
  5
8C63
330
1
100
AcDbSymbolTableRecord
100
AcDbBlockTableRecord
  2
*D10
  0
BLOCK_RECORD
  5
8C6F
330
1
100
AcDbSymbolTableRecord
100
AcDbBlockTableRecord
  2
*D11
  0
BLOCK_RECORD
  5
8DBB
330
1
100
AcDbSymbolTableRecord
100
AcDbBlockTableRecord
  2
*D12
  0
BLOCK_RECORD
  5
8DEC
330
1
100
AcDbSymbolTableRecord
100
AcDbBlockTableRecord
  2
*D13
  0
BLOCK_RECORD
  5
8EFB
330
1
100
AcDbSymbolTableRecord
100
AcDbBlockTableRecord
  2
*D14
  0
ENDTAB
  0
ENDSEC
  0
SECTION
  2
BLOCKS
  0
BLOCK
  5
20
330
1F
100
AcDbEntity
  8
0
100
AcDbBlockBegin
  2
*MODEL_SPACE
 70
     0
 10
0.0
 20
0.0
 30
0.0
  3
*MODEL_SPACE
  1

  0
ENDBLK
  5
21
330
1F
100
AcDbEntity
  8
0
100
AcDbBlockEnd
  0
BLOCK
  5
103
330
101
100
AcDbEntity
 67
     1
  8
0
100
AcDbBlockBegin
  2
*PAPER_SPACE
 70
     0
 10
0.0
 20
0.0
 30
0.0
  3
*PAPER_SPACE
  1

  0
ENDBLK
  5
104
330
101
100
AcDbEntity
 67
     1
  8
0
100
AcDbBlockEnd
  0
BLOCK
  5
5D
330
59
100
AcDbEntity
  8
0
100
AcDbBlockBegin
  2
_OPEN30
 70
     0
 10
0.0
 20
0.0
 30
0.0
  3
_OPEN30
  1

  0
LINE
  5
5A
330
59
100
AcDbEntity
  8
0
 62
     0
100
AcDbLine
 10
-1.0
 20
0.26794919
 30
0.0
 11
0.0
 21
0.0
 31
0.0
  0
LINE
  5
5B
330
59
100
AcDbEntity
  8
0
 62
     0
100
AcDbLine
 10
0.0
 20
0.0
 30
0.0
 11
-1.0
 21
-0.26794919
 31
0.0
  0
LINE
  5
5C
330
59
100
AcDbEntity
  8
0
 62
     0
100
AcDbLine
 10
0.0
 20
0.0
 30
0.0
 11
-1.0
 21
0.0
 31
0.0
  0
ENDBLK
  5
5E
330
59
100
AcDbEntity
  8
0
100
AcDbBlockEnd
  0
BLOCK
  5
66
330
64
100
AcDbEntity
  8
0
100
AcDbBlockBegin
  2
GENAXEH
 70
     0
 10
0.0
 20
0.0
 30
0.0
  3
GENAXEH
  1

  0
LINE
  5
65
330
64
100
AcDbEntity
  8
0
100
AcDbLine
 10
-1.0
 20
0.0
 30
0.0
 11
1.0
 21
0.0
 31
0.0
  0
ENDBLK
  5
67
330
64
100
AcDbEntity
  8
0
100
AcDbBlockEnd
  0
BLOCK
  5
8B54
330
8B4A
100
AcDbEntity
  8
0
100
AcDbBlockBegin
  2
*D5
 70
     1
 10
0.0
 20
0.0
 30
0.0
  3
*D5
  1

  0
LINE
  5
8EB9
330
8B4A
100
AcDbEntity
  8
AM_5
100
AcDbLine
 10
-63.99999999999986
 20
64.99999999999989
 30
0.0
 11
-102.6267881690867
 21
64.9999999999999
 31
0.0
  0
LINE
  5
8EBA
330
8B4A
100
AcDbEntity
  8
AM_5
100
AcDbLine
 10
-63.99999999999986
 20
-64.99999999999989
 30
0.0
 11
-102.6267881690867
 21
-64.99999999999987
 31
0.0
  0
LINE
  5
8EBB
330
8B4A
100
AcDbEntity
  8
AM_5
100
AcDbLine
 10
-101.6267881690867
 20
62.49999999999989
 30
0.0
 11
-101.6267881690867
 21
-62.49999999999988
 31
0.0
  0
INSERT
  5
8EBC
330
8B4A
100
AcDbEntity
  8
AM_5
100
AcDbBlockReference
  2
_OPEN30
 10
-101.6267881690867
 20
64.9999999999999
 30
0.0
 41
2.5
 42
2.5
 43
2.5
 50
90.0
  0
INSERT
  5
8EBD
330
8B4A
100
AcDbEntity
  8
AM_5
100
AcDbBlockReference
  2
_OPEN30
 10
-101.6267881690867
 20
-64.99999999999987
 30
0.0
 41
2.5
 42
2.5
 43
2.5
 50
270.0
  0
MTEXT
  5
8EBE
330
8B4A
100
AcDbEntity
  8
AM_5
 62
     2
100
AcDbMText
 10
-104.7267881690867
 20
-0.0000000000000076
 30
0.0
 40
3.2
 41
0.0
 71
     5
 72
     1
  1
%%c130
  7
ASAMI
 11
0.0000000000000001
 21
1.0
 31
0.0
1001
ACAD
1000
MTEXTBEGIN
1070
    73
1070
     1
1070
    44
1040
1.0
1070
    74
1070
     0
1000
MTEXTEND
  0
POINT
  5
8EBF
330
8B4A
100
AcDbEntity
  8
DEFPOINTS
 62
     0
100
AcDbPoint
 10
-62.99999999999986
 20
64.99999999999989
 30
0.0
  0
POINT
  5
8EC0
330
8B4A
100
AcDbEntity
  8
DEFPOINTS
 62
     0
100
AcDbPoint
 10
-62.99999999999986
 20
-64.99999999999989
 30
0.0
  0
POINT
  5
8EC1
330
8B4A
100
AcDbEntity
  8
DEFPOINTS
 62
     0
100
AcDbPoint
 10
-101.6267881690867
 20
-64.99999999999987
 30
0.0
  0
ENDBLK
  5
8B55
330
8B4A
100
AcDbEntity
  8
0
100
AcDbBlockEnd
  0
BLOCK
  5
8B60
330
8B56
100
AcDbEntity
  8
0
100
AcDbBlockBegin
  2
*D6
 70
     1
 10
0.0
 20
0.0
 30
0.0
  3
*D6
  1

  0
LINE
  5
8EE1
330
8B56
100
AcDbEntity
  8
AM_5
100
AcDbLine
 10
-60.99999999999964
 20
23.81250000000003
 30
0.0
 11
-92.62678816908678
 21
23.81250000000004
 31
0.0
  0
LINE
  5
8EE2
330
8B56
100
AcDbEntity
  8
AM_5
100
AcDbLine
 10
-60.99999999999963
 20
-23.81250000000003
 30
0.0
 11
-92.62678816908678
 21
-23.81250000000002
 31
0.0
  0
LINE
  5
8EE3
330
8B56
100
AcDbEntity
  8
AM_5
100
AcDbLine
 10
-91.62678816908679
 20
21.31250000000004
 30
0.0
 11
-91.62678816908679
 21
-21.31250000000002
 31
0.0
  0
INSERT
  5
8EE4
330
8B56
100
AcDbEntity
  8
AM_5
100
AcDbBlockReference
  2
_OPEN30
 10
-91.62678816908679
 20
23.81250000000004
 30
0.0
 41
2.5
 42
2.5
 43
2.5
 50
90.0
  0
INSERT
  5
8EE5
330
8B56
100
AcDbEntity
  8
AM_5
100
AcDbBlockReference
  2
_OPEN30
 10
-91.62678816908679
 20
-23.81250000000002
 30
0.0
 41
2.5
 42
2.5
 43
2.5
 50
270.0
  0
MTEXT
  5
8EE6
330
8B56
100
AcDbEntity
  8
AM_5
 62
     2
100
AcDbMText
 10
-94.72678816908677
 20
-0.0000000000000047
 30
0.0
 40
3.2
 41
0.0
 71
     5
 72
     1
  1
%%c47.625
  7
ASAMI
 11
0.0000000000000001
 21
1.0
 31
0.0
1001
ACAD
1000
MTEXTBEGIN
1070
    73
1070
     1
1070
    44
1040
1.0
1070
    74
1070
     0
1000
MTEXTEND
  0
POINT
  5
8EE7
330
8B56
100
AcDbEntity
  8
DEFPOINTS
 62
     0
100
AcDbPoint
 10
-59.99999999999964
 20
23.81250000000003
 30
0.0
  0
POINT
  5
8EE8
330
8B56
100
AcDbEntity
  8
DEFPOINTS
 62
     0
100
AcDbPoint
 10
-59.99999999999963
 20
-23.81250000000003
 30
0.0
  0
POINT
  5
8EE9
330
8B56
100
AcDbEntity
  8
DEFPOINTS
 62
     0
100
AcDbPoint
 10
-91.62678816908679
 20
-23.81250000000002
 30
0.0
  0
ENDBLK
  5
8B61
330
8B56
100
AcDbEntity
  8
0
100
AcDbBlockEnd
  0
BLOCK
  5
8B6C
330
8B62
100
AcDbEntity
  8
0
100
AcDbBlockBegin
  2
*D7
 70
     1
 10
0.0
 20
0.0
 30
0.0
  3
*D7
  1

  0
LINE
  5
8EC2
330
8B62
100
AcDbEntity
  8
AM_5
100
AcDbLine
 10
-62.99999999999974
 20
12.69999999999996
 30
0.0
 11
-82.62678816908678
 21
12.69999999999996
 31
0.0
  0
LINE
  5
8EC3
330
8B62
100
AcDbEntity
  8
AM_5
100
AcDbLine
 10
-62.99999999999974
 20
-12.69999999999996
 30
0.0
 11
-82.62678816908678
 21
-12.69999999999995
 31
0.0
  0
LINE
  5
8EC4
330
8B62
100
AcDbEntity
  8
AM_5
100
AcDbLine
 10
-81.62678816908679
 20
10.19999999999996
 30
0.0
 11
-81.62678816908679
 21
-10.19999999999995
 31
0.0
  0
INSERT
  5
8EC5
330
8B62
100
AcDbEntity
  8
AM_5
100
AcDbBlockReference
  2
_OPEN30
 10
-81.62678816908679
 20
12.69999999999996
 30
0.0
 41
2.5
 42
2.5
 43
2.5
 50
90.0
  0
INSERT
  5
8EC6
330
8B62
100
AcDbEntity
  8
AM_5
100
AcDbBlockReference
  2
_OPEN30
 10
-81.62678816908679
 20
-12.69999999999995
 30
0.0
 41
2.5
 42
2.5
 43
2.5
 50
270.0
  0
MTEXT
  5
8EC7
330
8B62
100
AcDbEntity
  8
AM_5
 62
     2
100
AcDbMText
 10
-84.72678816908677
 20
0.0000000000000004
 30
0.0
 40
3.2
 41
0.0
 71
     5
 72
     1
  1
25.4
  7
ASAMI
 11
0.0000000000000001
 21
1.0
 31
0.0
1001
ACAD
1000
MTEXTBEGIN
1070
    73
1070
     1
1070
    44
1040
1.0
1070
    74
1070
     0
1000
MTEXTEND
  0
POINT
  5
8EC8
330
8B62
100
AcDbEntity
  8
DEFPOINTS
 62
     0
100
AcDbPoint
 10
-61.99999999999974
 20
12.69999999999996
 30
0.0
  0
POINT
  5
8EC9
330
8B62
100
AcDbEntity
  8
DEFPOINTS
 62
     0
100
AcDbPoint
 10
-61.99999999999974
 20
-12.69999999999996
 30
0.0
  0
POINT
  5
8ECA
330
8B62
100
AcDbEntity
  8
DEFPOINTS
 62
     0
100
AcDbPoint
 10
-81.62678816908679
 20
-12.69999999999995
 30
0.0
  0
ENDBLK
  5
8B6D
330
8B62
100
AcDbEntity
  8
0
100
AcDbBlockEnd
  0
BLOCK
  5
8BDC
330
8BD2
100
AcDbEntity
  8
0
100
AcDbBlockBegin
  2
*D8
 70
     1
 10
0.0
 20
0.0
 30
0.0
  3
*D8
  1

  0
LINE
  5
8EA7
330
8BD2
100
AcDbEntity
  8
AM_5
100
AcDbLine
 10
-60.6999999999999
 20
89.99999999999991
 30
0.0
 11
-112.6267881690867
 21
89.99999999999992
 31
0.0
  0
LINE
  5
8EA8
330
8BD2
100
AcDbEntity
  8
AM_5
100
AcDbLine
 10
-60.6999999999999
 20
-89.99999999999991
 30
0.0
 11
-112.6267881690867
 21
-89.99999999999991
 31
0.0
  0
LINE
  5
8EA9
330
8BD2
100
AcDbEntity
  8
AM_5
100
AcDbLine
 10
-111.6267881690867
 20
87.49999999999992
 30
0.0
 11
-111.6267881690867
 21
-87.49999999999991
 31
0.0
  0
INSERT
  5
8EAA
330
8BD2
100
AcDbEntity
  8
AM_5
100
AcDbBlockReference
  2
_OPEN30
 10
-111.6267881690867
 20
89.99999999999992
 30
0.0
 41
2.5
 42
2.5
 43
2.5
 50
90.0
  0
INSERT
  5
8EAB
330
8BD2
100
AcDbEntity
  8
AM_5
100
AcDbBlockReference
  2
_OPEN30
 10
-111.6267881690867
 20
-89.99999999999991
 30
0.0
 41
2.5
 42
2.5
 43
2.5
 50
270.0
  0
MTEXT
  5
8EAC
330
8BD2
100
AcDbEntity
  8
AM_5
 62
     2
100
AcDbMText
 10
-114.7267881690867
 20
-0.000000000000007
 30
0.0
 40
3.2
 41
0.0
 71
     5
 72
     1
  1
%%c180
  7
ASAMI
 11
0.0000000000000001
 21
1.0
 31
0.0
1001
ACAD
1000
MTEXTBEGIN
1070
    73
1070
     1
1070
    44
1040
1.0
1070
    74
1070
     0
1000
MTEXTEND
  0
POINT
  5
8EAD
330
8BD2
100
AcDbEntity
  8
DEFPOINTS
 62
     0
100
AcDbPoint
 10
-59.6999999999999
 20
89.99999999999991
 30
0.0
  0
POINT
  5
8EAE
330
8BD2
100
AcDbEntity
  8
DEFPOINTS
 62
     0
100
AcDbPoint
 10
-59.6999999999999
 20
-89.99999999999991
 30
0.0
  0
POINT
  5
8EAF
330
8BD2
100
AcDbEntity
  8
DEFPOINTS
 62
     0
100
AcDbPoint
 10
-111.6267881690867
 20
-89.99999999999991
 30
0.0
  0
ENDBLK
  5
8BDD
330
8BD2
100
AcDbEntity
  8
0
100
AcDbBlockEnd
  0
BLOCK
  5
8C61
330
8C57
100
AcDbEntity
  8
0
100
AcDbBlockBegin
  2
*D9
 70
     1
 10
0.0
 20
0.0
 30
0.0
  3
*D9
  1

  0
LINE
  5
8E95
330
8C57
100
AcDbEntity
  8
AM_5
100
AcDbLine
 10
-62.99999999999986
 20
-65.99999999999988
 30
0.0
 11
-62.99999999999986
 21
-160.3837398957971
 31
0.0
  0
LINE
  5
8E96
330
8C57
100
AcDbEntity
  8
AM_5
100
AcDbLine
 10
-27.99999999999991
 20
-82.82457351945698
 30
0.0
 11
-27.99999999999991
 21
-160.3837398957971
 31
0.0
  0
LINE
  5
8E97
330
8C57
100
AcDbEntity
  8
AM_5
100
AcDbLine
 10
-60.49999999999986
 20
-159.3837398957971
 30
0.0
 11
-30.49999999999991
 21
-159.3837398957971
 31
0.0
  0
INSERT
  5
8E98
330
8C57
100
AcDbEntity
  8
AM_5
100
AcDbBlockReference
  2
_OPEN30
 10
-62.99999999999986
 20
-159.3837398957971
 30
0.0
 41
2.5
 42
2.5
 43
2.5
 50
180.0
  0
INSERT
  5
8E99
330
8C57
100
AcDbEntity
  8
AM_5
100
AcDbBlockReference
  2
_OPEN30
 10
-27.99999999999991
 20
-159.3837398957971
 30
0.0
 41
2.5
 42
2.5
 43
2.5
  0
MTEXT
  5
8E9A
330
8C57
100
AcDbEntity
  8
AM_5
 62
     2
100
AcDbMText
 10
-45.49999999999989
 20
-156.2837398957971
 30
0.0
 40
3.2
 41
0.0
 71
     5
 72
     1
  1
35
  7
ASAMI
1001
ACAD
1000
MTEXTBEGIN
1070
    73
1070
     1
1070
    44
1040
1.0
1070
    74
1070
     0
1000
MTEXTEND
  0
POINT
  5
8E9B
330
8C57
100
AcDbEntity
  8
DEFPOINTS
 62
     0
100
AcDbPoint
 10
-62.99999999999986
 20
-64.99999999999989
 30
0.0
  0
POINT
  5
8E9C
330
8C57
100
AcDbEntity
  8
DEFPOINTS
 62
     0
100
AcDbPoint
 10
-27.99999999999991
 20
-81.82457351945698
 30
0.0
  0
POINT
  5
8E9D
330
8C57
100
AcDbEntity
  8
DEFPOINTS
 62
     0
100
AcDbPoint
 10
-27.99999999999991
 20
-159.3837398957971
 30
0.0
  0
ENDBLK
  5
8C62
330
8C57
100
AcDbEntity
  8
0
100
AcDbBlockEnd
  0
BLOCK
  5
8C6D
330
8C63
100
AcDbEntity
  8
0
100
AcDbBlockBegin
  2
*D10
 70
     1
 10
0.0
 20
0.0
 30
0.0
  3
*D10
  1

  0
LINE
  5
8E83
330
8C63
100
AcDbEntity
  8
AM_5
100
AcDbLine
 10
-62.99999999999986
 20
-65.99999999999988
 30
0.0
 11
-62.99999999999986
 21
-170.3837398957971
 31
0.0
  0
LINE
  5
8E84
330
8C63
100
AcDbEntity
  8
AM_5
100
AcDbLine
 10
0.0000000000000852
 20
-125.9999999999213
 30
0.0
 11
0.0000000000000825
 21
-170.3837398957971
 31
0.0
  0
LINE
  5
8E85
330
8C63
100
AcDbEntity
  8
AM_5
100
AcDbLine
 10
-60.49999999999986
 20
-169.3837398957971
 30
0.0
 11
-2.499999999999917
 21
-169.3837398957971
 31
0.0
  0
INSERT
  5
8E86
330
8C63
100
AcDbEntity
  8
AM_5
100
AcDbBlockReference
  2
_OPEN30
 10
-62.99999999999986
 20
-169.3837398957971
 30
0.0
 41
2.5
 42
2.5
 43
2.5
 50
180.0
  0
INSERT
  5
8E87
330
8C63
100
AcDbEntity
  8
AM_5
100
AcDbBlockReference
  2
_OPEN30
 10
0.0000000000000825
 20
-169.3837398957971
 30
0.0
 41
2.5
 42
2.5
 43
2.5
  0
MTEXT
  5
8E88
330
8C63
100
AcDbEntity
  8
AM_5
 62
     2
100
AcDbMText
 10
-31.49999999999989
 20
-166.2837398957971
 30
0.0
 40
3.2
 41
0.0
 71
     5
 72
     1
  1
63
  7
ASAMI
1001
ACAD
1000
MTEXTBEGIN
1070
    73
1070
     1
1070
    44
1040
1.0
1070
    74
1070
     0
1000
MTEXTEND
  0
POINT
  5
8E89
330
8C63
100
AcDbEntity
  8
DEFPOINTS
 62
     0
100
AcDbPoint
 10
-62.99999999999986
 20
-64.99999999999989
 30
0.0
  0
POINT
  5
8E8A
330
8C63
100
AcDbEntity
  8
DEFPOINTS
 62
     0
100
AcDbPoint
 10
0.0000000000000853
 20
-124.9999999999213
 30
0.0
  0
POINT
  5
8E8B
330
8C63
100
AcDbEntity
  8
DEFPOINTS
 62
     0
100
AcDbPoint
 10
0.0000000000000825
 20
-169.3837398957971
 30
0.0
  0
ENDBLK
  5
8C6E
330
8C63
100
AcDbEntity
  8
0
100
AcDbBlockEnd
  0
BLOCK
  5
8C79
330
8C6F
100
AcDbEntity
  8
0
100
AcDbBlockBegin
  2
*D11
 70
     1
 10
0.0
 20
0.0
 30
0.0
  3
*D11
  1

  0
LINE
  5
8E9E
330
8C6F
100
AcDbEntity
  8
AM_5
100
AcDbLine
 10
-62.99999999999986
 20
-65.99999999999988
 30
0.0
 11
-62.99999999999986
 21
-150.3837398957971
 31
0.0
  0
LINE
  5
8E9F
330
8C6F
100
AcDbEntity
  8
AM_5
100
AcDbLine
 10
-48.99999999999957
 20
-12.69999999999997
 30
0.0
 11
-48.99999999999958
 21
-150.3837398957971
 31
0.0
  0
LINE
  5
8EA0
330
8C6F
100
AcDbEntity
  8
AM_5
100
AcDbLine
 10
-60.49999999999986
 20
-149.3837398957971
 30
0.0
 11
-51.49999999999958
 21
-149.3837398957971
 31
0.0
  0
INSERT
  5
8EA1
330
8C6F
100
AcDbEntity
  8
AM_5
100
AcDbBlockReference
  2
_OPEN30
 10
-62.99999999999986
 20
-149.3837398957971
 30
0.0
 41
2.5
 42
2.5
 43
2.5
 50
180.0
  0
INSERT
  5
8EA2
330
8C6F
100
AcDbEntity
  8
AM_5
100
AcDbBlockReference
  2
_OPEN30
 10
-48.99999999999958
 20
-149.3837398957971
 30
0.0
 41
2.5
 42
2.5
 43
2.5
  0
MTEXT
  5
8EA3
330
8C6F
100
AcDbEntity
  8
AM_5
 62
     2
100
AcDbMText
 10
-55.99999999999972
 20
-146.2837398957971
 30
0.0
 40
3.2
 41
0.0
 71
     5
 72
     1
  1
14
  7
ASAMI
1001
ACAD
1000
MTEXTBEGIN
1070
    73
1070
     1
1070
    44
1040
1.0
1070
    74
1070
     0
1000
MTEXTEND
  0
POINT
  5
8EA4
330
8C6F
100
AcDbEntity
  8
DEFPOINTS
 62
     0
100
AcDbPoint
 10
-62.99999999999986
 20
-64.99999999999989
 30
0.0
  0
POINT
  5
8EA5
330
8C6F
100
AcDbEntity
  8
DEFPOINTS
 62
     0
100
AcDbPoint
 10
-48.99999999999957
 20
-11.69999999999997
 30
0.0
  0
POINT
  5
8EA6
330
8C6F
100
AcDbEntity
  8
DEFPOINTS
 62
     0
100
AcDbPoint
 10
-48.99999999999958
 20
-149.3837398957971
 30
0.0
  0
ENDBLK
  5
8C7A
330
8C6F
100
AcDbEntity
  8
0
100
AcDbBlockEnd
  0
BLOCK
  5
8DC5
330
8DBB
100
AcDbEntity
  8
0
100
AcDbBlockBegin
  2
*D12
 70
     1
 10
0.0
 20
0.0
 30
0.0
  3
*D12
  1

  0
LINE
  5
8E7A
330
8DBB
100
AcDbEntity
  8
AM_5
100
AcDbLine
 10
0.9999999999998863
 20
125.0000000000001
 30
0.0
 11
18.94189982773426
 21
125.0000000000001
 31
0.0
  0
LINE
  5
8E7B
330
8DBB
100
AcDbEntity
  8
AM_5
100
AcDbLine
 10
1.000000000000085
 20
-124.9999999999998
 30
0.0
 11
18.9418998277342
 21
-124.9999999999998
 31
0.0
  0
LINE
  5
8E7C
330
8DBB
100
AcDbEntity
  8
AM_5
100
AcDbLine
 10
17.94189982773426
 20
122.5000000000001
 30
0.0
 11
17.9418998277342
 21
-122.4999999999998
 31
0.0
  0
INSERT
  5
8E7D
330
8DBB
100
AcDbEntity
  8
AM_5
100
AcDbBlockReference
  2
_OPEN30
 10
17.94189982773426
 20
125.0000000000001
 30
0.0
 41
2.5
 42
2.5
 43
2.5
 50
90.0
  0
INSERT
  5
8E7E
330
8DBB
100
AcDbEntity
  8
AM_5
100
AcDbBlockReference
  2
_OPEN30
 10
17.9418998277342
 20
-124.9999999999998
 30
0.0
 41
2.5
 42
2.5
 43
2.5
 50
270.0
  0
MTEXT
  5
8E7F
330
8DBB
100
AcDbEntity
  8
AM_5
 62
     2
100
AcDbMText
 10
14.84189982773423
 20
0.0000000000001698
 30
0.0
 40
3.2
 41
0.0
 71
     5
 72
     1
  1
%%c250
  7
ASAMI
 11
0.0000000000000001
 21
1.0
 31
0.0
1001
ACAD
1000
MTEXTBEGIN
1070
    73
1070
     1
1070
    44
1040
1.0
1070
    74
1070
     0
1000
MTEXTEND
  0
POINT
  5
8E80
330
8DBB
100
AcDbEntity
  8
DEFPOINTS
 62
     0
100
AcDbPoint
 10
-0.0000000000001137
 20
125.0000000000001
 30
0.0
  0
POINT
  5
8E81
330
8DBB
100
AcDbEntity
  8
DEFPOINTS
 62
     0
100
AcDbPoint
 10
0.0000000000000853
 20
-124.9999999999998
 30
0.0
  0
POINT
  5
8E82
330
8DBB
100
AcDbEntity
  8
DEFPOINTS
 62
     0
100
AcDbPoint
 10
17.9418998277342
 20
-124.9999999999998
 30
0.0
  0
ENDBLK
  5
8DC6
330
8DBB
100
AcDbEntity
  8
0
100
AcDbBlockEnd
  0
BLOCK
  5
8DF6
330
8DEC
100
AcDbEntity
  8
0
100
AcDbBlockBegin
  2
*D13
 70
     1
 10
0.0
 20
0.0
 30
0.0
  3
*D13
  1

  0
LINE
  5
8E8C
330
8DEC
100
AcDbEntity
  8
AM_5
100
AcDbLine
 10
-10.52219147087751
 20
135.0000000000001
 30
0.0
 11
28.94189982773426
 21
135.0000000000001
 31
0.0
  0
LINE
  5
8E8D
330
8DEC
100
AcDbEntity
  8
AM_5
100
AcDbLine
 10
-10.52219147087751
 20
-135.0000000000001
 30
0.0
 11
28.9418998277342
 21
-135.0000000000001
 31
0.0
  0
LINE
  5
8E8E
330
8DEC
100
AcDbEntity
  8
AM_5
100
AcDbLine
 10
27.94189982773426
 20
132.5000000000001
 30
0.0
 11
27.9418998277342
 21
-132.5000000000001
 31
0.0
  0
INSERT
  5
8E8F
330
8DEC
100
AcDbEntity
  8
AM_5
100
AcDbBlockReference
  2
_OPEN30
 10
27.94189982773426
 20
135.0000000000001
 30
0.0
 41
2.5
 42
2.5
 43
2.5
 50
90.0
  0
INSERT
  5
8E90
330
8DEC
100
AcDbEntity
  8
AM_5
100
AcDbBlockReference
  2
_OPEN30
 10
27.9418998277342
 20
-135.0000000000001
 30
0.0
 41
2.5
 42
2.5
 43
2.5
 50
270.0
  0
MTEXT
  5
8E91
330
8DEC
100
AcDbEntity
  8
AM_5
 62
     2
100
AcDbMText
 10
24.84189982773423
 20
-0.0000000000000013
 30
0.0
 40
3.2
 41
0.0
 71
     5
 72
     1
  1
%%c270
  7
ASAMI
 11
0.0000000000000001
 21
1.0
 31
0.0
1001
ACAD
1000
MTEXTBEGIN
1070
    73
1070
     1
1070
    44
1040
1.0
1070
    74
1070
     0
1000
MTEXTEND
  0
POINT
  5
8E92
330
8DEC
100
AcDbEntity
  8
DEFPOINTS
 62
     0
100
AcDbPoint
 10
-11.52219147087751
 20
135.0000000000001
 30
0.0
  0
POINT
  5
8E93
330
8DEC
100
AcDbEntity
  8
DEFPOINTS
 62
     0
100
AcDbPoint
 10
-11.52219147087751
 20
-135.0000000000001
 30
0.0
  0
POINT
  5
8E94
330
8DEC
100
AcDbEntity
  8
DEFPOINTS
 62
     0
100
AcDbPoint
 10
27.9418998277342
 20
-135.0000000000001
 30
0.0
  0
ENDBLK
  5
8DF7
330
8DEC
100
AcDbEntity
  8
0
100
AcDbBlockEnd
  0
BLOCK
  5
8F0B
330
8EFB
100
AcDbEntity
  8
0
100
AcDbBlockBegin
  2
*D14
 70
     1
 10
0.0
 20
0.0
 30
0.0
  3
*D14
  1

  0
LINE
  5
8FD0
330
8EFB
100
AcDbEntity
  8
AM_5
100
AcDbLine
 10
-6.68445814031039
 20
-132.0615904709883
 30
0.0
 11
-23.23274977229478
 21
-149.5435248397377
 31
0.0
  0
LINE
  5
8FD1
330
8EFB
100
AcDbEntity
  8
AM_5
100
AcDbLine
 10
0.0000000000000853
 20
-125.9999999999998
 30
0.0
 11
0.0000000000000995
 21
-158.7956398599122
 31
0.0
  0
ARC
  5
8FD2
330
8EFB
100
AcDbEntity
  8
AM_5
100
AcDbCircle
 10
0.0000000000000711
 20
-124.9999999999998
 30
0.0
 40
32.79563985991242
100
AcDbArc
 50
230.9402501800779
 51
265.6313048413514
  0
INSERT
  5
8FD3
330
8EFB
100
AcDbEntity
  8
AM_5
100
AcDbBlockReference
  2
_OPEN30
 10
-22.54530163198444
 20
-148.8172913687494
 30
0.0
 41
2.5
 42
2.5
 43
2.5
 50
138.7559026007536
  0
INSERT
  5
8FD4
330
8EFB
100
AcDbEntity
  8
AM_5
100
AcDbBlockReference
  2
_OPEN30
 10
0.0000000000000995
 20
-157.7956398599122
 30
0.0
 41
2.5
 42
2.5
 43
2.5
 50
357.8156524206757
  0
MTEXT
  5
8FD5
330
8EFB
100
AcDbEntity
  8
AM_5
 62
     2
100
AcDbMText
 10
-10.98671514492741
 20
-152.5884598521525
 30
0.0
 40
3.2
 41
0.0
 71
     5
 72
     1
  1
45%%d
  7
ASAMI
 11
0.9290407609433493
 21
-0.3699773837760927
 31
0.0
1001
ACAD
1000
MTEXTBEGIN
1070
    73
1070
     1
1070
    44
1040
1.0
1070
    74
1070
     0
1000
MTEXTEND
  0
POINT
  5
8FD6
330
8EFB
100
AcDbEntity
  8
DEFPOINTS
 62
     0
100
AcDbPoint
 10
-15.87575469875622
 20
-153.696940717888
 30
0.0
  0
POINT
  5
8FD7
330
8EFB
100
AcDbEntity
  8
DEFPOINTS
 62
     0
100
AcDbPoint
 10
-5.997010000000038
 20
-131.3353569999999
 30
0.0
  0
POINT
  5
8FD8
330
8EFB
100
AcDbEntity
  8
DEFPOINTS
 62
     0
100
AcDbPoint
 10
-0.0000000000001208
 20
125.0
 30
0.0
  0
POINT
  5
8FD9
330
8EFB
100
AcDbEntity
  8
DEFPOINTS
 62
     0
100
AcDbPoint
 10
0.0000000000000853
 20
-124.9999999999998
 30
0.0
  0
POINT
  5
8FDA
330
8EFB
100
AcDbEntity
  8
DEFPOINTS
 62
     0
100
AcDbPoint
 10
-0.0000000000001137
 20
-125.0
 30
0.0
  0
ENDBLK
  5
8F0C
330
8EFB
100
AcDbEntity
  8
0
100
AcDbBlockEnd
  0
ENDSEC
  0
SECTION
  2
ENTITIES
  0
TEXT
  5
E5A
330
1F
100
AcDbEntity
  8
AM_6
100
AcDbText
 10
-47.69047619047606
 20
-191.8837398957971
 30
0.0
 40
5.0
  1
UFO4250
 72
     4
 11
-31.49999999999987
 21
-189.3837398957971
 31
0.0
100
AcDbText
  0
LINE
  5
7A89
330
1F
100
AcDbEntity
  8
AM_3
100
AcDbLine
 10
-2.000000000000142
 20
121.1999999999999
 30
0.0
 11
-2.000000000000142
 21
120.0210672994251
 31
0.0
  0
LINE
  5
7A8A
330
1F
100
AcDbEntity
  8
AM_0
100
AcDbLine
 10
-22.50000000000003
 20
84.99999999999998
 30
0.0
 11
-22.50000000000003
 21
0.0
 31
0.0
  0
LINE
  5
7A8B
330
1F
100
AcDbEntity
  8
AM_0
100
AcDbLine
 10
-27.99999999999991
 20
81.82457351945698
 30
0.0
 11
-27.99999999999969
 21
0.0
 31
0.0
  0
LINE
  5
7A8C
330
1F
100
AcDbEntity
  8
AM_0
100
AcDbLine
 10
-62.99999999999986
 20
64.99999999999989
 30
0.0
 11
-62.99999999999963
 21
13.69999999999995
 31
0.0
  0
LINE
  5
7A8D
330
1F
100
AcDbEntity
  8
AM_0
100
AcDbLine
 10
-27.99999999999991
 20
-81.82457351945698
 30
0.0
 11
-27.99999999999968
 21
0.0
 31
0.0
  0
LINE
  5
7A8E
330
1F
100
AcDbEntity
  8
AM_0
100
AcDbLine
 10
-22.50000000000003
 20
-84.99999999999998
 30
0.0
 11
-22.50000000000003
 21
0.0
 31
0.0
  0
LINE
  5
7A8F
330
1F
100
AcDbEntity
  8
AM_0
100
AcDbLine
 10
-61.69999999999991
 20
-87.99999999999991
 30
0.0
 11
-61.69999999999991
 21
-66.29999999999987
 31
0.0
  0
LINE
  5
7A90
330
1F
100
AcDbEntity
  8
AM_3
100
AcDbLine
 10
-2.000000000000142
 20
-121.1999999999999
 30
0.0
 11
-2.000000000000142
 21
-120.0210672994251
 31
0.0
  0
LINE
  5
7A92
330
1F
100
AcDbEntity
  8
AM_0
100
AcDbLine
 10
-44.97898257465161
 20
-123.8822856765378
 30
0.0
 11
-52.6675217912298
 21
-95.18826668428227
 31
0.0
  0
LINE
  5
7A95
330
1F
100
AcDbEntity
  8
AM_0
100
AcDbLine
 10
-59.6999999999999
 20
-89.99999999999991
 30
0.0
 11
-59.42900257525312
 21
-89.99999999999989
 31
0.0
  0
LINE
  5
7A96
330
1F
100
AcDbEntity
  8
AM_3
100
AcDbLine
 10
-10.71668822505649
 20
-134.0948633246197
 30
0.0
 11
-2.000000000000142
 21
-124.3
 31
0.0
  0
LINE
  5
7A97
330
1F
100
AcDbEntity
  8
AM_3
100
AcDbLine
 10
-24.94098485419765
 20
-135.0
 30
0.0
 11
-21.93725331627225
 21
-135.0
 31
0.0
  0
LINE
  5
7A98
330
1F
100
AcDbEntity
  8
AM_3
100
AcDbLine
 10
-2.000000000000142
 20
-121.1999999999999
 30
0.0
 11
-9.889105150972785
 21
-112.3868405194913
 31
0.0
  0
LINE
  5
7A99
330
1F
100
AcDbEntity
  8
AM_3
100
AcDbLine
 10
-2.000000000000142
 20
-124.3
 30
0.0
 11
-2.000000000000142
 21
-121.1999999999999
 31
0.0
  0
LINE
  5
7A9A
330
1F
100
AcDbEntity
  8
AM_0
100
AcDbLine
 10
-22.50000000000003
 20
-90.0
 30
0.0
 11
-22.50000000000003
 21
-84.99999999999998
 31
0.0
  0
LINE
  5
7A9B
330
1F
100
AcDbEntity
  8
AM_0
100
AcDbLine
 10
-23.00000000000002
 20
-90.0
 30
0.0
 11
-22.50000000000014
 21
-90.0
 31
0.0
  0
LINE
  5
7A9C
330
1F
100
AcDbEntity
  8
AM_0
100
AcDbLine
 10
-23.00000000000025
 20
-97.74026083454316
 30
0.0
 11
-23.00000000000002
 21
-90.0
 31
0.0
  0
LINE
  5
7A9D
330
1F
100
AcDbEntity
  8
AM_0
100
AcDbLine
 10
-22.50000000000003
 20
-84.99999999999998
 30
0.0
 11
-27.99999999999991
 21
-81.82457351945704
 31
0.0
  0
LINE
  5
7A9E
330
1F
100
AcDbEntity
  8
AM_0
100
AcDbLine
 10
-42.80999999999974
 20
-23.51249999999999
 30
0.0
 11
-29.99999999999968
 21
-23.51249999999999
 31
0.0
  0
LINE
  5
7A9F
330
1F
100
AcDbEntity
  8
AM_7
100
AcDbLine
 10
-67.62678716908678
 20
-50.80000000000001
 30
0.0
 11
-19.50605716028261
 21
-50.80000000000001
 31
0.0
  0
LINE
  5
7AA0
330
1F
100
AcDbEntity
  8
AM_11
100
AcDbLine
 10
-61.49999999999963
 20
-59.79999999999995
 30
0.0
 11
-28.69999999999985
 21
-59.80000000000001
 31
0.0
  0
LINE
  5
7AA1
330
1F
100
AcDbEntity
  8
AM_11
100
AcDbLine
 10
-61.49999999999974
 20
-41.80000000000004
 30
0.0
 11
-28.69999999999961
 21
-41.80000000000004
 31
0.0
  0
LINE
  5
7AA2
330
1F
100
AcDbEntity
  8
AM_11
100
AcDbLine
 10
-53.29999999999976
 20
-56.80000000000001
 30
0.0
 11
-27.99999999999968
 21
-56.80000000000004
 31
0.0
  0
LINE
  5
7AA3
330
1F
100
AcDbEntity
  8
AM_11
100
AcDbLine
 10
-53.29999999999964
 20
-44.80000000000001
 30
0.0
 11
-27.9999999999998
 21
-44.79999999999998
 31
0.0
  0
LINE
  5
7AA4
330
1F
100
AcDbEntity
  8
AM_11
100
AcDbLine
 10
-53.29999999999976
 20
-55.85300000000001
 30
0.0
 11
-28.9999999999998
 21
-55.85299999999998
 31
0.0
  0
LINE
  5
7AA5
330
1F
100
AcDbEntity
  8
AM_11
100
AcDbLine
 10
-53.29999999999964
 20
-45.74699999999999
 30
0.0
 11
-28.99999999999968
 21
-45.74699999999999
 31
0.0
  0
LINE
  5
7AA6
330
1F
100
AcDbEntity
  8
AM_0
100
AcDbLine
 10
-42.80999999999974
 20
23.51249999999999
 30
0.0
 11
-29.99999999999976
 21
23.51249999999999
 31
0.0
  0
LINE
  5
7AA7
330
1F
100
AcDbEntity
  8
AM_7
100
AcDbLine
 10
-66.89438835350316
 20
0.0
 30
0.0
 11
3.941898827734206
 21
0.0
 31
0.0
  0
LINE
  5
7AA8
330
1F
100
AcDbEntity
  8
AM_0
100
AcDbLine
 10
-42.80999999999974
 20
-23.51249999999999
 30
0.0
 11
-42.80999999999975
 21
0.0
 31
0.0
  0
LINE
  5
7AA9
330
1F
100
AcDbEntity
  8
AM_0
100
AcDbLine
 10
-51.40087598487529
 20
-23.8125
 30
0.0
 11
-51.40087598487528
 21
-12.69999999999998
 31
0.0
  0
LINE
  5
7AAA
330
1F
100
AcDbEntity
  8
AM_0
100
AcDbLine
 10
-62.99999999999986
 20
-64.99999999999989
 30
0.0
 11
-62.99999999999963
 21
-13.69999999999979
 31
0.0
  0
LINE
  5
7AAB
330
1F
100
AcDbEntity
  8
AM_11
100
AcDbLine
 10
-61.49999999999974
 20
-59.80000000000003
 30
0.0
 11
-61.49999999999974
 21
-41.80000000000001
 31
0.0
  0
LINE
  5
7AAC
330
1F
100
AcDbEntity
  8
AM_11
100
AcDbLine
 10
-53.29999999999976
 20
-57.79999999999998
 30
0.0
 11
-53.29999999999964
 21
-43.79999999999998
 31
0.0
  0
LINE
  5
7AAD
330
1F
100
AcDbEntity
  8
AM_11
100
AcDbLine
 10
-61.99999999999974
 20
-57.79999999999986
 30
0.0
 11
-61.99999999999963
 21
-43.80000000000015
 31
0.0
  0
LINE
  5
7AAE
330
1F
100
AcDbEntity
  8
AM_0
100
AcDbLine
 10
-62.99999999999986
 20
-64.99999999999989
 30
0.0
 11
-61.69999999999979
 21
-66.29999999999992
 31
0.0
  0
LINE
  5
7AAF
330
1F
100
AcDbEntity
  8
AM_11
100
AcDbLine
 10
-61.99999999999997
 20
-57.80000000000001
 30
0.0
 11
-53.29999999999976
 21
-57.79999999999998
 31
0.0
  0
LINE
  5
7AB0
330
1F
100
AcDbEntity
  8
AM_11
100
AcDbLine
 10
-62.99999999999974
 20
-61.29999999999999
 30
0.0
 11
-61.49999999999974
 21
-59.79999999999998
 31
0.0
  0
LINE
  5
7AB1
330
1F
100
AcDbEntity
  8
AM_11
100
AcDbLine
 10
-62.99999999999986
 20
-58.80000000000001
 30
0.0
 11
-61.99999999999985
 21
-57.80000000000001
 31
0.0
  0
LINE
  5
7AB2
330
1F
100
AcDbEntity
  8
AM_11
100
AcDbLine
 10
-61.99999999999985
 20
-43.79999999999998
 30
0.0
 11
-53.29999999999976
 21
-43.80000000000001
 31
0.0
  0
LINE
  5
7AB3
330
1F
100
AcDbEntity
  8
AM_11
100
AcDbLine
 10
-62.99999999999974
 20
-40.30000000000003
 30
0.0
 11
-61.49999999999974
 21
-41.80000000000004
 31
0.0
  0
LINE
  5
7AB4
330
1F
100
AcDbEntity
  8
AM_11
100
AcDbLine
 10
-62.99999999999986
 20
-42.80000000000001
 30
0.0
 11
-61.99999999999985
 21
-43.80000000000001
 31
0.0
  0
LINE
  5
7AB5
330
1F
100
AcDbEntity
  8
AM_0
100
AcDbLine
 10
-59.99999999999963
 20
-23.81250000000003
 30
0.0
 11
-51.40087598487529
 21
-23.8125
 31
0.0
  0
LINE
  5
7AB7
330
1F
100
AcDbEntity
  8
AM_0
100
AcDbLine
 10
-42.80999999999974
 20
-23.51249999999999
 30
0.0
 11
-51.40087598487529
 21
-23.8125
 31
0.0
  0
LINE
  5
7AB8
330
1F
100
AcDbEntity
  8
AM_0
100
AcDbLine
 10
-61.99999999999974
 20
12.69999999999996
 30
0.0
 11
-61.99999999999974
 21
0.0
 31
0.0
  0
LINE
  5
7AB9
330
1F
100
AcDbEntity
  8
AM_0
100
AcDbLine
 10
-48.99999999999957
 20
11.69999999999997
 30
0.0
 11
-48.99999999999969
 21
0.0000000000000284
 31
0.0
  0
LINE
  5
7ABA
330
1F
100
AcDbEntity
  8
AM_0
100
AcDbLine
 10
-61.99999999999974
 20
-12.69999999999996
 30
0.0
 11
-61.99999999999974
 21
0.0
 31
0.0
  0
LINE
  5
7ABB
330
1F
100
AcDbEntity
  8
AM_0
100
AcDbLine
 10
-48.99999999999957
 20
-11.69999999999998
 30
0.0
 11
-48.99999999999969
 21
-0.0000000000000284
 31
0.0
  0
LINE
  5
7ABC
330
1F
100
AcDbEntity
  8
AM_0
100
AcDbLine
 10
-61.99999999999974
 20
-12.69999999999996
 30
0.0
 11
-49.99999999999957
 21
-12.69999999999998
 31
0.0
  0
LINE
  5
7ABF
330
1F
100
AcDbEntity
  8
AM_0
100
AcDbLine
 10
-42.80999999999974
 20
23.51249999999999
 30
0.0
 11
-42.80999999999975
 21
0.0
 31
0.0
  0
LINE
  5
7AC0
330
1F
100
AcDbEntity
  8
AM_0
100
AcDbLine
 10
-51.40087598487529
 20
23.8125
 30
0.0
 11
-51.40087598487528
 21
12.69999999999998
 31
0.0
  0
LINE
  5
7AC1
330
1F
100
AcDbEntity
  8
AM_0
100
AcDbLine
 10
-61.99999999999962
 20
12.69999999999996
 30
0.0
 11
-49.99999999999957
 21
12.69999999999998
 31
0.0
  0
LINE
  5
7AC4
330
1F
100
AcDbEntity
  8
AM_0
100
AcDbLine
 10
-59.99999999999969
 20
23.81250000000003
 30
0.0
 11
-51.40087598487529
 21
23.8125
 31
0.0
  0
LINE
  5
7AC6
330
1F
100
AcDbEntity
  8
AM_0
100
AcDbLine
 10
-42.80999999999974
 20
23.51249999999999
 30
0.0
 11
-51.40087598487529
 21
23.8125
 31
0.0
  0
LINE
  5
7AC7
330
1F
100
AcDbEntity
  8
AM_11
100
AcDbLine
 10
-28.99999999999968
 20
-45.74699999999999
 30
0.0
 11
-28.99999999999968
 21
-55.85300000000009
 31
0.0
  0
LINE
  5
7AC8
330
1F
100
AcDbEntity
  8
AM_11
100
AcDbLine
 10
-28.69999999999985
 20
-59.8000000000001
 30
0.0
 11
-28.69999999999985
 21
-41.79999999999998
 31
0.0
  0
LINE
  5
7AC9
330
1F
100
AcDbEntity
  8
AM_11
100
AcDbLine
 10
-28.69999999999985
 20
-59.80000000000001
 30
0.0
 11
-27.9999999999998
 21
-60.5
 31
0.0
  0
LINE
  5
7ACA
330
1F
100
AcDbEntity
  8
AM_11
100
AcDbLine
 10
-28.9999999999998
 20
-55.85299999999998
 30
0.0
 11
-27.99999999999968
 21
-56.80000000000004
 31
0.0
  0
LINE
  5
7ACB
330
1F
100
AcDbEntity
  8
AM_11
100
AcDbLine
 10
-28.9999999999998
 20
-45.74700000000004
 30
0.0
 11
-27.99999999999968
 21
-44.79999999999998
 31
0.0
  0
LINE
  5
7ACC
330
1F
100
AcDbEntity
  8
AM_11
100
AcDbLine
 10
-28.69999999999985
 20
-41.80000000000001
 30
0.0
 11
-27.9999999999998
 21
-41.10000000000002
 31
0.0
  0
LINE
  5
7ACF
330
1F
100
AcDbEntity
  8
AM_11
100
AcDbLine
 10
-53.29999999999964
 20
45.74699999999999
 30
0.0
 11
-28.99999999999968
 21
45.74699999999999
 31
0.0
  0
LINE
  5
7AD0
330
1F
100
AcDbEntity
  8
AM_11
100
AcDbLine
 10
-53.29999999999976
 20
55.85300000000001
 30
0.0
 11
-28.9999999999998
 21
55.85299999999998
 31
0.0
  0
LINE
  5
7AD1
330
1F
100
AcDbEntity
  8
AM_11
100
AcDbLine
 10
-53.29999999999964
 20
44.80000000000001
 30
0.0
 11
-27.9999999999998
 21
44.79999999999998
 31
0.0
  0
LINE
  5
7AD2
330
1F
100
AcDbEntity
  8
AM_11
100
AcDbLine
 10
-53.29999999999976
 20
56.80000000000001
 30
0.0
 11
-27.99999999999968
 21
56.80000000000004
 31
0.0
  0
LINE
  5
7AD3
330
1F
100
AcDbEntity
  8
AM_11
100
AcDbLine
 10
-61.49999999999974
 20
41.80000000000004
 30
0.0
 11
-28.69999999999961
 21
41.80000000000004
 31
0.0
  0
LINE
  5
7AD4
330
1F
100
AcDbEntity
  8
AM_11
100
AcDbLine
 10
-61.49999999999963
 20
59.79999999999995
 30
0.0
 11
-28.69999999999985
 21
59.80000000000001
 31
0.0
  0
LINE
  5
7AD5
330
1F
100
AcDbEntity
  8
AM_7
100
AcDbLine
 10
-67.62678716908678
 20
50.80000000000001
 30
0.0
 11
-19.50605716028261
 21
50.80000000000001
 31
0.0
  0
LINE
  5
7AD7
330
1F
100
AcDbEntity
  8
AM_0
100
AcDbLine
 10
-61.69999999999991
 20
87.99999999999988
 30
0.0
 11
-61.69999999999991
 21
66.29999999999987
 31
0.0
  0
LINE
  5
7AD8
330
1F
100
AcDbEntity
  8
AM_11
100
AcDbLine
 10
-62.99999999999986
 20
58.80000000000001
 30
0.0
 11
-61.99999999999985
 21
57.80000000000001
 31
0.0
  0
LINE
  5
7AD9
330
1F
100
AcDbEntity
  8
AM_11
100
AcDbLine
 10
-61.49999999999974
 20
59.80000000000003
 30
0.0
 11
-61.49999999999974
 21
41.80000000000001
 31
0.0
  0
LINE
  5
7ADA
330
1F
100
AcDbEntity
  8
AM_11
100
AcDbLine
 10
-61.99999999999974
 20
57.79999999999986
 30
0.0
 11
-61.99999999999963
 21
43.80000000000015
 31
0.0
  0
LINE
  5
7ADB
330
1F
100
AcDbEntity
  8
AM_11
100
AcDbLine
 10
-53.29999999999976
 20
57.79999999999998
 30
0.0
 11
-53.29999999999964
 21
43.79999999999998
 31
0.0
  0
LINE
  5
7ADC
330
1F
100
AcDbEntity
  8
AM_11
100
AcDbLine
 10
-61.99999999999985
 20
43.79999999999998
 30
0.0
 11
-53.29999999999976
 21
43.80000000000001
 31
0.0
  0
LINE
  5
7ADD
330
1F
100
AcDbEntity
  8
AM_11
100
AcDbLine
 10
-62.99999999999986
 20
42.80000000000001
 30
0.0
 11
-61.99999999999985
 21
43.80000000000001
 31
0.0
  0
LINE
  5
7ADE
330
1F
100
AcDbEntity
  8
AM_11
100
AcDbLine
 10
-62.99999999999974
 20
40.30000000000003
 30
0.0
 11
-61.49999999999974
 21
41.80000000000004
 31
0.0
  0
LINE
  5
7ADF
330
1F
100
AcDbEntity
  8
AM_11
100
AcDbLine
 10
-61.99999999999997
 20
57.80000000000001
 30
0.0
 11
-53.29999999999976
 21
57.79999999999998
 31
0.0
  0
LINE
  5
7AE0
330
1F
100
AcDbEntity
  8
AM_11
100
AcDbLine
 10
-62.99999999999974
 20
61.29999999999999
 30
0.0
 11
-61.49999999999974
 21
59.79999999999998
 31
0.0
  0
LINE
  5
7AE1
330
1F
100
AcDbEntity
  8
AM_0
100
AcDbLine
 10
-62.99999999999986
 20
64.99999999999989
 30
0.0
 11
-61.69999999999979
 21
66.29999999999992
 31
0.0
  0
LINE
  5
7AE2
330
1F
100
AcDbEntity
  8
AM_0
100
AcDbLine
 10
-44.97898257465162
 20
123.8822856765378
 30
0.0
 11
-52.66752179122982
 21
95.18826668428221
 31
0.0
  0
LINE
  5
7AE5
330
1F
100
AcDbEntity
  8
AM_0
100
AcDbLine
 10
-59.69999999999949
 20
89.99999999999989
 30
0.0
 11
-59.42900257525477
 21
89.99999999999985
 31
0.0
  0
LINE
  5
7AE6
330
1F
100
AcDbEntity
  8
AM_0
100
AcDbLine
 10
-22.50000000000003
 20
90.0
 30
0.0
 11
-22.50000000000003
 21
84.99999999999998
 31
0.0
  0
LINE
  5
7AE7
330
1F
100
AcDbEntity
  8
AM_11
100
AcDbLine
 10
-28.69999999999985
 20
59.8000000000001
 30
0.0
 11
-28.69999999999985
 21
41.79999999999998
 31
0.0
  0
LINE
  5
7AE8
330
1F
100
AcDbEntity
  8
AM_11
100
AcDbLine
 10
-28.9999999999998
 20
45.74700000000004
 30
0.0
 11
-27.99999999999968
 21
44.79999999999998
 31
0.0
  0
LINE
  5
7AE9
330
1F
100
AcDbEntity
  8
AM_11
100
AcDbLine
 10
-28.69999999999985
 20
41.80000000000001
 30
0.0
 11
-27.9999999999998
 21
41.10000000000002
 31
0.0
  0
LINE
  5
7AEA
330
1F
100
AcDbEntity
  8
AM_11
100
AcDbLine
 10
-28.99999999999968
 20
45.74699999999999
 30
0.0
 11
-28.99999999999968
 21
55.85300000000009
 31
0.0
  0
LINE
  5
7AEB
330
1F
100
AcDbEntity
  8
AM_11
100
AcDbLine
 10
-28.9999999999998
 20
55.85299999999998
 30
0.0
 11
-27.99999999999968
 21
56.80000000000004
 31
0.0
  0
LINE
  5
7AEC
330
1F
100
AcDbEntity
  8
AM_11
100
AcDbLine
 10
-28.69999999999985
 20
59.80000000000001
 30
0.0
 11
-27.9999999999998
 21
60.5
 31
0.0
  0
LINE
  5
7AED
330
1F
100
AcDbEntity
  8
AM_0
100
AcDbLine
 10
-22.50000000000003
 20
84.99999999999998
 30
0.0
 11
-27.99999999999991
 21
81.82457351945704
 31
0.0
  0
LINE
  5
7AEE
330
1F
100
AcDbEntity
  8
AM_3
100
AcDbLine
 10
-2.000000000000142
 20
121.1999999999999
 30
0.0
 11
-9.889105150972781
 21
112.3868405194914
 31
0.0
  0
LINE
  5
7AEF
330
1F
100
AcDbEntity
  8
AM_0
100
AcDbLine
 10
-23.00000000000002
 20
90.0
 30
0.0
 11
-22.50000000000014
 21
90.0
 31
0.0
  0
LINE
  5
7AF0
330
1F
100
AcDbEntity
  8
AM_0
100
AcDbLine
 10
-23.00000000000025
 20
97.74026083454316
 30
0.0
 11
-23.00000000000002
 21
90.0
 31
0.0
  0
LINE
  5
7AF1
330
1F
100
AcDbEntity
  8
AM_3
100
AcDbLine
 10
-24.94098485419765
 20
135.0
 30
0.0
 11
-21.93725331627225
 21
135.0
 31
0.0
  0
LINE
  5
7AF2
330
1F
100
AcDbEntity
  8
AM_3
100
AcDbLine
 10
-10.71668822505649
 20
134.0948633246197
 30
0.0
 11
-2.000000000000142
 21
124.3
 31
0.0
  0
LINE
  5
7AF3
330
1F
100
AcDbEntity
  8
AM_3
100
AcDbLine
 10
-2.000000000000142
 20
124.3
 30
0.0
 11
-2.000000000000142
 21
121.1999999999999
 31
0.0
  0
DIMENSION
  5
8B47
330
1F
100
AcDbEntity
  8
AM_5
100
AcDbDimension
  2
*D5
 10
-101.6267881690867
 20
-64.99999999999987
 30
0.0
 11
-104.7267881690867
 21
-0.0000000000000076
 31
0.0
 70
    32
  1
%%c<>
  3
AM_JIS
100
AcDbAlignedDimension
 13
-62.99999999999986
 23
64.99999999999989
 33
0.0
 14
-62.99999999999986
 24
-64.99999999999989
 34
0.0
 50
90.0
100
AcDbRotatedDimension
1001
GENIUS_GENDTOL_13
1000

1000
h7
1000

1040
0.0
  0
DIMENSION
  5
8B48
330
1F
100
AcDbEntity
  8
AM_5
100
AcDbDimension
  2
*D7
 10
-81.62678816908679
 20
-12.69999999999995
 30
0.0
 11
-81.62678816908679
 21
0.0
 31
0.0
 70
   160
  3
AM_JIS
100
AcDbAlignedDimension
 13
-61.99999999999974
 23
12.69999999999996
 33
0.0
 14
-61.99999999999974
 24
-12.69999999999996
 34
0.0
 50
90.0
100
AcDbRotatedDimension
  0
DIMENSION
  5
8B49
330
1F
100
AcDbEntity
  8
AM_5
100
AcDbDimension
  2
*D6
 10
-91.62678816908679
 20
-23.81250000000002
 30
0.0
 11
-94.72678816908677
 21
-0.0000000000000047
 31
0.0
 70
    32
  1
%%c<>
  3
AM_JIS
100
AcDbAlignedDimension
 13
-59.99999999999964
 23
23.81250000000003
 33
0.0
 14
-59.99999999999963
 24
-23.81250000000003
 34
0.0
 50
90.0
100
AcDbRotatedDimension
1001
GENIUS_GENDTOL_13
1000

1000
h7
1000

1040
0.0
  0
DIMENSION
  5
8BD1
330
1F
100
AcDbEntity
  8
AM_5
100
AcDbDimension
  2
*D8
 10
-111.6267881690867
 20
-89.99999999999991
 30
0.0
 11
-114.7267881690867
 21
-0.000000000000007
 31
0.0
 70
    32
  1
%%c<>
  3
AM_JIS
100
AcDbAlignedDimension
 13
-59.6999999999999
 23
89.99999999999991
 33
0.0
 14
-59.6999999999999
 24
-89.99999999999991
 34
0.0
 50
90.0
100
AcDbRotatedDimension
1001
GENIUS_GENDTOL_13
1000

1000
h7
1000

1040
0.0
  0
DIMENSION
  5
8C54
330
1F
100
AcDbEntity
  8
AM_5
100
AcDbDimension
  2
*D10
 10
0.0000000000000825
 20
-169.3837398957971
 30
0.0
 11
-31.49999999999989
 21
-166.2837398957971
 31
0.0
 70
    32
  3
AM_JIS
100
AcDbAlignedDimension
 13
-62.99999999999986
 23
-64.99999999999989
 33
0.0
 14
0.0000000000000853
 24
-124.9999999999213
 34
0.0
100
AcDbRotatedDimension
  0
DIMENSION
  5
8C55
330
1F
100
AcDbEntity
  8
AM_5
100
AcDbDimension
  2
*D11
 10
-48.99999999999958
 20
-149.3837398957971
 30
0.0
 11
-55.99999999999972
 21
-146.2837398957971
 31
0.0
 70
    32
  3
AM_JIS
100
AcDbAlignedDimension
 13
-62.99999999999986
 23
-64.99999999999989
 33
0.0
 14
-48.99999999999957
 24
-11.69999999999997
 34
0.0
100
AcDbRotatedDimension
  0
DIMENSION
  5
8C56
330
1F
100
AcDbEntity
  8
AM_5
100
AcDbDimension
  2
*D9
 10
-27.99999999999991
 20
-159.3837398957971
 30
0.0
 11
-45.49999999999989
 21
-156.2837398957971
 31
0.0
 70
    32
  3
AM_JIS
100
AcDbAlignedDimension
 13
-62.99999999999986
 23
-64.99999999999989
 33
0.0
 14
-27.99999999999991
 24
-81.82457351945698
 34
0.0
100
AcDbRotatedDimension
  0
LINE
  5
8D20
330
1F
100
AcDbEntity
  8
AM_0
100
AcDbLine
 10
-23.22121200000015
 20
134.4867459999999
 30
0.0
 11
-26.87907100000006
 21
129.4709569999999
 31
0.0
  0
LINE
  5
8D21
330
1F
100
AcDbEntity
  8
AM_0
100
AcDbLine
 10
-24.87076500000012
 20
135.0962879999999
 30
0.0
 11
-27.8018780000001
 21
131.0770399999998
 31
0.0
  0
LINE
  5
8D22
330
1F
100
AcDbEntity
  8
AM_0
100
AcDbLine
 10
-26.87907100000006
 20
129.4709569999999
 30
0.0
 11
-24.36253400000009
 21
126.8124379999999
 31
0.0
  0
ELLIPSE
  5
8D23
330
1F
100
AcDbEntity
  8
AM_0
100
AcDbEllipse
 10
-25.50360300000011
 20
129.1370939999999
 30
0.0
 11
-2.290639612009
 21
1.949631823684
 31
0.0
210
0.0
220
0.0
230
1.0
 40
0.2334633752270999
 41
0.017551370222918
 42
1.137178375746189
  0
SPLINE
  5
8D24
330
1F
100
AcDbEntity
  8
AM_0
100
AcDbSpline
210
0.0
220
0.0
230
1.0
 70
     8
 71
     3
 72
    11
 73
     7
 74
     5
 42
0.0000000001
 43
0.0000000001
 44
0.0000000001
 40
0.0
 40
0.0
 40
0.0
 40
0.0
 40
0.9468400005941315
 40
2.192326962004693
 40
3.71928700721647
 40
5.361660633557678
 40
5.361660633557678
 40
5.361660633557678
 40
5.361660633557678
 10
-7.540333000000146
 20
121.6413599999999
 30
0.0
 10
-7.4325446203004
 20
121.9491929552308
 30
0.0
 10
-7.182969854914199
 20
122.661953809359
 30
0.0
 10
-7.783167120362234
 20
123.8672624814477
 30
0.0
 10
-8.857603625743308
 20
124.8887415789449
 30
0.0
 10
-9.83887661965188
 20
125.3065041507717
 30
0.0
 10
-10.34738000000015
 20
125.5229919999999
 30
0.0
 11
-7.540333000000146
 21
121.6413599999999
 31
0.0
 11
-7.329511000000138
 21
122.564431
 31
0.0
 11
-7.783623000000034
 21
123.7241809999999
 31
0.0
 11
-8.878250000000093
 21
124.7887929999999
 31
0.0
 11
-10.34738000000015
 21
125.5229919999999
 31
0.0
  0
SPLINE
  5
8D25
330
1F
100
AcDbEntity
  8
AM_0
100
AcDbSpline
210
0.0
220
0.0
230
1.0
 70
     8
 71
     3
 72
    11
 73
     7
 74
     5
 42
0.0000000001
 43
0.0000000001
 44
0.0000000001
 40
0.0
 40
0.0
 40
0.0
 40
0.0
 40
1.229155053773598
 40
2.359789102299002
 40
3.335199407222895
 40
4.139374811623017
 40
4.139374811623017
 40
4.139374811623017
 40
4.139374811623017
 10
-11.20110600000009
 20
122.4848949999999
 30
0.0
 10
-10.89390440179957
 20
122.2126731205553
 30
0.0
 10
-10.30412447011654
 20
121.6900488816129
 30
0.0
 10
-9.388153712938098
 20
121.0641538082592
 30
0.0
 10
-8.502824087813234
 20
120.6177005581536
 30
0.0
 10
-7.904413313091294
 20
120.5917140293864
 30
0.0
 10
-7.633998000000133
 20
120.5799709999998
 30
0.0
 11
-11.20110600000009
 21
122.4848949999999
 31
0.0
 11
-10.26368200000001
 21
121.6898739999999
 31
0.0
 11
-9.327571000000034
 21
121.0558159999999
 31
0.0
 11
-8.43359700000019
 21
120.6656419999999
 31
0.0
 11
-7.633998000000133
 21
120.5799709999998
 31
0.0
  0
SPLINE
  5
8D26
330
1F
100
AcDbEntity
  8
AM_0
100
AcDbSpline
210
0.0
220
0.0
230
1.0
 70
     8
 71
     3
 72
    11
 73
     7
 74
     5
 42
0.0000000001
 43
0.0000000001
 44
0.0000000001
 40
0.0
 40
0.0
 40
0.0
 40
0.0
 40
1.246889020983929
 40
3.762516581837279
 40
6.241279187984521
 40
7.756416322911885
 40
7.756416322911885
 40
7.756416322911885
 40
7.756416322911885
 10
-13.28754200000003
 20
125.640568
 30
0.0
 10
-13.17766126537978
 20
125.229543271963
 30
0.0
 10
-12.84609359650506
 20
123.989266608396
 30
0.0
 10
-11.12299635797105
 20
122.7563834640579
 30
0.0
 10
-9.38861604663219
 20
121.0125151690414
 30
0.0
 10
-8.048661831852369
 20
121.4684103216917
 30
0.0
 10
-7.540333000000146
 20
121.6413599999999
 30
0.0
 11
-13.28754200000003
 21
125.640568
 31
0.0
 11
-12.88023300000008
 21
124.4620809999998
 31
0.0
 11
-11.12503800000013
 21
122.6599509999998
 31
0.0
 11
-9.025623000000109
 21
121.3421039999999
 31
0.0
 11
-7.540333000000146
 21
121.6413599999999
 31
0.0
  0
SPLINE
  5
8D27
330
1F
100
AcDbEntity
  8
AM_0
100
AcDbSpline
210
0.0
220
0.0
230
1.0
 70
     8
 71
     3
 72
    11
 73
     7
 74
     5
 42
0.0000000001
 43
0.0000000001
 44
0.0000000001
 40
0.0
 40
0.0
 40
0.0
 40
0.0
 40
0.2757246160955127
 40
0.5070860214551301
 40
0.6974850349662192
 40
0.8565604683587228
 40
0.8565604683587228
 40
0.8565604683587228
 40
0.8565604683587228
 10
-13.29620700000009
 20
126.5616379999999
 30
0.0
 10
-13.38757462432717
 20
126.5500172203747
 30
0.0
 10
-13.5556091138331
 20
126.5286454074777
 30
0.0
 10
-13.77907028851541
 20
126.4644794429887
 30
0.0
 10
-13.95857417953498
 20
126.3824960221784
 30
0.0
 10
-14.03874738207377
 20
126.2966594825272
 30
0.0
 10
-14.07524100000012
 20
126.2575879999999
 30
0.0
 11
-13.29620700000009
 21
126.5616379999999
 31
0.0
 11
-13.56866200000013
 21
126.5193019999999
 31
0.0
 11
-13.7907550000001
 21
126.454473
 31
0.0
 11
-13.95999400000005
 21
126.3672379999999
 31
0.0
 11
-14.07524100000012
 21
126.2575879999999
 31
0.0
  0
SPLINE
  5
8D28
330
1F
100
AcDbEntity
  8
AM_0
100
AcDbSpline
210
0.0
220
0.0
230
1.0
 70
     8
 71
     3
 72
    11
 73
     7
 74
     5
 42
0.0000000001
 43
0.0000000001
 44
0.0000000001
 40
0.0
 40
0.0
 40
0.0
 40
0.0
 40
1.04468105891218
 40
1.941535364311431
 40
2.612928259511313
 40
3.043453414123564
 40
3.043453414123564
 40
3.043453414123564
 40
3.043453414123564
 10
-10.34738000000015
 20
125.5229919999999
 30
0.0
 10
-10.68157184145709
 20
125.6276360549579
 30
0.0
 10
-11.30266597647341
 20
125.8221165919912
 30
0.0
 10
-12.15996442972302
 20
125.9139164449543
 30
0.0
 10
-12.85805737414944
 20
125.9348706959097
 30
0.0
 10
-13.16688243205384
 20
125.7232495070819
 30
0.0
 10
-13.28754200000003
 20
125.640568
 30
0.0
 11
-10.34738000000015
 21
125.5229919999999
 31
0.0
 11
-11.35456500000009
 21
125.8003669999999
 31
0.0
 11
-12.24479200000018
 21
125.9091949999999
 31
0.0
 11
-12.91395700000009
 21
125.8545449999999
 31
0.0
 11
-13.28754200000003
 21
125.640568
 31
0.0
  0
SPLINE
  5
8D29
330
1F
100
AcDbEntity
  8
AM_0
100
AcDbSpline
210
0.0
220
0.0
230
1.0
 70
     8
 71
     3
 72
    11
 73
     7
 74
     5
 42
0.0000000001
 43
0.0000000001
 44
0.0000000001
 40
0.0
 40
0.0
 40
0.0
 40
0.0
 40
0.2146183478177614
 40
0.4696810224724298
 40
0.8052848875887608
 40
1.233282542633635
 40
1.233282542633635
 40
1.233282542633635
 40
1.233282542633635
 10
-14.07524100000012
 20
126.2575879999999
 30
0.0
 10
-14.10678712289292
 20
126.1912377649913
 30
0.0
 10
-14.17582416192517
 20
126.0460337480141
 30
0.0
 10
-14.10683558555138
 20
125.7708547524619
 30
0.0
 10
-13.95462697927005
 20
125.4700768629808
 30
0.0
 10
-13.80489408931778
 20
125.2629957137601
 30
0.0
 10
-13.72096900000008
 20
125.146927
 30
0.0
 11
-14.07524100000012
 21
126.2575879999999
 31
0.0
 11
-14.14706300000011
 21
126.0553439999998
 31
0.0
 11
-14.10671400000012
 21
125.8034929999998
 31
0.0
 11
-13.9615490000001
 21
125.5009089999998
 31
0.0
 11
-13.72096900000008
 21
125.146927
 31
0.0
  0
SPLINE
  5
8D2A
330
1F
100
AcDbEntity
  8
AM_0
100
AcDbSpline
210
0.0
220
0.0
230
1.0
 70
     8
 71
     3
 72
    11
 73
     7
 74
     5
 42
0.0000000001
 43
0.0000000001
 44
0.0000000001
 40
0.0
 40
0.0
 40
0.0
 40
0.0
 40
0.7145181739501214
 40
1.36084130803244
 40
1.911022652545419
 40
2.350779522819131
 40
2.350779522819131
 40
2.350779522819131
 40
2.350779522819131
 10
-19.35353300000019
 20
130.7930339999999
 30
0.0
 10
-19.17232732741421
 20
130.6380145359019
 30
0.0
 10
-18.82721061310932
 20
130.3427709745977
 30
0.0
 10
-18.30269540553826
 20
129.982642716202
 30
0.0
 10
-17.81906404457461
 20
129.7154841268803
 30
0.0
 10
-17.49260069719491
 20
129.6560736937073
 30
0.0
 10
-17.34757700000011
 20
129.629682
 30
0.0
 11
-19.35353300000019
 21
130.7930339999999
 31
0.0
 11
-18.80208900000013
 21
130.3386709999999
 31
0.0
 11
-18.26894000000015
 21
129.9733139999999
 31
0.0
 11
-17.77596500000004
 21
129.7290289999999
 31
0.0
 11
-17.34757700000011
 21
129.629682
 31
0.0
  0
SPLINE
  5
8D2B
330
1F
100
AcDbEntity
  8
AM_0
100
AcDbSpline
210
0.0
220
0.0
230
1.0
 70
     8
 71
     3
 72
    11
 73
     7
 74
     5
 42
0.0000000001
 43
0.0000000001
 44
0.0000000001
 40
0.0
 40
0.0
 40
0.0
 40
0.0
 40
1.781054617354863
 40
3.506378295465364
 40
4.920552749393833
 40
5.969191171666241
 40
5.969191171666241
 40
5.969191171666241
 40
5.969191171666241
 10
-19.82818900000006
 20
134.7765569999999
 30
0.0
 10
-19.25985277908196
 20
134.5865094597832
 30
0.0
 10
-18.14096413291924
 20
134.2123611525786
 30
0.0
 10
-16.85272836077722
 20
133.1839218954821
 30
0.0
 10
-16.06357801541637
 20
131.8713483119364
 30
0.0
 10
-16.31929748466022
 20
131.0591787826338
 30
0.0
 10
-16.42818000000011
 20
130.7133659999999
 30
0.0
 11
-19.82818900000006
 21
134.7765569999999
 31
0.0
 11
-18.17501300000003
 21
134.1138619999999
 31
0.0
 11
-16.84084500000017
 21
133.0199069999998
 31
0.0
 11
-16.23202500000013
 21
131.7434949999999
 31
0.0
 11
-16.42818000000011
 21
130.7133659999999
 31
0.0
  0
SPLINE
  5
8D2C
330
1F
100
AcDbEntity
  8
AM_0
100
AcDbSpline
210
0.0
220
0.0
230
1.0
 70
     8
 71
     3
 72
    11
 73
     7
 74
     5
 42
0.0000000001
 43
0.0000000001
 44
0.0000000001
 40
0.0
 40
0.0
 40
0.0
 40
0.0
 40
0.1207363178004091
 40
0.2580229741986187
 40
0.4180017894774544
 40
0.6037199231020301
 40
0.6037199231020301
 40
0.6037199231020301
 40
0.6037199231020301
 10
-22.17381100000011
 20
134.7147379999998
 30
0.0
 10
-22.14685712745783
 20
134.7449839720821
 30
0.0
 10
-22.08925458924702
 20
134.8096219850377
 30
0.0
 10
-21.96465254621992
 20
134.8767366832187
 30
0.0
 10
-21.81237042443235
 20
134.9299144798457
 30
0.0
 10
-21.69855099951304
 20
134.9493758201033
 30
0.0
 10
-21.63740400000006
 20
134.9598309999999
 30
0.0
 11
-22.17381100000011
 21
134.7147379999998
 31
0.0
 11
-22.08872100000007
 21
134.8003939999998
 31
0.0
 11
-21.97032600000011
 21
134.8698939999999
 31
0.0
 11
-21.81945300000006
 21
134.9230969999999
 31
0.0
 11
-21.63740400000006
 21
134.9598309999999
 31
0.0
  0
SPLINE
  5
8D2D
330
1F
100
AcDbEntity
  8
AM_0
100
AcDbSpline
210
0.0
220
0.0
230
1.0
 70
     8
 71
     3
 72
    11
 73
     7
 74
     5
 42
0.0000000001
 43
0.0000000001
 44
0.0000000001
 40
0.0
 40
0.0
 40
0.0
 40
0.0
 40
1.513558911605338
 40
3.99214604379376
 40
6.507770778066351
 40
7.753678117367641
 40
7.753678117367641
 40
7.753678117367641
 40
7.753678117367641
 10
-16.42818000000011
 20
130.7133659999999
 30
0.0
 10
-16.93614524980397
 20
130.5412096774372
 30
0.0
 10
-18.27594870696729
 20
130.0871320880133
 30
0.0
 10
-20.00834584413093
 20
131.8321559690727
 30
0.0
 10
-21.73059397914488
 20
133.0647552500058
 30
0.0
 10
-22.06353361196683
 20
134.3042037032388
 30
0.0
 10
-22.17381100000011
 20
134.7147379999998
 30
0.0
 11
-16.42818000000011
 21
130.7133659999999
 31
0.0
 11
-17.91224800000009
 21
130.4160399999999
 31
0.0
 11
-20.01053100000012
 21
131.7353589999999
 31
0.0
 11
-21.76560900000004
 21
133.5375989999999
 31
0.0
 11
-22.17381100000011
 21
134.7147379999998
 31
0.0
  0
ELLIPSE
  5
8D2E
330
1F
100
AcDbEntity
  8
AM_0
100
AcDbEllipse
 10
-21.07925200000011
 20
135.2039239999999
 30
0.0
 11
3.804017266616
 21
0.143288961596
 31
0.0
210
0.0
220
0.0
230
0.9999999999999998
 40
0.1084186759450099
 41
2.382733006633379
 42
3.056298966713689
  0
ELLIPSE
  5
8D2F
330
1F
100
AcDbEntity
  8
AM_0
100
AcDbEllipse
 10
-9.643705000000068
 20
138.7944049999998
 30
0.0
 11
9.077921428430002
 21
8.593098541228002
 31
0.0
210
0.0
220
0.0
230
1.0
 40
0.40306016
 41
3.625988081971029
 42
4.12191071214064
  0
ELLIPSE
  5
8D30
330
1F
100
AcDbEntity
  8
AM_0
100
AcDbEllipse
 10
-17.43595800000014
 20
135.2714579999999
 30
0.0
 11
4.438020644030999
 21
0.167170474016
 31
0.0
210
0.0
220
0.0
230
1.0
 40
0.1084187763219
 41
3.46551503352552
 42
4.13902372390823
  0
ELLIPSE
  5
8D31
330
1F
100
AcDbEntity
  8
AM_0
100
AcDbEllipse
 10
-21.32796200000007
 20
134.862883
 30
0.0
 11
-2.555150043760999
 21
1.584164467601999
 31
0.0
210
0.0
220
0.0
230
1.0
 40
0.4962014217725701
 41
0.636245101584397
 42
1.08230269278924
  0
ELLIPSE
  5
8D32
330
1F
100
AcDbEntity
  8
AM_0
100
AcDbEllipse
 10
-18.81142500000009
 20
132.2043639999999
 30
0.0
 11
-2.555150043760999
 21
1.584164467601999
 31
0.0
210
0.0
220
0.0
230
1.0
 40
0.4962014217725701
 41
1.08230269278924
 42
1.665047343793309
  0
ELLIPSE
  5
8D33
330
1F
100
AcDbEntity
  8
AM_0
100
AcDbEllipse
 10
-7.443830000000161
 20
136.1630029999998
 30
0.0
 11
16.752346230429
 21
0.4186277243570003
 31
0.0
210
0.0
220
0.0
230
1.0
 40
0.09565589915869
 41
3.87803142890441
 42
4.206720239215379
  0
ELLIPSE
  5
8D34
330
1F
100
AcDbEntity
  8
AM_0
100
AcDbEllipse
 10
-7.443830000000161
 20
136.1630029999998
 30
0.0
 11
16.752346230429
 21
0.4186277243570003
 31
0.0
210
0.0
220
0.0
230
1.0
 40
0.09565589915869
 41
3.387269475739639
 42
3.69919915740975
  0
ELLIPSE
  5
8D35
330
1F
100
AcDbEntity
  8
AM_0
100
AcDbEllipse
 10
-10.09351400000014
 20
138.9621809999998
 30
0.0
 11
9.077921428430002
 21
8.593098541228002
 31
0.0
210
0.0
220
0.0
230
1.0
 40
0.40306016
 41
3.504973911650779
 42
4.120812155185199
  0
ELLIPSE
  5
8D36
330
1F
100
AcDbEntity
  8
AM_0
100
AcDbEllipse
 10
-22.98706600000014
 20
126.4785749999998
 30
0.0
 11
-2.290639612009
 21
1.949631823684
 31
0.0
210
0.0
220
0.0
230
1.0
 40
0.2334633752270999
 41
1.137178375746189
 42
2.70797645986774
  0
ELLIPSE
  5
8D37
330
1F
100
AcDbEntity
  8
AM_0
100
AcDbEllipse
 10
-14.35241900000005
 20
118.2403769999999
 30
0.0
 11
-3.435959798769999
 21
2.924448059599999
 31
0.0
210
0.0
220
0.0
230
1.0
 40
0.23346323854036
 41
0.017551380496699
 42
2.70797623664354
  0
ELLIPSE
  5
8D38
330
1F
100
AcDbEntity
  8
AM_0
100
AcDbEllipse
 10
-9.917887000000064
 20
124.3211659999999
 30
0.0
 11
-3.832724215734998
 21
2.376246174469999
 31
0.0
210
0.0
220
0.0
230
1.0
 40
0.49620175355538
 41
0.62109220314602
 42
1.543512159643229
  0
ELLIPSE
  5
8D39
330
1F
100
AcDbEntity
  8
AM_0
100
AcDbEllipse
 10
2.426973999999972
 20
126.0427069999999
 30
0.0
 11
8.063423839663
 21
9.664547013867
 31
0.0
210
0.0
220
0.0
230
1.0
 40
0.04746598979819
 41
2.155669251262539
 42
2.651588309760209
  0
LINE
  5
8D3A
330
1F
100
AcDbEntity
  8
AM_0
100
AcDbLine
 10
-10.87808900000004
 20
112.6268929999998
 30
0.0
 11
-23.68107300000019
 21
126.1522139999999
 31
0.0
  0
LINE
  5
8D3B
330
1F
100
AcDbEntity
  8
AM_0
100
AcDbLine
 10
-4.903556000000094
 20
117.6954779999998
 30
0.0
 11
-7.633998000000133
 21
120.5799709999998
 31
0.0
  0
LINE
  5
8D3C
330
1F
100
AcDbEntity
  8
AM_0
100
AcDbLine
 10
-7.633998000000133
 20
120.5799709999998
 30
0.0
 11
-11.52131400000007
 21
115.2495429999998
 31
0.0
  0
LINE
  5
8D3D
330
1F
100
AcDbEntity
  8
AM_0
100
AcDbLine
 10
-0.0056560000000445
 20
122.7766189999999
 30
0.0
 11
-6.036706000000094
 21
115.7314819999999
 31
0.0
  0
LINE
  5
8D3E
330
1F
100
AcDbEntity
  8
AM_0
100
AcDbLine
 10
-7.921440000000075
 20
113.103969
 30
0.0
 11
-1.803873000000066
 21
120.250172
 31
0.0
  0
LINE
  5
8D3F
330
1F
100
AcDbEntity
  8
AM_0
100
AcDbLine
 10
-4.903556000000094
 20
117.6954779999998
 30
0.0
 11
-9.188138000000094
 21
112.7847309999999
 31
0.0
  0
LINE
  5
8D40
330
1F
100
AcDbEntity
  8
AM_0
100
AcDbLine
 10
-11.52131400000007
 20
115.2495429999998
 30
0.0
 11
-9.188138000000094
 21
112.7847309999999
 31
0.0
  0
LINE
  5
8D41
330
1F
100
AcDbEntity
  8
AM_0
100
AcDbLine
 10
-9.16229700000008
 20
112.2104249999999
 30
0.0
 11
-10.87808900000004
 21
112.6268929999998
 31
0.0
  0
LINE
  5
8D42
330
1F
100
AcDbEntity
  8
AM_0
100
AcDbLine
 10
-10.00459900000009
 20
113.6472559999999
 30
0.0
 11
-10.87808900000004
 21
112.6268929999998
 31
0.0
  0
LINE
  5
8D43
330
1F
100
AcDbEntity
  8
AM_0
100
AcDbLine
 10
-9.16229700000008
 20
112.2104249999999
 30
0.0
 11
-6.153991000000132
 21
115.7245609999999
 31
0.0
  0
LINE
  5
8D44
330
1F
100
AcDbEntity
  8
AM_0
100
AcDbLine
 10
-8.890677000000096
 20
112.5277159999999
 30
0.0
 11
-7.921440000000075
 21
113.103969
 31
0.0
  0
LINE
  5
8D45
330
1F
100
AcDbEntity
  8
AM_0
100
AcDbLine
 10
-6.648630000000139
 20
115.6953719999999
 30
0.0
 11
-6.036706000000094
 21
115.7314819999999
 31
0.0
  0
LINE
  5
8D46
330
1F
100
AcDbEntity
  8
AM_0
100
AcDbLine
 10
-15.5235140000002
 20
134.5583079999999
 30
0.0
 11
-12.28105100000016
 21
131.1329069999999
 31
0.0
  0
LINE
  5
8D47
330
1F
100
AcDbEntity
  8
AM_0
100
AcDbLine
 10
-13.09297800000013
 20
134.6716529999998
 30
0.0
 11
-11.37718600000016
 21
134.2551839999998
 31
0.0
  0
LINE
  5
8D48
330
1F
100
AcDbEntity
  8
AM_0
100
AcDbLine
 10
-13.09297800000013
 20
134.6716529999998
 30
0.0
 11
-8.863547000000153
 21
130.2035999999999
 31
0.0
  0
LINE
  5
8D49
330
1F
100
AcDbEntity
  8
AM_0
100
AcDbLine
 10
-15.1138370000001
 20
134.5176959999998
 30
0.0
 11
-11.96858000000008
 21
131.1949859999999
 31
0.0
  0
LINE
  5
8D4A
330
1F
100
AcDbEntity
  8
AM_0
100
AcDbLine
 10
-13.72096900000008
 20
125.146927
 30
0.0
 11
-11.20110600000009
 21
122.4848949999999
 31
0.0
  0
LINE
  5
8D4B
330
1F
100
AcDbEntity
  8
AM_0
100
AcDbLine
 10
-19.35353300000019
 20
130.7930339999999
 30
0.0
 11
-23.68341200000009
 21
135.3672019999999
 31
0.0
  0
LINE
  5
8D4C
330
1F
100
AcDbEntity
  8
AM_0
100
AcDbLine
 10
-23.22121200000015
 20
134.4867459999999
 30
0.0
 11
-20.70467500000018
 21
131.8282269999999
 31
0.0
  0
LINE
  5
8D4D
330
1F
100
AcDbEntity
  8
AM_0
100
AcDbLine
 10
-19.95171400000015
 20
124.1555799999998
 30
0.0
 11
-17.49830800000018
 21
121.5637549999998
 31
0.0
  0
LINE
  5
8D4E
330
1F
100
AcDbEntity
  8
AM_0
100
AcDbLine
 10
-19.95171400000015
 20
124.1555799999998
 30
0.0
 11
-16.06439800000009
 21
129.4860079999999
 31
0.0
  0
LINE
  5
8D4F
330
1F
100
AcDbEntity
  8
AM_0
100
AcDbLine
 10
-17.34757700000011
 20
129.629682
 30
0.0
 11
-21.09966300000007
 21
124.484686
 31
0.0
  0
LINE
  5
8D50
330
1F
100
AcDbEntity
  8
AM_0
100
AcDbLine
 10
-19.92044400000009
 20
124.1984579999999
 30
0.0
 11
-21.09966300000007
 21
124.484686
 31
0.0
  0
LINE
  5
8D51
330
1F
100
AcDbEntity
  8
AM_0
100
AcDbLine
 10
-24.36253400000009
 20
126.8124379999999
 30
0.0
 11
-20.70467500000018
 21
131.8282269999999
 31
0.0
  0
LINE
  5
8D52
330
1F
100
AcDbEntity
  8
AM_0
100
AcDbLine
 10
-14.07521500000007
 20
126.2576239999999
 30
0.0
 11
-17.79983100000004
 21
121.1502959999999
 31
0.0
  0
LINE
  5
8D53
330
1F
100
AcDbEntity
  8
AM_0
100
AcDbLine
 10
-13.29620700000009
 20
126.5616379999999
 30
0.0
 11
-16.06439800000009
 21
129.4860079999999
 31
0.0
  0
LINE
  5
8D54
330
1F
100
AcDbEntity
  8
AM_0
100
AcDbLine
 10
-23.68341200000009
 20
135.3672019999999
 30
0.0
 11
-23.85021600000004
 21
135.3837379999999
 31
0.0
  0
LINE
  5
8D55
330
1F
100
AcDbEntity
  8
AM_0
100
AcDbLine
 10
-15.33329400000002
 20
134.5394509999998
 30
0.0
 11
-13.09297800000013
 21
134.6716529999998
 31
0.0
  0
LINE
  5
8D56
330
1F
100
AcDbEntity
  8
AM_0
100
AcDbLine
 10
-15.1138370000001
 20
134.5176959999998
 30
0.0
 11
-15.5235140000002
 21
134.5583079999999
 31
0.0
  0
LINE
  5
8D57
330
1F
100
AcDbEntity
  8
AM_0
100
AcDbLine
 10
-9.746788000000151
 20
129.1718469999999
 30
0.0
 11
-2.247256000000106
 21
121.2491959999999
 31
0.0
  0
LINE
  5
8D58
330
1F
100
AcDbEntity
  8
AM_0
100
AcDbLine
 10
-11.82083700000009
 20
130.970732
 30
0.0
 11
-2.4072910000001
 21
121.0260809999999
 31
0.0
  0
LINE
  5
8D59
330
1F
100
AcDbEntity
  8
AM_0
100
AcDbLine
 10
-5.997010000000045
 20
131.3353569999999
 30
0.0
 11
-0.0000000000001137
 21
125.0
 31
0.0
  0
LINE
  5
8D5A
330
1F
100
AcDbEntity
  8
AM_0
100
AcDbLine
 10
-9.746788000000151
 20
129.1718469999999
 30
0.0
 11
-7.995662000000152
 21
131.2174159999999
 31
0.0
  0
LINE
  5
8D5B
330
1F
100
AcDbEntity
  8
AM_0
100
AcDbLine
 10
-10.45730500000013
 20
134.0319039999999
 30
0.0
 11
-7.803842000000031
 21
131.2287349999999
 31
0.0
  0
LINE
  5
8D5C
330
1F
100
AcDbEntity
  8
AM_0
100
AcDbLine
 10
-8.235951000000113
 20
130.9367229999999
 30
0.0
 11
-11.37718600000016
 21
134.2551839999998
 31
0.0
  0
LINE
  5
8D5D
330
1F
100
AcDbEntity
  8
AM_0
100
AcDbLine
 10
-11.37718600000016
 20
134.2551839999998
 30
0.0
 11
-8.235951000000113
 21
130.9367229999999
 31
0.0
  0
LINE
  5
8D5E
330
1F
100
AcDbEntity
  8
AM_0
100
AcDbLine
 10
-11.50836600000013
 20
131.0328119999999
 30
0.0
 11
-9.746788000000151
 21
129.1718469999999
 31
0.0
  0
LINE
  5
8D5F
330
1F
100
AcDbEntity
  8
AM_0
100
AcDbLine
 10
-11.37718600000016
 20
134.2551839999998
 30
0.0
 11
-10.45730500000013
 21
134.0319039999999
 31
0.0
  0
LINE
  5
8D60
330
1F
100
AcDbEntity
  8
AM_0
100
AcDbLine
 10
-11.82083700000009
 20
130.970732
 30
0.0
 11
-11.50836600000013
 21
131.0328119999999
 31
0.0
  0
LINE
  5
8D61
330
1F
100
AcDbEntity
  8
AM_0
100
AcDbLine
 10
-12.28105100000016
 20
131.1329069999999
 30
0.0
 11
-11.96858000000008
 21
131.1949859999999
 31
0.0
  0
LINE
  5
8D62
330
1F
100
AcDbEntity
  8
AM_0
100
AcDbLine
 10
-11.96858000000008
 20
131.1949859999999
 30
0.0
 11
-12.42913200000009
 21
130.6569949999999
 31
0.0
  0
LINE
  5
8D63
330
1F
100
AcDbEntity
  8
AM_0
100
AcDbLine
 10
-5.997010000000045
 20
131.3353569999999
 30
0.0
 11
-7.995662000000152
 21
131.2174159999999
 31
0.0
  0
LINE
  5
8D64
330
1F
100
AcDbEntity
  8
AM_0
100
AcDbLine
 10
-1.803873000000066
 20
120.250172
 30
0.0
 11
-1.145716000000106
 21
121.4448639999999
 31
0.0
  0
LINE
  5
8D65
330
1F
100
AcDbEntity
  8
AM_0
100
AcDbLine
 10
-2.247256000000106
 20
121.2491959999999
 30
0.0
 11
-2.4072910000001
 21
121.0260809999999
 31
0.0
  0
LINE
  5
8D66
330
1F
100
AcDbEntity
  8
AM_0
100
AcDbLine
 10
-0.0056560000000445
 20
122.7766189999999
 30
0.0
 11
-0.0000000000001137
 21
125.0
 31
0.0
  0
LINE
  5
8D67
330
1F
100
AcDbEntity
  8
AM_11
100
AcDbLine
 10
-0.0000000000001137
 20
125.0
 30
0.0
 11
0.0000000000000853
 21
-124.9999999999998
 31
0.0
  0
ELLIPSE
  5
8D69
330
1F
100
AcDbEntity
  8
AM_0
100
AcDbEllipse
 10
2.426973999999972
 20
-126.0427069999999
 30
0.0
 11
8.063423839663
 21
-9.664547013867
 31
0.0
210
0.0
220
0.0
230
-1.0
 40
0.04746598979819
 41
2.155669251262539
 42
2.651588309760209
  0
ELLIPSE
  5
8D6A
330
1F
100
AcDbEntity
  8
AM_0
100
AcDbEllipse
 10
-9.917887000000064
 20
-124.3211659999999
 30
0.0
 11
-3.832724215734998
 21
-2.376246174469999
 31
0.0
210
0.0
220
0.0
230
-1.0
 40
0.49620175355538
 41
0.62109220314602
 42
1.543512159643229
  0
ELLIPSE
  5
8D6B
330
1F
100
AcDbEntity
  8
AM_0
100
AcDbEllipse
 10
-14.35241900000005
 20
-118.2403769999999
 30
0.0
 11
-3.435959798769999
 21
-2.924448059599999
 31
0.0
210
0.0
220
0.0
230
-1.0
 40
0.23346323854036
 41
0.017551380496699
 42
2.70797623664354
  0
ELLIPSE
  5
8D6C
330
1F
100
AcDbEntity
  8
AM_0
100
AcDbEllipse
 10
-22.98706600000014
 20
-126.4785749999998
 30
0.0
 11
-2.290639612009
 21
-1.949631823684
 31
0.0
210
0.0
220
0.0
230
-1.0
 40
0.2334633752270999
 41
1.137178375746189
 42
2.70797645986774
  0
ELLIPSE
  5
8D6D
330
1F
100
AcDbEntity
  8
AM_0
100
AcDbEllipse
 10
-10.09351400000014
 20
-138.9621809999998
 30
0.0
 11
9.077921428430002
 21
-8.593098541228002
 31
0.0
210
0.0
220
0.0
230
-1.0
 40
0.40306016
 41
3.504973911650779
 42
4.120812155185199
  0
ELLIPSE
  5
8D6E
330
1F
100
AcDbEntity
  8
AM_0
100
AcDbEllipse
 10
-7.443830000000161
 20
-136.1630029999998
 30
0.0
 11
16.752346230429
 21
-0.4186277243570003
 31
0.0
210
0.0
220
0.0
230
-1.0
 40
0.09565589915869
 41
3.387269475739639
 42
3.69919915740975
  0
ELLIPSE
  5
8D6F
330
1F
100
AcDbEntity
  8
AM_0
100
AcDbEllipse
 10
-7.443830000000161
 20
-136.1630029999998
 30
0.0
 11
16.752346230429
 21
-0.4186277243570003
 31
0.0
210
0.0
220
0.0
230
-1.0
 40
0.09565589915869
 41
3.87803142890441
 42
4.206720239215379
  0
ELLIPSE
  5
8D70
330
1F
100
AcDbEntity
  8
AM_0
100
AcDbEllipse
 10
-18.81142500000009
 20
-132.2043639999999
 30
0.0
 11
-2.555150043760999
 21
-1.584164467601999
 31
0.0
210
0.0
220
0.0
230
-1.0
 40
0.4962014217725701
 41
1.08230269278924
 42
1.665047343793309
  0
ELLIPSE
  5
8D71
330
1F
100
AcDbEntity
  8
AM_0
100
AcDbEllipse
 10
-21.32796200000007
 20
-134.862883
 30
0.0
 11
-2.555150043760999
 21
-1.584164467601999
 31
0.0
210
0.0
220
0.0
230
-1.0
 40
0.4962014217725701
 41
0.636245101584397
 42
1.08230269278924
  0
ELLIPSE
  5
8D72
330
1F
100
AcDbEntity
  8
AM_0
100
AcDbEllipse
 10
-17.43595800000014
 20
-135.2714579999999
 30
0.0
 11
4.438020644030999
 21
-0.167170474016
 31
0.0
210
0.0
220
0.0
230
-1.0
 40
0.1084187763219
 41
3.46551503352552
 42
4.13902372390823
  0
ELLIPSE
  5
8D73
330
1F
100
AcDbEntity
  8
AM_0
100
AcDbEllipse
 10
-9.643705000000068
 20
-138.7944049999998
 30
0.0
 11
9.077921428430002
 21
-8.593098541228002
 31
0.0
210
0.0
220
0.0
230
-1.0
 40
0.40306016
 41
3.625988081971029
 42
4.12191071214064
  0
ELLIPSE
  5
8D74
330
1F
100
AcDbEntity
  8
AM_0
100
AcDbEllipse
 10
-21.07925200000011
 20
-135.2039239999999
 30
0.0
 11
3.804017266616
 21
-0.143288961596
 31
0.0
210
0.0
220
0.0
230
-0.9999999999999998
 40
0.1084186759450099
 41
2.382733006633379
 42
3.056298966713689
  0
SPLINE
  5
8D75
330
1F
100
AcDbEntity
  8
AM_0
100
AcDbSpline
210
0.0
220
0.0
230
1.0
 70
     8
 71
     3
 72
    11
 73
     7
 74
     5
 42
0.0000000001
 43
0.0000000001
 44
0.0000000001
 40
0.0
 40
0.0
 40
0.0
 40
0.0
 40
1.513558911605338
 40
3.99214604379376
 40
6.507770778066351
 40
7.753678117367641
 40
7.753678117367641
 40
7.753678117367641
 40
7.753678117367641
 10
-16.42818000000011
 20
-130.7133659999999
 30
0.0
 10
-16.93614524980397
 20
-130.5412096774372
 30
0.0
 10
-18.27594870696729
 20
-130.0871320880133
 30
0.0
 10
-20.00834584413093
 20
-131.8321559690727
 30
0.0
 10
-21.73059397914488
 20
-133.0647552500058
 30
0.0
 10
-22.06353361196683
 20
-134.3042037032388
 30
0.0
 10
-22.17381100000011
 20
-134.7147379999998
 30
0.0
 11
-16.42818000000011
 21
-130.7133659999999
 31
0.0
 11
-17.91224800000009
 21
-130.4160399999999
 31
0.0
 11
-20.01053100000012
 21
-131.7353589999999
 31
0.0
 11
-21.76560900000004
 21
-133.5375989999999
 31
0.0
 11
-22.17381100000011
 21
-134.7147379999998
 31
0.0
  0
SPLINE
  5
8D76
330
1F
100
AcDbEntity
  8
AM_0
100
AcDbSpline
210
0.0
220
0.0
230
1.0
 70
     8
 71
     3
 72
    11
 73
     7
 74
     5
 42
0.0000000001
 43
0.0000000001
 44
0.0000000001
 40
0.0
 40
0.0
 40
0.0
 40
0.0
 40
0.1207363178004091
 40
0.2580229741986187
 40
0.4180017894774544
 40
0.6037199231020301
 40
0.6037199231020301
 40
0.6037199231020301
 40
0.6037199231020301
 10
-22.17381100000011
 20
-134.7147379999998
 30
0.0
 10
-22.14685712745783
 20
-134.7449839720821
 30
0.0
 10
-22.08925458924702
 20
-134.8096219850377
 30
0.0
 10
-21.96465254621992
 20
-134.8767366832187
 30
0.0
 10
-21.81237042443235
 20
-134.9299144798457
 30
0.0
 10
-21.69855099951304
 20
-134.9493758201033
 30
0.0
 10
-21.63740400000006
 20
-134.9598309999999
 30
0.0
 11
-22.17381100000011
 21
-134.7147379999998
 31
0.0
 11
-22.08872100000007
 21
-134.8003939999998
 31
0.0
 11
-21.97032600000011
 21
-134.8698939999999
 31
0.0
 11
-21.81945300000006
 21
-134.9230969999999
 31
0.0
 11
-21.63740400000006
 21
-134.9598309999999
 31
0.0
  0
SPLINE
  5
8D77
330
1F
100
AcDbEntity
  8
AM_0
100
AcDbSpline
210
0.0
220
0.0
230
1.0
 70
     8
 71
     3
 72
    11
 73
     7
 74
     5
 42
0.0000000001
 43
0.0000000001
 44
0.0000000001
 40
0.0
 40
0.0
 40
0.0
 40
0.0
 40
1.781054617354863
 40
3.506378295465364
 40
4.920552749393833
 40
5.969191171666241
 40
5.969191171666241
 40
5.969191171666241
 40
5.969191171666241
 10
-19.82818900000006
 20
-134.7765569999999
 30
0.0
 10
-19.25985277908196
 20
-134.5865094597832
 30
0.0
 10
-18.14096413291924
 20
-134.2123611525786
 30
0.0
 10
-16.85272836077722
 20
-133.1839218954821
 30
0.0
 10
-16.06357801541637
 20
-131.8713483119364
 30
0.0
 10
-16.31929748466022
 20
-131.0591787826338
 30
0.0
 10
-16.42818000000011
 20
-130.7133659999999
 30
0.0
 11
-19.82818900000006
 21
-134.7765569999999
 31
0.0
 11
-18.17501300000003
 21
-134.1138619999999
 31
0.0
 11
-16.84084500000017
 21
-133.0199069999998
 31
0.0
 11
-16.23202500000013
 21
-131.7434949999999
 31
0.0
 11
-16.42818000000011
 21
-130.7133659999999
 31
0.0
  0
SPLINE
  5
8D78
330
1F
100
AcDbEntity
  8
AM_0
100
AcDbSpline
210
0.0
220
0.0
230
1.0
 70
     8
 71
     3
 72
    11
 73
     7
 74
     5
 42
0.0000000001
 43
0.0000000001
 44
0.0000000001
 40
0.0
 40
0.0
 40
0.0
 40
0.0
 40
0.7145181739501214
 40
1.36084130803244
 40
1.911022652545419
 40
2.350779522819131
 40
2.350779522819131
 40
2.350779522819131
 40
2.350779522819131
 10
-19.35353300000019
 20
-130.7930339999999
 30
0.0
 10
-19.17232732741421
 20
-130.6380145359019
 30
0.0
 10
-18.82721061310932
 20
-130.3427709745977
 30
0.0
 10
-18.30269540553826
 20
-129.982642716202
 30
0.0
 10
-17.81906404457461
 20
-129.7154841268803
 30
0.0
 10
-17.49260069719491
 20
-129.6560736937073
 30
0.0
 10
-17.34757700000011
 20
-129.629682
 30
0.0
 11
-19.35353300000019
 21
-130.7930339999999
 31
0.0
 11
-18.80208900000013
 21
-130.3386709999999
 31
0.0
 11
-18.26894000000015
 21
-129.9733139999999
 31
0.0
 11
-17.77596500000004
 21
-129.7290289999999
 31
0.0
 11
-17.34757700000011
 21
-129.629682
 31
0.0
  0
SPLINE
  5
8D79
330
1F
100
AcDbEntity
  8
AM_0
100
AcDbSpline
210
0.0
220
0.0
230
1.0
 70
     8
 71
     3
 72
    11
 73
     7
 74
     5
 42
0.0000000001
 43
0.0000000001
 44
0.0000000001
 40
0.0
 40
0.0
 40
0.0
 40
0.0
 40
0.2146183478177614
 40
0.4696810224724298
 40
0.8052848875887608
 40
1.233282542633635
 40
1.233282542633635
 40
1.233282542633635
 40
1.233282542633635
 10
-14.07524100000012
 20
-126.2575879999999
 30
0.0
 10
-14.10678712289292
 20
-126.1912377649913
 30
0.0
 10
-14.17582416192517
 20
-126.0460337480141
 30
0.0
 10
-14.10683558555138
 20
-125.7708547524619
 30
0.0
 10
-13.95462697927005
 20
-125.4700768629808
 30
0.0
 10
-13.80489408931778
 20
-125.2629957137601
 30
0.0
 10
-13.72096900000008
 20
-125.146927
 30
0.0
 11
-14.07524100000012
 21
-126.2575879999999
 31
0.0
 11
-14.14706300000011
 21
-126.0553439999998
 31
0.0
 11
-14.10671400000012
 21
-125.8034929999998
 31
0.0
 11
-13.9615490000001
 21
-125.5009089999998
 31
0.0
 11
-13.72096900000008
 21
-125.146927
 31
0.0
  0
SPLINE
  5
8D7A
330
1F
100
AcDbEntity
  8
AM_0
100
AcDbSpline
210
0.0
220
0.0
230
1.0
 70
     8
 71
     3
 72
    11
 73
     7
 74
     5
 42
0.0000000001
 43
0.0000000001
 44
0.0000000001
 40
0.0
 40
0.0
 40
0.0
 40
0.0
 40
1.04468105891218
 40
1.941535364311431
 40
2.612928259511313
 40
3.043453414123564
 40
3.043453414123564
 40
3.043453414123564
 40
3.043453414123564
 10
-10.34738000000015
 20
-125.5229919999999
 30
0.0
 10
-10.68157184145709
 20
-125.6276360549579
 30
0.0
 10
-11.30266597647341
 20
-125.8221165919912
 30
0.0
 10
-12.15996442972302
 20
-125.9139164449543
 30
0.0
 10
-12.85805737414944
 20
-125.9348706959097
 30
0.0
 10
-13.16688243205384
 20
-125.7232495070819
 30
0.0
 10
-13.28754200000003
 20
-125.640568
 30
0.0
 11
-10.34738000000015
 21
-125.5229919999999
 31
0.0
 11
-11.35456500000009
 21
-125.8003669999999
 31
0.0
 11
-12.24479200000018
 21
-125.9091949999999
 31
0.0
 11
-12.91395700000009
 21
-125.8545449999999
 31
0.0
 11
-13.28754200000003
 21
-125.640568
 31
0.0
  0
SPLINE
  5
8D7B
330
1F
100
AcDbEntity
  8
AM_0
100
AcDbSpline
210
0.0
220
0.0
230
1.0
 70
     8
 71
     3
 72
    11
 73
     7
 74
     5
 42
0.0000000001
 43
0.0000000001
 44
0.0000000001
 40
0.0
 40
0.0
 40
0.0
 40
0.0
 40
0.2757246160955127
 40
0.5070860214551301
 40
0.6974850349662192
 40
0.8565604683587228
 40
0.8565604683587228
 40
0.8565604683587228
 40
0.8565604683587228
 10
-13.29620700000009
 20
-126.5616379999999
 30
0.0
 10
-13.38757462432717
 20
-126.5500172203747
 30
0.0
 10
-13.5556091138331
 20
-126.5286454074777
 30
0.0
 10
-13.77907028851541
 20
-126.4644794429887
 30
0.0
 10
-13.95857417953498
 20
-126.3824960221784
 30
0.0
 10
-14.03874738207377
 20
-126.2966594825272
 30
0.0
 10
-14.07524100000012
 20
-126.2575879999999
 30
0.0
 11
-13.29620700000009
 21
-126.5616379999999
 31
0.0
 11
-13.56866200000013
 21
-126.5193019999999
 31
0.0
 11
-13.7907550000001
 21
-126.454473
 31
0.0
 11
-13.95999400000005
 21
-126.3672379999999
 31
0.0
 11
-14.07524100000012
 21
-126.2575879999999
 31
0.0
  0
SPLINE
  5
8D7C
330
1F
100
AcDbEntity
  8
AM_0
100
AcDbSpline
210
0.0
220
0.0
230
1.0
 70
     8
 71
     3
 72
    11
 73
     7
 74
     5
 42
0.0000000001
 43
0.0000000001
 44
0.0000000001
 40
0.0
 40
0.0
 40
0.0
 40
0.0
 40
1.246889020983929
 40
3.762516581837279
 40
6.241279187984521
 40
7.756416322911885
 40
7.756416322911885
 40
7.756416322911885
 40
7.756416322911885
 10
-13.28754200000003
 20
-125.640568
 30
0.0
 10
-13.17766126537978
 20
-125.229543271963
 30
0.0
 10
-12.84609359650506
 20
-123.989266608396
 30
0.0
 10
-11.12299635797105
 20
-122.7563834640579
 30
0.0
 10
-9.38861604663219
 20
-121.0125151690414
 30
0.0
 10
-8.048661831852369
 20
-121.4684103216917
 30
0.0
 10
-7.540333000000146
 20
-121.6413599999999
 30
0.0
 11
-13.28754200000003
 21
-125.640568
 31
0.0
 11
-12.88023300000008
 21
-124.4620809999998
 31
0.0
 11
-11.12503800000013
 21
-122.6599509999998
 31
0.0
 11
-9.025623000000109
 21
-121.3421039999999
 31
0.0
 11
-7.540333000000146
 21
-121.6413599999999
 31
0.0
  0
SPLINE
  5
8D7D
330
1F
100
AcDbEntity
  8
AM_0
100
AcDbSpline
210
0.0
220
0.0
230
1.0
 70
     8
 71
     3
 72
    11
 73
     7
 74
     5
 42
0.0000000001
 43
0.0000000001
 44
0.0000000001
 40
0.0
 40
0.0
 40
0.0
 40
0.0
 40
1.229155053773598
 40
2.359789102299002
 40
3.335199407222895
 40
4.139374811623017
 40
4.139374811623017
 40
4.139374811623017
 40
4.139374811623017
 10
-11.20110600000009
 20
-122.4848949999999
 30
0.0
 10
-10.89390440179957
 20
-122.2126731205553
 30
0.0
 10
-10.30412447011654
 20
-121.6900488816129
 30
0.0
 10
-9.388153712938098
 20
-121.0641538082592
 30
0.0
 10
-8.502824087813234
 20
-120.6177005581536
 30
0.0
 10
-7.904413313091294
 20
-120.5917140293864
 30
0.0
 10
-7.633998000000133
 20
-120.5799709999998
 30
0.0
 11
-11.20110600000009
 21
-122.4848949999999
 31
0.0
 11
-10.26368200000001
 21
-121.6898739999999
 31
0.0
 11
-9.327571000000034
 21
-121.0558159999999
 31
0.0
 11
-8.43359700000019
 21
-120.6656419999999
 31
0.0
 11
-7.633998000000133
 21
-120.5799709999998
 31
0.0
  0
SPLINE
  5
8D7E
330
1F
100
AcDbEntity
  8
AM_0
100
AcDbSpline
210
0.0
220
0.0
230
1.0
 70
     8
 71
     3
 72
    11
 73
     7
 74
     5
 42
0.0000000001
 43
0.0000000001
 44
0.0000000001
 40
0.0
 40
0.0
 40
0.0
 40
0.0
 40
0.9468400005941315
 40
2.192326962004693
 40
3.71928700721647
 40
5.361660633557678
 40
5.361660633557678
 40
5.361660633557678
 40
5.361660633557678
 10
-7.540333000000146
 20
-121.6413599999999
 30
0.0
 10
-7.4325446203004
 20
-121.9491929552308
 30
0.0
 10
-7.182969854914199
 20
-122.661953809359
 30
0.0
 10
-7.783167120362234
 20
-123.8672624814477
 30
0.0
 10
-8.857603625743308
 20
-124.8887415789449
 30
0.0
 10
-9.83887661965188
 20
-125.3065041507717
 30
0.0
 10
-10.34738000000015
 20
-125.5229919999999
 30
0.0
 11
-7.540333000000146
 21
-121.6413599999999
 31
0.0
 11
-7.329511000000138
 21
-122.564431
 31
0.0
 11
-7.783623000000034
 21
-123.7241809999999
 31
0.0
 11
-8.878250000000093
 21
-124.7887929999999
 31
0.0
 11
-10.34738000000015
 21
-125.5229919999999
 31
0.0
  0
ELLIPSE
  5
8D7F
330
1F
100
AcDbEntity
  8
AM_0
100
AcDbEllipse
 10
-25.50360300000011
 20
-129.1370939999999
 30
0.0
 11
-2.290639612009
 21
-1.949631823684
 31
0.0
210
0.0
220
0.0
230
-1.0
 40
0.2334633752270999
 41
0.017551370222918
 42
1.137178375746189
  0
LINE
  5
8D80
330
1F
100
AcDbEntity
  8
AM_0
100
AcDbLine
 10
-15.33329400000002
 20
-134.5394509999998
 30
0.0
 11
-13.09297800000013
 21
-134.6716529999998
 31
0.0
  0
LINE
  5
8D81
330
1F
100
AcDbEntity
  8
AM_0
100
AcDbLine
 10
-13.29620700000009
 20
-126.5616379999999
 30
0.0
 11
-16.06439800000009
 21
-129.4860079999999
 31
0.0
  0
LINE
  5
8D82
330
1F
100
AcDbEntity
  8
AM_0
100
AcDbLine
 10
-15.1138370000001
 20
-134.5176959999998
 30
0.0
 11
-11.96858000000008
 21
-131.1949859999999
 31
0.0
  0
LINE
  5
8D83
330
1F
100
AcDbEntity
  8
AM_0
100
AcDbLine
 10
-15.5235140000002
 20
-134.5583079999999
 30
0.0
 11
-12.28105100000016
 21
-131.1329069999999
 31
0.0
  0
LINE
  5
8D84
330
1F
100
AcDbEntity
  8
AM_0
100
AcDbLine
 10
-10.87808900000004
 20
-112.6268929999998
 30
0.0
 11
-23.68107300000019
 21
-126.1522139999999
 31
0.0
  0
LINE
  5
8D85
330
1F
100
AcDbEntity
  8
AM_0
100
AcDbLine
 10
-24.87076500000012
 20
-135.0962879999999
 30
0.0
 11
-27.8018780000001
 21
-131.0770399999998
 31
0.0
  0
LINE
  5
8D86
330
1F
100
AcDbEntity
  8
AM_0
100
AcDbLine
 10
-14.07521500000007
 20
-126.2576239999999
 30
0.0
 11
-17.79983100000004
 21
-121.1502959999999
 31
0.0
  0
LINE
  5
8D87
330
1F
100
AcDbEntity
  8
AM_0
100
AcDbLine
 10
-17.34757700000011
 20
-129.629682
 30
0.0
 11
-21.09966300000007
 21
-124.484686
 31
0.0
  0
LINE
  5
8D88
330
1F
100
AcDbEntity
  8
AM_0
100
AcDbLine
 10
-19.95171400000015
 20
-124.1555799999998
 30
0.0
 11
-16.06439800000009
 21
-129.4860079999999
 31
0.0
  0
LINE
  5
8D89
330
1F
100
AcDbEntity
  8
AM_0
100
AcDbLine
 10
-19.92044400000009
 20
-124.1984579999999
 30
0.0
 11
-21.09966300000007
 21
-124.484686
 31
0.0
  0
LINE
  5
8D8A
330
1F
100
AcDbEntity
  8
AM_0
100
AcDbLine
 10
-19.95171400000015
 20
-124.1555799999998
 30
0.0
 11
-17.49830800000018
 21
-121.5637549999998
 31
0.0
  0
LINE
  5
8D8B
330
1F
100
AcDbEntity
  8
AM_0
100
AcDbLine
 10
-24.36253400000009
 20
-126.8124379999999
 30
0.0
 11
-20.70467500000018
 21
-131.8282269999999
 31
0.0
  0
LINE
  5
8D8C
330
1F
100
AcDbEntity
  8
AM_0
100
AcDbLine
 10
-23.22121200000015
 20
-134.4867459999999
 30
0.0
 11
-20.70467500000018
 21
-131.8282269999999
 31
0.0
  0
LINE
  5
8D8D
330
1F
100
AcDbEntity
  8
AM_0
100
AcDbLine
 10
-19.35353300000019
 20
-130.7930339999999
 30
0.0
 11
-23.68341200000009
 21
-135.3672019999999
 31
0.0
  0
LINE
  5
8D8E
330
1F
100
AcDbEntity
  8
AM_0
100
AcDbLine
 10
-23.22121200000015
 20
-134.4867459999999
 30
0.0
 11
-26.87907100000006
 21
-129.4709569999999
 31
0.0
  0
LINE
  5
8D8F
330
1F
100
AcDbEntity
  8
AM_0
100
AcDbLine
 10
-26.87907100000006
 20
-129.4709569999999
 30
0.0
 11
-24.36253400000009
 21
-126.8124379999999
 31
0.0
  0
LINE
  5
8D90
330
1F
100
AcDbEntity
  8
AM_0
100
AcDbLine
 10
-23.68341200000009
 20
-135.3672019999999
 30
0.0
 11
-23.85021600000004
 21
-135.3837379999999
 31
0.0
  0
LINE
  5
8D91
330
1F
100
AcDbEntity
  8
AM_0
100
AcDbLine
 10
-15.1138370000001
 20
-134.5176959999998
 30
0.0
 11
-15.5235140000002
 21
-134.5583079999999
 31
0.0
  0
LINE
  5
8D92
330
1F
100
AcDbEntity
  8
AM_0
100
AcDbLine
 10
-5.997010000000045
 20
-131.3353569999999
 30
0.0
 11
-0.0000000000001137
 21
-125.0
 31
0.0
  0
LINE
  5
8D93
330
1F
100
AcDbEntity
  8
AM_0
100
AcDbLine
 10
-0.0056560000000445
 20
-122.7766189999999
 30
0.0
 11
-6.036706000000094
 21
-115.7314819999999
 31
0.0
  0
LINE
  5
8D94
330
1F
100
AcDbEntity
  8
AM_0
100
AcDbLine
 10
-11.82083700000009
 20
-130.970732
 30
0.0
 11
-2.4072910000001
 21
-121.0260809999999
 31
0.0
  0
LINE
  5
8D95
330
1F
100
AcDbEntity
  8
AM_0
100
AcDbLine
 10
-9.746788000000151
 20
-129.1718469999999
 30
0.0
 11
-2.247256000000106
 21
-121.2491959999999
 31
0.0
  0
LINE
  5
8D96
330
1F
100
AcDbEntity
  8
AM_0
100
AcDbLine
 10
-9.16229700000008
 20
-112.2104249999999
 30
0.0
 11
-6.153991000000132
 21
-115.7245609999999
 31
0.0
  0
LINE
  5
8D97
330
1F
100
AcDbEntity
  8
AM_0
100
AcDbLine
 10
-4.903556000000094
 20
-117.6954779999998
 30
0.0
 11
-9.188138000000094
 21
-112.7847309999999
 31
0.0
  0
LINE
  5
8D98
330
1F
100
AcDbEntity
  8
AM_0
100
AcDbLine
 10
-7.921440000000075
 20
-113.103969
 30
0.0
 11
-1.803873000000066
 21
-120.250172
 31
0.0
  0
LINE
  5
8D99
330
1F
100
AcDbEntity
  8
AM_0
100
AcDbLine
 10
-4.903556000000094
 20
-117.6954779999998
 30
0.0
 11
-7.633998000000133
 21
-120.5799709999998
 31
0.0
  0
LINE
  5
8D9A
330
1F
100
AcDbEntity
  8
AM_0
100
AcDbLine
 10
-7.633998000000133
 20
-120.5799709999998
 30
0.0
 11
-11.52131400000007
 21
-115.2495429999998
 31
0.0
  0
LINE
  5
8D9B
330
1F
100
AcDbEntity
  8
AM_0
100
AcDbLine
 10
-10.00459900000009
 20
-113.6472559999999
 30
0.0
 11
-10.87808900000004
 21
-112.6268929999998
 31
0.0
  0
LINE
  5
8D9C
330
1F
100
AcDbEntity
  8
AM_0
100
AcDbLine
 10
-9.16229700000008
 20
-112.2104249999999
 30
0.0
 11
-10.87808900000004
 21
-112.6268929999998
 31
0.0
  0
LINE
  5
8D9D
330
1F
100
AcDbEntity
  8
AM_0
100
AcDbLine
 10
-11.52131400000007
 20
-115.2495429999998
 30
0.0
 11
-9.188138000000094
 21
-112.7847309999999
 31
0.0
  0
LINE
  5
8D9E
330
1F
100
AcDbEntity
  8
AM_0
100
AcDbLine
 10
-8.890677000000096
 20
-112.5277159999999
 30
0.0
 11
-7.921440000000075
 21
-113.103969
 31
0.0
  0
LINE
  5
8D9F
330
1F
100
AcDbEntity
  8
AM_0
100
AcDbLine
 10
-13.72096900000008
 20
-125.146927
 30
0.0
 11
-11.20110600000009
 21
-122.4848949999999
 31
0.0
  0
LINE
  5
8DA0
330
1F
100
AcDbEntity
  8
AM_0
100
AcDbLine
 10
-6.648630000000139
 20
-115.6953719999999
 30
0.0
 11
-6.036706000000094
 21
-115.7314819999999
 31
0.0
  0
LINE
  5
8DA1
330
1F
100
AcDbEntity
  8
AM_0
100
AcDbLine
 10
-1.803873000000066
 20
-120.250172
 30
0.0
 11
-1.145716000000106
 21
-121.4448639999999
 31
0.0
  0
LINE
  5
8DA2
330
1F
100
AcDbEntity
  8
AM_0
100
AcDbLine
 10
-2.247256000000106
 20
-121.2491959999999
 30
0.0
 11
-2.4072910000001
 21
-121.0260809999999
 31
0.0
  0
LINE
  5
8DA3
330
1F
100
AcDbEntity
  8
AM_0
100
AcDbLine
 10
-5.997010000000045
 20
-131.3353569999999
 30
0.0
 11
-7.995662000000152
 21
-131.2174159999999
 31
0.0
  0
LINE
  5
8DA4
330
1F
100
AcDbEntity
  8
AM_0
100
AcDbLine
 10
-11.37718600000016
 20
-134.2551839999998
 30
0.0
 11
-8.235951000000113
 21
-130.9367229999999
 31
0.0
  0
LINE
  5
8DA5
330
1F
100
AcDbEntity
  8
AM_0
100
AcDbLine
 10
-8.235951000000113
 20
-130.9367229999999
 30
0.0
 11
-11.37718600000016
 21
-134.2551839999998
 31
0.0
  0
LINE
  5
8DA6
330
1F
100
AcDbEntity
  8
AM_0
100
AcDbLine
 10
-10.45730500000013
 20
-134.0319039999999
 30
0.0
 11
-7.803842000000031
 21
-131.2287349999999
 31
0.0
  0
LINE
  5
8DA7
330
1F
100
AcDbEntity
  8
AM_0
100
AcDbLine
 10
-13.09297800000013
 20
-134.6716529999998
 30
0.0
 11
-8.863547000000153
 21
-130.2035999999999
 31
0.0
  0
LINE
  5
8DA8
330
1F
100
AcDbEntity
  8
AM_0
100
AcDbLine
 10
-11.50836600000013
 20
-131.0328119999999
 30
0.0
 11
-9.746788000000151
 21
-129.1718469999999
 31
0.0
  0
LINE
  5
8DA9
330
1F
100
AcDbEntity
  8
AM_0
100
AcDbLine
 10
-11.96858000000008
 20
-131.1949859999999
 30
0.0
 11
-12.42913200000009
 21
-130.6569949999999
 31
0.0
  0
LINE
  5
8DAA
330
1F
100
AcDbEntity
  8
AM_0
100
AcDbLine
 10
-12.28105100000016
 20
-131.1329069999999
 30
0.0
 11
-11.96858000000008
 21
-131.1949859999999
 31
0.0
  0
LINE
  5
8DAB
330
1F
100
AcDbEntity
  8
AM_0
100
AcDbLine
 10
-11.82083700000009
 20
-130.970732
 30
0.0
 11
-11.50836600000013
 21
-131.0328119999999
 31
0.0
  0
LINE
  5
8DAC
330
1F
100
AcDbEntity
  8
AM_0
100
AcDbLine
 10
-9.746788000000151
 20
-129.1718469999999
 30
0.0
 11
-7.995662000000152
 21
-131.2174159999999
 31
0.0
  0
LINE
  5
8DAD
330
1F
100
AcDbEntity
  8
AM_0
100
AcDbLine
 10
-11.37718600000016
 20
-134.2551839999998
 30
0.0
 11
-10.45730500000013
 21
-134.0319039999999
 31
0.0
  0
LINE
  5
8DAE
330
1F
100
AcDbEntity
  8
AM_0
100
AcDbLine
 10
-13.09297800000013
 20
-134.6716529999998
 30
0.0
 11
-11.37718600000016
 21
-134.2551839999998
 31
0.0
  0
LINE
  5
8DAF
330
1F
100
AcDbEntity
  8
AM_0
100
AcDbLine
 10
-0.0056560000000445
 20
-122.7766189999999
 30
0.0
 11
-0.0000000000001137
 21
-125.0
 31
0.0
  0
DIMENSION
  5
8DBA
330
1F
100
AcDbEntity
  8
AM_5
100
AcDbDimension
  2
*D12
 10
17.9418998277342
 20
-124.9999999999998
 30
0.0
 11
14.84189982773423
 21
0.0000000000001698
 31
0.0
 70
    32
  1
%%c<>
  3
AM_JIS
100
AcDbAlignedDimension
 13
-0.0000000000001137
 23
125.0000000000001
 33
0.0
 14
0.0000000000000853
 24
-124.9999999999998
 34
0.0
 50
90.0
100
AcDbRotatedDimension
1001
GENIUS_GENDTOL_13
1000

1000
h7
1000

1040
0.0
  0
DIMENSION
  5
8DEB
330
1F
100
AcDbEntity
  8
AM_5
100
AcDbDimension
  2
*D13
 10
27.9418998277342
 20
-135.0000000000001
 30
0.0
 11
24.84189982773423
 21
-0.0000000000000013
 31
0.0
 70
    32
  1
%%c<>
  3
AM_JIS
100
AcDbAlignedDimension
 13
-11.52219147087751
 23
135.0000000000001
 33
0.0
 14
-11.52219147087751
 24
-135.0000000000001
 34
0.0
 50
90.0
100
AcDbRotatedDimension
1001
GENIUS_GENDTOL_13
1000

1000
h7
1000

1040
0.0
  0
LINE
  5
8ECB
330
1F
100
AcDbEntity
  8
AM_0
100
AcDbLine
 10
-30.49009518031553
 20
-135.0
 30
0.0
 11
-24.94098485419765
 21
-135.0
 31
0.0
  0
LINE
  5
8ECC
330
1F
100
AcDbEntity
  8
AM_0
100
AcDbLine
 10
-21.93725331627225
 20
-135.0
 30
0.0
 11
-11.52219147087751
 21
-135.0
 31
0.0
  0
LINE
  5
8ECD
330
1F
100
AcDbEntity
  8
AM_0
100
AcDbLine
 10
-11.52219147087751
 20
-135.0
 30
0.0
 11
-10.71668822505649
 21
-134.0948633246197
 31
0.0
  0
LINE
  5
8ECE
330
1F
100
AcDbEntity
  8
AM_0
100
AcDbLine
 10
-23.00000000000025
 20
-97.74026083454316
 30
0.0
 11
-9.889105150972785
 21
-112.3868405194913
 31
0.0
  0
LINE
  5
8ECF
330
1F
100
AcDbEntity
  8
AM_0
100
AcDbLine
 10
-2.000000000000142
 20
-120.0210672994251
 30
0.0
 11
-2.000000000000142
 21
0.0
 31
0.0
  0
LINE
  5
8ED0
330
1F
100
AcDbEntity
  8
AM_0
100
AcDbLine
 10
-2.000000000000142
 20
0.0
 30
0.0
 11
-2.000000000000142
 21
120.0210672994251
 31
0.0
  0
LINE
  5
8ED1
330
1F
100
AcDbEntity
  8
AM_0
100
AcDbLine
 10
-23.00000000000025
 20
97.74026083454302
 30
0.0
 11
-9.889105150972781
 21
112.3868405194914
 31
0.0
  0
LINE
  5
8ED3
330
1F
100
AcDbEntity
  8
AM_0
100
AcDbLine
 10
-11.52219147087751
 20
135.0000000000001
 30
0.0
 11
-10.71668822505648
 21
134.0948633246197
 31
0.0
  0
LINE
  5
8ED4
330
1F
100
AcDbEntity
  8
AM_0
100
AcDbLine
 10
-30.49009518031567
 20
135.0
 30
0.0
 11
-24.94098485419765
 21
135.0
 31
0.0
  0
LINE
  5
8ED5
330
1F
100
AcDbEntity
  8
AM_0
100
AcDbLine
 10
-21.93725331627228
 20
135.0
 30
0.0
 11
-11.52219147087751
 21
135.0000000000001
 31
0.0
  0
DIMENSION
  5
8EFA
330
1F
100
AcDbEntity
  8
AM_5
100
AcDbDimension
  2
*D14
 10
-0.0000000000001137
 20
-125.0
 30
0.0
 11
-10.9867151449274
 21
-152.5884598521525
 31
0.0
 70
    34
  1
45%%d
  3
AM_JIS$2
100
AcDb2LineAngularDimension
 13
-0.0000000000001137
 23
125.0
 33
0.0
 14
0.0000000000000853
 24
-124.9999999999998
 34
0.0
 15
-5.997010000000045
 25
-131.3353569999999
 35
0.0
 16
-15.87575469875622
 26
-153.696940717888
 36
0.0
1001
ACAD
1000
DSTYLE
1002
{
1070
   179
1070
     3
1002
}
1001
GENIUS_GENDTOL_13
1000

1000
h7
1000

1040
0.0
  0
ARC
  5
8FF6
330
1F
100
AcDbEntity
  8
AM_0
100
AcDbCircle
 10
-30.49009518031559
 20
120.0
 30
0.0
 40
15.0
100
AcDbArc
 50
90.0000000000003
 51
165.0
1001
GENIUS_GENODEF_13
1002
{
1000
HIER
1070
     0
1002
}
1002
{
1000
MANEDIT
1070
     0
1002
}
1002
{
1000
NOSEL
1070
     0
1002
}
1002
{
1000
BEHIND
1070
     0
1002
}
1002
{
1000
REACTOR
1002
}
1001
GENIUS_GENOBJ-N-FIL_13
1002
{
1000
OWNER
1000
GEN
1002
}
  0
ARC
  5
8FF9
330
1F
100
AcDbEntity
  8
AM_0
100
AcDbCircle
 10
-59.4290025752533
 20
96.99999999999986
 30
0.0
 40
7.0
100
AcDbArc
 50
269.999999999988
 51
345.0
1001
GENIUS_GENODEF_13
1002
{
1000
HIER
1070
     0
1002
}
1002
{
1000
MANEDIT
1070
     0
1002
}
1002
{
1000
NOSEL
1070
     0
1002
}
1002
{
1000
BEHIND
1070
     0
1002
}
1002
{
1000
REACTOR
1002
}
1001
GENIUS_GENOBJ-N-FIL_13
1002
{
1000
OWNER
1000
GEN
1002
}
  0
ARC
  5
8FFC
330
1F
100
AcDbEntity
  8
AM_0
100
AcDbCircle
 10
-59.69999999999991
 20
87.99999999999988
 30
0.0
 40
2.0
100
AcDbArc
 50
89.99999999998797
 51
180.0
1001
GENIUS_GENODEF_13
1002
{
1000
HIER
1070
     0
1002
}
1002
{
1000
MANEDIT
1070
     0
1002
}
1002
{
1000
NOSEL
1070
     0
1002
}
1002
{
1000
BEHIND
1070
     0
1002
}
1002
{
1000
REACTOR
1002
}
1001
GENIUS_GENOBJ-N-FIL_13
1002
{
1000
OWNER
1000
GEN
1002
}
  0
ARC
  5
8FFF
330
1F
100
AcDbEntity
  8
AM_0
100
AcDbCircle
 10
-59.99999999999968
 20
26.81250000000003
 30
0.0
 40
3.0
100
AcDbArc
 50
180.0000000000002
 51
269.9999999999997
1001
GENIUS_GENODEF_13
1002
{
1000
HIER
1070
     0
1002
}
1002
{
1000
MANEDIT
1070
     0
1002
}
1002
{
1000
NOSEL
1070
     0
1002
}
1002
{
1000
BEHIND
1070
     0
1002
}
1002
{
1000
REACTOR
1002
}
1001
GENIUS_GENOBJ-N-FIL_13
1002
{
1000
OWNER
1000
GEN
1002
}
  0
ARC
  5
9002
330
1F
100
AcDbEntity
  8
AM_0
100
AcDbCircle
 10
-29.99999999999976
 20
25.51249999999999
 30
0.0
 40
2.0
100
AcDbArc
 50
270.0
 51
0.0000000000001527
1001
GENIUS_GENODEF_13
1002
{
1000
HIER
1070
     0
1002
}
1002
{
1000
MANEDIT
1070
     0
1002
}
1002
{
1000
NOSEL
1070
     0
1002
}
1002
{
1000
BEHIND
1070
     0
1002
}
1002
{
1000
REACTOR
1002
}
1001
GENIUS_GENOBJ-N-FIL_13
1002
{
1000
OWNER
1000
GEN
1002
}
  0
LINE
  5
9005
330
1F
100
AcDbEntity
  8
AM_0
100
AcDbLine
 10
-61.99999999999962
 20
12.69999999999996
 30
0.0
 11
-62.99999999999963
 21
13.69999999999995
 31
0.0
1001
GENIUS_GENFIL_13
1070
     0
1040
1.0
1040
1.0
1040
20.0
1040
0.0
1002
{
1002
}
1001
GENIUS_GENODEF_13
1002
{
1000
HIER
1070
     0
1002
}
1002
{
1000
MANEDIT
1070
     0
1002
}
1002
{
1000
NOSEL
1070
     0
1002
}
1002
{
1000
BEHIND
1070
     0
1002
}
1002
{
1000
REACTOR
1002
}
1001
GENIUS_GENOBJ-N-CHA_13
1002
{
1000
OWNER
1000
GEN
1002
}
  0
ARC
  5
900A
330
1F
100
AcDbEntity
  8
AM_0
100
AcDbCircle
 10
-49.99999999999957
 20
11.69999999999998
 30
0.0
 40
1.0
100
AcDbArc
 50
359.9999999999994
 51
90.0000000000001
1001
GENIUS_GENODEF_13
1002
{
1000
HIER
1070
     0
1002
}
1002
{
1000
MANEDIT
1070
     0
1002
}
1002
{
1000
NOSEL
1070
     0
1002
}
1002
{
1000
BEHIND
1070
     0
1002
}
1002
{
1000
REACTOR
1002
}
1001
GENIUS_GENOBJ-N-FIL_13
1002
{
1000
OWNER
1000
GEN
1002
}
  0
ARC
  5
900C
330
1F
100
AcDbEntity
  8
AM_0
100
AcDbCircle
 10
-30.49009518031559
 20
-120.0000000000001
 30
0.0
 40
15.0
100
AcDbArc
 50
194.9999999999999
 51
269.9999999999997
1001
GENIUS_GENODEF_13
1002
{
1000
HIER
1070
     0
1002
}
1002
{
1000
MANEDIT
1070
     0
1002
}
1002
{
1000
NOSEL
1070
     0
1002
}
1002
{
1000
BEHIND
1070
     0
1002
}
1002
{
1000
REACTOR
1002
}
1001
GENIUS_GENOBJ-N-FIL_13
1002
{
1000
OWNER
1000
GEN
1002
}
  0
ARC
  5
900D
330
1F
100
AcDbEntity
  8
AM_0
100
AcDbCircle
 10
-59.4290025752533
 20
-96.99999999999992
 30
0.0
 40
7.0
100
AcDbArc
 50
14.99999999999999
 51
90.00000000001204
1001
GENIUS_GENODEF_13
1002
{
1000
HIER
1070
     0
1002
}
1002
{
1000
MANEDIT
1070
     0
1002
}
1002
{
1000
NOSEL
1070
     0
1002
}
1002
{
1000
BEHIND
1070
     0
1002
}
1002
{
1000
REACTOR
1002
}
1001
GENIUS_GENOBJ-N-FIL_13
1002
{
1000
OWNER
1000
GEN
1002
}
  0
ARC
  5
900E
330
1F
100
AcDbEntity
  8
AM_0
100
AcDbCircle
 10
-59.69999999999991
 20
-87.99999999999995
 30
0.0
 40
2.0
100
AcDbArc
 50
180.0
 51
270.000000000012
1001
GENIUS_GENODEF_13
1002
{
1000
HIER
1070
     0
1002
}
1002
{
1000
MANEDIT
1070
     0
1002
}
1002
{
1000
NOSEL
1070
     0
1002
}
1002
{
1000
BEHIND
1070
     0
1002
}
1002
{
1000
REACTOR
1002
}
1001
GENIUS_GENOBJ-N-FIL_13
1002
{
1000
OWNER
1000
GEN
1002
}
  0
ARC
  5
900F
330
1F
100
AcDbEntity
  8
AM_0
100
AcDbCircle
 10
-59.99999999999968
 20
-26.81250000000009
 30
0.0
 40
3.0
100
AcDbArc
 50
90.00000000000021
 51
179.9999999999997
1001
GENIUS_GENODEF_13
1002
{
1000
HIER
1070
     0
1002
}
1002
{
1000
MANEDIT
1070
     0
1002
}
1002
{
1000
NOSEL
1070
     0
1002
}
1002
{
1000
BEHIND
1070
     0
1002
}
1002
{
1000
REACTOR
1002
}
1001
GENIUS_GENOBJ-N-FIL_13
1002
{
1000
OWNER
1000
GEN
1002
}
  0
ARC
  5
9010
330
1F
100
AcDbEntity
  8
AM_0
100
AcDbCircle
 10
-29.99999999999976
 20
-25.51250000000005
 30
0.0
 40
2.0
100
AcDbArc
 50
359.9999999999998
 51
90.00000000000003
1001
GENIUS_GENODEF_13
1002
{
1000
HIER
1070
     0
1002
}
1002
{
1000
MANEDIT
1070
     0
1002
}
1002
{
1000
NOSEL
1070
     0
1002
}
1002
{
1000
BEHIND
1070
     0
1002
}
1002
{
1000
REACTOR
1002
}
1001
GENIUS_GENOBJ-N-FIL_13
1002
{
1000
OWNER
1000
GEN
1002
}
  0
LINE
  5
9011
330
1F
100
AcDbEntity
  8
AM_0
100
AcDbLine
 10
-61.99999999999962
 20
-12.70000000000001
 30
0.0
 11
-62.99999999999963
 21
-13.70000000000001
 31
0.0
1001
GENIUS_GENFIL_13
1070
     0
1040
1.0
1040
1.0
1040
20.0
1040
0.0
1002
{
1002
}
1001
GENIUS_GENODEF_13
1002
{
1000
HIER
1070
     0
1002
}
1002
{
1000
MANEDIT
1070
     0
1002
}
1002
{
1000
NOSEL
1070
     0
1002
}
1002
{
1000
BEHIND
1070
     0
1002
}
1002
{
1000
REACTOR
1002
}
1001
GENIUS_GENOBJ-N-CHA_13
1002
{
1000
OWNER
1000
GEN
1002
}
  0
ARC
  5
9012
330
1F
100
AcDbEntity
  8
AM_0
100
AcDbCircle
 10
-49.99999999999957
 20
-11.70000000000004
 30
0.0
 40
1.0
100
AcDbArc
 50
269.9999999999998
 51
0.0000000000005738
1001
GENIUS_GENODEF_13
1002
{
1000
HIER
1070
     0
1002
}
1002
{
1000
MANEDIT
1070
     0
1002
}
1002
{
1000
NOSEL
1070
     0
1002
}
1002
{
1000
BEHIND
1070
     0
1002
}
1002
{
1000
REACTOR
1002
}
1001
GENIUS_GENOBJ-N-FIL_13
1002
{
1000
OWNER
1000
GEN
1002
}
  0
VIEWPORT
  5
110
330
101
100
AcDbEntity
 67
     1
  8
0
100
AcDbViewport
 10
420.5
 20
297.0
 30
0.0
 40
948.9782706766916
 41
628.452
 68
     1
 69
     1
1001
ACAD
1000
MVIEW
1002
{
1070
    16
1010
0.0
1020
0.0
1030
0.0
1010
0.0
1020
0.0
1030
1.0
1040
0.0
1040
628.452
1040
420.5
1040
297.0
1040
50.0
1040
0.0
1040
0.0
1070
     0
1070
   100
1070
     1
1070
     1
1070
     0
1070
     0
1070
     0
1070
     0
1040
0.0
1040
0.0
1040
0.0
1040
10.0
1040
10.0
1040
10.0
1040
10.0
1070
     0
1002
{
1002
}
1002
}
  0
ENDSEC
  0
SECTION
  2
OBJECTS
  0
DICTIONARY
  5
C
330
0
100
AcDbDictionary
  3
ACAD_GROUP
350
D
  3
ACAD_LAYOUT
350
1A
  3
ACAD_MLINESTYLE
350
17
  3
ACAD_PLOTSETTINGS
350
19
  3
ACAD_PLOTSTYLENAME
350
E
  3
ACDBVARIABLEDICTIONARY
350
34
  3
ACMDICTIONARY
350
43
  3
AMG
350
2B
  3
AMGSNAPSETTINGS
350
6E
  3
DWGPROPS
350
9067
  3
ACDBHEADERROUNDTRIPXREC
350
9074
  0
DICTIONARY
  5
74
330
1F
100
AcDbDictionary
280
     1
  3
ACAD_INDEX
360
9069
  3
ACAD_LAYOUTSELFREF
360
9097
  0
DICTIONARY
  5
909C
330
101
100
AcDbDictionary
280
     1
  3
ACAD_LAYOUTSELFREF
360
909D
  0
DICTIONARY
  5
D
102
{ACAD_REACTORS
330
C
102
}
330
C
100
AcDbDictionary
  0
DICTIONARY
  5
1A
102
{ACAD_REACTORS
330
C
102
}
330
C
100
AcDbDictionary
  0
DICTIONARY
  5
17
102
{ACAD_REACTORS
330
C
102
}
330
C
100
AcDbDictionary
  3
STANDARD
350
18
  0
DICTIONARY
  5
19
102
{ACAD_REACTORS
330
C
102
}
330
C
100
AcDbDictionary
  0
ACDBDICTIONARYWDFLT
  5
E
102
{ACAD_REACTORS
330
C
102
}
330
C
100
AcDbDictionary
281
     1
  3
Normal
350
F
100
AcDbDictionaryWithDefault
340
F
  0
DICTIONARY
  5
34
102
{ACAD_REACTORS
330
C
102
}
330
C
100
AcDbDictionary
  3
INDEXCTL
350
35
  3
SORTENTS
350
B5E
  0
DICTIONARY
  5
43
102
{ACAD_REACTORS
330
C
102
}
330
C
100
AcDbDictionary
  3
ACMSTDDICTIONARY
350
260
  0
DICTIONARY
  5
2B
102
{ACAD_REACTORS
330
C
102
}
330
C
100
AcDbDictionary
  3
ACMGSETTINGS
350
2C
  0
DICTIONARY
  5
6E
102
{ACAD_REACTORS
330
C
102
}
330
C
100
AcDbDictionary
  0
XRECORD
  5
9067
102
{ACAD_REACTORS
330
C
102
}
330
C
100
AcDbXrecord
  1
DWGPROPS COOKIE
  2

  3

  4

  6

  7

  8

  9

300
AmdtFileType=82
301
=
302
=
303
=
304
=
305
=
306
=
307
=
308
=
309
=
 40
0.1335651851851852
 41
2452836.771637361
 42
2452908.370454189
  1

 90
        1
  0
DICTIONARY
  5
9074
102
{ACAD_REACTORS
330
C
102
}
330
C
100
AcDbDictionary
  3
TSTACKALIGN
350
9075
  3
TSTACKSIZE
350
9076
  3
HYPERLINKBASE
350
9077
  3
STYLESHEET
350
9078
  3
LAYOUTDICT
350
9079
  3
PLOTSETDICT
350
907A
  3
PLOTSTYLNAMDICT
350
907B
  3
LWETCUNION
350
907C
  3
INSUNITS
350
907D
  3
CEPSNTYPE
350
907E
  3
FINGERPRINTGUID
350
907F
  3
VERSIONGUID
350
9080
  3
PSVPSCALE
350
9081
  3
DIMSTYLEDATA
350
9082
  3
PUCSORTHOREF
350
9083
  3
PUCSORTHOVIEW
350
9084
  3
PUCSBASE
350
9085
  3
PUCSORGTOP
350
9086
  3
PUCSORGBOTTOM
350
9087
  3
PUCSORGLEFT
350
9088
  3
PUCSORGRIGHT
350
9089
  3
PUCSORGFRONT
350
908A
  3
PUCSORGBACK
350
908B
  3
UCSORTHOREF
350
908C
  3
UCSORTHOVIEW
350
908D
  3
UCSBASE
350
908E
  3
UCSORGTOP
350
908F
  3
UCSORGBOTTOM
350
9090
  3
UCSORGLEFT
350
9091
  3
UCSORGRIGHT
350
9092
  3
UCSORGFRONT
350
9093
  3
UCSORGBACK
350
9094
  0
DICTIONARY
  5
9069
102
{ACAD_REACTORS
330
74
102
}
330
74
100
AcDbDictionary
  3
*A1
350
906A
  0
XRECORD
  5
9097
102
{ACAD_REACTORS
330
74
102
}
330
74
100
AcDbXrecord
340
1F
  0
XRECORD
  5
909D
102
{ACAD_REACTORS
330
909C
102
}
330
909C
100
AcDbXrecord
340
101
  0
MLINESTYLE
  5
18
102
{ACAD_REACTORS
330
17
102
}
330
17
100
AcDbMlineStyle
  2
STANDARD
 70
     0
  3

 62
   256
 51
90.0
 52
90.0
 71
     2
 49
0.5
 62
   256
  6
BYLAYER
 49
-0.5
 62
   256
  6
BYLAYER
  0
ACDBPLACEHOLDER
  5
F
102
{ACAD_REACTORS
330
E
102
}
330
E
100
AcDbPlaceHolder
280
     0
  0
DICTIONARYVAR
  5
35
102
{ACAD_REACTORS
330
34
102
}
330
34
100
DictionaryVariables
280
     0
  1
1
  0
DICTIONARYVAR
  5
B5E
102
{ACAD_REACTORS
330
34
102
}
330
34
100
DictionaryVariables
280
     0
  1
96
  0
DICTIONARY
  5
260
102
{ACAD_REACTORS
330
43
102
}
330
43
100
AcDbDictionary
  0
DICTIONARY
  5
2C
102
{ACAD_REACTORS
330
2B
102
}
330
2B
100
AcDbDictionary
  3
DWGSETTINGS
350
2D
  0
XRECORD
  5
9075
102
{ACAD_REACTORS
330
9074
102
}
330
9074
100
AcDbXrecord
 90
        1
  0
XRECORD
  5
9076
102
{ACAD_REACTORS
330
9074
102
}
330
9074
100
AcDbXrecord
 90
       70
  0
XRECORD
  5
9077
102
{ACAD_REACTORS
330
9074
102
}
330
9074
100
AcDbXrecord
  1

  0
XRECORD
  5
9078
102
{ACAD_REACTORS
330
9074
102
}
330
9074
100
AcDbXrecord
  1
ASAMI.ctb
  0
XRECORD
  5
9079
102
{ACAD_REACTORS
330
9074
102
}
330
9074
100
AcDbXrecord
340
1A
  0
XRECORD
  5
907A
102
{ACAD_REACTORS
330
9074
102
}
330
9074
100
AcDbXrecord
340
19
  0
XRECORD
  5
907B
102
{ACAD_REACTORS
330
9074
102
}
330
9074
100
AcDbXrecord
340
E
  0
XRECORD
  5
907C
102
{ACAD_REACTORS
330
9074
102
}
330
9074
100
AcDbXrecord
 90
    10781
  0
XRECORD
  5
907D
102
{ACAD_REACTORS
330
9074
102
}
330
9074
100
AcDbXrecord
 90
        4
  0
XRECORD
  5
907E
102
{ACAD_REACTORS
330
9074
102
}
330
9074
100
AcDbXrecord
 90
        0
  0
XRECORD
  5
907F
102
{ACAD_REACTORS
330
9074
102
}
330
9074
100
AcDbXrecord
  1
{AFB28963-8C59-40AE-9337-C84526B81ACE}
  0
XRECORD
  5
9080
102
{ACAD_REACTORS
330
9074
102
}
330
9074
100
AcDbXrecord
  1
{01BC239E-29A8-42AD-98A8-9DD47B936B68}
  0
XRECORD
  5
9081
102
{ACAD_REACTORS
330
9074
102
}
330
9074
100
AcDbXrecord
 40
0.0
  0
XRECORD
  5
9082
102
{ACAD_REACTORS
330
9074
102
}
330
9074
100
AcDbXrecord
1000
DSTYLE
1002
{
1070
    79
 70
     2
1070
   341
340
59
1070
   342
340
59
1070
   371
 70
    -1
1070
   372
 70
    -1
1002
}
  0
XRECORD
  5
9083
102
{ACAD_REACTORS
330
9074
102
}
330
9074
100
AcDbXrecord
340
0
  0
XRECORD
  5
9084
102
{ACAD_REACTORS
330
9074
102
}
330
9074
100
AcDbXrecord
 70
     0
  0
XRECORD
  5
9085
102
{ACAD_REACTORS
330
9074
102
}
330
9074
100
AcDbXrecord
340
0
  0
XRECORD
  5
9086
102
{ACAD_REACTORS
330
9074
102
}
330
9074
100
AcDbXrecord
 10
0.0
 20
0.0
 30
0.0
  0
XRECORD
  5
9087
102
{ACAD_REACTORS
330
9074
102
}
330
9074
100
AcDbXrecord
 10
0.0
 20
0.0
 30
0.0
  0
XRECORD
  5
9088
102
{ACAD_REACTORS
330
9074
102
}
330
9074
100
AcDbXrecord
 10
0.0
 20
0.0
 30
0.0
  0
XRECORD
  5
9089
102
{ACAD_REACTORS
330
9074
102
}
330
9074
100
AcDbXrecord
 10
0.0
 20
0.0
 30
0.0
  0
XRECORD
  5
908A
102
{ACAD_REACTORS
330
9074
102
}
330
9074
100
AcDbXrecord
 10
0.0
 20
0.0
 30
0.0
  0
XRECORD
  5
908B
102
{ACAD_REACTORS
330
9074
102
}
330
9074
100
AcDbXrecord
 10
0.0
 20
0.0
 30
0.0
  0
XRECORD
  5
908C
102
{ACAD_REACTORS
330
9074
102
}
330
9074
100
AcDbXrecord
340
0
  0
XRECORD
  5
908D
102
{ACAD_REACTORS
330
9074
102
}
330
9074
100
AcDbXrecord
 70
     0
  0
XRECORD
  5
908E
102
{ACAD_REACTORS
330
9074
102
}
330
9074
100
AcDbXrecord
340
0
  0
XRECORD
  5
908F
102
{ACAD_REACTORS
330
9074
102
}
330
9074
100
AcDbXrecord
 10
0.0
 20
0.0
 30
0.0
  0
XRECORD
  5
9090
102
{ACAD_REACTORS
330
9074
102
}
330
9074
100
AcDbXrecord
 10
0.0
 20
0.0
 30
0.0
  0
XRECORD
  5
9091
102
{ACAD_REACTORS
330
9074
102
}
330
9074
100
AcDbXrecord
 10
0.0
 20
0.0
 30
0.0
  0
XRECORD
  5
9092
102
{ACAD_REACTORS
330
9074
102
}
330
9074
100
AcDbXrecord
 10
0.0
 20
0.0
 30
0.0
  0
XRECORD
  5
9093
102
{ACAD_REACTORS
330
9074
102
}
330
9074
100
AcDbXrecord
 10
0.0
 20
0.0
 30
0.0
  0
XRECORD
  5
9094
102
{ACAD_REACTORS
330
9074
102
}
330
9074
100
AcDbXrecord
 10
0.0
 20
0.0
 30
0.0
  0
LAYER_INDEX
  5
906A
102
{ACAD_REACTORS
330
9069
102
}
330
9069
100
AcDbIndex
 40
2453152.367039514
100
AcDbLayerIndex
  8
0
360
906B
 90
        0
  8
AM_0
360
906C
 90
      204
  8
AM_7
360
906D
 90
        3
  8
AM_5
360
906E
 90
       10
  8
Defpoints
360
906F
 90
        0
  8
AM_6
360
9070
 90
        1
  8
AM_11
360
9071
 90
       43
  8
AM_3
360
9072
 90
       10
  0
XRECORD
  5
2D
102
{ACAD_REACTORS
330
2C
102
}
330
2C
100
AcDbXrecord
  1
VERSION
140
15.0
  1
PRODUCT
  2
AutoCAD Mechanical 2000
  0
IDBUFFER
  5
906B
330
0
100
AcDbIdBuffer
  0
IDBUFFER
  5
906C
330
0
100
AcDbIdBuffer
330
8D6C
330
8D6D
330
8D6E
330
8D6F
330
8D70
330
8D71
330
8D72
330
8D73
330
8D74
330
8D75
330
8D76
330
8D77
330
8D78
330
8D79
330
8D7A
330
8D7B
330
8D7C
330
8D7D
330
8D7E
330
8D7F
330
8D80
330
8D81
330
8D82
330
8D83
330
8D84
330
8D85
330
8D86
330
8D87
330
8D88
330
8D89
330
8D8A
330
8D8B
330
8D8C
330
8D8D
330
8D8E
330
8D8F
330
8D90
330
8D91
330
8D92
330
8D93
330
8D94
330
8D95
330
8D96
330
8D97
330
8D98
330
8D99
330
8D9A
330
8D9B
330
8D9C
330
8D9D
330
8D9E
330
8D9F
330
8DA0
330
8DA1
330
8DA2
330
8DA3
330
8DA4
330
8DA5
330
8DA6
330
8DA7
330
8DA8
330
8DA9
330
8DAA
330
8DAB
330
8DAC
330
8DAD
330
8DAE
330
8DAF
330
8ECB
330
8ECC
330
8ECD
330
8ECE
330
8ECF
330
8ED0
330
8ED1
330
8ED3
330
8ED4
330
8ED5
330
8FF6
330
8FF9
330
8FFC
330
8FFF
330
9002
330
9005
330
900A
330
900C
330
900D
330
900E
330
900F
330
9010
330
9011
330
9012
330
7A8A
330
7A8B
330
7A8C
330
7A8D
330
7A8E
330
7A8F
330
7A92
330
7A95
330
7A9A
330
7A9B
330
7A9C
330
7A9D
330
7A9E
330
7AA6
330
7AA8
330
7AA9
330
7AAA
330
7AAE
330
7AB5
330
7AB7
330
7AB8
330
7AB9
330
7ABA
330
7ABB
330
7ABC
330
7ABF
330
7AC0
330
7AC1
330
7AC4
330
7AC6
330
7AD7
330
7AE1
330
7AE2
330
7AE5
330
7AE6
330
7AED
330
7AEF
330
7AF0
330
8D20
330
8D21
330
8D22
330
8D23
330
8D24
330
8D25
330
8D26
330
8D27
330
8D28
330
8D29
330
8D2A
330
8D2B
330
8D2C
330
8D2D
330
8D2E
330
8D2F
330
8D30
330
8D31
330
8D32
330
8D33
330
8D34
330
8D35
330
8D36
330
8D37
330
8D38
330
8D39
330
8D3A
330
8D3B
330
8D3C
330
8D3D
330
8D3E
330
8D3F
330
8D40
330
8D41
330
8D42
330
8D43
330
8D44
330
8D45
330
8D46
330
8D47
330
8D48
330
8D49
330
8D4A
330
8D4B
330
8D4C
330
8D4D
330
8D4E
330
8D4F
330
8D50
330
8D51
330
8D52
330
8D53
330
8D54
330
8D55
330
8D56
330
8D57
330
8D58
330
8D59
330
8D5A
330
8D5B
330
8D5C
330
8D5D
330
8D5E
330
8D5F
330
8D60
330
8D61
330
8D62
330
8D63
330
8D64
330
8D65
330
8D66
330
8D69
330
8D6A
330
8D6B
  0
IDBUFFER
  5
906D
330
0
100
AcDbIdBuffer
330
7A9F
330
7AA7
330
7AD5
  0
IDBUFFER
  5
906E
330
0
100
AcDbIdBuffer
330
8B47
330
8B48
330
8B49
330
8BD1
330
8C54
330
8C55
330
8C56
330
8DBA
330
8DEB
330
8EFA
  0
IDBUFFER
  5
906F
330
0
100
AcDbIdBuffer
  0
IDBUFFER
  5
9070
330
0
100
AcDbIdBuffer
330
E5A
  0
IDBUFFER
  5
9071
330
0
100
AcDbIdBuffer
330
7AC8
330
7AC9
330
7ACA
330
7ACB
330
7ACC
330
7ACF
330
7AD0
330
7AD1
330
7AD2
330
7AD3
330
7AD4
330
7AD8
330
7AD9
330
7ADA
330
7ADB
330
7ADC
330
7ADD
330
7ADE
330
7ADF
330
7AE0
330
7AE7
330
7AE8
330
7AE9
330
7AEA
330
7AEB
330
7AEC
330
8D67
330
7AA0
330
7AA1
330
7AA2
330
7AA3
330
7AA4
330
7AA5
330
7AAB
330
7AAC
330
7AAD
330
7AAF
330
7AB0
330
7AB1
330
7AB2
330
7AB3
330
7AB4
330
7AC7
  0
IDBUFFER
  5
9072
330
0
100
AcDbIdBuffer
330
7A89
330
7A90
330
7A96
330
7A97
330
7A98
330
7A99
330
7AEE
330
7AF1
330
7AF2
330
7AF3
  0
ENDSEC
  0
EOF
