  0
SECTION
  2
HEADER
  9
$ACADVER
  1
AC1014
  9
$ACADMAINTVER
 70
     9
  9
$DWGCODEPAGE
  3
ANSI_932
  9
$INSBASE
 10
0.0
 20
0.0
 30
0.0
  9
$EXTMIN
 10
-106.9543509931122
 20
-145.6863048957974
 30
-0.00000001
  9
$EXTMAX
 10
20.39992886336629
 20
89.38448803033606
 30
0.00000001
  9
$LIMMIN
 10
-151.6805250657267
 20
-177.9521005427815
  9
$LIMMAX
 10
64.91901694156422
 20
123.1236945809068
  9
$ORTHOMODE
 70
     0
  9
$REGENMODE
 70
     1
  9
$FILLMODE
 70
     1
  9
$QTEXTMODE
 70
     0
  9
$MIRRTEXT
 70
     0
  9
$DRAGMODE
 70
     2
  9
$LTSCALE
 40
1.0
  9
$OSMODE
 70
    55
  9
$ATTMODE
 70
     1
  9
$TEXTSIZE
 40
2.5
  9
$TRACEWID
 40
1.0
  9
$TEXTSTYLE
  7
STANDARD
  9
$CLAYER
  8
AM_0
  9
$CELTYPE
  6
BYLAYER
  9
$CECOLOR
 62
   256
  9
$CELTSCALE
 40
1.0
  9
$DELOBJ
 70
     1
  9
$DISPSILH
 70
     0
  9
$DIMSCALE
 40
1.0
  9
$DIMASZ
 40
2.5
  9
$DIMEXO
 40
1.0
  9
$DIMDLI
 40
12.0
  9
$DIMRND
 40
0.0
  9
$DIMDLE
 40
0.0
  9
$DIMEXE
 40
1.0
  9
$DIMTP
 40
0.1
  9
$DIMTM
 40
0.1
  9
$DIMTXT
 40
3.2
  9
$DIMCEN
 40
0.0
  9
$DIMTSZ
 40
0.0
  9
$DIMTOL
 70
     0
  9
$DIMLIM
 70
     0
  9
$DIMTIH
 70
     0
  9
$DIMTOH
 70
     0
  9
$DIMSE1
 70
     0
  9
$DIMSE2
 70
     0
  9
$DIMTAD
 70
     3
  9
$DIMZIN
 70
     8
  9
$DIMBLK
  1
OPEN30
  9
$DIMASO
 70
     1
  9
$DIMSHO
 70
     1
  9
$DIMPOST
  1

  9
$DIMAPOST
  1
"
  9
$DIMALT
 70
     0
  9
$DIMALTD
 70
     2
  9
$DIMALTF
 40
0.0393701
  9
$DIMLFAC
 40
1.0
  9
$DIMTOFL
 70
     1
  9
$DIMTVP
 40
0.0
  9
$DIMTIX
 70
     0
  9
$DIMSOXD
 70
     0
  9
$DIMSAH
 70
     0
  9
$DIMBLK1
  1

  9
$DIMBLK2
  1

  9
$DIMSTYLE
  2
AM_JIS
  9
$DIMCLRD
 70
   256
  9
$DIMCLRE
 70
   256
  9
$DIMCLRT
 70
     2
  9
$DIMTFAC
 40
0.71
  9
$DIMGAP
 40
1.5
  9
$DIMJUST
 70
     0
  9
$DIMSD1
 70
     0
  9
$DIMSD2
 70
     0
  9
$DIMTOLJ
 70
     0
  9
$DIMTZIN
 70
     0
  9
$DIMALTZ
 70
     0
  9
$DIMALTTZ
 70
     0
  9
$DIMFIT
 70
     3
  9
$DIMUPT
 70
     0
  9
$DIMUNIT
 70
     2
  9
$DIMDEC
 70
     3
  9
$DIMTDEC
 70
     3
  9
$DIMALTU
 70
     2
  9
$DIMALTTD
 70
     2
  9
$DIMTXSTY
  7
ASAMI
  9
$DIMAUNIT
 70
     0
  9
$LUNITS
 70
     2
  9
$LUPREC
 70
     2
  9
$SKETCHINC
 40
1.0
  9
$FILLETRAD
 40
1.0
  9
$AUNITS
 70
     0
  9
$AUPREC
 70
     0
  9
$MENU
  1
.
  9
$ELEVATION
 40
0.0
  9
$PELEVATION
 40
0.0
  9
$THICKNESS
 40
0.0
  9
$LIMCHECK
 70
     0
  9
$BLIPMODE
 70
     0
  9
$CHAMFERA
 40
1.0
  9
$CHAMFERB
 40
1.0
  9
$CHAMFERC
 40
20.0
  9
$CHAMFERD
 40
0.0
  9
$SKPOLY
 70
     0
  9
$TDCREATE
 40
2452836.771637361
  9
$TDUPDATE
 40
2453152.366351933
  9
$TDINDWG
 40
0.1212908912
  9
$TDUSRTIMER
 40
0.1212908912
  9
$USRTIMER
 70
     1
  9
$ANGBASE
 50
0.0
  9
$ANGDIR
 70
     0
  9
$PDMODE
 70
     0
  9
$PDSIZE
 40
0.0
  9
$PLINEWID
 40
0.0
  9
$COORDS
 70
     1
  9
$SPLFRAME
 70
     0
  9
$SPLINETYPE
 70
     6
  9
$SPLINESEGS
 70
     8
  9
$ATTDIA
 70
     1
  9
$ATTREQ
 70
     1
  9
$HANDLING
 70
 12289
  9
$HANDSEED
  5
77BD
  9
$SURFTAB1
 70
     6
  9
$SURFTAB2
 70
     6
  9
$SURFTYPE
 70
     6
  9
$SURFU
 70
     6
  9
$SURFV
 70
     6
  9
$UCSNAME
  2

  9
$UCSORG
 10
0.0
 20
0.0
 30
0.0
  9
$UCSXDIR
 10
1.0
 20
0.0
 30
0.0
  9
$UCSYDIR
 10
0.0
 20
1.0
 30
0.0
  9
$PUCSNAME
  2

  9
$PUCSORG
 10
0.0
 20
0.0
 30
0.0
  9
$PUCSXDIR
 10
1.0
 20
0.0
 30
0.0
  9
$PUCSYDIR
 10
0.0
 20
1.0
 30
0.0
  9
$USERI1
 70
     0
  9
$USERI2
 70
     0
  9
$USERI3
 70
     0
  9
$USERI4
 70
     0
  9
$USERI5
 70
     0
  9
$USERR1
 40
0.0
  9
$USERR2
 40
0.0
  9
$USERR3
 40
0.0
  9
$USERR4
 40
0.0
  9
$USERR5
 40
0.0
  9
$WORLDVIEW
 70
     1
  9
$SHADEDGE
 70
     3
  9
$SHADEDIF
 70
    70
  9
$TILEMODE
 70
     1
  9
$MAXACTVP
 70
    64
  9
$PINSBASE
 10
0.0
 20
0.0
 30
0.0
  9
$PLIMCHECK
 70
     0
  9
$PEXTMIN
 10
1.000000000000000E+20
 20
1.000000000000000E+20
 30
1.000000000000000E+20
  9
$PEXTMAX
 10
-1.000000000000000E+20
 20
-1.000000000000000E+20
 30
-1.000000000000000E+20
  9
$PLIMMIN
 10
0.0
 20
0.0
  9
$PLIMMAX
 10
841.0
 20
594.0
  9
$UNITMODE
 70
     0
  9
$VISRETAIN
 70
     1
  9
$PLINEGEN
 70
     0
  9
$PSLTSCALE
 70
     0
  9
$TREEDEPTH
 70
  3020
  9
$PICKSTYLE
 70
     0
  9
$CMLSTYLE
  2
STANDARD
  9
$CMLJUST
 70
     0
  9
$CMLSCALE
 40
20.0
  9
$PROXYGRAPHICS
 70
     1
  9
$MEASUREMENT
 70
     1
  0
ENDSEC
  0
SECTION
  2
CLASSES
  0
CLASS
  1
ACDBDICTIONARYWDFLT
  2
AcDbDictionaryWithDefault
  3
AutoCAD 2000
 90
        0
280
     0
281
     0
  0
CLASS
  1
ACDBPLACEHOLDER
  2
AcDbPlaceHolder
  3
AutoCAD 2000
 90
        0
280
     0
281
     0
  0
CLASS
  1
LAYOUT
  2
AcDbLayout
  3
AutoCAD 2000
 90
        0
280
     0
281
     0
  0
CLASS
  1
AMGSETTINGSOBJ
  2
AmgSettingsObj
  3
"AcadM|Product Description: AutoCAD Mechanical 2000|Company: Autodesk"
 90
        0
280
     0
281
     0
  0
CLASS
  1
ACME_DOCUMENT
  2
AcMeDbDoc
  3
AcMeServices
 90
        0
280
     0
281
     0
  0
CLASS
  1
ACMESCOPE
  2
AcMeScope
  3
AcMeServices
 90
        0
280
     0
281
     0
  0
CLASS
  1
ACMECOMMANDHISTORY
  2
AcMeCommandHistory
  3
AcMeServices
 90
        0
280
     0
281
     0
  0
CLASS
  1
DICTIONARYVAR
  2
AcDbDictionaryVar
  3
AutoCAD 2000
 90
        0
280
     0
281
     0
  0
CLASS
  1
ACIMSYSVARMAN
  2
AcImSysVarManager
  3
AcMeServices
 90
        0
280
     0
281
     0
  0
CLASS
  1
ACIMREALSYSVAR
  2
AcImRealSysVar
  3
AcMeServices
 90
        0
280
     0
281
     0
  0
CLASS
  1
ACIMINTSYSVAR
  2
AcImIntSysVar
  3
AcMeServices
 90
        0
280
     0
281
     0
  0
CLASS
  1
ACMEDRAWINGMAN
  2
AcMeDrawingMan
  3
AcMeServices
 90
        0
280
     0
281
     0
  0
CLASS
  1
ACMEVIEW
  2
AcMeView
  3
AcMeServices
 90
        0
280
     0
281
     0
  0
CLASS
  1
ACDBENTITYCACHE
  2
AcMeEntityCache
  3
AcMeServices
 90
        0
280
     0
281
     0
  0
CLASS
  1
GSMANAGER
  2
AcMeGSManager
  3
AcMeServices
 90
        0
280
     0
281
     0
  0
CLASS
  1
AmdtInternalReactor
  2
AmdtInternalReactor
  3
AcMeServices
 90
        0
280
     0
281
     0
  0
CLASS
  1
ACMESTATEMGR
  2
AcMeStateMgr
  3
AcMeServices
 90
        0
280
     0
281
     0
  0
CLASS
  1
ACME_DATABASE
  2
AcMeDbDatabase
  3
AcMeServices
 90
        0
280
     0
281
     0
  0
CLASS
  1
ACRFINSADJUSTERMGR
  2
AcRfInsAdjusterMgr
  3
AcMeServices
 90
        0
280
     0
281
     0
  0
CLASS
  1
ACMDATADICTIONARY
  2
AcmDataDictionary
  3
"AcmSymBB|Product Description: AutoCAD Mechanical 2000|Company: Autodesk"
 90
        0
280
     0
281
     0
  0
CLASS
  1
ACMDATAENTRYBLOCK
  2
AcmDataEntryBlock
  3
"AcmSymBB|Product Description: AutoCAD Mechanical 2000|Company: Autodesk"
 90
        0
280
     0
281
     0
  0
CLASS
  1
AMGOBJPROPCFG
  2
AmgObjPropCfg
  3
"AmgLay|Product Description: AutoCAD Mechanical 2000|Company: Autodesk"
 90
        1
280
     0
281
     0
  0
CLASS
  1
ACAMGFILTERDAT
  2
AcAmgFilterDat
  3
"AcadM|Product Description: AutoCAD Mechanical 2000|Company: Autodesk"
 90
        0
280
     0
281
     0
  0
CLASS
  1
LAYER_INDEX
  2
AcDbLayerIndex
  3
AutoCAD 2000
 90
        0
280
     0
281
     0
  0
CLASS
  1
IDBUFFER
  2
AcDbIdBuffer
  3
AutoCAD 2000
 90
        0
280
     0
281
     0
  0
CLASS
  1
ACIMSTRSYSVAR
  2
AcImStrSysVar
  3
AcMeServices
 90
        0
280
     0
281
     0
  0
CLASS
  1
ACMSTANDARDJIS
  2
AcmStandardJIS
  3
"AcmSymBB|Product Description: AutoCAD Mechanical 2000|Company: Autodesk"
 90
        0
280
     0
281
     0
  0
CLASS
  1
ACMSURFSTANDARDJIS
  2
AcmSurfTextStdJIS
  3
"AcmSymBB|Product Description: AutoCAD Mechanical 2000|Company: Autodesk"
 90
        0
280
     0
281
     0
  0
CLASS
  1
ACMFCFSTANDARDJIS
  2
AcmFCFStdJIS
  3
"AcmSymBB|Product Description: AutoCAD Mechanical 2000|Company: Autodesk"
 90
        0
280
     0
281
     0
  0
CLASS
  1
ACMWELDSTANDARDJIS
  2
AcmWeldingStdJIS
  3
"AcmSymBB|Product Description: AutoCAD Mechanical 2000|Company: Autodesk"
 90
        0
280
     0
281
     0
  0
CLASS
  1
ACMIDSTANDARDJIS
  2
AcmIdStdJIS
  3
"AcmSymBB|Product Description: AutoCAD Mechanical 2000|Company: Autodesk"
 90
        0
280
     0
281
     0
  0
CLASS
  1
ACMDATUMSTANDARDJIS
  2
AcmDatumStdJIS
  3
"AcmSymBB|Product Description: AutoCAD Mechanical 2000|Company: Autodesk"
 90
        0
280
     0
281
     0
  0
CLASS
  1
ACMBOMSTANDARDJIS
  2
AcmBOMStdJIS
  3
"AcmSymBB|Product Description: AutoCAD Mechanical 2000|Company: Autodesk"
 90
        0
280
     0
281
     0
  0
CLASS
  1
ACMSTANDARDANSI
  2
AcmStandardANSI
  3
"AcmSymBB|Product Description: AutoCAD Mechanical 2000|Company: Autodesk"
 90
        0
280
     0
281
     0
  0
CLASS
  1
ACMSURFSTANDARDANSI
  2
AcmSurfTextStdANSI
  3
"AcmSymBB|Product Description: AutoCAD Mechanical 2000|Company: Autodesk"
 90
        0
280
     0
281
     0
  0
CLASS
  1
ACMFCFSTANDARDANSI
  2
AcmFCFStdANSI
  3
"AcmSymBB|Product Description: AutoCAD Mechanical 2000|Company: Autodesk"
 90
        0
280
     0
281
     0
  0
CLASS
  1
ACMWELDSTANDARDANSI
  2
AcmWeldingStdANSI
  3
"AcmSymBB|Product Description: AutoCAD Mechanical 2000|Company: Autodesk"
 90
        0
280
     0
281
     0
  0
CLASS
  1
ACMIDSTANDARDANSI
  2
AcmIdStdANSI
  3
"AcmSymBB|Product Description: AutoCAD Mechanical 2000|Company: Autodesk"
 90
        0
280
     0
281
     0
  0
CLASS
  1
ACMDATUMSTANDARDANSI
  2
AcmDatumStdANSI
  3
"AcmSymBB|Product Description: AutoCAD Mechanical 2000|Company: Autodesk"
 90
        0
280
     0
281
     0
  0
CLASS
  1
ACMBOMSTANDARDANSI
  2
AcmBOMStdANSI
  3
"AcmSymBB|Product Description: AutoCAD Mechanical 2000|Company: Autodesk"
 90
        0
280
     0
281
     0
  0
CLASS
  1
ACMSTANDARDBSI
  2
AcmStandardBSI
  3
"AcmSymBB|Product Description: AutoCAD Mechanical 2000|Company: Autodesk"
 90
        0
280
     0
281
     0
  0
CLASS
  1
ACMSURFSTANDARDBSI
  2
AcmSurfTextStdBSI
  3
"AcmSymBB|Product Description: AutoCAD Mechanical 2000|Company: Autodesk"
 90
        0
280
     0
281
     0
  0
CLASS
  1
ACMFCFSTANDARDBSI
  2
AcmFCFStdBSI
  3
"AcmSymBB|Product Description: AutoCAD Mechanical 2000|Company: Autodesk"
 90
        0
280
     0
281
     0
  0
CLASS
  1
ACMWELDSTANDARDBSI
  2
AcmWeldingStdBSI
  3
"AcmSymBB|Product Description: AutoCAD Mechanical 2000|Company: Autodesk"
 90
        0
280
     0
281
     0
  0
CLASS
  1
ACMIDSTANDARDBSI
  2
AcmIdStdBSI
  3
"AcmSymBB|Product Description: AutoCAD Mechanical 2000|Company: Autodesk"
 90
        0
280
     0
281
     0
  0
CLASS
  1
ACMDATUMSTANDARDBSI
  2
AcmDatumStdBSI
  3
"AcmSymBB|Product Description: AutoCAD Mechanical 2000|Company: Autodesk"
 90
        0
280
     0
281
     0
  0
CLASS
  1
ACMBOMSTANDARDBSI
  2
AcmBOMStdBSI
  3
"AcmSymBB|Product Description: AutoCAD Mechanical 2000|Company: Autodesk"
 90
        0
280
     0
281
     0
  0
CLASS
  1
LONG_TRANSACTION
  2
AcDbLongTransaction
  3
AutoCAD 2000
 90
        0
280
     0
281
     0
  0
CLASS
  1
LWPOLYLINE
  2
AcDbPolyline
  3
AutoCAD 2000
 90
        0
280
     0
281
     1
  0
CLASS
  1
HATCH
  2
AcDbHatch
  3
AutoCAD 2000
 90
        0
280
     0
281
     1
  0
CLASS
  1
XRECORD
  2
AcDbXrecord
  3
AutoCAD 2000
 90
        0
280
     0
281
     0
  0
ENDSEC
  0
SECTION
  2
TABLES
  0
TABLE
  2
VPORT
  5
8
330
0
100
AcDbSymbolTable
 70
     3
  0
VPORT
  5
7792
330
8
100
AcDbSymbolTableRecord
100
AcDbViewportTableRecord
  2
*ACTIVE
 70
     0
 10
0.0
 20
0.0
 11
1.0
 21
1.0
 12
-43.28160215598006
 22
-27.51756845117734
 13
0.0
 23
0.0
 14
2.5
 24
2.5
 15
10.0
 25
10.0
 16
0.0
 26
0.0
 36
1.0
 17
0.0
 27
0.0
 37
0.0
 40
237.7954138178976
 41
1.56570841889117
 42
50.0
 43
0.0
 44
0.0
 50
0.0
 51
0.0
 71
     0
 72
   100
 73
     1
 74
     3
 75
     0
 76
     0
 77
     0
 78
     0
  0
ENDTAB
  0
TABLE
  2
LTYPE
  5
5
330
0
100
AcDbSymbolTable
 70
    10
  0
LTYPE
  5
14
330
5
100
AcDbSymbolTableRecord
100
AcDbLinetypeTableRecord
  2
BYBLOCK
 70
     0
  3

 72
    65
 73
     0
 40
0.0
  0
LTYPE
  5
15
330
5
100
AcDbSymbolTableRecord
100
AcDbLinetypeTableRecord
  2
BYLAYER
 70
     0
  3

 72
    65
 73
     0
 40
0.0
  0
LTYPE
  5
16
330
5
100
AcDbSymbolTableRecord
100
AcDbLinetypeTableRecord
  2
CONTINUOUS
 70
     0
  3
Solid line
 72
    65
 73
     0
 40
0.0
  0
LTYPE
  5
4B
330
5
100
AcDbSymbolTableRecord
100
AcDbLinetypeTableRecord
  2
AM_ISO02W050
 70
     0
  3
__ __ __ __ __ __ __ __ __ __ __ __ __ __ __
 72
    65
 73
     2
 40
7.5
 49
6.0
 74
     0
 49
-1.5
 74
     0
  0
LTYPE
  5
4C
330
5
100
AcDbSymbolTableRecord
100
AcDbLinetypeTableRecord
  2
AM_ISO08W050
 70
     0
  3
____ . ____ . ____ . ____ . ____ . ____ . ____
 72
    65
 73
     4
 40
18.0
 49
12.0
 74
     0
 49
-1.5
 74
     0
 49
3.0
 74
     0
 49
-1.5
 74
     0
  0
LTYPE
  5
4D
330
5
100
AcDbSymbolTableRecord
100
AcDbLinetypeTableRecord
  2
AM_ISO09W050
 70
     0
  3
_____ . . _____ . . _____ . . ____ .. ____
 72
    65
 73
     6
 40
22.5
 49
12.0
 74
     0
 49
-1.5
 74
     0
 49
3.0
 74
     0
 49
-1.5
 74
     0
 49
3.0
 74
     0
 49
-1.5
 74
     0
  0
LTYPE
  5
4E
330
5
100
AcDbSymbolTableRecord
100
AcDbLinetypeTableRecord
  2
AMCONSTR
 70
     0
  3
_______________________
 72
    65
 73
     2
 40
9999.0
 49
9999.0
 74
     0
 49
0.0
 74
     0
  0
LTYPE
  5
4F
330
5
100
AcDbSymbolTableRecord
100
AcDbLinetypeTableRecord
  2
AM_ISO02W050X2
 70
     0
  3
 _ _ _ _ _ _ _ _ _ _ _ _
 72
    65
 73
     2
 40
3.75
 49
3.0
 74
     0
 49
-0.75
 74
     0
  0
LTYPE
  5
50
330
5
100
AcDbSymbolTableRecord
100
AcDbLinetypeTableRecord
  2
AM_ISO08W050X2
 70
     0
  3
__ . __ . __ . __ . __ . __
 72
    65
 73
     4
 40
9.0
 49
6.0
 74
     0
 49
-0.75
 74
     0
 49
1.5
 74
     0
 49
-0.75
 74
     0
  0
LTYPE
  5
53
330
5
100
AcDbSymbolTableRecord
100
AcDbLinetypeTableRecord
  2
AMZIGZAG
 70
     0
  3
/\/-/\/-/\/-/\/-/\/-/\/
 72
    65
 73
     2
 40
11.00009999999999
 49
0.0001
 74
     4
 75
   135
340
52
 46
0.04
 50
0.0
 44
0.0
 45
0.0
 49
-11.0
 74
     0
  0
LTYPE
  5
166
330
5
100
AcDbSymbolTableRecord
100
AcDbLinetypeTableRecord
  2
ACJISTGL
 70
     0
  3
_ _ _ _ _
 72
    65
 73
     2
 40
3.0
 49
2.0
 74
     0
 49
-1.0
 74
     0
  0
LTYPE
  5
26A
330
5
100
AcDbSymbolTableRecord
100
AcDbLinetypeTableRecord
  2
ACJISTGB
 70
     0
  3
__ . . __ . .
 72
    65
 73
     6
 40
9.0
 49
4.0
 74
     0
 49
-1.0
 74
     0
 49
1.0
 74
     0
 49
-1.0
 74
     0
 49
1.0
 74
     0
 49
-1.0
 74
     0
  0
ENDTAB
  0
TABLE
  2
LAYER
  5
2
330
0
100
AcDbSymbolTable
 70
     8
  0
LAYER
  5
10
330
2
100
AcDbSymbolTableRecord
100
AcDbLayerTableRecord
  2
0
 70
     0
 62
     7
  6
CONTINUOUS
  0
LAYER
  5
3F9
330
2
100
AcDbSymbolTableRecord
100
AcDbLayerTableRecord
  2
AM_0
 70
     0
 62
     7
  6
CONTINUOUS
  0
LAYER
  5
BD5
330
2
100
AcDbSymbolTableRecord
100
AcDbLayerTableRecord
  2
AM_7
 70
     0
 62
     4
  6
AM_ISO08W050
  0
LAYER
  5
BD6
330
2
100
AcDbSymbolTableRecord
100
AcDbLayerTableRecord
  2
AM_5
 70
     0
 62
     3
  6
CONTINUOUS
  0
LAYER
  5
BD7
330
2
100
AcDbSymbolTableRecord
100
AcDbLayerTableRecord
  2
DEFPOINTS
 70
     0
 62
     7
  6
CONTINUOUS
  0
LAYER
  5
E59
330
2
100
AcDbSymbolTableRecord
100
AcDbLayerTableRecord
  2
AM_6
 70
     0
 62
     2
  6
CONTINUOUS
  0
LAYER
  5
1E31
330
2
100
AcDbSymbolTableRecord
100
AcDbLayerTableRecord
  2
AM_11
 70
     0
 62
     3
  6
AM_ISO09W050
  0
LAYER
  5
1E41
330
2
100
AcDbSymbolTableRecord
100
AcDbLayerTableRecord
  2
AM_3
 70
     0
 62
     6
  6
ACJISTGL
  0
ENDTAB
  0
TABLE
  2
STYLE
  5
3
330
0
100
AcDbSymbolTable
 70
     5
  0
STYLE
  5
11
330
3
100
AcDbSymbolTableRecord
100
AcDbTextStyleTableRecord
  2
STANDARD
 70
     0
 40
0.0
 41
1.0
 50
0.0
 71
     0
 42
2.5
  3
simplex.shx
  4
EXTFONT.SHX
  0
STYLE
  5
52
330
3
100
AcDbSymbolTableRecord
100
AcDbTextStyleTableRecord
  2

 70
     1
 40
0.0
 41
1.0
 50
0.0
 71
     0
 42
2.5
  3
ltypeshp.shx
  4

  0
STYLE
  5
6B
330
3
100
AcDbSymbolTableRecord
100
AcDbTextStyleTableRecord
  2
ASAMI
 70
     0
 40
0.0
 41
1.0
 50
0.0
 71
     0
 42
2.5
  3
simplex.shx
  4
EXTFONT.SHX
  0
STYLE
  5
262
330
3
100
AcDbSymbolTableRecord
100
AcDbTextStyleTableRecord
  2
ACJISTS
 70
     0
 40
1.0
 41
1.0
 50
0.0
 71
     0
 42
2.5
  3
simplex.shx
  4
bigfont.shx
  0
STYLE
  5
269
330
3
100
AcDbSymbolTableRecord
100
AcDbTextStyleTableRecord
  2
ACJISGDT
 70
     0
 40
0.0
 41
1.0
 50
0.0
 71
     0
 42
2.5
  3
amgdtans.shx
  4

  0
ENDTAB
  0
TABLE
  2
VIEW
  5
6
330
0
100
AcDbSymbolTable
 70
     0
  0
ENDTAB
  0
TABLE
  2
UCS
  5
7
330
0
100
AcDbSymbolTable
 70
     0
  0
ENDTAB
  0
TABLE
  2
APPID
  5
9
330
0
100
AcDbSymbolTable
 70
    13
  0
APPID
  5
12
330
9
100
AcDbSymbolTableRecord
100
AcDbRegAppTableRecord
  2
ACAD
 70
     0
  0
APPID
  5
30
330
9
100
AcDbSymbolTableRecord
100
AcDbRegAppTableRecord
  2
MCAD_NO_VIS
 70
     0
  0
APPID
  5
31
330
9
100
AcDbSymbolTableRecord
100
AcDbRegAppTableRecord
  2
ACAD_TEMP_GRAPHIC
 70
     0
  0
APPID
  5
2C2
330
9
100
AcDbSymbolTableRecord
100
AcDbRegAppTableRecord
  2
GENIUS_GENDTOL_13
 70
     0
  0
APPID
  5
339
330
9
100
AcDbSymbolTableRecord
100
AcDbRegAppTableRecord
  2
GENIUS_GENODEF_13
 70
     0
  0
APPID
  5
33A
330
9
100
AcDbSymbolTableRecord
100
AcDbRegAppTableRecord
  2
GENIUS_GENOBJ-N-RSBK_13
 70
     0
  0
APPID
  5
33B
330
9
100
AcDbSymbolTableRecord
100
AcDbRegAppTableRecord
  2
GENIUS_GENOBJ-N-LIB_13
 70
     0
  0
APPID
  5
33C
330
9
100
AcDbSymbolTableRecord
100
AcDbRegAppTableRecord
  2
GENIUS_GENSCALE_13
 70
     0
  0
APPID
  5
378
330
9
100
AcDbSymbolTableRecord
100
AcDbRegAppTableRecord
  2
GENIUS_GENDIMSH_14
 70
     0
  0
APPID
  5
BD8
330
9
100
AcDbSymbolTableRecord
100
AcDbRegAppTableRecord
  2
GENIUS_GENOBJ-N-CEN_13
 70
     0
  0
APPID
  5
BD9
330
9
100
AcDbSymbolTableRecord
100
AcDbRegAppTableRecord
  2
GENIUS_GENFIL_13
 70
     0
  0
APPID
  5
BDA
330
9
100
AcDbSymbolTableRecord
100
AcDbRegAppTableRecord
  2
GENIUS_GENOBJ-N-CHA_13
 70
     0
  0
APPID
  5
2BC1
330
9
100
AcDbSymbolTableRecord
100
AcDbRegAppTableRecord
  2
GENIUS_GENOBJ-N-FIL_13
 70
     0
  0
ENDTAB
  0
TABLE
  2
DIMSTYLE
  5
A
330
0
100
AcDbSymbolTable
 70
     9
  0
DIMSTYLE
105
58
102
{ACAD_REACTORS
330
72E9
330
72EA
330
72EB
330
7343
330
7341
330
7342
330
7557
102
}
330
A
100
AcDbSymbolTableRecord
100
AcDbDimStyleTableRecord
  2
AM_JIS
 70
     0
  3

  4
"
  5
OPEN30
  6

  7

 40
1.0
 41
2.5
 42
1.0
 43
12.0
 44
1.0
 45
0.0
 46
0.0
 47
0.1
 48
0.1
140
3.2
141
0.0
142
0.0
143
0.0393701
144
1.0
145
0.0
146
0.71
147
1.5
 71
     0
 72
     0
 73
     0
 74
     0
 75
     0
 76
     0
 77
     3
 78
     8
170
     0
171
     2
172
     1
173
     0
174
     0
175
     0
176
   256
177
   256
178
     2
270
     2
271
     3
272
     3
273
     2
274
     2
340
6B
275
     0
280
     0
281
     0
282
     0
283
     0
284
     0
285
     0
286
     0
287
     3
288
     0
  0
DIMSTYLE
105
5F
330
A
100
AcDbSymbolTableRecord
100
AcDbDimStyleTableRecord
  2
AM_JIS$3
 70
     0
  3

  4
"
  5
OPEN30
  6

  7

 40
1.0
 41
2.5
 42
1.0
 43
10.0
 44
1.0
 45
0.0
 46
0.0
 47
0.1
 48
0.1
140
3.2
141
0.0
142
0.0
143
0.0393701
144
1.0
145
0.0
146
0.71
147
1.5
 71
     0
 72
     0
 73
     0
 74
     1
 75
     0
 76
     0
 77
     3
 78
     8
170
     0
171
     2
172
     0
173
     0
174
     0
175
     0
176
   256
177
   256
178
     2
270
     2
271
     2
272
     3
273
     2
274
     2
340
6B
275
     0
280
     0
281
     0
282
     0
283
     0
284
     0
285
     0
286
     0
287
     0
288
     1
  0
DIMSTYLE
105
60
330
A
100
AcDbSymbolTableRecord
100
AcDbDimStyleTableRecord
  2
AM_JIS$4
 70
     0
  3

  4
"
  5
OPEN30
  6

  7

 40
1.0
 41
2.5
 42
1.0
 43
10.0
 44
1.0
 45
0.0
 46
0.0
 47
0.1
 48
0.1
140
3.2
141
0.0
142
0.0
143
0.0393701
144
1.0
145
0.0
146
0.71
147
1.5
 71
     0
 72
     0
 73
     0
 74
     1
 75
     0
 76
     0
 77
     3
 78
     8
170
     0
171
     2
172
     0
173
     0
174
     0
175
     0
176
   256
177
   256
178
     2
270
     2
271
     2
272
     3
273
     2
274
     2
340
6B
275
     0
280
     0
281
     0
282
     0
283
     0
284
     0
285
     0
286
     0
287
     0
288
     1
  0
DIMSTYLE
105
61
330
A
100
AcDbSymbolTableRecord
100
AcDbDimStyleTableRecord
  2
AM_JIS$6
 70
     0
  3

  4
"
  5
OPEN30
  6

  7

 40
1.0
 41
2.5
 42
1.0
 43
10.0
 44
1.0
 45
0.0
 46
0.0
 47
0.1
 48
0.1
140
3.2
141
0.0
142
0.0
143
0.0393701
144
1.0
145
0.0
146
0.71
147
1.5
 71
     0
 72
     0
 73
     0
 74
     0
 75
     0
 76
     0
 77
     0
 78
     8
170
     0
171
     2
172
     1
173
     0
174
     0
175
     0
176
   256
177
   256
178
     2
270
     2
271
     2
272
     2
273
     2
274
     2
340
6B
275
     0
280
     0
281
     0
282
     0
283
     0
284
     0
285
     0
286
     0
287
     3
288
     0
  0
DIMSTYLE
105
62
330
A
100
AcDbSymbolTableRecord
100
AcDbDimStyleTableRecord
  2
AM_JIS$7
 70
     0
  3

  4
"
  5
OPEN30
  6

  7

 40
1.0
 41
2.5
 42
1.0
 43
10.0
 44
1.0
 45
0.0
 46
0.0
 47
0.1
 48
0.1
140
3.2
141
0.0
142
0.0
143
0.0393701
144
1.0
145
0.0
146
0.71
147
1.5
 71
     0
 72
     0
 73
     0
 74
     0
 75
     0
 76
     0
 77
     3
 78
     8
170
     0
171
     2
172
     1
173
     0
174
     0
175
     0
176
   256
177
   256
178
     2
270
     2
271
     2
272
     3
273
     2
274
     2
340
6B
275
     0
280
     0
281
     0
282
     0
283
     0
284
     0
285
     0
286
     0
287
     3
288
     0
  0
DIMSTYLE
105
63
330
A
100
AcDbSymbolTableRecord
100
AcDbDimStyleTableRecord
  2
AM_JIS$SF
 70
     0
  3

  4
"
  5
OPEN30
  6

  7

 40
1.0
 41
2.5
 42
1.0
 43
10.0
 44
1.0
 45
0.0
 46
0.0
 47
0.1
 48
0.1
140
3.2
141
0.0
142
0.0
143
0.0393701
144
1.0
145
0.0
146
0.71
147
1.5
 71
     0
 72
     0
 73
     0
 74
     0
 75
     1
 76
     1
 77
     3
 78
     8
170
     0
171
     2
172
     1
173
     0
174
     0
175
     0
176
   256
177
   256
178
     2
270
     2
271
     2
272
     2
273
     2
274
     2
340
6B
275
     0
280
     0
281
     0
282
     0
283
     0
284
     0
285
     0
286
     0
287
     3
288
     0
  0
DIMSTYLE
105
68
330
A
100
AcDbSymbolTableRecord
100
AcDbDimStyleTableRecord
  2
AM_JIS$SH
 70
     0
  3

  4
"
  5

  6
GENAXEH
  7
OPEN30
 40
1.0
 41
2.5
 42
1.0
 43
10.0
 44
1.0
 45
0.0
 46
0.0
 47
0.1
 48
0.1
140
3.2
141
0.0
142
0.0
143
0.0393701
144
2.0
145
0.0
146
0.71
147
1.5
 71
     0
 72
     0
 73
     0
 74
     0
 75
     1
 76
     1
 77
     3
 78
     8
170
     0
171
     2
172
     1
173
     1
174
     0
175
     0
176
   256
177
   256
178
     2
270
     2
271
     2
272
     2
273
     2
274
     2
340
6B
275
     0
280
     0
281
     0
282
     0
283
     0
284
     0
285
     0
286
     0
287
     3
288
     0
  0
DIMSTYLE
105
B34
102
{ACAD_REACTORS
330
763C
102
}
330
A
100
AcDbSymbolTableRecord
100
AcDbDimStyleTableRecord
  2
AM_JIS$2
 70
     0
  3

  4
"
  5
OPEN30
  6

  7

 40
1.0
 41
2.5
 42
1.0
 43
12.0
 44
1.0
 45
0.0
 46
0.0
 47
0.1
 48
0.1
140
3.2
141
0.0
142
0.0
143
0.0393701
144
1.0
145
0.0
146
0.71
147
1.5
 71
     0
 72
     0
 73
     0
 74
     0
 75
     0
 76
     0
 77
     3
 78
     8
170
     0
171
     2
172
     1
173
     0
174
     0
175
     0
176
   256
177
   256
178
     2
270
     2
271
     3
272
     3
273
     2
274
     2
340
6B
275
     0
280
     0
281
     0
282
     0
283
     0
284
     0
285
     0
286
     0
287
     3
288
     0
  0
DIMSTYLE
105
1E42
330
A
100
AcDbSymbolTableRecord
100
AcDbDimStyleTableRecord
  2
AM_JIS$0
 70
     0
  3

  4
"
  5
OPEN30
  6

  7

 40
2.0
 41
2.5
 42
1.0
 43
10.0
 44
1.0
 45
0.0
 46
0.0
 47
0.1
 48
0.1
140
2.5
141
0.0
142
0.0
143
0.0393701
144
1.0
145
0.0
146
0.71
147
1.0
 71
     0
 72
     0
 73
     0
 74
     0
 75
     0
 76
     0
 77
     3
 78
     8
170
     0
171
     2
172
     1
173
     0
174
     0
175
     0
176
   256
177
   256
178
     4
270
     2
271
     3
272
     3
273
     2
274
     2
340
6B
275
     0
280
     0
281
     0
282
     0
283
     0
284
     0
285
     0
286
     0
287
     3
288
     0
  0
ENDTAB
  0
TABLE
  2
BLOCK_RECORD
  5
1
330
0
100
AcDbSymbolTable
 70
    13
  0
BLOCK_RECORD
  5
1F
102
{ACAD_XDICTIONARY
360
74
102
}
330
1
100
AcDbSymbolTableRecord
100
AcDbBlockTableRecord
  2
*MODEL_SPACE
  0
BLOCK_RECORD
  5
101
102
{ACAD_XDICTIONARY
360
77BB
102
}
330
1
100
AcDbSymbolTableRecord
100
AcDbBlockTableRecord
  2
*PAPER_SPACE
  0
BLOCK_RECORD
  5
59
330
1
100
AcDbSymbolTableRecord
100
AcDbBlockTableRecord
  2
_OPEN30
  0
BLOCK_RECORD
  5
64
330
1
100
AcDbSymbolTableRecord
100
AcDbBlockTableRecord
  2
GENAXEH
  0
BLOCK_RECORD
  5
72EC
330
1
100
AcDbSymbolTableRecord
100
AcDbBlockTableRecord
  2
*D5
  0
BLOCK_RECORD
  5
72F8
330
1
100
AcDbSymbolTableRecord
100
AcDbBlockTableRecord
  2
*D6
  0
BLOCK_RECORD
  5
7306
330
1
100
AcDbSymbolTableRecord
100
AcDbBlockTableRecord
  2
*D7
  0
BLOCK_RECORD
  5
7344
330
1
100
AcDbSymbolTableRecord
100
AcDbBlockTableRecord
  2
*D8
  0
BLOCK_RECORD
  5
7350
330
1
100
AcDbSymbolTableRecord
100
AcDbBlockTableRecord
  2
*D9
  0
BLOCK_RECORD
  5
735C
330
1
100
AcDbSymbolTableRecord
100
AcDbBlockTableRecord
  2
*D10
  0
BLOCK_RECORD
  5
7559
330
1
100
AcDbSymbolTableRecord
100
AcDbBlockTableRecord
  2
*D11
  0
BLOCK_RECORD
  5
763D
330
1
100
AcDbSymbolTableRecord
100
AcDbBlockTableRecord
  2
*D12
  0
ENDTAB
  0
ENDSEC
  0
SECTION
  2
BLOCKS
  0
BLOCK
  5
20
330
1F
100
AcDbEntity
  8
0
100
AcDbBlockBegin
  2
*MODEL_SPACE
 70
     0
 10
0.0
 20
0.0
 30
0.0
  3
*MODEL_SPACE
  1

  0
ENDBLK
  5
21
330
1F
100
AcDbEntity
  8
0
100
AcDbBlockEnd
  0
BLOCK
  5
103
330
101
100
AcDbEntity
 67
     1
  8
0
100
AcDbBlockBegin
  2
*PAPER_SPACE
 70
     0
 10
0.0
 20
0.0
 30
0.0
  3
*PAPER_SPACE
  1

  0
ENDBLK
  5
104
330
101
100
AcDbEntity
 67
     1
  8
0
100
AcDbBlockEnd
  0
BLOCK
  5
5D
330
59
100
AcDbEntity
  8
0
100
AcDbBlockBegin
  2
_OPEN30
 70
     0
 10
0.0
 20
0.0
 30
0.0
  3
_OPEN30
  1

  0
LINE
  5
5A
330
59
100
AcDbEntity
  8
0
 62
     0
100
AcDbLine
 10
-1.0
 20
0.26794919
 30
0.0
 11
0.0
 21
0.0
 31
0.0
  0
LINE
  5
5B
330
59
100
AcDbEntity
  8
0
 62
     0
100
AcDbLine
 10
0.0
 20
0.0
 30
0.0
 11
-1.0
 21
-0.26794919
 31
0.0
  0
LINE
  5
5C
330
59
100
AcDbEntity
  8
0
 62
     0
100
AcDbLine
 10
0.0
 20
0.0
 30
0.0
 11
-1.0
 21
0.0
 31
0.0
  0
ENDBLK
  5
5E
330
59
100
AcDbEntity
  8
0
100
AcDbBlockEnd
  0
BLOCK
  5
66
330
64
100
AcDbEntity
  8
0
100
AcDbBlockBegin
  2
GENAXEH
 70
     0
 10
0.0
 20
0.0
 30
0.0
  3
GENAXEH
  1

  0
LINE
  5
65
330
64
100
AcDbEntity
  8
0
100
AcDbLine
 10
-1.0
 20
0.0
 30
0.0
 11
1.0
 21
0.0
 31
0.0
  0
ENDBLK
  5
67
330
64
100
AcDbEntity
  8
0
100
AcDbBlockEnd
  0
BLOCK
  5
72F6
330
72EC
100
AcDbEntity
  8
0
100
AcDbBlockBegin
  2
*D5
 70
     1
 10
0.0
 20
0.0
 30
0.0
  3
*D5
  1

  0
LINE
  5
7616
330
72EC
100
AcDbEntity
  8
AM_5
100
AcDbLine
 10
-62.0
 20
49.99999999999997
 30
0.0
 11
-103.2543509931121
 21
49.99999999999998
 31
0.0
  0
LINE
  5
7617
330
72EC
100
AcDbEntity
  8
AM_5
100
AcDbLine
 10
-62.0
 20
-50.0
 30
0.0
 11
-103.2543509931122
 21
-50.0
 31
0.0
  0
LINE
  5
7618
330
72EC
100
AcDbEntity
  8
AM_5
100
AcDbLine
 10
-102.2543509931121
 20
47.49999999999998
 30
0.0
 11
-102.2543509931122
 21
-47.49999999999999
 31
0.0
  0
INSERT
  5
7619
330
72EC
100
AcDbEntity
  8
AM_5
100
AcDbBlockReference
  2
_OPEN30
 10
-102.2543509931121
 20
49.99999999999998
 30
0.0
 41
2.5
 42
2.5
 43
2.5
 50
90.0
  0
INSERT
  5
761A
330
72EC
100
AcDbEntity
  8
AM_5
100
AcDbBlockReference
  2
_OPEN30
 10
-102.2543509931122
 20
-50.0
 30
0.0
 41
2.5
 42
2.5
 43
2.5
 50
270.0
  0
MTEXT
  5
761B
330
72EC
100
AcDbEntity
  8
AM_5
 62
     2
100
AcDbMText
 10
-105.3543509931121
 20
-0.0000000000000218
 30
0.0
 40
3.2
 41
0.0
 71
     5
 72
     1
  1
%%c100
  7
ASAMI
 11
0.0000000000000001
 21
1.0
 31
0.0
1001
ACAD
1000
MTEXTBEGIN
1070
    73
1070
     1
1070
    44
1040
1.0
1070
    74
1070
     0
1000
MTEXTEND
  0
POINT
  5
761C
330
72EC
100
AcDbEntity
  8
DEFPOINTS
 62
     0
100
AcDbPoint
 10
-61.0
 20
49.99999999999997
 30
0.0
  0
POINT
  5
761D
330
72EC
100
AcDbEntity
  8
DEFPOINTS
 62
     0
100
AcDbPoint
 10
-61.0
 20
-50.0
 30
0.0
  0
POINT
  5
761E
330
72EC
100
AcDbEntity
  8
DEFPOINTS
 62
     0
100
AcDbPoint
 10
-102.2543509931122
 20
-50.0
 30
0.0
  0
ENDBLK
  5
72F7
330
72EC
100
AcDbEntity
  8
0
100
AcDbBlockEnd
  0
BLOCK
  5
7304
330
72F8
100
AcDbEntity
  8
0
100
AcDbBlockBegin
  2
*D6
 70
     1
 10
0.0
 20
0.0
 30
0.0
  3
*D6
  1

  0
LINE
  5
760D
330
72F8
100
AcDbEntity
  8
AM_5
100
AcDbLine
 10
-63.0
 20
9.5
 30
0.0
 11
-83.25435099311221
 21
9.500000000000005
 31
0.0
  0
LINE
  5
760E
330
72F8
100
AcDbEntity
  8
AM_5
100
AcDbLine
 10
-63.0
 20
-9.5
 30
0.0
 11
-83.25435099311221
 21
-9.499999999999994
 31
0.0
  0
LINE
  5
760F
330
72F8
100
AcDbEntity
  8
AM_5
100
AcDbLine
 10
-82.25435099311221
 20
7.000000000000006
 30
0.0
 11
-82.25435099311221
 21
-6.999999999999993
 31
0.0
  0
INSERT
  5
7610
330
72F8
100
AcDbEntity
  8
AM_5
100
AcDbBlockReference
  2
_OPEN30
 10
-82.25435099311221
 20
9.500000000000005
 30
0.0
 41
2.5
 42
2.5
 43
2.5
 50
90.0
  0
INSERT
  5
7611
330
72F8
100
AcDbEntity
  8
AM_5
100
AcDbBlockReference
  2
_OPEN30
 10
-82.25435099311221
 20
-9.499999999999994
 30
0.0
 41
2.5
 42
2.5
 43
2.5
 50
270.0
  0
MTEXT
  5
7612
330
72F8
100
AcDbEntity
  8
AM_5
 62
     2
100
AcDbMText
 10
-85.3543509931122
 20
-0.0000000000000351
 30
0.0
 40
3.2
 41
0.0
 71
     5
 72
     1
  1
19
  7
ASAMI
 11
0.0000000000000001
 21
1.0
 31
0.0
1001
ACAD
1000
MTEXTBEGIN
1070
    73
1070
     1
1070
    44
1040
1.0
1070
    74
1070
     0
1000
MTEXTEND
  0
POINT
  5
7613
330
72F8
100
AcDbEntity
  8
DEFPOINTS
 62
     0
100
AcDbPoint
 10
-62.0
 20
9.5
 30
0.0
  0
POINT
  5
7614
330
72F8
100
AcDbEntity
  8
DEFPOINTS
 62
     0
100
AcDbPoint
 10
-62.0
 20
-9.5
 30
0.0
  0
POINT
  5
7615
330
72F8
100
AcDbEntity
  8
DEFPOINTS
 62
     0
100
AcDbPoint
 10
-82.25435099311221
 20
-9.499999999999994
 30
0.0
  0
ENDBLK
  5
7305
330
72F8
100
AcDbEntity
  8
0
100
AcDbBlockEnd
  0
BLOCK
  5
7310
330
7306
100
AcDbEntity
  8
0
100
AcDbBlockBegin
  2
*D7
 70
     1
 10
0.0
 20
0.0
 30
0.0
  3
*D7
  1

  0
LINE
  5
7604
330
7306
100
AcDbEntity
  8
AM_5
100
AcDbLine
 10
-61.0
 20
25.4
 30
0.0
 11
-93.25435099311221
 21
25.40000000000001
 31
0.0
  0
LINE
  5
7605
330
7306
100
AcDbEntity
  8
AM_5
100
AcDbLine
 10
-61.00000000000022
 20
-25.40000000000006
 30
0.0
 11
-93.25435099311221
 21
-25.40000000000005
 31
0.0
  0
LINE
  5
7606
330
7306
100
AcDbEntity
  8
AM_5
100
AcDbLine
 10
-92.25435099311221
 20
22.90000000000001
 30
0.0
 11
-92.25435099311221
 21
-22.90000000000005
 31
0.0
  0
INSERT
  5
7607
330
7306
100
AcDbEntity
  8
AM_5
100
AcDbBlockReference
  2
_OPEN30
 10
-92.25435099311221
 20
25.40000000000001
 30
0.0
 41
2.5
 42
2.5
 43
2.5
 50
90.0
  0
INSERT
  5
7608
330
7306
100
AcDbEntity
  8
AM_5
100
AcDbBlockReference
  2
_OPEN30
 10
-92.25435099311221
 20
-25.40000000000005
 30
0.0
 41
2.5
 42
2.5
 43
2.5
 50
270.0
  0
MTEXT
  5
7609
330
7306
100
AcDbEntity
  8
AM_5
 62
     2
100
AcDbMText
 10
-95.3543509931122
 20
-0.0000000000000331
 30
0.0
 40
3.2
 41
0.0
 71
     5
 72
     1
  1
%%c50.8
  7
ASAMI
 11
0.0000000000000001
 21
1.0
 31
0.0
1001
ACAD
1000
MTEXTBEGIN
1070
    73
1070
     1
1070
    44
1040
1.0
1070
    74
1070
     0
1000
MTEXTEND
  0
POINT
  5
760A
330
7306
100
AcDbEntity
  8
DEFPOINTS
 62
     0
100
AcDbPoint
 10
-60.0
 20
25.4
 30
0.0
  0
POINT
  5
760B
330
7306
100
AcDbEntity
  8
DEFPOINTS
 62
     0
100
AcDbPoint
 10
-60.00000000000023
 20
-25.40000000000006
 30
0.0
  0
POINT
  5
760C
330
7306
100
AcDbEntity
  8
DEFPOINTS
 62
     0
100
AcDbPoint
 10
-92.25435099311221
 20
-25.40000000000005
 30
0.0
  0
ENDBLK
  5
7311
330
7306
100
AcDbEntity
  8
0
100
AcDbBlockEnd
  0
BLOCK
  5
734E
330
7344
100
AcDbEntity
  8
0
100
AcDbBlockBegin
  2
*D8
 70
     1
 10
0.0
 20
0.0
 30
0.0
  3
*D8
  1

  0
LINE
  5
75E9
330
7344
100
AcDbEntity
  8
AM_5
100
AcDbLine
 10
-63.0
 20
-49.00000000000001
 30
0.0
 11
-63.0
 21
-104.1863048957972
 31
0.0
  0
LINE
  5
75EA
330
7344
100
AcDbEntity
  8
AM_5
100
AcDbLine
 10
-51.99999999999994
 20
-9.499999999999992
 30
0.0
 11
-51.99999999999995
 21
-104.1863048957972
 31
0.0
  0
LINE
  5
75EB
330
7344
100
AcDbEntity
  8
AM_5
100
AcDbLine
 10
-60.5
 20
-103.1863048957972
 30
0.0
 11
-54.49999999999995
 21
-103.1863048957972
 31
0.0
  0
INSERT
  5
75EC
330
7344
100
AcDbEntity
  8
AM_5
100
AcDbBlockReference
  2
_OPEN30
 10
-63.0
 20
-103.1863048957972
 30
0.0
 41
2.5
 42
2.5
 43
2.5
 50
180.0
  0
INSERT
  5
75ED
330
7344
100
AcDbEntity
  8
AM_5
100
AcDbBlockReference
  2
_OPEN30
 10
-51.99999999999995
 20
-103.1863048957972
 30
0.0
 41
2.5
 42
2.5
 43
2.5
  0
MTEXT
  5
75EE
330
7344
100
AcDbEntity
  8
AM_5
 62
     2
100
AcDbMText
 10
-57.49999999999997
 20
-100.0863048957973
 30
0.0
 40
3.2
 41
0.0
 71
     5
 72
     1
  1
11
  7
ASAMI
1001
ACAD
1000
MTEXTBEGIN
1070
    73
1070
     1
1070
    44
1040
1.0
1070
    74
1070
     0
1000
MTEXTEND
  0
POINT
  5
75EF
330
7344
100
AcDbEntity
  8
DEFPOINTS
 62
     0
100
AcDbPoint
 10
-63.0
 20
-48.0
 30
0.0
  0
POINT
  5
75F0
330
7344
100
AcDbEntity
  8
DEFPOINTS
 62
     0
100
AcDbPoint
 10
-51.99999999999994
 20
-8.499999999999992
 30
0.0
  0
POINT
  5
75F1
330
7344
100
AcDbEntity
  8
DEFPOINTS
 62
     0
100
AcDbPoint
 10
-51.99999999999995
 20
-103.1863048957972
 30
0.0
  0
ENDBLK
  5
734F
330
7344
100
AcDbEntity
  8
0
100
AcDbBlockEnd
  0
BLOCK
  5
735A
330
7350
100
AcDbEntity
  8
0
100
AcDbBlockBegin
  2
*D9
 70
     1
 10
0.0
 20
0.0
 30
0.0
  3
*D9
  1

  0
LINE
  5
75FB
330
7350
100
AcDbEntity
  8
AM_5
100
AcDbLine
 10
-63.0
 20
-49.00000000000001
 30
0.0
 11
-63.0
 21
-124.1863048957972
 31
0.0
  0
LINE
  5
75FC
330
7350
100
AcDbEntity
  8
AM_5
100
AcDbLine
 10
-0.0000000000000001
 20
-81.0
 30
0.0
 11
-0.0000000000000027
 21
-124.1863048957972
 31
0.0
  0
LINE
  5
75FD
330
7350
100
AcDbEntity
  8
AM_5
100
AcDbLine
 10
-60.5
 20
-123.1863048957972
 30
0.0
 11
-2.500000000000002
 21
-123.1863048957972
 31
0.0
  0
INSERT
  5
75FE
330
7350
100
AcDbEntity
  8
AM_5
100
AcDbBlockReference
  2
_OPEN30
 10
-63.0
 20
-123.1863048957972
 30
0.0
 41
2.5
 42
2.5
 43
2.5
 50
180.0
  0
INSERT
  5
75FF
330
7350
100
AcDbEntity
  8
AM_5
100
AcDbBlockReference
  2
_OPEN30
 10
-0.0000000000000026
 20
-123.1863048957972
 30
0.0
 41
2.5
 42
2.5
 43
2.5
  0
MTEXT
  5
7600
330
7350
100
AcDbEntity
  8
AM_5
 62
     2
100
AcDbMText
 10
-31.5
 20
-120.0863048957973
 30
0.0
 40
3.2
 41
0.0
 71
     5
 72
     1
  1
63
  7
ASAMI
1001
ACAD
1000
MTEXTBEGIN
1070
    73
1070
     1
1070
    44
1040
1.0
1070
    74
1070
     0
1000
MTEXTEND
  0
POINT
  5
7601
330
7350
100
AcDbEntity
  8
DEFPOINTS
 62
     0
100
AcDbPoint
 10
-63.0
 20
-48.0
 30
0.0
  0
POINT
  5
7602
330
7350
100
AcDbEntity
  8
DEFPOINTS
 62
     0
100
AcDbPoint
 10
0.0
 20
-80.0
 30
0.0
  0
POINT
  5
7603
330
7350
100
AcDbEntity
  8
DEFPOINTS
 62
     0
100
AcDbPoint
 10
-0.0000000000000026
 20
-123.1863048957972
 30
0.0
  0
ENDBLK
  5
735B
330
7350
100
AcDbEntity
  8
0
100
AcDbBlockEnd
  0
BLOCK
  5
7366
330
735C
100
AcDbEntity
  8
0
100
AcDbBlockBegin
  2
*D10
 70
     1
 10
0.0
 20
0.0
 30
0.0
  3
*D10
  1

  0
LINE
  5
75F2
330
735C
100
AcDbEntity
  8
AM_5
100
AcDbLine
 10
-63.0
 20
-49.00000000000001
 30
0.0
 11
-63.0
 21
-114.1863048957972
 31
0.0
  0
LINE
  5
75F3
330
735C
100
AcDbEntity
  8
AM_5
100
AcDbLine
 10
-25.00000000000005
 20
-41.0
 30
0.0
 11
-25.00000000000006
 21
-114.1863048957972
 31
0.0
  0
LINE
  5
75F4
330
735C
100
AcDbEntity
  8
AM_5
100
AcDbLine
 10
-60.5
 20
-113.1863048957972
 30
0.0
 11
-27.50000000000006
 21
-113.1863048957972
 31
0.0
  0
INSERT
  5
75F5
330
735C
100
AcDbEntity
  8
AM_5
100
AcDbBlockReference
  2
_OPEN30
 10
-63.0
 20
-113.1863048957972
 30
0.0
 41
2.5
 42
2.5
 43
2.5
 50
180.0
  0
INSERT
  5
75F6
330
735C
100
AcDbEntity
  8
AM_5
100
AcDbBlockReference
  2
_OPEN30
 10
-25.00000000000006
 20
-113.1863048957972
 30
0.0
 41
2.5
 42
2.5
 43
2.5
  0
MTEXT
  5
75F7
330
735C
100
AcDbEntity
  8
AM_5
 62
     2
100
AcDbMText
 10
-44.00000000000003
 20
-110.0863048957972
 30
0.0
 40
3.2
 41
0.0
 71
     5
 72
     1
  1
38
  7
ASAMI
1001
ACAD
1000
MTEXTBEGIN
1070
    73
1070
     1
1070
    44
1040
1.0
1070
    74
1070
     0
1000
MTEXTEND
  0
POINT
  5
75F8
330
735C
100
AcDbEntity
  8
DEFPOINTS
 62
     0
100
AcDbPoint
 10
-63.0
 20
-48.0
 30
0.0
  0
POINT
  5
75F9
330
735C
100
AcDbEntity
  8
DEFPOINTS
 62
     0
100
AcDbPoint
 10
-25.00000000000005
 20
-40.0
 30
0.0
  0
POINT
  5
75FA
330
735C
100
AcDbEntity
  8
DEFPOINTS
 62
     0
100
AcDbPoint
 10
-25.00000000000006
 20
-113.1863048957972
 30
0.0
  0
ENDBLK
  5
7367
330
735C
100
AcDbEntity
  8
0
100
AcDbBlockEnd
  0
BLOCK
  5
7563
330
7559
100
AcDbEntity
  8
0
100
AcDbBlockBegin
  2
*D11
 70
     1
 10
0.0
 20
0.0
 30
0.0
  3
*D11
  1

  0
LINE
  5
761F
330
7559
100
AcDbEntity
  8
AM_5
100
AcDbLine
 10
1.0
 20
80.0
 30
0.0
 11
20.39992886336629
 21
80.0
 31
0.0
  0
LINE
  5
7620
330
7559
100
AcDbEntity
  8
AM_5
100
AcDbLine
 10
1.000000000000028
 20
-80.00000000001117
 30
0.0
 11
20.39992886336625
 21
-80.00000000001117
 31
0.0
  0
LINE
  5
7621
330
7559
100
AcDbEntity
  8
AM_5
100
AcDbLine
 10
19.39992886336629
 20
77.5
 30
0.0
 11
19.39992886336625
 21
-77.50000000001117
 31
0.0
  0
INSERT
  5
7622
330
7559
100
AcDbEntity
  8
AM_5
100
AcDbBlockReference
  2
_OPEN30
 10
19.39992886336629
 20
80.0
 30
0.0
 41
2.5
 42
2.5
 43
2.5
 50
90.0
  0
INSERT
  5
7623
330
7559
100
AcDbEntity
  8
AM_5
100
AcDbBlockReference
  2
_OPEN30
 10
19.39992886336625
 20
-80.00000000001117
 30
0.0
 41
2.5
 42
2.5
 43
2.5
 50
270.0
  0
MTEXT
  5
7624
330
7559
100
AcDbEntity
  8
AM_5
 62
     2
100
AcDbMText
 10
16.29992886336627
 20
-0.0000000000055857
 30
0.0
 40
3.2
 41
0.0
 71
     5
 72
     1
  1
%%c160
  7
ASAMI
 11
0.0000000000000001
 21
1.0
 31
0.0
1001
ACAD
1000
MTEXTBEGIN
1070
    73
1070
     1
1070
    44
1040
1.0
1070
    74
1070
     0
1000
MTEXTEND
  0
POINT
  5
7625
330
7559
100
AcDbEntity
  8
DEFPOINTS
 62
     0
100
AcDbPoint
 10
0.0
 20
80.0
 30
0.0
  0
POINT
  5
7626
330
7559
100
AcDbEntity
  8
DEFPOINTS
 62
     0
100
AcDbPoint
 10
0.0000000000000284
 20
-80.00000000001117
 30
0.0
  0
POINT
  5
7627
330
7559
100
AcDbEntity
  8
DEFPOINTS
 62
     0
100
AcDbPoint
 10
19.39992886336625
 20
-80.00000000001117
 30
0.0
  0
ENDBLK
  5
7564
330
7559
100
AcDbEntity
  8
0
100
AcDbBlockEnd
  0
BLOCK
  5
764D
330
763D
100
AcDbEntity
  8
0
100
AcDbBlockBegin
  2
*D12
 70
     1
 10
0.0
 20
0.0
 30
0.0
  3
*D12
  1

  0
LINE
  5
7712
330
763D
100
AcDbEntity
  8
AM_5
100
AcDbLine
 10
-8.655267124341957
 20
-89.14359148610397
 30
0.0
 11
-20.70602646907565
 21
-101.8742465846283
 31
0.0
  0
LINE
  5
7713
330
763D
100
AcDbEntity
  8
AM_5
100
AcDbLine
 10
0.0000000000000213
 20
-80.99999999999999
 30
0.0
 11
0.0000000000000071
 21
-110.1201294117935
 31
0.0
  0
ARC
  5
7714
330
763D
100
AcDbEntity
  8
AM_5
100
AcDbCircle
 10
0.0000000000000213
 20
-79.99999999999997
 30
0.0
 40
29.12012941179353
100
AcDbArc
 50
231.4919833969579
 51
265.0795728842849
  0
INSERT
  5
7715
330
763D
100
AcDbEntity
  8
AM_5
100
AcDbBlockReference
  2
_OPEN30
 10
-20.01857834473365
 20
-101.1480130985244
 30
0.0
 41
2.5
 42
2.5
 43
2.5
 50
139.0317698391004
  0
INSERT
  5
7716
330
763D
100
AcDbEntity
  8
AM_5
100
AcDbBlockReference
  2
_OPEN30
 10
0.0000000000000142
 20
-109.1201294117935
 30
0.0
 41
2.5
 42
2.5
 43
2.5
 50
357.5397864421424
  0
MTEXT
  5
7717
330
763D
100
AcDbEntity
  8
AM_5
 62
     2
100
AcDbMText
 10
-9.62685913952567
 20
-104.1737609344142
 30
0.0
 40
3.2
 41
0.0
 71
     5
 72
     1
  1
45%%d
  7
ASAMI
 11
0.9290407650108612
 21
-0.3699773735622677
 31
0.0
1001
ACAD
1000
MTEXTBEGIN
1070
    73
1070
     1
1070
    44
1040
1.0
1070
    74
1070
     0
1000
MTEXTEND
  0
POINT
  5
7718
330
763D
100
AcDbEntity
  8
DEFPOINTS
 62
     0
100
AcDbPoint
 10
-14.09650859269205
 20
-105.4807845730024
 30
0.0
  0
POINT
  5
7719
330
763D
100
AcDbEntity
  8
DEFPOINTS
 62
     0
100
AcDbPoint
 10
-7.967818999999959
 20
-88.41735800000003
 30
0.0
  0
POINT
  5
771A
330
763D
100
AcDbEntity
  8
DEFPOINTS
 62
     0
100
AcDbPoint
 10
0.0
 20
80.0
 30
0.0
  0
POINT
  5
771B
330
763D
100
AcDbEntity
  8
DEFPOINTS
 62
     0
100
AcDbPoint
 10
0.000000000000032
 20
-79.99999999999994
 30
0.0
  0
POINT
  5
771C
330
763D
100
AcDbEntity
  8
DEFPOINTS
 62
     0
100
AcDbPoint
 10
0.0
 20
-80.0
 30
0.0
  0
ENDBLK
  5
764E
330
763D
100
AcDbEntity
  8
0
100
AcDbBlockEnd
  0
ENDSEC
  0
SECTION
  2
ENTITIES
  0
TEXT
  5
44AC
330
1F
100
AcDbEntity
  8
AM_6
100
AcDbText
 10
-47.2142857142857
 20
-145.6863048957973
 30
0.0
 40
5.0
  1
UFO5160
 72
     4
 11
-31.49999999999999
 21
-143.1863048957972
 31
0.0
100
AcDbText
  0
LINE
  5
6781
330
1F
100
AcDbEntity
  8
AM_0
100
AcDbLine
 10
-63.0
 20
-48.0
 30
0.0
 11
-63.0
 21
-10.49999999999997
 31
0.0
  0
LINE
  5
6782
330
1F
100
AcDbEntity
  8
AM_0
100
AcDbLine
 10
-25.00000000000005
 20
-40.0
 30
0.0
 11
-25.00000000000005
 21
0.0
 31
0.0
  0
LINE
  5
6783
330
1F
100
AcDbEntity
  8
AM_0
100
AcDbLine
 10
-24.50000000000011
 20
-40.0
 30
0.0
 11
-24.50000000000011
 21
0.0
 31
0.0
  0
LINE
  5
6786
330
1F
100
AcDbEntity
  8
AM_0
100
AcDbLine
 10
-44.58178489803134
 20
-78.86464758633275
 30
0.0
 11
-50.72725320211731
 21
-55.9294476391799
 31
0.0
  0
LINE
  5
6787
330
1F
100
AcDbEntity
  8
AM_0
100
AcDbLine
 10
-9.499322768537609
 20
-88.32698398847862
 30
0.0
 11
-9.649723292782994
 21
-88.49999999999999
 31
0.0
  0
LINE
  5
6789
330
1F
100
AcDbEntity
  8
AM_0
100
AcDbLine
 10
-32.02474915627345
 20
-88.49999999999999
 30
0.0
 11
-26.07976513146263
 21
-88.49999999999999
 31
0.0
  0
LINE
  5
678A
330
1F
100
AcDbEntity
  8
AM_0
100
AcDbLine
 10
-11.93337524529744
 20
-65.34775920200946
 30
0.0
 11
-25.00000000000011
 21
-51.33551966943236
 31
0.0
  0
LINE
  5
678B
330
1F
100
AcDbEntity
  8
AM_0
100
AcDbLine
 10
-25.00000000000005
 20
-51.33551966943241
 30
0.0
 11
-25.00000000000005
 21
-45.0
 31
0.0
  0
LINE
  5
678F
330
1F
100
AcDbEntity
  8
AM_0
100
AcDbLine
 10
-61.0
 20
-50.0
 30
0.0
 11
-58.45465981242978
 21
-50.0
 31
0.0
  0
LINE
  5
6793
330
1F
100
AcDbEntity
  8
AM_0
100
AcDbLine
 10
-25.00000000000005
 20
-45.0
 30
0.0
 11
-24.50000000000011
 21
-45.0
 31
0.0
  0
LINE
  5
6794
330
1F
100
AcDbEntity
  8
AM_0
100
AcDbLine
 10
-24.50000000000011
 20
-45.0
 30
0.0
 11
-24.50000000000017
 21
-40.0
 31
0.0
  0
LINE
  5
6795
330
1F
100
AcDbEntity
  8
AM_0
100
AcDbLine
 10
-25.00000000000005
 20
-40.0
 30
0.0
 11
-24.50000000000011
 21
-40.0
 31
0.0
  0
LINE
  5
6797
330
1F
100
AcDbEntity
  8
AM_3
100
AcDbLine
 10
-2.000000000000113
 20
79.69999999999996
 30
0.0
 11
-9.499322768537581
 21
88.32698398847862
 31
0.0
  0
LINE
  5
6799
330
1F
100
AcDbEntity
  8
AM_7
100
AcDbLine
 10
-68.25434999311221
 20
0.0
 30
0.0
 11
5.399927863366258
 21
0.0
 31
0.0
  0
LINE
  5
679A
330
1F
100
AcDbEntity
  8
AM_3
100
AcDbLine
 10
-2.000000000000113
 20
76.0
 30
0.0
 11
-2.000000000000113
 21
74.9079793894027
 31
0.0
  0
LINE
  5
679B
330
1F
100
AcDbEntity
  8
AM_0
100
AcDbLine
 10
-24.50000000000011
 20
40.0
 30
0.0
 11
-24.50000000000011
 21
0.0
 31
0.0
  0
LINE
  5
679C
330
1F
100
AcDbEntity
  8
AM_0
100
AcDbLine
 10
-25.00000000000005
 20
40.0
 30
0.0
 11
-25.00000000000005
 21
0.0
 31
0.0
  0
LINE
  5
679D
330
1F
100
AcDbEntity
  8
AM_0
100
AcDbLine
 10
-63.0
 20
47.99999999999997
 30
0.0
 11
-63.0
 21
10.5
 31
0.0
  0
LINE
  5
679E
330
1F
100
AcDbEntity
  8
AM_0
100
AcDbLine
 10
-50.50999999999999
 20
25.14193551345596
 30
0.0
 11
-50.50999999999993
 21
0.0
 31
0.0
  0
LINE
  5
679F
330
1F
100
AcDbEntity
  8
AM_0
100
AcDbLine
 10
-52.0
 20
8.499999999999992
 30
0.0
 11
-52.00000000000006
 21
-0.0000000000000568
 31
0.0
  0
LINE
  5
67A1
330
1F
100
AcDbEntity
  8
AM_0
100
AcDbLine
 10
-52.0
 20
-8.5
 30
0.0
 11
-52.00000000000006
 21
0.0000000000000568
 31
0.0
  0
LINE
  5
67A3
330
1F
100
AcDbEntity
  8
AM_0
100
AcDbLine
 10
-62.0
 20
-9.5
 30
0.0
 11
-53.0
 21
-9.5
 31
0.0
  0
LINE
  5
67A4
330
1F
100
AcDbEntity
  8
AM_0
100
AcDbLine
 10
-50.50999999999993
 20
25.14193551345596
 30
0.0
 11
-26.00000000000005
 21
25.14193551345605
 31
0.0
  0
LINE
  5
67A5
330
1F
100
AcDbEntity
  8
AM_0
100
AcDbLine
 10
-57.89999999999998
 20
25.4
 30
0.0
 11
-57.89999999999998
 21
9.5
 31
0.0
  0
LINE
  5
67A8
330
1F
100
AcDbEntity
  8
AM_0
100
AcDbLine
 10
-62.0
 20
9.5
 30
0.0
 11
-53.0
 21
9.5
 31
0.0
  0
LINE
  5
67AA
330
1F
100
AcDbEntity
  8
AM_0
100
AcDbLine
 10
-57.89999999999998
 20
25.4
 30
0.0
 11
-60.0
 21
25.4
 31
0.0
  0
LINE
  5
67AB
330
1F
100
AcDbEntity
  8
AM_0
100
AcDbLine
 10
-50.50999999999999
 20
25.14193551345596
 30
0.0
 11
-57.89999999999998
 21
25.4
 31
0.0
  0
LINE
  5
67AD
330
1F
100
AcDbEntity
  8
AM_3
100
AcDbLine
 10
-2.000000000000113
 20
76.0
 30
0.0
 11
-11.93337524529738
 21
65.34775920200946
 31
0.0
  0
LINE
  5
67AE
330
1F
100
AcDbEntity
  8
AM_0
100
AcDbLine
 10
-44.58178489803128
 20
78.8646475863328
 30
0.0
 11
-50.72725320211731
 21
55.92944763917985
 31
0.0
  0
LINE
  5
67B1
330
1F
100
AcDbEntity
  8
AM_0
100
AcDbLine
 10
-61.00000000000004
 20
49.99999999999997
 30
0.0
 11
-58.45465981242967
 21
50.00000000000003
 31
0.0
  0
LINE
  5
67B2
330
1F
100
AcDbEntity
  8
AM_0
100
AcDbLine
 10
-24.50000000000011
 20
45.0
 30
0.0
 11
-24.50000000000017
 21
40.0
 31
0.0
  0
LINE
  5
67B3
330
1F
100
AcDbEntity
  8
AM_0
100
AcDbLine
 10
-25.00000000000005
 20
40.0
 30
0.0
 11
-24.50000000000011
 21
40.0
 31
0.0
  0
LINE
  5
67B4
330
1F
100
AcDbEntity
  8
AM_0
100
AcDbLine
 10
-25.00000000000005
 20
45.0
 30
0.0
 11
-24.50000000000011
 21
45.0
 31
0.0
  0
LINE
  5
67B5
330
1F
100
AcDbEntity
  8
AM_0
100
AcDbLine
 10
-25.00000000000005
 20
51.33551966943239
 30
0.0
 11
-25.00000000000005
 21
45.0
 31
0.0
  0
LINE
  5
67B6
330
1F
100
AcDbEntity
  8
AM_3
100
AcDbLine
 10
-2.000000000000113
 20
79.69999999999998
 30
0.0
 11
-2.000000000000113
 21
76.0
 31
0.0
  0
LINE
  5
67B7
330
1F
100
AcDbEntity
  8
AM_0
100
AcDbLine
 10
-32.0247491562734
 20
88.49999999999999
 30
0.0
 11
-26.07976513146263
 21
88.49999999999999
 31
0.0
  0
DIMENSION
  5
72E9
330
1F
100
AcDbEntity
  8
AM_5
100
AcDbDimension
  2
*D5
 10
-102.2543509931122
 20
-50.0
 30
0.0
 11
-105.3543509931121
 21
-0.0000000000000218
 31
0.0
 70
    32
  1
%%c<>
  3
AM_JIS
100
AcDbAlignedDimension
 13
-61.0
 23
49.99999999999997
 33
0.0
 14
-61.0
 24
-50.0
 34
0.0
 50
90.0
100
AcDbRotatedDimension
1001
GENIUS_GENDTOL_13
1000

1000
h7
1000

1040
0.0
  0
DIMENSION
  5
72EA
330
1F
100
AcDbEntity
  8
AM_5
100
AcDbDimension
  2
*D6
 10
-82.25435099311221
 20
-9.499999999999994
 30
0.0
 11
-82.25435099311221
 21
-0.0000000000000355
 31
0.0
 70
   160
  3
AM_JIS
100
AcDbAlignedDimension
 13
-62.0
 23
9.5
 33
0.0
 14
-62.0
 24
-9.5
 34
0.0
 50
90.0
100
AcDbRotatedDimension
  0
DIMENSION
  5
72EB
330
1F
100
AcDbEntity
  8
AM_5
100
AcDbDimension
  2
*D7
 10
-92.25435099311221
 20
-25.40000000000005
 30
0.0
 11
-95.3543509931122
 21
-0.0000000000000331
 31
0.0
 70
    32
  1
%%c<>
  3
AM_JIS
100
AcDbAlignedDimension
 13
-60.0
 23
25.4
 33
0.0
 14
-60.00000000000023
 24
-25.40000000000006
 34
0.0
 50
90.0
100
AcDbRotatedDimension
1001
GENIUS_GENDTOL_13
1000

1000
h7
1000

1040
0.0
  0
DIMENSION
  5
7341
330
1F
100
AcDbEntity
  8
AM_5
100
AcDbDimension
  2
*D9
 10
-0.0000000000000026
 20
-123.1863048957972
 30
0.0
 11
-31.5
 21
-120.0863048957973
 31
0.0
 70
    32
  3
AM_JIS
100
AcDbAlignedDimension
 13
-63.0
 23
-48.0
 33
0.0
 14
0.0
 24
-80.0
 34
0.0
100
AcDbRotatedDimension
  0
DIMENSION
  5
7342
330
1F
100
AcDbEntity
  8
AM_5
100
AcDbDimension
  2
*D10
 10
-25.00000000000006
 20
-113.1863048957972
 30
0.0
 11
-44.00000000000003
 21
-110.0863048957972
 31
0.0
 70
    32
  3
AM_JIS
100
AcDbAlignedDimension
 13
-63.0
 23
-48.0
 33
0.0
 14
-25.00000000000005
 24
-40.0
 34
0.0
100
AcDbRotatedDimension
  0
DIMENSION
  5
7343
330
1F
100
AcDbEntity
  8
AM_5
100
AcDbDimension
  2
*D8
 10
-51.99999999999995
 20
-103.1863048957972
 30
0.0
 11
-57.49999999999997
 21
-100.0863048957973
 31
0.0
 70
    32
  3
AM_JIS
100
AcDbAlignedDimension
 13
-63.0
 23
-48.0
 33
0.0
 14
-51.99999999999994
 24
-8.499999999999992
 34
0.0
100
AcDbRotatedDimension
  0
LINE
  5
742D
330
1F
100
AcDbEntity
  8
AM_0
100
AcDbLine
 10
-50.51000000000016
 20
-25.14193551345609
 30
0.0
 11
-26.00000000000028
 21
-25.14193551345634
 31
0.0
  0
LINE
  5
742E
330
1F
100
AcDbEntity
  8
AM_0
100
AcDbLine
 10
-57.9000000000002
 20
-25.40000000000008
 30
0.0
 11
-60.00000000000023
 21
-25.40000000000006
 31
0.0
  0
LINE
  5
7430
330
1F
100
AcDbEntity
  8
AM_0
100
AcDbLine
 10
-50.51000000000022
 20
-25.14193551345609
 30
0.0
 11
-57.9000000000002
 21
-25.40000000000008
 31
0.0
  0
LINE
  5
7432
330
1F
100
AcDbEntity
  8
AM_0
100
AcDbLine
 10
-50.51000000000022
 20
-25.14193551345609
 30
0.0
 11
-50.50999999999993
 21
-0.0000000000001279
 31
0.0
  0
LINE
  5
7433
330
1F
100
AcDbEntity
  8
AM_0
100
AcDbLine
 10
-57.9000000000002
 20
-25.40000000000008
 30
0.0
 11
-57.90000000000009
 21
-9.500000000000071
 31
0.0
  0
ELLIPSE
  5
7485
330
1F
100
AcDbEntity
  8
AM_0
100
AcDbEllipse
 10
-10.77498700000001
 20
92.44321600000001
 30
0.0
 11
9.077921428430002
 21
8.593098541228002
 31
0.0
210
0.0
220
0.0
230
1.0
 40
0.40306016
 41
3.625988081971029
 42
4.12191071214064
  0
ELLIPSE
  5
7486
330
1F
100
AcDbEntity
  8
AM_0
100
AcDbEllipse
 10
1.29569200000003
 20
79.69151799999997
 30
0.0
 11
8.063423839663
 21
9.664547013867
 31
0.0
210
0.0
220
0.0
230
1.0
 40
0.04746598979819
 41
2.155669251262539
 42
2.651588309760209
  0
ELLIPSE
  5
7487
330
1F
100
AcDbEntity
  8
AM_0
100
AcDbEllipse
 10
-11.049169
 20
77.96997699999997
 30
0.0
 11
-3.832724215734998
 21
2.376246174469999
 31
0.0
210
0.0
220
0.0
230
1.0
 40
0.49620175355538
 41
0.62109220314602
 42
1.543512159643229
  0
ELLIPSE
  5
7488
330
1F
100
AcDbEntity
  8
AM_0
100
AcDbEllipse
 10
-15.4837
 20
71.88918799999999
 30
0.0
 11
-3.435959798769999
 21
2.924448059599999
 31
0.0
210
0.0
220
0.0
230
1.0
 40
0.23346323854036
 41
0.017551380496699
 42
2.70797623664354
  0
ELLIPSE
  5
7489
330
1F
100
AcDbEntity
  8
AM_0
100
AcDbEllipse
 10
-11.01164399999993
 20
92.76474600000005
 30
0.0
 11
9.077921428430002
 21
8.593098541228002
 31
0.0
210
0.0
220
0.0
230
1.0
 40
0.40306016
 41
3.504973911650779
 42
4.120812155185199
  0
ELLIPSE
  5
748A
330
1F
100
AcDbEntity
  8
AM_0
100
AcDbEllipse
 10
-8.361959999999953
 20
89.96556899999996
 30
0.0
 11
16.752346230429
 21
0.4186277243570003
 31
0.0
210
0.0
220
0.0
230
1.0
 40
0.09565589915869
 41
3.387269475739639
 42
3.69919915740975
  0
ELLIPSE
  5
748B
330
1F
100
AcDbEntity
  8
AM_0
100
AcDbEllipse
 10
-8.361959999999953
 20
89.96556899999996
 30
0.0
 11
16.752346230429
 21
0.4186277243570003
 31
0.0
210
0.0
220
0.0
230
1.0
 40
0.09565589915869
 41
3.87803142890441
 42
4.206720239215379
  0
ELLIPSE
  5
748C
330
1F
100
AcDbEntity
  8
AM_0
100
AcDbEllipse
 10
-19.729555
 20
86.00692900000002
 30
0.0
 11
-2.555150043760999
 21
1.584164467601999
 31
0.0
210
0.0
220
0.0
230
1.0
 40
0.4962014217725701
 41
1.08230269278924
 42
1.665047343793309
  0
ELLIPSE
  5
748D
330
1F
100
AcDbEntity
  8
AM_0
100
AcDbEllipse
 10
-23.90519500000004
 20
80.28114000000005
 30
0.0
 11
-2.290639612009
 21
1.949631823684
 31
0.0
210
0.0
220
0.0
230
1.0
 40
0.2334633752270999
 41
1.137178375746189
 42
2.70797645986774
  0
ELLIPSE
  5
748E
330
1F
100
AcDbEntity
  8
AM_0
100
AcDbEllipse
 10
-22.24609199999997
 20
88.66544799999998
 30
0.0
 11
-2.555150043760999
 21
1.584164467601999
 31
0.0
210
0.0
220
0.0
230
1.0
 40
0.4962014217725701
 41
0.636245101584397
 42
1.08230269278924
  0
ELLIPSE
  5
748F
330
1F
100
AcDbEntity
  8
AM_0
100
AcDbEllipse
 10
-18.35408800000004
 20
89.07402300000001
 30
0.0
 11
4.438020644030999
 21
0.167170474016
 31
0.0
210
0.0
220
0.0
230
1.0
 40
0.1084187763219
 41
3.46551503352552
 42
4.13902372390823
  0
ELLIPSE
  5
7490
330
1F
100
AcDbEntity
  8
AM_0
100
AcDbEllipse
 10
-21.99738100000002
 20
89.00648899999998
 30
0.0
 11
3.804017266616
 21
0.143288961596
 31
0.0
210
0.0
220
0.0
230
0.9999999999999998
 40
0.1084186759450099
 41
2.382733006633379
 42
3.056298966713689
  0
ELLIPSE
  5
7491
330
1F
100
AcDbEntity
  8
0
100
AcDbEllipse
 10
-26.42173200000001
 20
82.93965900000001
 30
0.0
 11
-2.290639612009
 21
1.949631823684
 31
0.0
210
0.0
220
0.0
230
1.0
 40
0.2334633752270999
 41
0.017551370222918
 42
1.137178375746189
  0
SPLINE
  5
7492
330
1F
100
AcDbEntity
  8
AM_0
100
AcDbSpline
210
0.0
220
0.0
230
1.0
 70
     8
 71
     3
 72
    11
 73
     7
 74
     5
 42
0.0000000001
 43
0.0000000001
 44
0.0000000001
 40
0.0
 40
0.0
 40
0.0
 40
0.0
 40
1.229155053773672
 40
2.359789102299075
 40
3.335199407223072
 40
4.139373817313883
 40
4.139373817313883
 40
4.139373817313883
 40
4.139373817313883
 10
-12.33238700000004
 20
76.13370600000007
 30
0.0
 10
-12.02518540199482
 20
75.86148412034496
 30
0.0
 10
-11.43540547068678
 20
75.33885988099837
 30
0.0
 10
-10.51943471098597
 20
74.7129648103631
 30
0.0
 10
-9.634105396064985
 20
74.26651170447165
 30
0.0
 10
-9.035694971567462
 20
74.24052506944545
 30
0.0
 10
-8.765280000000075
 20
74.22878200000003
 30
0.0
 11
-12.33238700000004
 21
76.13370600000007
 31
0.0
 11
-11.39496299999996
 21
75.33868499999994
 31
0.0
 11
-10.45885199999997
 21
74.70462699999996
 31
0.0
 11
-9.564878000000021
 21
74.31445299999996
 31
0.0
 11
-8.765280000000075
 21
74.22878200000003
 31
0.0
  0
SPLINE
  5
7493
330
1F
100
AcDbEntity
  8
AM_0
100
AcDbSpline
210
0.0
220
0.0
230
1.0
 70
     8
 71
     3
 72
    11
 73
     7
 74
     5
 42
0.0000000001
 43
0.0000000001
 44
0.0000000001
 40
0.0
 40
0.0
 40
0.0
 40
0.0
 40
0.2757246160954179
 40
0.5070860214551444
 40
0.6974850349661815
 40
0.8565604683586812
 40
0.8565604683586812
 40
0.8565604683586812
 40
0.8565604683586812
 10
-14.42748800000003
 20
80.21044900000005
 30
0.0
 10
-14.51885562432708
 20
80.19882822037489
 30
0.0
 10
-14.68689011383299
 20
80.17745640747776
 30
0.0
 10
-14.91035128851528
 20
80.11329044298875
 30
0.0
 10
-15.08985517953499
 20
80.03130702217863
 30
0.0
 10
-15.17002838207365
 20
79.94547048252731
 30
0.0
 10
-15.20652199999995
 20
79.90639899999997
 30
0.0
 11
-14.42748800000003
 21
80.21044900000005
 31
0.0
 11
-14.69994299999996
 21
80.16811299999995
 31
0.0
 11
-14.92203600000005
 21
80.10328400000004
 31
0.0
 11
-15.09127499999999
 21
80.01604900000007
 31
0.0
 11
-15.20652199999995
 21
79.90639899999997
 31
0.0
  0
SPLINE
  5
7494
330
1F
100
AcDbEntity
  8
AM_0
100
AcDbSpline
210
0.0
220
0.0
230
1.0
 70
     8
 71
     3
 72
    11
 73
     7
 74
     5
 42
0.0000000001
 43
0.0000000001
 44
0.0000000001
 40
0.0
 40
0.0
 40
0.0
 40
0.0
 40
1.044681058912289
 40
1.941535364311428
 40
2.612929256193107
 40
3.043453543063087
 40
3.043453543063087
 40
3.043453543063087
 40
3.043453543063087
 10
-11.47866099999998
 20
79.17180299999995
 30
0.0
 10
-11.81285284831369
 20
79.27644707525214
 30
0.0
 10
-12.43394699607324
 20
79.4709276500022
 30
0.0
 10
-13.29124569786378
 20
79.56272730573264
 30
0.0
 10
-13.98933890998184
 20
79.58368210617601
 30
0.0
 10
-14.29816376761434
 20
79.37206049555534
 30
0.0
 10
-14.41882299999997
 20
79.28937900000005
 30
0.0
 11
-11.47866099999998
 21
79.17180299999995
 31
0.0
 11
-12.48584600000003
 21
79.44917799999996
 31
0.0
 11
-13.37607300000001
 21
79.55800599999998
 31
0.0
 11
-14.04523900000003
 21
79.50335599999994
 31
0.0
 11
-14.41882299999997
 21
79.28937900000005
 31
0.0
  0
SPLINE
  5
7495
330
1F
100
AcDbEntity
  8
AM_0
100
AcDbSpline
210
0.0
220
0.0
230
1.0
 70
     8
 71
     3
 72
    11
 73
     7
 74
     5
 42
0.0000000001
 43
0.0000000001
 44
0.0000000001
 40
0.0
 40
0.0
 40
0.0
 40
0.0
 40
0.2146183478176924
 40
0.4696810224723788
 40
0.8052844550412192
 40
1.233282672192869
 40
1.233282672192869
 40
1.233282672192869
 40
1.233282672192869
 10
-15.20652199999995
 20
79.90639899999997
 30
0.0
 10
-15.2380681357116
 20
79.84004875864707
 30
0.0
 10
-15.30710520279726
 20
79.69484472778582
 30
0.0
 10
-15.23811639579588
 20
79.41966601252442
 30
0.0
 10
-15.08590932919419
 20
79.11888730207417
 30
0.0
 10
-14.93617563569052
 20
78.91180659735946
 30
0.0
 10
-14.85225000000002
 20
78.79573800000002
 30
0.0
 11
-15.20652199999995
 21
79.90639899999997
 31
0.0
 11
-15.27834400000006
 21
79.70415500000001
 31
0.0
 11
-15.23799499999995
 21
79.45230400000003
 31
0.0
 11
-15.09283100000004
 21
79.14972
 31
0.0
 11
-14.85225000000002
 21
78.79573800000002
 31
0.0
  0
SPLINE
  5
7496
330
1F
100
AcDbEntity
  8
AM_0
100
AcDbSpline
210
0.0
220
0.0
230
1.0
 70
     8
 71
     3
 72
    11
 73
     7
 74
     5
 42
0.0000000001
 43
0.0000000001
 44
0.0000000001
 40
0.0
 40
0.0
 40
0.0
 40
0.0
 40
0.9468400005941315
 40
2.192327326611066
 40
3.719287352166795
 40
5.361660531472839
 40
5.361660531472839
 40
5.361660531472839
 40
5.361660531472839
 10
-8.671613999999976
 20
75.29017099999999
 30
0.0
 10
-8.563825548231188
 20
75.59800399614101
 30
0.0
 10
-8.314250574468426
 20
76.31076506353263
 30
0.0
 10
-8.914449749168815
 20
77.51607289120426
 30
0.0
 10
-9.988883919063287
 20
78.5375541224268
 30
0.0
 10
-10.97015742028739
 20
78.95531569542157
 30
0.0
 10
-11.47866099999998
 20
79.17180299999995
 30
0.0
 11
-8.671613999999976
 21
75.29017099999999
 31
0.0
 11
-8.460791999999969
 21
76.21324200000003
 31
0.0
 11
-8.914904999999976
 21
77.37299199999995
 31
0.0
 11
-10.00953100000003
 21
78.43760499999996
 31
0.0
 11
-11.47866099999998
 21
79.17180299999995
 31
0.0
  0
SPLINE
  5
7497
330
1F
100
AcDbEntity
  8
AM_0
100
AcDbSpline
210
0.0
220
0.0
230
1.0
 70
     8
 71
     3
 72
    11
 73
     7
 74
     5
 42
0.0000000001
 43
0.0000000001
 44
0.0000000001
 40
0.0
 40
0.0
 40
0.0
 40
0.0
 40
1.246889020983929
 40
3.762516581837277
 40
6.241278341023646
 40
7.756416456251836
 40
7.756416456251836
 40
7.756416456251836
 40
7.756416456251836
 10
-14.41882299999997
 20
79.28937900000005
 30
0.0
 10
-14.30894226835926
 20
78.87835426928319
 30
0.0
 10
-13.97737460847535
 20
77.6380775976296
 30
0.0
 10
-12.25427748367503
 20
76.40519472861592
 30
0.0
 10
-10.51989756002897
 20
74.66132608531312
 30
0.0
 10
-9.179943199184023
 20
75.11722122172639
 30
0.0
 10
-8.671613999999976
 20
75.29017099999999
 30
0.0
 11
-14.41882299999997
 21
79.28937900000005
 31
0.0
 11
-14.01151400000003
 21
78.11089199999992
 31
0.0
 11
-12.25631899999996
 21
76.308762
 31
0.0
 11
-10.15690500000005
 21
74.99091499999997
 31
0.0
 11
-8.671613999999976
 21
75.29017099999999
 31
0.0
  0
SPLINE
  5
7498
330
1F
100
AcDbEntity
  8
AM_0
100
AcDbSpline
210
0.0
220
0.0
230
1.0
 70
     8
 71
     3
 72
    11
 73
     7
 74
     5
 42
0.0000000001
 43
0.0000000001
 44
0.0000000001
 40
0.0
 40
0.0
 40
0.0
 40
0.0
 40
0.7145174021798862
 40
1.360841361157881
 40
1.911021809648191
 40
2.35077867992204
 40
2.35077867992204
 40
2.35077867992204
 40
2.35077867992204
 10
-20.27166199999999
 20
84.595599
 30
0.0
 10
-20.09045674366066
 20
84.44057941893943
 30
0.0
 10
-19.7453404358794
 20
84.14533530444627
 30
0.0
 10
-19.22082469472345
 20
83.78520835143284
 30
0.0
 10
-18.73719382876087
 20
83.51804892026553
 30
0.0
 10
-18.41073072170286
 20
83.4586386466953
 30
0.0
 10
-18.26570700000002
 20
83.43224699999996
 30
0.0
 11
-20.27166199999999
 21
84.595599
 31
0.0
 11
-19.72021900000004
 21
84.14123600000005
 31
0.0
 11
-19.18706900000006
 21
83.77587900000003
 31
0.0
 11
-18.69409500000006
 21
83.53159400000004
 31
0.0
 11
-18.26570700000002
 21
83.43224699999996
 31
0.0
  0
SPLINE
  5
7499
330
1F
100
AcDbEntity
  8
AM_0
100
AcDbSpline
210
0.0
220
0.0
230
1.0
 70
     8
 71
     3
 72
    11
 73
     7
 74
     5
 42
0.0000000001
 43
0.0000000001
 44
0.0000000001
 40
0.0
 40
0.0
 40
0.0
 40
0.0
 40
1.781054617354758
 40
3.506377661407772
 40
4.920553017920796
 40
5.969191440193204
 40
5.969191440193204
 40
5.969191440193204
 40
5.969191440193204
 10
-20.74631899999997
 20
88.57912199999999
 30
0.0
 10
-20.17798284795446
 20
88.38907438797161
 30
0.0
 10
-19.05909453971014
 20
88.01492600704778
 30
0.0
 10
-17.77085771277123
 20
86.98648775820867
 30
0.0
 10
-16.98170809131745
 20
85.67391352810615
 30
0.0
 10
-17.23742753531398
 20
84.86174375830165
 30
0.0
 10
-17.34631000000001
 20
84.51593100000001
 30
0.0
 11
-20.74631899999997
 21
88.57912199999999
 31
0.0
 11
-19.09314300000005
 21
87.916427
 31
0.0
 11
-17.75897499999996
 21
86.82247299999994
 31
0.0
 11
-17.15015500000004
 21
85.54606000000001
 31
0.0
 11
-17.34631000000001
 21
84.51593100000001
 31
0.0
  0
SPLINE
  5
749A
330
1F
100
AcDbEntity
  8
AM_0
100
AcDbSpline
210
0.0
220
0.0
230
1.0
 70
     8
 71
     3
 72
    11
 73
     7
 74
     5
 42
0.0000000001
 43
0.0000000001
 44
0.0000000001
 40
0.0
 40
0.0
 40
0.0
 40
0.0
 40
0.1207349035947009
 40
0.2580224223864093
 40
0.4180002945844748
 40
0.6037184282090504
 40
0.6037184282090504
 40
0.6037184282090504
 40
0.6037184282090504
 10
-23.09194000000002
 20
88.51730399999997
 30
0.0
 10
-23.06498645690385
 20
88.54754964823889
 30
0.0
 10
-23.00738407122657
 20
88.61218758799699
 30
0.0
 10
-22.882781941639
 20
88.67930114044348
 30
0.0
 10
-22.7305002045706
 20
88.73247974631622
 30
0.0
 10
-22.61668103119118
 20
88.75194089467484
 30
0.0
 10
-22.55553399999996
 20
88.76239599999996
 30
0.0
 11
-23.09194000000002
 21
88.51730399999997
 31
0.0
 11
-23.00685099999998
 21
88.60295900000005
 31
0.0
 11
-22.88845500000002
 21
88.672459
 31
0.0
 11
-22.73758299999997
 21
88.72566200000006
 31
0.0
 11
-22.55553399999996
 21
88.76239599999996
 31
0.0
  0
SPLINE
  5
749B
330
1F
100
AcDbEntity
  8
AM_0
100
AcDbSpline
210
0.0
220
0.0
230
1.0
 70
     8
 71
     3
 72
    11
 73
     7
 74
     5
 42
0.0000000001
 43
0.0000000001
 44
0.0000000001
 40
0.0
 40
0.0
 40
0.0
 40
0.0
 40
1.513557931089836
 40
3.992145909842459
 40
6.507770644115048
 40
7.753678600587351
 40
7.753678600587351
 40
7.753678600587351
 40
7.753678600587351
 10
-17.34631000000001
 20
84.51593100000001
 30
0.0
 10
-17.85427489096596
 20
84.34377477462449
 30
0.0
 10
-19.19407822466002
 20
83.88969716261531
 30
0.0
 10
-20.92647549584317
 20
85.6347207761757
 30
0.0
 10
-22.64872479465648
 20
86.86732017080631
 30
0.0
 10
-22.98166303624332
 20
88.10676933255754
 30
0.0
 10
-23.09194000000002
 20
88.51730399999997
 30
0.0
 11
-17.34631000000001
 21
84.51593100000001
 31
0.0
 11
-18.830377
 21
84.21860500000002
 31
0.0
 11
-20.92866100000003
 21
85.53792399999997
 31
0.0
 11
-22.68373900000006
 21
87.34016399999996
 31
0.0
 11
-23.09194000000002
 21
88.51730399999997
 31
0.0
  0
LINE
  5
749C
330
1F
100
AcDbEntity
  8
AM_0
100
AcDbLine
 10
-14.42748800000003
 20
80.21044900000005
 30
0.0
 11
-17.19567900000004
 21
83.13481899999999
 31
0.0
  0
LINE
  5
749D
330
1F
100
AcDbEntity
  8
AM_0
100
AcDbLine
 10
-15.99415999999996
 20
88.28032099999996
 30
0.0
 11
-12.852754
 21
88.46569699999998
 31
0.0
  0
LINE
  5
749E
330
1F
100
AcDbEntity
  8
AM_0
100
AcDbLine
 10
-16.44164399999999
 20
88.36087299999997
 30
0.0
 11
-13.19918099999995
 21
84.935472
 31
0.0
  0
LINE
  5
749F
330
1F
100
AcDbEntity
  8
AM_0
100
AcDbLine
 10
-16.031967
 20
88.32026100000007
 30
0.0
 11
-12.88670999999999
 21
84.99755099999992
 31
0.0
  0
LINE
  5
74A0
330
1F
100
AcDbEntity
  8
AM_0
100
AcDbLine
 10
-12.91096200000004
 20
65.58504600000003
 30
0.0
 11
-28.19892500000003
 21
81.73554600000001
 31
0.0
  0
LINE
  5
74A1
330
1F
100
AcDbEntity
  8
AM_0
100
AcDbLine
 10
-15.20649600000001
 20
79.90643499999999
 30
0.0
 11
-18.93111199999998
 21
74.79910700000004
 31
0.0
  0
LINE
  5
74A2
330
1F
100
AcDbEntity
  8
AM_0
100
AcDbLine
 10
-21.08299499999998
 20
77.80439100000001
 30
0.0
 11
-17.19567900000004
 21
83.13481899999999
 31
0.0
  0
LINE
  5
74A3
330
1F
100
AcDbEntity
  8
AM_0
100
AcDbLine
 10
-18.26570700000002
 20
83.43224699999996
 30
0.0
 11
-22.01779199999998
 21
78.28725099999997
 31
0.0
  0
LINE
  5
74A4
330
1F
100
AcDbEntity
  8
AM_0
100
AcDbLine
 10
-21.08299499999998
 20
77.80439100000001
 30
0.0
 11
-18.629589
 21
75.21256599999992
 31
0.0
  0
LINE
  5
74A5
330
1F
100
AcDbEntity
  8
AM_0
100
AcDbLine
 10
-20.92440399999998
 20
78.02185699999995
 30
0.0
 11
-22.01779199999998
 21
78.28725099999997
 31
0.0
  0
LINE
  5
74A6
330
1F
100
AcDbEntity
  8
AM_0
100
AcDbLine
 10
-24.13934199999994
 20
88.289311
 30
0.0
 11
-21.62280399999997
 21
85.63079199999993
 31
0.0
  0
LINE
  5
74A7
330
1F
100
AcDbEntity
  8
AM_0
100
AcDbLine
 10
-25.280664
 20
80.61500399999999
 30
0.0
 11
-21.62280399999997
 21
85.63079199999993
 31
0.0
  0
LINE
  5
74A8
330
1F
100
AcDbEntity
  8
AM_0
100
AcDbLine
 10
-20.27166199999999
 20
84.595599
 30
0.0
 11
-24.60154199999999
 21
89.16976699999997
 31
0.0
  0
LINE
  5
74A9
330
1F
100
AcDbEntity
  8
AM_0
100
AcDbLine
 10
-24.13934199999994
 20
88.289311
 30
0.0
 11
-27.79720099999997
 21
83.27352199999996
 31
0.0
  0
LINE
  5
74AA
330
1F
100
AcDbEntity
  8
0
100
AcDbLine
 10
-25.78889400000003
 20
88.89885300000003
 30
0.0
 11
-28.720007
 21
84.87960499999998
 31
0.0
  0
LINE
  5
74AB
330
1F
100
AcDbEntity
  8
AM_0
100
AcDbLine
 10
-27.79720099999997
 20
83.27352199999996
 30
0.0
 11
-25.280664
 21
80.61500399999999
 31
0.0
  0
LINE
  5
74AC
330
1F
100
AcDbEntity
  8
AM_0
100
AcDbLine
 10
-28.19892500000003
 20
81.73554600000001
 30
0.0
 11
-27.31678999999997
 21
82.76600699999994
 31
0.0
  0
LINE
  5
74AD
330
1F
100
AcDbEntity
  8
AM_0
100
AcDbLine
 10
-24.60154199999999
 20
89.16976699999997
 30
0.0
 11
-24.76834499999995
 21
89.18630299999994
 31
0.0
  0
LINE
  5
74AE
330
1F
100
AcDbEntity
  8
AM_0
100
AcDbLine
 10
-16.031967
 20
88.32026100000007
 30
0.0
 11
-16.44164399999999
 21
88.36087299999997
 31
0.0
  0
LINE
  5
74AF
330
1F
100
AcDbEntity
  8
AM_0
100
AcDbLine
 10
-1.875644999999963
 20
75.05324399999995
 30
0.0
 11
-1.088601000000039
 21
76.48189400000001
 31
0.0
  0
LINE
  5
74B0
330
1F
100
AcDbEntity
  8
AM_0
100
AcDbLine
 10
-0.0057319999999663
 20
77.74684200000002
 30
0.0
 11
-8.018777
 21
68.38644699999997
 31
0.0
  0
LINE
  5
74B1
330
1F
100
AcDbEntity
  8
AM_0
100
AcDbLine
 10
-7.967818999999963
 20
88.41735800000003
 30
0.0
 11
0.0
 21
80.0
 31
0.0
  0
LINE
  5
74B2
330
1F
100
AcDbEntity
  8
AM_0
100
AcDbLine
 10
-12.95211799999992
 20
84.61954300000002
 30
0.0
 11
-3.53857199999993
 21
74.674892
 31
0.0
  0
LINE
  5
74B3
330
1F
100
AcDbEntity
  8
AM_0
100
AcDbLine
 10
-12.63964699999996
 20
84.68162299999994
 30
0.0
 11
-3.378537000000051
 21
74.898007
 31
0.0
  0
LINE
  5
74B4
330
1F
100
AcDbEntity
  8
AM_0
100
AcDbLine
 10
-14.85225000000002
 20
78.79573800000002
 30
0.0
 11
-12.33238700000004
 21
76.13370600000007
 31
0.0
  0
LINE
  5
74B5
330
1F
100
AcDbEntity
  8
AM_0
100
AcDbLine
 10
-8.647919999999999
 20
68.34932100000003
 30
0.0
 11
-8.018777
 21
68.38644699999997
 31
0.0
  0
LINE
  5
74B6
330
1F
100
AcDbEntity
  8
AM_0
100
AcDbLine
 10
-10.08332199999995
 20
65.72078699999997
 30
0.0
 11
-8.372836000000006
 21
67.46358600000007
 31
0.0
  0
LINE
  5
74B7
330
1F
100
AcDbEntity
  8
AM_0
100
AcDbLine
 10
-10.87910399999998
 20
65.091859
 30
0.0
 11
-8.060870000000022
 21
68.38396299999999
 31
0.0
  0
LINE
  5
74B8
330
1F
100
AcDbEntity
  8
AM_0
100
AcDbLine
 10
-6.034837000000038
 20
71.344289
 30
0.0
 11
-8.765280000000075
 21
74.22878200000003
 31
0.0
  0
LINE
  5
74B9
330
1F
100
AcDbEntity
  8
AM_0
100
AcDbLine
 10
-6.034837000000038
 20
71.344289
 30
0.0
 11
-10.31942000000003
 21
66.43354199999999
 31
0.0
  0
LINE
  5
74BA
330
1F
100
AcDbEntity
  8
AM_0
100
AcDbLine
 10
-8.765280000000075
 20
74.22878200000003
 30
0.0
 11
-12.65259600000001
 21
68.89835400000004
 31
0.0
  0
LINE
  5
74BB
330
1F
100
AcDbEntity
  8
AM_0
100
AcDbLine
 10
-10.87910399999998
 20
65.091859
 30
0.0
 11
-12.91096200000004
 21
65.58504600000003
 31
0.0
  0
LINE
  5
74BC
330
1F
100
AcDbEntity
  8
AM_0
100
AcDbLine
 10
-11.29884700000002
 20
67.46822799999995
 30
0.0
 11
-12.91096200000004
 21
65.58504600000003
 31
0.0
  0
LINE
  5
74BD
330
1F
100
AcDbEntity
  8
AM_0
100
AcDbLine
 10
-12.65259600000001
 20
68.89835400000004
 30
0.0
 11
-10.31942000000003
 21
66.43354199999999
 31
0.0
  0
LINE
  5
74BE
330
1F
100
AcDbEntity
  8
AM_0
100
AcDbLine
 10
-10.607484
 20
65.40914999999995
 30
0.0
 11
-10.08332199999995
 21
65.72078699999997
 31
0.0
  0
LINE
  5
74BF
330
1F
100
AcDbEntity
  8
AM_0
100
AcDbLine
 10
-8.372836000000006
 20
67.46358600000007
 30
0.0
 11
-1.875644999999963
 21
75.05324399999995
 31
0.0
  0
LINE
  5
74C0
330
1F
100
AcDbEntity
  8
AM_0
100
AcDbLine
 10
-3.378537000000051
 20
74.898007
 30
0.0
 11
-3.53857199999993
 21
74.674892
 31
0.0
  0
LINE
  5
74C1
330
1F
100
AcDbEntity
  8
AM_0
100
AcDbLine
 10
-7.967818999999963
 20
88.41735800000003
 30
0.0
 11
-9.993239000000016
 21
88.29783799999995
 31
0.0
  0
LINE
  5
74C2
330
1F
100
AcDbEntity
  8
AM_0
100
AcDbLine
 10
-12.852754
 20
88.46569699999998
 30
0.0
 11
-11.27573200000006
 21
86.79970000000002
 31
0.0
  0
LINE
  5
74C3
330
1F
100
AcDbEntity
  8
AM_0
100
AcDbLine
 10
-13.29754600000001
 20
84.43792899999994
 30
0.0
 11
-9.993239000000016
 21
88.29783799999995
 31
0.0
  0
LINE
  5
74C4
330
1F
100
AcDbEntity
  8
AM_0
100
AcDbLine
 10
-13.19918099999995
 20
84.935472
 30
0.0
 11
-12.88670999999999
 21
84.99755099999992
 31
0.0
  0
LINE
  5
74C5
330
1F
100
AcDbEntity
  8
AM_0
100
AcDbLine
 10
-12.88670999999999
 20
84.99755099999992
 30
0.0
 11
-13.41830500000003
 21
84.37657200000002
 31
0.0
  0
LINE
  5
74C6
330
1F
100
AcDbEntity
  8
AM_0
100
AcDbLine
 10
-12.95211799999992
 20
84.61954300000002
 30
0.0
 11
-12.63964699999996
 21
84.68162299999994
 31
0.0
  0
LINE
  5
74C7
330
1F
100
AcDbEntity
  8
AM_0
100
AcDbLine
 10
-12.852754
 20
88.46569699999998
 30
0.0
 11
-10.82089599999994
 21
87.97251000000006
 31
0.0
  0
LINE
  5
74C8
330
1F
100
AcDbEntity
  8
AM_0
100
AcDbLine
 10
-10.63215600000001
 20
87.77312099999994
 30
0.0
 11
-10.82089599999994
 21
87.97251000000006
 31
0.0
  0
LINE
  5
74C9
330
1F
100
AcDbEntity
  8
AM_0
100
AcDbLine
 10
-10.53252700000007
 20
87.66787199999999
 30
0.0
 11
-10.63215600000001
 21
87.77312099999994
 31
0.0
  0
LINE
  5
74CA
330
1F
100
AcDbEntity
  8
AM_0
100
AcDbLine
 10
-10.63215600000001
 20
87.77312099999994
 30
0.0
 11
-10.53252700000007
 21
87.66787199999999
 31
0.0
  0
LINE
  5
74CB
330
1F
100
AcDbEntity
  8
AM_0
100
AcDbLine
 10
-10.63215600000001
 20
87.77312099999994
 30
0.0
 11
-10.47506799999996
 21
87.73499200000003
 31
0.0
  0
LINE
  5
74CC
330
1F
100
AcDbEntity
  8
AM_0
100
AcDbLine
 10
-0.0057319999999663
 20
77.74684200000002
 30
0.0
 11
0.0
 21
80.0
 31
0.0
  0
LINE
  5
74CD
330
1F
100
AcDbEntity
  8
AM_11
100
AcDbLine
 10
0.0
 20
80.0
 30
0.0
 11
0.0000000000000284
 21
-79.99999999999994
 31
0.0
  0
LINE
  5
74F5
330
1F
100
AcDbEntity
  8
AM_0
100
AcDbLine
 10
-19.62947415962878
 20
88.49999999999997
 30
0.0
 11
-9.649723292782994
 21
88.49999999999997
 31
0.0
  0
LINE
  5
74F6
330
1F
100
AcDbEntity
  8
AM_3
100
AcDbLine
 10
-26.07976513146263
 20
88.49999999999999
 30
0.0
 11
-19.62947415962861
 21
88.49999999999997
 31
0.0
  0
LINE
  5
74F7
330
1F
100
AcDbEntity
  8
AM_0
100
AcDbLine
 10
-9.649723292782994
 20
88.49999999999997
 30
0.0
 11
-9.499322768537581
 21
88.32698398847862
 31
0.0
  0
LINE
  5
74F8
330
1F
100
AcDbEntity
  8
AM_0
100
AcDbLine
 10
-25.00000000000005
 20
51.33551966943241
 30
0.0
 11
-11.93337524529738
 21
65.34775920200946
 31
0.0
  0
LINE
  5
74F9
330
1F
100
AcDbEntity
  8
AM_0
100
AcDbLine
 10
-2.000000000000113
 20
74.90797938940267
 30
0.0
 11
-2.000000000000113
 21
0.0
 31
0.0
  0
SPLINE
  5
74FB
330
1F
100
AcDbEntity
  8
AM_0
100
AcDbSpline
210
0.0
220
0.0
230
1.0
 70
     8
 71
     3
 72
    11
 73
     7
 74
     5
 42
0.0000000001
 43
0.0000000001
 44
0.0000000001
 40
0.0
 40
0.0
 40
0.0
 40
0.0
 40
1.513557931089836
 40
3.992145909842459
 40
6.507770644115048
 40
7.753678600587351
 40
7.753678600587351
 40
7.753678600587351
 40
7.753678600587351
 10
-17.34631000000001
 20
-84.51593100000001
 30
0.0
 10
-17.85427489096596
 20
-84.34377477462449
 30
0.0
 10
-19.19407822466002
 20
-83.88969716261531
 30
0.0
 10
-20.92647549584317
 20
-85.6347207761757
 30
0.0
 10
-22.64872479465648
 20
-86.86732017080631
 30
0.0
 10
-22.98166303624332
 20
-88.10676933255754
 30
0.0
 10
-23.09194000000002
 20
-88.51730399999997
 30
0.0
 11
-17.34631000000001
 21
-84.51593100000001
 31
0.0
 11
-18.830377
 21
-84.21860500000002
 31
0.0
 11
-20.92866100000003
 21
-85.53792399999997
 31
0.0
 11
-22.68373900000006
 21
-87.34016399999996
 31
0.0
 11
-23.09194000000002
 21
-88.51730399999997
 31
0.0
  0
SPLINE
  5
74FC
330
1F
100
AcDbEntity
  8
AM_0
100
AcDbSpline
210
0.0
220
0.0
230
1.0
 70
     8
 71
     3
 72
    11
 73
     7
 74
     5
 42
0.0000000001
 43
0.0000000001
 44
0.0000000001
 40
0.0
 40
0.0
 40
0.0
 40
0.0
 40
0.1207349035947009
 40
0.2580224223864093
 40
0.4180002945844748
 40
0.6037184282090504
 40
0.6037184282090504
 40
0.6037184282090504
 40
0.6037184282090504
 10
-23.09194000000002
 20
-88.51730399999997
 30
0.0
 10
-23.06498645690385
 20
-88.54754964823889
 30
0.0
 10
-23.00738407122657
 20
-88.61218758799699
 30
0.0
 10
-22.882781941639
 20
-88.67930114044348
 30
0.0
 10
-22.7305002045706
 20
-88.73247974631622
 30
0.0
 10
-22.61668103119118
 20
-88.75194089467484
 30
0.0
 10
-22.55553399999996
 20
-88.76239599999996
 30
0.0
 11
-23.09194000000002
 21
-88.51730399999997
 31
0.0
 11
-23.00685099999998
 21
-88.60295900000005
 31
0.0
 11
-22.88845500000002
 21
-88.672459
 31
0.0
 11
-22.73758299999997
 21
-88.72566200000006
 31
0.0
 11
-22.55553399999996
 21
-88.76239599999996
 31
0.0
  0
SPLINE
  5
74FD
330
1F
100
AcDbEntity
  8
AM_0
100
AcDbSpline
210
0.0
220
0.0
230
1.0
 70
     8
 71
     3
 72
    11
 73
     7
 74
     5
 42
0.0000000001
 43
0.0000000001
 44
0.0000000001
 40
0.0
 40
0.0
 40
0.0
 40
0.0
 40
1.781054617354758
 40
3.506377661407772
 40
4.920553017920796
 40
5.969191440193204
 40
5.969191440193204
 40
5.969191440193204
 40
5.969191440193204
 10
-20.74631899999997
 20
-88.57912199999999
 30
0.0
 10
-20.17798284795446
 20
-88.38907438797161
 30
0.0
 10
-19.05909453971014
 20
-88.01492600704778
 30
0.0
 10
-17.77085771277123
 20
-86.98648775820867
 30
0.0
 10
-16.98170809131745
 20
-85.67391352810615
 30
0.0
 10
-17.23742753531398
 20
-84.86174375830165
 30
0.0
 10
-17.34631000000001
 20
-84.51593100000001
 30
0.0
 11
-20.74631899999997
 21
-88.57912199999999
 31
0.0
 11
-19.09314300000005
 21
-87.916427
 31
0.0
 11
-17.75897499999996
 21
-86.82247299999994
 31
0.0
 11
-17.15015500000004
 21
-85.54606000000001
 31
0.0
 11
-17.34631000000001
 21
-84.51593100000001
 31
0.0
  0
SPLINE
  5
74FE
330
1F
100
AcDbEntity
  8
AM_0
100
AcDbSpline
210
0.0
220
0.0
230
1.0
 70
     8
 71
     3
 72
    11
 73
     7
 74
     5
 42
0.0000000001
 43
0.0000000001
 44
0.0000000001
 40
0.0
 40
0.0
 40
0.0
 40
0.0
 40
0.7145174021798862
 40
1.360841361157881
 40
1.911021809648191
 40
2.35077867992204
 40
2.35077867992204
 40
2.35077867992204
 40
2.35077867992204
 10
-20.27166199999999
 20
-84.595599
 30
0.0
 10
-20.09045674366066
 20
-84.44057941893943
 30
0.0
 10
-19.7453404358794
 20
-84.14533530444627
 30
0.0
 10
-19.22082469472345
 20
-83.78520835143284
 30
0.0
 10
-18.73719382876087
 20
-83.51804892026553
 30
0.0
 10
-18.41073072170286
 20
-83.4586386466953
 30
0.0
 10
-18.26570700000002
 20
-83.43224699999996
 30
0.0
 11
-20.27166199999999
 21
-84.595599
 31
0.0
 11
-19.72021900000004
 21
-84.14123600000005
 31
0.0
 11
-19.18706900000006
 21
-83.77587900000003
 31
0.0
 11
-18.69409500000006
 21
-83.53159400000004
 31
0.0
 11
-18.26570700000002
 21
-83.43224699999996
 31
0.0
  0
SPLINE
  5
74FF
330
1F
100
AcDbEntity
  8
AM_0
100
AcDbSpline
210
0.0
220
0.0
230
1.0
 70
     8
 71
     3
 72
    11
 73
     7
 74
     5
 42
0.0000000001
 43
0.0000000001
 44
0.0000000001
 40
0.0
 40
0.0
 40
0.0
 40
0.0
 40
1.246889020983929
 40
3.762516581837277
 40
6.241278341023646
 40
7.756416456251836
 40
7.756416456251836
 40
7.756416456251836
 40
7.756416456251836
 10
-14.41882299999997
 20
-79.28937900000005
 30
0.0
 10
-14.30894226835926
 20
-78.87835426928319
 30
0.0
 10
-13.97737460847535
 20
-77.6380775976296
 30
0.0
 10
-12.25427748367503
 20
-76.40519472861592
 30
0.0
 10
-10.51989756002897
 20
-74.66132608531312
 30
0.0
 10
-9.179943199184023
 20
-75.11722122172639
 30
0.0
 10
-8.671613999999976
 20
-75.29017099999999
 30
0.0
 11
-14.41882299999997
 21
-79.28937900000005
 31
0.0
 11
-14.01151400000003
 21
-78.11089199999992
 31
0.0
 11
-12.25631899999996
 21
-76.308762
 31
0.0
 11
-10.15690500000005
 21
-74.99091499999997
 31
0.0
 11
-8.671613999999976
 21
-75.29017099999999
 31
0.0
  0
SPLINE
  5
7500
330
1F
100
AcDbEntity
  8
AM_0
100
AcDbSpline
210
0.0
220
0.0
230
1.0
 70
     8
 71
     3
 72
    11
 73
     7
 74
     5
 42
0.0000000001
 43
0.0000000001
 44
0.0000000001
 40
0.0
 40
0.0
 40
0.0
 40
0.0
 40
0.9468400005941315
 40
2.192327326611066
 40
3.719287352166795
 40
5.361660531472839
 40
5.361660531472839
 40
5.361660531472839
 40
5.361660531472839
 10
-8.671613999999976
 20
-75.29017099999999
 30
0.0
 10
-8.563825548231188
 20
-75.59800399614101
 30
0.0
 10
-8.314250574468426
 20
-76.31076506353263
 30
0.0
 10
-8.914449749168815
 20
-77.51607289120426
 30
0.0
 10
-9.988883919063287
 20
-78.5375541224268
 30
0.0
 10
-10.97015742028739
 20
-78.95531569542157
 30
0.0
 10
-11.47866099999998
 20
-79.17180299999995
 30
0.0
 11
-8.671613999999976
 21
-75.29017099999999
 31
0.0
 11
-8.460791999999969
 21
-76.21324200000003
 31
0.0
 11
-8.914904999999976
 21
-77.37299199999995
 31
0.0
 11
-10.00953100000003
 21
-78.43760499999996
 31
0.0
 11
-11.47866099999998
 21
-79.17180299999995
 31
0.0
  0
SPLINE
  5
7501
330
1F
100
AcDbEntity
  8
AM_0
100
AcDbSpline
210
0.0
220
0.0
230
1.0
 70
     8
 71
     3
 72
    11
 73
     7
 74
     5
 42
0.0000000001
 43
0.0000000001
 44
0.0000000001
 40
0.0
 40
0.0
 40
0.0
 40
0.0
 40
0.2146183478176924
 40
0.4696810224723788
 40
0.8052844550412192
 40
1.233282672192869
 40
1.233282672192869
 40
1.233282672192869
 40
1.233282672192869
 10
-15.20652199999995
 20
-79.90639899999997
 30
0.0
 10
-15.2380681357116
 20
-79.84004875864707
 30
0.0
 10
-15.30710520279726
 20
-79.69484472778582
 30
0.0
 10
-15.23811639579588
 20
-79.41966601252442
 30
0.0
 10
-15.08590932919419
 20
-79.11888730207417
 30
0.0
 10
-14.93617563569052
 20
-78.91180659735946
 30
0.0
 10
-14.85225000000002
 20
-78.79573800000002
 30
0.0
 11
-15.20652199999995
 21
-79.90639899999997
 31
0.0
 11
-15.27834400000006
 21
-79.70415500000001
 31
0.0
 11
-15.23799499999995
 21
-79.45230400000003
 31
0.0
 11
-15.09283100000004
 21
-79.14972
 31
0.0
 11
-14.85225000000002
 21
-78.79573800000002
 31
0.0
  0
SPLINE
  5
7502
330
1F
100
AcDbEntity
  8
AM_0
100
AcDbSpline
210
0.0
220
0.0
230
1.0
 70
     8
 71
     3
 72
    11
 73
     7
 74
     5
 42
0.0000000001
 43
0.0000000001
 44
0.0000000001
 40
0.0
 40
0.0
 40
0.0
 40
0.0
 40
1.044681058912289
 40
1.941535364311428
 40
2.612929256193107
 40
3.043453543063087
 40
3.043453543063087
 40
3.043453543063087
 40
3.043453543063087
 10
-11.47866099999998
 20
-79.17180299999995
 30
0.0
 10
-11.81285284831369
 20
-79.27644707525214
 30
0.0
 10
-12.43394699607324
 20
-79.4709276500022
 30
0.0
 10
-13.29124569786378
 20
-79.56272730573264
 30
0.0
 10
-13.98933890998184
 20
-79.58368210617601
 30
0.0
 10
-14.29816376761434
 20
-79.37206049555534
 30
0.0
 10
-14.41882299999997
 20
-79.28937900000005
 30
0.0
 11
-11.47866099999998
 21
-79.17180299999995
 31
0.0
 11
-12.48584600000003
 21
-79.44917799999996
 31
0.0
 11
-13.37607300000001
 21
-79.55800599999998
 31
0.0
 11
-14.04523900000003
 21
-79.50335599999994
 31
0.0
 11
-14.41882299999997
 21
-79.28937900000005
 31
0.0
  0
SPLINE
  5
7503
330
1F
100
AcDbEntity
  8
AM_0
100
AcDbSpline
210
0.0
220
0.0
230
1.0
 70
     8
 71
     3
 72
    11
 73
     7
 74
     5
 42
0.0000000001
 43
0.0000000001
 44
0.0000000001
 40
0.0
 40
0.0
 40
0.0
 40
0.0
 40
0.2757246160954179
 40
0.5070860214551444
 40
0.6974850349661815
 40
0.8565604683586812
 40
0.8565604683586812
 40
0.8565604683586812
 40
0.8565604683586812
 10
-14.42748800000003
 20
-80.21044900000005
 30
0.0
 10
-14.51885562432708
 20
-80.19882822037489
 30
0.0
 10
-14.68689011383299
 20
-80.17745640747776
 30
0.0
 10
-14.91035128851528
 20
-80.11329044298875
 30
0.0
 10
-15.08985517953499
 20
-80.03130702217863
 30
0.0
 10
-15.17002838207365
 20
-79.94547048252731
 30
0.0
 10
-15.20652199999995
 20
-79.90639899999997
 30
0.0
 11
-14.42748800000003
 21
-80.21044900000005
 31
0.0
 11
-14.69994299999996
 21
-80.16811299999995
 31
0.0
 11
-14.92203600000005
 21
-80.10328400000004
 31
0.0
 11
-15.09127499999999
 21
-80.01604900000007
 31
0.0
 11
-15.20652199999995
 21
-79.90639899999997
 31
0.0
  0
SPLINE
  5
7504
330
1F
100
AcDbEntity
  8
AM_0
100
AcDbSpline
210
0.0
220
0.0
230
1.0
 70
     8
 71
     3
 72
    11
 73
     7
 74
     5
 42
0.0000000001
 43
0.0000000001
 44
0.0000000001
 40
0.0
 40
0.0
 40
0.0
 40
0.0
 40
1.229155053773672
 40
2.359789102299075
 40
3.335199407223072
 40
4.139373817313883
 40
4.139373817313883
 40
4.139373817313883
 40
4.139373817313883
 10
-12.33238700000004
 20
-76.13370600000007
 30
0.0
 10
-12.02518540199482
 20
-75.86148412034496
 30
0.0
 10
-11.43540547068678
 20
-75.33885988099837
 30
0.0
 10
-10.51943471098597
 20
-74.7129648103631
 30
0.0
 10
-9.634105396064985
 20
-74.26651170447165
 30
0.0
 10
-9.035694971567462
 20
-74.24052506944545
 30
0.0
 10
-8.765280000000075
 20
-74.22878200000003
 30
0.0
 11
-12.33238700000004
 21
-76.13370600000007
 31
0.0
 11
-11.39496299999996
 21
-75.33868499999994
 31
0.0
 11
-10.45885199999997
 21
-74.70462699999996
 31
0.0
 11
-9.564878000000021
 21
-74.31445299999996
 31
0.0
 11
-8.765280000000075
 21
-74.22878200000003
 31
0.0
  0
ELLIPSE
  5
7505
330
1F
100
AcDbEntity
  8
0
100
AcDbEllipse
 10
-26.42173200000001
 20
-82.93965900000001
 30
0.0
 11
-2.290639612009
 21
-1.949631823684
 31
0.0
210
0.0
220
0.0
230
-1.0
 40
0.2334633752270999
 41
0.017551370222918
 42
1.137178375746189
  0
ELLIPSE
  5
7506
330
1F
100
AcDbEntity
  8
AM_0
100
AcDbEllipse
 10
-21.99738100000002
 20
-89.00648899999998
 30
0.0
 11
3.804017266616
 21
-0.143288961596
 31
0.0
210
0.0
220
0.0
230
-0.9999999999999998
 40
0.1084186759450099
 41
2.382733006633379
 42
3.056298966713689
  0
ELLIPSE
  5
7507
330
1F
100
AcDbEntity
  8
AM_0
100
AcDbEllipse
 10
-18.35408800000004
 20
-89.07402300000001
 30
0.0
 11
4.438020644030999
 21
-0.167170474016
 31
0.0
210
0.0
220
0.0
230
-1.0
 40
0.1084187763219
 41
3.46551503352552
 42
4.13902372390823
  0
ELLIPSE
  5
7508
330
1F
100
AcDbEntity
  8
AM_0
100
AcDbEllipse
 10
-22.24609199999997
 20
-88.66544799999998
 30
0.0
 11
-2.555150043760999
 21
-1.584164467601999
 31
0.0
210
0.0
220
0.0
230
-1.0
 40
0.4962014217725701
 41
0.636245101584397
 42
1.08230269278924
  0
ELLIPSE
  5
7509
330
1F
100
AcDbEntity
  8
AM_0
100
AcDbEllipse
 10
-23.90519500000004
 20
-80.28114000000005
 30
0.0
 11
-2.290639612009
 21
-1.949631823684
 31
0.0
210
0.0
220
0.0
230
-1.0
 40
0.2334633752270999
 41
1.137178375746189
 42
2.70797645986774
  0
ELLIPSE
  5
750A
330
1F
100
AcDbEntity
  8
AM_0
100
AcDbEllipse
 10
-19.729555
 20
-86.00692900000002
 30
0.0
 11
-2.555150043760999
 21
-1.584164467601999
 31
0.0
210
0.0
220
0.0
230
-1.0
 40
0.4962014217725701
 41
1.08230269278924
 42
1.665047343793309
  0
ELLIPSE
  5
750B
330
1F
100
AcDbEntity
  8
AM_0
100
AcDbEllipse
 10
-8.361959999999953
 20
-89.96556899999996
 30
0.0
 11
16.752346230429
 21
-0.4186277243570003
 31
0.0
210
0.0
220
0.0
230
-1.0
 40
0.09565589915869
 41
3.87803142890441
 42
4.206720239215379
  0
ELLIPSE
  5
750C
330
1F
100
AcDbEntity
  8
AM_0
100
AcDbEllipse
 10
-8.361959999999953
 20
-89.96556899999996
 30
0.0
 11
16.752346230429
 21
-0.4186277243570003
 31
0.0
210
0.0
220
0.0
230
-1.0
 40
0.09565589915869
 41
3.387269475739639
 42
3.69919915740975
  0
ELLIPSE
  5
750D
330
1F
100
AcDbEntity
  8
AM_0
100
AcDbEllipse
 10
-11.01164399999993
 20
-92.76474600000005
 30
0.0
 11
9.077921428430002
 21
-8.593098541228002
 31
0.0
210
0.0
220
0.0
230
-1.0
 40
0.40306016
 41
3.504973911650779
 42
4.120812155185199
  0
ELLIPSE
  5
750E
330
1F
100
AcDbEntity
  8
AM_0
100
AcDbEllipse
 10
-15.4837
 20
-71.88918799999999
 30
0.0
 11
-3.435959798769999
 21
-2.924448059599999
 31
0.0
210
0.0
220
0.0
230
-1.0
 40
0.23346323854036
 41
0.017551380496699
 42
2.70797623664354
  0
ELLIPSE
  5
750F
330
1F
100
AcDbEntity
  8
AM_0
100
AcDbEllipse
 10
-11.049169
 20
-77.96997699999997
 30
0.0
 11
-3.832724215734998
 21
-2.376246174469999
 31
0.0
210
0.0
220
0.0
230
-1.0
 40
0.49620175355538
 41
0.62109220314602
 42
1.543512159643229
  0
ELLIPSE
  5
7510
330
1F
100
AcDbEntity
  8
AM_0
100
AcDbEllipse
 10
1.29569200000003
 20
-79.69151799999997
 30
0.0
 11
8.063423839663
 21
-9.664547013867
 31
0.0
210
0.0
220
0.0
230
-1.0
 40
0.04746598979819
 41
2.155669251262539
 42
2.651588309760209
  0
ELLIPSE
  5
7511
330
1F
100
AcDbEntity
  8
AM_0
100
AcDbEllipse
 10
-10.77498700000001
 20
-92.44321600000001
 30
0.0
 11
9.077921428430002
 21
-8.593098541228002
 31
0.0
210
0.0
220
0.0
230
-1.0
 40
0.40306016
 41
3.625988081971029
 42
4.12191071214064
  0
LINE
  5
7512
330
1F
100
AcDbEntity
  8
AM_0
100
AcDbLine
 10
-19.62947415962878
 20
-88.49999999999997
 30
0.0
 11
-9.649723292782994
 21
-88.49999999999997
 31
0.0
  0
LINE
  5
7513
330
1F
100
AcDbEntity
  8
AM_0
100
AcDbLine
 10
-21.08299499999998
 20
-77.80439100000001
 30
0.0
 11
-17.19567900000004
 21
-83.13481899999999
 31
0.0
  0
LINE
  5
7514
330
1F
100
AcDbEntity
  8
AM_0
100
AcDbLine
 10
-15.20649600000001
 20
-79.90643499999999
 30
0.0
 11
-18.93111199999998
 21
-74.79910700000004
 31
0.0
  0
LINE
  5
7515
330
1F
100
AcDbEntity
  8
AM_0
100
AcDbLine
 10
-12.91096200000004
 20
-65.58504600000003
 30
0.0
 11
-28.19892500000003
 21
-81.73554600000001
 31
0.0
  0
LINE
  5
7516
330
1F
100
AcDbEntity
  8
0
100
AcDbLine
 10
-25.78889400000003
 20
-88.89885300000003
 30
0.0
 11
-28.720007
 21
-84.87960499999998
 31
0.0
  0
LINE
  5
7517
330
1F
100
AcDbEntity
  8
AM_0
100
AcDbLine
 10
-24.13934199999994
 20
-88.289311
 30
0.0
 11
-27.79720099999997
 21
-83.27352199999996
 31
0.0
  0
LINE
  5
7518
330
1F
100
AcDbEntity
  8
AM_0
100
AcDbLine
 10
-20.27166199999999
 20
-84.595599
 30
0.0
 11
-24.60154199999999
 21
-89.16976699999997
 31
0.0
  0
LINE
  5
7519
330
1F
100
AcDbEntity
  8
AM_0
100
AcDbLine
 10
-24.13934199999994
 20
-88.289311
 30
0.0
 11
-21.62280399999997
 21
-85.63079199999993
 31
0.0
  0
LINE
  5
751A
330
1F
100
AcDbEntity
  8
AM_0
100
AcDbLine
 10
-25.280664
 20
-80.61500399999999
 30
0.0
 11
-21.62280399999997
 21
-85.63079199999993
 31
0.0
  0
LINE
  5
751B
330
1F
100
AcDbEntity
  8
AM_0
100
AcDbLine
 10
-27.79720099999997
 20
-83.27352199999996
 30
0.0
 11
-25.280664
 21
-80.61500399999999
 31
0.0
  0
LINE
  5
751C
330
1F
100
AcDbEntity
  8
AM_0
100
AcDbLine
 10
-28.19892500000003
 20
-81.73554600000001
 30
0.0
 11
-27.31678999999997
 21
-82.76600699999994
 31
0.0
  0
LINE
  5
751D
330
1F
100
AcDbEntity
  8
AM_0
100
AcDbLine
 10
-21.08299499999998
 20
-77.80439100000001
 30
0.0
 11
-18.629589
 21
-75.21256599999992
 31
0.0
  0
LINE
  5
751E
330
1F
100
AcDbEntity
  8
AM_0
100
AcDbLine
 10
-20.92440399999998
 20
-78.02185699999995
 30
0.0
 11
-22.01779199999998
 21
-78.28725099999997
 31
0.0
  0
LINE
  5
751F
330
1F
100
AcDbEntity
  8
AM_0
100
AcDbLine
 10
-18.26570700000002
 20
-83.43224699999996
 30
0.0
 11
-22.01779199999998
 21
-78.28725099999997
 31
0.0
  0
LINE
  5
7520
330
1F
100
AcDbEntity
  8
AM_3
100
AcDbLine
 10
-26.07976513146263
 20
-88.49999999999999
 30
0.0
 11
-19.62947415962861
 21
-88.49999999999997
 31
0.0
  0
LINE
  5
7521
330
1F
100
AcDbEntity
  8
AM_0
100
AcDbLine
 10
-24.60154199999999
 20
-89.16976699999997
 30
0.0
 11
-24.76834499999995
 21
-89.18630299999994
 31
0.0
  0
LINE
  5
7522
330
1F
100
AcDbEntity
  8
AM_3
100
AcDbLine
 10
-2.000000000000113
 20
-79.69999999999996
 30
0.0
 11
-9.499322768537581
 21
-88.32698398847862
 31
0.0
  0
LINE
  5
7523
330
1F
100
AcDbEntity
  8
AM_0
100
AcDbLine
 10
-13.29754600000001
 20
-84.43792899999994
 30
0.0
 11
-9.993239000000016
 21
-88.29783799999995
 31
0.0
  0
LINE
  5
7524
330
1F
100
AcDbEntity
  8
AM_0
100
AcDbLine
 10
-7.967818999999963
 20
-88.41735800000003
 30
0.0
 11
0.0
 21
-80.0
 31
0.0
  0
LINE
  5
7525
330
1F
100
AcDbEntity
  8
AM_0
100
AcDbLine
 10
-16.031967
 20
-88.32026100000007
 30
0.0
 11
-12.88670999999999
 21
-84.99755099999992
 31
0.0
  0
LINE
  5
7526
330
1F
100
AcDbEntity
  8
AM_0
100
AcDbLine
 10
-16.44164399999999
 20
-88.36087299999997
 30
0.0
 11
-13.19918099999995
 21
-84.935472
 31
0.0
  0
LINE
  5
7527
330
1F
100
AcDbEntity
  8
AM_3
100
AcDbLine
 10
-2.000000000000113
 20
-76.0
 30
0.0
 11
-11.93337524529738
 21
-65.34775920200946
 31
0.0
  0
LINE
  5
7528
330
1F
100
AcDbEntity
  8
AM_0
100
AcDbLine
 10
-8.372836000000006
 20
-67.46358600000007
 30
0.0
 11
-1.875644999999963
 21
-75.05324399999995
 31
0.0
  0
LINE
  5
7529
330
1F
100
AcDbEntity
  8
AM_0
100
AcDbLine
 10
-12.63964699999996
 20
-84.68162299999994
 30
0.0
 11
-3.378537000000051
 21
-74.898007
 31
0.0
  0
LINE
  5
752A
330
1F
100
AcDbEntity
  8
AM_0
100
AcDbLine
 10
-12.95211799999992
 20
-84.61954300000002
 30
0.0
 11
-3.53857199999993
 21
-74.674892
 31
0.0
  0
LINE
  5
752B
330
1F
100
AcDbEntity
  8
AM_0
100
AcDbLine
 10
-0.0057319999999663
 20
-77.74684200000002
 30
0.0
 11
-8.018777
 21
-68.38644699999997
 31
0.0
  0
LINE
  5
752C
330
1F
100
AcDbEntity
  8
AM_0
100
AcDbLine
 10
-12.65259600000001
 20
-68.89835400000004
 30
0.0
 11
-10.31942000000003
 21
-66.43354199999999
 31
0.0
  0
LINE
  5
752D
330
1F
100
AcDbEntity
  8
AM_0
100
AcDbLine
 10
-6.034837000000038
 20
-71.344289
 30
0.0
 11
-10.31942000000003
 21
-66.43354199999999
 31
0.0
  0
LINE
  5
752E
330
1F
100
AcDbEntity
  8
AM_0
100
AcDbLine
 10
-10.87910399999998
 20
-65.091859
 30
0.0
 11
-12.91096200000004
 21
-65.58504600000003
 31
0.0
  0
LINE
  5
752F
330
1F
100
AcDbEntity
  8
AM_0
100
AcDbLine
 10
-11.29884700000002
 20
-67.46822799999995
 30
0.0
 11
-12.91096200000004
 21
-65.58504600000003
 31
0.0
  0
LINE
  5
7530
330
1F
100
AcDbEntity
  8
AM_0
100
AcDbLine
 10
-10.87910399999998
 20
-65.091859
 30
0.0
 11
-8.060870000000022
 21
-68.38396299999999
 31
0.0
  0
LINE
  5
7531
330
1F
100
AcDbEntity
  8
AM_0
100
AcDbLine
 10
-10.08332199999995
 20
-65.72078699999997
 30
0.0
 11
-8.372836000000006
 21
-67.46358600000007
 31
0.0
  0
LINE
  5
7532
330
1F
100
AcDbEntity
  8
AM_0
100
AcDbLine
 10
-10.607484
 20
-65.40914999999995
 30
0.0
 11
-10.08332199999995
 21
-65.72078699999997
 31
0.0
  0
LINE
  5
7533
330
1F
100
AcDbEntity
  8
AM_0
100
AcDbLine
 10
-8.647919999999999
 20
-68.34932100000003
 30
0.0
 11
-8.018777
 21
-68.38644699999997
 31
0.0
  0
LINE
  5
7534
330
1F
100
AcDbEntity
  8
AM_0
100
AcDbLine
 10
-8.765280000000075
 20
-74.22878200000003
 30
0.0
 11
-12.65259600000001
 21
-68.89835400000004
 31
0.0
  0
LINE
  5
7535
330
1F
100
AcDbEntity
  8
AM_0
100
AcDbLine
 10
-14.85225000000002
 20
-78.79573800000002
 30
0.0
 11
-12.33238700000004
 21
-76.13370600000007
 31
0.0
  0
LINE
  5
7536
330
1F
100
AcDbEntity
  8
AM_0
100
AcDbLine
 10
-14.42748800000003
 20
-80.21044900000005
 30
0.0
 11
-17.19567900000004
 21
-83.13481899999999
 31
0.0
  0
LINE
  5
7537
330
1F
100
AcDbEntity
  8
AM_0
100
AcDbLine
 10
-12.95211799999992
 20
-84.61954300000002
 30
0.0
 11
-12.63964699999996
 21
-84.68162299999994
 31
0.0
  0
LINE
  5
7538
330
1F
100
AcDbEntity
  8
AM_0
100
AcDbLine
 10
-12.88670999999999
 20
-84.99755099999992
 30
0.0
 11
-13.41830500000003
 21
-84.37657200000002
 31
0.0
  0
LINE
  5
7539
330
1F
100
AcDbEntity
  8
AM_0
100
AcDbLine
 10
-13.19918099999995
 20
-84.935472
 30
0.0
 11
-12.88670999999999
 21
-84.99755099999992
 31
0.0
  0
LINE
  5
753A
330
1F
100
AcDbEntity
  8
AM_0
100
AcDbLine
 10
-6.034837000000038
 20
-71.344289
 30
0.0
 11
-8.765280000000075
 21
-74.22878200000003
 31
0.0
  0
LINE
  5
753B
330
1F
100
AcDbEntity
  8
AM_3
100
AcDbLine
 10
-2.000000000000113
 20
-79.69999999999998
 30
0.0
 11
-2.000000000000113
 21
-76.0
 31
0.0
  0
LINE
  5
753C
330
1F
100
AcDbEntity
  8
AM_0
100
AcDbLine
 10
-3.378537000000051
 20
-74.898007
 30
0.0
 11
-3.53857199999993
 21
-74.674892
 31
0.0
  0
LINE
  5
753D
330
1F
100
AcDbEntity
  8
AM_3
100
AcDbLine
 10
-2.000000000000113
 20
-76.0
 30
0.0
 11
-2.000000000000113
 21
-74.9079793894027
 31
0.0
  0
LINE
  5
753E
330
1F
100
AcDbEntity
  8
AM_0
100
AcDbLine
 10
-1.875644999999963
 20
-75.05324399999995
 30
0.0
 11
-1.088601000000039
 21
-76.48189400000001
 31
0.0
  0
LINE
  5
753F
330
1F
100
AcDbEntity
  8
AM_0
100
AcDbLine
 10
-0.0057319999999663
 20
-77.74684200000002
 30
0.0
 11
0.0
 21
-80.0
 31
0.0
  0
LINE
  5
7540
330
1F
100
AcDbEntity
  8
AM_0
100
AcDbLine
 10
-12.852754
 20
-88.46569699999998
 30
0.0
 11
-10.82089599999994
 21
-87.97251000000006
 31
0.0
  0
LINE
  5
7541
330
1F
100
AcDbEntity
  8
AM_0
100
AcDbLine
 10
-15.99415999999996
 20
-88.28032099999996
 30
0.0
 11
-12.852754
 21
-88.46569699999998
 31
0.0
  0
LINE
  5
7542
330
1F
100
AcDbEntity
  8
AM_0
100
AcDbLine
 10
-16.031967
 20
-88.32026100000007
 30
0.0
 11
-16.44164399999999
 21
-88.36087299999997
 31
0.0
  0
LINE
  5
7543
330
1F
100
AcDbEntity
  8
AM_0
100
AcDbLine
 10
-12.852754
 20
-88.46569699999998
 30
0.0
 11
-11.27573200000006
 21
-86.79970000000002
 31
0.0
  0
LINE
  5
7544
330
1F
100
AcDbEntity
  8
AM_0
100
AcDbLine
 10
-7.967818999999963
 20
-88.41735800000003
 30
0.0
 11
-9.993239000000016
 21
-88.29783799999995
 31
0.0
  0
LINE
  5
7545
330
1F
100
AcDbEntity
  8
AM_0
100
AcDbLine
 10
-9.649723292782994
 20
-88.49999999999997
 30
0.0
 11
-9.499322768537581
 21
-88.32698398847862
 31
0.0
  0
LINE
  5
7546
330
1F
100
AcDbEntity
  8
AM_0
100
AcDbLine
 10
-10.63215600000001
 20
-87.77312099999994
 30
0.0
 11
-10.47506799999996
 21
-87.73499200000003
 31
0.0
  0
LINE
  5
7547
330
1F
100
AcDbEntity
  8
AM_0
100
AcDbLine
 10
-10.63215600000001
 20
-87.77312099999994
 30
0.0
 11
-10.53252700000007
 21
-87.66787199999999
 31
0.0
  0
LINE
  5
7548
330
1F
100
AcDbEntity
  8
AM_0
100
AcDbLine
 10
-10.53252700000007
 20
-87.66787199999999
 30
0.0
 11
-10.63215600000001
 21
-87.77312099999994
 31
0.0
  0
LINE
  5
7549
330
1F
100
AcDbEntity
  8
AM_0
100
AcDbLine
 10
-10.63215600000001
 20
-87.77312099999994
 30
0.0
 11
-10.82089599999994
 21
-87.97251000000006
 31
0.0
  0
LINE
  5
754A
330
1F
100
AcDbEntity
  8
AM_0
100
AcDbLine
 10
-2.000000000000113
 20
-74.90797938940267
 30
0.0
 11
-2.000000000000113
 21
0.0
 31
0.0
  0
LINE
  5
754B
330
1F
100
AcDbEntity
  8
AM_0
100
AcDbLine
 10
-19.62947415962906
 20
-88.49999999999999
 30
0.0
 11
-9.649723292782994
 21
-88.49999999999999
 31
0.0
  0
DIMENSION
  5
7557
330
1F
100
AcDbEntity
  8
AM_5
100
AcDbDimension
  2
*D11
 10
19.39992886336625
 20
-80.00000000001117
 30
0.0
 11
16.29992886336627
 21
-0.0000000000055857
 31
0.0
 70
    32
  1
%%c<>
  3
AM_JIS
100
AcDbAlignedDimension
 13
0.0
 23
80.0
 33
0.0
 14
0.0000000000000284
 24
-80.00000000001117
 34
0.0
 50
90.0
100
AcDbRotatedDimension
1001
GENIUS_GENDTOL_13
1000

1000
h7
1000

1040
0.0
  0
DIMENSION
  5
763C
330
1F
100
AcDbEntity
  8
AM_5
100
AcDbDimension
  2
*D12
 10
0.0
 20
-80.0
 30
0.0
 11
-9.626859139525674
 21
-104.1737609344142
 31
0.0
 70
    34
  1
45%%d
  3
AM_JIS$2
100
AcDb2LineAngularDimension
 13
0.0
 23
80.0
 33
0.0
 14
0.0000000000000284
 24
-79.99999999999994
 34
0.0
 15
-7.967818999999963
 25
-88.41735800000003
 35
0.0
 16
-14.09650859269205
 26
-105.4807845730024
 36
0.0
1001
ACAD
1000
DSTYLE
1002
{
1070
   179
1070
     3
1002
}
1001
GENIUS_GENDTOL_13
1000

1000
h7
1000

1040
0.0
  0
ARC
  5
7736
330
1F
100
AcDbEntity
  8
AM_0
100
AcDbCircle
 10
-32.0247491562734
 20
75.5
 30
0.0
 40
13.0
100
AcDbArc
 50
90.0
 51
164.9999999999998
1001
GENIUS_GENODEF_13
1002
{
1000
HIER
1070
     0
1002
}
1002
{
1000
MANEDIT
1070
     0
1002
}
1002
{
1000
NOSEL
1070
     0
1002
}
1002
{
1000
BEHIND
1070
     0
1002
}
1002
{
1000
REACTOR
1002
}
1001
GENIUS_GENOBJ-N-FIL_13
1002
{
1000
OWNER
1000
GEN
1002
}
  0
ARC
  5
7739
330
1F
100
AcDbEntity
  8
AM_0
100
AcDbCircle
 10
-58.45465981242985
 20
58.00000000000004
 30
0.0
 40
8.0
100
AcDbArc
 50
270.0000000000012
 51
344.9999999999998
1001
GENIUS_GENODEF_13
1002
{
1000
HIER
1070
     0
1002
}
1002
{
1000
MANEDIT
1070
     0
1002
}
1002
{
1000
NOSEL
1070
     0
1002
}
1002
{
1000
BEHIND
1070
     0
1002
}
1002
{
1000
REACTOR
1002
}
1001
GENIUS_GENOBJ-N-FIL_13
1002
{
1000
OWNER
1000
GEN
1002
}
  0
ARC
  5
773C
330
1F
100
AcDbEntity
  8
AM_0
100
AcDbCircle
 10
-61.0
 20
47.99999999999997
 30
0.0
 40
2.0
100
AcDbArc
 50
90.00000000000143
 51
180.0
1001
GENIUS_GENODEF_13
1002
{
1000
HIER
1070
     0
1002
}
1002
{
1000
MANEDIT
1070
     0
1002
}
1002
{
1000
NOSEL
1070
     0
1002
}
1002
{
1000
BEHIND
1070
     0
1002
}
1002
{
1000
REACTOR
1002
}
1001
GENIUS_GENOBJ-N-FIL_13
1002
{
1000
OWNER
1000
GEN
1002
}
  0
ARC
  5
773F
330
1F
100
AcDbEntity
  8
AM_0
100
AcDbCircle
 10
-60.0
 20
28.4
 30
0.0
 40
3.0
100
AcDbArc
 50
180.0
 51
270.0
1001
GENIUS_GENODEF_13
1002
{
1000
HIER
1070
     0
1002
}
1002
{
1000
MANEDIT
1070
     0
1002
}
1002
{
1000
NOSEL
1070
     0
1002
}
1002
{
1000
BEHIND
1070
     0
1002
}
1002
{
1000
REACTOR
1002
}
1001
GENIUS_GENOBJ-N-FIL_13
1002
{
1000
OWNER
1000
GEN
1002
}
  0
ARC
  5
7742
330
1F
100
AcDbEntity
  8
AM_0
100
AcDbCircle
 10
-53.0
 20
8.5
 30
0.0
 40
1.0
100
AcDbArc
 50
359.9999999999996
 51
90.0
1001
GENIUS_GENODEF_13
1002
{
1000
HIER
1070
     0
1002
}
1002
{
1000
MANEDIT
1070
     0
1002
}
1002
{
1000
NOSEL
1070
     0
1002
}
1002
{
1000
BEHIND
1070
     0
1002
}
1002
{
1000
REACTOR
1002
}
1001
GENIUS_GENOBJ-N-FIL_13
1002
{
1000
OWNER
1000
GEN
1002
}
  0
ARC
  5
7745
330
1F
100
AcDbEntity
  8
AM_0
100
AcDbCircle
 10
-26.00000000000005
 20
26.14193551345605
 30
0.0
 40
1.0
100
AcDbArc
 50
270.0000000000002
 51
0.0
1001
GENIUS_GENODEF_13
1002
{
1000
HIER
1070
     0
1002
}
1002
{
1000
MANEDIT
1070
     0
1002
}
1002
{
1000
NOSEL
1070
     0
1002
}
1002
{
1000
BEHIND
1070
     0
1002
}
1002
{
1000
REACTOR
1002
}
1001
GENIUS_GENOBJ-N-FIL_13
1002
{
1000
OWNER
1000
GEN
1002
}
  0
LINE
  5
7748
330
1F
100
AcDbEntity
  8
AM_0
100
AcDbLine
 10
-62.0
 20
9.5
 30
0.0
 11
-63.0
 21
10.5
 31
0.0
1001
GENIUS_GENFIL_13
1070
     0
1040
1.0
1040
1.0
1040
20.0
1040
0.0
1002
{
1002
}
1001
GENIUS_GENODEF_13
1002
{
1000
HIER
1070
     0
1002
}
1002
{
1000
MANEDIT
1070
     0
1002
}
1002
{
1000
NOSEL
1070
     0
1002
}
1002
{
1000
BEHIND
1070
     0
1002
}
1002
{
1000
REACTOR
1002
}
1001
GENIUS_GENOBJ-N-CHA_13
1002
{
1000
OWNER
1000
GEN
1002
}
  0
ARC
  5
774A
330
1F
100
AcDbEntity
  8
AM_0
100
AcDbCircle
 10
-32.0247491562806
 20
-75.50000000000202
 30
0.0
 40
13.0
100
AcDbArc
 50
194.9999999999946
 51
269.9999999999945
1001
GENIUS_GENODEF_13
1002
{
1000
HIER
1070
     0
1002
}
1002
{
1000
MANEDIT
1070
     0
1002
}
1002
{
1000
NOSEL
1070
     0
1002
}
1002
{
1000
BEHIND
1070
     0
1002
}
1002
{
1000
REACTOR
1002
}
1001
GENIUS_GENOBJ-N-FIL_13
1002
{
1000
OWNER
1000
GEN
1002
}
  0
ARC
  5
774B
330
1F
100
AcDbEntity
  8
AM_0
100
AcDbCircle
 10
-58.45465981243538
 20
-57.99999999999953
 30
0.0
 40
8.0
100
AcDbArc
 50
14.99999999999473
 51
89.99999999999328
1001
GENIUS_GENODEF_13
1002
{
1000
HIER
1070
     0
1002
}
1002
{
1000
MANEDIT
1070
     0
1002
}
1002
{
1000
NOSEL
1070
     0
1002
}
1002
{
1000
BEHIND
1070
     0
1002
}
1002
{
1000
REACTOR
1002
}
1001
GENIUS_GENOBJ-N-FIL_13
1002
{
1000
OWNER
1000
GEN
1002
}
  0
ARC
  5
774C
330
1F
100
AcDbEntity
  8
AM_0
100
AcDbCircle
 10
-61.00000000000457
 20
-47.99999999999922
 30
0.0
 40
2.0
100
AcDbArc
 50
179.9999999999945
 51
269.999999999993
1001
GENIUS_GENODEF_13
1002
{
1000
HIER
1070
     0
1002
}
1002
{
1000
MANEDIT
1070
     0
1002
}
1002
{
1000
NOSEL
1070
     0
1002
}
1002
{
1000
BEHIND
1070
     0
1002
}
1002
{
1000
REACTOR
1002
}
1001
GENIUS_GENOBJ-N-FIL_13
1002
{
1000
OWNER
1000
GEN
1002
}
  0
ARC
  5
774D
330
1F
100
AcDbEntity
  8
AM_0
100
AcDbCircle
 10
-60.0000000000027
 20
-28.39999999999935
 30
0.0
 40
3.0
100
AcDbArc
 50
89.99999999999456
 51
179.9999999999945
1001
GENIUS_GENODEF_13
1002
{
1000
HIER
1070
     0
1002
}
1002
{
1000
MANEDIT
1070
     0
1002
}
1002
{
1000
NOSEL
1070
     0
1002
}
1002
{
1000
BEHIND
1070
     0
1002
}
1002
{
1000
REACTOR
1002
}
1001
GENIUS_GENOBJ-N-FIL_13
1002
{
1000
OWNER
1000
GEN
1002
}
  0
ARC
  5
774E
330
1F
100
AcDbEntity
  8
AM_0
100
AcDbCircle
 10
-26.00000000000255
 20
-26.14193551345864
 30
0.0
 40
1.0
100
AcDbArc
 50
359.9999999999945
 51
89.99999999999435
1001
GENIUS_GENODEF_13
1002
{
1000
HIER
1070
     0
1002
}
1002
{
1000
MANEDIT
1070
     0
1002
}
1002
{
1000
NOSEL
1070
     0
1002
}
1002
{
1000
BEHIND
1070
     0
1002
}
1002
{
1000
REACTOR
1002
}
1001
GENIUS_GENOBJ-N-FIL_13
1002
{
1000
OWNER
1000
GEN
1002
}
  0
LINE
  5
774F
330
1F
100
AcDbEntity
  8
AM_0
100
AcDbLine
 10
-62.00000000000091
 20
-9.499999999999159
 30
0.0
 11
-63.000000000001
 21
-10.49999999999906
 31
0.0
1001
GENIUS_GENFIL_13
1070
     0
1040
1.0
1040
1.0
1040
20.0
1040
0.0
1002
{
1002
}
1001
GENIUS_GENODEF_13
1002
{
1000
HIER
1070
     0
1002
}
1002
{
1000
MANEDIT
1070
     0
1002
}
1002
{
1000
NOSEL
1070
     0
1002
}
1002
{
1000
BEHIND
1070
     0
1002
}
1002
{
1000
REACTOR
1002
}
1001
GENIUS_GENOBJ-N-CHA_13
1002
{
1000
OWNER
1000
GEN
1002
}
  0
ARC
  5
7750
330
1F
100
AcDbEntity
  8
AM_0
100
AcDbCircle
 10
-53.00000000000081
 20
-8.500000000000017
 30
0.0
 40
1.0
100
AcDbArc
 50
269.9999999999945
 51
359.9999999999949
1001
GENIUS_GENODEF_13
1002
{
1000
HIER
1070
     0
1002
}
1002
{
1000
MANEDIT
1070
     0
1002
}
1002
{
1000
NOSEL
1070
     0
1002
}
1002
{
1000
BEHIND
1070
     0
1002
}
1002
{
1000
REACTOR
1002
}
1001
GENIUS_GENOBJ-N-FIL_13
1002
{
1000
OWNER
1000
GEN
1002
}
  0
VIEWPORT
  5
110
330
101
100
AcDbEntity
 67
     1
  8
0
100
AcDbViewport
 10
420.5
 20
297.0
 30
0.0
 40
948.9782706766916
 41
628.452
 68
     1
 69
     1
1001
ACAD
1000
MVIEW
1002
{
1070
    16
1010
0.0
1020
0.0
1030
0.0
1010
0.0
1020
0.0
1030
1.0
1040
0.0
1040
628.452
1040
420.5
1040
297.0
1040
50.0
1040
0.0
1040
0.0
1070
     0
1070
   100
1070
     1
1070
     1
1070
     0
1070
     0
1070
     0
1070
     0
1040
0.0
1040
0.0
1040
0.0
1040
10.0
1040
10.0
1040
10.0
1040
10.0
1070
     0
1002
{
1002
}
1002
}
  0
ENDSEC
  0
SECTION
  2
OBJECTS
  0
DICTIONARY
  5
C
330
0
100
AcDbDictionary
  3
ACAD_GROUP
350
D
  3
ACAD_LAYOUT
350
1A
  3
ACAD_MLINESTYLE
350
17
  3
ACAD_PLOTSETTINGS
350
19
  3
ACAD_PLOTSTYLENAME
350
E
  3
ACDBVARIABLEDICTIONARY
350
34
  3
ACMDICTIONARY
350
43
  3
AMG
350
2B
  3
AMGSNAPSETTINGS
350
6E
  3
DWGPROPS
350
7786
  3
ACDBHEADERROUNDTRIPXREC
350
7793
  0
DICTIONARY
  5
74
330
1F
100
AcDbDictionary
280
     1
  3
ACAD_INDEX
360
7788
  3
ACAD_LAYOUTSELFREF
360
77B6
  0
DICTIONARY
  5
77BB
330
101
100
AcDbDictionary
280
     1
  3
ACAD_LAYOUTSELFREF
360
77BC
  0
DICTIONARY
  5
D
102
{ACAD_REACTORS
330
C
102
}
330
C
100
AcDbDictionary
  0
DICTIONARY
  5
1A
102
{ACAD_REACTORS
330
C
102
}
330
C
100
AcDbDictionary
  0
DICTIONARY
  5
17
102
{ACAD_REACTORS
330
C
102
}
330
C
100
AcDbDictionary
  3
STANDARD
350
18
  0
DICTIONARY
  5
19
102
{ACAD_REACTORS
330
C
102
}
330
C
100
AcDbDictionary
  0
ACDBDICTIONARYWDFLT
  5
E
102
{ACAD_REACTORS
330
C
102
}
330
C
100
AcDbDictionary
281
     1
  3
Normal
350
F
100
AcDbDictionaryWithDefault
340
F
  0
DICTIONARY
  5
34
102
{ACAD_REACTORS
330
C
102
}
330
C
100
AcDbDictionary
  3
INDEXCTL
350
35
  3
SORTENTS
350
B5E
  0
DICTIONARY
  5
43
102
{ACAD_REACTORS
330
C
102
}
330
C
100
AcDbDictionary
  3
ACMSTDDICTIONARY
350
260
  0
DICTIONARY
  5
2B
102
{ACAD_REACTORS
330
C
102
}
330
C
100
AcDbDictionary
  3
ACMGSETTINGS
350
2C
  0
DICTIONARY
  5
6E
102
{ACAD_REACTORS
330
C
102
}
330
C
100
AcDbDictionary
  0
XRECORD
  5
7786
102
{ACAD_REACTORS
330
C
102
}
330
C
100
AcDbXrecord
  1
DWGPROPS COOKIE
  2

  3

  4

  6

  7

  8

  9

300
AmdtFileType=82
301
=
302
=
303
=
304
=
305
=
306
=
307
=
308
=
309
=
 40
0.1212348263888889
 41
2452836.771637361
 42
2452908.621374051
  1

 90
        1
  0
DICTIONARY
  5
7793
102
{ACAD_REACTORS
330
C
102
}
330
C
100
AcDbDictionary
  3
TSTACKALIGN
350
7794
  3
TSTACKSIZE
350
7795
  3
HYPERLINKBASE
350
7796
  3
STYLESHEET
350
7797
  3
LAYOUTDICT
350
7798
  3
PLOTSETDICT
350
7799
  3
PLOTSTYLNAMDICT
350
779A
  3
LWETCUNION
350
779B
  3
INSUNITS
350
779C
  3
CEPSNTYPE
350
779D
  3
FINGERPRINTGUID
350
779E
  3
VERSIONGUID
350
779F
  3
PSVPSCALE
350
77A0
  3
DIMSTYLEDATA
350
77A1
  3
PUCSORTHOREF
350
77A2
  3
PUCSORTHOVIEW
350
77A3
  3
PUCSBASE
350
77A4
  3
PUCSORGTOP
350
77A5
  3
PUCSORGBOTTOM
350
77A6
  3
PUCSORGLEFT
350
77A7
  3
PUCSORGRIGHT
350
77A8
  3
PUCSORGFRONT
350
77A9
  3
PUCSORGBACK
350
77AA
  3
UCSORTHOREF
350
77AB
  3
UCSORTHOVIEW
350
77AC
  3
UCSBASE
350
77AD
  3
UCSORGTOP
350
77AE
  3
UCSORGBOTTOM
350
77AF
  3
UCSORGLEFT
350
77B0
  3
UCSORGRIGHT
350
77B1
  3
UCSORGFRONT
350
77B2
  3
UCSORGBACK
350
77B3
  0
DICTIONARY
  5
7788
102
{ACAD_REACTORS
330
74
102
}
330
74
100
AcDbDictionary
  3
*A1
350
7789
  0
XRECORD
  5
77B6
102
{ACAD_REACTORS
330
74
102
}
330
74
100
AcDbXrecord
340
1F
  0
XRECORD
  5
77BC
102
{ACAD_REACTORS
330
77BB
102
}
330
77BB
100
AcDbXrecord
340
101
  0
MLINESTYLE
  5
18
102
{ACAD_REACTORS
330
17
102
}
330
17
100
AcDbMlineStyle
  2
STANDARD
 70
     0
  3

 62
   256
 51
90.0
 52
90.0
 71
     2
 49
0.5
 62
   256
  6
BYLAYER
 49
-0.5
 62
   256
  6
BYLAYER
  0
ACDBPLACEHOLDER
  5
F
102
{ACAD_REACTORS
330
E
102
}
330
E
100
AcDbPlaceHolder
280
     0
  0
DICTIONARYVAR
  5
35
102
{ACAD_REACTORS
330
34
102
}
330
34
100
DictionaryVariables
280
     0
  1
1
  0
DICTIONARYVAR
  5
B5E
102
{ACAD_REACTORS
330
34
102
}
330
34
100
DictionaryVariables
280
     0
  1
96
  0
DICTIONARY
  5
260
102
{ACAD_REACTORS
330
43
102
}
330
43
100
AcDbDictionary
  0
DICTIONARY
  5
2C
102
{ACAD_REACTORS
330
2B
102
}
330
2B
100
AcDbDictionary
  3
DWGSETTINGS
350
2D
  0
XRECORD
  5
7794
102
{ACAD_REACTORS
330
7793
102
}
330
7793
100
AcDbXrecord
 90
        1
  0
XRECORD
  5
7795
102
{ACAD_REACTORS
330
7793
102
}
330
7793
100
AcDbXrecord
 90
       70
  0
XRECORD
  5
7796
102
{ACAD_REACTORS
330
7793
102
}
330
7793
100
AcDbXrecord
  1

  0
XRECORD
  5
7797
102
{ACAD_REACTORS
330
7793
102
}
330
7793
100
AcDbXrecord
  1
ASAMI.ctb
  0
XRECORD
  5
7798
102
{ACAD_REACTORS
330
7793
102
}
330
7793
100
AcDbXrecord
340
1A
  0
XRECORD
  5
7799
102
{ACAD_REACTORS
330
7793
102
}
330
7793
100
AcDbXrecord
340
19
  0
XRECORD
  5
779A
102
{ACAD_REACTORS
330
7793
102
}
330
7793
100
AcDbXrecord
340
E
  0
XRECORD
  5
779B
102
{ACAD_REACTORS
330
7793
102
}
330
7793
100
AcDbXrecord
 90
    10781
  0
XRECORD
  5
779C
102
{ACAD_REACTORS
330
7793
102
}
330
7793
100
AcDbXrecord
 90
        4
  0
XRECORD
  5
779D
102
{ACAD_REACTORS
330
7793
102
}
330
7793
100
AcDbXrecord
 90
        0
  0
XRECORD
  5
779E
102
{ACAD_REACTORS
330
7793
102
}
330
7793
100
AcDbXrecord
  1
{AFB28963-8C59-40AE-9337-C84526B81ACE}
  0
XRECORD
  5
779F
102
{ACAD_REACTORS
330
7793
102
}
330
7793
100
AcDbXrecord
  1
{519049D3-08E9-49AE-9C7C-B627CC7F2447}
  0
XRECORD
  5
77A0
102
{ACAD_REACTORS
330
7793
102
}
330
7793
100
AcDbXrecord
 40
0.0
  0
XRECORD
  5
77A1
102
{ACAD_REACTORS
330
7793
102
}
330
7793
100
AcDbXrecord
1000
DSTYLE
1002
{
1070
    79
 70
     2
1070
   341
340
59
1070
   342
340
59
1070
   371
 70
    -1
1070
   372
 70
    -1
1002
}
  0
XRECORD
  5
77A2
102
{ACAD_REACTORS
330
7793
102
}
330
7793
100
AcDbXrecord
340
0
  0
XRECORD
  5
77A3
102
{ACAD_REACTORS
330
7793
102
}
330
7793
100
AcDbXrecord
 70
     0
  0
XRECORD
  5
77A4
102
{ACAD_REACTORS
330
7793
102
}
330
7793
100
AcDbXrecord
340
0
  0
XRECORD
  5
77A5
102
{ACAD_REACTORS
330
7793
102
}
330
7793
100
AcDbXrecord
 10
0.0
 20
0.0
 30
0.0
  0
XRECORD
  5
77A6
102
{ACAD_REACTORS
330
7793
102
}
330
7793
100
AcDbXrecord
 10
0.0
 20
0.0
 30
0.0
  0
XRECORD
  5
77A7
102
{ACAD_REACTORS
330
7793
102
}
330
7793
100
AcDbXrecord
 10
0.0
 20
0.0
 30
0.0
  0
XRECORD
  5
77A8
102
{ACAD_REACTORS
330
7793
102
}
330
7793
100
AcDbXrecord
 10
0.0
 20
0.0
 30
0.0
  0
XRECORD
  5
77A9
102
{ACAD_REACTORS
330
7793
102
}
330
7793
100
AcDbXrecord
 10
0.0
 20
0.0
 30
0.0
  0
XRECORD
  5
77AA
102
{ACAD_REACTORS
330
7793
102
}
330
7793
100
AcDbXrecord
 10
0.0
 20
0.0
 30
0.0
  0
XRECORD
  5
77AB
102
{ACAD_REACTORS
330
7793
102
}
330
7793
100
AcDbXrecord
340
0
  0
XRECORD
  5
77AC
102
{ACAD_REACTORS
330
7793
102
}
330
7793
100
AcDbXrecord
 70
     0
  0
XRECORD
  5
77AD
102
{ACAD_REACTORS
330
7793
102
}
330
7793
100
AcDbXrecord
340
0
  0
XRECORD
  5
77AE
102
{ACAD_REACTORS
330
7793
102
}
330
7793
100
AcDbXrecord
 10
0.0
 20
0.0
 30
0.0
  0
XRECORD
  5
77AF
102
{ACAD_REACTORS
330
7793
102
}
330
7793
100
AcDbXrecord
 10
0.0
 20
0.0
 30
0.0
  0
XRECORD
  5
77B0
102
{ACAD_REACTORS
330
7793
102
}
330
7793
100
AcDbXrecord
 10
0.0
 20
0.0
 30
0.0
  0
XRECORD
  5
77B1
102
{ACAD_REACTORS
330
7793
102
}
330
7793
100
AcDbXrecord
 10
0.0
 20
0.0
 30
0.0
  0
XRECORD
  5
77B2
102
{ACAD_REACTORS
330
7793
102
}
330
7793
100
AcDbXrecord
 10
0.0
 20
0.0
 30
0.0
  0
XRECORD
  5
77B3
102
{ACAD_REACTORS
330
7793
102
}
330
7793
100
AcDbXrecord
 10
0.0
 20
0.0
 30
0.0
  0
LAYER_INDEX
  5
7789
102
{ACAD_REACTORS
330
7788
102
}
330
7788
100
AcDbIndex
 40
2453152.366351933
100
AcDbLayerIndex
  8
0
360
778A
 90
        4
  8
AM_0
360
778B
 90
      198
  8
AM_7
360
778C
 90
        1
  8
AM_5
360
778D
 90
        8
  8
Defpoints
360
778E
 90
        0
  8
AM_6
360
778F
 90
        1
  8
AM_11
360
7790
 90
        1
  8
AM_3
360
7791
 90
       10
  0
XRECORD
  5
2D
102
{ACAD_REACTORS
330
2C
102
}
330
2C
100
AcDbXrecord
  1
VERSION
140
15.0
  1
PRODUCT
  2
AutoCAD Mechanical 2000
  0
IDBUFFER
  5
778A
330
0
100
AcDbIdBuffer
330
7491
330
74AA
330
7505
330
7516
  0
IDBUFFER
  5
778B
330
0
100
AcDbIdBuffer
330
74FD
330
74FE
330
74FF
330
7500
330
7501
330
7502
330
7503
330
7504
330
7506
330
7507
330
7508
330
7509
330
750A
330
750B
330
750C
330
750D
330
750E
330
750F
330
7510
330
7511
330
7512
330
7513
330
7514
330
7515
330
7517
330
7518
330
7519
330
751A
330
751B
330
751C
330
751D
330
751E
330
751F
330
7521
330
7523
330
7524
330
7525
330
7526
330
7528
330
7529
330
752A
330
752B
330
752C
330
752D
330
752E
330
752F
330
7530
330
7531
330
7532
330
7533
330
7534
330
7535
330
7536
330
7537
330
7538
330
7539
330
753A
330
753C
330
753E
330
753F
330
7540
330
7541
330
7542
330
7543
330
7544
330
7545
330
7546
330
7547
330
7548
330
7549
330
754A
330
754B
330
7736
330
7739
330
773C
330
773F
330
7742
330
7745
330
7748
330
774A
330
774B
330
774C
330
774D
330
774E
330
774F
330
7750
330
6781
330
6782
330
6783
330
6786
330
6787
330
6789
330
678A
330
678B
330
678F
330
6793
330
6794
330
6795
330
679B
330
679C
330
679D
330
679E
330
679F
330
67A1
330
67A3
330
67A4
330
67A5
330
67A8
330
67AA
330
67AB
330
67AE
330
67B1
330
67B2
330
67B3
330
67B4
330
67B5
330
67B7
330
742D
330
742E
330
7430
330
7432
330
7433
330
7485
330
7486
330
7487
330
7488
330
7489
330
748A
330
748B
330
748C
330
748D
330
748E
330
748F
330
7490
330
7492
330
7493
330
7494
330
7495
330
7496
330
7497
330
7498
330
7499
330
749A
330
749B
330
749C
330
749D
330
749E
330
749F
330
74A0
330
74A1
330
74A2
330
74A3
330
74A4
330
74A5
330
74A6
330
74A7
330
74A8
330
74A9
330
74AB
330
74AC
330
74AD
330
74AE
330
74AF
330
74B0
330
74B1
330
74B2
330
74B3
330
74B4
330
74B5
330
74B6
330
74B7
330
74B8
330
74B9
330
74BA
330
74BB
330
74BC
330
74BD
330
74BE
330
74BF
330
74C0
330
74C1
330
74C2
330
74C3
330
74C4
330
74C5
330
74C6
330
74C7
330
74C8
330
74C9
330
74CA
330
74CB
330
74CC
330
74F5
330
74F7
330
74F8
330
74F9
330
74FB
330
74FC
  0
IDBUFFER
  5
778C
330
0
100
AcDbIdBuffer
330
6799
  0
IDBUFFER
  5
778D
330
0
100
AcDbIdBuffer
330
72E9
330
72EA
330
72EB
330
7341
330
7342
330
7343
330
7557
330
763C
  0
IDBUFFER
  5
778E
330
0
100
AcDbIdBuffer
  0
IDBUFFER
  5
778F
330
0
100
AcDbIdBuffer
330
44AC
  0
IDBUFFER
  5
7790
330
0
100
AcDbIdBuffer
330
74CD
  0
IDBUFFER
  5
7791
330
0
100
AcDbIdBuffer
330
6797
330
679A
330
67AD
330
67B6
330
74F6
330
7520
330
7522
330
7527
330
753B
330
753D
  0
ENDSEC
  0
EOF
