  0
SECTION
  2
HEADER
  9
$ACADVER
  1
AC1018
  9
$ACADMAINTVER
 70
    39
  9
$DWGCODEPAGE
  3
ANSI_932
  9
$CUSTOMPROPERTYTAG
  1
AmdtFileType
  9
$CUSTOMPROPERTY
  1
84
  9
$INSBASE
 10
0.0
 20
0.0
 30
0.0
  9
$EXTMIN
 10
-93.72943116470585
 20
-90.75125664473812
 30
0.0
  9
$EXTMAX
 10
30.18830610895183
 20
82.17670834409823
 30
0.0
  9
$LIMMIN
 10
0.0
 20
0.0
  9
$LIMMAX
 10
420.0
 20
297.0
  9
$ORTHOMODE
 70
     0
  9
$REGENMODE
 70
     1
  9
$FILLMODE
 70
     1
  9
$QTEXTMODE
 70
     0
  9
$MIRRTEXT
 70
     1
  9
$LTSCALE
 40
1.0
  9
$ATTMODE
 70
     1
  9
$TEXTSIZE
 40
3.799999999999999
  9
$TRACEWID
 40
1.0
  9
$TEXTSTYLE
  7
ACISOTS
  9
$CLAYER
  8
AM_0
  9
$CELTYPE
  6
ByLayer
  9
$CECOLOR
 62
   256
  9
$CELTSCALE
 40
1.0
  9
$DISPSILH
 70
     0
  9
$DIMSCALE
 40
1.0
  9
$DIMASZ
 40
2.5
  9
$DIMEXO
 40
0.0
  9
$DIMDLI
 40
10.0
  9
$DIMRND
 40
0.0
  9
$DIMDLE
 40
0.0
  9
$DIMEXE
 40
1.0
  9
$DIMTP
 40
0.1
  9
$DIMTM
 40
0.1000000001
  9
$DIMTXT
 40
3.799999999999999
  9
$DIMCEN
 40
0.0
  9
$DIMTSZ
 40
0.0
  9
$DIMTOL
 70
     0
  9
$DIMLIM
 70
     0
  9
$DIMTIH
 70
     0
  9
$DIMTOH
 70
     0
  9
$DIMSE1
 70
     0
  9
$DIMSE2
 70
     0
  9
$DIMTAD
 70
     3
  9
$DIMZIN
 70
     1
  9
$DIMBLK
  1
Open30
  9
$DIMASO
 70
     1
  9
$DIMSHO
 70
     1
  9
$DIMPOST
  1

  9
$DIMAPOST
  1
"
  9
$DIMALT
 70
     0
  9
$DIMALTD
 70
     2
  9
$DIMALTF
 40
0.0393701
  9
$DIMLFAC
 40
1.0
  9
$DIMTOFL
 70
     1
  9
$DIMTVP
 40
0.0
  9
$DIMTIX
 70
     0
  9
$DIMSOXD
 70
     0
  9
$DIMSAH
 70
     0
  9
$DIMBLK1
  1

  9
$DIMBLK2
  1

  9
$DIMSTYLE
  2
AM_JIS
  9
$DIMCLRD
 70
   256
  9
$DIMCLRE
 70
   256
  9
$DIMCLRT
 70
     2
  9
$DIMTFAC
 40
0.71
  9
$DIMGAP
 40
1.5
  9
$DIMJUST
 70
     0
  9
$DIMSD1
 70
     0
  9
$DIMSD2
 70
     0
  9
$DIMTOLJ
 70
     0
  9
$DIMTZIN
 70
     8
  9
$DIMALTZ
 70
     0
  9
$DIMALTTZ
 70
     0
  9
$DIMUPT
 70
     0
  9
$DIMDEC
 70
     0
  9
$DIMTDEC
 70
     2
  9
$DIMALTU
 70
     2
  9
$DIMALTTD
 70
     2
  9
$DIMTXSTY
  7
STANDARD
  9
$DIMAUNIT
 70
     1
  9
$DIMADEC
 70
     1
  9
$DIMALTRND
 40
0.0
  9
$DIMAZIN
 70
     0
  9
$DIMDSEP
 70
    46
  9
$DIMATFIT
 70
     3
  9
$DIMFRAC
 70
     0
  9
$DIMLDRBLK
  1
Open30
  9
$DIMLUNIT
 70
     2
  9
$DIMLWD
 70
    -1
  9
$DIMLWE
 70
    -1
  9
$DIMTMOVE
 70
     0
  9
$LUNITS
 70
     2
  9
$LUPREC
 70
     2
  9
$SKETCHINC
 40
1.0
  9
$FILLETRAD
 40
2.0
  9
$AUNITS
 70
     0
  9
$AUPREC
 70
     0
  9
$MENU
  1
.
  9
$ELEVATION
 40
0.0
  9
$PELEVATION
 40
0.0
  9
$THICKNESS
 40
0.0
  9
$LIMCHECK
 70
     0
  9
$CHAMFERA
 40
0.0
  9
$CHAMFERB
 40
0.0
  9
$CHAMFERC
 40
20.0
  9
$CHAMFERD
 40
0.0
  9
$SKPOLY
 70
     0
  9
$TDCREATE
 40
2455413.748254838
  9
$TDUCREATE
 40
2455413.373254838
  9
$TDUPDATE
 40
2455425.772910150
  9
$TDUUPDATE
 40
2455425.397910151
  9
$TDINDWG
 40
0.1461350000
  9
$TDUSRTIMER
 40
0.1461350000
  9
$USRTIMER
 70
     1
  9
$ANGBASE
 50
0.0
  9
$ANGDIR
 70
     0
  9
$PDMODE
 70
     0
  9
$PDSIZE
 40
0.0
  9
$PLINEWID
 40
0.0
  9
$SPLFRAME
 70
     0
  9
$SPLINETYPE
 70
     6
  9
$SPLINESEGS
 70
     8
  9
$HANDSEED
  5
1F4F
  9
$SURFTAB1
 70
     6
  9
$SURFTAB2
 70
     6
  9
$SURFTYPE
 70
     6
  9
$SURFU
 70
     6
  9
$SURFV
 70
     6
  9
$UCSBASE
  2

  9
$UCSNAME
  2

  9
$UCSORG
 10
0.0
 20
0.0
 30
0.0
  9
$UCSXDIR
 10
1.0
 20
0.0
 30
0.0
  9
$UCSYDIR
 10
0.0
 20
1.0
 30
0.0
  9
$UCSORTHOREF
  2

  9
$UCSORTHOVIEW
 70
     0
  9
$UCSORGTOP
 10
0.0
 20
0.0
 30
0.0
  9
$UCSORGBOTTOM
 10
0.0
 20
0.0
 30
0.0
  9
$UCSORGLEFT
 10
0.0
 20
0.0
 30
0.0
  9
$UCSORGRIGHT
 10
0.0
 20
0.0
 30
0.0
  9
$UCSORGFRONT
 10
0.0
 20
0.0
 30
0.0
  9
$UCSORGBACK
 10
0.0
 20
0.0
 30
0.0
  9
$PUCSBASE
  2

  9
$PUCSNAME
  2

  9
$PUCSORG
 10
0.0
 20
0.0
 30
0.0
  9
$PUCSXDIR
 10
1.0
 20
0.0
 30
0.0
  9
$PUCSYDIR
 10
0.0
 20
1.0
 30
0.0
  9
$PUCSORTHOREF
  2

  9
$PUCSORTHOVIEW
 70
     0
  9
$PUCSORGTOP
 10
0.0
 20
0.0
 30
0.0
  9
$PUCSORGBOTTOM
 10
0.0
 20
0.0
 30
0.0
  9
$PUCSORGLEFT
 10
0.0
 20
0.0
 30
0.0
  9
$PUCSORGRIGHT
 10
0.0
 20
0.0
 30
0.0
  9
$PUCSORGFRONT
 10
0.0
 20
0.0
 30
0.0
  9
$PUCSORGBACK
 10
0.0
 20
0.0
 30
0.0
  9
$USERI1
 70
     0
  9
$USERI2
 70
     0
  9
$USERI3
 70
     0
  9
$USERI4
 70
     0
  9
$USERI5
 70
     0
  9
$USERR1
 40
0.0
  9
$USERR2
 40
0.0
  9
$USERR3
 40
0.0
  9
$USERR4
 40
0.0
  9
$USERR5
 40
0.0
  9
$WORLDVIEW
 70
     1
  9
$SHADEDGE
 70
     3
  9
$SHADEDIF
 70
    70
  9
$TILEMODE
 70
     1
  9
$MAXACTVP
 70
    64
  9
$PINSBASE
 10
0.0
 20
0.0
 30
0.0
  9
$PLIMCHECK
 70
     0
  9
$PEXTMIN
 10
1.000000000000000E+20
 20
1.000000000000000E+20
 30
1.000000000000000E+20
  9
$PEXTMAX
 10
-1.000000000000000E+20
 20
-1.000000000000000E+20
 30
-1.000000000000000E+20
  9
$PLIMMIN
 10
0.0
 20
0.0
  9
$PLIMMAX
 10
420.0
 20
297.0
  9
$UNITMODE
 70
     0
  9
$VISRETAIN
 70
     1
  9
$PLINEGEN
 70
     0
  9
$PSLTSCALE
 70
     1
  9
$TREEDEPTH
 70
  3020
  9
$CMLSTYLE
  2
Standard
  9
$CMLJUST
 70
     0
  9
$CMLSCALE
 40
20.0
  9
$PROXYGRAPHICS
 70
     1
  9
$MEASUREMENT
 70
     1
  9
$CELWEIGHT
370
    -1
  9
$ENDCAPS
280
     0
  9
$JOINSTYLE
280
     0
  9
$LWDISPLAY
290
     0
  9
$INSUNITS
 70
     4
  9
$HYPERLINKBASE
  1

  9
$STYLESHEET
  1
sei_cad.ctb
  9
$XEDIT
290
     1
  9
$CEPSNTYPE
380
     0
  9
$PSTYLEMODE
290
     1
  9
$FINGERPRINTGUID
  2
{4EF443E9-F763-4CB6-8927-D1E34FDC1C5A}
  9
$VERSIONGUID
  2
{03C80530-8F14-40C3-8A32-0287E874F0B2}
  9
$EXTNAMES
290
     1
  9
$PSVPSCALE
 40
0.0
  9
$OLESTARTUP
290
     0
  9
$SORTENTS
280
   127
  9
$INDEXCTL
280
     0
  9
$HIDETEXT
280
     0
  9
$XCLIPFRAME
290
     0
  9
$HALOGAP
280
     0
  9
$OBSCOLOR
 70
   257
  9
$OBSLTYPE
280
     0
  9
$INTERSECTIONDISPLAY
280
     0
  9
$INTERSECTIONCOLOR
 70
   257
  9
$DIMASSOC
280
     2
  9
$PROJECTNAME
  1

  0
ENDSEC
  0
SECTION
  2
CLASSES
  0
CLASS
  1
ACDBDICTIONARYWDFLT
  2
AcDbDictionaryWithDefault
  3
ObjectDBX Classes
 90
        0
 91
        1
280
     0
281
     0
  0
CLASS
  1
ACME_DOCUMENT
  2
AcMeDbDoc
  3
AcMeServices
 90
        0
 91
        2
280
     0
281
     0
  0
CLASS
  1
AMGSETTINGSOBJ
  2
AmgSettingsObj
  3
"AcadM|Product Description: AutoCAD Mechanical 2000|Company: Autodesk"
 90
        0
 91
        4
280
     0
281
     0
  0
CLASS
  1
ACMESCOPE
  2
AcMeScope
  3
AcMeServices
 90
        0
 91
        1
280
     0
281
     0
  0
CLASS
  1
ACMECOMMANDHISTORY
  2
AcMeCommandHistory
  3
AcMeServices
 90
        0
 91
        1
280
     0
281
     0
  0
CLASS
  1
ACIMSYSVARMAN
  2
AcImSysVarManager
  3
AcMeServices
 90
        0
 91
        5
280
     0
281
     0
  0
CLASS
  1
ACIMREALSYSVAR
  2
AcImRealSysVar
  3
AcMeServices
 90
        0
 91
        3
280
     0
281
     0
  0
CLASS
  1
ACIMINTSYSVAR
  2
AcImIntSysVar
  3
AcMeServices
 90
        0
 91
       27
280
     0
281
     0
  0
CLASS
  1
ACMEDRAWINGMAN
  2
AcMeDrawingMan
  3
AcMeServices
 90
        0
 91
        1
280
     0
281
     0
  0
CLASS
  1
ACMEVIEW
  2
AcMeView
  3
AcMeServices
 90
        0
 91
        1
280
     0
281
     0
  0
CLASS
  1
ACDBENTITYCACHE
  2
AcMeEntityCache
  3
AcMeServices
 90
        0
 91
        1
280
     0
281
     0
  0
CLASS
  1
GSMANAGER
  2
AcMeGSManager
  3
AcMeServices
 90
        0
 91
        1
280
     0
281
     0
  0
CLASS
  1
AMDTINTERNALREACTOR
  2
AmdtInternalReactor
  3
AcMeServices
 90
        0
 91
        2
280
     0
281
     0
  0
CLASS
  1
ACMESTATEMGR
  2
AcMeStateMgr
  3
AcMeServices
 90
        0
 91
        1
280
     0
281
     0
  0
CLASS
  1
ACGREFMASTER
  2
AcGrefMaster
  3
AcAttribServices
 90
        0
 91
        1
280
     0
281
     0
  0
CLASS
  1
ACME_DATABASE
  2
AcMeDbDatabase
  3
AcMeServices
 90
        0
 91
        1
280
     0
281
     0
  0
CLASS
  1
ACRFINSADJUSTERMGR
  2
AcRfInsAdjusterMgr
  3
AcMeServices
 90
        0
 91
        1
280
     0
281
     0
  0
CLASS
  1
ACGREFACADMASTER
  2
AcGrefacadMaster
  3
AcGrefServices
 90
        0
 91
        1
280
     0
281
     0
  0
CLASS
  1
AMIMASTER
  2
AmiMaster
  3
AmiServices
 90
        0
 91
        1
280
     0
281
     0
  0
CLASS
  1
ACMDATADICTIONARY
  2
AcmDataDictionary
  3
"AcmSymBB|Product Description: AutoCAD Mechanical 2004 DX|Company: Autodesk"
 90
        0
 91
        1
280
     0
281
     0
  0
CLASS
  1
ACMDATAENTRYBLOCK
  2
AcmDataEntryBlock
  3
"AcmSymBB|Product Description: AutoCAD Mechanical 2004 DX|Company: Autodesk"
 90
        0
 91
        1
280
     0
281
     0
  0
CLASS
  1
ACIMSTRSYSVAR
  2
AcImStrSysVar
  3
AcMeServices
 90
        0
 91
        5
280
     0
281
     0
  0
CLASS
  1
ACMSTANDARDISO
  2
AcmStandardISO
  3
"Amdt_StdImp|Product Description: AutoCAD Mechanical 2004 DX|Company: Autodesk"
 90
        0
 91
        1
280
     0
281
     0
  0
CLASS
  1
AMGOBJPROPCFG
  2
AmgObjPropCfg
  3
"AmgLay|Product Description: AutoCAD Mechanical 2000|Company: Autodesk"
 90
        1
 91
        1
280
     0
281
     0
  0
CLASS
  1
AMDTEDGESTANDARDISO
  2
AmdtEdgeStdISO
  3
"Amdt_StdImp|Product Description: AutoCAD Mechanical 2004 DX|Company: Autodesk"
 90
        0
 91
        1
280
     0
281
     0
  0
CLASS
  1
ACMSURFSTANDARDISO
  2
AcmSurfTextStdISO
  3
"Amdt_StdImp|Product Description: AutoCAD Mechanical 2004 DX|Company: Autodesk"
 90
        0
 91
        1
280
     0
281
     0
  0
CLASS
  1
ACMFCFSTANDARDISO
  2
AcmFCFStdISO
  3
"Amdt_StdImp|Product Description: AutoCAD Mechanical 2004 DX|Company: Autodesk"
 90
        0
 91
        1
280
     0
281
     0
  0
CLASS
  1
ACMWELDSTANDARDISO
  2
AcmWeldingStdISO
  3
"Amdt_StdImp|Product Description: AutoCAD Mechanical 2004 DX|Company: Autodesk"
 90
        0
 91
        1
280
     0
281
     0
  0
CLASS
  1
ACMIDSTANDARDISO
  2
AcmIdStdISO
  3
"Amdt_StdImp|Product Description: AutoCAD Mechanical 2004 DX|Company: Autodesk"
 90
        0
 91
        1
280
     0
281
     0
  0
CLASS
  1
ACMDATUMSTANDARDISO
  2
AcmDatumStdISO
  3
"Amdt_StdImp|Product Description: AutoCAD Mechanical 2004 DX|Company: Autodesk"
 90
        0
 91
        1
280
     0
281
     0
  0
CLASS
  1
ACMBOMSTANDARDISO
  2
AcmBOMStdISO
  3
"Amdt_StdImp|Product Description: AutoCAD Mechanical 2004 DX|Company: Autodesk"
 90
        0
 91
        1
280
     0
281
     0
  0
CLASS
  1
ACMDETAILSTANDARDISO
  2
AmdtDetailSymStdISO
  3
"Amdt_StdImp|Product Description: AutoCAD Mechanical 2004 DX|Company: Autodesk"
 90
        0
 91
        1
280
     0
281
     0
  0
CLASS
  1
ACMSECTIONSTANDARDISO
  2
AmdtSectionSymStdISO
  3
"Amdt_StdImp|Product Description: AutoCAD Mechanical 2004 DX|Company: Autodesk"
 90
        0
 91
        1
280
     0
281
     0
  0
CLASS
  1
ACMCENTERLINESTANDARDISO
  2
AmdtCenterLineStdISO
  3
"Amdt_StdImp|Product Description: AutoCAD Mechanical 2004 DX|Company: Autodesk"
 90
        0
 91
        1
280
     0
281
     0
  0
CLASS
  1
ACMNOTESTANDARDISO
  2
AmdtNoteStdISO
  3
"Amdt_StdImp|Product Description: AutoCAD Mechanical 2004 DX|Company: Autodesk"
 90
        0
 91
        1
280
     0
281
     0
  0
CLASS
  1
ACAMGLAYSTD
  2
AcAmgLayStd
  3
"AcAmgLayStd|Product Description: AutoCAD Mechanical 2000|Company: Autodesk"
 90
        0
 91
        2
280
     0
281
     0
  0
CLASS
  1
ACAMGDIMSTD
  2
AcAmgDimStd
  3
"AcAmgDimStd|Product Description: AutoCAD Mechanical 2000|Company: Autodesk"
 90
        0
 91
        2
280
     0
281
     0
  0
CLASS
  1
ACAMGHOLECHARTSTDISO
  2
AcAmgHoleChartStdISO
  3
ACMSYMBB_MODULE_NAME
 90
        0
 91
        1
280
     0
281
     0
  0
CLASS
  1
ACAMGTITLESTD
  2
AcAmgTitleStd
  3
"TITLEAPP"
 90
        0
 91
        2
280
     0
281
     0
  0
CLASS
  1
LAYER_INDEX
  2
AcDbLayerIndex
  3
ObjectDBX Classes
 90
        0
 91
        0
280
     0
281
     0
  0
CLASS
  1
IDBUFFER
  2
AcDbIdBuffer
  3
ObjectDBX Classes
 90
        0
 91
        0
280
     0
281
     0
  0
CLASS
  1
DICTIONARYVAR
  2
AcDbDictionaryVar
  3
ObjectDBX Classes
 90
        0
 91
        3
280
     0
281
     0
  0
CLASS
  1
AM_DRAWING_MGR
  2
AcDmDwgMgr
  3
AcMechDwgViewMgmt
 90
        0
 91
        1
280
     0
281
     0
  0
CLASS
  1
AM_DWG_DOCUMENT
  2
AcDmDwgDocument
  3
AcMechDwgViewMgmt
 90
        0
 91
        1
280
     0
281
     0
  0
CLASS
  1
AM_DWG_SHEET
  2
AcDmSheet
  3
AcMechDwgViewMgmt
 90
        0
 91
        2
280
     0
281
     0
  0
CLASS
  1
AM_VIEWDIMPARMAP
  2
AcDmViewDimParMap
  3
AcMechDwgViewMgmt
 90
        0
 91
        2
280
     0
281
     0
  0
CLASS
  1
AM_DWGMGR_NAME
  2
AcDmDwgMgrName
  3
AcMechDwgViewMgmt
 90
        0
 91
        1
280
     0
281
     0
  0
CLASS
  1
AMDTMENUSTATEMGR
  2
AmdtMenuStateMgr
  3
McadcomServices
 90
        0
 91
        1
280
     0
281
     0
  0
CLASS
  1
AMDTMCOMMENUSTATE
  2
AmdtMcomMenuState
  3
McadcomServices
 90
        0
 91
        1
280
     0
281
     0
  0
CLASS
  1
MAPIAMMOUDLE
  2
MApiAmModule
  3
MApiAmServices
 90
        0
 91
        1
280
     0
281
     0
  0
CLASS
  1
AMDTADMENUSTATE
  2
AmdtAdMenuState
  3
DesignerServices
 90
        0
 91
        1
280
     0
281
     0
  0
CLASS
  1
ADAPPL
  2
AcAdAppl
  3
DesignerServices
 90
        0
 91
        1
280
     0
281
     0
  0
CLASS
  1
DEPMGR
  2
AcAdDepMgr
  3
DesignerServices
 90
        0
 91
        1
280
     0
281
     0
  0
CLASS
  1
PARAMMGR
  2
AcAdParamMgr
  3
DesignerServices
 90
        0
 91
        1
280
     0
281
     0
  0
CLASS
  1
PARAMSCOPE
  2
AcAdParamScope
  3
DesignerServices
 90
        0
 91
        1
280
     0
281
     0
  0
CLASS
  1
NAMEDAPPL
  2
AcAdNamedAppl
  3
DesignerServices
 90
        0
 91
        1
280
     0
281
     0
  0
CLASS
  1
AMDTDMMENUSTATE
  2
AmdtDmMenuState
  3
AcMechDwgViewMgmt
 90
        0
 91
        1
280
     0
281
     0
  0
CLASS
  1
AMDTAMMENUSTATE
  2
AmdtAmMenuState
  3
DesignerAssemblies
 90
        0
 91
        1
280
     0
281
     0
  0
CLASS
  1
ACAMPROJECT
  2
AcAmProject
  3
DesignerAssemblies
 90
        0
 91
        1
280
     0
281
     0
  0
CLASS
  1
ACAMGRCOMPDEF
  2
AcAmGrCompDef
  3
DesignerAssemblies
 90
        0
 91
        1
280
     0
281
     0
  0
CLASS
  1
ACCMCONTEXT
  2
AcCmContext
  3
DesignerAssemblies
 90
        0
 91
        1
280
     0
281
     0
  0
CLASS
  1
ACAMCOMPDEF
  2
AcAmCompDef
  3
DesignerAssemblies
 90
        0
 91
        1
280
     0
281
     0
  0
CLASS
  1
ACAMCOMPDEFMGR
  2
AcAmCompDefMgr
  3
DesignerAssemblies
 90
        0
 91
        1
280
     0
281
     0
  0
CLASS
  1
AMCONTEXTMGR
  2
AcAmContextMgr
  3
DesignerAssemblies
 90
        0
 91
        1
280
     0
281
     0
  0
CLASS
  1
ACAMCONTEXTMODELER
  2
AcAmContextModeler
  3
DesignerAssemblies
 90
        0
 91
        1
280
     0
281
     0
  0
CLASS
  1
ACMTHREADLINESTANDARDISO
  2
AmdtThreadLineStdISO
  3
"Amdt_StdImp|Product Description: AutoCAD Mechanical 2004 DX|Company: Autodesk"
 90
        0
 91
        1
280
     0
281
     0
  0
CLASS
  1
CATALOGSTATE
  2
AcAmCatalogState
  3
DesignerAssemblies
 90
        0
 91
        1
280
     0
281
     0
  0
CLASS
  1
ACAMGRCOMPDEFSET
  2
AcAmGrCompDefSet
  3
DesignerAssemblies
 90
        0
 91
        1
280
     0
281
     0
  0
CLASS
  1
AMDTBROWSERDBTAB
  2
AmdtBrowserDbTab
  3
McadcomServices
 90
        0
 91
        1
280
     0
281
     0
  0
CLASS
  1
CBROWSERAPPOBJECT
  2
CBrowserAppObject
  3
McadcomServices
 90
        0
 91
        3
280
     0
281
     0
  0
CLASS
  1
DM_PLACEHOLDER
  2
AcDmSelsetPlaceholder
  3
AcMechDwgViewMgmt
 90
        0
 91
        1
280
     0
281
     0
  0
CLASS
  1
TABLESTYLE
  2
AcDbTableStyle
  3
ObjectDBX Classes
 90
     2047
 91
        1
280
     0
281
     0
  0
CLASS
  1
VAACXREFPANELOBJECT
  2
VaAcXREFPanelObject
  3
VAAC_ADDIN
 90
        0
 91
        0
280
     0
281
     0
  0
CLASS
  1
VAACIMAGEINVENTORY
  2
VaAcImageInventory
  3
VAAC_ADDIN
 90
        0
 91
        0
280
     0
281
     0
  0
CLASS
  1
AMDTNOTETEMPLATEDB
  2
AmdtNoteTemplateDB
  3
AMDT_STDIMP_MODULE_NAME
 90
        0
 91
        9
280
     0
281
     0
  0
CLASS
  1
ACMBOM
  2
AcmBom
  3
"AcmSymBB|Product Description: AutoCAD Mechanical 2004 DX|Company: Autodesk"
 90
        0
 91
        0
280
     0
281
     0
  0
CLASS
  1
AMDTFORMULAUPDATEDISPATCHER
  2
AmdtFormulaUpdateDispatcher
  3
AcMeServices
 90
        0
 91
        0
280
     0
281
     0
  0
CLASS
  1
ACMPARTLIST
  2
AcmPartList
  3
"AcmSymBB|Product Description: AutoCAD Mechanical 2004 DX|Company: Autodesk"
 90
     1023
 91
        0
280
     0
281
     1
  0
CLASS
  1
ACAMGFILTERDAT
  2
AcAmgFilterDat
  3
"AcadM|Product Description: AutoCAD Mechanical 2000|Company: Autodesk"
 90
        0
 91
        6
280
     0
281
     0
  0
CLASS
  1
ACMSTANDARDJIS
  2
AcmStandardJIS
  3
"Amdt_StdImp|Product Description: AutoCAD Mechanical 2004 DX|Company: Autodesk"
 90
        0
 91
        1
280
     0
281
     0
  0
CLASS
  1
ACMSURFSTANDARDJIS
  2
AcmSurfTextStdJIS
  3
"Amdt_StdImp|Product Description: AutoCAD Mechanical 2004 DX|Company: Autodesk"
 90
        0
 91
        1
280
     0
281
     0
  0
CLASS
  1
ACMFCFSTANDARDJIS98
  2
AcmFCFStdJIS98
  3
"Amdt_StdImp|Product Description: AutoCAD Mechanical 2004 DX|Company: Autodesk"
 90
        0
 91
        1
280
     0
281
     0
  0
CLASS
  1
ACMWELDSTANDARDJIS
  2
AcmWeldingStdJIS
  3
"Amdt_StdImp|Product Description: AutoCAD Mechanical 2004 DX|Company: Autodesk"
 90
        0
 91
        1
280
     0
281
     0
  0
CLASS
  1
ACMIDSTANDARDJIS
  2
AcmIdStdJIS
  3
"Amdt_StdImp|Product Description: AutoCAD Mechanical 2004 DX|Company: Autodesk"
 90
        0
 91
        1
280
     0
281
     0
  0
CLASS
  1
ACMDATUMSTANDARDJIS
  2
AcmDatumStdJIS
  3
"Amdt_StdImp|Product Description: AutoCAD Mechanical 2004 DX|Company: Autodesk"
 90
        0
 91
        1
280
     0
281
     0
  0
CLASS
  1
ACMBOMSTANDARDJIS
  2
AcmBOMStdJIS
  3
"Amdt_StdImp|Product Description: AutoCAD Mechanical 2004 DX|Company: Autodesk"
 90
        0
 91
        1
280
     0
281
     0
  0
CLASS
  1
ACMDETAILSTANDARDJIS
  2
AmdtDetailSymStdJIS
  3
"Amdt_StdImp|Product Description: AutoCAD Mechanical 2004 DX|Company: Autodesk"
 90
        0
 91
        1
280
     0
281
     0
  0
CLASS
  1
ACMSECTIONSTANDARDJIS
  2
AmdtSectionSymStdJIS
  3
"Amdt_StdImp|Product Description: AutoCAD Mechanical 2004 DX|Company: Autodesk"
 90
        0
 91
        1
280
     0
281
     0
  0
CLASS
  1
ACMCENTERLINESTANDARDJIS
  2
AmdtCenterLineStdJIS
  3
"Amdt_StdImp|Product Description: AutoCAD Mechanical 2004 DX|Company: Autodesk"
 90
        0
 91
        1
280
     0
281
     0
  0
CLASS
  1
ACMTHREADLINESTANDARDJIS
  2
AmdtThreadLineStdJIS
  3
"Amdt_StdImp|Product Description: AutoCAD Mechanical 2004 DX|Company: Autodesk"
 90
        0
 91
        1
280
     0
281
     0
  0
CLASS
  1
ACMNOTESTANDARDJIS
  2
AmdtNoteStdJIS
  3
"Amdt_StdImp|Product Description: AutoCAD Mechanical 2004 DX|Company: Autodesk"
 90
        0
 91
        1
280
     0
281
     0
  0
CLASS
  1
ACAMGHOLECHARTSTDJIS
  2
AcAmgHoleChartStdJIS
  3
ACMSYMBB_MODULE_NAME
 90
        0
 91
        1
280
     0
281
     0
  0
CLASS
  1
SORTENTSTABLE
  2
AcDbSortentsTable
  3
ObjectDBX Classes
 90
        0
 91
        1
280
     0
281
     0
  0
CLASS
  1
DIMASSOC
  2
AcDbDimAssoc
  3
"AcDbDimAssoc|Product Desc:     AcDim ARX App For Dimension|Company:          Autodesk, Inc.|WEB Address:      www.autodesk.com"
 90
        0
 91
        3
280
     0
281
     0
  0
ENDSEC
  0
SECTION
  2
TABLES
  0
TABLE
  2
VPORT
  5
8
330
0
100
AcDbSymbolTable
 70
     7
  0
VPORT
  5
1F4E
330
8
100
AcDbSymbolTableRecord
100
AcDbViewportTableRecord
  2
*Active
 70
     0
 10
0.0
 20
0.0
 11
1.0
 21
1.0
 12
-36.3134075553981
 22
-8.502910851639342
 13
0.0
 23
0.0
 14
2.5
 24
2.5
 15
10.0
 25
10.0
 16
0.0
 26
0.0
 36
1.0
 17
0.0
 27
0.0
 37
0.0
 40
216.4792358735029
 41
1.526455026455026
 42
50.0
 43
0.0
 44
0.0
 50
0.0
 51
0.0
 71
     0
 72
  2000
 73
     1
 74
     3
 75
     0
 76
     0
 77
     0
 78
     0
281
     0
 65
     1
110
0.0
120
0.0
130
0.0
111
1.0
121
0.0
131
0.0
112
0.0
122
1.0
132
0.0
 79
     0
146
0.0
  0
ENDTAB
  0
TABLE
  2
LTYPE
  5
5
330
0
100
AcDbSymbolTable
 70
    17
  0
LTYPE
  5
14
330
5
100
AcDbSymbolTableRecord
100
AcDbLinetypeTableRecord
  2
ByBlock
 70
     0
  3

 72
    65
 73
     0
 40
0.0
  0
LTYPE
  5
15
330
5
100
AcDbSymbolTableRecord
100
AcDbLinetypeTableRecord
  2
ByLayer
 70
     0
  3

 72
    65
 73
     0
 40
0.0
  0
LTYPE
  5
16
330
5
100
AcDbSymbolTableRecord
100
AcDbLinetypeTableRecord
  2
Continuous
 70
     0
  3
Solid line
 72
    65
 73
     0
 40
0.0
  0
LTYPE
  5
64
330
5
100
AcDbSymbolTableRecord
100
AcDbLinetypeTableRecord
  2
AM_ISO02W050
 70
     0
  3
__ __ __ __ __ __ __ __ __ __ __ __ __ __ __
 72
    65
 73
     2
 40
7.5
 49
6.0
 74
     0
 49
-1.5
 74
     0
  0
LTYPE
  5
65
330
5
100
AcDbSymbolTableRecord
100
AcDbLinetypeTableRecord
  2
AM_ISO08W050
 70
     0
  3
____ . ____ . ____ . ____ . ____ . ____ . ____
 72
    65
 73
     4
 40
18.0
 49
12.0
 74
     0
 49
-1.5
 74
     0
 49
3.0
 74
     0
 49
-1.5
 74
     0
  0
LTYPE
  5
66
330
5
100
AcDbSymbolTableRecord
100
AcDbLinetypeTableRecord
  2
AM_ISO09W050
 70
     0
  3
_____ . . _____ . . _____ . . ____ .. ____
 72
    65
 73
     6
 40
22.5
 49
12.0
 74
     0
 49
-1.5
 74
     0
 49
3.0
 74
     0
 49
-1.5
 74
     0
 49
3.0
 74
     0
 49
-1.5
 74
     0
  0
LTYPE
  5
67
330
5
100
AcDbSymbolTableRecord
100
AcDbLinetypeTableRecord
  2
Amconstr
 70
     0
  3
_______________________
 72
    65
 73
     2
 40
9999.0
 49
9999.0
 74
     0
 49
0.0
 74
     0
  0
LTYPE
  5
68
330
5
100
AcDbSymbolTableRecord
100
AcDbLinetypeTableRecord
  2
AM_ISO08W050x2
 70
     0
  3
__ . __ . __ . __ . __ . __
 72
    65
 73
     4
 40
9.0
 49
6.0
 74
     0
 49
-0.75
 74
     0
 49
1.5
 74
     0
 49
-0.75
 74
     0
  0
LTYPE
  5
69
330
5
100
AcDbSymbolTableRecord
100
AcDbLinetypeTableRecord
  2
AM_ISO02W050x2
 70
     0
  3
 _ _ _ _ _ _ _ _ _ _ _ _
 72
    65
 73
     2
 40
3.75
 49
3.0
 74
     0
 49
-0.75
 74
     0
  0
LTYPE
  5
6C
330
5
100
AcDbSymbolTableRecord
100
AcDbLinetypeTableRecord
  2
Amzigzag
 70
     0
  3
/\/-/\/-/\/-/\/-/\/-/\/
 72
    65
 73
     2
 40
11.0001
 49
0.0001
 74
     4
 75
   135
340
6B
 46
0.04
 50
0.0
 44
0.0
 45
0.0
 49
-11.0
 74
     0
  0
LTYPE
  5
7A
330
5
100
AcDbSymbolTableRecord
100
AcDbLinetypeTableRecord
  2
ACISOWELD
 70
     0
  3
_ _ _ _ _
 72
    65
 73
     2
 40
2.0
 49
2.0
 74
     0
 49
-1.0
 74
     0
  0
LTYPE
  5
7B
330
5
100
AcDbSymbolTableRecord
100
AcDbLinetypeTableRecord
  2
ACISOTGB
 70
     0
  3
__ . . __ . .
 72
    65
 73
     6
 40
9.0
 49
4.0
 74
     0
 49
-1.0
 74
     0
 49
1.0
 74
     0
 49
-1.0
 74
     0
 49
1.0
 74
     0
 49
-1.0
 74
     0
  0
LTYPE
  5
7C
330
5
100
AcDbSymbolTableRecord
100
AcDbLinetypeTableRecord
  2
ACISOTGL
 70
     0
  3
_ _ _ _ _
 72
    65
 73
     2
 40
3.0
 49
2.0
 74
     0
 49
-1.0
 74
     0
  0
LTYPE
  5
7E
330
5
100
AcDbSymbolTableRecord
100
AcDbLinetypeTableRecord
  2
CENTER
 70
     0
  3
__ . __
 72
    65
 73
     4
 40
7.0
 49
4.0
 74
     0
 49
-1.0
 74
     0
 49
1.0
 74
     0
 49
-1.0
 74
     0
  0
LTYPE
  5
D8
330
5
100
AcDbSymbolTableRecord
100
AcDbLinetypeTableRecord
  2
HIDDEN
 70
     0
  3
Hidden __ __ __ __ __ __ __ __ __ __ __ __ __ _
 72
    65
 73
     2
 40
9.524999999999998
 49
6.349999999999999
 74
     0
 49
-3.174999999999999
 74
     0
  0
LTYPE
  5
D9
330
5
100
AcDbSymbolTableRecord
100
AcDbLinetypeTableRecord
  2
PHANTOM2
 70
     0
  3
Phantom (.5x) ___ _ _ ___ _ _ ___ _ _ ___ _ _
 72
    65
 73
     6
 40
31.75
 49
15.875
 74
     0
 49
-3.174999999999999
 74
     0
 49
3.174999999999999
 74
     0
 49
-3.174999999999999
 74
     0
 49
3.174999999999999
 74
     0
 49
-3.174999999999999
 74
     0
  0
LTYPE
  5
20C
330
5
100
AcDbSymbolTableRecord
100
AcDbLinetypeTableRecord
  2
ACJISWELD
 70
     0
  3
_ _ _ _ _
 72
    65
 73
     2
 40
2.0
 49
2.0
 74
     0
 49
-1.0
 74
     0
  0
LTYPE
  5
20D
330
5
100
AcDbSymbolTableRecord
100
AcDbLinetypeTableRecord
  2
ACJISTGB
 70
     0
  3
__ . . __ . .
 72
    65
 73
     6
 40
9.0
 49
4.0
 74
     0
 49
-1.0
 74
     0
 49
1.0
 74
     0
 49
-1.0
 74
     0
 49
1.0
 74
     0
 49
-1.0
 74
     0
  0
LTYPE
  5
20E
330
5
100
AcDbSymbolTableRecord
100
AcDbLinetypeTableRecord
  2
ACJISTGL
 70
     0
  3
_ _ _ _ _
 72
    65
 73
     2
 40
3.0
 49
2.0
 74
     0
 49
-1.0
 74
     0
  0
ENDTAB
  0
TABLE
  2
LAYER
  5
2
102
{ACAD_XDICTIONARY
360
34B
102
}
330
0
100
AcDbSymbolTable
 70
     8
  0
LAYER
  5
10
330
2
100
AcDbSymbolTableRecord
100
AcDbLayerTableRecord
  2
0
 70
     0
 62
     7
  6
Continuous
370
    -3
390
F
  0
LAYER
  5
34A
330
2
100
AcDbSymbolTableRecord
100
AcDbLayerTableRecord
  2
AM_0
 70
     0
 62
     7
  6
Continuous
370
    30
390
F
  0
LAYER
  5
69B
330
2
100
AcDbSymbolTableRecord
100
AcDbLayerTableRecord
  2
AM_CL
 70
     0
 62
     1
  6
Amconstr
370
    30
390
F
  0
LAYER
  5
72C
330
2
100
AcDbSymbolTableRecord
100
AcDbLayerTableRecord
  2
AM_7
 70
     0
 62
     4
  6
AM_ISO08W050
370
    13
390
F
  0
LAYER
  5
733
330
2
100
AcDbSymbolTableRecord
100
AcDbLayerTableRecord
  2
AM_5
 70
     0
 62
     3
  6
Continuous
370
    13
390
F
  0
LAYER
  5
78B
330
2
100
AcDbSymbolTableRecord
100
AcDbLayerTableRecord
  2
Defpoints
 70
     0
 62
     7
  6
Continuous
290
     0
370
    -3
390
F
  0
LAYER
  5
91E
330
2
100
AcDbSymbolTableRecord
100
AcDbLayerTableRecord
  2
AM_11
 70
     0
 62
     3
  6
AM_ISO09W050
370
    13
390
F
  0
LAYER
  5
9EB
330
2
100
AcDbSymbolTableRecord
100
AcDbLayerTableRecord
  2
AM_6
 70
     0
 62
     2
  6
Continuous
370
    30
390
F
  0
ENDTAB
  0
TABLE
  2
STYLE
  5
3
330
0
100
AcDbSymbolTable
 70
     9
  0
STYLE
  5
11
330
3
100
AcDbSymbolTableRecord
100
AcDbTextStyleTableRecord
  2
STANDARD
 70
     0
 40
0.0
 41
1.0
 50
0.0
 71
     0
 42
3.799999999999999
  3
ISOCP.SHX
  4
EXTFONT.SHX
  0
STYLE
  5
6B
330
3
100
AcDbSymbolTableRecord
100
AcDbTextStyleTableRecord
  2

 70
     1
 40
0.0
 41
1.0
 50
0.0
 71
     0
 42
2.5
  3
ltypeshp.shx
  4

  0
STYLE
  5
6D
330
3
100
AcDbSymbolTableRecord
100
AcDbTextStyleTableRecord
  2
ACISOTS
 70
     0
 40
0.0
 41
1.0
 50
0.0
 71
     0
 42
3.799999999999999
  3
isocp.shx
  4
extfont.shx
  0
STYLE
  5
79
330
3
100
AcDbSymbolTableRecord
100
AcDbTextStyleTableRecord
  2
ACISOGDT
 70
     0
 40
0.0
 41
1.0
 50
0.0
 71
     0
 42
2.5
  3
amgdt.shx
  4
extfont.shx
  0
STYLE
  5
1F8
330
3
100
AcDbSymbolTableRecord
100
AcDbTextStyleTableRecord
  2
USER1
 70
     0
 40
0.0
 41
1.0
 50
0.0
 71
     0
 42
1.0
  3
TXT.SHX
  4

  0
STYLE
  5
1F9
330
3
100
AcDbSymbolTableRecord
100
AcDbTextStyleTableRecord
  2
USER2
 70
     0
 40
0.0
 41
1.0
 50
0.0
 71
     0
 42
1.0
  3
SIMPLEX.SHX
  4

  0
STYLE
  5
1FA
330
3
100
AcDbSymbolTableRecord
100
AcDbTextStyleTableRecord
  2
USER3
 70
     0
 40
0.0
 41
1.0
 50
0.0
 71
     0
 42
1.0
  3
ITALIC.SHX
  4

  0
STYLE
  5
1FF
330
3
100
AcDbSymbolTableRecord
100
AcDbTextStyleTableRecord
  2
ACJISTS
 70
     0
 40
1.0
 41
1.0
 50
0.0
 71
     0
 42
1.0
  3
isocp.shx
  4
extfont.shx
  0
STYLE
  5
20B
330
3
100
AcDbSymbolTableRecord
100
AcDbTextStyleTableRecord
  2
ACJISGDT
 70
     0
 40
0.0
 41
1.0
 50
0.0
 71
     0
 42
1.0
  3
amgdt.shx
  4

  0
ENDTAB
  0
TABLE
  2
VIEW
  5
6
330
0
100
AcDbSymbolTable
 70
     0
  0
ENDTAB
  0
TABLE
  2
UCS
  5
7
330
0
100
AcDbSymbolTable
 70
     0
  0
ENDTAB
  0
TABLE
  2
APPID
  5
9
330
0
100
AcDbSymbolTable
 70
    14
  0
APPID
  5
12
330
9
100
AcDbSymbolTableRecord
100
AcDbRegAppTableRecord
  2
ACAD
 70
     0
  0
APPID
  5
46
330
9
100
AcDbSymbolTableRecord
100
AcDbRegAppTableRecord
  2
MCAD_NO_VIS
 70
     0
  0
APPID
  5
47
330
9
100
AcDbSymbolTableRecord
100
AcDbRegAppTableRecord
  2
ACAD_TEMP_GRAPHIC
 70
     0
  0
APPID
  5
58
330
9
100
AcDbSymbolTableRecord
100
AcDbRegAppTableRecord
  2
ACATTRIBSERVICES
 70
     0
  0
APPID
  5
EE
330
9
100
AcDbSymbolTableRecord
100
AcDbRegAppTableRecord
  2
AD_DRAW
 70
     0
  0
APPID
  5
10C
330
9
100
AcDbSymbolTableRecord
100
AcDbRegAppTableRecord
  2
DESIGNERASSEMBLIES
 70
     0
  0
APPID
  5
111
330
9
100
AcDbSymbolTableRecord
100
AcDbRegAppTableRecord
  2
ACADM_DIM_EDIT
 70
     0
  0
APPID
  5
112
330
9
100
AcDbSymbolTableRecord
100
AcDbRegAppTableRecord
  2
AMDT_DM_ADJ
 70
     0
  0
APPID
  5
243
330
9
100
AcDbSymbolTableRecord
100
AcDbRegAppTableRecord
  2
ACAD_DSTYLE_DIMTEXT_FILL
 70
     0
  0
APPID
  5
3AC
330
9
100
AcDbSymbolTableRecord
100
AcDbRegAppTableRecord
  2
ACAD_PSEXT
 70
     0
  0
APPID
  5
634
330
9
100
AcDbSymbolTableRecord
100
AcDbRegAppTableRecord
  2
GENIUS_GENODEF_13
 70
     0
  0
APPID
  5
635
330
9
100
AcDbSymbolTableRecord
100
AcDbRegAppTableRecord
  2
GENIUS_GENOBJ-N-FIL_13
 70
     0
  0
APPID
  5
72E
330
9
100
AcDbSymbolTableRecord
100
AcDbRegAppTableRecord
  2
GENIUS_GENOBJ-N-CEN_13
 70
     0
  0
APPID
  5
72F
330
9
100
AcDbSymbolTableRecord
100
AcDbRegAppTableRecord
  2
GENIUS_GENCEN_19
 70
     0
  0
ENDTAB
  0
TABLE
  2
DIMSTYLE
  5
A
330
0
100
AcDbSymbolTable
 70
    17
100
AcDbDimStyleTable
 71
     2
340
216
340
81
  0
DIMSTYLE
105
27
330
A
100
AcDbSymbolTableRecord
100
AcDbDimStyleTableRecord
  2
ISO-25
 70
     0
 41
2.5
 42
0.625
 43
3.75
 44
1.25
 73
     0
 74
     0
 77
     1
 78
     8
140
2.5
141
2.5
143
0.03937007874016
147
0.625
171
     3
172
     1
271
     2
272
     2
274
     3
278
    44
283
     0
284
     8
340
11
  0
DIMSTYLE
105
81
330
A
100
AcDbSymbolTableRecord
100
AcDbDimStyleTableRecord
  2
AM_ISO
 70
     0
  4
"
 41
2.5
 42
1.0
 43
10.0
 44
1.0
 47
0.1
 48
0.1
 73
     0
 74
     0
 77
     1
 78
     8
 79
     2
140
3.5
141
0.0
143
0.0393701
146
0.71
147
1.5
172
     1
176
   256
177
   256
178
     2
271
     2
272
     3
274
     4
283
     0
284
     8
340
11
371
    -1
372
    -1
  0
DIMSTYLE
105
82
330
A
100
AcDbSymbolTableRecord
100
AcDbDimStyleTableRecord
  2
AM_ISO$3
 70
     0
  4
"
 41
2.5
 42
1.0
 43
10.0
 44
1.0
 47
0.1
 48
0.1
 73
     0
 77
     1
 78
     8
 79
     2
140
3.5
141
0.0
143
0.0393701
146
0.71
147
1.5
176
   256
177
   256
178
     2
271
     2
272
     3
274
     4
283
     0
284
     8
288
     1
289
     0
340
11
371
    -1
372
    -1
  0
DIMSTYLE
105
83
330
A
100
AcDbSymbolTableRecord
100
AcDbDimStyleTableRecord
  2
AM_ISO$4
 70
     0
  4
"
 41
2.5
 42
1.0
 43
10.0
 44
1.0
 47
0.1
 48
0.1
 73
     0
 77
     1
 78
     8
 79
     2
140
3.5
141
0.0
143
0.0393701
146
0.71
147
1.5
176
   256
177
   256
178
     2
271
     2
272
     3
274
     4
283
     0
284
     8
288
     1
289
     0
340
11
371
    -1
372
    -1
  0
DIMSTYLE
105
84
330
A
100
AcDbSymbolTableRecord
100
AcDbDimStyleTableRecord
  2
AM_ISO$6
 70
     0
  4
"
 41
2.5
 42
1.0
 43
10.0
 44
1.0
 47
0.1
 48
0.1
 73
     0
 74
     0
 78
     8
 79
     2
140
3.5
141
0.0
143
0.0393701
146
0.71
147
1.5
172
     1
176
   256
177
   256
178
     2
271
     2
272
     3
274
     4
283
     0
284
     8
340
11
371
    -1
372
    -1
  0
DIMSTYLE
105
85
330
A
100
AcDbSymbolTableRecord
100
AcDbDimStyleTableRecord
  2
AM_ISO$7
 70
     0
  4
"
 41
2.5
 42
1.0
 43
10.0
 44
1.0
 47
0.1
 48
0.1
 73
     0
 74
     0
 77
     1
 78
     8
 79
     2
140
5.0
141
0.0
143
0.0393701
146
0.71
147
1.5
172
     1
176
   256
177
   256
178
     2
271
     2
272
     3
274
     4
283
     0
284
     8
340
11
371
    -1
372
    -1
  0
DIMSTYLE
105
86
330
A
100
AcDbSymbolTableRecord
100
AcDbDimStyleTableRecord
  2
AM_ISO$SF
 70
     0
  4
"
 41
2.5
 42
1.0
 43
10.0
 44
1.0
 47
0.1
 48
0.1
 73
     0
 74
     0
 75
     1
 76
     1
 77
     1
 78
     8
 79
     2
140
3.5
141
0.0
143
0.0393701
146
0.71
147
1.5
172
     1
176
   256
177
   256
178
     2
271
     2
272
     3
274
     4
283
     0
284
     8
340
11
371
    -1
372
    -1
  0
DIMSTYLE
105
8B
330
A
100
AcDbSymbolTableRecord
100
AcDbDimStyleTableRecord
  2
AM_ISO$SH
 70
     0
  4
"
 41
2.5
 42
1.0
 43
10.0
 44
1.0
 47
0.1
 48
0.1
 73
     0
 74
     0
 75
     1
 76
     1
 77
     1
 78
     8
 79
     2
140
3.5
141
0.0
143
0.0393701
144
2.0
146
0.71
147
1.5
172
     1
173
     1
176
   256
177
   256
178
     2
271
     2
272
     3
274
     4
283
     0
284
     8
340
11
343
87
371
    -1
372
    -1
  0
DIMSTYLE
105
216
330
A
100
AcDbSymbolTableRecord
100
AcDbDimStyleTableRecord
  2
AM_JIS
 70
     0
  4
"
 41
2.5
 42
0.0
 43
10.0
 44
1.0
 47
0.1
 48
0.1000000001
 73
     0
 74
     0
 77
     3
 78
     1
140
3.799999999999999
141
0.0
143
0.0393701
146
0.71
147
1.5
172
     1
176
   256
177
   256
178
     2
179
     1
271
     2
272
     2
275
     1
283
     0
284
     8
340
11
341
217
342
217
371
    -1
372
    -1
  0
DIMSTYLE
105
21D
330
A
100
AcDbSymbolTableRecord
100
AcDbDimStyleTableRecord
  2
AM_JIS$3
 70
     0
  4
"
 41
2.5
 42
0.0
 43
10.0
 44
1.0
 47
0.1
 48
0.1000000001
 73
     0
 77
     3
 78
     1
140
3.799999999999999
141
0.0
143
0.0393701
146
0.71
147
1.5
176
   256
177
   256
178
     2
179
     1
271
     2
272
     2
275
     1
283
     0
284
     8
288
     1
289
     0
340
11
341
217
342
217
371
    -1
372
    -1
  0
DIMSTYLE
105
21E
330
A
100
AcDbSymbolTableRecord
100
AcDbDimStyleTableRecord
  2
AM_JIS$4
 70
     0
  4
"
 41
2.5
 42
0.0
 43
10.0
 44
1.0
 47
0.1
 48
0.1000000001
 73
     0
 77
     3
 78
     1
140
3.799999999999999
141
0.0
143
0.0393701
146
0.71
147
1.5
176
   256
177
   256
178
     2
179
     1
271
     2
272
     2
275
     1
283
     0
284
     8
288
     1
289
     0
340
11
341
217
342
217
371
    -1
372
    -1
  0
DIMSTYLE
105
21F
330
A
100
AcDbSymbolTableRecord
100
AcDbDimStyleTableRecord
  2
AM_JIS$6
 70
     0
  4
"
 41
2.5
 42
0.0
 43
10.0
 44
1.0
 47
0.1
 48
0.1000000001
 73
     0
 74
     0
 78
     1
140
3.799999999999999
141
0.0
143
0.0393701
146
0.71
147
1.5
172
     1
176
   256
177
   256
178
     2
179
     1
271
     2
272
     2
275
     1
283
     0
284
     8
340
11
341
217
342
217
371
    -1
372
    -1
  0
DIMSTYLE
105
220
330
A
100
AcDbSymbolTableRecord
100
AcDbDimStyleTableRecord
  2
AM_JIS$7
 70
     0
  4
"
 41
2.5
 42
0.0
 43
10.0
 44
1.0
 47
0.1
 48
0.1000000001
 73
     0
 74
     0
 77
     3
 78
     1
140
5.0
141
0.0
143
0.0393701
146
0.71
147
1.5
172
     1
176
   256
177
   256
178
     2
179
     1
271
     2
272
     2
275
     1
283
     0
284
     8
340
11
341
217
342
217
371
    -1
372
    -1
  0
DIMSTYLE
105
221
330
A
100
AcDbSymbolTableRecord
100
AcDbDimStyleTableRecord
  2
AM_JIS$SF
 70
     0
  4
"
 41
2.5
 42
1.0
 43
10.0
 44
1.0
 47
0.1
 48
0.1
 73
     0
 74
     0
 75
     1
 76
     1
 77
     3
 78
     8
 79
     2
140
3.5
141
0.0
143
0.0393701
146
0.71
147
1.5
172
     1
176
   256
177
   256
178
     2
271
     2
272
     3
274
     4
283
     0
284
     8
340
11
341
217
342
217
343
217
344
217
371
    -1
372
    -1
  0
DIMSTYLE
105
222
330
A
100
AcDbSymbolTableRecord
100
AcDbDimStyleTableRecord
  2
AM_JIS$SH
 70
     0
  4
"
 41
2.5
 42
1.0
 43
10.0
 44
1.0
 47
0.1
 48
0.1
 73
     0
 74
     0
 75
     1
 76
     1
 77
     3
 78
     8
 79
     2
140
3.5
141
0.0
143
0.0393701
144
2.0
146
0.71
147
1.5
172
     1
173
     1
176
   256
177
   256
178
     2
271
     2
272
     3
274
     4
283
     0
284
     8
340
11
341
217
342
217
343
87
344
217
371
    -1
372
    -1
  0
DIMSTYLE
105
632
330
A
100
AcDbSymbolTableRecord
100
AcDbDimStyleTableRecord
  2
AM_JIS$2
 70
     0
  4
"
 41
2.5
 42
0.1
 43
8.0
 44
1.0
 47
0.1
 48
0.1
 73
     0
 74
     0
 77
     3
 78
     1
 79
     2
140
3.399999999999999
141
0.0
143
0.0393701
146
0.71
147
0.9999999999999996
172
     1
176
     3
177
     3
178
     2
179
     1
271
     2
272
     2
275
     1
283
     0
284
     1
340
11
341
217
342
217
371
    -1
372
    -1
  0
DIMSTYLE
105
633
102
{ACAD_REACTORS
330
78A
330
7F6
330
10B6
330
10B7
330
1110
330
119C
330
13AD
330
13F8
330
1464
330
1D78
330
1EF3
102
}
330
A
100
AcDbSymbolTableRecord
100
AcDbDimStyleTableRecord
  2
AM_JIS$0
 70
     0
  4
"
 41
2.5
 42
0.1
 43
8.0
 44
0.5
 47
0.1
 48
0.1
 73
     0
 74
     0
 77
     3
 78
     1
 79
     2
140
3.399999999999999
141
0.0
143
0.0393701
146
0.71
147
0.9999999999999996
172
     1
176
     3
177
     3
178
     2
179
     1
271
     2
272
     2
275
     1
283
     0
284
     1
340
11
341
217
342
217
371
    -1
372
    -1
  0
ENDTAB
  0
TABLE
  2
BLOCK_RECORD
  5
1
330
0
100
AcDbSymbolTable
 70
    16
  0
BLOCK_RECORD
  5
1F
102
{ACAD_XDICTIONARY
360
8F
102
}
330
1
100
AcDbSymbolTableRecord
100
AcDbBlockTableRecord
  2
*Model_Space
340
22
  0
BLOCK_RECORD
  5
1B
330
1
100
AcDbSymbolTableRecord
100
AcDbBlockTableRecord
  2
*Paper_Space
340
1E
  0
BLOCK_RECORD
  5
23
330
1
100
AcDbSymbolTableRecord
100
AcDbBlockTableRecord
  2
*Paper_Space0
340
26
  0
BLOCK_RECORD
  5
87
330
1
100
AcDbSymbolTableRecord
100
AcDbBlockTableRecord
  2
GENAXEH
340
0
  0
BLOCK_RECORD
  5
217
330
1
100
AcDbSymbolTableRecord
100
AcDbBlockTableRecord
  2
_Open30
340
0
102
{BLKREFS
331
1CBD
331
1CBE
331
1D00
331
1D01
331
1DD6
331
1DD7
331
1DE0
331
1DE1
331
1E09
331
1E0A
331
1E1B
331
1E1C
331
1E24
331
1E25
331
1E9D
331
1E9E
331
1F21
331
1F22
331
1F33
331
1F34
331
1F45
331
1F46
102
}
  0
BLOCK_RECORD
  5
78C
330
1
100
AcDbSymbolTableRecord
100
AcDbBlockTableRecord
  2
*D4
340
0
  0
BLOCK_RECORD
  5
7F7
330
1
100
AcDbSymbolTableRecord
100
AcDbBlockTableRecord
  2
*D5
340
0
  0
BLOCK_RECORD
  5
A40
330
1
100
AcDbSymbolTableRecord
100
AcDbBlockTableRecord
  2
ta2
340
0
310
2800000020000000200000000100080000000000000400000000000000000000000000000000000000000000000080000080000000808000800000008000800080800000C0C0C000C0DCC000F0CAA6000020400000206000002080000020A0000020C0000020E00000400000004020000040400000406000004080000040A0
310
000040C0000040E00000600000006020000060400000606000006080000060A0000060C0000060E00000800000008020000080400000806000008080000080A0000080C0000080E00000A0000000A0200000A0400000A0600000A0800000A0A00000A0C00000A0E00000C0000000C0200000C0400000C0600000C0800000C0
310
A00000C0C00000C0E00000E0000000E0200000E0400000E0600000E0800000E0A00000E0C00000E0E00040000000400020004000400040006000400080004000A0004000C0004000E00040200000402020004020400040206000402080004020A0004020C0004020E000404000004040200040404000404060004040800040
310
40A0004040C0004040E00040600000406020004060400040606000406080004060A0004060C0004060E00040800000408020004080400040806000408080004080A0004080C0004080E00040A0000040A0200040A0400040A0600040A0800040A0A00040A0C00040A0E00040C0000040C0200040C0400040C0600040C08000
310
40C0A00040C0C00040C0E00040E0000040E0200040E0400040E0600040E0800040E0A00040E0C00040E0E00080000000800020008000400080006000800080008000A0008000C0008000E00080200000802020008020400080206000802080008020A0008020C0008020E00080400000804020008040400080406000804080
310
008040A0008040C0008040E00080600000806020008060400080606000806080008060A0008060C0008060E00080800000808020008080400080806000808080008080A0008080C0008080E00080A0000080A0200080A0400080A0600080A0800080A0A00080A0C00080A0E00080C0000080C0200080C0400080C0600080C0
310
800080C0A00080C0C00080C0E00080E0000080E0200080E0400080E0600080E0800080E0A00080E0C00080E0E000C0000000C0002000C0004000C0006000C0008000C000A000C000C000C000E000C0200000C0202000C0204000C0206000C0208000C020A000C020C000C020E000C0400000C0402000C0404000C0406000C0
310
408000C040A000C040C000C040E000C0600000C0602000C0604000C0606000C0608000C060A000C060C000C060E000C0800000C0802000C0804000C0806000C0808000C080A000C080C000C080E000C0A00000C0A02000C0A04000C0A06000C0A08000C0A0A000C0A0C000C0A0E000C0C00000C0C02000C0C04000C0C06000
310
C0C08000C0C0A000F0FBFF00A4A0A000808080000000FF0000FF000000FFFF00FF000000FF00FF00FFFF0000FFFFFF0000000000000000000000000000000000000000000000000000000000000000000000000000000000000000000000000000000000000000000000000000000000000000000000000000000000000000
310
00000000000000000000000000000000000000000000000000000000000000000000000000000000000000000000000000000000000000000000000000000000000000000000000000000000000000000000000000000000000000000000000000000000000000000000000000000000000000000000000000000000000000
310
000000000000000000000000000000000000000000FFFFFFFFFFFFFFFFFFFFFFFFFFFFFFFFFFFFFFFFFFFFFFFF00000000000000FF000000000000000000000000000000000000000000000000FF0000000000FF00000000000000000000000000000000000000000000000000FF0000000000FF0000000000000000000000
310
0000000000000000000000000000FF0000000000FF0000000000000000000000FFFFFFFFFFFF0000000000000000FF0000000000FFFF00000000000000000000FF00000000FF0000000000000000FF000000000000FF000000000000000000FF000000000000FF00000000000000FF00000000000000FF0000000000000000
310
FF000000000000FF0000000000000000FF000000000000FF00000000000000FF0000000000000000FF00000000000000FF000000000000FF00000000000000FF0000000000000000FF00000000000000FF000000000000FF0000000000000000FF00000000000000FF00000000000000FF00000000000000FF000000000000
310
00FF000000000000FF000000000000000000FF000000000000FF0000000000000000FF0000000000FF000000000000000000FFFF0000000000FF0000000000000000FFFFFFFFFFFF0000000000000000000000FF0000000000FF00000000000000000000000000000000000000000000000000FF0000000000FF0000000000
310
0000000000000000000000000000000000000000FF000000000000FF0000000000000000000000000000000000000000000000FF00000000000000FFFFFFFFFFFFFFFFFFFFFFFFFFFFFFFFFFFFFFFFFFFFFFFF0000000000000000000000000000000000000000000000000000000000000000000000000000000000000000
310
00000000000000000000000000000000000000000000000000000000000000000000000000000000000000000000000000000000000000000000000000000000000000000000000000000000000000000000000000000000000000000000000000000000000000000000000000000000000000000000000000000000000000
310
0000000000000000000000000000000000000000000000000000000000000000000000000000000000000000000000000000000000000000
102
{BLKREFS
331
A58
102
}
1001
ACAD
1000
DesignCenter Data
1002
{
1070
     1
1070
     4
1002
}
  0
BLOCK_RECORD
  5
10B8
330
1
100
AcDbSymbolTableRecord
100
AcDbBlockTableRecord
  2
*D7
340
0
  0
BLOCK_RECORD
  5
10C2
330
1
100
AcDbSymbolTableRecord
100
AcDbBlockTableRecord
  2
*D8
340
0
  0
BLOCK_RECORD
  5
1111
330
1
100
AcDbSymbolTableRecord
100
AcDbBlockTableRecord
  2
*D9
340
0
  0
BLOCK_RECORD
  5
119D
330
1
100
AcDbSymbolTableRecord
100
AcDbBlockTableRecord
  2
*D10
340
0
  0
BLOCK_RECORD
  5
13AE
330
1
100
AcDbSymbolTableRecord
100
AcDbBlockTableRecord
  2
*D11
340
0
  0
BLOCK_RECORD
  5
13F9
330
1
100
AcDbSymbolTableRecord
100
AcDbBlockTableRecord
  2
*D12
340
0
  0
BLOCK_RECORD
  5
1465
330
1
100
AcDbSymbolTableRecord
100
AcDbBlockTableRecord
  2
*D13
340
0
  0
BLOCK_RECORD
  5
1D79
330
1
100
AcDbSymbolTableRecord
100
AcDbBlockTableRecord
  2
*D14
340
0
  0
BLOCK_RECORD
  5
1EF4
330
1
100
AcDbSymbolTableRecord
100
AcDbBlockTableRecord
  2
*D15
340
0
  0
ENDTAB
  0
ENDSEC
  0
SECTION
  2
BLOCKS
  0
BLOCK
  5
20
330
1F
100
AcDbEntity
  8
0
100
AcDbBlockBegin
  2
*Model_Space
 70
     0
 10
0.0
 20
0.0
 30
0.0
  3
*Model_Space
  1

  0
ENDBLK
  5
21
330
1F
100
AcDbEntity
  8
0
100
AcDbBlockEnd
  0
BLOCK
  5
1C
330
1B
100
AcDbEntity
 67
     1
  8
0
100
AcDbBlockBegin
  2
*Paper_Space
 70
     0
 10
0.0
 20
0.0
 30
0.0
  3
*Paper_Space
  1

  0
ENDBLK
  5
1D
330
1B
100
AcDbEntity
 67
     1
  8
0
100
AcDbBlockEnd
  0
BLOCK
  5
24
330
23
100
AcDbEntity
  8
0
100
AcDbBlockBegin
  2
*Paper_Space0
 70
     0
 10
0.0
 20
0.0
 30
0.0
  3
*Paper_Space0
  1

  0
ENDBLK
  5
25
330
23
100
AcDbEntity
  8
0
100
AcDbBlockEnd
  0
BLOCK
  5
89
330
87
100
AcDbEntity
  8
0
100
AcDbBlockBegin
  2
GENAXEH
 70
     0
 10
0.0
 20
0.0
 30
0.0
  3
GENAXEH
  1

  0
LINE
  5
88
330
87
100
AcDbEntity
  8
0
100
AcDbLine
 10
-1.0
 20
0.0
 30
0.0
 11
1.0
 21
0.0
 31
0.0
  0
ENDBLK
  5
8A
330
87
100
AcDbEntity
  8
0
100
AcDbBlockEnd
  0
BLOCK
  5
21B
330
217
100
AcDbEntity
  8
0
100
AcDbBlockBegin
  2
_Open30
 70
     0
 10
0.0
 20
0.0
 30
0.0
  3
_Open30
  1

  0
LINE
  5
218
330
217
100
AcDbEntity
  8
0
  6
ByBlock
 62
     0
370
    -2
100
AcDbLine
 10
-1.0
 20
0.26794919
 30
0.0
 11
0.0
 21
0.0
 31
0.0
  0
LINE
  5
219
330
217
100
AcDbEntity
  8
0
  6
ByBlock
 62
     0
370
    -2
100
AcDbLine
 10
0.0
 20
0.0
 30
0.0
 11
-1.0
 21
-0.26794919
 31
0.0
  0
LINE
  5
21A
330
217
100
AcDbEntity
  8
0
  6
ByBlock
 62
     0
370
    -2
100
AcDbLine
 10
0.0
 20
0.0
 30
0.0
 11
-1.0
 21
0.0
 31
0.0
  0
ENDBLK
  5
21C
330
217
100
AcDbEntity
  8
0
100
AcDbBlockEnd
  0
BLOCK
  5
7AD
330
78C
100
AcDbEntity
  8
0
100
AcDbBlockBegin
  2
*D4
 70
     1
 10
0.0
 20
0.0
 30
0.0
  3
*D4
  1

  0
LINE
  5
1E9A
330
78C
100
AcDbEntity
  8
AM_5
 62
     3
100
AcDbLine
 10
-63.00000000000003
 20
23.05683301705818
 30
0.0
 11
-63.00000000000003
 21
78.29410991890137
 31
0.0
  0
LINE
  5
1E9B
330
78C
100
AcDbEntity
  8
AM_5
 62
     3
100
AcDbLine
 10
-0.0000000000001208
 20
-59.5852229204358
 30
0.0
 11
-0.0000000000001123
 21
78.29410991890139
 31
0.0
  0
LINE
  5
1E9C
330
78C
100
AcDbEntity
  8
AM_5
 62
     3
100
AcDbLine
 10
-60.50000000000003
 20
77.79410991890137
 30
0.0
 11
-2.500000000000112
 21
77.79410991890137
 31
0.0
  0
INSERT
  5
1E9D
330
78C
100
AcDbEntity
  8
AM_5
 62
     3
100
AcDbBlockReference
  2
_Open30
 10
-63.00000000000003
 20
77.79410991890137
 30
0.0
 41
2.5
 42
2.5
 43
2.5
 50
180.0
  0
INSERT
  5
1E9E
330
78C
100
AcDbEntity
  8
AM_5
 62
     3
100
AcDbBlockReference
  2
_Open30
 10
-0.0000000000001124
 20
77.79410991890137
 30
0.0
 41
2.5
 42
2.5
 43
2.5
  0
MTEXT
  5
1E9F
330
78C
100
AcDbEntity
  8
AM_5
 62
     2
100
AcDbMText
 10
-31.50000000000007
 20
80.49410991890137
 30
0.0
 40
3.399999999999999
 41
0.0
 71
     5
 72
     1
  1
63
 73
     1
 44
1.0
  0
POINT
  5
1EA0
330
78C
100
AcDbEntity
  8
Defpoints
 62
     0
100
AcDbPoint
 10
-63.00000000000003
 20
22.95683301705818
 30
0.0
  0
POINT
  5
1EA1
330
78C
100
AcDbEntity
  8
Defpoints
 62
     0
100
AcDbPoint
 10
-0.0000000000001208
 20
-59.6852229204358
 30
0.0
  0
POINT
  5
1EA2
330
78C
100
AcDbEntity
  8
Defpoints
 62
     0
100
AcDbPoint
 10
-0.0000000000001124
 20
77.79410991890137
 30
0.0
  0
ENDBLK
  5
7AE
330
78C
100
AcDbEntity
  8
0
100
AcDbBlockEnd
  0
BLOCK
  5
818
330
7F7
100
AcDbEntity
  8
0
100
AcDbBlockBegin
  2
*D5
 70
     1
 10
0.0
 20
0.0
 30
0.0
  3
*D5
  1

  0
LINE
  5
1CBA
330
7F7
100
AcDbEntity
  8
AM_5
 62
     3
100
AcDbLine
 10
-55.13875271582576
 20
40.0
 30
0.0
 11
-89.99809258202871
 21
40.0
 31
0.0
  0
LINE
  5
1CBB
330
7F7
100
AcDbEntity
  8
AM_5
 62
     3
100
AcDbLine
 10
-55.1
 20
-40.0
 30
0.0
 11
-89.99809258202873
 21
-40.0
 31
0.0
  0
LINE
  5
1CBC
330
7F7
100
AcDbEntity
  8
AM_5
 62
     3
100
AcDbLine
 10
-89.4980925820287
 20
37.50000000000001
 30
0.0
 11
-89.49809258202874
 21
-37.5
 31
0.0
  0
INSERT
  5
1CBD
330
7F7
100
AcDbEntity
  8
AM_5
 62
     3
100
AcDbBlockReference
  2
_Open30
 10
-89.4980925820287
 20
40.0
 30
0.0
 41
2.5
 42
2.5
 43
2.5
 50
90.0
  0
INSERT
  5
1CBE
330
7F7
100
AcDbEntity
  8
AM_5
 62
     3
100
AcDbBlockReference
  2
_Open30
 10
-89.49809258202874
 20
-40.0
 30
0.0
 41
2.5
 42
2.5
 43
2.5
 50
270.0
  0
MTEXT
  5
1CBF
330
7F7
100
AcDbEntity
  8
AM_5
 62
     2
100
AcDbMText
 10
-92.19809258202872
 20
-0.0000000000000084
 30
0.0
 40
3.399999999999999
 41
0.0
 71
     5
 72
     1
  1
%%c80
 11
0.0000000000000001
 21
1.0
 31
0.0
 73
     1
 44
1.0
  0
POINT
  5
1CC0
330
7F7
100
AcDbEntity
  8
Defpoints
 62
     0
100
AcDbPoint
 10
-55.03875271582575
 20
40.0
 30
0.0
  0
POINT
  5
1CC1
330
7F7
100
AcDbEntity
  8
Defpoints
 62
     0
100
AcDbPoint
 10
-55.0
 20
-40.0
 30
0.0
  0
POINT
  5
1CC2
330
7F7
100
AcDbEntity
  8
Defpoints
 62
     0
100
AcDbPoint
 10
-89.49809258202874
 20
-40.0
 30
0.0
  0
ENDBLK
  5
819
330
7F7
100
AcDbEntity
  8
0
100
AcDbBlockEnd
  0
BLOCK
  5
A41
330
A40
100
AcDbEntity
  8
0
100
AcDbBlockBegin
  2
ta2
 70
     0
 10
0.0
 20
0.0
 30
0.0
  3
ta2
  1

  0
LINE
  5
A43
330
A40
100
AcDbEntity
  8
AM_0
100
AcDbLine
 10
-55.23858755055481
 20
79.91153498646927
 30
0.0
 11
-40.66858755055493
 21
79.91153498646927
 31
0.0
  0
ARC
  5
A44
330
A40
100
AcDbEntity
  8
AM_0
100
AcDbCircle
 10
-55.23858755055481
 20
79.11153498646925
 30
0.0
 40
0.8
100
AcDbArc
 50
90.0
 51
180.0
1001
GENIUS_GENOBJ-N-FIL_13
1002
{
1000
OWNER
1000
GEN
1002
}
1001
GENIUS_GENODEF_13
1002
{
1000
HIER
1070
     0
1002
}
1002
{
1000
MANEDIT
1070
     0
1002
}
1002
{
1000
NOSEL
1070
     0
1002
}
1002
{
1000
BEHIND
1070
     0
1002
}
1002
{
1000
OTHER
1070
     0
1002
}
1002
{
1000
REACTOR
1002
}
  0
LINE
  5
A45
330
A40
100
AcDbEntity
  8
AM_0
100
AcDbLine
 10
-39.86858755055492
 20
79.11153498646925
 30
0.0
 11
-39.86858755055492
 21
77.09675790690505
 31
0.0
  0
ARC
  5
A46
330
A40
100
AcDbEntity
  8
AM_0
100
AcDbCircle
 10
-40.66858755055493
 20
77.09675790690505
 30
0.0
 40
0.8
100
AcDbArc
 50
333.9281571240058
 51
0.0
1001
GENIUS_GENODEF_13
1002
{
1000
HIER
1070
     0
1002
}
1002
{
1000
MANEDIT
1070
     0
1002
}
1002
{
1000
NOSEL
1070
     0
1002
}
1002
{
1000
BEHIND
1070
     0
1002
}
1002
{
1000
OTHER
1070
     0
1002
}
1002
{
1000
REACTOR
1002
}
1001
GENIUS_GENOBJ-N-FIL_13
1002
{
1000
OWNER
1000
GEN
1002
}
  0
ARC
  5
A47
330
A40
100
AcDbEntity
  8
AM_0
100
AcDbCircle
 10
-40.66858755055493
 20
79.11153498646925
 30
0.0
 40
0.8
100
AcDbArc
 50
0.0
 51
90.0
1001
GENIUS_GENOBJ-N-FIL_13
1002
{
1000
OWNER
1000
GEN
1002
}
1001
GENIUS_GENODEF_13
1002
{
1000
HIER
1070
     0
1002
}
1002
{
1000
MANEDIT
1070
     0
1002
}
1002
{
1000
NOSEL
1070
     0
1002
}
1002
{
1000
BEHIND
1070
     0
1002
}
1002
{
1000
OTHER
1070
     0
1002
}
1002
{
1000
REACTOR
1002
}
  0
LINE
  5
A48
330
A40
100
AcDbEntity
  8
AM_0
100
AcDbLine
 10
-57.40858755055494
 20
72.52631206603402
 30
0.0
 11
-57.40858755055488
 21
70.5115349864696
 31
0.0
  0
LINE
  5
A49
330
A40
100
AcDbEntity
  8
AM_0
100
AcDbLine
 10
-56.60858755055487
 20
69.71153498646959
 30
0.0
 11
-42.03858755055491
 21
69.71153498646962
 31
0.0
  0
ARC
  5
A4A
330
A40
100
AcDbEntity
  8
AM_0
100
AcDbCircle
 10
-56.60858755055487
 20
70.5115349864696
 30
0.0
 40
0.8
100
AcDbArc
 50
180.0
 51
270.0
1001
GENIUS_GENOBJ-N-FIL_13
1002
{
1000
OWNER
1000
GEN
1002
}
1001
GENIUS_GENODEF_13
1002
{
1000
HIER
1070
     0
1002
}
1002
{
1000
MANEDIT
1070
     0
1002
}
1002
{
1000
NOSEL
1070
     0
1002
}
1002
{
1000
BEHIND
1070
     0
1002
}
1002
{
1000
OTHER
1070
     0
1002
}
1002
{
1000
REACTOR
1002
}
  0
LINE
  5
A4B
330
A40
100
AcDbEntity
  8
AM_0
100
AcDbLine
 10
-56.03858755055482
 20
79.11153498646925
 30
0.0
 11
-56.03858755055488
 21
76.97634492328242
 31
0.0
  0
LINE
  5
A4C
330
A40
100
AcDbEntity
  8
AM_0
100
AcDbLine
 10
-56.04901990267321
 20
76.84757019975887
 30
0.0
 11
-56.36206172632267
 21
74.92818967519295
 31
0.0
  0
ARC
  5
A4D
330
A40
100
AcDbEntity
  8
AM_0
100
AcDbCircle
 10
-56.83858755055489
 20
76.97634492328245
 30
0.0
 40
0.8
100
AcDbArc
 50
350.7368896666856
 51
359.9999999999984
1001
GENIUS_GENOBJ-N-FIL_13
1002
{
1000
OWNER
1000
GEN
1002
}
1001
GENIUS_GENODEF_13
1002
{
1000
HIER
1070
     0
1002
}
1002
{
1000
MANEDIT
1070
     0
1002
}
1002
{
1000
NOSEL
1070
     0
1002
}
1002
{
1000
BEHIND
1070
     0
1002
}
1002
{
1000
OTHER
1070
     0
1002
}
1002
{
1000
REACTOR
1002
}
  0
ARC
  5
A4E
330
A40
100
AcDbEntity
  8
AM_0
100
AcDbCircle
 10
-57.15162937420434
 20
75.0569643987165
 30
0.0
 40
0.8
100
AcDbArc
 50
333.928157124005
 51
350.7368896666872
1001
GENIUS_GENOBJ-N-FIL_13
1002
{
1000
OWNER
1000
GEN
1002
}
1001
GENIUS_GENODEF_13
1002
{
1000
HIER
1070
     0
1002
}
1002
{
1000
MANEDIT
1070
     0
1002
}
1002
{
1000
NOSEL
1070
     0
1002
}
1002
{
1000
BEHIND
1070
     0
1002
}
1002
{
1000
OTHER
1070
     0
1002
}
1002
{
1000
REACTOR
1002
}
  0
LINE
  5
A4F
330
A40
100
AcDbEntity
  8
AM_0
100
AcDbLine
 10
-56.43303443931866
 20
74.70536616271886
 30
0.0
 11
-57.32718248544061
 21
72.87791030203166
 31
0.0
  0
ARC
  5
A50
330
A40
100
AcDbEntity
  8
AM_0
100
AcDbCircle
 10
-56.60858755055492
 20
72.52631206603402
 30
0.0
 40
0.8
100
AcDbArc
 50
153.9281571240049
 51
180.0
1001
GENIUS_GENOBJ-N-FIL_13
1002
{
1000
OWNER
1000
GEN
1002
}
1001
GENIUS_GENODEF_13
1002
{
1000
HIER
1070
     0
1002
}
1002
{
1000
MANEDIT
1070
     0
1002
}
1002
{
1000
NOSEL
1070
     0
1002
}
1002
{
1000
BEHIND
1070
     0
1002
}
1002
{
1000
OTHER
1070
     0
1002
}
1002
{
1000
REACTOR
1002
}
  0
LINE
  5
A51
330
A40
100
AcDbEntity
  8
AM_0
100
AcDbLine
 10
-41.23858755055489
 20
70.5115349864696
 30
0.0
 11
-41.23858755055486
 21
72.64672504965682
 31
0.0
  0
ARC
  5
A52
330
A40
100
AcDbEntity
  8
AM_0
100
AcDbCircle
 10
-42.03858755055491
 20
70.5115349864696
 30
0.0
 40
0.8
100
AcDbArc
 50
270.0
 51
0.0
1001
GENIUS_GENOBJ-N-FIL_13
1002
{
1000
OWNER
1000
GEN
1002
}
1001
GENIUS_GENODEF_13
1002
{
1000
HIER
1070
     0
1002
}
1002
{
1000
MANEDIT
1070
     0
1002
}
1002
{
1000
NOSEL
1070
     0
1002
}
1002
{
1000
BEHIND
1070
     0
1002
}
1002
{
1000
OTHER
1070
     0
1002
}
1002
{
1000
REACTOR
1002
}
  0
LINE
  5
A53
330
A40
100
AcDbEntity
  8
AM_0
100
AcDbLine
 10
-41.23858755055489
 20
72.71153498646961
 30
0.0
 11
-40.91511337478716
 21
74.69488029774618
 31
0.0
  0
ARC
  5
A54
330
A40
100
AcDbEntity
  8
AM_0
100
AcDbCircle
 10
-40.12554572690548
 20
74.5661055742226
 30
0.0
 40
0.8
100
AcDbArc
 50
153.9281571240058
 51
170.7368896666872
1001
GENIUS_GENOBJ-N-FIL_13
1002
{
1000
OWNER
1000
GEN
1002
}
1001
GENIUS_GENODEF_13
1002
{
1000
HIER
1070
     0
1002
}
1002
{
1000
MANEDIT
1070
     0
1002
}
1002
{
1000
NOSEL
1070
     0
1002
}
1002
{
1000
BEHIND
1070
     0
1002
}
1002
{
1000
OTHER
1070
     0
1002
}
1002
{
1000
REACTOR
1002
}
  0
ARC
  5
A55
330
A40
100
AcDbEntity
  8
AM_0
100
AcDbCircle
 10
-40.43858755055485
 20
72.64672504965682
 30
0.0
 40
0.8
100
AcDbArc
 50
170.7368896666872
 51
180.0
1001
GENIUS_GENODEF_13
1002
{
1000
HIER
1070
     0
1002
}
1002
{
1000
MANEDIT
1070
     0
1002
}
1002
{
1000
NOSEL
1070
     0
1002
}
1002
{
1000
BEHIND
1070
     0
1002
}
1002
{
1000
OTHER
1070
     0
1002
}
1002
{
1000
REACTOR
1002
}
1001
GENIUS_GENOBJ-N-FIL_13
1002
{
1000
OWNER
1000
GEN
1002
}
  0
LINE
  5
A56
330
A40
100
AcDbEntity
  8
AM_0
100
AcDbLine
 10
-40.84414066179117
 20
74.91770381022025
 30
0.0
 11
-39.94999261566924
 21
76.74515967090741
 31
0.0
  0
CIRCLE
  5
A57
330
A40
100
AcDbEntity
  8
AM_0
100
AcDbCircle
 10
-48.6385875505551
 20
74.81153498646958
 30
0.0
 40
3.0
  0
ENDBLK
  5
A42
330
A40
100
AcDbEntity
  8
0
100
AcDbBlockEnd
  0
BLOCK
  5
10DE
330
10B8
100
AcDbEntity
  8
0
100
AcDbBlockBegin
  2
*D7
 70
     1
 10
0.0
 20
0.0
 30
0.0
  3
*D7
  1

  0
LINE
  5
1F1E
330
10B8
100
AcDbEntity
  8
AM_5
 62
     3
100
AcDbLine
 10
-1.529057114529416
 20
62.5
 30
0.0
 11
30.01843313395183
 21
62.5
 31
0.0
  0
LINE
  5
1F1F
330
10B8
100
AcDbEntity
  8
AM_5
 62
     3
100
AcDbLine
 10
-0.7000000000001322
 20
-62.50000000000001
 30
0.0
 11
30.0184331339518
 21
-62.50000000000002
 31
0.0
  0
LINE
  5
1F20
330
10B8
100
AcDbEntity
  8
AM_5
 62
     3
100
AcDbLine
 10
29.51843313395183
 20
60.0
 30
0.0
 11
29.5184331339518
 21
-60.00000000000002
 31
0.0
  0
INSERT
  5
1F21
330
10B8
100
AcDbEntity
  8
AM_5
 62
     3
100
AcDbBlockReference
  2
_Open30
 10
29.51843313395183
 20
62.5
 30
0.0
 41
2.5
 42
2.5
 43
2.5
 50
90.0
  0
INSERT
  5
1F22
330
10B8
100
AcDbEntity
  8
AM_5
 62
     3
100
AcDbBlockReference
  2
_Open30
 10
29.5184331339518
 20
-62.50000000000002
 30
0.0
 41
2.5
 42
2.5
 43
2.5
 50
270.0
  0
MTEXT
  5
1F23
330
10B8
100
AcDbEntity
  8
AM_5
 62
     2
100
AcDbMText
 10
26.81809848828253
 20
-0.4900447354760896
 30
0.0
 40
3.399999999999999
 41
0.0
 71
     5
 72
     1
  1
%%c125
 11
0.0000000000000001
 21
1.0
 31
0.0
 73
     1
 44
1.0
  0
POINT
  5
1F24
330
10B8
100
AcDbEntity
  8
Defpoints
 62
     0
100
AcDbPoint
 10
-1.629057114529417
 20
62.5
 30
0.0
  0
POINT
  5
1F25
330
10B8
100
AcDbEntity
  8
Defpoints
 62
     0
100
AcDbPoint
 10
-0.8000000000001321
 20
-62.50000000000001
 30
0.0
  0
POINT
  5
1F26
330
10B8
100
AcDbEntity
  8
Defpoints
 62
     0
100
AcDbPoint
 10
29.5184331339518
 20
-62.50000000000002
 30
0.0
  0
ENDBLK
  5
10DF
330
10B8
100
AcDbEntity
  8
0
100
AcDbBlockEnd
  0
BLOCK
  5
10E0
330
10C2
100
AcDbEntity
  8
0
100
AcDbBlockBegin
  2
*D8
 70
     1
 10
0.0
 20
0.0
 30
0.0
  3
*D8
  1

  0
LINE
  5
1DDD
330
10C2
100
AcDbEntity
  8
AM_5
 62
     3
100
AcDbLine
 10
-0.0000000000001119
 20
60.79999999999998
 30
0.0
 11
-0.0000000000001113
 21
71.47399699206424
 31
0.0
  0
LINE
  5
1DDE
330
10C2
100
AcDbEntity
  8
AM_5
 62
     3
100
AcDbLine
 10
-14.00000000000011
 20
62.59999999999999
 30
0.0
 11
-14.00000000000011
 21
71.47399699206424
 31
0.0
  0
LINE
  5
1DDF
330
10C2
100
AcDbEntity
  8
AM_5
 62
     3
100
AcDbLine
 10
-2.500000000000111
 20
70.97399699206424
 30
0.0
 11
-11.50000000000011
 21
70.97399699206424
 31
0.0
  0
INSERT
  5
1DE0
330
10C2
100
AcDbEntity
  8
AM_5
 62
     3
100
AcDbBlockReference
  2
_Open30
 10
-0.0000000000001113
 20
70.97399699206424
 30
0.0
 41
2.5
 42
2.5
 43
2.5
  0
INSERT
  5
1DE1
330
10C2
100
AcDbEntity
  8
AM_5
 62
     3
100
AcDbBlockReference
  2
_Open30
 10
-14.00000000000011
 20
70.97399699206424
 30
0.0
 41
2.5
 42
2.5
 43
2.5
 50
180.0
  0
MTEXT
  5
1DE2
330
10C2
100
AcDbEntity
  8
AM_5
 62
     2
100
AcDbMText
 10
-7.000000000000111
 20
73.67399699206425
 30
0.0
 40
3.399999999999999
 41
0.0
 71
     5
 72
     1
  1
14
 73
     1
 44
1.0
  0
POINT
  5
1DE3
330
10C2
100
AcDbEntity
  8
Defpoints
 62
     0
100
AcDbPoint
 10
-0.0000000000001119
 20
60.69999999999998
 30
0.0
  0
POINT
  5
1DE4
330
10C2
100
AcDbEntity
  8
Defpoints
 62
     0
100
AcDbPoint
 10
-14.00000000000011
 20
62.5
 30
0.0
  0
POINT
  5
1DE5
330
10C2
100
AcDbEntity
  8
Defpoints
 62
     0
100
AcDbPoint
 10
-14.00000000000011
 20
70.97399699206424
 30
0.0
  0
ENDBLK
  5
10E1
330
10C2
100
AcDbEntity
  8
0
100
AcDbBlockEnd
  0
BLOCK
  5
113B
330
1111
100
AcDbEntity
  8
0
100
AcDbBlockBegin
  2
*D9
 70
     1
 10
0.0
 20
0.0
 30
0.0
  3
*D9
  1

  0
LINE
  5
1DD3
330
1111
100
AcDbEntity
  8
AM_5
 62
     3
100
AcDbLine
 10
-50.09999999999998
 20
19.05
 30
0.0
 11
-79.79154473597725
 21
19.05000000000001
 31
0.0
  0
LINE
  5
1DD4
330
1111
100
AcDbEntity
  8
AM_5
 62
     3
100
AcDbLine
 10
-63.10000000000001
 20
-19.05
 30
0.0
 11
-79.79154473597725
 21
-19.05
 31
0.0
  0
LINE
  5
1DD5
330
1111
100
AcDbEntity
  8
AM_5
 62
     3
100
AcDbLine
 10
-79.29154473597725
 20
16.55000000000001
 30
0.0
 11
-79.29154473597725
 21
-16.55
 31
0.0
  0
INSERT
  5
1DD6
330
1111
100
AcDbEntity
  8
AM_5
 62
     3
100
AcDbBlockReference
  2
_Open30
 10
-79.29154473597725
 20
19.05000000000001
 30
0.0
 41
2.5
 42
2.5
 43
2.5
 50
90.0
  0
INSERT
  5
1DD7
330
1111
100
AcDbEntity
  8
AM_5
 62
     3
100
AcDbBlockReference
  2
_Open30
 10
-79.29154473597725
 20
-19.05
 30
0.0
 41
2.5
 42
2.5
 43
2.5
 50
270.0
  0
MTEXT
  5
1DD8
330
1111
100
AcDbEntity
  8
AM_5
 62
     2
100
AcDbMText
 10
-81.99154473597726
 20
-0.0000000000000072
 30
0.0
 40
3.399999999999999
 41
0.0
 71
     5
 72
     1
  1
%%c38.1
 11
0.0000000000000001
 21
1.0
 31
0.0
 73
     1
 44
1.0
  0
POINT
  5
1DD9
330
1111
100
AcDbEntity
  8
Defpoints
 62
     0
100
AcDbPoint
 10
-49.99999999999999
 20
19.05
 30
0.0
  0
POINT
  5
1DDA
330
1111
100
AcDbEntity
  8
Defpoints
 62
     0
100
AcDbPoint
 10
-63.0
 20
-19.05
 30
0.0
  0
POINT
  5
1DDB
330
1111
100
AcDbEntity
  8
Defpoints
 62
     0
100
AcDbPoint
 10
-79.29154473597725
 20
-19.05
 30
0.0
  0
ENDBLK
  5
113C
330
1111
100
AcDbEntity
  8
0
100
AcDbBlockEnd
  0
BLOCK
  5
11C9
330
119D
100
AcDbEntity
  8
0
100
AcDbBlockBegin
  2
*D10
 70
     1
 10
0.0
 20
0.0
 30
0.0
  3
*D10
  1

  0
LINE
  5
1CFD
330
119D
100
AcDbEntity
  8
AM_5
 62
     3
100
AcDbLine
 10
-63.09999999999998
 20
7.95
 30
0.0
 11
-70.15871578168648
 21
7.950000000000001
 31
0.0
  0
LINE
  5
1CFE
330
119D
100
AcDbEntity
  8
AM_5
 62
     3
100
AcDbLine
 10
-63.09999999999996
 20
-7.950000000000003
 30
0.0
 11
-70.15871578168648
 21
-7.950000000000001
 31
0.0
  0
LINE
  5
1CFF
330
119D
100
AcDbEntity
  8
AM_5
 62
     3
100
AcDbLine
 10
-69.65871578168648
 20
5.450000000000001
 30
0.0
 11
-69.65871578168648
 21
-5.450000000000002
 31
0.0
  0
INSERT
  5
1D00
330
119D
100
AcDbEntity
  8
AM_5
 62
     3
100
AcDbBlockReference
  2
_Open30
 10
-69.65871578168648
 20
7.950000000000001
 30
0.0
 41
2.5
 42
2.5
 43
2.5
 50
90.0
  0
INSERT
  5
1D01
330
119D
100
AcDbEntity
  8
AM_5
 62
     3
100
AcDbBlockReference
  2
_Open30
 10
-69.65871578168648
 20
-7.950000000000002
 30
0.0
 41
2.5
 42
2.5
 43
2.5
 50
270.0
  0
MTEXT
  5
1D02
330
119D
100
AcDbEntity
  8
AM_5
 62
     2
100
AcDbMText
 10
-72.35871578168648
 20
-0.0000000000000114
 30
0.0
 40
3.399999999999999
 41
0.0
 71
     5
 72
     1
  1
15.9
 11
0.0000000000000001
 21
1.0
 31
0.0
 73
     1
 44
1.0
  0
POINT
  5
1D03
330
119D
100
AcDbEntity
  8
Defpoints
 62
     0
100
AcDbPoint
 10
-62.99999999999998
 20
7.95
 30
0.0
  0
POINT
  5
1D04
330
119D
100
AcDbEntity
  8
Defpoints
 62
     0
100
AcDbPoint
 10
-62.99999999999996
 20
-7.950000000000003
 30
0.0
  0
POINT
  5
1D05
330
119D
100
AcDbEntity
  8
Defpoints
 62
     0
100
AcDbPoint
 10
-69.65871578168648
 20
-7.950000000000002
 30
0.0
  0
ENDBLK
  5
11CA
330
119D
100
AcDbEntity
  8
0
100
AcDbBlockEnd
  0
BLOCK
  5
13DB
330
13AE
100
AcDbEntity
  8
0
100
AcDbBlockBegin
  2
*D11
 70
     1
 10
0.0
 20
0.0
 30
0.0
  3
*D11
  1

  0
LINE
  5
1E18
330
13AE
100
AcDbEntity
  8
AM_5
 62
     3
100
AcDbLine
 10
-63.0
 20
-31.41096122551446
 30
0.0
 11
-63.0
 21
-63.31556497904114
 31
0.0
  0
LINE
  5
1E19
330
13AE
100
AcDbEntity
  8
AM_5
 62
     3
100
AcDbLine
 10
-53.0
 20
-6.449999999999997
 30
0.0
 11
-53.0
 21
-63.31556497904114
 31
0.0
  0
LINE
  5
1E1A
330
13AE
100
AcDbEntity
  8
AM_5
 62
     3
100
AcDbLine
 10
-60.5
 20
-62.81556497904114
 30
0.0
 11
-55.5
 21
-62.81556497904114
 31
0.0
  0
INSERT
  5
1E1B
330
13AE
100
AcDbEntity
  8
AM_5
 62
     3
100
AcDbBlockReference
  2
_Open30
 10
-63.0
 20
-62.81556497904114
 30
0.0
 41
2.5
 42
2.5
 43
2.5
 50
180.0
  0
INSERT
  5
1E1C
330
13AE
100
AcDbEntity
  8
AM_5
 62
     3
100
AcDbBlockReference
  2
_Open30
 10
-53.0
 20
-62.81556497904114
 30
0.0
 41
2.5
 42
2.5
 43
2.5
  0
MTEXT
  5
1E1D
330
13AE
100
AcDbEntity
  8
AM_5
 62
     2
100
AcDbMText
 10
-58.0
 20
-60.11556497904114
 30
0.0
 40
3.399999999999999
 41
0.0
 71
     5
 72
     1
  1
10
 73
     1
 44
1.0
  0
POINT
  5
1E1E
330
13AE
100
AcDbEntity
  8
Defpoints
 62
     0
100
AcDbPoint
 10
-63.0
 20
-31.31096122551446
 30
0.0
  0
POINT
  5
1E1F
330
13AE
100
AcDbEntity
  8
Defpoints
 62
     0
100
AcDbPoint
 10
-53.0
 20
-6.349999999999997
 30
0.0
  0
POINT
  5
1E20
330
13AE
100
AcDbEntity
  8
Defpoints
 62
     0
100
AcDbPoint
 10
-53.0
 20
-62.81556497904114
 30
0.0
  0
ENDBLK
  5
13DC
330
13AE
100
AcDbEntity
  8
0
100
AcDbBlockEnd
  0
BLOCK
  5
1420
330
13F9
100
AcDbEntity
  8
0
100
AcDbBlockBegin
  2
*D12
 70
     1
 10
0.0
 20
0.0
 30
0.0
  3
*D12
  1

  0
LINE
  5
1E06
330
13F9
100
AcDbEntity
  8
AM_5
 62
     3
100
AcDbLine
 10
-63.0
 20
-31.41096122551446
 30
0.0
 11
-63.0
 21
-81.30611219815966
 31
0.0
  0
LINE
  5
1E07
330
13F9
100
AcDbEntity
  8
AM_5
 62
     3
100
AcDbLine
 10
-20.4999999999999
 20
-14.10000000000001
 30
0.0
 11
-20.4999999999999
 21
-81.30611219815966
 31
0.0
  0
LINE
  5
1E08
330
13F9
100
AcDbEntity
  8
AM_5
 62
     3
100
AcDbLine
 10
-60.5
 20
-80.80611219815967
 30
0.0
 11
-22.9999999999999
 21
-80.80611219815967
 31
0.0
  0
INSERT
  5
1E09
330
13F9
100
AcDbEntity
  8
AM_5
 62
     3
100
AcDbBlockReference
  2
_Open30
 10
-63.0
 20
-80.80611219815967
 30
0.0
 41
2.5
 42
2.5
 43
2.5
 50
180.0
  0
INSERT
  5
1E0A
330
13F9
100
AcDbEntity
  8
AM_5
 62
     3
100
AcDbBlockReference
  2
_Open30
 10
-20.4999999999999
 20
-80.80611219815967
 30
0.0
 41
2.5
 42
2.5
 43
2.5
  0
MTEXT
  5
1E0B
330
13F9
100
AcDbEntity
  8
AM_5
 62
     2
100
AcDbMText
 10
-41.74999999999995
 20
-78.10577755249038
 30
0.0
 40
3.399999999999999
 41
0.0
 71
     5
 72
     1
  1
42.5
 73
     1
 44
1.0
  0
POINT
  5
1E0C
330
13F9
100
AcDbEntity
  8
Defpoints
 62
     0
100
AcDbPoint
 10
-63.0
 20
-31.31096122551446
 30
0.0
  0
POINT
  5
1E0D
330
13F9
100
AcDbEntity
  8
Defpoints
 62
     0
100
AcDbPoint
 10
-20.4999999999999
 20
-14.00000000000001
 30
0.0
  0
POINT
  5
1E0E
330
13F9
100
AcDbEntity
  8
Defpoints
 62
     0
100
AcDbPoint
 10
-20.4999999999999
 20
-80.80611219815967
 30
0.0
  0
ENDBLK
  5
1421
330
13F9
100
AcDbEntity
  8
0
100
AcDbBlockEnd
  0
BLOCK
  5
148C
330
1465
100
AcDbEntity
  8
0
100
AcDbBlockBegin
  2
*D13
 70
     1
 10
0.0
 20
0.0
 30
0.0
  3
*D13
  1

  0
LINE
  5
1E21
330
1465
100
AcDbEntity
  8
AM_5
 62
     3
100
AcDbLine
 10
-27.49999999999987
 20
-19.65000000000002
 30
0.0
 11
-27.49999999999988
 21
-71.71115354431659
 31
0.0
  0
LINE
  5
1E22
330
1465
100
AcDbEntity
  8
AM_5
 62
     3
100
AcDbLine
 10
-63.0
 20
-31.41096122551446
 30
0.0
 11
-63.0
 21
-71.71115354431659
 31
0.0
  0
LINE
  5
1E23
330
1465
100
AcDbEntity
  8
AM_5
 62
     3
100
AcDbLine
 10
-29.99999999999987
 20
-71.21115354431658
 30
0.0
 11
-60.5
 21
-71.21115354431658
 31
0.0
  0
INSERT
  5
1E24
330
1465
100
AcDbEntity
  8
AM_5
 62
     3
100
AcDbBlockReference
  2
_Open30
 10
-27.49999999999988
 20
-71.21115354431658
 30
0.0
 41
2.5
 42
2.5
 43
2.5
  0
INSERT
  5
1E25
330
1465
100
AcDbEntity
  8
AM_5
 62
     3
100
AcDbBlockReference
  2
_Open30
 10
-63.0
 20
-71.21115354431658
 30
0.0
 41
2.5
 42
2.5
 43
2.5
 50
180.0
  0
MTEXT
  5
1E26
330
1465
100
AcDbEntity
  8
AM_5
 62
     2
100
AcDbMText
 10
-45.24999999999994
 20
-68.51115354431659
 30
0.0
 40
3.399999999999999
 41
0.0
 71
     5
 72
     1
  1
35.5
 73
     1
 44
1.0
  0
POINT
  5
1E27
330
1465
100
AcDbEntity
  8
Defpoints
 62
     0
100
AcDbPoint
 10
-27.49999999999987
 20
-19.55000000000002
 30
0.0
  0
POINT
  5
1E28
330
1465
100
AcDbEntity
  8
Defpoints
 62
     0
100
AcDbPoint
 10
-63.0
 20
-31.31096122551446
 30
0.0
  0
POINT
  5
1E29
330
1465
100
AcDbEntity
  8
Defpoints
 62
     0
100
AcDbPoint
 10
-63.0
 20
-71.21115354431658
 30
0.0
  0
ENDBLK
  5
148D
330
1465
100
AcDbEntity
  8
0
100
AcDbBlockEnd
  0
BLOCK
  5
1DB2
330
1D79
100
AcDbEntity
  8
0
100
AcDbBlockBegin
  2
*D14
 70
     1
 10
0.0
 20
0.0
 30
0.0
  3
*D14
  1

  0
LINE
  5
1F30
330
1D79
100
AcDbEntity
  8
AM_5
 62
     3
100
AcDbLine
 10
-20.40000000000004
 20
27.5
 30
0.0
 11
21.29581504888984
 21
27.49999999999999
 31
0.0
  0
LINE
  5
1F31
330
1D79
100
AcDbEntity
  8
AM_5
 62
     3
100
AcDbLine
 10
-20.39999999999985
 20
-27.5
 30
0.0
 11
21.29581504888983
 21
-27.50000000000001
 31
0.0
  0
LINE
  5
1F32
330
1D79
100
AcDbEntity
  8
AM_5
 62
     3
100
AcDbLine
 10
20.79581504888984
 20
24.99999999999999
 30
0.0
 11
20.79581504888983
 21
-25.00000000000001
 31
0.0
  0
INSERT
  5
1F33
330
1D79
100
AcDbEntity
  8
AM_5
 62
     3
100
AcDbBlockReference
  2
_Open30
 10
20.79581504888984
 20
27.49999999999999
 30
0.0
 41
2.5
 42
2.5
 43
2.5
 50
90.0
  0
INSERT
  5
1F34
330
1D79
100
AcDbEntity
  8
AM_5
 62
     3
100
AcDbBlockReference
  2
_Open30
 10
20.79581504888983
 20
-27.50000000000001
 30
0.0
 41
2.5
 42
2.5
 43
2.5
 50
270.0
  0
MTEXT
  5
1F35
330
1D79
100
AcDbEntity
  8
AM_5
 62
     2
100
AcDbMText
 10
18.09581504888983
 20
-0.4900447354760896
 30
0.0
 40
3.399999999999999
 41
0.0
 71
     5
 72
     1
  1
%%c55
 11
0.0000000000000001
 21
1.0
 31
0.0
 73
     1
 44
1.0
  0
POINT
  5
1F36
330
1D79
100
AcDbEntity
  8
Defpoints
 62
     0
100
AcDbPoint
 10
-20.50000000000004
 20
27.5
 30
0.0
  0
POINT
  5
1F37
330
1D79
100
AcDbEntity
  8
Defpoints
 62
     0
100
AcDbPoint
 10
-20.49999999999986
 20
-27.5
 30
0.0
  0
POINT
  5
1F38
330
1D79
100
AcDbEntity
  8
Defpoints
 62
     0
100
AcDbPoint
 10
20.79581504888983
 20
-27.50000000000001
 30
0.0
  0
ENDBLK
  5
1DB3
330
1D79
100
AcDbEntity
  8
0
100
AcDbBlockEnd
  0
BLOCK
  5
1F09
330
1EF4
100
AcDbEntity
  8
0
100
AcDbBlockBegin
  2
*D15
 70
     1
 10
0.0
 20
0.0
 30
0.0
  3
*D15
  1

  0
LINE
  5
1F42
330
1EF4
100
AcDbEntity
  8
AM_0
 62
     3
100
AcDbLine
 10
-20.4
 20
15.0
 30
0.0
 11
12.77604879180717
 21
14.99999999999999
 31
0.0
  0
LINE
  5
1F43
330
1EF4
100
AcDbEntity
  8
AM_0
 62
     3
100
AcDbLine
 10
-20.4
 20
-15.0
 30
0.0
 11
12.77604879180717
 21
-15.00000000000001
 31
0.0
  0
LINE
  5
1F44
330
1EF4
100
AcDbEntity
  8
AM_0
 62
     3
100
AcDbLine
 10
12.27604879180717
 20
12.49999999999999
 30
0.0
 11
12.27604879180717
 21
-12.50000000000001
 31
0.0
  0
INSERT
  5
1F45
330
1EF4
100
AcDbEntity
  8
AM_0
 62
     3
100
AcDbBlockReference
  2
_Open30
 10
12.27604879180717
 20
14.99999999999999
 30
0.0
 41
2.5
 42
2.5
 43
2.5
 50
90.0
  0
INSERT
  5
1F46
330
1EF4
100
AcDbEntity
  8
AM_0
 62
     3
100
AcDbBlockReference
  2
_Open30
 10
12.27604879180717
 20
-15.00000000000001
 30
0.0
 41
2.5
 42
2.5
 43
2.5
 50
270.0
  0
MTEXT
  5
1F47
330
1EF4
100
AcDbEntity
  8
AM_0
 62
     2
100
AcDbMText
 10
9.576048791807171
 20
-0.8955630574936318
 30
0.0
 40
3.399999999999999
 41
0.0
 71
     5
 72
     1
  1
%%c30
 11
0.0000000000000001
 21
1.0
 31
0.0
 73
     1
 44
1.0
  0
POINT
  5
1F48
330
1EF4
100
AcDbEntity
  8
Defpoints
 62
     0
100
AcDbPoint
 10
-20.5
 20
15.0
 30
0.0
  0
POINT
  5
1F49
330
1EF4
100
AcDbEntity
  8
Defpoints
 62
     0
100
AcDbPoint
 10
-20.5
 20
-15.0
 30
0.0
  0
POINT
  5
1F4A
330
1EF4
100
AcDbEntity
  8
Defpoints
 62
     0
100
AcDbPoint
 10
12.27604879180717
 20
-15.00000000000001
 30
0.0
  0
ENDBLK
  5
1F0A
330
1EF4
100
AcDbEntity
  8
0
100
AcDbBlockEnd
  0
ENDSEC
  0
SECTION
  2
ENTITIES
  0
LINE
  5
71F
102
{ACAD_REACTORS
330
11A9
102
}
330
1F
100
AcDbEntity
  8
AM_0
100
AcDbLine
 10
-63.00000000000007
 20
37.99999999999999
 30
0.0
 11
-62.99999999999998
 21
7.95
 31
0.0
  0
LINE
  5
72D
330
1F
100
AcDbEntity
  8
AM_7
100
AcDbLine
 10
4.168041706588326
 20
-0.000000000000002
 30
0.0
 11
-60.01764102673035
 21
-0.0000000000000017
 31
0.0
1001
GENIUS_GENODEF_13
1002
{
1000
HIER
1070
     0
1002
}
1002
{
1000
MANEDIT
1070
     0
1002
}
1002
{
1000
NOSEL
1070
     0
1002
}
1002
{
1000
BEHIND
1070
     0
1002
}
1002
{
1000
OTHER
1070
     0
1002
}
1002
{
1000
REACTOR
1002
}
1001
GENIUS_GENOBJ-N-CEN_13
1002
{
1000
OWNER
1000
GEN
1002
}
1001
GENIUS_GENCEN_19
1002
{
1040
2.794
1002
}
  0
DIMENSION
  5
78A
330
1F
100
AcDbEntity
  8
AM_5
100
AcDbDimension
  2
*D4
 10
-0.0000000000001124
 20
77.79410991890137
 30
0.0
 11
-31.50000000000007
 21
80.49410991890137
 31
0.0
 70
    32
 71
     5
 42
62.9999999999999
  3
AM_JIS$0
100
AcDbAlignedDimension
 13
-63.00000000000003
 23
22.95683301705818
 33
0.0
 14
-0.0000000000001208
 24
-59.6852229204358
 34
0.0
 50
0.0000000000000509
100
AcDbRotatedDimension
1001
ACAD
1000
DSTYLE
1002
{
1070
   271
1070
     0
1002
}
  0
DIMENSION
  5
7F6
330
1F
100
AcDbEntity
  8
AM_5
100
AcDbDimension
  2
*D5
 10
-89.49809258202874
 20
-40.0
 30
0.0
 11
-92.19809258202872
 21
-0.0000000000000084
 31
0.0
 70
    32
  1
%%c<>
 71
     5
 42
80.0
  3
AM_JIS$0
100
AcDbAlignedDimension
 13
-55.03875271582575
 23
40.0
 33
0.0
 14
-55.0
 24
-40.0
 34
0.0
 50
90.0
100
AcDbRotatedDimension
1001
ACAD
1000
DSTYLE
1002
{
1070
   271
1070
     0
1002
}
  0
MTEXT
  5
9EA
330
1F
100
AcDbEntity
  8
AM_6
100
AcDbMText
 10
-38.34003657206952
 20
-86.9831074595403
 30
0.0
 40
3.799999999999999
 41
60.06636689918345
 71
     1
 72
     5
  1
WEX3125R
  7
ACISOTS
 73
     1
 44
1.0
  0
INSERT
  5
A58
330
1F
100
AcDbEntity
  8
AM_0
100
AcDbBlockReference
  2
ta2
 10
39.86858755055493
 20
-17.41153498646926
 30
0.0
  0
LINE
  5
BFB
330
1F
100
AcDbEntity
  8
AM_0
100
AcDbLine
 10
-61.00000000000007
 20
40.0
 30
0.0
 11
-40.0
 21
40.0
 31
0.0
  0
LINE
  5
BFE
330
1F
100
AcDbEntity
  8
AM_0
100
AcDbLine
 10
-61.00000000000008
 20
-40.0
 30
0.0
 11
-40.0
 21
-40.0
 31
0.0
  0
LINE
  5
C5A
330
1F
100
AcDbEntity
  8
AM_0
  6
ACISOTGL
 48
0.5
100
AcDbLine
 10
-15.37000000000001
 20
-62.50000000000001
 30
0.0
 11
-0.8000000000001321
 21
-62.50000000000001
 31
0.0
  0
ARC
  5
C5B
330
1F
100
AcDbEntity
  8
AM_0
  6
ACISOTGL
 48
0.5
100
AcDbCircle
 10
-15.37000000000001
 20
-61.7
 30
0.0
 40
0.8
100
AcDbArc
 50
180.0
 51
270.0
1001
GENIUS_GENOBJ-N-FIL_13
1002
{
1000
OWNER
1000
GEN
1002
}
1001
GENIUS_GENODEF_13
1002
{
1000
HIER
1070
     0
1002
}
1002
{
1000
MANEDIT
1070
     0
1002
}
1002
{
1000
NOSEL
1070
     0
1002
}
1002
{
1000
BEHIND
1070
     0
1002
}
1002
{
1000
OTHER
1070
     0
1002
}
1002
{
1000
REACTOR
1002
}
  0
LINE
  5
C5C
330
1F
100
AcDbEntity
  8
AM_0
  6
ACISOTGL
 48
0.5
100
AcDbLine
 10
-0.0000000000001208
 20
-61.7
 30
0.0
 11
-0.0000000000001208
 21
-59.6852229204358
 31
0.0
  0
ARC
  5
C5D
330
1F
100
AcDbEntity
  8
AM_0
  6
ACISOTGL
 48
0.5
100
AcDbCircle
 10
-0.8000000000001321
 20
-59.6852229204358
 30
0.0
 40
0.8
100
AcDbArc
 50
0.0
 51
26.07184287599415
1001
GENIUS_GENODEF_13
1002
{
1000
HIER
1070
     0
1002
}
1002
{
1000
MANEDIT
1070
     0
1002
}
1002
{
1000
NOSEL
1070
     0
1002
}
1002
{
1000
BEHIND
1070
     0
1002
}
1002
{
1000
OTHER
1070
     0
1002
}
1002
{
1000
REACTOR
1002
}
1001
GENIUS_GENOBJ-N-FIL_13
1002
{
1000
OWNER
1000
GEN
1002
}
  0
ARC
  5
C5E
330
1F
100
AcDbEntity
  8
AM_0
  6
ACISOTGL
 48
0.5
100
AcDbCircle
 10
-0.8000000000001321
 20
-61.7
 30
0.0
 40
0.8
100
AcDbArc
 50
270.0
 51
0.0
1001
GENIUS_GENOBJ-N-FIL_13
1002
{
1000
OWNER
1000
GEN
1002
}
1001
GENIUS_GENODEF_13
1002
{
1000
HIER
1070
     0
1002
}
1002
{
1000
MANEDIT
1070
     0
1002
}
1002
{
1000
NOSEL
1070
     0
1002
}
1002
{
1000
BEHIND
1070
     0
1002
}
1002
{
1000
OTHER
1070
     0
1002
}
1002
{
1000
REACTOR
1002
}
  0
LINE
  5
C68
330
1F
100
AcDbEntity
  8
AM_0
  6
ACISOTGL
 48
0.5
100
AcDbLine
 10
-1.370000000000096
 20
-53.10000000000035
 30
0.0
 11
-1.370000000000068
 21
-55.23519006318757
 31
0.0
  0
ARC
  5
C69
330
1F
100
AcDbEntity
  8
AM_0
  6
ACISOTGL
 48
0.5
100
AcDbCircle
 10
-2.170000000000108
 20
-53.10000000000035
 30
0.0
 40
0.8
100
AcDbArc
 50
0.0
 51
15.74054852515111
1001
GENIUS_GENOBJ-N-FIL_13
1002
{
1000
OWNER
1000
GEN
1002
}
1001
GENIUS_GENODEF_13
1002
{
1000
HIER
1070
     0
1002
}
1002
{
1000
MANEDIT
1070
     0
1002
}
1002
{
1000
NOSEL
1070
     0
1002
}
1002
{
1000
BEHIND
1070
     0
1002
}
1002
{
1000
OTHER
1070
     0
1002
}
1002
{
1000
REACTOR
1002
}
  0
LINE
  5
C6A
330
1F
100
AcDbEntity
  8
AM_0
  6
ACISOTGL
 48
0.5
100
AcDbLine
 10
-1.370000000000096
 20
-55.30000000000036
 30
0.0
 11
-1.046525824232368
 21
-57.28334531127693
 31
0.0
  0
ARC
  5
C6B
330
1F
100
AcDbEntity
  8
AM_0
  6
ACISOTGL
 48
0.5
100
AcDbCircle
 10
-0.2569581763506861
 20
-57.15457058775335
 30
0.0
 40
0.8
100
AcDbArc
 50
189.2631103333127
 51
206.0718428759942
1001
GENIUS_GENOBJ-N-FIL_13
1002
{
1000
OWNER
1000
GEN
1002
}
1001
GENIUS_GENODEF_13
1002
{
1000
HIER
1070
     0
1002
}
1002
{
1000
MANEDIT
1070
     0
1002
}
1002
{
1000
NOSEL
1070
     0
1002
}
1002
{
1000
BEHIND
1070
     0
1002
}
1002
{
1000
OTHER
1070
     0
1002
}
1002
{
1000
REACTOR
1002
}
  0
ARC
  5
C6C
330
1F
100
AcDbEntity
  8
AM_0
  6
ACISOTGL
 48
0.5
100
AcDbCircle
 10
-0.5700000000000572
 20
-55.23519006318757
 30
0.0
 40
0.8
100
AcDbArc
 50
180.0
 51
189.2631103333127
1001
GENIUS_GENODEF_13
1002
{
1000
HIER
1070
     0
1002
}
1002
{
1000
MANEDIT
1070
     0
1002
}
1002
{
1000
NOSEL
1070
     0
1002
}
1002
{
1000
BEHIND
1070
     0
1002
}
1002
{
1000
OTHER
1070
     0
1002
}
1002
{
1000
REACTOR
1002
}
1001
GENIUS_GENOBJ-N-FIL_13
1002
{
1000
OWNER
1000
GEN
1002
}
  0
LINE
  5
C6D
330
1F
100
AcDbEntity
  8
AM_0
  6
ACISOTGL
 48
0.5
100
AcDbLine
 10
-0.9755531112363726
 20
-57.506168823751
 30
0.0
 11
-0.0814050651144456
 21
-59.33362468443816
 31
0.0
  0
LINE
  5
FFE
330
1F
100
AcDbEntity
  8
AM_0
100
AcDbLine
 10
-62.99999999999996
 20
7.949999999999999
 30
0.0
 11
-53.0
 21
7.949999999999997
 31
0.0
  0
LINE
  5
FFF
330
1F
100
AcDbEntity
  8
AM_0
100
AcDbLine
 10
-53.00000000000001
 20
7.949999999999999
 30
0.0
 11
-53.0
 21
-7.950000000000003
 31
0.0
  0
LINE
  5
1002
330
1F
100
AcDbEntity
  8
AM_0
100
AcDbLine
 10
-62.99999999999999
 20
-7.950000000000002
 30
0.0
 11
-63.0
 21
-38.00000000000001
 31
0.0
  0
LINE
  5
1023
330
1F
100
AcDbEntity
  8
AM_0
100
AcDbLine
 10
-63.0
 20
19.05
 30
0.0
 11
-33.00000000000001
 21
19.05
 31
0.0
  0
LINE
  5
1025
330
1F
100
AcDbEntity
  8
AM_0
100
AcDbLine
 10
-33.00000000000002
 20
19.55000000000001
 30
0.0
 11
-33.0
 21
-19.55000000000002
 31
0.0
  0
LINE
  5
1056
330
1F
100
AcDbEntity
  8
AM_0
100
AcDbLine
 10
-1.400000000000005
 20
-0.000000000000002
 30
0.0
 11
-1.400000000000005
 21
52.88297465585811
 31
0.0
  0
LINE
  5
1077
330
1F
100
AcDbEntity
  8
AM_0
100
AcDbLine
 10
-1.400000000000005
 20
-0.000000000000005
 30
0.0
 11
-1.400000000000113
 21
-61.29999999999959
 31
0.0
  0
DIMENSION
  5
10B6
330
1F
100
AcDbEntity
  8
AM_5
100
AcDbDimension
  2
*D7
 10
29.5184331339518
 20
-62.50000000000002
 30
0.0
 11
29.51843313395182
 21
-0.49004473547609
 31
0.0
 70
   160
  1
%%c<>
 71
     5
 42
125.0
  3
AM_JIS$0
100
AcDbAlignedDimension
 13
-1.629057114529416
 23
62.5
 33
0.0
 14
-0.8000000000001321
 24
-62.50000000000001
 34
0.0
 50
90.00000000000325
100
AcDbRotatedDimension
1001
ACAD
1000
DSTYLE
1002
{
1070
   144
1040
1.0
1070
   271
1070
     0
1002
}
  0
DIMENSION
  5
10B7
330
1F
100
AcDbEntity
  8
AM_5
100
AcDbDimension
  2
*D8
 10
-14.00000000000011
 20
70.97399699206424
 30
0.0
 11
-7.000000000000111
 21
73.67399699206425
 31
0.0
 70
    32
 71
     5
 42
14.0
  3
AM_JIS$0
100
AcDbAlignedDimension
 13
-0.0000000000001119
 23
60.69999999999998
 33
0.0
 14
-14.00000000000011
 24
62.5
 34
0.0
100
AcDbRotatedDimension
1001
ACAD
1000
DSTYLE
1002
{
1070
   271
1070
     0
1002
}
  0
DIMENSION
  5
1110
330
1F
100
AcDbEntity
  8
AM_5
100
AcDbDimension
  2
*D9
 10
-79.29154473597725
 20
-19.05
 30
0.0
 11
-81.99154473597726
 21
-0.0000000000000072
 31
0.0
 70
    32
  1
%%c<>
 71
     5
 42
38.1
  3
AM_JIS$0
100
AcDbAlignedDimension
 13
-49.99999999999999
 23
19.05
 33
0.0
 14
-63.0
 24
-19.05
 34
0.0
 50
90.0
100
AcDbRotatedDimension
1001
ACAD
1000
DSTYLE
1002
{
1070
   271
1070
     1
1002
}
  0
DIMENSION
  5
119C
102
{ACAD_XDICTIONARY
360
11A8
102
}
102
{ACAD_REACTORS
330
11A9
102
}
330
1F
100
AcDbEntity
  8
AM_5
100
AcDbDimension
  2
*D10
 10
-69.65871578168648
 20
-7.950000000000002
 30
0.0
 11
-72.35871578168648
 21
-0.0000000000000114
 31
0.0
 70
    32
 71
     5
 42
15.9
  3
AM_JIS$0
100
AcDbAlignedDimension
 13
-62.99999999999998
 23
7.95
 33
0.0
 14
-62.99999999999996
 24
-7.950000000000003
 34
0.0
 50
90.0
100
AcDbRotatedDimension
1001
ACAD
1000
DSTYLE
1002
{
1070
   271
1070
     1
1002
}
  0
LINE
  5
11FD
330
1F
100
AcDbEntity
  8
AM_0
100
AcDbLine
 10
-40.0
 20
40.0
 30
0.0
 11
-22.12717785592385
 21
61.30000000000015
 31
0.0
  0
LINE
  5
1353
330
1F
100
AcDbEntity
  8
AM_0
100
AcDbLine
 10
-33.00000000000001
 20
19.55000000000001
 30
0.0
 11
-27.50000000000001
 21
19.55000000000001
 31
0.0
  0
DIMENSION
  5
13AD
330
1F
100
AcDbEntity
  8
AM_5
100
AcDbDimension
  2
*D11
 10
-53.0
 20
-62.81556497904114
 30
0.0
 11
-58.0
 21
-62.81556497904114
 31
0.0
 70
   160
 71
     5
 42
9.999999999999992
  3
AM_JIS$0
100
AcDbAlignedDimension
 13
-63.0
 23
-31.31096122551446
 33
0.0
 14
-53.0
 24
-6.349999999999997
 34
0.0
 50
0.0000000000001132
100
AcDbRotatedDimension
1001
ACAD
1000
DSTYLE
1002
{
1070
   271
1070
     0
1002
}
  0
DIMENSION
  5
13F8
330
1F
100
AcDbEntity
  8
AM_5
100
AcDbDimension
  2
*D12
 10
-20.4999999999999
 20
-80.80611219815967
 30
0.0
 11
-41.74999999999995
 21
-78.10577755249038
 31
0.0
 70
    32
 71
     5
 42
42.50000000000009
  3
AM_JIS$0
100
AcDbAlignedDimension
 13
-63.0
 23
-31.31096122551446
 33
0.0
 14
-20.4999999999999
 24
-14.00000000000001
 34
0.0
 50
0.0000000000001132
100
AcDbRotatedDimension
1001
ACAD
1000
DSTYLE
1002
{
1070
   271
1070
     1
1002
}
  0
DIMENSION
  5
1464
330
1F
100
AcDbEntity
  8
AM_5
100
AcDbDimension
  2
*D13
 10
-63.0
 20
-71.21115354431658
 30
0.0
 11
-45.24999999999994
 21
-68.51115354431659
 31
0.0
 70
    32
 71
     5
 42
35.50000000000013
  3
AM_JIS$0
100
AcDbAlignedDimension
 13
-27.49999999999987
 23
-19.55000000000002
 33
0.0
 14
-63.0
 24
-31.31096122551446
 34
0.0
 50
0.0000000000001132
100
AcDbRotatedDimension
1001
ACAD
1000
DSTYLE
1002
{
1070
   271
1070
     1
1002
}
  0
LINE
  5
1776
330
1F
100
AcDbEntity
  8
AM_0
100
AcDbLine
 10
-27.5
 20
19.55000000000001
 30
0.0
 11
-27.49999999999987
 21
-19.55000000000002
 31
0.0
  0
LINE
  5
1964
330
1F
100
AcDbEntity
  8
AM_0
100
AcDbLine
 10
-22.12717785592385
 20
61.30000000000016
 30
0.0
 11
-16.1699999999999
 21
61.29999999999999
 31
0.0
  0
LINE
  5
1B13
330
1F
100
AcDbEntity
  8
AM_0
100
AcDbLine
 10
-62.99999999999998
 20
-7.950000000000003
 30
0.0
 11
-53.0
 21
-7.950000000000001
 31
0.0
  0
LINE
  5
1B5F
330
1F
100
AcDbEntity
  8
AM_0
  6
ACISOTGL
 48
0.5
100
AcDbLine
 10
-16.17000000000001
 20
-61.7
 30
0.0
 11
-16.17000000000001
 21
-61.3
 31
0.0
  0
LINE
  5
1D3C
330
1F
100
AcDbEntity
  8
AM_0
100
AcDbLine
 10
-63.0
 20
-19.05
 30
0.0
 11
-33.00000000000001
 21
-19.05
 31
0.0
  0
LINE
  5
1D3D
330
1F
100
AcDbEntity
  8
AM_0
100
AcDbLine
 10
-33.00000000000001
 20
-19.55000000000002
 30
0.0
 11
-27.50000000000002
 21
-19.55000000000002
 31
0.0
  0
LINE
  5
1D66
102
{ACAD_REACTORS
330
1F08
102
}
330
1F
100
AcDbEntity
  8
AM_0
100
AcDbLine
 10
-27.49999999999999
 20
15.0
 30
0.0
 11
-20.5
 21
15.0
 31
0.0
  0
LINE
  5
1D67
102
{ACAD_REACTORS
330
1F08
102
}
330
1F
100
AcDbEntity
  8
AM_0
100
AcDbLine
 10
-27.49999999999988
 20
-15.0
 30
0.0
 11
-20.4999999999999
 21
-15.0
 31
0.0
  0
LINE
  5
1D68
102
{ACAD_REACTORS
330
1D84
102
}
330
1F
100
AcDbEntity
  8
AM_0
100
AcDbLine
 10
-20.50000000000004
 20
27.5
 30
0.0
 11
-20.49999999999986
 21
-27.5
 31
0.0
  0
DIMENSION
  5
1D78
102
{ACAD_XDICTIONARY
360
1D83
102
}
102
{ACAD_REACTORS
330
1D84
102
}
330
1F
100
AcDbEntity
  8
AM_5
100
AcDbDimension
  2
*D14
 10
20.79581504888983
 20
-27.50000000000001
 30
0.0
 11
20.79581504888984
 21
-0.49004473547609
 31
0.0
 70
   160
  1
%%c<>
 71
     5
 42
55.0
  3
AM_JIS$0
100
AcDbAlignedDimension
 13
-20.50000000000004
 23
27.5
 33
0.0
 14
-20.49999999999986
 24
-27.5
 34
0.0
 50
90.0
100
AcDbRotatedDimension
1001
ACAD
1000
DSTYLE
1002
{
1070
   271
1070
     0
1002
}
  0
ARC
  5
1E2B
330
1F
100
AcDbEntity
  8
AM_0
100
AcDbCircle
 10
-61.00000000000007
 20
38.0
 30
0.0
 40
2.0
100
AcDbArc
 50
90.0
 51
180.0000000000001
  0
ARC
  5
1E2C
330
1F
100
AcDbEntity
  8
AM_0
100
AcDbCircle
 10
-61.00000000000008
 20
-38.00000000000001
 30
0.0
 40
2.0
100
AcDbArc
 50
179.9999999999998
 51
270.0
  0
LINE
  5
1E84
330
1F
100
AcDbEntity
  8
AM_0
100
AcDbLine
 10
-40.0
 20
-40.0
 30
0.0
 11
-22.12717785592385
 21
-61.30000000000016
 31
0.0
  0
LINE
  5
1E85
330
1F
100
AcDbEntity
  8
AM_0
100
AcDbLine
 10
-22.12717785592385
 20
-61.30000000000016
 30
0.0
 11
-1.400000000000113
 21
-61.29999999999959
 31
0.0
  0
LINE
  5
1EC3
330
1F
100
AcDbEntity
  8
AM_0
100
AcDbLine
 10
-20.50000000000004
 20
27.5
 30
0.0
 11
-8.073795311298651
 21
27.49999999999999
 31
0.0
  0
LINE
  5
1EC4
330
1F
100
AcDbEntity
  8
AM_0
100
AcDbLine
 10
-6.133203858746657
 20
29.01615620880065
 30
0.0
 11
-1.400000000000005
 21
48.00000000000002
 31
0.0
  0
ARC
  5
1EC5
330
1F
100
AcDbEntity
  8
AM_0
100
AcDbCircle
 10
-8.073795311298649
 20
29.49999999999999
 30
0.0
 40
2.0
100
AcDbArc
 50
270.0
 51
346.0
  0
LINE
  5
1EC6
330
1F
100
AcDbEntity
  8
AM_0
100
AcDbLine
 10
-20.49999999999986
 20
-27.5
 30
0.0
 11
-8.073795311298646
 21
-27.5
 31
0.0
  0
ARC
  5
1EC7
330
1F
100
AcDbEntity
  8
AM_0
100
AcDbCircle
 10
-8.073795311298644
 20
-29.49999999999999
 30
0.0
 40
2.0
100
AcDbArc
 50
14.00000000000002
 51
90.00000000000003
  0
LINE
  5
1EC8
330
1F
100
AcDbEntity
  8
AM_0
100
AcDbLine
 10
-6.133203858746653
 20
-29.01615620880066
 30
0.0
 11
-1.399999999999997
 21
-48.00000000000003
 31
0.0
  0
DIMENSION
  5
1EF3
102
{ACAD_XDICTIONARY
360
1EFE
102
}
102
{ACAD_REACTORS
330
1F08
102
}
330
1F
100
AcDbEntity
  8
AM_0
100
AcDbDimension
  2
*D15
 10
12.27604879180717
 20
-15.00000000000001
 30
0.0
 11
12.27604879180717
 21
-0.8955630574936321
 31
0.0
 70
   160
  1
%%c<>
 71
     5
 42
30.0
  3
AM_JIS$0
100
AcDbAlignedDimension
 13
-20.5
 23
15.0
 33
0.0
 14
-20.5
 24
-15.0
 34
0.0
 50
90.0
100
AcDbRotatedDimension
1001
ACAD
1000
DSTYLE
1002
{
1070
   271
1070
     0
1002
}
  0
ENDSEC
  0
SECTION
  2
OBJECTS
  0
DICTIONARY
  5
C
330
0
100
AcDbDictionary
281
     1
  3
ACAD_COLOR
350
BE
  3
ACAD_GROUP
350
D
  3
ACAD_LAYOUT
350
1A
  3
ACAD_MATERIAL
350
BD
  3
ACAD_MLINESTYLE
350
17
  3
ACAD_PLOTSETTINGS
350
19
  3
ACAD_PLOTSTYLENAME
350
E
  3
ACAD_TABLESTYLE
350
11A
  3
AcDbVariableDictionary
350
94
  3
AcmDictionary
350
5B
  3
AMG
350
41
  3
AMGSNAPSETTINGS
350
1B8
  0
DICTIONARY
  5
34B
330
2
100
AcDbDictionary
280
     1
281
     1
  3
AMLAYER_GROUPCOLORS
360
34C
  0
DICTIONARY
  5
8F
330
1F
100
AcDbDictionary
280
     1
281
     1
  3
ACAD_SORTENTS
360
7DB
  0
DICTIONARY
  5
11A8
330
119C
100
AcDbDictionary
280
     1
281
     1
  3
ACAD_DIMASSOC
360
11A9
  0
DICTIONARY
  5
1D83
330
1D78
100
AcDbDictionary
280
     1
281
     1
  3
ACAD_DIMASSOC
360
1D84
  0
DICTIONARY
  5
1EFE
330
1EF3
100
AcDbDictionary
280
     1
281
     1
  3
ACAD_DIMASSOC
360
1F08
  0
DICTIONARY
  5
BE
102
{ACAD_REACTORS
330
C
102
}
330
C
100
AcDbDictionary
281
     1
  0
DICTIONARY
  5
D
102
{ACAD_REACTORS
330
C
102
}
330
C
100
AcDbDictionary
281
     1
  0
DICTIONARY
  5
1A
102
{ACAD_REACTORS
330
C
102
}
330
C
100
AcDbDictionary
281
     1
  3
Model
350
22
  3
レイアウト1
350
1E
  3
レイアウト2
350
26
  0
DICTIONARY
  5
BD
102
{ACAD_REACTORS
330
C
102
}
330
C
100
AcDbDictionary
281
     1
  0
DICTIONARY
  5
17
102
{ACAD_REACTORS
330
C
102
}
330
C
100
AcDbDictionary
281
     1
  3
Standard
350
18
  0
DICTIONARY
  5
19
102
{ACAD_REACTORS
330
C
102
}
330
C
100
AcDbDictionary
281
     1
  0
ACDBDICTIONARYWDFLT
  5
E
102
{ACAD_REACTORS
330
C
102
}
330
C
100
AcDbDictionary
281
     1
  3
Normal
350
F
100
AcDbDictionaryWithDefault
340
F
  0
DICTIONARY
  5
11A
102
{ACAD_REACTORS
330
C
102
}
330
C
100
AcDbDictionary
281
     1
  3
Standard
350
11B
  0
DICTIONARY
  5
94
102
{ACAD_REACTORS
330
C
102
}
330
C
100
AcDbDictionary
281
     1
  3
CTABLESTYLE
350
138
  3
DIMASSOC
350
96
  3
INDEXCTL
350
95
  0
DICTIONARY
  5
5B
102
{ACAD_REACTORS
330
C
102
}
330
C
100
AcDbDictionary
281
     1
  3
AcmBOM
350
1B5
  3
AcmStdDictionary
350
61
  3
AMDTSECTSYM_ARROWCOLOR
350
123
  0
DICTIONARY
  5
41
102
{ACAD_REACTORS
330
C
102
}
330
C
100
AcDbDictionary
281
     1
  0
DICTIONARY
  5
1B8
102
{ACAD_REACTORS
330
C
102
}
330
C
100
AcDbDictionary
281
     1
  0
DICTIONARY
  5
34C
102
{ACAD_REACTORS
330
34B
102
}
330
34B
100
AcDbDictionary
280
     1
281
     1
  0
SORTENTSTABLE
  5
7DB
102
{ACAD_REACTORS
330
8F
102
}
330
8F
100
AcDbSortentsTable
330
1F
331
1B5F
  5
1C45
331
C5C
  5
C6C
331
C68
  5
F95
331
1E84
  5
1E84
331
BFE
  5
C69
331
1D3C
  5
1D3D
331
C69
  5
FC9
331
C5D
  5
C6E
331
1023
  5
10B7
331
FFE
  5
106F
331
1B13
  5
1B5C
331
1EC3
  5
1EC3
331
1056
  5
119C
331
7F6
  5
C00
331
1E85
  5
1E85
331
71F
  5
86B
331
13AD
  5
71F
331
1D3D
  5
1D66
331
C6A
  5
1000
331
1D68
  5
1D78
331
C5E
  5
E66
331
FFF
  5
10B6
331
13F8
  5
730
331
1EC4
  5
1EC5
331
1464
  5
7AF
331
C6B
  5
1002
331
1110
  5
13AD
331
1025
  5
1110
331
1964
  5
1B13
331
72D
  5
BFD
331
1EC5
  5
1EC4
331
1776
  5
18EF
331
1D78
  5
1E2B
331
78A
  5
847
331
119C
  5
13F8
331
C6C
  5
1024
331
BFB
  5
C68
331
1D66
  5
1D67
331
1077
  5
11FD
331
9EA
  5
C5C
331
1353
  5
179B
331
C5A
  5
C6A
331
10B6
  5
11FE
331
1E2B
  5
BCA
331
C6D
  5
1026
331
1D67
  5
1D68
331
1002
  5
BFC
331
11FD
  5
1464
331
C5B
  5
C6B
331
10B7
  5
1353
331
1E2C
  5
1E2C
331
A58
  5
C67
  0
DIMASSOC
  5
11A9
102
{ACAD_REACTORS
330
11A8
102
}
330
11A8
100
AcDbDimAssoc
330
119C
 90
        1
 70
     0
 71
     0
  1
AcDbOsnapPointRef
 72
     1
331
71F
 73
     0
 91
        0
 40
0.0
 10
0.0
 20
0.0
 30
2.000000000000000E+50
 75
     0
  0
DIMASSOC
  5
1D84
102
{ACAD_REACTORS
330
1D83
102
}
330
1D83
100
AcDbDimAssoc
330
1D78
 90
        3
 70
     0
 71
     0
  1
AcDbOsnapPointRef
 72
    13
331
1D68
 73
     0
 91
        0
 40
0.0
 10
0.0
 20
0.0
 30
2.000000000000000E+50
 75
     0
  1
AcDbOsnapPointRef
 72
     1
331
1D68
 73
     0
 91
        0
 40
0.0
 10
0.0
 20
0.0
 30
2.000000000000000E+50
 75
     0
  0
DIMASSOC
  5
1F08
102
{ACAD_REACTORS
330
1EFE
102
}
330
1EFE
100
AcDbDimAssoc
330
1EF3
 90
        3
 70
     0
 71
     0
  1
AcDbOsnapPointRef
 72
     1
331
1D66
 73
     2
 91
        0
 40
1.0
 10
0.0
 20
0.0
 30
2.000000000000000E+50
 75
     0
  1
AcDbOsnapPointRef
 72
     8
331
1D67
 73
     2
 91
        0
 40
0.9999999999999854
 10
0.0
 20
0.0
 30
0.0
 75
     1
  1
AcDbOsnapPointRef
 72
     1
331
1D66
 73
     2
 91
        0
 40
1.0
 10
0.0
 20
0.0
 30
2.000000000000000E+50
 75
     0
  0
LAYOUT
  5
22
102
{ACAD_REACTORS
330
1A
102
}
330
1A
100
AcDbPlotSettings
  1

  2
SII LP-1010 (C2 VR)2R
  4
A4
  6

 40
3.174999952316284
 41
3.174999952316284
 42
3.175003051757812
 43
3.17498779296875
 44
209.9733276367187
 45
296.9259948730469
 46
0.0
 47
0.0
 48
0.0
 49
0.0
140
0.0
141
0.0
142
1.0
143
1.458575536647462
 70
 11952
 72
     1
 73
     1
 74
     2
  7
sei_cad.ctb
 75
     0
147
0.6856004196385342
 76
     0
 77
     2
 78
   300
148
0.0
149
0.0
100
AcDbLayout
  1
Model
 70
     1
 71
     0
 10
0.0
 20
0.0
 11
12.0
 21
9.0
 12
0.0
 22
0.0
 32
0.0
 14
0.0
 24
0.0
 34
0.0
 15
0.0
 25
0.0
 35
0.0
146
0.0
 13
0.0
 23
0.0
 33
0.0
 16
1.0
 26
0.0
 36
0.0
 17
0.0
 27
1.0
 37
0.0
 76
     0
330
1F
1001
ACAD_PSEXT
1000
SII LP-1010 (C2 VR)2R
1000
SII LP-1010 (C2 VR)2R
1000
133.153.16.130#9100
1000

1070
     0
  0
LAYOUT
  5
1E
102
{ACAD_REACTORS
330
1A
102
}
330
1A
100
AcDbPlotSettings
  1

  2

  4

  6

 40
0.0
 41
0.0
 42
0.0
 43
0.0
 44
0.0
 45
0.0
 46
0.0
 47
0.0
 48
0.0
 49
0.0
140
0.0
141
0.0
142
1.0
143
1.0
 70
   688
 72
     0
 73
     0
 74
     5
  7
sei_cad.ctb
 75
    16
147
1.0
 76
     0
 77
     2
 78
   300
148
0.0
149
0.0
100
AcDbLayout
  1
レイアウト1
 70
     1
 71
     1
 10
0.0
 20
0.0
 11
420.0
 21
297.0
 12
0.0
 22
0.0
 32
0.0
 14
1.000000000000000E+20
 24
1.000000000000000E+20
 34
1.000000000000000E+20
 15
-1.000000000000000E+20
 25
-1.000000000000000E+20
 35
-1.000000000000000E+20
146
0.0
 13
0.0
 23
0.0
 33
0.0
 16
1.0
 26
0.0
 36
0.0
 17
0.0
 27
1.0
 37
0.0
 76
     0
330
1B
  0
LAYOUT
  5
26
102
{ACAD_REACTORS
330
1A
102
}
330
1A
100
AcDbPlotSettings
  1

  2

  4

  6

 40
0.0
 41
0.0
 42
0.0
 43
0.0
 44
0.0
 45
0.0
 46
0.0
 47
0.0
 48
0.0
 49
0.0
140
0.0
141
0.0
142
1.0
143
1.0
 70
   688
 72
     0
 73
     0
 74
     5
  7
sei_cad.ctb
 75
    16
147
1.0
 76
     0
 77
     2
 78
   300
148
0.0
149
0.0
100
AcDbLayout
  1
レイアウト2
 70
     1
 71
     2
 10
0.0
 20
0.0
 11
12.0
 21
9.0
 12
0.0
 22
0.0
 32
0.0
 14
0.0
 24
0.0
 34
0.0
 15
0.0
 25
0.0
 35
0.0
146
0.0
 13
0.0
 23
0.0
 33
0.0
 16
1.0
 26
0.0
 36
0.0
 17
0.0
 27
1.0
 37
0.0
 76
     0
330
23
  0
MLINESTYLE
  5
18
102
{ACAD_REACTORS
330
17
102
}
330
17
100
AcDbMlineStyle
  2
STANDARD
 70
     0
  3

 62
   256
 51
90.0
 52
90.0
 71
     2
 49
0.5
 62
   256
  6
BYLAYER
 49
-0.5
 62
   256
  6
BYLAYER
  0
ACDBPLACEHOLDER
  5
F
102
{ACAD_REACTORS
330
E
102
}
330
E
  0
TABLESTYLE
  5
11B
102
{ACAD_REACTORS
330
11A
102
}
330
11A
100
AcDbTableStyle
  3
Standard
 70
     0
 71
     0
 40
1.5
 41
1.5
280
     0
281
     0
  7
STANDARD
140
4.5
170
     2
 62
     0
 63
     7
283
     0
274
    -2
284
     1
 64
     0
275
    -2
285
     1
 65
     0
276
    -2
286
     1
 66
     0
277
    -2
287
     1
 67
     0
278
    -2
288
     1
 68
     0
279
    -2
289
     1
 69
     0
  7
STANDARD
140
6.0
170
     5
 62
     0
 63
     7
283
     0
274
    -2
284
     1
 64
     0
275
    -2
285
     1
 65
     0
276
    -2
286
     1
 66
     0
277
    -2
287
     1
 67
     0
278
    -2
288
     1
 68
     0
279
    -2
289
     1
 69
     0
  7
STANDARD
140
4.5
170
     5
 62
     0
 63
     7
283
     0
274
    -2
284
     1
 64
     0
275
    -2
285
     1
 65
     0
276
    -2
286
     1
 66
     0
277
    -2
287
     1
 67
     0
278
    -2
288
     1
 68
     0
279
    -2
289
     1
 69
     0
  0
DICTIONARYVAR
  5
138
102
{ACAD_REACTORS
330
94
102
}
330
94
100
DictionaryVariables
280
     0
  1
STANDARD
  0
DICTIONARYVAR
  5
96
102
{ACAD_REACTORS
330
94
102
}
330
94
100
DictionaryVariables
280
     0
  1
2
  0
DICTIONARYVAR
  5
95
102
{ACAD_REACTORS
330
94
102
}
330
94
100
DictionaryVariables
280
     0
  1
1
  0
DICTIONARY
  5
1B5
102
{ACAD_REACTORS
330
5B
102
}
330
5B
100
AcDbDictionary
281
     1
  0
DICTIONARY
  5
61
102
{ACAD_REACTORS
330
5B
102
}
330
5B
100
AcDbDictionary
281
     1
  0
XRECORD
  5
123
102
{ACAD_REACTORS
330
5B
102
}
330
5B
100
AcDbXrecord
280
     1
 90
-1023410169
  0
ENDSEC
  0
EOF
