  0
SECTION
  2
HEADER
  9
$ACADVER
  1
AC1014
  9
$ACADMAINTVER
 70
     9
  9
$DWGCODEPAGE
  3
ANSI_932
  9
$INSBASE
 10
0.0
 20
0.0
 30
0.0
  9
$EXTMIN
 10
-90.73383179379666
 20
-106.5166862610741
 30
-0.00000001
  9
$EXTMAX
 10
35.04377456268704
 20
50.15007535068209
 30
0.00000001
  9
$LIMMIN
 10
-105.7032808044517
 20
-138.8454352545847
  9
$LIMMAX
 10
173.2527859825442
 20
93.60930725897231
  9
$ORTHOMODE
 70
     0
  9
$REGENMODE
 70
     1
  9
$FILLMODE
 70
     1
  9
$QTEXTMODE
 70
     0
  9
$MIRRTEXT
 70
     0
  9
$DRAGMODE
 70
     2
  9
$LTSCALE
 40
1.0
  9
$OSMODE
 70
    55
  9
$ATTMODE
 70
     1
  9
$TEXTSIZE
 40
2.5
  9
$TRACEWID
 40
1.0
  9
$TEXTSTYLE
  7
STANDARD
  9
$CLAYER
  8
AM_5
  9
$CELTYPE
  6
BYLAYER
  9
$CECOLOR
 62
   256
  9
$CELTSCALE
 40
1.0
  9
$DELOBJ
 70
     1
  9
$DISPSILH
 70
     0
  9
$DIMSCALE
 40
1.0
  9
$DIMASZ
 40
2.5
  9
$DIMEXO
 40
1.0
  9
$DIMDLI
 40
12.0
  9
$DIMRND
 40
0.0
  9
$DIMDLE
 40
0.0
  9
$DIMEXE
 40
1.0
  9
$DIMTP
 40
0.1
  9
$DIMTM
 40
0.1
  9
$DIMTXT
 40
3.2
  9
$DIMCEN
 40
0.0
  9
$DIMTSZ
 40
0.0
  9
$DIMTOL
 70
     0
  9
$DIMLIM
 70
     0
  9
$DIMTIH
 70
     0
  9
$DIMTOH
 70
     0
  9
$DIMSE1
 70
     0
  9
$DIMSE2
 70
     0
  9
$DIMTAD
 70
     3
  9
$DIMZIN
 70
     8
  9
$DIMBLK
  1
OPEN30
  9
$DIMASO
 70
     1
  9
$DIMSHO
 70
     1
  9
$DIMPOST
  1

  9
$DIMAPOST
  1
"
  9
$DIMALT
 70
     0
  9
$DIMALTD
 70
     2
  9
$DIMALTF
 40
0.0393701
  9
$DIMLFAC
 40
1.0
  9
$DIMTOFL
 70
     1
  9
$DIMTVP
 40
0.0
  9
$DIMTIX
 70
     0
  9
$DIMSOXD
 70
     0
  9
$DIMSAH
 70
     0
  9
$DIMBLK1
  1

  9
$DIMBLK2
  1

  9
$DIMSTYLE
  2
AM_JIS
  9
$DIMCLRD
 70
   256
  9
$DIMCLRE
 70
   256
  9
$DIMCLRT
 70
     2
  9
$DIMTFAC
 40
0.71
  9
$DIMGAP
 40
1.5
  9
$DIMJUST
 70
     0
  9
$DIMSD1
 70
     0
  9
$DIMSD2
 70
     0
  9
$DIMTOLJ
 70
     0
  9
$DIMTZIN
 70
     0
  9
$DIMALTZ
 70
     0
  9
$DIMALTTZ
 70
     0
  9
$DIMFIT
 70
     3
  9
$DIMUPT
 70
     0
  9
$DIMUNIT
 70
     2
  9
$DIMDEC
 70
     3
  9
$DIMTDEC
 70
     3
  9
$DIMALTU
 70
     2
  9
$DIMALTTD
 70
     2
  9
$DIMTXSTY
  7
ASAMI
  9
$DIMAUNIT
 70
     0
  9
$LUNITS
 70
     2
  9
$LUPREC
 70
     2
  9
$SKETCHINC
 40
1.0
  9
$FILLETRAD
 40
2.5
  9
$AUNITS
 70
     0
  9
$AUPREC
 70
     0
  9
$MENU
  1
.
  9
$ELEVATION
 40
0.0
  9
$PELEVATION
 40
0.0
  9
$THICKNESS
 40
0.0
  9
$LIMCHECK
 70
     0
  9
$BLIPMODE
 70
     0
  9
$CHAMFERA
 40
0.5
  9
$CHAMFERB
 40
0.5
  9
$CHAMFERC
 40
20.0
  9
$CHAMFERD
 40
0.0
  9
$SKPOLY
 70
     0
  9
$TDCREATE
 40
2452836.771637361
  9
$TDUPDATE
 40
2453152.365922048
  9
$TDINDWG
 40
0.3354560995
  9
$TDUSRTIMER
 40
0.3354560995
  9
$USRTIMER
 70
     1
  9
$ANGBASE
 50
0.0
  9
$ANGDIR
 70
     0
  9
$PDMODE
 70
     0
  9
$PDSIZE
 40
0.0
  9
$PLINEWID
 40
0.0
  9
$COORDS
 70
     1
  9
$SPLFRAME
 70
     0
  9
$SPLINETYPE
 70
     6
  9
$SPLINESEGS
 70
     8
  9
$ATTDIA
 70
     1
  9
$ATTREQ
 70
     1
  9
$HANDLING
 70
 12289
  9
$HANDSEED
  5
468F
  9
$SURFTAB1
 70
     6
  9
$SURFTAB2
 70
     6
  9
$SURFTYPE
 70
     6
  9
$SURFU
 70
     6
  9
$SURFV
 70
     6
  9
$UCSNAME
  2

  9
$UCSORG
 10
0.0
 20
0.0
 30
0.0
  9
$UCSXDIR
 10
1.0
 20
0.0
 30
0.0
  9
$UCSYDIR
 10
0.0
 20
1.0
 30
0.0
  9
$PUCSNAME
  2

  9
$PUCSORG
 10
0.0
 20
0.0
 30
0.0
  9
$PUCSXDIR
 10
1.0
 20
0.0
 30
0.0
  9
$PUCSYDIR
 10
0.0
 20
1.0
 30
0.0
  9
$USERI1
 70
     0
  9
$USERI2
 70
     0
  9
$USERI3
 70
     0
  9
$USERI4
 70
     0
  9
$USERI5
 70
     0
  9
$USERR1
 40
0.0
  9
$USERR2
 40
0.0
  9
$USERR3
 40
0.0
  9
$USERR4
 40
0.0
  9
$USERR5
 40
0.0
  9
$WORLDVIEW
 70
     1
  9
$SHADEDGE
 70
     3
  9
$SHADEDIF
 70
    70
  9
$TILEMODE
 70
     1
  9
$MAXACTVP
 70
    64
  9
$PINSBASE
 10
0.0
 20
0.0
 30
0.0
  9
$PLIMCHECK
 70
     0
  9
$PEXTMIN
 10
1.000000000000000E+20
 20
1.000000000000000E+20
 30
1.000000000000000E+20
  9
$PEXTMAX
 10
-1.000000000000000E+20
 20
-1.000000000000000E+20
 30
-1.000000000000000E+20
  9
$PLIMMIN
 10
0.0
 20
0.0
  9
$PLIMMAX
 10
841.0
 20
594.0
  9
$UNITMODE
 70
     0
  9
$VISRETAIN
 70
     1
  9
$PLINEGEN
 70
     0
  9
$PSLTSCALE
 70
     0
  9
$TREEDEPTH
 70
  3020
  9
$PICKSTYLE
 70
     0
  9
$CMLSTYLE
  2
STANDARD
  9
$CMLJUST
 70
     0
  9
$CMLSCALE
 40
20.0
  9
$PROXYGRAPHICS
 70
     1
  9
$MEASUREMENT
 70
     1
  0
ENDSEC
  0
SECTION
  2
CLASSES
  0
CLASS
  1
ACDBDICTIONARYWDFLT
  2
AcDbDictionaryWithDefault
  3
AutoCAD 2000
 90
        0
280
     0
281
     0
  0
CLASS
  1
ACDBPLACEHOLDER
  2
AcDbPlaceHolder
  3
AutoCAD 2000
 90
        0
280
     0
281
     0
  0
CLASS
  1
LAYOUT
  2
AcDbLayout
  3
AutoCAD 2000
 90
        0
280
     0
281
     0
  0
CLASS
  1
AMGSETTINGSOBJ
  2
AmgSettingsObj
  3
"AcadM|Product Description: AutoCAD Mechanical 2000|Company: Autodesk"
 90
        0
280
     0
281
     0
  0
CLASS
  1
ACME_DOCUMENT
  2
AcMeDbDoc
  3
AcMeServices
 90
        0
280
     0
281
     0
  0
CLASS
  1
ACMESCOPE
  2
AcMeScope
  3
AcMeServices
 90
        0
280
     0
281
     0
  0
CLASS
  1
ACMECOMMANDHISTORY
  2
AcMeCommandHistory
  3
AcMeServices
 90
        0
280
     0
281
     0
  0
CLASS
  1
DICTIONARYVAR
  2
AcDbDictionaryVar
  3
AutoCAD 2000
 90
        0
280
     0
281
     0
  0
CLASS
  1
ACIMSYSVARMAN
  2
AcImSysVarManager
  3
AcMeServices
 90
        0
280
     0
281
     0
  0
CLASS
  1
ACIMREALSYSVAR
  2
AcImRealSysVar
  3
AcMeServices
 90
        0
280
     0
281
     0
  0
CLASS
  1
ACIMINTSYSVAR
  2
AcImIntSysVar
  3
AcMeServices
 90
        0
280
     0
281
     0
  0
CLASS
  1
ACMEDRAWINGMAN
  2
AcMeDrawingMan
  3
AcMeServices
 90
        0
280
     0
281
     0
  0
CLASS
  1
ACMEVIEW
  2
AcMeView
  3
AcMeServices
 90
        0
280
     0
281
     0
  0
CLASS
  1
ACDBENTITYCACHE
  2
AcMeEntityCache
  3
AcMeServices
 90
        0
280
     0
281
     0
  0
CLASS
  1
GSMANAGER
  2
AcMeGSManager
  3
AcMeServices
 90
        0
280
     0
281
     0
  0
CLASS
  1
AmdtInternalReactor
  2
AmdtInternalReactor
  3
AcMeServices
 90
        0
280
     0
281
     0
  0
CLASS
  1
ACMESTATEMGR
  2
AcMeStateMgr
  3
AcMeServices
 90
        0
280
     0
281
     0
  0
CLASS
  1
ACME_DATABASE
  2
AcMeDbDatabase
  3
AcMeServices
 90
        0
280
     0
281
     0
  0
CLASS
  1
ACRFINSADJUSTERMGR
  2
AcRfInsAdjusterMgr
  3
AcMeServices
 90
        0
280
     0
281
     0
  0
CLASS
  1
ACMDATADICTIONARY
  2
AcmDataDictionary
  3
"AcmSymBB|Product Description: AutoCAD Mechanical 2000|Company: Autodesk"
 90
        0
280
     0
281
     0
  0
CLASS
  1
ACMDATAENTRYBLOCK
  2
AcmDataEntryBlock
  3
"AcmSymBB|Product Description: AutoCAD Mechanical 2000|Company: Autodesk"
 90
        0
280
     0
281
     0
  0
CLASS
  1
AMGOBJPROPCFG
  2
AmgObjPropCfg
  3
"AmgLay|Product Description: AutoCAD Mechanical 2000|Company: Autodesk"
 90
        1
280
     0
281
     0
  0
CLASS
  1
ACAMGFILTERDAT
  2
AcAmgFilterDat
  3
"AcadM|Product Description: AutoCAD Mechanical 2000|Company: Autodesk"
 90
        0
280
     0
281
     0
  0
CLASS
  1
LAYER_INDEX
  2
AcDbLayerIndex
  3
AutoCAD 2000
 90
        0
280
     0
281
     0
  0
CLASS
  1
IDBUFFER
  2
AcDbIdBuffer
  3
AutoCAD 2000
 90
        0
280
     0
281
     0
  0
CLASS
  1
ACIMSTRSYSVAR
  2
AcImStrSysVar
  3
AcMeServices
 90
        0
280
     0
281
     0
  0
CLASS
  1
ACMSTANDARDJIS
  2
AcmStandardJIS
  3
"AcmSymBB|Product Description: AutoCAD Mechanical 2000|Company: Autodesk"
 90
        0
280
     0
281
     0
  0
CLASS
  1
ACMSURFSTANDARDJIS
  2
AcmSurfTextStdJIS
  3
"AcmSymBB|Product Description: AutoCAD Mechanical 2000|Company: Autodesk"
 90
        0
280
     0
281
     0
  0
CLASS
  1
ACMFCFSTANDARDJIS
  2
AcmFCFStdJIS
  3
"AcmSymBB|Product Description: AutoCAD Mechanical 2000|Company: Autodesk"
 90
        0
280
     0
281
     0
  0
CLASS
  1
ACMWELDSTANDARDJIS
  2
AcmWeldingStdJIS
  3
"AcmSymBB|Product Description: AutoCAD Mechanical 2000|Company: Autodesk"
 90
        0
280
     0
281
     0
  0
CLASS
  1
ACMIDSTANDARDJIS
  2
AcmIdStdJIS
  3
"AcmSymBB|Product Description: AutoCAD Mechanical 2000|Company: Autodesk"
 90
        0
280
     0
281
     0
  0
CLASS
  1
ACMDATUMSTANDARDJIS
  2
AcmDatumStdJIS
  3
"AcmSymBB|Product Description: AutoCAD Mechanical 2000|Company: Autodesk"
 90
        0
280
     0
281
     0
  0
CLASS
  1
ACMBOMSTANDARDJIS
  2
AcmBOMStdJIS
  3
"AcmSymBB|Product Description: AutoCAD Mechanical 2000|Company: Autodesk"
 90
        0
280
     0
281
     0
  0
CLASS
  1
ACMSTANDARDANSI
  2
AcmStandardANSI
  3
"AcmSymBB|Product Description: AutoCAD Mechanical 2000|Company: Autodesk"
 90
        0
280
     0
281
     0
  0
CLASS
  1
ACMSURFSTANDARDANSI
  2
AcmSurfTextStdANSI
  3
"AcmSymBB|Product Description: AutoCAD Mechanical 2000|Company: Autodesk"
 90
        0
280
     0
281
     0
  0
CLASS
  1
ACMFCFSTANDARDANSI
  2
AcmFCFStdANSI
  3
"AcmSymBB|Product Description: AutoCAD Mechanical 2000|Company: Autodesk"
 90
        0
280
     0
281
     0
  0
CLASS
  1
ACMWELDSTANDARDANSI
  2
AcmWeldingStdANSI
  3
"AcmSymBB|Product Description: AutoCAD Mechanical 2000|Company: Autodesk"
 90
        0
280
     0
281
     0
  0
CLASS
  1
ACMIDSTANDARDANSI
  2
AcmIdStdANSI
  3
"AcmSymBB|Product Description: AutoCAD Mechanical 2000|Company: Autodesk"
 90
        0
280
     0
281
     0
  0
CLASS
  1
ACMDATUMSTANDARDANSI
  2
AcmDatumStdANSI
  3
"AcmSymBB|Product Description: AutoCAD Mechanical 2000|Company: Autodesk"
 90
        0
280
     0
281
     0
  0
CLASS
  1
ACMBOMSTANDARDANSI
  2
AcmBOMStdANSI
  3
"AcmSymBB|Product Description: AutoCAD Mechanical 2000|Company: Autodesk"
 90
        0
280
     0
281
     0
  0
CLASS
  1
ACMSTANDARDBSI
  2
AcmStandardBSI
  3
"AcmSymBB|Product Description: AutoCAD Mechanical 2000|Company: Autodesk"
 90
        0
280
     0
281
     0
  0
CLASS
  1
ACMSURFSTANDARDBSI
  2
AcmSurfTextStdBSI
  3
"AcmSymBB|Product Description: AutoCAD Mechanical 2000|Company: Autodesk"
 90
        0
280
     0
281
     0
  0
CLASS
  1
ACMFCFSTANDARDBSI
  2
AcmFCFStdBSI
  3
"AcmSymBB|Product Description: AutoCAD Mechanical 2000|Company: Autodesk"
 90
        0
280
     0
281
     0
  0
CLASS
  1
ACMWELDSTANDARDBSI
  2
AcmWeldingStdBSI
  3
"AcmSymBB|Product Description: AutoCAD Mechanical 2000|Company: Autodesk"
 90
        0
280
     0
281
     0
  0
CLASS
  1
ACMIDSTANDARDBSI
  2
AcmIdStdBSI
  3
"AcmSymBB|Product Description: AutoCAD Mechanical 2000|Company: Autodesk"
 90
        0
280
     0
281
     0
  0
CLASS
  1
ACMDATUMSTANDARDBSI
  2
AcmDatumStdBSI
  3
"AcmSymBB|Product Description: AutoCAD Mechanical 2000|Company: Autodesk"
 90
        0
280
     0
281
     0
  0
CLASS
  1
ACMBOMSTANDARDBSI
  2
AcmBOMStdBSI
  3
"AcmSymBB|Product Description: AutoCAD Mechanical 2000|Company: Autodesk"
 90
        0
280
     0
281
     0
  0
CLASS
  1
LONG_TRANSACTION
  2
AcDbLongTransaction
  3
AutoCAD 2000
 90
        0
280
     0
281
     0
  0
CLASS
  1
LWPOLYLINE
  2
AcDbPolyline
  3
AutoCAD 2000
 90
        0
280
     0
281
     1
  0
CLASS
  1
HATCH
  2
AcDbHatch
  3
AutoCAD 2000
 90
        0
280
     0
281
     1
  0
CLASS
  1
XRECORD
  2
AcDbXrecord
  3
AutoCAD 2000
 90
        0
280
     0
281
     0
  0
ENDSEC
  0
SECTION
  2
TABLES
  0
TABLE
  2
VPORT
  5
8
330
0
100
AcDbSymbolTable
 70
     3
  0
VPORT
  5
461A
330
8
100
AcDbSymbolTableRecord
100
AcDbViewportTableRecord
  2
*ACTIVE
 70
     0
 10
0.0
 20
0.0
 11
1.0
 21
1.0
 12
-5.667468357411905
 22
-30.53414136267116
 13
0.0
 23
0.0
 14
2.5
 24
2.5
 15
10.0
 25
10.0
 16
0.0
 26
0.0
 36
1.0
 17
0.0
 27
0.0
 37
0.0
 40
169.7878287819989
 41
1.56570841889117
 42
50.0
 43
0.0
 44
0.0
 50
0.0
 51
0.0
 71
     0
 72
   100
 73
     1
 74
     3
 75
     0
 76
     0
 77
     0
 78
     0
  0
ENDTAB
  0
TABLE
  2
LTYPE
  5
5
330
0
100
AcDbSymbolTable
 70
    10
  0
LTYPE
  5
14
330
5
100
AcDbSymbolTableRecord
100
AcDbLinetypeTableRecord
  2
BYBLOCK
 70
     0
  3

 72
    65
 73
     0
 40
0.0
  0
LTYPE
  5
15
330
5
100
AcDbSymbolTableRecord
100
AcDbLinetypeTableRecord
  2
BYLAYER
 70
     0
  3

 72
    65
 73
     0
 40
0.0
  0
LTYPE
  5
16
330
5
100
AcDbSymbolTableRecord
100
AcDbLinetypeTableRecord
  2
CONTINUOUS
 70
     0
  3
Solid line
 72
    65
 73
     0
 40
0.0
  0
LTYPE
  5
4B
330
5
100
AcDbSymbolTableRecord
100
AcDbLinetypeTableRecord
  2
AM_ISO02W050
 70
     0
  3
__ __ __ __ __ __ __ __ __ __ __ __ __ __ __
 72
    65
 73
     2
 40
7.5
 49
6.0
 74
     0
 49
-1.5
 74
     0
  0
LTYPE
  5
4C
330
5
100
AcDbSymbolTableRecord
100
AcDbLinetypeTableRecord
  2
AM_ISO08W050
 70
     0
  3
____ . ____ . ____ . ____ . ____ . ____ . ____
 72
    65
 73
     4
 40
18.0
 49
12.0
 74
     0
 49
-1.5
 74
     0
 49
3.0
 74
     0
 49
-1.5
 74
     0
  0
LTYPE
  5
4D
330
5
100
AcDbSymbolTableRecord
100
AcDbLinetypeTableRecord
  2
AM_ISO09W050
 70
     0
  3
_____ . . _____ . . _____ . . ____ .. ____
 72
    65
 73
     6
 40
22.5
 49
12.0
 74
     0
 49
-1.5
 74
     0
 49
3.0
 74
     0
 49
-1.5
 74
     0
 49
3.0
 74
     0
 49
-1.5
 74
     0
  0
LTYPE
  5
4E
330
5
100
AcDbSymbolTableRecord
100
AcDbLinetypeTableRecord
  2
AMCONSTR
 70
     0
  3
_______________________
 72
    65
 73
     2
 40
9999.0
 49
9999.0
 74
     0
 49
0.0
 74
     0
  0
LTYPE
  5
4F
330
5
100
AcDbSymbolTableRecord
100
AcDbLinetypeTableRecord
  2
AM_ISO02W050X2
 70
     0
  3
 _ _ _ _ _ _ _ _ _ _ _ _
 72
    65
 73
     2
 40
3.75
 49
3.0
 74
     0
 49
-0.75
 74
     0
  0
LTYPE
  5
50
330
5
100
AcDbSymbolTableRecord
100
AcDbLinetypeTableRecord
  2
AM_ISO08W050X2
 70
     0
  3
__ . __ . __ . __ . __ . __
 72
    65
 73
     4
 40
9.0
 49
6.0
 74
     0
 49
-0.75
 74
     0
 49
1.5
 74
     0
 49
-0.75
 74
     0
  0
LTYPE
  5
53
330
5
100
AcDbSymbolTableRecord
100
AcDbLinetypeTableRecord
  2
AMZIGZAG
 70
     0
  3
/\/-/\/-/\/-/\/-/\/-/\/
 72
    65
 73
     2
 40
11.00009999999999
 49
0.0001
 74
     4
 75
   135
340
52
 46
0.04
 50
0.0
 44
0.0
 45
0.0
 49
-11.0
 74
     0
  0
LTYPE
  5
166
330
5
100
AcDbSymbolTableRecord
100
AcDbLinetypeTableRecord
  2
ACJISTGL
 70
     0
  3
_ _ _ _ _
 72
    65
 73
     2
 40
3.0
 49
2.0
 74
     0
 49
-1.0
 74
     0
  0
LTYPE
  5
26A
330
5
100
AcDbSymbolTableRecord
100
AcDbLinetypeTableRecord
  2
ACJISTGB
 70
     0
  3
__ . . __ . .
 72
    65
 73
     6
 40
9.0
 49
4.0
 74
     0
 49
-1.0
 74
     0
 49
1.0
 74
     0
 49
-1.0
 74
     0
 49
1.0
 74
     0
 49
-1.0
 74
     0
  0
ENDTAB
  0
TABLE
  2
LAYER
  5
2
330
0
100
AcDbSymbolTable
 70
     7
  0
LAYER
  5
10
330
2
100
AcDbSymbolTableRecord
100
AcDbLayerTableRecord
  2
0
 70
     0
 62
     7
  6
CONTINUOUS
  0
LAYER
  5
3F9
330
2
100
AcDbSymbolTableRecord
100
AcDbLayerTableRecord
  2
AM_0
 70
     0
 62
     7
  6
CONTINUOUS
  0
LAYER
  5
BD4
330
2
100
AcDbSymbolTableRecord
100
AcDbLayerTableRecord
  2
AM_11
 70
     0
 62
     3
  6
AM_ISO09W050
  0
LAYER
  5
BD5
330
2
100
AcDbSymbolTableRecord
100
AcDbLayerTableRecord
  2
AM_7
 70
     0
 62
     4
  6
AM_ISO08W050
  0
LAYER
  5
BD6
330
2
100
AcDbSymbolTableRecord
100
AcDbLayerTableRecord
  2
AM_5
 70
     0
 62
     3
  6
CONTINUOUS
  0
LAYER
  5
BD7
330
2
100
AcDbSymbolTableRecord
100
AcDbLayerTableRecord
  2
DEFPOINTS
 70
     0
 62
     7
  6
CONTINUOUS
  0
LAYER
  5
E59
330
2
100
AcDbSymbolTableRecord
100
AcDbLayerTableRecord
  2
AM_6
 70
     0
 62
     2
  6
CONTINUOUS
  0
ENDTAB
  0
TABLE
  2
STYLE
  5
3
330
0
100
AcDbSymbolTable
 70
     5
  0
STYLE
  5
11
330
3
100
AcDbSymbolTableRecord
100
AcDbTextStyleTableRecord
  2
STANDARD
 70
     0
 40
0.0
 41
1.0
 50
0.0
 71
     0
 42
2.5
  3
simplex.shx
  4
EXTFONT.SHX
  0
STYLE
  5
52
330
3
100
AcDbSymbolTableRecord
100
AcDbTextStyleTableRecord
  2

 70
     1
 40
0.0
 41
1.0
 50
0.0
 71
     0
 42
2.5
  3
ltypeshp.shx
  4

  0
STYLE
  5
6B
330
3
100
AcDbSymbolTableRecord
100
AcDbTextStyleTableRecord
  2
ASAMI
 70
     0
 40
0.0
 41
1.0
 50
0.0
 71
     0
 42
2.5
  3
simplex.shx
  4
EXTFONT.SHX
  0
STYLE
  5
262
330
3
100
AcDbSymbolTableRecord
100
AcDbTextStyleTableRecord
  2
ACJISTS
 70
     0
 40
1.0
 41
1.0
 50
0.0
 71
     0
 42
2.5
  3
simplex.shx
  4
bigfont.shx
  0
STYLE
  5
269
330
3
100
AcDbSymbolTableRecord
100
AcDbTextStyleTableRecord
  2
ACJISGDT
 70
     0
 40
0.0
 41
1.0
 50
0.0
 71
     0
 42
2.5
  3
amgdtans.shx
  4

  0
ENDTAB
  0
TABLE
  2
VIEW
  5
6
330
0
100
AcDbSymbolTable
 70
     0
  0
ENDTAB
  0
TABLE
  2
UCS
  5
7
330
0
100
AcDbSymbolTable
 70
     0
  0
ENDTAB
  0
TABLE
  2
APPID
  5
9
330
0
100
AcDbSymbolTable
 70
    12
  0
APPID
  5
12
330
9
100
AcDbSymbolTableRecord
100
AcDbRegAppTableRecord
  2
ACAD
 70
     0
  0
APPID
  5
30
330
9
100
AcDbSymbolTableRecord
100
AcDbRegAppTableRecord
  2
MCAD_NO_VIS
 70
     0
  0
APPID
  5
31
330
9
100
AcDbSymbolTableRecord
100
AcDbRegAppTableRecord
  2
ACAD_TEMP_GRAPHIC
 70
     0
  0
APPID
  5
2C2
330
9
100
AcDbSymbolTableRecord
100
AcDbRegAppTableRecord
  2
GENIUS_GENDTOL_13
 70
     0
  0
APPID
  5
339
330
9
100
AcDbSymbolTableRecord
100
AcDbRegAppTableRecord
  2
GENIUS_GENODEF_13
 70
     0
  0
APPID
  5
33A
330
9
100
AcDbSymbolTableRecord
100
AcDbRegAppTableRecord
  2
GENIUS_GENOBJ-N-RSBK_13
 70
     0
  0
APPID
  5
33B
330
9
100
AcDbSymbolTableRecord
100
AcDbRegAppTableRecord
  2
GENIUS_GENOBJ-N-LIB_13
 70
     0
  0
APPID
  5
33C
330
9
100
AcDbSymbolTableRecord
100
AcDbRegAppTableRecord
  2
GENIUS_GENSCALE_13
 70
     0
  0
APPID
  5
378
330
9
100
AcDbSymbolTableRecord
100
AcDbRegAppTableRecord
  2
GENIUS_GENDIMSH_14
 70
     0
  0
APPID
  5
BD8
330
9
100
AcDbSymbolTableRecord
100
AcDbRegAppTableRecord
  2
GENIUS_GENOBJ-N-CEN_13
 70
     0
  0
APPID
  5
BD9
330
9
100
AcDbSymbolTableRecord
100
AcDbRegAppTableRecord
  2
GENIUS_GENFIL_13
 70
     0
  0
APPID
  5
BDA
330
9
100
AcDbSymbolTableRecord
100
AcDbRegAppTableRecord
  2
GENIUS_GENOBJ-N-CHA_13
 70
     0
  0
ENDTAB
  0
TABLE
  2
DIMSTYLE
  5
A
330
0
100
AcDbSymbolTable
 70
     9
  0
DIMSTYLE
105
58
330
A
100
AcDbSymbolTableRecord
100
AcDbDimStyleTableRecord
  2
AM_JIS
 70
     0
  3

  4
"
  5
OPEN30
  6

  7

 40
1.0
 41
2.5
 42
1.0
 43
12.0
 44
1.0
 45
0.0
 46
0.0
 47
0.1
 48
0.1
140
3.2
141
0.0
142
0.0
143
0.0393701
144
1.0
145
0.0
146
0.71
147
1.5
 71
     0
 72
     0
 73
     0
 74
     0
 75
     0
 76
     0
 77
     3
 78
     8
170
     0
171
     2
172
     1
173
     0
174
     0
175
     0
176
   256
177
   256
178
     2
270
     2
271
     3
272
     3
273
     2
274
     2
340
6B
275
     0
280
     0
281
     0
282
     0
283
     0
284
     0
285
     0
286
     0
287
     3
288
     0
  0
DIMSTYLE
105
5F
330
A
100
AcDbSymbolTableRecord
100
AcDbDimStyleTableRecord
  2
AM_JIS$3
 70
     0
  3

  4
"
  5
OPEN30
  6

  7

 40
1.0
 41
2.5
 42
1.0
 43
10.0
 44
1.0
 45
0.0
 46
0.0
 47
0.1
 48
0.1
140
3.2
141
0.0
142
0.0
143
0.0393701
144
1.0
145
0.0
146
0.71
147
1.5
 71
     0
 72
     0
 73
     0
 74
     1
 75
     0
 76
     0
 77
     3
 78
     8
170
     0
171
     2
172
     0
173
     0
174
     0
175
     0
176
   256
177
   256
178
     2
270
     2
271
     2
272
     3
273
     2
274
     2
340
6B
275
     0
280
     0
281
     0
282
     0
283
     0
284
     0
285
     0
286
     0
287
     0
288
     1
  0
DIMSTYLE
105
60
330
A
100
AcDbSymbolTableRecord
100
AcDbDimStyleTableRecord
  2
AM_JIS$4
 70
     0
  3

  4
"
  5
OPEN30
  6

  7

 40
1.0
 41
2.5
 42
1.0
 43
10.0
 44
1.0
 45
0.0
 46
0.0
 47
0.1
 48
0.1
140
3.2
141
0.0
142
0.0
143
0.0393701
144
1.0
145
0.0
146
0.71
147
1.5
 71
     0
 72
     0
 73
     0
 74
     1
 75
     0
 76
     0
 77
     3
 78
     8
170
     0
171
     2
172
     0
173
     0
174
     0
175
     0
176
   256
177
   256
178
     2
270
     2
271
     2
272
     3
273
     2
274
     2
340
6B
275
     0
280
     0
281
     0
282
     0
283
     0
284
     0
285
     0
286
     0
287
     0
288
     1
  0
DIMSTYLE
105
61
330
A
100
AcDbSymbolTableRecord
100
AcDbDimStyleTableRecord
  2
AM_JIS$6
 70
     0
  3

  4
"
  5
OPEN30
  6

  7

 40
1.0
 41
2.5
 42
1.0
 43
10.0
 44
1.0
 45
0.0
 46
0.0
 47
0.1
 48
0.1
140
3.2
141
0.0
142
0.0
143
0.0393701
144
1.0
145
0.0
146
0.71
147
1.5
 71
     0
 72
     0
 73
     0
 74
     0
 75
     0
 76
     0
 77
     0
 78
     8
170
     0
171
     2
172
     1
173
     0
174
     0
175
     0
176
   256
177
   256
178
     2
270
     2
271
     2
272
     2
273
     2
274
     2
340
6B
275
     0
280
     0
281
     0
282
     0
283
     0
284
     0
285
     0
286
     0
287
     3
288
     0
  0
DIMSTYLE
105
62
330
A
100
AcDbSymbolTableRecord
100
AcDbDimStyleTableRecord
  2
AM_JIS$7
 70
     0
  3

  4
"
  5
OPEN30
  6

  7

 40
1.0
 41
2.5
 42
1.0
 43
10.0
 44
1.0
 45
0.0
 46
0.0
 47
0.1
 48
0.1
140
3.2
141
0.0
142
0.0
143
0.0393701
144
1.0
145
0.0
146
0.71
147
1.5
 71
     0
 72
     0
 73
     0
 74
     0
 75
     0
 76
     0
 77
     3
 78
     8
170
     0
171
     2
172
     1
173
     0
174
     0
175
     0
176
   256
177
   256
178
     2
270
     2
271
     2
272
     3
273
     2
274
     2
340
6B
275
     0
280
     0
281
     0
282
     0
283
     0
284
     0
285
     0
286
     0
287
     3
288
     0
  0
DIMSTYLE
105
63
330
A
100
AcDbSymbolTableRecord
100
AcDbDimStyleTableRecord
  2
AM_JIS$SF
 70
     0
  3

  4
"
  5
OPEN30
  6

  7

 40
1.0
 41
2.5
 42
1.0
 43
10.0
 44
1.0
 45
0.0
 46
0.0
 47
0.1
 48
0.1
140
3.2
141
0.0
142
0.0
143
0.0393701
144
1.0
145
0.0
146
0.71
147
1.5
 71
     0
 72
     0
 73
     0
 74
     0
 75
     1
 76
     1
 77
     3
 78
     8
170
     0
171
     2
172
     1
173
     0
174
     0
175
     0
176
   256
177
   256
178
     2
270
     2
271
     2
272
     2
273
     2
274
     2
340
6B
275
     0
280
     0
281
     0
282
     0
283
     0
284
     0
285
     0
286
     0
287
     3
288
     0
  0
DIMSTYLE
105
68
330
A
100
AcDbSymbolTableRecord
100
AcDbDimStyleTableRecord
  2
AM_JIS$SH
 70
     0
  3

  4
"
  5

  6
GENAXEH
  7
OPEN30
 40
1.0
 41
2.5
 42
1.0
 43
10.0
 44
1.0
 45
0.0
 46
0.0
 47
0.1
 48
0.1
140
3.2
141
0.0
142
0.0
143
0.0393701
144
2.0
145
0.0
146
0.71
147
1.5
 71
     0
 72
     0
 73
     0
 74
     0
 75
     1
 76
     1
 77
     3
 78
     8
170
     0
171
     2
172
     1
173
     1
174
     0
175
     0
176
   256
177
   256
178
     2
270
     2
271
     2
272
     2
273
     2
274
     2
340
6B
275
     0
280
     0
281
     0
282
     0
283
     0
284
     0
285
     0
286
     0
287
     3
288
     0
  0
DIMSTYLE
105
B34
102
{ACAD_REACTORS
330
44F6
102
}
330
A
100
AcDbSymbolTableRecord
100
AcDbDimStyleTableRecord
  2
AM_JIS$2
 70
     0
  3

  4
"
  5
OPEN30
  6

  7

 40
1.0
 41
2.5
 42
1.0
 43
12.0
 44
1.0
 45
0.0
 46
0.0
 47
0.1
 48
0.1
140
3.2
141
0.0
142
0.0
143
0.0393701
144
1.0
145
0.0
146
0.71
147
1.5
 71
     0
 72
     0
 73
     0
 74
     0
 75
     0
 76
     0
 77
     3
 78
     8
170
     0
171
     2
172
     1
173
     0
174
     0
175
     0
176
   256
177
   256
178
     2
270
     2
271
     3
272
     3
273
     2
274
     2
340
6B
275
     0
280
     0
281
     0
282
     0
283
     0
284
     0
285
     0
286
     0
287
     3
288
     0
  0
DIMSTYLE
105
1AB6
102
{ACAD_REACTORS
330
378E
330
39B0
330
3B59
330
3E27
330
3BE5
330
3A4E
330
3790
330
4304
102
}
330
A
100
AcDbSymbolTableRecord
100
AcDbDimStyleTableRecord
  2
AM_JIS$0
 70
     0
  3

  4
"
  5
OPEN30
  6

  7

 40
1.0
 41
2.5
 42
0.0
 43
10.0
 44
1.0
 45
0.0
 46
0.0
 47
0.1
 48
0.1000000001
140
3.799999999999999
141
0.0
142
0.0
143
0.0393701
144
1.0
145
0.0
146
0.71
147
1.5
 71
     0
 72
     0
 73
     0
 74
     0
 75
     0
 76
     0
 77
     3
 78
     1
170
     0
171
     2
172
     1
173
     0
174
     0
175
     0
176
     3
177
     3
178
     2
270
     2
271
     2
272
     2
273
     2
274
     2
340
11
275
     1
280
     0
281
     0
282
     0
283
     0
284
     8
285
     0
286
     0
287
     0
288
     0
  0
ENDTAB
  0
TABLE
  2
BLOCK_RECORD
  5
1
330
0
100
AcDbSymbolTable
 70
    14
  0
BLOCK_RECORD
  5
1F
102
{ACAD_XDICTIONARY
360
74
102
}
330
1
100
AcDbSymbolTableRecord
100
AcDbBlockTableRecord
  2
*MODEL_SPACE
  0
BLOCK_RECORD
  5
101
102
{ACAD_XDICTIONARY
360
4643
102
}
330
1
100
AcDbSymbolTableRecord
100
AcDbBlockTableRecord
  2
*PAPER_SPACE
  0
BLOCK_RECORD
  5
59
330
1
100
AcDbSymbolTableRecord
100
AcDbBlockTableRecord
  2
_OPEN30
  0
BLOCK_RECORD
  5
64
330
1
100
AcDbSymbolTableRecord
100
AcDbBlockTableRecord
  2
GENAXEH
  0
BLOCK_RECORD
  5
3791
330
1
100
AcDbSymbolTableRecord
100
AcDbBlockTableRecord
  2
*D5
  0
BLOCK_RECORD
  5
37AB
330
1
100
AcDbSymbolTableRecord
100
AcDbBlockTableRecord
  2
*D6
  0
BLOCK_RECORD
  5
39B1
330
1
100
AcDbSymbolTableRecord
100
AcDbBlockTableRecord
  2
*D7
  0
BLOCK_RECORD
  5
3A4F
330
1
100
AcDbSymbolTableRecord
100
AcDbBlockTableRecord
  2
*D8
  0
BLOCK_RECORD
  5
3B5A
330
1
100
AcDbSymbolTableRecord
100
AcDbBlockTableRecord
  2
*D9
  0
BLOCK_RECORD
  5
3BE6
330
1
100
AcDbSymbolTableRecord
100
AcDbBlockTableRecord
  2
*D10
  0
BLOCK_RECORD
  5
3E28
330
1
100
AcDbSymbolTableRecord
100
AcDbBlockTableRecord
  2
*D11
  0
BLOCK_RECORD
  5
4305
330
1
100
AcDbSymbolTableRecord
100
AcDbBlockTableRecord
  2
*D12
  0
BLOCK_RECORD
  5
44F7
330
1
100
AcDbSymbolTableRecord
100
AcDbBlockTableRecord
  2
*D13
  0
ENDTAB
  0
ENDSEC
  0
SECTION
  2
BLOCKS
  0
BLOCK
  5
20
330
1F
100
AcDbEntity
  8
0
100
AcDbBlockBegin
  2
*MODEL_SPACE
 70
     0
 10
0.0
 20
0.0
 30
0.0
  3
*MODEL_SPACE
  1

  0
ENDBLK
  5
21
330
1F
100
AcDbEntity
  8
0
100
AcDbBlockEnd
  0
BLOCK
  5
103
330
101
100
AcDbEntity
 67
     1
  8
0
100
AcDbBlockBegin
  2
*PAPER_SPACE
 70
     0
 10
0.0
 20
0.0
 30
0.0
  3
*PAPER_SPACE
  1

  0
ENDBLK
  5
104
330
101
100
AcDbEntity
 67
     1
  8
0
100
AcDbBlockEnd
  0
BLOCK
  5
5D
330
59
100
AcDbEntity
  8
0
100
AcDbBlockBegin
  2
_OPEN30
 70
     0
 10
0.0
 20
0.0
 30
0.0
  3
_OPEN30
  1

  0
LINE
  5
5A
330
59
100
AcDbEntity
  8
0
 62
     0
100
AcDbLine
 10
-1.0
 20
0.26794919
 30
0.0
 11
0.0
 21
0.0
 31
0.0
  0
LINE
  5
5B
330
59
100
AcDbEntity
  8
0
 62
     0
100
AcDbLine
 10
0.0
 20
0.0
 30
0.0
 11
-1.0
 21
-0.26794919
 31
0.0
  0
LINE
  5
5C
330
59
100
AcDbEntity
  8
0
 62
     0
100
AcDbLine
 10
0.0
 20
0.0
 30
0.0
 11
-1.0
 21
0.0
 31
0.0
  0
ENDBLK
  5
5E
330
59
100
AcDbEntity
  8
0
100
AcDbBlockEnd
  0
BLOCK
  5
66
330
64
100
AcDbEntity
  8
0
100
AcDbBlockBegin
  2
GENAXEH
 70
     0
 10
0.0
 20
0.0
 30
0.0
  3
GENAXEH
  1

  0
LINE
  5
65
330
64
100
AcDbEntity
  8
0
100
AcDbLine
 10
-1.0
 20
0.0
 30
0.0
 11
1.0
 21
0.0
 31
0.0
  0
ENDBLK
  5
67
330
64
100
AcDbEntity
  8
0
100
AcDbBlockEnd
  0
BLOCK
  5
379D
330
3791
100
AcDbEntity
  8
0
100
AcDbBlockBegin
  2
*D5
 70
     1
 10
0.0
 20
0.0
 30
0.0
  3
*D5
  1

  0
LINE
  5
4645
330
3791
100
AcDbEntity
  8
AM_5
100
AcDbLine
 10
-49.69982353061664
 20
6.349999999999994
 30
0.0
 11
-62.69989319516651
 21
6.349999999999998
 31
0.0
  0
LINE
  5
4646
330
3791
100
AcDbEntity
  8
AM_5
100
AcDbLine
 10
-49.69982353061664
 20
-6.349999999999994
 30
0.0
 11
-62.69989319516651
 21
-6.349999999999989
 31
0.0
  0
LINE
  5
4647
330
3791
100
AcDbEntity
  8
AM_5
100
AcDbLine
 10
-61.69989319516651
 20
3.849999999999998
 30
0.0
 11
-61.69989319516651
 21
-3.84999999999999
 31
0.0
  0
MTEXT
  5
4648
330
3791
100
AcDbEntity
  8
AM_5
 62
     2
100
AcDbMText
 10
-64.87248630257067
 20
0.2255046377527776
 30
0.0
 40
3.2
 41
0.0
 71
     5
 72
     1
  1
12.7
  7
ASAMI
 11
0.0000000000000001
 21
1.0
 31
0.0
  0
INSERT
  5
4649
330
3791
100
AcDbEntity
  8
AM_5
100
AcDbBlockReference
  2
_OPEN30
 10
-61.69989319516651
 20
6.349999999999997
 30
0.0
 41
2.5
 42
2.5
 43
2.5
 50
90.0
  0
INSERT
  5
464A
330
3791
100
AcDbEntity
  8
AM_5
100
AcDbBlockReference
  2
_OPEN30
 10
-61.69989319516651
 20
-6.34999999999999
 30
0.0
 41
2.5
 42
2.5
 43
2.5
 50
270.0
  0
POINT
  5
464B
330
3791
100
AcDbEntity
  8
DEFPOINTS
 62
     0
100
AcDbPoint
 10
-48.69982353061664
 20
6.349999999999994
 30
0.0
  0
POINT
  5
464C
330
3791
100
AcDbEntity
  8
DEFPOINTS
 62
     0
100
AcDbPoint
 10
-48.69982353061664
 20
-6.349999999999994
 30
0.0
  0
POINT
  5
464D
330
3791
100
AcDbEntity
  8
DEFPOINTS
 62
     0
100
AcDbPoint
 10
-61.69989319516651
 20
-6.34999999999999
 30
0.0
  0
ENDBLK
  5
379E
330
3791
100
AcDbEntity
  8
0
100
AcDbBlockEnd
  0
BLOCK
  5
37B5
330
37AB
100
AcDbEntity
  8
0
100
AcDbBlockBegin
  2
*D6
 70
     1
 10
0.0
 20
0.0
 30
0.0
  3
*D6
  1

  0
LINE
  5
464E
330
37AB
100
AcDbEntity
  8
AM_5
100
AcDbLine
 10
-48.19982274582537
 20
34.99999999999989
 30
0.0
 11
-87.03383179379663
 21
34.9999999999999
 31
0.0
  0
LINE
  5
464F
330
37AB
100
AcDbEntity
  8
AM_5
100
AcDbLine
 10
-48.1998227458254
 20
-34.99999999999988
 30
0.0
 11
-87.03383179379667
 21
-34.99999999999987
 31
0.0
  0
LINE
  5
4650
330
37AB
100
AcDbEntity
  8
AM_5
100
AcDbLine
 10
-86.03383179379664
 20
32.4999999999999
 30
0.0
 11
-86.03383179379667
 21
-32.49999999999987
 31
0.0
  0
INSERT
  5
4651
330
37AB
100
AcDbEntity
  8
AM_5
100
AcDbBlockReference
  2
_OPEN30
 10
-86.03383179379664
 20
34.9999999999999
 30
0.0
 41
2.5
 42
2.5
 43
2.5
 50
90.0
  0
INSERT
  5
4652
330
37AB
100
AcDbEntity
  8
AM_5
100
AcDbBlockReference
  2
_OPEN30
 10
-86.03383179379667
 20
-34.99999999999987
 30
0.0
 41
2.5
 42
2.5
 43
2.5
 50
270.0
  0
MTEXT
  5
4653
330
37AB
100
AcDbEntity
  8
AM_5
 62
     2
100
AcDbMText
 10
-89.13383179379664
 20
-0.0000000000000015
 30
0.0
 40
3.2
 41
0.0
 71
     5
 72
     1
  1
%%c70
  7
ASAMI
 11
0.0000000000000001
 21
1.0
 31
0.0
  0
POINT
  5
4654
330
37AB
100
AcDbEntity
  8
DEFPOINTS
 62
     0
100
AcDbPoint
 10
-47.19982274582537
 20
34.99999999999988
 30
0.0
  0
POINT
  5
4655
330
37AB
100
AcDbEntity
  8
DEFPOINTS
 62
     0
100
AcDbPoint
 10
-47.1998227458254
 20
-34.99999999999988
 30
0.0
  0
POINT
  5
4656
330
37AB
100
AcDbEntity
  8
DEFPOINTS
 62
     0
100
AcDbPoint
 10
-86.03383179379667
 20
-34.99999999999987
 30
0.0
  0
ENDBLK
  5
37B6
330
37AB
100
AcDbEntity
  8
0
100
AcDbBlockEnd
  0
BLOCK
  5
39BB
330
39B1
100
AcDbEntity
  8
0
100
AcDbBlockBegin
  2
*D7
 70
     1
 10
0.0
 20
0.0
 30
0.0
  3
*D7
  1

  0
LINE
  5
4657
330
39B1
100
AcDbEntity
  8
AM_5
100
AcDbLine
 10
-49.99999999999947
 20
-33.50000000000004
 30
0.0
 11
-49.99999999999947
 21
-75.01668626107418
 31
0.0
  0
LINE
  5
4658
330
39B1
100
AcDbEntity
  8
AM_5
100
AcDbLine
 10
-17.9999999999998
 20
-24.0
 30
0.0
 11
-17.9999999999998
 21
-75.01668626107418
 31
0.0
  0
LINE
  5
4659
330
39B1
100
AcDbEntity
  8
AM_5
100
AcDbLine
 10
-47.49999999999947
 20
-74.01668626107419
 30
0.0
 11
-20.4999999999998
 21
-74.01668626107419
 31
0.0
  0
INSERT
  5
465A
330
39B1
100
AcDbEntity
  8
AM_5
100
AcDbBlockReference
  2
_OPEN30
 10
-49.99999999999947
 20
-74.01668626107419
 30
0.0
 41
2.5
 42
2.5
 43
2.5
 50
180.0
  0
INSERT
  5
465B
330
39B1
100
AcDbEntity
  8
AM_5
100
AcDbBlockReference
  2
_OPEN30
 10
-17.9999999999998
 20
-74.01668626107419
 30
0.0
 41
2.5
 42
2.5
 43
2.5
  0
MTEXT
  5
465C
330
39B1
100
AcDbEntity
  8
AM_5
 62
     2
100
AcDbMText
 10
-33.99999999999963
 20
-70.91668626107419
 30
0.0
 40
3.2
 41
0.0
 71
     5
 72
     1
  1
32
  7
ASAMI
  0
POINT
  5
465D
330
39B1
100
AcDbEntity
  8
DEFPOINTS
 62
     0
100
AcDbPoint
 10
-49.99999999999947
 20
-32.50000000000005
 30
0.0
  0
POINT
  5
465E
330
39B1
100
AcDbEntity
  8
DEFPOINTS
 62
     0
100
AcDbPoint
 10
-17.9999999999998
 20
-23.0
 30
0.0
  0
POINT
  5
465F
330
39B1
100
AcDbEntity
  8
DEFPOINTS
 62
     0
100
AcDbPoint
 10
-17.9999999999998
 20
-74.01668626107419
 30
0.0
  0
ENDBLK
  5
39BC
330
39B1
100
AcDbEntity
  8
0
100
AcDbBlockEnd
  0
BLOCK
  5
3A59
330
3A4F
100
AcDbEntity
  8
0
100
AcDbBlockBegin
  2
*D8
 70
     1
 10
0.0
 20
0.0
 30
0.0
  3
*D8
  1

  0
LINE
  5
4660
330
3A4F
100
AcDbEntity
  8
AM_5
100
AcDbLine
 10
1.0
 20
50.0
 30
0.0
 11
35.01666337289019
 21
50.0
 31
0.0
  0
LINE
  5
4661
330
3A4F
100
AcDbEntity
  8
AM_5
100
AcDbLine
 10
1.0
 20
-50.0
 30
0.0
 11
35.01666337289016
 21
-50.0
 31
0.0
  0
LINE
  5
4662
330
3A4F
100
AcDbEntity
  8
AM_5
100
AcDbLine
 10
34.01666337289018
 20
47.49999999999999
 30
0.0
 11
34.01666337289017
 21
-47.5
 31
0.0
  0
INSERT
  5
4663
330
3A4F
100
AcDbEntity
  8
AM_5
100
AcDbBlockReference
  2
_OPEN30
 10
34.01666337289019
 20
50.0
 30
0.0
 41
2.5
 42
2.5
 43
2.5
 50
90.0
  0
INSERT
  5
4664
330
3A4F
100
AcDbEntity
  8
AM_5
100
AcDbBlockReference
  2
_OPEN30
 10
34.01666337289016
 20
-50.0
 30
0.0
 41
2.5
 42
2.5
 43
2.5
 50
270.0
  0
MTEXT
  5
4665
330
3A4F
100
AcDbEntity
  8
AM_5
 62
     2
100
AcDbMText
 10
30.91666337289018
 20
0.0000000000000018
 30
0.0
 40
3.2
 41
0.0
 71
     5
 72
     1
  1
%%c100
  7
ASAMI
 11
0.0000000000000001
 21
1.0
 31
0.0
  0
POINT
  5
4666
330
3A4F
100
AcDbEntity
  8
DEFPOINTS
 62
     0
100
AcDbPoint
 10
0.0
 20
50.0
 30
0.0
  0
POINT
  5
4667
330
3A4F
100
AcDbEntity
  8
DEFPOINTS
 62
     0
100
AcDbPoint
 10
0.0
 20
-50.0
 30
0.0
  0
POINT
  5
4668
330
3A4F
100
AcDbEntity
  8
DEFPOINTS
 62
     0
100
AcDbPoint
 10
34.01666337289016
 20
-50.0
 30
0.0
  0
ENDBLK
  5
3A5A
330
3A4F
100
AcDbEntity
  8
0
100
AcDbBlockEnd
  0
BLOCK
  5
3B64
330
3B5A
100
AcDbEntity
  8
0
100
AcDbBlockBegin
  2
*D9
 70
     1
 10
0.0
 20
0.0
 30
0.0
  3
*D9
  1

  0
LINE
  5
4669
330
3B5A
100
AcDbEntity
  8
AM_5
100
AcDbLine
 10
-49.99999999999947
 20
-33.50000000000004
 30
0.0
 11
-49.99999999999947
 21
-85.01668626107415
 31
0.0
  0
LINE
  5
466A
330
3B5A
100
AcDbEntity
  8
AM_5
100
AcDbLine
 10
-0.0000000000000001
 20
-50.99999999999999
 30
0.0
 11
-0.0000000000000021
 21
-85.01668626107415
 31
0.0
  0
LINE
  5
466B
330
3B5A
100
AcDbEntity
  8
AM_5
100
AcDbLine
 10
-47.49999999999947
 20
-84.01668626107413
 30
0.0
 11
-2.500000000000002
 21
-84.01668626107413
 31
0.0
  0
INSERT
  5
466C
330
3B5A
100
AcDbEntity
  8
AM_5
100
AcDbBlockReference
  2
_OPEN30
 10
-49.99999999999947
 20
-84.01668626107413
 30
0.0
 41
2.5
 42
2.5
 43
2.5
 50
180.0
  0
INSERT
  5
466D
330
3B5A
100
AcDbEntity
  8
AM_5
100
AcDbBlockReference
  2
_OPEN30
 10
-0.0000000000000021
 20
-84.01668626107413
 30
0.0
 41
2.5
 42
2.5
 43
2.5
  0
MTEXT
  5
466E
330
3B5A
100
AcDbEntity
  8
AM_5
 62
     2
100
AcDbMText
 10
-24.99999999999973
 20
-80.91668626107415
 30
0.0
 40
3.2
 41
0.0
 71
     5
 72
     1
  1
50
  7
ASAMI
  0
POINT
  5
466F
330
3B5A
100
AcDbEntity
  8
DEFPOINTS
 62
     0
100
AcDbPoint
 10
-49.99999999999947
 20
-32.50000000000005
 30
0.0
  0
POINT
  5
4670
330
3B5A
100
AcDbEntity
  8
DEFPOINTS
 62
     0
100
AcDbPoint
 10
0.0
 20
-50.0
 30
0.0
  0
POINT
  5
4671
330
3B5A
100
AcDbEntity
  8
DEFPOINTS
 62
     0
100
AcDbPoint
 10
-0.0000000000000021
 20
-84.01668626107413
 30
0.0
  0
ENDBLK
  5
3B65
330
3B5A
100
AcDbEntity
  8
0
100
AcDbBlockEnd
  0
BLOCK
  5
3BF0
330
3BE6
100
AcDbEntity
  8
0
100
AcDbBlockBegin
  2
*D10
 70
     1
 10
0.0
 20
0.0
 30
0.0
  3
*D10
  1

  0
LINE
  5
4672
330
3BE6
100
AcDbEntity
  8
AM_5
100
AcDbLine
 10
-7.890849836773654
 20
22.99999999999999
 30
0.0
 11
21.41581824691655
 21
22.99999999999998
 31
0.0
  0
LINE
  5
4673
330
3BE6
100
AcDbEntity
  8
AM_5
100
AcDbLine
 10
-7.890849836773625
 20
-23.00000000000014
 30
0.0
 11
21.41581824691655
 21
-23.00000000000015
 31
0.0
  0
LINE
  5
4674
330
3BE6
100
AcDbEntity
  8
AM_5
100
AcDbLine
 10
20.41581824691655
 20
20.49999999999998
 30
0.0
 11
20.41581824691655
 21
-20.50000000000015
 31
0.0
  0
INSERT
  5
4675
330
3BE6
100
AcDbEntity
  8
AM_5
100
AcDbBlockReference
  2
_OPEN30
 10
20.41581824691655
 20
22.99999999999998
 30
0.0
 41
2.5
 42
2.5
 43
2.5
 50
90.0
  0
INSERT
  5
4676
330
3BE6
100
AcDbEntity
  8
AM_5
100
AcDbBlockReference
  2
_OPEN30
 10
20.41581824691655
 20
-23.00000000000015
 30
0.0
 41
2.5
 42
2.5
 43
2.5
 50
270.0
  0
MTEXT
  5
4677
330
3BE6
100
AcDbEntity
  8
AM_5
 62
     2
100
AcDbMText
 10
17.31581824691655
 20
-0.000000000000079
 30
0.0
 40
3.2
 41
0.0
 71
     5
 72
     1
  1
%%c46
  7
ASAMI
 11
0.0000000000000001
 21
1.0
 31
0.0
  0
POINT
  5
4678
330
3BE6
100
AcDbEntity
  8
DEFPOINTS
 62
     0
100
AcDbPoint
 10
-8.890849836773654
 20
23.0
 30
0.0
  0
POINT
  5
4679
330
3BE6
100
AcDbEntity
  8
DEFPOINTS
 62
     0
100
AcDbPoint
 10
-8.890849836773625
 20
-23.00000000000014
 30
0.0
  0
POINT
  5
467A
330
3BE6
100
AcDbEntity
  8
DEFPOINTS
 62
     0
100
AcDbPoint
 10
20.41581824691655
 20
-23.00000000000015
 30
0.0
  0
ENDBLK
  5
3BF1
330
3BE6
100
AcDbEntity
  8
0
100
AcDbBlockEnd
  0
BLOCK
  5
3E33
330
3E28
100
AcDbEntity
  8
0
100
AcDbBlockBegin
  2
*D11
 70
     1
 10
0.0
 20
0.0
 30
0.0
  3
*D11
  1

  0
LINE
  5
467B
330
3E28
100
AcDbEntity
  8
AM_5
100
AcDbLine
 10
-49.9999999999995
 20
-33.50000000000004
 30
0.0
 11
-49.9999999999995
 21
-65.01668626107423
 31
0.0
  0
LINE
  5
467C
330
3E28
100
AcDbEntity
  8
AM_5
100
AcDbLine
 10
-41.99999999999983
 20
-7.349999999999992
 30
0.0
 11
-41.99999999999984
 21
-65.01668626107423
 31
0.0
  0
LINE
  5
467D
330
3E28
100
AcDbEntity
  8
AM_5
100
AcDbLine
 10
-52.4999999999995
 20
-64.01668626107422
 30
0.0
 11
-54.9999999999995
 21
-64.01668626107422
 31
0.0
  0
LINE
  5
467E
330
3E28
100
AcDbEntity
  8
AM_5
100
AcDbLine
 10
-39.49999999999983
 20
-64.01668626107422
 30
0.0
 11
-36.99999999999983
 21
-64.01668626107422
 31
0.0
  0
LINE
  5
467F
330
3E28
100
AcDbEntity
  8
AM_5
100
AcDbLine
 10
-49.9999999999995
 20
-64.01668626107422
 30
0.0
 11
-41.99999999999983
 21
-64.01668626107422
 31
0.0
  0
INSERT
  5
4680
330
3E28
100
AcDbEntity
  8
AM_5
100
AcDbBlockReference
  2
_OPEN30
 10
-49.9999999999995
 20
-64.01668626107422
 30
0.0
 41
2.5
 42
2.5
 43
2.5
  0
INSERT
  5
4681
330
3E28
100
AcDbEntity
  8
AM_5
100
AcDbBlockReference
  2
_OPEN30
 10
-41.99999999999983
 20
-64.01668626107422
 30
0.0
 41
2.5
 42
2.5
 43
2.5
 50
180.0
  0
MTEXT
  5
4682
330
3E28
100
AcDbEntity
  8
AM_5
 62
     2
100
AcDbMText
 10
-45.99999999999965
 20
-60.91668626107423
 30
0.0
 40
3.2
 41
0.0
 71
     5
 72
     1
  1
8
  7
ASAMI
  0
POINT
  5
4683
330
3E28
100
AcDbEntity
  8
DEFPOINTS
 62
     0
100
AcDbPoint
 10
-49.9999999999995
 20
-32.50000000000005
 30
0.0
  0
POINT
  5
4684
330
3E28
100
AcDbEntity
  8
DEFPOINTS
 62
     0
100
AcDbPoint
 10
-41.99999999999983
 20
-6.349999999999992
 30
0.0
  0
POINT
  5
4685
330
3E28
100
AcDbEntity
  8
DEFPOINTS
 62
     0
100
AcDbPoint
 10
-41.99999999999983
 20
-64.01668626107422
 30
0.0
  0
ENDBLK
  5
3E34
330
3E28
100
AcDbEntity
  8
0
100
AcDbBlockEnd
  0
BLOCK
  5
430F
330
4305
100
AcDbEntity
  8
0
100
AcDbBlockBegin
  2
*D12
 70
     1
 10
0.0
 20
0.0
 30
0.0
  3
*D12
  1

  0
LINE
  5
4686
330
4305
100
AcDbEntity
  8
AM_5
100
AcDbLine
 10
-49.49982353061665
 20
15.875
 30
0.0
 11
-77.03383179379662
 21
15.87500000000001
 31
0.0
  0
LINE
  5
4687
330
4305
100
AcDbEntity
  8
AM_5
100
AcDbLine
 10
-49.49982353061663
 20
-15.87499999999997
 30
0.0
 11
-77.03383179379662
 21
-15.87499999999996
 31
0.0
  0
LINE
  5
4688
330
4305
100
AcDbEntity
  8
AM_5
100
AcDbLine
 10
-76.03383179379662
 20
13.37500000000001
 30
0.0
 11
-76.03383179379662
 21
-13.37499999999997
 31
0.0
  0
INSERT
  5
4689
330
4305
100
AcDbEntity
  8
AM_5
100
AcDbBlockReference
  2
_OPEN30
 10
-76.03383179379662
 20
15.87500000000001
 30
0.0
 41
2.5
 42
2.5
 43
2.5
 50
90.0
  0
INSERT
  5
468A
330
4305
100
AcDbEntity
  8
AM_5
100
AcDbBlockReference
  2
_OPEN30
 10
-76.03383179379662
 20
-15.87499999999996
 30
0.0
 41
2.5
 42
2.5
 43
2.5
 50
270.0
  0
MTEXT
  5
468B
330
4305
100
AcDbEntity
  8
AM_5
 62
     2
100
AcDbMText
 10
-79.13383179379661
 20
0.0000000000000068
 30
0.0
 40
3.2
 41
0.0
 71
     5
 72
     1
  1
%%c31.75
  7
ASAMI
 11
0.0000000000000001
 21
1.0
 31
0.0
  0
POINT
  5
468C
330
4305
100
AcDbEntity
  8
DEFPOINTS
 62
     0
100
AcDbPoint
 10
-48.49982353061665
 20
15.875
 30
0.0
  0
POINT
  5
468D
330
4305
100
AcDbEntity
  8
DEFPOINTS
 62
     0
100
AcDbPoint
 10
-48.49982353061663
 20
-15.87499999999997
 30
0.0
  0
POINT
  5
468E
330
4305
100
AcDbEntity
  8
DEFPOINTS
 62
     0
100
AcDbPoint
 10
-76.03383179379662
 20
-15.87499999999996
 30
0.0
  0
ENDBLK
  5
4310
330
4305
100
AcDbEntity
  8
0
100
AcDbBlockEnd
  0
BLOCK
  5
4506
330
44F7
100
AcDbEntity
  8
0
100
AcDbBlockBegin
  2
*D13
 70
     1
 10
0.0
 20
0.0
 30
0.0
  3
*D13
  1

  0
LINE
  5
45BA
330
44F7
100
AcDbEntity
  8
AM_5
100
AcDbLine
 10
0.0
 20
-50.99999999999998
 30
0.0
 11
-0.0000000000000071
 21
-85.04377456268702
 31
0.0
  0
LINE
  5
45BB
330
44F7
100
AcDbEntity
  8
AM_5
100
AcDbLine
 10
1.000000000000007
 20
-49.99999999999999
 30
0.0
 11
35.04377456268704
 21
-49.99999999999981
 31
0.0
  0
ARC
  5
45BC
330
44F7
100
AcDbEntity
  8
AM_5
100
AcDbCircle
 10
0.0
 20
-49.99999999999999
 30
0.0
 40
34.04377456268704
100
AcDbArc
 50
274.2084538318509
 51
355.7915461681492
  0
INSERT
  5
45BD
330
44F7
100
AcDbEntity
  8
AM_5
100
AcDbBlockReference
  2
_OPEN30
 10
-0.0000000000000071
 20
-84.04377456268703
 30
0.0
 41
2.5
 42
2.5
 43
2.5
 50
182.1042269159254
  0
INSERT
  5
45BE
330
44F7
100
AcDbEntity
  8
AM_5
100
AcDbBlockReference
  2
_OPEN30
 10
34.04377456268704
 20
-49.99999999999981
 30
0.0
 41
2.5
 42
2.5
 43
2.5
 50
87.89577308407478
  0
MTEXT
  5
45BF
330
44F7
100
AcDbEntity
  8
AM_5
 62
     2
100
AcDbMText
 10
21.88055282878386
 20
-71.88055282878373
 30
0.0
 40
3.2
 41
0.0
 71
     5
 72
     1
  1
90°
  7
ASAMI
 11
0.7071067811865476
 21
0.7071067811865475
 31
0.0
1001
ACAD
1000
MTEXTBEGIN
1070
    73
1070
     1
1070
    44
1040
1.0
1070
    74
1070
     0
1000
MTEXTEND
  0
POINT
  5
45C0
330
44F7
100
AcDbEntity
  8
DEFPOINTS
 62
     0
100
AcDbPoint
 10
17.02188728134358
 20
-79.4827736119974
 30
0.0
  0
POINT
  5
45C1
330
44F7
100
AcDbEntity
  8
DEFPOINTS
 62
     0
100
AcDbPoint
 10
0.0
 20
-49.99999999999999
 30
0.0
  0
POINT
  5
45C2
330
44F7
100
AcDbEntity
  8
DEFPOINTS
 62
     0
100
AcDbPoint
 10
-0.9633100113336432
 20
-49.99999999999999
 30
0.0
  0
POINT
  5
45C3
330
44F7
100
AcDbEntity
  8
DEFPOINTS
 62
     0
100
AcDbPoint
 10
0.0000000000000036
 20
-49.99999999999999
 30
0.0
  0
POINT
  5
45C4
330
44F7
100
AcDbEntity
  8
DEFPOINTS
 62
     0
100
AcDbPoint
 10
0.0000000000000036
 20
50.0
 30
0.0
  0
ENDBLK
  5
4507
330
44F7
100
AcDbEntity
  8
0
100
AcDbBlockEnd
  0
ENDSEC
  0
SECTION
  2
ENTITIES
  0
TEXT
  5
E5A
330
1F
100
AcDbEntity
  8
AM_6
100
AcDbText
 10
-43.57134033673639
 20
-106.5166862610741
 30
0.0
 40
5.0
  1
WFM4100R
 72
     4
 11
-24.99991176530781
 21
-104.0166862610741
 31
0.0
100
AcDbText
  0
SPLINE
  5
33F5
330
1F
100
AcDbEntity
  8
AM_0
  6
CONTINUOUS
 48
0.5
100
AcDbSpline
210
0.0
220
0.0
230
1.0
 70
     8
 71
     3
 72
    11
 73
     7
 74
     5
 42
0.0000000001
 43
0.0000000001
 44
0.0000000001
 40
0.0
 40
0.0
 40
0.0
 40
0.0
 40
0.4940863002727843
 40
0.9256695078865037
 40
1.358910671728066
 40
1.857438427373256
 40
1.857438427373256
 40
1.857438427373256
 40
1.857438427373256
 10
-9.652008056641008
 20
48.52448272705101
 30
0.0
 10
-9.8161777430937
 20
48.49854941030834
 30
0.0
 10
-10.1237492600223
 20
48.44996340309908
 30
0.0
 10
-10.51543398445306
 20
48.19518150132765
 30
0.0
 10
-10.77315874250423
 20
47.80402503388001
 30
0.0
 10
-10.82614353753275
 20
47.49521693551797
 30
0.0
 10
-10.8544921875
 20
47.32999420166001
 30
0.0
 11
-9.652008056641008
 21
48.52448272705101
 31
0.0
 11
-10.132904052735
 21
48.411079406738
 31
0.0
 11
-10.493591308594
 21
48.17407989501899
 31
0.0
 11
-10.734191894532
 21
47.81378936767601
 31
0.0
 11
-10.8544921875
 21
47.32999420166001
 31
0.0
  0
SPLINE
  5
33F6
330
1F
100
AcDbEntity
  8
AM_0
  6
CONTINUOUS
 48
0.5
100
AcDbSpline
210
0.0
220
0.0
230
1.0
 70
     8
 71
     3
 72
    11
 73
     7
 74
     5
 42
0.0000000001
 43
0.0000000001
 44
0.0000000001
 40
0.0
 40
0.0
 40
0.0
 40
0.0
 40
1.312524410713342
 40
2.626787439301718
 40
3.943025597008688
 40
5.261354676253517
 40
5.261354676253517
 40
5.261354676253517
 40
5.261354676253517
 10
-12.17660522461
 20
48.995002746582
 30
0.0
 10
-12.18991711076407
 20
48.55769164064488
 30
0.0
 10
-12.21655851648387
 20
47.68249015047339
 30
0.0
 10
-12.23698831844203
 20
46.36826882720019
 30
0.0
 10
-12.24436333567924
 20
45.05197429963405
 30
0.0
 10
-12.23618073102563
 20
44.17381217029314
 30
0.0
 10
-12.232086181641
 20
43.73438262939399
 30
0.0
 11
-12.17660522461
 21
48.995002746582
 31
0.0
 11
-12.213287353516
 21
47.682991027832
 31
0.0
 11
-12.234802246094
 21
46.36890411376898
 31
0.0
 11
-12.24108886718799
 21
45.05268096923799
 31
0.0
 11
-12.232086181641
 21
43.73438262939399
 31
0.0
  0
SPLINE
  5
33F7
330
1F
100
AcDbEntity
  8
AM_0
  6
CONTINUOUS
 48
0.5
100
AcDbSpline
210
0.0
220
0.0
230
1.0
 70
     8
 71
     3
 72
    11
 73
     7
 74
     5
 42
0.0000000001
 43
0.0000000001
 44
0.0000000001
 40
0.0
 40
0.0
 40
0.0
 40
0.0
 40
1.319030967183264
 40
2.635849098312078
 40
3.950811945591945
 40
5.263915963898323
 40
5.263915963898323
 40
5.263915963898323
 40
5.263915963898323
 10
-12.379699707032
 20
43.73419952392601
 30
0.0
 10
-12.38380151121745
 20
44.17386311167987
 30
0.0
 10
-12.39199823830928
 20
45.05245269765179
 30
0.0
 10
-12.38451580647625
 20
46.36940662007982
 30
0.0
 10
-12.36430933667794
 20
47.6842512953649
 30
0.0
 10
-12.33763702561664
 20
48.55987895375108
 30
0.0
 10
-12.324310302735
 20
48.99738311767601
 30
0.0
 11
-12.379699707032
 21
43.73419952392601
 31
0.0
 11
-12.38870239257799
 21
45.05319976806601
 31
0.0
 11
-12.382385253907
 21
46.370002746582
 31
0.0
 11
-12.360992431641
 21
47.68479156494101
 31
0.0
 11
-12.324310302735
 21
48.99738311767601
 31
0.0
  0
SPLINE
  5
33F8
330
1F
100
AcDbEntity
  8
AM_0
  6
CONTINUOUS
 48
0.5
100
AcDbSpline
210
0.0
220
0.0
230
1.0
 70
     8
 71
     3
 72
    11
 73
     7
 74
     5
 42
0.0000000001
 43
0.0000000001
 44
0.0000000001
 40
0.0
 40
0.0
 40
0.0
 40
0.0
 40
0.1166291365621147
 40
0.2344762210319355
 40
0.3514008359189205
 40
0.4680079268838559
 40
0.4680079268838559
 40
0.4680079268838559
 40
0.4680079268838559
 10
-11.00588989257799
 20
48.66880035400399
 30
0.0
 10
-11.03256034553049
 20
48.64039672829917
 30
0.0
 10
-11.08617976865108
 20
48.58329286030194
 30
0.0
 10
-11.14901044761644
 20
48.48388420594549
 30
0.0
 10
-11.19657777865152
 20
48.37539700250243
 30
0.0
 10
-11.20532074157002
 20
48.29762821570473
 30
0.0
 10
-11.209686279297
 20
48.25879669189399
 30
0.0
 11
-11.00588989257799
 21
48.66880035400399
 31
0.0
 11
-11.0830078125
 21
48.58130645751899
 31
0.0
 11
-11.14660644531299
 21
48.48209381103501
 31
0.0
 11
-11.190887451172
 21
48.37387847900399
 31
0.0
 11
-11.209686279297
 21
48.25879669189399
 31
0.0
  0
SPLINE
  5
33F9
330
1F
100
AcDbEntity
  8
AM_0
  6
CONTINUOUS
 48
0.5
100
AcDbSpline
210
0.0
220
0.0
230
1.0
 70
     8
 71
     3
 72
    11
 73
     7
 74
     5
 42
0.0000000001
 43
0.0000000001
 44
0.0000000001
 40
0.0
 40
0.0
 40
0.0
 40
0.0
 40
0.4944579053871364
 40
0.9204442433080039
 40
1.344604443192952
 40
1.834596542147046
 40
1.834596542147046
 40
1.834596542147046
 40
1.834596542147046
 10
-1.293182373047002
 20
47.34027862548799
 30
0.0
 10
-1.315582018889811
 20
47.50506311373813
 30
0.0
 10
-1.357279451256695
 20
47.81181305532827
 30
0.0
 10
-1.601568320411594
 20
48.20508201920521
 30
0.0
 10
-1.987011703135906
 20
48.45940122900769
 30
0.0
 10
-2.290906581918315
 20
48.50685804042081
 30
0.0
 10
-2.453796386719005
 20
48.53229522705101
 30
0.0
 11
-1.293182373047002
 21
47.34027862548799
 31
0.0
 11
-1.396606445312997
 21
47.82379913330101
 31
0.0
 11
-1.62451171875
 21
48.18369293212899
 31
0.0
 11
-1.97689819336
 21
48.41977691650399
 31
0.0
 11
-2.453796386719005
 21
48.53229522705101
 31
0.0
  0
SPLINE
  5
33FA
330
1F
100
AcDbEntity
  8
AM_0
  6
CONTINUOUS
 48
0.5
100
AcDbSpline
210
0.0
220
0.0
230
1.0
 70
     8
 71
     3
 72
    11
 73
     7
 74
     5
 42
0.0000000001
 43
0.0000000001
 44
0.0000000001
 40
0.0
 40
0.0
 40
0.0
 40
0.0
 40
0.116359747648809
 40
0.2316294557141799
 40
0.347202815927683
 40
0.4618674126015196
 40
0.4618674126015196
 40
0.4618674126015196
 40
0.4618674126015196
 10
-1.057495117187997
 20
48.26969146728501
 30
0.0
 10
-1.060586281894961
 20
48.30855751552332
 30
0.0
 10
-1.066739653770242
 20
48.3859255210502
 30
0.0
 10
-1.110064581377159
 20
48.49470273642322
 30
0.0
 10
-1.169783024255308
 20
48.59378001084796
 30
0.0
 10
-1.221253531871673
 20
48.65092849556618
 30
0.0
 10
-1.246887207032003
 20
48.67938995361299
 30
0.0
 11
-1.057495117187997
 21
48.26969146728501
 31
0.0
 11
-1.072509765625
 21
48.38507843017601
 31
0.0
 11
-1.11279296875
 21
48.49308013916001
 31
0.0
 11
-1.172882080077997
 21
48.59180450439399
 31
0.0
 11
-1.246887207032003
 21
48.67938995361299
 31
0.0
  0
SPLINE
  5
33FB
330
1F
100
AcDbEntity
  8
AM_0
  6
CONTINUOUS
 48
0.5
100
AcDbSpline
210
0.0
220
0.0
230
1.0
 70
     8
 71
     3
 72
    11
 73
     7
 74
     5
 42
0.0000000001
 43
0.0000000001
 44
0.0000000001
 40
0.0
 40
0.0
 40
0.0
 40
0.0
 40
1.319051222289629
 40
2.635851013532014
 40
3.950681072086605
 40
5.263274463920076
 40
5.263274463920076
 40
5.263274463920076
 40
5.263274463920076
 10
-0.027587890625
 20
43.747505187988
 30
0.0
 10
-0.0235024802049609
 20
44.18717017019679
 30
0.0
 10
-0.0153386325738871
 20
45.06574968961681
 30
0.0
 10
-0.0070499132887349
 20
46.38261890271325
 30
0.0
 10
-0.0015376065129185
 20
47.69735006202136
 30
0.0
 10
-0.0005122445484164
 20
48.57315772698061
 30
0.0
 10
0.0
 20
49.01068878173799
 30
0.0
 11
-0.027587890625
 21
43.747505187988
 31
0.0
 11
-0.0159912109379974
 21
45.06650543212899
 31
0.0
 11
-0.0075073242190058
 21
46.383277893066
 31
0.0
 11
-0.002197265625
 21
47.69809722900399
 31
0.0
 11
0.0
 21
49.01068878173799
 31
0.0
  0
ARC
  5
33FC
330
1F
100
AcDbEntity
  8
AM_0
  6
CONTINUOUS
 48
0.5
100
AcDbCircle
 10
-25.59982353062065
 20
45.75
 30
0.0
 40
3.0
100
AcDbArc
 50
89.99998201390933
 51
179.9999640278186
  0
LINE
  5
33FD
330
1F
100
AcDbEntity
  8
AM_0
  6
CONTINUOUS
 48
0.5
100
AcDbLine
 10
-10.596572875977
 20
48.867820739746
 30
0.0
 11
-9.65202331543
 21
48.52450942993098
 31
0.0
  0
LINE
  5
33FE
330
1F
100
AcDbEntity
  8
AM_0
  6
CONTINUOUS
 48
0.5
100
AcDbLine
 10
-9.652050018311001
 20
48.524478912353
 30
0.0
 11
-6.047718048096001
 21
48.82669448852499
 31
0.0
  0
LINE
  5
33FF
330
1F
100
AcDbEntity
  8
AM_0
  6
CONTINUOUS
 48
0.5
100
AcDbLine
 10
-12.176574707032
 20
48.994976043701
 30
0.0
 11
-11.209663391114
 21
48.25876998901302
 31
0.0
  0
LINE
  5
3400
330
1F
100
AcDbEntity
  8
AM_0
  6
CONTINUOUS
 48
0.5
100
AcDbLine
 10
-11.20969772338899
 20
48.25879669189399
 30
0.0
 11
-11.00590133666999
 21
48.66879653930599
 31
0.0
  0
LINE
  5
3401
330
1F
100
AcDbEntity
  8
AM_0
  6
CONTINUOUS
 48
0.5
100
AcDbLine
 10
-0.1477775573730042
 20
49.007900238037
 30
0.0
 11
-1.057510375977003
 21
48.26968383789
 31
0.0
  0
LINE
  5
3402
330
1F
100
AcDbEntity
  8
AM_0
  6
CONTINUOUS
 48
0.5
100
AcDbLine
 10
-0.1753196716310015
 20
43.74736404418899
 30
0.0
 11
-0.1478233337410018
 21
49.00788497924802
 31
0.0
  0
ELLIPSE
  5
3404
330
1F
100
AcDbEntity
  8
AM_0
  6
CONTINUOUS
 48
0.5
100
AcDbEllipse
 10
-6.137603759766008
 20
43.70059967041001
 30
0.0
 11
1.645233162153999
 21
2.696166957038002
 31
0.0
210
0.0
220
0.0
230
1.0
 40
0.979107618681
 41
5.848580804279882
 42
9.859451593787555
  0
ELLIPSE
  5
3405
330
1F
100
AcDbEntity
  8
AM_0
  6
CONTINUOUS
 48
0.5
100
AcDbEllipse
 10
-6.137603759766008
 20
43.70059967041001
 30
0.0
 11
1.645233162153999
 21
2.696166957038002
 31
0.0
210
0.0
220
0.0
230
1.0
 40
0.979107618681
 41
3.576266351061386
 42
5.84859554926446
  0
SPLINE
  5
3406
330
1F
100
AcDbEntity
  8
AM_0
  6
CONTINUOUS
 48
0.5
100
AcDbSpline
210
0.0
220
0.0
230
1.0
 70
     8
 71
     3
 72
    11
 73
     7
 74
     5
 42
0.0000000001
 43
0.0000000001
 44
0.0000000001
 40
0.0
 40
0.0
 40
0.0
 40
0.0
 40
1.29376404842225
 40
2.592160824456052
 40
3.895490093488661
 40
5.20375074421747
 40
5.20375074421747
 40
5.20375074421747
 40
5.20375074421747
 10
-12.379699707032
 20
43.73419952392601
 30
0.0
 10
-12.39905735618503
 20
43.30337389640196
 30
0.0
 10
-12.43784197062014
 20
42.44017993518358
 30
0.0
 10
-12.47644027836497
 20
41.14221706003274
 30
0.0
 10
-12.50185094138577
 20
39.83909757353935
 30
0.0
 10
-12.50588381057263
 20
38.96856601182516
 30
0.0
 10
-12.507904052735
 20
38.53247833251899
 30
0.0
 11
-12.379699707032
 21
43.73419952392601
 31
0.0
 11
-12.434509277344
 21
42.44159698486299
 31
0.0
 11
-12.474182128907
 21
41.14380645751899
 31
0.0
 11
-12.498596191407
 21
39.840705871582
 31
0.0
 11
-12.507904052735
 21
38.53247833251899
 31
0.0
  0
SPLINE
  5
3407
330
1F
100
AcDbEntity
  8
AM_0
  6
CONTINUOUS
 48
0.5
100
AcDbSpline
210
0.0
220
0.0
230
1.0
 70
     8
 71
     3
 72
    11
 73
     7
 74
     5
 42
0.0000000001
 43
0.0000000001
 44
0.0000000001
 40
0.0
 40
0.0
 40
0.0
 40
0.0
 40
0.4945410521458528
 40
0.9204242641885148
 40
1.344652419499037
 40
1.834616501497908
 40
1.834616501497908
 40
1.834616501497908
 40
1.834616501497908
 10
-10.982086181641
 20
40.06089019775399
 30
0.0
 10
-10.95971588868942
 20
39.89606376457717
 30
0.0
 10
-10.91808100248473
 20
39.58929398719002
 30
0.0
 10
-10.67364792002311
 20
39.19612614142329
 30
0.0
 10
-10.28835087628727
 20
38.94162407837516
 30
0.0
 10
-9.984403953777292
 20
38.89427890303661
 30
0.0
 10
-9.821502685547002
 20
38.86890411376899
 30
0.0
 11
-10.982086181641
 21
40.06089019775399
 31
0.0
 11
-10.87869262695299
 21
39.577278137207
 31
0.0
 11
-10.650787353516
 21
39.21750640869101
 31
0.0
 11
-10.298400878907
 21
38.98130035400399
 31
0.0
 11
-9.821502685547002
 21
38.86890411376899
 31
0.0
  0
SPLINE
  5
3408
330
1F
100
AcDbEntity
  8
AM_0
  6
CONTINUOUS
 48
0.5
100
AcDbSpline
210
0.0
220
0.0
230
1.0
 70
     8
 71
     3
 72
    11
 73
     7
 74
     5
 42
0.0000000001
 43
0.0000000001
 44
0.0000000001
 40
0.0
 40
0.0
 40
0.0
 40
0.0
 40
0.1111634567530117
 40
0.2226617244319818
 40
0.3375734107684698
 40
0.4588895779330973
 40
0.4588895779330973
 40
0.4588895779330973
 40
0.4588895779330973
 10
-11.178802490235
 20
38.813606262207
 30
0.0
 10
-11.20342698373423
 20
38.84142834647403
 30
0.0
 10
-11.25275013673753
 20
38.89715631177069
 30
0.0
 10
-11.3075386713987
 20
38.99630484257849
 30
0.0
 10
-11.3482678851542
 20
39.10542843158868
 30
0.0
 10
-11.36143336995368
 20
39.18322817459944
 30
0.0
 10
-11.36819458007799
 20
39.223182678222
 30
0.0
 11
-11.178802490235
 21
38.813606262207
 31
0.0
 11
-11.24938964843799
 21
38.89948272705101
 31
0.0
 11
-11.304504394532
 21
38.996406555176
 31
0.0
 11
-11.34408569335999
 21
39.104286193847
 31
0.0
 11
-11.36819458007799
 21
39.223182678222
 31
0.0
  0
SPLINE
  5
3409
330
1F
100
AcDbEntity
  8
AM_0
  6
CONTINUOUS
 48
0.5
100
AcDbSpline
210
0.0
220
0.0
230
1.0
 70
     8
 71
     3
 72
    11
 73
     7
 74
     5
 42
0.0000000001
 43
0.0000000001
 44
0.0000000001
 40
0.0
 40
0.0
 40
0.0
 40
0.0
 40
0.1162415672452602
 40
0.2314682479381394
 40
0.3470937495820285
 40
0.4618174561798077
 40
0.4618174561798077
 40
0.4618174561798077
 40
0.4618174561798077
 10
-11.36819458007799
 20
39.223182678222
 30
0.0
 10
-11.36520682645974
 20
39.18433869084889
 30
0.0
 10
-11.35925740482273
 20
39.10698985675056
 30
0.0
 10
-11.31562548372115
 20
38.99835527892964
 30
0.0
 10
-11.25603730892255
 20
38.89919065090512
 30
0.0
 10
-11.20448014935341
 20
38.84205983788946
 30
0.0
 10
-11.178802490235
 20
38.813606262207
 30
0.0
 11
-11.36819458007799
 21
39.223182678222
 31
0.0
 11
-11.35339355468799
 21
39.107887268066
 31
0.0
 11
-11.31298828125
 21
38.99997711181601
 31
0.0
 11
-11.252899169922
 21
38.901191711426
 31
0.0
 11
-11.178802490235
 21
38.813606262207
 31
0.0
  0
SPLINE
  5
340A
330
1F
100
AcDbEntity
  8
AM_0
  6
CONTINUOUS
 48
0.5
100
AcDbSpline
210
0.0
220
0.0
230
1.0
 70
     8
 71
     3
 72
    11
 73
     7
 74
     5
 42
0.0000000001
 43
0.0000000001
 44
0.0000000001
 40
0.0
 40
0.0
 40
0.0
 40
0.0
 40
0.0476060524776954
 40
0.094884400223241
 40
0.1419548140262958
 40
0.1890157297198859
 40
0.1890157297198859
 40
0.1890157297198859
 40
0.1890157297198859
 10
-11.178802490235
 20
38.813606262207
 30
0.0
 10
-11.1676168142611
 20
38.80234235613155
 30
0.0
 10
-11.14532246090401
 20
38.77989208108217
 30
0.0
 10
-11.10935592749354
 20
38.74907727620414
 30
0.0
 10
-11.07176995501601
 20
38.7205602661341
 30
0.0
 10
-11.04532542368874
 20
38.70365155938774
 30
0.0
 10
-11.03210449218799
 20
38.695198059082
 30
0.0
 11
-11.178802490235
 21
38.813606262207
 31
0.0
 11
-11.14480590820299
 21
38.78028106689399
 31
0.0
 11
-11.10900878906299
 21
38.749397277832
 31
0.0
 11
-11.07141113281299
 21
38.721076965332
 31
0.0
 11
-11.03210449218799
 21
38.695198059082
 31
0.0
  0
SPLINE
  5
340B
330
1F
100
AcDbEntity
  8
AM_0
  6
CONTINUOUS
 48
0.5
100
AcDbSpline
210
0.0
220
0.0
230
1.0
 70
     8
 71
     3
 72
    11
 73
     7
 74
     5
 42
0.0000000001
 43
0.0000000001
 44
0.0000000001
 40
0.0
 40
0.0
 40
0.0
 40
0.0
 40
0.0685907535286039
 40
0.1357309304589691
 40
0.2026455693803443
 40
0.2708054716569332
 40
0.2708054716569332
 40
0.2708054716569332
 40
0.2708054716569332
 10
-11.03210449218799
 20
38.695198059082
 30
0.0
 10
-11.01235157071593
 20
38.68361312085916
 30
0.0
 10
-10.97326346812543
 20
38.66068824595394
 30
0.0
 10
-10.90987222049187
 20
38.63660374668189
 30
0.0
 10
-10.84416007663877
 20
38.62044281555114
 30
0.0
 10
-10.79918440888722
 20
38.61714849207647
 30
0.0
 10
-10.77648925781299
 20
38.61548614501899
 30
0.0
 11
-11.03210449218799
 21
38.695198059082
 31
0.0
 11
-10.971984863282
 21
38.662178039551
 31
0.0
 11
-10.909393310547
 21
38.63788604736299
 31
0.0
 11
-10.844299316407
 21
38.62238311767601
 31
0.0
 11
-10.77648925781299
 21
38.61548614501899
 31
0.0
  0
SPLINE
  5
340C
330
1F
100
AcDbEntity
  8
AM_0
  6
CONTINUOUS
 48
0.5
100
AcDbSpline
210
0.0
220
0.0
230
1.0
 70
     8
 71
     3
 72
    11
 73
     7
 74
     5
 42
0.0000000001
 43
0.0000000001
 44
0.0000000001
 40
0.0
 40
0.0
 40
0.0
 40
0.0
 40
0.2277335126024631
 40
0.4566465252089185
 40
0.6861299164173094
 40
0.9158683566012724
 40
0.9158683566012724
 40
0.9158683566012724
 40
0.9158683566012724
 10
-11.76858520507799
 20
37.69599151611299
 30
0.0
 10
-11.84442757433166
 20
37.71018995455465
 30
0.0
 10
-11.99650512316283
 20
37.73866036939907
 30
0.0
 10
-12.17714466324093
 20
37.88841469961957
 30
0.0
 10
-12.32216680010074
 20
38.07346605975657
 30
0.0
 10
-12.34757791387091
 20
38.22691897719459
 30
0.0
 10
-12.360290527344
 20
38.303688049316
 30
0.0
 11
-11.76858520507799
 21
37.69599151611299
 31
0.0
 11
-11.988189697266
 21
37.756294250488
 31
0.0
 11
-12.170989990235
 21
37.894081115722
 31
0.0
 11
-12.304290771485
 21
38.080879211426
 31
0.0
 11
-12.360290527344
 21
38.303688049316
 31
0.0
  0
ELLIPSE
  5
340D
330
1F
100
AcDbEntity
  8
AM_0
  6
CONTINUOUS
 48
0.5
100
AcDbEllipse
 10
-11.69229125976601
 20
38.36939239501899
 30
0.0
 11
0.5714416469020023
 21
0.6331787036099997
 31
0.0
210
0.0
220
0.0
230
1.0
 40
0.9192111985961
 41
2.346715390780831
 42
3.817890167206236
  0
SPLINE
  5
340E
330
1F
100
AcDbEntity
  8
AM_0
  6
CONTINUOUS
 48
0.5
100
AcDbSpline
210
0.0
220
0.0
230
1.0
 70
     8
 71
     3
 72
    11
 73
     7
 74
     5
 42
0.0000000001
 43
0.0000000001
 44
0.0000000001
 40
0.0
 40
0.0
 40
0.0
 40
0.0
 40
1.314789668725523
 40
2.625019651385549
 40
3.930652702695592
 40
5.231683594161635
 40
5.231683594161635
 40
5.231683594161635
 40
5.231683594161635
 10
-6.313110351562997
 20
37.503791809082
 30
0.0
 10
-6.751374303130844
 20
37.50389385566467
 30
0.0
 10
-7.626382308384382
 20
37.50409759493281
 30
0.0
 10
-8.936583931091259
 20
37.51150085727992
 30
0.0
 10
-10.24216430776664
 20
37.52363325912598
 30
0.0
 10
-11.11095685194431
 20
37.53661769434395
 30
0.0
 10
-11.54458618164101
 20
37.543098449707
 30
0.0
 11
-6.313110351562997
 21
37.503791809082
 31
0.0
 11
-7.627899169922002
 21
37.50528717041001
 31
0.0
 11
-8.938110351562997
 21
37.51230621337899
 31
0.0
 11
-10.24368286132799
 21
37.524879455566
 31
0.0
 11
-11.54458618164101
 21
37.543098449707
 31
0.0
  0
SPLINE
  5
340F
330
1F
100
AcDbEntity
  8
AM_0
  6
CONTINUOUS
 48
0.5
100
AcDbSpline
210
0.0
220
0.0
230
1.0
 70
     8
 71
     3
 72
    11
 73
     7
 74
     5
 42
0.0000000001
 43
0.0000000001
 44
0.0000000001
 40
0.0
 40
0.0
 40
0.0
 40
0.0
 40
1.271216692852241
 40
2.550245907170869
 40
3.837050478757785
 40
5.131624324464334
 40
5.131624324464334
 40
5.131624324464334
 40
5.131624324464334
 10
-6.313110351562997
 20
37.503791809082
 30
0.0
 10
-5.88937189456188
 20
37.5048008406146
 30
0.0
 10
-5.039290809445414
 20
37.50682510488893
 30
0.0
 10
-3.760309551441451
 20
37.51704233238783
 30
0.0
 10
-2.473589235321526
 20
37.53203088067138
 30
0.0
 10
-1.613255014056719
 20
37.54680004188186
 30
0.0
 10
-1.181793212891008
 20
37.55420684814399
 30
0.0
 11
-6.313110351562997
 21
37.503791809082
 31
0.0
 11
-5.041900634766008
 21
37.50800323486299
 31
0.0
 11
-3.762908935547002
 21
37.51779937744101
 31
0.0
 11
-2.476196289062997
 21
37.533180236816
 31
0.0
 11
-1.181793212891008
 21
37.55420684814399
 31
0.0
  0
SPLINE
  5
3410
330
1F
100
AcDbEntity
  8
AM_0
  6
CONTINUOUS
 48
0.5
100
AcDbSpline
210
0.0
220
0.0
230
1.0
 70
     8
 71
     3
 72
    11
 73
     7
 74
     5
 42
0.0000000001
 43
0.0000000001
 44
0.0000000001
 40
0.0
 40
0.0
 40
0.0
 40
0.0
 40
0.4941073216075914
 40
0.925640260755676
 40
1.358957564350377
 40
1.857396473334733
 40
1.857396473334733
 40
1.857396473334733
 40
1.857396473334733
 10
-2.623291015625
 20
38.876594543457
 30
0.0
 10
-2.459129762597949
 20
38.90257472491579
 30
0.0
 10
-2.151596847352835
 20
38.95124492446222
 30
0.0
 10
-1.759803673683002
 20
39.20588739198652
 30
0.0
 10
-1.502188502067018
 20
39.5971145900735
 30
0.0
 10
-1.449169283663408
 20
39.90589978169204
 30
0.0
 10
-1.420806884766008
 20
40.071083068847
 30
0.0
 11
-2.623291015625
 21
38.876594543457
 31
0.0
 11
-2.142395019532003
 21
38.99008941650399
 31
0.0
 11
-1.781707763672002
 21
39.226997375488
 31
0.0
 11
-1.541107177735
 21
39.58737945556601
 31
0.0
 11
-1.420806884766008
 21
40.071083068847
 31
0.0
  0
SPLINE
  5
3411
330
1F
100
AcDbEntity
  8
AM_0
  6
CONTINUOUS
 48
0.5
100
AcDbSpline
210
0.0
220
0.0
230
1.0
 70
     8
 71
     3
 72
    11
 73
     7
 74
     5
 42
0.0000000001
 43
0.0000000001
 44
0.0000000001
 40
0.0
 40
0.0
 40
0.0
 40
0.0
 40
1.293055165923317
 40
2.591414527032973
 40
3.895150879884824
 40
5.204172192224989
 40
5.204172192224989
 40
5.204172192224989
 40
5.204172192224989
 10
-0.027587890625
 20
43.747505187988
 30
0.0
 10
-0.0387796435813075
 20
43.31663192350572
 30
0.0
 10
-0.0612090587820348
 20
42.45311792478765
 30
0.0
 10
-0.0987558978464805
 20
41.15527563086607
 30
0.0
 10
-0.1393427874044032
 20
39.85220038107186
 30
0.0
 10
-0.1688845457461279
 20
38.98178196963795
 30
0.0
 10
-0.1836853027350003
 20
38.545692443847
 30
0.0
 11
-0.027587890625
 21
43.747505187988
 31
0.0
 11
-0.0617980957029971
 21
42.45490264892601
 31
0.0
 11
-0.0991821289070032
 21
41.15708160400399
 31
0.0
 11
-0.139892578125
 21
39.853981018066
 31
0.0
 11
-0.1836853027350003
 21
38.545692443847
 31
0.0
  0
SPLINE
  5
3412
330
1F
100
AcDbEntity
  8
AM_0
  6
CONTINUOUS
 48
0.5
100
AcDbSpline
210
0.0
220
0.0
230
1.0
 70
     8
 71
     3
 72
    11
 73
     7
 74
     5
 42
0.0000000001
 43
0.0000000001
 44
0.0000000001
 40
0.0
 40
0.0
 40
0.0
 40
0.0
 40
0.1166776693075486
 40
0.2345247537768488
 40
0.3513980179872811
 40
0.4679295608872759
 40
0.4679295608872759
 40
0.4679295608872759
 40
0.4679295608872759
 10
-1.419891357422002
 20
38.824104309082
 30
0.0
 10
-1.393237940416155
 20
38.85254352066159
 30
0.0
 10
-1.339663969512337
 20
38.90970697904139
 30
0.0
 10
-1.276782928688243
 20
39.00908572695297
 30
0.0
 10
-1.229343118648862
 20
39.11757293702943
 30
0.0
 10
-1.220506707639308
 20
39.19528053791133
 30
0.0
 10
-1.216094970702997
 20
39.23407745361299
 30
0.0
 11
-1.419891357422002
 21
38.824104309082
 31
0.0
 11
-1.342803955077997
 21
38.91168975830101
 31
0.0
 11
-1.279205322266008
 21
39.01090240478501
 31
0.0
 11
-1.234985351562997
 21
39.11908721923799
 31
0.0
 11
-1.216094970702997
 21
39.23407745361299
 31
0.0
  0
SPLINE
  5
3413
330
1F
100
AcDbEntity
  8
AM_0
  6
CONTINUOUS
 48
0.5
100
AcDbSpline
210
0.0
220
0.0
230
1.0
 70
     8
 71
     3
 72
    11
 73
     7
 74
     5
 42
0.0000000001
 43
0.0000000001
 44
0.0000000001
 40
0.0
 40
0.0
 40
0.0
 40
0.0
 40
0.1157883727113918
 40
0.2316726021901128
 40
0.3486723362114507
 40
0.4653681232793696
 40
0.4653681232793696
 40
0.4653681232793696
 40
0.4653681232793696
 10
-1.829193115235
 20
38.625190734863
 30
0.0
 10
-1.790579481499019
 20
38.62901910203325
 30
0.0
 10
-1.713320247275838
 20
38.63667900573256
 30
0.0
 10
-1.605110668127773
 20
38.68271178849261
 30
0.0
 10
-1.505941873357633
 20
38.74477048674218
 30
0.0
 10
-1.448549981226119
 20
38.79768264101111
 30
0.0
 10
-1.419891357422002
 20
38.824104309082
 30
0.0
 11
-1.829193115235
 21
38.625190734863
 31
0.0
 11
-1.71469116211
 21
38.642402648926
 31
0.0
 11
-1.606994628907003
 21
38.685188293457
 31
0.0
 11
-1.508087158202997
 21
38.747688293457
 31
0.0
 11
-1.419891357422002
 21
38.824104309082
 31
0.0
  0
SPLINE
  5
3414
330
1F
100
AcDbEntity
  8
AM_0
  6
CONTINUOUS
 48
0.5
100
AcDbSpline
210
0.0
220
0.0
230
1.0
 70
     8
 71
     3
 72
    11
 73
     7
 74
     5
 42
0.0000000001
 43
0.0000000001
 44
0.0000000001
 40
0.0
 40
0.0
 40
0.0
 40
0.0
 40
0.2318546702974079
 40
0.4655464237437881
 40
0.6985022819002788
 40
0.9283956541763114
 40
0.9283956541763114
 40
0.9283956541763114
 40
0.9283956541763114
 10
-0.3393859863279971
 20
38.316596984863
 30
0.0
 10
-0.3549038544827583
 20
38.23968061949297
 30
0.0
 10
-0.3860625454606449
 20
38.08523844768142
 30
0.0
 10
-0.5372141248996185
 20
37.90099311680986
 30
0.0
 10
-0.7219704721669775
 20
37.75120686726356
 30
0.0
 10
-0.8759247605279334
 20
37.72206347628401
 30
0.0
 10
-0.952392578125
 20
37.707588195801
 30
0.0
 11
-0.3393859863279971
 21
38.316596984863
 31
0.0
 11
-0.4031982421879974
 21
38.09369659423799
 31
0.0
 11
-0.5430908203129974
 21
37.90650177001899
 31
0.0
 11
-0.7306823730470029
 21
37.768379211426
 31
0.0
 11
-0.952392578125
 21
37.707588195801
 31
0.0
  0
ELLIPSE
  5
3415
330
1F
100
AcDbEntity
  8
AM_0
  6
CONTINUOUS
 48
0.5
100
AcDbEllipse
 10
-1.005004882812997
 20
38.380897521972
 30
0.0
 11
-0.5205993684599975
 21
0.6557617228129971
 31
0.0
210
0.0
220
0.0
230
1.0
 40
0.9537956027345
 41
2.512058668530255
 42
3.984086540768415
  0
LINE
  5
3416
330
1F
100
AcDbEntity
  8
AM_0
  6
CONTINUOUS
 48
0.5
100
AcDbLine
 10
-9.821475982666001
 20
38.868923187256
 30
0.0
 11
-10.77646255493199
 21
38.615505218506
 31
0.0
  0
LINE
  5
3417
330
1F
100
AcDbEntity
  8
AM_0
  6
CONTINUOUS
 48
0.5
100
AcDbLine
 10
-6.227577209473011
 20
38.574375152588
 30
0.0
 11
-10.77646255493199
 21
38.615482330322
 31
0.0
  0
LINE
  5
3418
330
1F
100
AcDbEntity
  8
AM_0
  6
CONTINUOUS
 48
0.5
100
AcDbLine
 10
-6.310470581055
 20
37.65296936035099
 30
0.0
 11
-11.53939056396499
 21
37.69227600097599
 31
0.0
  0
LINE
  5
3419
330
1F
100
AcDbEntity
  8
AM_0
  6
CONTINUOUS
 48
0.5
100
AcDbLine
 10
-17.69999999999983
 20
23.0
 30
0.0
 11
-8.890849836773654
 21
23.0
 31
0.0
  0
LINE
  5
341A
330
1F
100
AcDbEntity
  8
AM_7
  6
AM_ISO08W050
100
AcDbLine
 10
-52.03383079379662
 20
0.0
 30
0.0
 11
6.41581724691656
 21
0.0
 31
0.0
  0
LINE
  5
341D
330
1F
100
AcDbEntity
  8
AM_0
  6
CONTINUOUS
 48
0.5
100
AcDbLine
 10
-41.99999999999983
 20
6.349999999999967
 30
0.0
 11
-41.99999999999983
 21
-6.349999999999992
 31
0.0
  0
LINE
  5
341E
330
1F
100
AcDbEntity
  8
AM_0
  6
CONTINUOUS
100
AcDbLine
 10
-17.99999999999982
 20
23.0
 30
0.0
 11
-17.99999999999982
 21
-23.0
 31
0.0
  0
LINE
  5
341F
330
1F
100
AcDbEntity
  8
AM_0
  6
CONTINUOUS
 48
0.5
100
AcDbLine
 10
-48.99982353061665
 20
-6.349999999999994
 30
0.0
 11
-41.99999999999983
 21
-6.349999999999992
 31
0.0
  0
LINE
  5
3420
330
1F
100
AcDbEntity
  8
AM_0
  6
CONTINUOUS
100
AcDbLine
 10
-48.49982353061665
 20
-15.875
 30
0.0
 11
-17.99999999999982
 21
-15.87499999999999
 31
0.0
  0
LINE
  5
3422
330
1F
100
AcDbEntity
  8
AM_0
  6
CONTINUOUS
 48
0.5
100
AcDbLine
 10
-50.0
 20
-7.350006103509997
 30
0.0
 11
-49.99999999999949
 21
-32.5000015695825
 31
0.0
  0
LINE
  5
3423
330
1F
100
AcDbEntity
  8
AM_0
  6
CONTINUOUS
 48
0.5
100
AcDbLine
 10
-48.5
 20
-6.350006103509997
 30
0.0
 11
-48.5
 21
-15.875
 31
0.0
  0
LINE
  5
3424
330
1F
100
AcDbEntity
  8
AM_0
  6
CONTINUOUS
 48
0.5
100
AcDbLine
 10
-49.99999999999979
 20
-17.37503051834598
 30
0.0
 11
-48.5
 21
-15.875
 31
0.0
  0
LINE
  5
3425
330
1F
100
AcDbEntity
  8
AM_0
  6
CONTINUOUS
 48
0.5
100
AcDbLine
 10
-49.00000762938998
 20
-6.350007629399982
 30
0.0
 11
-50.00017646938335
 21
-7.350176469383342
 31
0.0
  0
LINE
  5
3426
330
1F
100
AcDbEntity
  8
AM_0
  6
CONTINUOUS
 48
0.5
100
AcDbLine
 10
-17.9999999999998
 20
-23.0
 30
0.0
 11
-8.890841265629148
 21
-23.00000000000014
 31
0.0
  0
LINE
  5
3427
330
1F
100
AcDbEntity
  8
AM_0
  6
CONTINUOUS
 48
0.5
100
AcDbLine
 10
-47.49982353061665
 20
35.0
 30
0.0
 11
-38.59982353062065
 21
35.0
 31
0.0
  0
LINE
  5
3428
330
1F
100
AcDbEntity
  8
AM_0
  6
CONTINUOUS
 48
0.5
100
AcDbLine
 10
-48.99982353061665
 20
6.349999999999994
 30
0.0
 11
-41.99999999999983
 21
6.349999999999996
 31
0.0
  0
LINE
  5
3429
330
1F
100
AcDbEntity
  8
AM_0
  6
CONTINUOUS
100
AcDbLine
 10
-48.49982353061665
 20
15.875
 30
0.0
 11
-17.99999999999982
 21
15.875
 31
0.0
  0
LINE
  5
342A
330
1F
100
AcDbEntity
  8
AM_0
  6
CONTINUOUS
 48
0.5
100
AcDbLine
 10
-50.0
 20
32.5
 30
0.0
 11
-50.0
 21
7.349990844727017
 31
0.0
  0
LINE
  5
342B
330
1F
100
AcDbEntity
  8
AM_0
  6
CONTINUOUS
 48
0.5
100
AcDbLine
 10
-48.5
 20
15.875
 30
0.0
 11
-48.5
 21
6.349990844727017
 31
0.0
  0
LINE
  5
342C
330
1F
100
AcDbEntity
  8
AM_0
  6
CONTINUOUS
 48
0.5
100
AcDbLine
 10
-49.00000762938998
 20
6.349969482420988
 30
0.0
 11
-50.00000762938999
 21
7.349969482420988
 31
0.0
  0
LINE
  5
342D
330
1F
100
AcDbEntity
  8
AM_0
  6
CONTINUOUS
 48
0.5
100
AcDbLine
 10
-50.0
 20
17.37502288829645
 30
0.0
 11
-48.5
 21
15.875
 31
0.0
  0
ARC
  5
342E
330
1F
100
AcDbEntity
  8
AM_0
  6
CONTINUOUS
 48
0.5
100
AcDbCircle
 10
-47.5
 20
32.5
 30
0.0
 40
2.5
100
AcDbArc
 50
89.99998201390933
 51
179.9999640278186
  0
ARC
  5
342F
330
1F
100
AcDbEntity
  8
AM_0
  6
CONTINUOUS
 48
0.5
100
AcDbCircle
 10
-38.59982353062065
 20
45.0
 30
0.0
 40
10.0
100
AcDbArc
 50
270.0000179860906
 51
0.0
  0
LINE
  5
3430
330
1F
100
AcDbEntity
  8
AM_7
  6
AM_ISO08W050
 48
0.5
100
AcDbLine
 10
-30.11936950683599
 20
41.483306884765
 30
0.0
 11
-13.105537414551
 21
41.483306884765
 31
0.0
  0
LINE
  5
3431
330
1F
100
AcDbEntity
  8
AM_0
  6
CONTINUOUS
 48
0.5
100
AcDbLine
 10
-28.59982353062065
 20
45.75
 30
0.0
 11
-28.59982353062065
 21
45.0
 31
0.0
  0
LINE
  5
3432
330
1F
100
AcDbEntity
  8
AM_0
  6
CONTINUOUS
 48
0.5
100
AcDbLine
 10
-19.27099609375
 20
39.483306884765
 30
0.0
 11
-13.771003723145
 21
39.483306884765
 31
0.0
  0
LINE
  5
3433
330
1F
100
AcDbEntity
  8
AM_0
  6
CONTINUOUS
 48
0.5
100
AcDbLine
 10
-19.271003723145
 20
43.483306884765
 30
0.0
 11
-13.771003723145
 21
43.483306884765
 31
0.0
  0
LINE
  5
3434
330
1F
100
AcDbEntity
  8
AM_0
  6
CONTINUOUS
 48
0.5
100
AcDbLine
 10
-19.27099609375
 20
38.983306884765
 30
0.0
 11
-14.271003723145
 21
38.983306884765
 31
0.0
  0
LINE
  5
3435
330
1F
100
AcDbEntity
  8
AM_0
  6
CONTINUOUS
 48
0.5
100
AcDbLine
 10
-19.271003723145
 20
43.983306884765
 30
0.0
 11
-14.271003723145
 21
43.983306884765
 31
0.0
  0
LINE
  5
3436
330
1F
100
AcDbEntity
  8
AM_0
  6
CONTINUOUS
 48
0.5
100
AcDbLine
 10
-19.271003723145
 20
43.983306884765
 30
0.0
 11
-19.27099609375
 21
38.983306884765
 31
0.0
  0
LINE
  5
3437
330
1F
100
AcDbEntity
  8
AM_0
  6
CONTINUOUS
 48
0.5
100
AcDbLine
 10
-19.771003723145
 20
43.483306884765
 30
0.0
 11
-19.771003723145
 21
39.483306884765
 31
0.0
  0
LINE
  5
3438
330
1F
100
AcDbEntity
  8
AM_0
  6
CONTINUOUS
 48
0.5
100
AcDbLine
 10
-19.77099609375
 20
39.483310699463
 30
0.0
 11
-19.270988464356
 21
38.983310699463
 31
0.0
  0
LINE
  5
3439
330
1F
100
AcDbEntity
  8
AM_0
  6
CONTINUOUS
 48
0.5
100
AcDbLine
 10
-19.271003723145
 20
43.983306884765
 30
0.0
 11
-19.77099609375
 21
43.483310699463
 31
0.0
  0
LINE
  5
343A
330
1F
100
AcDbEntity
  8
AM_0
  6
CONTINUOUS
 48
0.5
100
AcDbLine
 10
-14.271003723145
 20
38.983306884765
 30
0.0
 11
-14.271003723145
 21
43.983306884765
 31
0.0
  0
LINE
  5
343B
330
1F
100
AcDbEntity
  8
AM_0
  6
CONTINUOUS
 48
0.5
100
AcDbLine
 10
-13.771003723145
 20
43.483306884765
 30
0.0
 11
-13.771003723145
 21
39.483306884765
 31
0.0
  0
LINE
  5
343C
330
1F
100
AcDbEntity
  8
AM_0
  6
CONTINUOUS
 48
0.5
100
AcDbLine
 10
-13.771003723145
 20
43.626232147217
 30
0.0
 11
-13.771003723145
 21
38.340858459472
 31
0.0
  0
LINE
  5
343D
330
1F
100
AcDbEntity
  8
AM_0
  6
CONTINUOUS
 48
0.5
100
AcDbLine
 10
-11.213619232178
 20
43.69510269164999
 30
0.0
 11
-11.36812591552799
 21
39.22319030761698
 31
0.0
  0
LINE
  5
343E
330
1F
100
AcDbEntity
  8
AM_0
  6
CONTINUOUS
 48
0.5
100
AcDbLine
 10
-10.98208236694399
 20
40.06088638305598
 30
0.0
 11
-11.213684082032
 21
43.69511413574199
 31
0.0
  0
LINE
  5
343F
330
1F
100
AcDbEntity
  8
AM_0
  6
CONTINUOUS
 48
0.5
100
AcDbLine
 10
-12.232063293457
 20
43.73434448242202
 30
0.0
 11
-12.360176086426
 21
38.53517913818299
 31
0.0
  0
LINE
  5
3440
330
1F
100
AcDbEntity
  8
AM_0
  6
CONTINUOUS
 48
0.5
100
AcDbLine
 10
-14.271003723145
 20
38.983306884765
 30
0.0
 11
-13.771003723145
 21
39.483306884765
 31
0.0
  0
LINE
  5
3441
330
1F
100
AcDbEntity
  8
AM_0
  6
CONTINUOUS
 48
0.5
100
AcDbLine
 10
-13.771003723145
 20
38.340858459472
 30
0.0
 11
-12.54373168945299
 21
38.340858459472
 31
0.0
  0
LINE
  5
3442
330
1F
100
AcDbEntity
  8
AM_0
  6
CONTINUOUS
 48
0.5
100
AcDbLine
 10
-11.36819458007799
 20
39.223171234131
 30
0.0
 11
-10.98207473754901
 21
40.06089782714801
 31
0.0
  0
LINE
  5
3443
330
1F
100
AcDbEntity
  8
AM_0
  6
CONTINUOUS
 48
0.5
100
AcDbLine
 10
-12.360168457032
 20
38.53514862060498
 30
0.0
 11
-11.368148803711
 21
39.22314453125
 31
0.0
  0
LINE
  5
3444
330
1F
100
AcDbEntity
  8
AM_0
  6
CONTINUOUS
 48
0.5
100
AcDbLine
 10
-12.36034393310601
 20
38.30366897582999
 30
0.0
 11
-12.360252380371
 21
38.53517532348601
 31
0.0
  0
LINE
  5
3445
330
1F
100
AcDbEntity
  8
AM_0
  6
CONTINUOUS
 48
0.5
100
AcDbLine
 10
-12.507888793946
 20
38.53245544433599
 30
0.0
 11
-12.360176086426
 21
38.535171508789
 31
0.0
  0
LINE
  5
3446
330
1F
100
AcDbEntity
  8
AM_0
  6
CONTINUOUS
 48
0.5
100
AcDbLine
 10
-12.507965087891
 20
38.532474517822
 30
0.0
 11
-12.508056640625
 21
38.30087661743098
 31
0.0
  0
LINE
  5
3447
330
1F
100
AcDbEntity
  8
AM_0
  6
CONTINUOUS
 48
0.5
100
AcDbLine
 10
-11.54458618164101
 20
37.54307937621999
 30
0.0
 11
-11.77380371093799
 21
37.546863555908
 31
0.0
  0
LINE
  5
3448
330
1F
100
AcDbEntity
  8
AM_0
  6
CONTINUOUS
 48
0.5
100
AcDbLine
 10
-11.768608093262
 20
37.695980072021
 30
0.0
 11
-11.539451599121
 21
37.69228744506799
 31
0.0
  0
LINE
  5
3449
330
1F
100
AcDbEntity
  8
AM_0
  6
CONTINUOUS
 48
0.5
100
AcDbLine
 10
-11.53942108154299
 20
37.69233703613301
 30
0.0
 11
-10.776504516602
 21
38.615531921387
 31
0.0
  0
LINE
  5
344A
330
1F
100
AcDbEntity
  8
AM_0
  6
CONTINUOUS
 48
0.5
100
AcDbLine
 10
-11.54451751709
 20
37.543087005615
 30
0.0
 11
-11.539329528809
 21
37.69228744506799
 31
0.0
  0
LINE
  5
344B
330
1F
100
AcDbEntity
  8
AM_0
  6
CONTINUOUS
 48
0.5
100
AcDbLine
 10
-14.271003723145
 20
43.98330307006799
 30
0.0
 11
-13.771003723145
 21
43.48330307006799
 31
0.0
  0
LINE
  5
344C
330
1F
100
AcDbEntity
  8
AM_0
  6
CONTINUOUS
 48
0.5
100
AcDbLine
 10
-11.213706970215
 20
43.69512557983401
 30
0.0
 11
-11.20970916748099
 21
48.258815765381
 31
0.0
  0
LINE
  5
344D
330
1F
100
AcDbEntity
  8
AM_0
  6
CONTINUOUS
 48
0.5
100
AcDbLine
 10
-10.85446548461901
 20
47.329963684082
 30
0.0
 11
-11.209659576416
 21
48.25876235961899
 31
0.0
  0
LINE
  5
344E
330
1F
100
AcDbEntity
  8
AM_0
  6
CONTINUOUS
 48
0.5
100
AcDbLine
 10
-10.8544921875
 20
47.330013275146
 30
0.0
 11
-11.213684082032
 21
43.69512939453099
 31
0.0
  0
LINE
  5
344F
330
1F
100
AcDbEntity
  8
AM_0
  6
CONTINUOUS
 48
0.5
100
AcDbLine
 10
-12.232040405274
 20
43.73443222045901
 30
0.0
 11
-11.21363067627
 21
43.69515609741199
 31
0.0
  0
LINE
  5
3450
330
1F
100
AcDbEntity
  8
AM_0
  6
CONTINUOUS
 48
0.5
100
AcDbLine
 10
-12.379722595215
 20
43.73423767089801
 30
0.0
 11
-12.232109069825
 21
43.73442077636698
 31
0.0
  0
LINE
  5
3451
330
1F
100
AcDbEntity
  8
AM_0
  6
CONTINUOUS
 48
0.5
100
AcDbLine
 10
-12.38317108154299
 20
43.627727508545
 30
0.0
 11
-13.7709274292
 21
43.626232147217
 31
0.0
  0
LINE
  5
3452
330
1F
100
AcDbEntity
  8
AM_0
  6
CONTINUOUS
100
AcDbLine
 10
-0.999812849468654
 20
37.5612449646
 30
0.0
 11
-0.999812849468654
 21
-37.56124172919271
 31
0.0
  0
LINE
  5
3453
330
1F
100
AcDbEntity
  8
AM_0
  6
CONTINUOUS
 48
0.5
100
AcDbLine
 10
-6.171931990093654
 20
24.73212432861402
 30
0.0
 11
-1.383945234722659
 21
34.99999237060598
 31
0.0
  0
ARC
  5
3454
330
1F
100
AcDbEntity
  8
AM_0
  6
CONTINUOUS
 48
0.5
100
AcDbCircle
 10
-8.890842207378653
 20
26.0
 30
0.0
 40
3.0
100
AcDbArc
 50
270.0000179860906
 51
334.9999930433053
  0
LINE
  5
3455
330
1F
100
AcDbEntity
  8
AM_0
  6
CONTINUOUS
 48
0.5
100
AcDbLine
 10
-1.383971937603661
 20
34.99994659423902
 30
0.0
 11
-1.294719465679648
 21
37.555770874024
 31
0.0
  0
LINE
  5
3456
330
1F
100
AcDbEntity
  8
AM_0
  6
CONTINUOUS
 48
0.5
100
AcDbLine
 10
-6.310508728028011
 20
37.65296554565401
 30
0.0
 11
-1.181793212891008
 21
37.70335006713802
 31
0.0
  0
LINE
  5
3457
330
1F
100
AcDbEntity
  8
AM_0
  6
CONTINUOUS
 48
0.5
100
AcDbLine
 10
-1.181735992431995
 20
37.70334625244101
 30
0.0
 11
-1.829143524169992
 21
38.625167846679
 31
0.0
  0
LINE
  5
3458
330
1F
100
AcDbEntity
  8
AM_0
  6
CONTINUOUS
 48
0.5
100
AcDbLine
 10
-2.623245239257997
 20
38.87659072875999
 30
0.0
 11
-6.227603912354013
 21
38.57437133789
 31
0.0
  0
LINE
  5
3459
330
1F
100
AcDbEntity
  8
AM_0
  6
CONTINUOUS
 48
0.5
100
AcDbLine
 10
-6.227577209473011
 20
38.57435607910099
 30
0.0
 11
-1.829189300537009
 21
38.625167846679
 31
0.0
  0
LINE
  5
345A
330
1F
100
AcDbEntity
  8
AM_0
  6
CONTINUOUS
 48
0.5
100
AcDbLine
 10
-6.227626800537009
 20
38.57438278198199
 30
0.0
 11
-9.821537017823004
 21
38.86890792846699
 31
0.0
  0
LINE
  5
345B
330
1F
100
AcDbEntity
  8
AM_0
  6
CONTINUOUS
 48
0.5
100
AcDbLine
 10
-6.310501098632997
 20
37.65299606323199
 30
0.0
 11
-6.227615356446008
 21
38.57438278198199
 31
0.0
  0
LINE
  5
345C
330
1F
100
AcDbEntity
  8
AM_0
  6
CONTINUOUS
 48
0.5
100
AcDbLine
 10
-6.313121795654993
 20
37.50378036499
 30
0.0
 11
-6.310497283936001
 21
37.652988433838
 31
0.0
  0
LINE
  5
345D
330
1F
100
AcDbEntity
  8
AM_0
  6
CONTINUOUS
 48
0.5
100
AcDbLine
 10
-1.829257965088004
 20
38.62522125244101
 30
0.0
 11
-2.623359680175994
 21
38.87662506103501
 31
0.0
  0
LINE
  5
345E
330
1F
100
AcDbEntity
  8
AM_0
  6
CONTINUOUS
 48
0.5
100
AcDbLine
 10
-1.420818328858004
 20
40.07107925414999
 30
0.0
 11
-1.061592102050994
 21
43.706016540527
 31
0.0
  0
LINE
  5
345F
330
1F
100
AcDbEntity
  8
AM_0
  6
CONTINUOUS
 48
0.5
100
AcDbLine
 10
-1.061550140381001
 20
43.70603179931601
 30
0.0
 11
-1.216060638428004
 21
39.23411178588802
 31
0.0
  0
LINE
  5
3460
330
1F
100
AcDbEntity
  8
AM_0
  6
CONTINUOUS
 48
0.5
100
AcDbLine
 10
-0.1752243042000003
 20
43.74734878539999
 30
0.0
 11
-0.3312301635750003
 21
38.548057556152
 31
0.0
  0
LINE
  5
3461
330
1F
100
AcDbEntity
  8
AM_0
  6
CONTINUOUS
 48
0.5
100
AcDbLine
 10
-1.420814514159999
 20
40.07112121581999
 30
0.0
 11
-1.216106414794992
 21
39.23412704467799
 31
0.0
  0
LINE
  5
3462
330
1F
100
AcDbEntity
  8
AM_0
  6
CONTINUOUS
 48
0.5
100
AcDbLine
 10
-0.3312835693360085
 20
38.548095703125
 30
0.0
 11
-1.216083526611996
 21
39.234069824219
 31
0.0
  0
LINE
  5
3463
330
1F
100
AcDbEntity
  8
AM_0
  6
CONTINUOUS
 48
0.5
100
AcDbLine
 10
-0.9524078369140056
 20
37.707569122314
 30
0.0
 11
-1.181800842284999
 21
37.703357696533
 31
0.0
  0
LINE
  5
3464
330
1F
100
AcDbEntity
  8
AM_0
  6
CONTINUOUS
 48
0.5
100
AcDbLine
 10
-1.181793212891008
 20
37.55420684814399
 30
0.0
 11
-1.181793212891008
 21
37.70337677001899
 31
0.0
  0
LINE
  5
3465
330
1F
100
AcDbEntity
  8
AM_0
  6
CONTINUOUS
 48
0.5
100
AcDbLine
 10
-1.181770324707002
 20
37.55422973632801
 30
0.0
 11
-0.9524726867680044
 21
37.558502197265
 31
0.0
  0
LINE
  5
3466
330
1F
100
AcDbEntity
  8
AM_0
  6
CONTINUOUS
 48
0.5
100
AcDbLine
 10
-0.1836814880370099
 20
38.54572677612301
 30
0.0
 11
-0.1917076110839986
 21
38.314208984375
 31
0.0
  0
LINE
  5
3467
330
1F
100
AcDbEntity
  8
AM_0
  6
CONTINUOUS
 48
0.5
100
AcDbLine
 10
-0.1837081909180114
 20
38.54571151733401
 30
0.0
 11
-0.3312683105470029
 21
38.548122406006
 31
0.0
  0
LINE
  5
3468
330
1F
100
AcDbEntity
  8
AM_0
  6
CONTINUOUS
 48
0.5
100
AcDbLine
 10
-0.3394279479980042
 20
38.316589355469
 30
0.0
 11
-0.3313407897949929
 21
38.54810714721699
 31
0.0
  0
LINE
  5
3469
330
1F
100
AcDbEntity
  8
AM_0
  6
CONTINUOUS
 48
0.5
100
AcDbLine
 10
-1.061618804931995
 20
43.70602035522401
 30
0.0
 11
-1.057529449463004
 21
48.26970672607401
 31
0.0
  0
LINE
  5
346A
330
1F
100
AcDbEntity
  8
AM_0
  6
CONTINUOUS
 48
0.5
100
AcDbLine
 10
-1.057495117187997
 20
48.269660949707
 30
0.0
 11
-1.293182373047002
 21
47.34024810791001
 31
0.0
  0
LINE
  5
346B
330
1F
100
AcDbEntity
  8
AM_0
  6
CONTINUOUS
 48
0.5
100
AcDbLine
 10
-1.293201446534013
 20
47.34027862548799
 30
0.0
 11
-1.061603546143004
 21
43.70598602294902
 31
0.0
  0
LINE
  5
346C
330
1F
100
AcDbEntity
  8
AM_0
  6
CONTINUOUS
 48
0.5
100
AcDbLine
 10
-0.1753692626960088
 20
43.747367858887
 30
0.0
 11
-1.061611175537009
 21
43.70598602294902
 31
0.0
  0
LINE
  5
346D
330
1F
100
AcDbEntity
  8
AM_0
  6
CONTINUOUS
 48
0.5
100
AcDbLine
 10
-0.0276260375980115
 20
43.74751663207999
 30
0.0
 11
-0.1753311157230115
 21
43.747394561767
 31
0.0
  0
SPLINE
  5
346E
330
1F
100
AcDbEntity
  8
AM_0
  6
CONTINUOUS
 48
0.5
100
AcDbSpline
210
0.0
220
0.0
230
1.0
 70
     8
 71
     3
 72
    11
 73
     7
 74
     5
 42
0.0000000001
 43
0.0000000001
 44
0.0000000001
 40
0.0
 40
0.0
 40
0.0
 40
0.0
 40
1.314577781185405
 40
2.624822024362833
 40
3.930613378346285
 40
5.232234098131339
 40
5.232234098131339
 40
5.232234098131339
 40
5.232234098131339
 10
-6.094207763672002
 20
49.97788238525399
 30
0.0
 10
-6.532326102006345
 20
49.98615482442558
 30
0.0
 10
-7.407118510790439
 20
50.00267243246945
 30
0.0
 10
-8.717322288723138
 20
50.01115282289966
 30
0.0
 10
-10.02323361921648
 20
50.00839706893592
 30
0.0
 10
-10.89228178921506
 20
49.99539157605736
 30
0.0
 10
-11.326110839844
 20
49.988899230957
 30
0.0
 11
-6.094207763672002
 21
49.97788238525399
 31
0.0
 11
-7.408599853516008
 21
49.99997711181601
 31
0.0
 11
-8.718811035157003
 21
50.00928497314399
 31
0.0
 11
-10.024597167969
 21
50.00559234619101
 31
0.0
 11
-11.326110839844
 21
49.988899230957
 31
0.0
  0
SPLINE
  5
346F
330
1F
100
AcDbEntity
  8
AM_0
  6
CONTINUOUS
 48
0.5
100
AcDbSpline
210
0.0
220
0.0
230
1.0
 70
     8
 71
     3
 72
    11
 73
     7
 74
     5
 42
0.0000000001
 43
0.0000000001
 44
0.0000000001
 40
0.0
 40
0.0
 40
0.0
 40
0.0
 40
0.2319972302317634
 40
0.4656339287863779
 40
0.69862598066545
 40
0.9284657262388213
 40
0.9284657262388213
 40
0.9284657262388213
 40
0.9284657262388213
 10
-12.168609619141
 20
49.22647857666001
 30
0.0
 10
-12.15307062427628
 20
49.30344407228263
 30
0.0
 10
-12.12188282422788
 20
49.4579189600731
 30
0.0
 10
-11.97060800236691
 20
49.64209884191192
 30
0.0
 10
-11.78594908301139
 20
49.79198501284015
 30
0.0
 10
-11.63197444153679
 20
49.8210525736205
 30
0.0
 10
-11.55551147461
 20
49.835487365722
 30
0.0
 11
-12.168609619141
 21
49.22647857666001
 31
0.0
 11
-12.104705810547
 21
49.449501037597
 31
0.0
 11
-11.964782714844
 21
49.636604309082
 31
0.0
 11
-11.77719116211
 21
49.774787902832
 31
0.0
 11
-11.55551147461
 21
49.835487365722
 31
0.0
  0
ELLIPSE
  5
3470
330
1F
100
AcDbEntity
  8
AM_0
  6
CONTINUOUS
 48
0.5
100
AcDbEllipse
 10
-11.502899169922
 20
49.16217803955101
 30
0.0
 11
-0.5205993684599975
 21
0.6557617228120023
 31
0.0
210
0.0
220
0.0
230
1.0
 40
0.9537956027345
 41
5.653643847883563
 42
7.125691926890482
  0
SPLINE
  5
3471
330
1F
100
AcDbEntity
  8
AM_0
  6
CONTINUOUS
 48
0.5
100
AcDbSpline
210
0.0
220
0.0
230
1.0
 70
     8
 71
     3
 72
    11
 73
     7
 74
     5
 42
0.0000000001
 43
0.0000000001
 44
0.0000000001
 40
0.0
 40
0.0
 40
0.0
 40
0.0
 40
0.1130464438740395
 40
0.2257928504965658
 40
0.341414912755488
 40
0.462568210458813
 40
0.462568210458813
 40
0.462568210458813
 40
0.462568210458813
 10
-11.00588989257799
 20
48.66880035400399
 30
0.0
 10
-10.97789876441647
 20
48.69416847614586
 30
0.0
 10
-10.92199079951624
 20
48.74483739074293
 30
0.0
 10
-10.82284459952812
 20
48.80216206339416
 30
0.0
 10
-10.71399802275603
 20
48.84529263092558
 30
0.0
 10
-10.63632956034993
 20
48.86018523048643
 30
0.0
 10
-10.596588134766
 20
48.867805480957
 30
0.0
 11
-11.00588989257799
 21
48.66880035400399
 31
0.0
 11
-10.919494628907
 21
48.74170684814399
 31
0.0
 11
-10.822509765625
 21
48.799201965332
 31
0.0
 11
-10.714782714844
 21
48.841194152832
 31
0.0
 11
-10.596588134766
 21
48.867805480957
 31
0.0
  0
SPLINE
  5
3472
330
1F
100
AcDbEntity
  8
AM_0
  6
CONTINUOUS
 48
0.5
100
AcDbSpline
210
0.0
220
0.0
230
1.0
 70
     8
 71
     3
 72
    11
 73
     7
 74
     5
 42
0.0000000001
 43
0.0000000001
 44
0.0000000001
 40
0.0
 40
0.0
 40
0.0
 40
0.0
 40
0.1157883727113918
 40
0.231638831227161
 40
0.3487038193791437
 40
0.465439583271637
 40
0.465439583271637
 40
0.465439583271637
 40
0.465439583271637
 10
-10.596588134766
 20
48.867805480957
 30
0.0
 10
-10.63519690929582
 20
48.86396619842111
 30
0.0
 10
-10.71243516040668
 20
48.85628557472341
 30
0.0
 10
-10.82072887888241
 20
48.81041807999584
 30
0.0
 10
-10.91982012924646
 20
48.74817396623509
 30
0.0
 10
-10.97722691707116
 20
48.69523337548803
 30
0.0
 10
-11.00588989257799
 20
48.66880035400399
 30
0.0
 11
-10.596588134766
 21
48.867805480957
 31
0.0
 11
-10.711090087891
 21
48.85059356689399
 31
0.0
 11
-10.818786621094
 21
48.807899475097
 31
0.0
 11
-10.917694091797
 21
48.74527740478502
 31
0.0
 11
-11.00588989257799
 21
48.66880035400399
 31
0.0
  0
SPLINE
  5
3473
330
1F
100
AcDbEntity
  8
AM_0
  6
CONTINUOUS
 48
0.5
100
AcDbSpline
210
0.0
220
0.0
230
1.0
 70
     8
 71
     3
 72
    11
 73
     7
 74
     5
 42
0.0000000001
 43
0.0000000001
 44
0.0000000001
 40
0.0
 40
0.0
 40
0.0
 40
0.0
 40
1.293164391136114
 40
2.57896190466675
 40
3.857430026682865
 40
5.128578514901027
 40
5.128578514901027
 40
5.128578514901027
 40
5.128578514901027
 10
-0.9685974121100002
 20
49.850898742676
 30
0.0
 10
-1.399620928686571
 20
49.85640566876333
 30
0.0
 10
-2.25921251416928
 20
49.86738814917214
 30
0.0
 10
-3.545049802689651
 20
49.86759335853969
 30
0.0
 10
-4.823502891175484
 20
49.85653046686704
 30
0.0
 10
-5.673181910041734
 20
49.83802846070759
 30
0.0
 10
-6.096801757812997
 20
49.828804016113
 30
0.0
 11
-0.9685974121100002
 21
49.850898742676
 31
0.0
 11
-2.261688232422002
 21
49.86469268798799
 31
0.0
 11
-3.547485351562997
 21
49.86569976806601
 31
0.0
 11
-4.825897216797002
 21
49.85370635986299
 31
0.0
 11
-6.096801757812997
 21
49.828804016113
 31
0.0
  0
SPLINE
  5
3474
330
1F
100
AcDbEntity
  8
AM_0
  6
CONTINUOUS
 48
0.5
100
AcDbSpline
210
0.0
220
0.0
230
1.0
 70
     8
 71
     3
 72
    11
 73
     7
 74
     5
 42
0.0000000001
 43
0.0000000001
 44
0.0000000001
 40
0.0
 40
0.0
 40
0.0
 40
0.0
 40
1.271632118438152
 40
2.542169201862877
 40
3.845130034928418
 40
5.130874855789487
 40
5.130874855789487
 40
5.130874855789487
 40
5.130874855789487
 10
-6.094207763672002
 20
49.97788238525399
 30
0.0
 10
-5.67033248676971
 20
49.9797125472983
 30
0.0
 10
-4.822946942831426
 20
49.98337129538747
 30
0.0
 10
-3.541360452438391
 20
50.00456119453177
 30
0.0
 10
-2.25491300492322
 20
49.99886548354344
 30
0.0
 10
-1.39201553899759
 20
49.99962350824517
 30
0.0
 10
-0.9634361267089985
 20
50.0
 30
0.0
 11
-6.094207763672002
 21
49.97788238525399
 31
0.0
 11
-4.82260131836
 21
49.9859627865112
 31
0.0
 11
-3.552141780635608
 21
50.0
 31
0.0
 11
-2.249180947570067
 21
50.0
 31
0.0
 11
-0.9634361267089985
 21
50.0
 31
0.0
  0
SPLINE
  5
3475
330
1F
100
AcDbEntity
  8
AM_0
  6
CONTINUOUS
 48
0.5
100
AcDbSpline
210
0.0
220
0.0
230
1.0
 70
     8
 71
     3
 72
    11
 73
     7
 74
     5
 42
0.0000000001
 43
0.0000000001
 44
0.0000000001
 40
0.0
 40
0.0
 40
0.0
 40
0.0
 40
0.0476719834191275
 40
0.0949702719070739
 40
0.1420223308654548
 40
0.1891000351459414
 40
0.1891000351459414
 40
0.1891000351459414
 40
0.1891000351459414
 10
-1.246887207032003
 20
48.67938995361299
 30
0.0
 10
-1.258122297456118
 20
48.69063436046161
 30
0.0
 10
-1.280504407784901
 20
48.71303503060907
 30
0.0
 10
-1.316428908458076
 20
48.74393115129642
 30
0.0
 10
-1.35406279696392
 20
48.77239693560892
 30
0.0
 10
-1.380490049244744
 20
48.78932954528503
 30
0.0
 10
-1.393707275391008
 20
48.79779815673799
 30
0.0
 11
-1.246887207032003
 21
48.67938995361299
 31
0.0
 11
-1.281005859375
 21
48.712684631347
 31
0.0
 11
-1.316802978516008
 21
48.743598937988
 31
0.0
 11
-1.354400634766008
 21
48.77188873291001
 31
0.0
 11
-1.393707275391008
 21
48.79779815673799
 31
0.0
  0
SPLINE
  5
3476
330
1F
100
AcDbEntity
  8
AM_0
  6
CONTINUOUS
 48
0.5
100
AcDbSpline
210
0.0
220
0.0
230
1.0
 70
     8
 71
     3
 72
    11
 73
     7
 74
     5
 42
0.0000000001
 43
0.0000000001
 44
0.0000000001
 40
0.0
 40
0.0
 40
0.0
 40
0.0
 40
0.0684690753285664
 40
0.1356092522579806
 40
0.202523891180344
 40
0.2705834957640384
 40
0.2705834957640384
 40
0.2705834957640384
 40
0.2705834957640384
 10
-1.393798828125
 20
48.79779815673799
 30
0.0
 10
-1.413510358383405
 20
48.80937447634838
 30
0.0
 10
-1.452550842958019
 20
48.83230243380551
 30
0.0
 10
-1.515910934986947
 20
48.85635351782013
 30
0.0
 10
-1.581585880256496
 20
48.87253833610455
 30
0.0
 10
-1.626535153805746
 20
48.8757623294809
 30
0.0
 10
-1.649200439452997
 20
48.877388000488
 30
0.0
 11
-1.393798828125
 21
48.79779815673799
 31
0.0
 11
-1.453796386719005
 21
48.830787658691
 31
0.0
 11
-1.516387939452997
 21
48.85507965087899
 31
0.0
 11
-1.581481933594005
 21
48.87058258056601
 31
0.0
 11
-1.649200439452997
 21
48.877388000488
 31
0.0
  0
SPLINE
  5
3477
330
1F
100
AcDbEntity
  8
AM_0
  6
CONTINUOUS
 48
0.5
100
AcDbSpline
210
0.0
220
0.0
230
1.0
 70
     8
 71
     3
 72
    11
 73
     7
 74
     5
 42
0.0000000001
 43
0.0000000001
 44
0.0000000001
 40
0.0
 40
0.0
 40
0.0
 40
0.0
 40
0.2278512278684673
 40
0.4566116530237613
 40
0.6861695737652245
 40
0.9159080139494301
 40
0.9159080139494301
 40
0.9159080139494301
 40
0.9159080139494301
 10
-0.7394104003910087
 20
49.84708404541001
 30
0.0
 10
-0.6635246917856954
 20
49.8328940804478
 30
0.0
 10
-0.5114504669886523
 20
49.8044575281485
 30
0.0
 10
-0.3307828967834525
 20
49.65470742408421
 30
0.0
 10
-0.1858512411518679
 20
49.46962189338214
 30
0.0
 10
-0.1604237970905571
 20
49.31615241221315
 30
0.0
 10
-0.147705078125
 20
49.239387512207
 30
0.0
 11
-0.7394104003910087
 21
49.84708404541001
 31
0.0
 11
-0.5196838378910087
 21
49.78678131103501
 31
0.0
 11
-0.3370056152350003
 21
49.64908599853501
 31
0.0
 11
-0.2037048339850003
 21
49.462196350097
 31
0.0
 11
-0.147705078125
 21
49.239387512207
 31
0.0
  0
ELLIPSE
  5
3478
330
1F
100
AcDbEntity
  8
AM_0
  6
CONTINUOUS
 48
0.5
100
AcDbEllipse
 10
-0.8155822753910086
 20
49.17368316650399
 30
0.0
 11
0.5714416469019952
 21
0.6331787036089978
 31
0.0
210
0.0
220
0.0
230
1.0
 40
0.9192111985961
 41
5.488300790266648
 42
6.959475179307912
  0
LINE
  5
3479
330
1F
100
AcDbEntity
  8
AM_0
  6
CONTINUOUS
 48
0.5
100
AcDbLine
 10
-6.096790313721001
 20
49.82875823974601
 30
0.0
 11
-11.32621002197299
 21
49.839653015137
 31
0.0
  0
LINE
  5
347A
330
1F
100
AcDbEntity
  8
AM_0
  6
CONTINUOUS
 48
0.5
100
AcDbLine
 10
-6.047706604004005
 20
48.826698303222
 30
0.0
 11
-10.596591949463
 21
48.867805480957
 31
0.0
  0
LINE
  5
347B
330
1F
100
AcDbEntity
  8
AM_0
  6
CONTINUOUS
 48
0.5
100
AcDbLine
 10
-25.59982258887115
 20
48.74999999999985
 30
0.0
 11
-12.33237815708565
 21
48.75
 31
0.0
  0
LINE
  5
347C
330
1F
100
AcDbEntity
  8
AM_0
  6
CONTINUOUS
 48
0.5
100
AcDbLine
 10
-11.32610321045
 20
49.98893737792901
 30
0.0
 11
-11.326194763184
 21
49.83973693847599
 31
0.0
  0
LINE
  5
347D
330
1F
100
AcDbEntity
  8
AM_0
  6
CONTINUOUS
 48
0.5
100
AcDbLine
 10
-11.326110839844
 20
49.988948822021
 30
0.0
 11
-11.555496215821
 21
49.984645843506
 31
0.0
  0
LINE
  5
347E
330
1F
100
AcDbEntity
  8
AM_0
  6
CONTINUOUS
 48
0.5
100
AcDbLine
 10
-12.32433319091799
 20
48.997417449951
 30
0.0
 11
-12.316215515137
 21
49.22899627685499
 31
0.0
  0
LINE
  5
347F
330
1F
100
AcDbEntity
  8
AM_0
  6
CONTINUOUS
 48
0.5
100
AcDbLine
 10
-12.32434082031299
 20
48.99742507934499
 30
0.0
 11
-12.176620483399
 21
48.99504470825201
 31
0.0
  0
LINE
  5
3480
330
1F
100
AcDbEntity
  8
AM_0
  6
CONTINUOUS
 48
0.5
100
AcDbLine
 10
-12.168632507325
 20
49.22645568847599
 30
0.0
 11
-12.17662811279299
 21
48.994964599609
 31
0.0
  0
LINE
  5
3481
330
1F
100
AcDbEntity
  8
AM_0
  6
CONTINUOUS
 48
0.5
100
AcDbLine
 10
-11.326217651367
 20
49.839637756347
 30
0.0
 11
-10.59661102294999
 21
48.86775588989201
 31
0.0
  0
LINE
  5
3482
330
1F
100
AcDbEntity
  8
AM_0
  6
CONTINUOUS
 48
0.5
100
AcDbLine
 10
-11.55557250976601
 20
49.835525512695
 30
0.0
 11
-11.326240539551
 21
49.83973693847599
 31
0.0
  0
LINE
  5
3483
330
1F
100
AcDbEntity
  8
AM_0
  6
CONTINUOUS
 48
0.5
100
AcDbLine
 10
-6.047706604004005
 20
48.82666778564399
 30
0.0
 11
-1.649188995361996
 21
48.87735748291001
 31
0.0
  0
LINE
  5
3484
330
1F
100
AcDbEntity
  8
AM_0
  6
CONTINUOUS
 48
0.5
100
AcDbLine
 10
-2.453853607178004
 20
48.532279968262
 30
0.0
 11
-1.649250030518004
 21
48.877376556396
 31
0.0
  0
LINE
  5
3485
330
1F
100
AcDbEntity
  8
AM_0
  6
CONTINUOUS
 48
0.5
100
AcDbLine
 10
-2.453758239745994
 20
48.532318115234
 30
0.0
 11
-6.047679901123004
 21
48.82672119140599
 31
0.0
  0
LINE
  5
3486
330
1F
100
AcDbEntity
  8
AM_0
  6
CONTINUOUS
 48
0.5
100
AcDbLine
 10
-6.096832275391008
 20
49.82881164550801
 30
0.0
 11
-6.047729492187997
 21
48.82672119140599
 31
0.0
  0
LINE
  5
3487
330
1F
100
AcDbEntity
  8
AM_0
  6
CONTINUOUS
 48
0.5
100
AcDbLine
 10
-6.094223022461008
 20
49.97790908813499
 30
0.0
 11
-6.096817016602003
 21
49.82882308959901
 31
0.0
  0
LINE
  5
3488
330
1F
100
AcDbEntity
  8
AM_0
  6
CONTINUOUS
 48
0.5
100
AcDbLine
 10
-0.9686203002930113
 20
49.85086441039999
 30
0.0
 11
-1.649208068848011
 21
48.877376556396
 31
0.0
  0
LINE
  5
3489
330
1F
100
AcDbEntity
  8
AM_0
  6
CONTINUOUS
 48
0.5
100
AcDbLine
 10
-1.649158477784013
 20
48.87735748291001
 30
0.0
 11
-1.393688201904993
 21
48.797775268554
 31
0.0
  0
LINE
  5
348A
330
1F
100
AcDbEntity
  8
AM_0
  6
CONTINUOUS
 48
0.5
100
AcDbLine
 10
-0.1477737426759944
 20
49.23939132690401
 30
0.0
 11
-0.1478652954099999
 21
49.00788497924802
 31
0.0
  0
LINE
  5
348B
330
1F
100
AcDbEntity
  8
AM_0
  6
CONTINUOUS
 48
0.5
100
AcDbLine
 10
0.0000152587889914
 20
49.01072311401302
 30
0.0
 11
-0.1477851867680044
 21
49.007915496826
 31
0.0
  0
LINE
  5
348C
330
1F
100
AcDbEntity
  8
AM_0
  6
CONTINUOUS
 48
0.5
100
AcDbLine
 10
-0.0000381469730115
 20
49.010677337646
 30
0.0
 11
0.000053405760994
 21
49.24218368530299
 31
0.0
  0
LINE
  5
348D
330
1F
100
AcDbEntity
  8
AM_0
  6
CONTINUOUS
 48
0.5
100
AcDbLine
 10
-0.9634361267089985
 20
50.0
 30
0.0
 11
-0.7342300415040058
 21
49.996265411377
 31
0.0
  0
LINE
  5
348E
330
1F
100
AcDbEntity
  8
AM_0
  6
CONTINUOUS
 48
0.5
100
AcDbLine
 10
-0.9634361267089985
 20
50.0
 30
0.0
 11
-0.9686241149910017
 21
49.85092163085901
 31
0.0
  0
LINE
  5
348F
330
1F
100
AcDbEntity
  8
AM_0
  6
CONTINUOUS
 48
0.5
100
AcDbLine
 10
-0.7394409179690058
 20
49.847103118896
 30
0.0
 11
-0.9686241149910017
 21
49.85091781616199
 31
0.0
  0
ELLIPSE
  5
3708
330
1F
100
AcDbEntity
  8
AM_0
  6
CONTINUOUS
 48
0.5
100
AcDbEllipse
 10
-0.8154561600156569
 20
-49.17370605468798
 30
0.0
 11
0.5714416469019952
 21
-0.6331787036089978
 31
0.0
210
0.0
220
0.0
230
-1.0
 40
0.9192111985961
 41
5.488300790266648
 42
6.959475179307912
  0
SPLINE
  5
3709
330
1F
100
AcDbEntity
  8
AM_0
  6
CONTINUOUS
 48
0.5
100
AcDbSpline
210
0.0
220
0.0
230
1.0
 70
     8
 71
     3
 72
    11
 73
     7
 74
     5
 42
0.0000000001
 43
0.0000000001
 44
0.0000000001
 40
0.0
 40
0.0
 40
0.0
 40
0.0
 40
0.2278512278684673
 40
0.4566116530237613
 40
0.6861695737652245
 40
0.9159080139494301
 40
0.9159080139494301
 40
0.9159080139494301
 40
0.9159080139494301
 10
-0.7392842850156569
 20
-49.847106933594
 30
0.0
 10
-0.6633985764103435
 20
-49.83291696863179
 30
0.0
 10
-0.5113243516133005
 20
-49.80448041633249
 30
0.0
 10
-0.3306567814081007
 20
-49.6547303122682
 30
0.0
 10
-0.185725125776516
 20
-49.46964478156613
 30
0.0
 10
-0.1602976817152053
 20
-49.31617530039715
 30
0.0
 10
-0.1475789627496482
 20
-49.239410400391
 30
0.0
 11
-0.7392842850156569
 21
-49.847106933594
 31
0.0
 11
-0.5195577225156569
 21
-49.786804199219
 31
0.0
 11
-0.3368794998596485
 21
-49.64910888671901
 31
0.0
 11
-0.2035787186096485
 21
-49.46221923828099
 31
0.0
 11
-0.1475789627496482
 21
-49.239410400391
 31
0.0
  0
SPLINE
  5
370A
330
1F
100
AcDbEntity
  8
AM_0
  6
CONTINUOUS
 48
0.5
100
AcDbSpline
210
0.0
220
0.0
230
1.0
 70
     8
 71
     3
 72
    11
 73
     7
 74
     5
 42
0.0000000001
 43
0.0000000001
 44
0.0000000001
 40
0.0
 40
0.0
 40
0.0
 40
0.0
 40
0.0684690753285664
 40
0.1356092522579806
 40
0.202523891180344
 40
0.2705834957640384
 40
0.2705834957640384
 40
0.2705834957640384
 40
0.2705834957640384
 10
-1.393672712749648
 20
-48.79782104492199
 30
0.0
 10
-1.413384243008054
 20
-48.80939736453237
 30
0.0
 10
-1.452424727582667
 20
-48.83232532198949
 30
0.0
 10
-1.515784819611595
 20
-48.85637640600412
 30
0.0
 10
-1.581459764881144
 20
-48.87256122428854
 30
0.0
 10
-1.626409038430395
 20
-48.87578521766489
 30
0.0
 10
-1.649074324077645
 20
-48.87741088867199
 30
0.0
 11
-1.393672712749648
 21
-48.79782104492199
 31
0.0
 11
-1.453670271343654
 21
-48.830810546875
 31
0.0
 11
-1.516261824077645
 21
-48.85510253906298
 31
0.0
 11
-1.581355818218654
 21
-48.87060546875
 31
0.0
 11
-1.649074324077645
 21
-48.87741088867199
 31
0.0
  0
SPLINE
  5
370B
330
1F
100
AcDbEntity
  8
AM_0
  6
CONTINUOUS
 48
0.5
100
AcDbSpline
210
0.0
220
0.0
230
1.0
 70
     8
 71
     3
 72
    11
 73
     7
 74
     5
 42
0.0000000001
 43
0.0000000001
 44
0.0000000001
 40
0.0
 40
0.0
 40
0.0
 40
0.0
 40
0.0476719834191275
 40
0.0949702719070739
 40
0.1420223308654548
 40
0.1891000351459414
 40
0.1891000351459414
 40
0.1891000351459414
 40
0.1891000351459414
 10
-1.246761091656651
 20
-48.67941284179699
 30
0.0
 10
-1.257996182080767
 20
-48.69065724864561
 30
0.0
 10
-1.280378292409549
 20
-48.71305791879307
 30
0.0
 10
-1.316302793082724
 20
-48.74395403948041
 30
0.0
 10
-1.353936681588568
 20
-48.77241982379293
 30
0.0
 10
-1.380363933869392
 20
-48.78935243346903
 30
0.0
 10
-1.393581160015656
 20
-48.79782104492199
 30
0.0
 11
-1.246761091656651
 21
-48.67941284179699
 31
0.0
 11
-1.280879743999648
 21
-48.71270751953099
 31
0.0
 11
-1.316676863140656
 21
-48.74362182617199
 31
0.0
 11
-1.354274519390656
 21
-48.77191162109401
 31
0.0
 11
-1.393581160015656
 21
-48.79782104492199
 31
0.0
  0
SPLINE
  5
370C
330
1F
100
AcDbEntity
  8
AM_0
  6
CONTINUOUS
 48
0.5
100
AcDbSpline
210
0.0
220
0.0
230
1.0
 70
     8
 71
     3
 72
    11
 73
     7
 74
     5
 42
0.0000000001
 43
0.0000000001
 44
0.0000000001
 40
0.0
 40
0.0
 40
0.0
 40
0.0
 40
1.271850257885444
 40
2.550898188383518
 40
3.837305963516584
 40
5.131173526192394
 40
5.131173526192394
 40
5.131173526192394
 40
5.131173526192394
 10
-6.094081648296651
 20
-49.97790527343799
 30
0.0
 10
-5.670227813404144
 20
-49.9871339034135
 30
0.0
 10
-4.820121464120308
 20
-50.00564339015528
 30
0.0
 10
-3.541037927302549
 20
-50.0166431066725
 30
0.0
 10
-2.254568977436717
 20
-50.01668526107414
 30
0.0
 10
-1.394540668896835
 20
-50.00557246302811
 30
0.0
 10
-0.9632833084526453
 20
-50.0
 30
0.0
 11
-6.094081648296651
 21
-49.97790527343799
 31
0.0
 11
-4.822475202984648
 21
-50.00280761718798
 31
0.0
 11
-3.543483503765656
 21
-50.01480102539099
 31
0.0
 11
-2.257076033062645
 21
-50.013916015625
 31
0.0
 11
-0.9632833084526453
 21
-50.0
 31
0.0
  0
SPLINE
  5
370D
330
1F
100
AcDbEntity
  8
AM_0
  6
CONTINUOUS
 48
0.5
100
AcDbSpline
210
0.0
220
0.0
230
1.0
 70
     8
 71
     3
 72
    11
 73
     7
 74
     5
 42
0.0000000001
 43
0.0000000001
 44
0.0000000001
 40
0.0
 40
0.0
 40
0.0
 40
0.0
 40
1.293164391136114
 40
2.57896190466675
 40
3.857430026682865
 40
5.128578514901027
 40
5.128578514901027
 40
5.128578514901027
 40
5.128578514901027
 10
-0.9684712967346484
 20
-49.85092163086
 30
0.0
 10
-1.399494813311219
 20
-49.85642855694732
 30
0.0
 10
-2.259086398793928
 20
-49.86741103735614
 30
0.0
 10
-3.5449236873143
 20
-49.86761624672368
 30
0.0
 10
-4.823376775800132
 20
-49.85655335505104
 30
0.0
 10
-5.673055794666383
 20
-49.83805134889159
 30
0.0
 10
-6.096675642437645
 20
-49.82882690429699
 30
0.0
 11
-0.9684712967346484
 21
-49.85092163086
 31
0.0
 11
-2.261562117046651
 21
-49.86471557617199
 31
0.0
 11
-3.547359236187645
 21
-49.86572265625
 31
0.0
 11
-4.825771101421651
 21
-49.85372924804699
 31
0.0
 11
-6.096675642437645
 21
-49.82882690429699
 31
0.0
  0
SPLINE
  5
370E
330
1F
100
AcDbEntity
  8
AM_0
  6
CONTINUOUS
 48
0.5
100
AcDbSpline
210
0.0
220
0.0
230
1.0
 70
     8
 71
     3
 72
    11
 73
     7
 74
     5
 42
0.0000000001
 43
0.0000000001
 44
0.0000000001
 40
0.0
 40
0.0
 40
0.0
 40
0.0
 40
0.1157883727113918
 40
0.231638831227161
 40
0.3487038193791437
 40
0.465439583271637
 40
0.465439583271637
 40
0.465439583271637
 40
0.465439583271637
 10
-10.59646201939065
 20
-48.86782836914099
 30
0.0
 10
-10.63507079392047
 20
-48.8639890866051
 30
0.0
 10
-10.71230904503133
 20
-48.85630846290741
 30
0.0
 10
-10.82060276350705
 20
-48.81044096817983
 30
0.0
 10
-10.91969401387111
 20
-48.74819685441908
 30
0.0
 10
-10.97710080169581
 20
-48.69525626367201
 30
0.0
 10
-11.00576377720264
 20
-48.66882324218798
 30
0.0
 11
-10.59646201939065
 21
-48.86782836914099
 31
0.0
 11
-10.71096397251565
 21
-48.85061645507798
 31
0.0
 11
-10.81866050571865
 21
-48.80792236328099
 31
0.0
 11
-10.91756797642165
 21
-48.745300292969
 31
0.0
 11
-11.00576377720264
 21
-48.66882324218798
 31
0.0
  0
SPLINE
  5
370F
330
1F
100
AcDbEntity
  8
AM_0
  6
CONTINUOUS
 48
0.5
100
AcDbSpline
210
0.0
220
0.0
230
1.0
 70
     8
 71
     3
 72
    11
 73
     7
 74
     5
 42
0.0000000001
 43
0.0000000001
 44
0.0000000001
 40
0.0
 40
0.0
 40
0.0
 40
0.0
 40
0.1130464438740395
 40
0.2257928504965658
 40
0.341414912755488
 40
0.462568210458813
 40
0.462568210458813
 40
0.462568210458813
 40
0.462568210458813
 10
-11.00576377720264
 20
-48.66882324218798
 30
0.0
 10
-10.97777264904112
 20
-48.69419136432984
 30
0.0
 10
-10.92186468414089
 20
-48.74486027892692
 30
0.0
 10
-10.82271848415277
 20
-48.80218495157816
 30
0.0
 10
-10.71387190738068
 20
-48.84531551910957
 30
0.0
 10
-10.63620344497457
 20
-48.86020811867042
 30
0.0
 10
-10.59646201939065
 20
-48.86782836914099
 30
0.0
 11
-11.00576377720264
 21
-48.66882324218798
 31
0.0
 11
-10.91936851353165
 21
-48.74172973632798
 31
0.0
 11
-10.82238365024964
 21
-48.79922485351599
 31
0.0
 11
-10.71465659946865
 21
-48.84121704101599
 31
0.0
 11
-10.59646201939065
 21
-48.86782836914099
 31
0.0
  0
ELLIPSE
  5
3710
330
1F
100
AcDbEntity
  8
AM_0
  6
CONTINUOUS
 48
0.5
100
AcDbEllipse
 10
-11.50277305454665
 20
-49.162200927735
 30
0.0
 11
-0.5205993684599975
 21
-0.6557617228120023
 31
0.0
210
0.0
220
0.0
230
-1.0
 40
0.9537956027345
 41
5.653643847883563
 42
7.125691926890482
  0
SPLINE
  5
3711
330
1F
100
AcDbEntity
  8
AM_0
  6
CONTINUOUS
 48
0.5
100
AcDbSpline
210
0.0
220
0.0
230
1.0
 70
     8
 71
     3
 72
    11
 73
     7
 74
     5
 42
0.0000000001
 43
0.0000000001
 44
0.0000000001
 40
0.0
 40
0.0
 40
0.0
 40
0.0
 40
0.2319972302317634
 40
0.4656339287863779
 40
0.69862598066545
 40
0.9284657262388213
 40
0.9284657262388213
 40
0.9284657262388213
 40
0.9284657262388213
 10
-12.16848350376565
 20
-49.226501464844
 30
0.0
 10
-12.15294450890093
 20
-49.30346696046662
 30
0.0
 10
-12.12175670885253
 20
-49.45794184825709
 30
0.0
 10
-11.97048188699156
 20
-49.64212173009591
 30
0.0
 10
-11.78582296763604
 20
-49.79200790102415
 30
0.0
 10
-11.63184832616144
 20
-49.82107546180449
 30
0.0
 10
-11.55538535923464
 20
-49.835510253906
 30
0.0
 11
-12.16848350376565
 21
-49.226501464844
 31
0.0
 11
-12.10457969517165
 21
-49.44952392578099
 31
0.0
 11
-11.96465659946865
 21
-49.63662719726599
 31
0.0
 11
-11.77706504673464
 21
-49.77481079101599
 31
0.0
 11
-11.55538535923464
 21
-49.835510253906
 31
0.0
  0
SPLINE
  5
3712
330
1F
100
AcDbEntity
  8
AM_0
  6
CONTINUOUS
 48
0.5
100
AcDbSpline
210
0.0
220
0.0
230
1.0
 70
     8
 71
     3
 72
    11
 73
     7
 74
     5
 42
0.0000000001
 43
0.0000000001
 44
0.0000000001
 40
0.0
 40
0.0
 40
0.0
 40
0.0
 40
1.314577781185405
 40
2.624822024362833
 40
3.930613378346285
 40
5.232234098131339
 40
5.232234098131339
 40
5.232234098131339
 40
5.232234098131339
 10
-6.094081648296651
 20
-49.97790527343799
 30
0.0
 10
-6.532199986630994
 20
-49.98617771260957
 30
0.0
 10
-7.406992395415089
 20
-50.00269532065344
 30
0.0
 10
-8.717196173347785
 20
-50.01117571108366
 30
0.0
 10
-10.02310750384113
 20
-50.00841995711992
 30
0.0
 10
-10.8921556738397
 20
-49.99541446424134
 30
0.0
 10
-11.32598472446865
 20
-49.988922119141
 30
0.0
 11
-6.094081648296651
 21
-49.97790527343799
 31
0.0
 11
-7.408473738140656
 21
-50.0
 31
0.0
 11
-8.718684919781651
 21
-50.00930786132798
 31
0.0
 11
-10.02447105259365
 21
-50.005615234375
 31
0.0
 11
-11.32598472446865
 21
-49.988922119141
 31
0.0
  0
ELLIPSE
  5
3713
330
1F
100
AcDbEntity
  8
AM_0
  6
CONTINUOUS
 48
0.5
100
AcDbEllipse
 10
-1.004878767437645
 20
-38.38092041015599
 30
0.0
 11
-0.5205993684599975
 21
-0.6557617228129971
 31
0.0
210
0.0
220
0.0
230
-1.0
 40
0.9537956027345
 41
2.512058668530255
 42
3.984086540768415
  0
SPLINE
  5
3714
330
1F
100
AcDbEntity
  8
AM_0
  6
CONTINUOUS
 48
0.5
100
AcDbSpline
210
0.0
220
0.0
230
1.0
 70
     8
 71
     3
 72
    11
 73
     7
 74
     5
 42
0.0000000001
 43
0.0000000001
 44
0.0000000001
 40
0.0
 40
0.0
 40
0.0
 40
0.0
 40
0.2318546702974079
 40
0.4655464237437881
 40
0.6985022819002788
 40
0.9283956541763114
 40
0.9283956541763114
 40
0.9283956541763114
 40
0.9283956541763114
 10
-0.3392598709526453
 20
-38.31661987304698
 30
0.0
 10
-0.3547777391074065
 20
-38.23970350767697
 30
0.0
 10
-0.385936430085293
 20
-38.08526133586541
 30
0.0
 10
-0.5370880095242669
 20
-37.90101600499385
 30
0.0
 10
-0.7218443567916257
 20
-37.75122975544756
 30
0.0
 10
-0.8757986451525818
 20
-37.722086364468
 30
0.0
 10
-0.9522664627496482
 20
-37.707611083985
 30
0.0
 11
-0.3392598709526453
 21
-38.31661987304698
 31
0.0
 11
-0.4030721268126456
 21
-38.09371948242199
 31
0.0
 11
-0.5429647049376456
 21
-37.90652465820298
 31
0.0
 11
-0.7305562576716511
 21
-37.76840209961
 31
0.0
 11
-0.9522664627496482
 21
-37.707611083985
 31
0.0
  0
SPLINE
  5
3715
330
1F
100
AcDbEntity
  8
AM_0
  6
CONTINUOUS
 48
0.5
100
AcDbSpline
210
0.0
220
0.0
230
1.0
 70
     8
 71
     3
 72
    11
 73
     7
 74
     5
 42
0.0000000001
 43
0.0000000001
 44
0.0000000001
 40
0.0
 40
0.0
 40
0.0
 40
0.0
 40
0.1157883727113918
 40
0.2316726021901128
 40
0.3486723362114507
 40
0.4653681232793696
 40
0.4653681232793696
 40
0.4653681232793696
 40
0.4653681232793696
 10
-1.829066999859648
 20
-38.62521362304699
 30
0.0
 10
-1.790453366123668
 20
-38.62904199021723
 30
0.0
 10
-1.713194131900486
 20
-38.63670189391656
 30
0.0
 10
-1.604984552752421
 20
-38.6827346766766
 30
0.0
 10
-1.505815757982281
 20
-38.74479337492617
 30
0.0
 10
-1.448423865850767
 20
-38.7977055291951
 30
0.0
 10
-1.419765242046651
 20
-38.82412719726599
 30
0.0
 11
-1.829066999859648
 21
-38.62521362304699
 31
0.0
 11
-1.714565046734648
 21
-38.64242553711
 31
0.0
 11
-1.606868513531651
 21
-38.68521118164099
 31
0.0
 11
-1.507961042827645
 21
-38.74771118164099
 31
0.0
 11
-1.419765242046651
 21
-38.82412719726599
 31
0.0
  0
SPLINE
  5
3716
330
1F
100
AcDbEntity
  8
AM_0
  6
CONTINUOUS
 48
0.5
100
AcDbSpline
210
0.0
220
0.0
230
1.0
 70
     8
 71
     3
 72
    11
 73
     7
 74
     5
 42
0.0000000001
 43
0.0000000001
 44
0.0000000001
 40
0.0
 40
0.0
 40
0.0
 40
0.0
 40
0.1166776693075486
 40
0.2345247537768488
 40
0.3513980179872811
 40
0.4679295608872759
 40
0.4679295608872759
 40
0.4679295608872759
 40
0.4679295608872759
 10
-1.419765242046651
 20
-38.82412719726599
 30
0.0
 10
-1.393111825040804
 20
-38.85256640884559
 30
0.0
 10
-1.339537854136986
 20
-38.90972986722537
 30
0.0
 10
-1.276656813312891
 20
-39.00910861513695
 30
0.0
 10
-1.22921700327351
 20
-39.11759582521343
 30
0.0
 10
-1.220380592263957
 20
-39.19530342609533
 30
0.0
 10
-1.215968855327645
 20
-39.23410034179699
 30
0.0
 11
-1.419765242046651
 21
-38.82412719726599
 31
0.0
 11
-1.342677839702645
 21
-38.911712646485
 31
0.0
 11
-1.279079206890656
 21
-39.010925292969
 31
0.0
 11
-1.234859236187645
 21
-39.11911010742199
 31
0.0
 11
-1.215968855327645
 21
-39.23410034179699
 31
0.0
  0
SPLINE
  5
3717
330
1F
100
AcDbEntity
  8
AM_0
  6
CONTINUOUS
 48
0.5
100
AcDbSpline
210
0.0
220
0.0
230
1.0
 70
     8
 71
     3
 72
    11
 73
     7
 74
     5
 42
0.0000000001
 43
0.0000000001
 44
0.0000000001
 40
0.0
 40
0.0
 40
0.0
 40
0.0
 40
1.293055165923317
 40
2.591414527032973
 40
3.895150879884824
 40
5.204172192224989
 40
5.204172192224989
 40
5.204172192224989
 40
5.204172192224989
 10
-0.0274617752496482
 20
-43.74752807617198
 30
0.0
 10
-0.0386535282059557
 20
-43.31665481168971
 30
0.0
 10
-0.061082943406683
 20
-42.45314081297164
 30
0.0
 10
-0.0986297824711287
 20
-41.15529851905008
 30
0.0
 10
-0.1392166720290514
 20
-39.85222326925584
 30
0.0
 10
-0.1687584303707762
 20
-38.98180485782194
 30
0.0
 10
-0.1835591873596485
 20
-38.54571533203099
 30
0.0
 11
-0.0274617752496482
 21
-43.74752807617198
 31
0.0
 11
-0.0616719803276453
 21
-42.45492553711
 31
0.0
 11
-0.0990560135316514
 21
-41.15710449218798
 31
0.0
 11
-0.1397664627496482
 21
-39.85400390625
 31
0.0
 11
-0.1835591873596485
 21
-38.54571533203099
 31
0.0
  0
SPLINE
  5
3718
330
1F
100
AcDbEntity
  8
AM_0
  6
CONTINUOUS
 48
0.5
100
AcDbSpline
210
0.0
220
0.0
230
1.0
 70
     8
 71
     3
 72
    11
 73
     7
 74
     5
 42
0.0000000001
 43
0.0000000001
 44
0.0000000001
 40
0.0
 40
0.0
 40
0.0
 40
0.0
 40
0.4941073216075914
 40
0.925640260755676
 40
1.358957564350377
 40
1.857396473334733
 40
1.857396473334733
 40
1.857396473334733
 40
1.857396473334733
 10
-2.623164900249648
 20
-38.87661743164099
 30
0.0
 10
-2.459003647222597
 20
-38.90259761309978
 30
0.0
 10
-2.151470731977482
 20
-38.95126781264622
 30
0.0
 10
-1.75967755830765
 20
-39.20591028017049
 30
0.0
 10
-1.502062386691666
 20
-39.5971374782575
 30
0.0
 10
-1.449043168288056
 20
-39.90592266987603
 30
0.0
 10
-1.420680769390656
 20
-40.07110595703099
 30
0.0
 11
-2.623164900249648
 21
-38.87661743164099
 31
0.0
 11
-2.142268904156651
 21
-38.99011230468798
 31
0.0
 11
-1.781581648296651
 21
-39.22702026367199
 31
0.0
 11
-1.540981062359648
 21
-39.58740234375
 31
0.0
 11
-1.420680769390656
 21
-40.07110595703099
 31
0.0
  0
SPLINE
  5
3719
330
1F
100
AcDbEntity
  8
AM_0
  6
CONTINUOUS
 48
0.5
100
AcDbSpline
210
0.0
220
0.0
230
1.0
 70
     8
 71
     3
 72
    11
 73
     7
 74
     5
 42
0.0000000001
 43
0.0000000001
 44
0.0000000001
 40
0.0
 40
0.0
 40
0.0
 40
0.0
 40
1.271216692852241
 40
2.550245907170869
 40
3.837050478757785
 40
5.131624324464334
 40
5.131624324464334
 40
5.131624324464334
 40
5.131624324464334
 10
-6.312984236187645
 20
-37.50381469726599
 30
0.0
 10
-5.889245779186528
 20
-37.5048237287986
 30
0.0
 10
-5.039164694070064
 20
-37.50684799307292
 30
0.0
 10
-3.760183436066099
 20
-37.51706522057182
 30
0.0
 10
-2.473463119946174
 20
-37.53205376885537
 30
0.0
 10
-1.613128898681367
 20
-37.54682293006585
 30
0.0
 10
-1.181667097515656
 20
-37.55422973632798
 30
0.0
 11
-6.312984236187645
 21
-37.50381469726599
 31
0.0
 11
-5.041774519390656
 21
-37.50802612304699
 31
0.0
 11
-3.762782820171651
 21
-37.517822265625
 31
0.0
 11
-2.476070173687645
 21
-37.533203125
 31
0.0
 11
-1.181667097515656
 21
-37.55422973632798
 31
0.0
  0
SPLINE
  5
371A
330
1F
100
AcDbEntity
  8
AM_0
  6
CONTINUOUS
 48
0.5
100
AcDbSpline
210
0.0
220
0.0
230
1.0
 70
     8
 71
     3
 72
    11
 73
     7
 74
     5
 42
0.0000000001
 43
0.0000000001
 44
0.0000000001
 40
0.0
 40
0.0
 40
0.0
 40
0.0
 40
1.314789668725523
 40
2.625019651385549
 40
3.930652702695592
 40
5.231683594161635
 40
5.231683594161635
 40
5.231683594161635
 40
5.231683594161635
 10
-6.312984236187645
 20
-37.50381469726599
 30
0.0
 10
-6.751248187755493
 20
-37.50391674384867
 30
0.0
 10
-7.626256193009032
 20
-37.5041204831168
 30
0.0
 10
-8.936457815715908
 20
-37.51152374546391
 30
0.0
 10
-10.24203819239129
 20
-37.52365614730997
 30
0.0
 10
-11.11083073656896
 20
-37.53664058252794
 30
0.0
 10
-11.54446006626565
 20
-37.54312133789099
 30
0.0
 11
-6.312984236187645
 21
-37.50381469726599
 31
0.0
 11
-7.627773054546651
 21
-37.505310058594
 31
0.0
 11
-8.937984236187645
 21
-37.51232910156298
 31
0.0
 11
-10.24355674595264
 21
-37.52490234375
 31
0.0
 11
-11.54446006626565
 21
-37.54312133789099
 31
0.0
  0
ELLIPSE
  5
371B
330
1F
100
AcDbEntity
  8
AM_0
  6
CONTINUOUS
 48
0.5
100
AcDbEllipse
 10
-11.69216514439065
 20
-38.36941528320298
 30
0.0
 11
0.5714416469020023
 21
-0.6331787036099997
 31
0.0
210
0.0
220
0.0
230
-1.0
 40
0.9192111985961
 41
2.346715390780831
 42
3.817890167206236
  0
SPLINE
  5
371C
330
1F
100
AcDbEntity
  8
AM_0
  6
CONTINUOUS
 48
0.5
100
AcDbSpline
210
0.0
220
0.0
230
1.0
 70
     8
 71
     3
 72
    11
 73
     7
 74
     5
 42
0.0000000001
 43
0.0000000001
 44
0.0000000001
 40
0.0
 40
0.0
 40
0.0
 40
0.0
 40
0.2277335126024631
 40
0.4566465252089185
 40
0.6861299164173094
 40
0.9158683566012724
 40
0.9158683566012724
 40
0.9158683566012724
 40
0.9158683566012724
 10
-11.76845908970264
 20
-37.69601440429699
 30
0.0
 10
-11.84430145895631
 20
-37.71021284273864
 30
0.0
 10
-11.99637900778748
 20
-37.73868325758306
 30
0.0
 10
-12.17701854786558
 20
-37.88843758780356
 30
0.0
 10
-12.32204068472539
 20
-38.07348894794056
 30
0.0
 10
-12.34745179849556
 20
-38.22694186537857
 30
0.0
 10
-12.36016441196865
 20
-38.3037109375
 30
0.0
 11
-11.76845908970264
 21
-37.69601440429699
 31
0.0
 11
-11.98806358189065
 21
-37.75631713867198
 31
0.0
 11
-12.17086387485964
 21
-37.89410400390599
 31
0.0
 11
-12.30416465610964
 21
-38.08090209961
 31
0.0
 11
-12.36016441196865
 21
-38.3037109375
 31
0.0
  0
SPLINE
  5
371D
330
1F
100
AcDbEntity
  8
AM_0
  6
CONTINUOUS
 48
0.5
100
AcDbSpline
210
0.0
220
0.0
230
1.0
 70
     8
 71
     3
 72
    11
 73
     7
 74
     5
 42
0.0000000001
 43
0.0000000001
 44
0.0000000001
 40
0.0
 40
0.0
 40
0.0
 40
0.0
 40
0.0685907535286039
 40
0.1357309304589691
 40
0.2026455693803443
 40
0.2708054716569332
 40
0.2708054716569332
 40
0.2708054716569332
 40
0.2708054716569332
 10
-11.03197837681264
 20
-38.69522094726599
 30
0.0
 10
-11.01222545534058
 20
-38.68363600904315
 30
0.0
 10
-10.97313735275007
 20
-38.66071113413795
 30
0.0
 10
-10.90974610511652
 20
-38.63662663486589
 30
0.0
 10
-10.84403396126342
 20
-38.62046570373513
 30
0.0
 10
-10.79905829351187
 20
-38.61717138026046
 30
0.0
 10
-10.77636314243764
 20
-38.61550903320298
 30
0.0
 11
-11.03197837681264
 21
-38.69522094726599
 31
0.0
 11
-10.97185874790665
 21
-38.662200927735
 31
0.0
 11
-10.90926719517165
 21
-38.63790893554698
 31
0.0
 11
-10.84417320103165
 21
-38.62240600586
 31
0.0
 11
-10.77636314243764
 21
-38.61550903320298
 31
0.0
  0
SPLINE
  5
371E
330
1F
100
AcDbEntity
  8
AM_0
  6
CONTINUOUS
 48
0.5
100
AcDbSpline
210
0.0
220
0.0
230
1.0
 70
     8
 71
     3
 72
    11
 73
     7
 74
     5
 42
0.0000000001
 43
0.0000000001
 44
0.0000000001
 40
0.0
 40
0.0
 40
0.0
 40
0.0
 40
0.0476060524776954
 40
0.094884400223241
 40
0.1419548140262958
 40
0.1890157297198859
 40
0.1890157297198859
 40
0.1890157297198859
 40
0.1890157297198859
 10
-11.17867637485964
 20
-38.81362915039099
 30
0.0
 10
-11.16749069888575
 20
-38.80236524431554
 30
0.0
 10
-11.14519634552866
 20
-38.77991496926616
 30
0.0
 10
-11.10922981211818
 20
-38.74910016438814
 30
0.0
 10
-11.07164383964066
 20
-38.7205831543181
 30
0.0
 10
-11.04519930831339
 20
-38.70367444757173
 30
0.0
 10
-11.03197837681264
 20
-38.69522094726599
 30
0.0
 11
-11.17867637485964
 21
-38.81362915039099
 31
0.0
 11
-11.14467979282764
 21
-38.78030395507798
 31
0.0
 11
-11.10888267368764
 21
-38.74942016601599
 31
0.0
 11
-11.07128501743764
 21
-38.72109985351599
 31
0.0
 11
-11.03197837681264
 21
-38.69522094726599
 31
0.0
  0
SPLINE
  5
371F
330
1F
100
AcDbEntity
  8
AM_0
  6
CONTINUOUS
 48
0.5
100
AcDbSpline
210
0.0
220
0.0
230
1.0
 70
     8
 71
     3
 72
    11
 73
     7
 74
     5
 42
0.0000000001
 43
0.0000000001
 44
0.0000000001
 40
0.0
 40
0.0
 40
0.0
 40
0.0
 40
0.1162415672452602
 40
0.2314682479381394
 40
0.3470937495820285
 40
0.4618174561798077
 40
0.4618174561798077
 40
0.4618174561798077
 40
0.4618174561798077
 10
-11.36806846470264
 20
-39.22320556640599
 30
0.0
 10
-11.36508071108438
 20
-39.18436157903288
 30
0.0
 10
-11.35913128944737
 20
-39.10701274493455
 30
0.0
 10
-11.3154993683458
 20
-38.99837816711363
 30
0.0
 10
-11.25591119354721
 20
-38.89921353908912
 30
0.0
 10
-11.20435403397806
 20
-38.84208272607345
 30
0.0
 10
-11.17867637485964
 20
-38.81362915039099
 30
0.0
 11
-11.36806846470264
 21
-39.22320556640599
 31
0.0
 11
-11.35326743931264
 21
-39.10791015625
 31
0.0
 11
-11.31286216587464
 21
-39.0
 31
0.0
 11
-11.25277305454665
 21
-38.90121459961
 31
0.0
 11
-11.17867637485964
 21
-38.81362915039099
 31
0.0
  0
SPLINE
  5
3720
330
1F
100
AcDbEntity
  8
AM_0
  6
CONTINUOUS
 48
0.5
100
AcDbSpline
210
0.0
220
0.0
230
1.0
 70
     8
 71
     3
 72
    11
 73
     7
 74
     5
 42
0.0000000001
 43
0.0000000001
 44
0.0000000001
 40
0.0
 40
0.0
 40
0.0
 40
0.0
 40
0.1111634567530117
 40
0.2226617244319818
 40
0.3375734107684698
 40
0.4588895779330973
 40
0.4588895779330973
 40
0.4588895779330973
 40
0.4588895779330973
 10
-11.17867637485964
 20
-38.81362915039099
 30
0.0
 10
-11.20330086835888
 20
-38.84145123465802
 30
0.0
 10
-11.25262402136218
 20
-38.89717919995469
 30
0.0
 10
-11.30741255602334
 20
-38.99632773076248
 30
0.0
 10
-11.34814176977885
 20
-39.10545131977267
 30
0.0
 10
-11.36130725457833
 20
-39.18325106278343
 30
0.0
 10
-11.36806846470264
 20
-39.22320556640599
 30
0.0
 11
-11.17867637485964
 21
-38.81362915039099
 31
0.0
 11
-11.24926353306264
 21
-38.899505615235
 31
0.0
 11
-11.30437827915665
 21
-38.99642944336
 31
0.0
 11
-11.34395957798464
 21
-39.10430908203099
 31
0.0
 11
-11.36806846470264
 21
-39.22320556640599
 31
0.0
  0
SPLINE
  5
3721
330
1F
100
AcDbEntity
  8
AM_0
  6
CONTINUOUS
 48
0.5
100
AcDbSpline
210
0.0
220
0.0
230
1.0
 70
     8
 71
     3
 72
    11
 73
     7
 74
     5
 42
0.0000000001
 43
0.0000000001
 44
0.0000000001
 40
0.0
 40
0.0
 40
0.0
 40
0.0
 40
0.4945410521458528
 40
0.9204242641885148
 40
1.344652419499037
 40
1.834616501497908
 40
1.834616501497908
 40
1.834616501497908
 40
1.834616501497908
 10
-10.98196006626565
 20
-40.06091308593798
 30
0.0
 10
-10.95958977331407
 20
-39.89608665276115
 30
0.0
 10
-10.91795488710938
 20
-39.589316875374
 30
0.0
 10
-10.67352180464775
 20
-39.19614902960729
 30
0.0
 10
-10.28822476091192
 20
-38.94164696655915
 30
0.0
 10
-9.98427783840194
 20
-38.8943017912206
 30
0.0
 10
-9.821376570171651
 20
-38.86892700195298
 30
0.0
 11
-10.98196006626565
 21
-40.06091308593798
 31
0.0
 11
-10.87856651157764
 21
-39.57730102539099
 31
0.0
 11
-10.65066123814065
 21
-39.217529296875
 31
0.0
 11
-10.29827476353165
 21
-38.98132324218798
 31
0.0
 11
-9.821376570171651
 21
-38.86892700195298
 31
0.0
  0
SPLINE
  5
3722
330
1F
100
AcDbEntity
  8
AM_0
  6
CONTINUOUS
 48
0.5
100
AcDbSpline
210
0.0
220
0.0
230
1.0
 70
     8
 71
     3
 72
    11
 73
     7
 74
     5
 42
0.0000000001
 43
0.0000000001
 44
0.0000000001
 40
0.0
 40
0.0
 40
0.0
 40
0.0
 40
1.29376404842225
 40
2.592160824456052
 40
3.895490093488661
 40
5.20375074421747
 40
5.20375074421747
 40
5.20375074421747
 40
5.20375074421747
 10
-12.37957359165665
 20
-43.73422241211
 30
0.0
 10
-12.39893124080968
 20
-43.30339678458595
 30
0.0
 10
-12.43771585524479
 20
-42.44020282336757
 30
0.0
 10
-12.47631416298962
 20
-41.14223994821673
 30
0.0
 10
-12.50172482601041
 20
-39.83912046172335
 30
0.0
 10
-12.50575769519728
 20
-38.96858890000915
 30
0.0
 10
-12.50777793735964
 20
-38.53250122070298
 30
0.0
 11
-12.37957359165665
 21
-43.73422241211
 31
0.0
 11
-12.43438316196865
 21
-42.44161987304699
 31
0.0
 11
-12.47405601353165
 21
-41.14382934570298
 31
0.0
 11
-12.49847007603165
 21
-39.84072875976599
 31
0.0
 11
-12.50777793735964
 21
-38.53250122070298
 31
0.0
  0
ELLIPSE
  5
3723
330
1F
100
AcDbEntity
  8
AM_0
  6
CONTINUOUS
 48
0.5
100
AcDbEllipse
 10
-6.137477644390656
 20
-43.70062255859401
 30
0.0
 11
1.645233162153999
 21
-2.696166957038002
 31
0.0
210
0.0
220
0.0
230
-1.0
 40
0.979107618681
 41
3.576266351061386
 42
5.84859554926446
  0
ELLIPSE
  5
3724
330
1F
100
AcDbEntity
  8
AM_0
  6
CONTINUOUS
 48
0.5
100
AcDbEllipse
 10
-6.137477644390656
 20
-43.70062255859401
 30
0.0
 11
1.645233162153999
 21
-2.696166957038002
 31
0.0
210
0.0
220
0.0
230
-1.0
 40
0.979107618681
 41
5.848580804279882
 42
9.859451593787555
  0
SPLINE
  5
3725
330
1F
100
AcDbEntity
  8
AM_0
  6
CONTINUOUS
 48
0.5
100
AcDbSpline
210
0.0
220
0.0
230
1.0
 70
     8
 71
     3
 72
    11
 73
     7
 74
     5
 42
0.0000000001
 43
0.0000000001
 44
0.0000000001
 40
0.0
 40
0.0
 40
0.0
 40
0.0
 40
1.319051222289629
 40
2.635851013532014
 40
3.950681072086605
 40
5.263274463920076
 40
5.263274463920076
 40
5.263274463920076
 40
5.263274463920076
 10
-0.0274617752496482
 20
-43.74752807617198
 30
0.0
 10
-0.0233763648296091
 20
-44.18719305838079
 30
0.0
 10
-0.0152125171985353
 20
-45.0657725778008
 30
0.0
 10
-0.0069237979133831
 20
-46.38264179089723
 30
0.0
 10
-0.0014114911375667
 20
-47.69737295020536
 30
0.0
 10
-0.0003861291730646
 20
-48.57318061516459
 30
0.0
 10
0.0001261153753518
 20
-49.01071166992199
 30
0.0
 11
-0.0274617752496482
 21
-43.74752807617198
 31
0.0
 11
-0.0158650955626456
 21
-45.06652832031298
 31
0.0
 11
-0.007381208843654
 21
-46.38330078125
 31
0.0
 11
-0.0020711502496482
 21
-47.69812011718798
 31
0.0
 11
0.0001261153753518
 21
-49.01071166992199
 31
0.0
  0
SPLINE
  5
3726
330
1F
100
AcDbEntity
  8
AM_0
  6
CONTINUOUS
 48
0.5
100
AcDbSpline
210
0.0
220
0.0
230
1.0
 70
     8
 71
     3
 72
    11
 73
     7
 74
     5
 42
0.0000000001
 43
0.0000000001
 44
0.0000000001
 40
0.0
 40
0.0
 40
0.0
 40
0.0
 40
0.116359747648809
 40
0.2316294557141799
 40
0.347202815927683
 40
0.4618674126015196
 40
0.4618674126015196
 40
0.4618674126015196
 40
0.4618674126015196
 10
-1.057369001812645
 20
-48.26971435546901
 30
0.0
 10
-1.060460166519609
 20
-48.3085804037073
 30
0.0
 10
-1.06661353839489
 20
-48.38594840923419
 30
0.0
 10
-1.109938466001808
 20
-48.49472562460722
 30
0.0
 10
-1.169656908879956
 20
-48.59380289903196
 30
0.0
 10
-1.221127416496321
 20
-48.65095138375017
 30
0.0
 10
-1.246761091656651
 20
-48.67941284179699
 30
0.0
 11
-1.057369001812645
 21
-48.26971435546901
 31
0.0
 11
-1.072383650249648
 21
-48.38510131836
 31
0.0
 11
-1.112666853374648
 21
-48.49310302734401
 31
0.0
 11
-1.172755964702645
 21
-48.59182739257798
 31
0.0
 11
-1.246761091656651
 21
-48.67941284179699
 31
0.0
  0
SPLINE
  5
3727
330
1F
100
AcDbEntity
  8
AM_0
  6
CONTINUOUS
 48
0.5
100
AcDbSpline
210
0.0
220
0.0
230
1.0
 70
     8
 71
     3
 72
    11
 73
     7
 74
     5
 42
0.0000000001
 43
0.0000000001
 44
0.0000000001
 40
0.0
 40
0.0
 40
0.0
 40
0.0
 40
0.4944579053871364
 40
0.9204442433080039
 40
1.344604443192952
 40
1.834596542147046
 40
1.834596542147046
 40
1.834596542147046
 40
1.834596542147046
 10
-1.293056257671651
 20
-47.34030151367199
 30
0.0
 10
-1.315455903514459
 20
-47.50508600192212
 30
0.0
 10
-1.357153335881343
 20
-47.81183594351226
 30
0.0
 10
-1.601442205036242
 20
-48.2051049073892
 30
0.0
 10
-1.986885587760554
 20
-48.45942411719168
 30
0.0
 10
-2.290780466542964
 20
-48.5068809286048
 30
0.0
 10
-2.453670271343654
 20
-48.532318115235
 30
0.0
 11
-1.293056257671651
 21
-47.34030151367199
 31
0.0
 11
-1.396480329937645
 21
-47.82382202148499
 31
0.0
 11
-1.624385603374648
 21
-48.18371582031298
 31
0.0
 11
-1.976772077984648
 21
-48.41979980468798
 31
0.0
 11
-2.453670271343654
 21
-48.532318115235
 31
0.0
  0
SPLINE
  5
3728
330
1F
100
AcDbEntity
  8
AM_0
  6
CONTINUOUS
 48
0.5
100
AcDbSpline
210
0.0
220
0.0
230
1.0
 70
     8
 71
     3
 72
    11
 73
     7
 74
     5
 42
0.0000000001
 43
0.0000000001
 44
0.0000000001
 40
0.0
 40
0.0
 40
0.0
 40
0.0
 40
0.1166291365621147
 40
0.2344762210319355
 40
0.3514008359189205
 40
0.4680079268838559
 40
0.4680079268838559
 40
0.4680079268838559
 40
0.4680079268838559
 10
-11.00576377720264
 20
-48.66882324218798
 30
0.0
 10
-11.03243423015514
 20
-48.64041961648315
 30
0.0
 10
-11.08605365327572
 20
-48.58331574848592
 30
0.0
 10
-11.14888433224109
 20
-48.48390709412948
 30
0.0
 10
-11.19645166327616
 20
-48.37541989068641
 30
0.0
 10
-11.20519462619467
 20
-48.29765110388873
 30
0.0
 10
-11.20956016392165
 20
-48.25881958007798
 30
0.0
 11
-11.00576377720264
 21
-48.66882324218798
 31
0.0
 11
-11.08288169712464
 21
-48.58132934570298
 31
0.0
 11
-11.14648032993764
 21
-48.48211669921901
 31
0.0
 11
-11.19076133579665
 21
-48.37390136718799
 31
0.0
 11
-11.20956016392165
 21
-48.25881958007798
 31
0.0
  0
SPLINE
  5
3729
330
1F
100
AcDbEntity
  8
AM_0
  6
CONTINUOUS
 48
0.5
100
AcDbSpline
210
0.0
220
0.0
230
1.0
 70
     8
 71
     3
 72
    11
 73
     7
 74
     5
 42
0.0000000001
 43
0.0000000001
 44
0.0000000001
 40
0.0
 40
0.0
 40
0.0
 40
0.0
 40
1.319030967183264
 40
2.635849098312078
 40
3.950811945591945
 40
5.263915963898323
 40
5.263915963898323
 40
5.263915963898323
 40
5.263915963898323
 10
-12.37957359165665
 20
-43.73422241211
 30
0.0
 10
-12.3836753958421
 20
-44.17388599986386
 30
0.0
 10
-12.39187212293393
 20
-45.05247558583578
 30
0.0
 10
-12.3843896911009
 20
-46.36942950826382
 30
0.0
 10
-12.36418322130259
 20
-47.68427418354889
 30
0.0
 10
-12.33751091024129
 20
-48.55990184193508
 30
0.0
 10
-12.32418418735965
 20
-48.99740600586
 30
0.0
 11
-12.37957359165665
 21
-43.73422241211
 31
0.0
 11
-12.38857627720264
 21
-45.05322265624999
 31
0.0
 11
-12.38225913853165
 21
-46.37002563476599
 31
0.0
 11
-12.36086631626565
 21
-47.684814453125
 31
0.0
 11
-12.32418418735965
 21
-48.99740600586
 31
0.0
  0
SPLINE
  5
372A
330
1F
100
AcDbEntity
  8
AM_0
  6
CONTINUOUS
 48
0.5
100
AcDbSpline
210
0.0
220
0.0
230
1.0
 70
     8
 71
     3
 72
    11
 73
     7
 74
     5
 42
0.0000000001
 43
0.0000000001
 44
0.0000000001
 40
0.0
 40
0.0
 40
0.0
 40
0.0
 40
1.312524410713342
 40
2.626787439301718
 40
3.943025597008688
 40
5.261354676253517
 40
5.261354676253517
 40
5.261354676253517
 40
5.261354676253517
 10
-12.17647910923465
 20
-48.99502563476599
 30
0.0
 10
-12.18979099538872
 20
-48.55771452882887
 30
0.0
 10
-12.21643240110851
 20
-47.68251303865738
 30
0.0
 10
-12.23686220306668
 20
-46.36829171538419
 30
0.0
 10
-12.24423722030389
 20
-45.05199718781804
 30
0.0
 10
-12.23605461565028
 20
-44.17383505847713
 30
0.0
 10
-12.23196006626565
 20
-43.73440551757798
 30
0.0
 11
-12.17647910923465
 21
-48.99502563476599
 31
0.0
 11
-12.21316123814065
 21
-47.68301391601599
 31
0.0
 11
-12.23467613071865
 21
-46.36892700195298
 31
0.0
 11
-12.24096275181264
 21
-45.05270385742199
 31
0.0
 11
-12.23196006626565
 21
-43.73440551757798
 31
0.0
  0
SPLINE
  5
372B
330
1F
100
AcDbEntity
  8
AM_0
  6
CONTINUOUS
 48
0.5
100
AcDbSpline
210
0.0
220
0.0
230
1.0
 70
     8
 71
     3
 72
    11
 73
     7
 74
     5
 42
0.0000000001
 43
0.0000000001
 44
0.0000000001
 40
0.0
 40
0.0
 40
0.0
 40
0.0
 40
0.4940863002727843
 40
0.9256695078865037
 40
1.358910671728066
 40
1.857438427373256
 40
1.857438427373256
 40
1.857438427373256
 40
1.857438427373256
 10
-9.651881941265656
 20
-48.524505615235
 30
0.0
 10
-9.81605162771835
 20
-48.49857229849233
 30
0.0
 10
-10.12362314464696
 20
-48.44998629128308
 30
0.0
 10
-10.51530786907771
 20
-48.19520438951164
 30
0.0
 10
-10.77303262712888
 20
-47.80404792206399
 30
0.0
 10
-10.8260174221574
 20
-47.49523982370197
 30
0.0
 10
-10.85436607212464
 20
-47.330017089844
 30
0.0
 11
-9.651881941265656
 21
-48.524505615235
 31
0.0
 11
-10.13277793735964
 21
-48.41110229492199
 31
0.0
 11
-10.49346519321865
 21
-48.17410278320298
 31
0.0
 11
-10.73406577915665
 21
-47.81381225586
 31
0.0
 11
-10.85436607212464
 21
-47.330017089844
 31
0.0
  0
LINE
  5
372C
330
1F
100
AcDbEntity
  8
AM_0
  6
CONTINUOUS
 48
0.5
100
AcDbLine
 10
-0.1750981888246486
 20
-43.74737167358398
 30
0.0
 11
-0.3311040481996486
 21
-38.54808044433599
 31
0.0
  0
LINE
  5
372D
330
1F
100
AcDbEntity
  8
AM_0
  6
CONTINUOUS
 48
0.5
100
AcDbLine
 10
-1.061424025005649
 20
-43.7060546875
 30
0.0
 11
-1.215934523052652
 21
-39.234134674072
 31
0.0
  0
LINE
  5
372E
330
1F
100
AcDbEntity
  8
AM_0
  6
CONTINUOUS
 48
0.5
100
AcDbLine
 10
-1.420692213482652
 20
-40.07110214233398
 30
0.0
 11
-1.061465986675642
 21
-43.70603942871099
 31
0.0
  0
LINE
  5
372F
330
1F
100
AcDbEntity
  8
AM_0
  6
CONTINUOUS
 48
0.5
100
AcDbLine
 10
-12.23193717808165
 20
-43.734367370606
 30
0.0
 11
-12.36004997105065
 21
-38.53520202636699
 31
0.0
  0
LINE
  5
3730
330
1F
100
AcDbEntity
  8
AM_0
  6
CONTINUOUS
 48
0.5
100
AcDbLine
 10
-10.98195625156864
 20
-40.06090927123998
 30
0.0
 11
-11.21355796665665
 21
-43.69513702392597
 31
0.0
  0
LINE
  5
3731
330
1F
100
AcDbEntity
  8
AM_0
  6
CONTINUOUS
 48
0.5
100
AcDbLine
 10
-11.21349311680265
 20
-43.69512557983398
 30
0.0
 11
-11.36799980015264
 21
-39.22321319580098
 31
0.0
  0
LINE
  5
3732
330
1F
100
AcDbEntity
  8
AM_0
  6
CONTINUOUS
 48
0.5
100
AcDbLine
 10
-13.77087760776964
 20
-43.62625503540098
 30
0.0
 11
-13.77087760776964
 21
-38.34088134765599
 31
0.0
  0
LINE
  5
3733
330
1F
100
AcDbEntity
  8
AM_0
  6
CONTINUOUS
 48
0.5
100
AcDbLine
 10
-13.77087760776964
 20
-43.48332977294899
 30
0.0
 11
-13.77087760776964
 21
-39.48332977294899
 31
0.0
  0
LINE
  5
3734
330
1F
100
AcDbEntity
  8
AM_0
  6
CONTINUOUS
 48
0.5
100
AcDbLine
 10
-14.27087760776965
 20
-38.98332977294899
 30
0.0
 11
-14.27087760776965
 21
-43.98332977294899
 31
0.0
  0
LINE
  5
3735
330
1F
100
AcDbEntity
  8
AM_0
  6
CONTINUOUS
 48
0.5
100
AcDbLine
 10
-19.77087760776965
 20
-43.48332977294899
 30
0.0
 11
-19.77087760776965
 21
-39.48332977294899
 31
0.0
  0
LINE
  5
3736
330
1F
100
AcDbEntity
  8
AM_0
  6
CONTINUOUS
 48
0.5
100
AcDbLine
 10
-19.27087760776965
 20
-43.98332977294899
 30
0.0
 11
-19.27086997837464
 21
-38.98332977294899
 31
0.0
  0
ARC
  5
3737
330
1F
100
AcDbEntity
  8
AM_0
  6
CONTINUOUS
 48
0.5
100
AcDbCircle
 10
-38.59982353062065
 20
-45.0
 30
0.0
 40
10.0
100
AcDbArc
 50
0.0
 51
89.99998201390935
  0
LINE
  5
3738
330
1F
100
AcDbEntity
  8
AM_0
  6
CONTINUOUS
 48
0.5
100
AcDbLine
 10
-47.49982353061665
 20
-35.0
 30
0.0
 11
-38.29982353062064
 21
-35.0
 31
0.0
  0
ARC
  5
3739
330
1F
100
AcDbEntity
  8
AM_0
  6
CONTINUOUS
 48
0.5
100
AcDbCircle
 10
-47.5
 20
-32.5
 30
0.0
 40
2.5
100
AcDbArc
 50
180.0000359721813
 51
270.0000179860906
  0
LINE
  5
373A
330
1F
100
AcDbEntity
  8
AM_0
  6
CONTINUOUS
 48
0.5
100
AcDbLine
 10
-6.171931990093654
 20
-24.73212432861402
 30
0.0
 11
-1.383945234722659
 21
-34.99999237060598
 31
0.0
  0
ARC
  5
373B
330
1F
100
AcDbEntity
  8
AM_0
  6
CONTINUOUS
 48
0.5
100
AcDbCircle
 10
-8.890842207378653
 20
-26.0
 30
0.0
 40
3.0
100
AcDbArc
 50
25.00000695669467
 51
89.99998201390935
  0
LINE
  5
373C
330
1F
100
AcDbEntity
  8
AM_0
  6
CONTINUOUS
 48
0.5
100
AcDbLine
 10
-6.310344465679648
 20
-37.65299224853498
 30
0.0
 11
-11.53926444858964
 21
-37.69229888915998
 31
0.0
  0
LINE
  5
373D
330
1F
100
AcDbEntity
  8
AM_0
  6
CONTINUOUS
 48
0.5
100
AcDbLine
 10
-6.227451094097659
 20
-38.57439804077199
 30
0.0
 11
-10.77633643955664
 21
-38.615505218506
 31
0.0
  0
LINE
  5
373E
330
1F
100
AcDbEntity
  8
AM_0
  6
CONTINUOUS
 48
0.5
100
AcDbLine
 10
-9.821349867290649
 20
-38.86894607543999
 30
0.0
 11
-10.77633643955664
 21
-38.61552810668999
 31
0.0
  0
LINE
  5
373F
330
1F
100
AcDbEntity
  8
AM_0
  6
CONTINUOUS
 48
0.5
100
AcDbLine
 10
-19.27086997837464
 20
-38.98332977294899
 30
0.0
 11
-14.27087760776965
 21
-38.98332977294899
 31
0.0
  0
LINE
  5
3740
330
1F
100
AcDbEntity
  8
AM_0
  6
CONTINUOUS
 48
0.5
100
AcDbLine
 10
-19.27086997837464
 20
-39.48332977294899
 30
0.0
 11
-13.77087760776964
 21
-39.48332977294899
 31
0.0
  0
LINE
  5
3741
330
1F
100
AcDbEntity
  8
AM_0
  6
CONTINUOUS
 48
0.5
100
AcDbLine
 10
-19.77086997837464
 20
-39.48333358764699
 30
0.0
 11
-19.27086234898065
 21
-38.98333358764699
 31
0.0
  0
LINE
  5
3742
330
1F
100
AcDbEntity
  8
AM_0
  6
CONTINUOUS
 48
0.5
100
AcDbLine
 10
-11.54439140171464
 20
-37.543109893799
 30
0.0
 11
-11.53920341343365
 21
-37.69231033325198
 31
0.0
  0
LINE
  5
3743
330
1F
100
AcDbEntity
  8
AM_0
  6
CONTINUOUS
 48
0.5
100
AcDbLine
 10
-11.53929496616764
 20
-37.692359924317
 30
0.0
 11
-10.77637840122665
 21
-38.61555480957099
 31
0.0
  0
LINE
  5
3744
330
1F
100
AcDbEntity
  8
AM_0
  6
CONTINUOUS
 48
0.5
100
AcDbLine
 10
-11.76848197788665
 20
-37.69600296020499
 30
0.0
 11
-11.53932548374565
 21
-37.69231033325198
 31
0.0
  0
LINE
  5
3745
330
1F
100
AcDbEntity
  8
AM_0
  6
CONTINUOUS
 48
0.5
100
AcDbLine
 10
-11.54446006626565
 20
-37.54310226440398
 30
0.0
 11
-11.77367759556264
 21
-37.54688644409199
 31
0.0
  0
LINE
  5
3746
330
1F
100
AcDbEntity
  8
AM_0
  6
CONTINUOUS
 48
0.5
100
AcDbLine
 10
-12.50783897251565
 20
-38.532497406006
 30
0.0
 11
-12.50793052524964
 21
-38.30089950561498
 31
0.0
  0
LINE
  5
3747
330
1F
100
AcDbEntity
  8
AM_0
  6
CONTINUOUS
 48
0.5
100
AcDbLine
 10
-12.50776267857065
 20
-38.53247833251998
 30
0.0
 11
-12.36004997105065
 21
-38.53519439697299
 31
0.0
  0
LINE
  5
3748
330
1F
100
AcDbEntity
  8
AM_0
  6
CONTINUOUS
 48
0.5
100
AcDbLine
 10
-12.36021781773065
 20
-38.30369186401398
 30
0.0
 11
-12.36012626499565
 21
-38.53519821167001
 31
0.0
  0
LINE
  5
3749
330
1F
100
AcDbEntity
  8
AM_0
  6
CONTINUOUS
 48
0.5
100
AcDbLine
 10
-12.36004234165665
 20
-38.53517150878897
 30
0.0
 11
-11.36802268833565
 21
-39.22316741943399
 31
0.0
  0
LINE
  5
374A
330
1F
100
AcDbEntity
  8
AM_0
  6
CONTINUOUS
 48
0.5
100
AcDbLine
 10
-11.36806846470264
 20
-39.22319412231499
 30
0.0
 11
-10.98194862217366
 21
-40.060920715332
 31
0.0
  0
LINE
  5
374B
330
1F
100
AcDbEntity
  8
AM_0
  6
CONTINUOUS
 48
0.5
100
AcDbLine
 10
-13.77087760776964
 20
-38.34088134765599
 30
0.0
 11
-12.54360557407764
 21
-38.34088134765599
 31
0.0
  0
LINE
  5
374C
330
1F
100
AcDbEntity
  8
AM_0
  6
CONTINUOUS
 48
0.5
100
AcDbLine
 10
-14.27087760776965
 20
-38.98332977294899
 30
0.0
 11
-13.77087760776964
 21
-39.48332977294899
 31
0.0
  0
LINE
  5
374D
330
1F
100
AcDbEntity
  8
AM_0
  6
CONTINUOUS
 48
0.5
100
AcDbLine
 10
-6.227451094097659
 20
-38.57437896728498
 30
0.0
 11
-1.829063185161658
 21
-38.625190734863
 31
0.0
  0
LINE
  5
374E
330
1F
100
AcDbEntity
  8
AM_0
  6
CONTINUOUS
 48
0.5
100
AcDbLine
 10
-2.623119123882645
 20
-38.87661361694398
 30
0.0
 11
-6.227477796978661
 21
-38.57439422607399
 31
0.0
  0
LINE
  5
374F
330
1F
100
AcDbEntity
  8
AM_0
  6
CONTINUOUS
 48
0.5
100
AcDbLine
 10
-6.310382612652659
 20
-37.652988433838
 30
0.0
 11
-1.181667097515656
 21
-37.703372955322
 31
0.0
  0
LINE
  5
3750
330
1F
100
AcDbEntity
  8
AM_0
  6
CONTINUOUS
 48
0.5
100
AcDbLine
 10
-6.227500685161658
 20
-38.57440567016599
 30
0.0
 11
-9.821410902447652
 21
-38.86893081665098
 31
0.0
  0
LINE
  5
3751
330
1F
100
AcDbEntity
  8
AM_0
  6
CONTINUOUS
 48
0.5
100
AcDbLine
 10
-6.312995680279641
 20
-37.50380325317399
 30
0.0
 11
-6.310371168560649
 21
-37.65301132202199
 31
0.0
  0
LINE
  5
3752
330
1F
100
AcDbEntity
  8
AM_0
  6
CONTINUOUS
 48
0.5
100
AcDbLine
 10
-6.310374983257645
 20
-37.65301895141599
 30
0.0
 11
-6.227489241070657
 21
-38.57440567016599
 31
0.0
  0
LINE
  5
3753
330
1F
100
AcDbEntity
  8
AM_0
  6
CONTINUOUS
 48
0.5
100
AcDbLine
 10
-1.383971937603661
 20
-34.99994659423902
 30
0.0
 11
-1.294719465679648
 21
-37.555770874024
 31
0.0
  0
LINE
  5
3754
330
1F
100
AcDbEntity
  8
AM_0
  6
CONTINUOUS
 48
0.5
100
AcDbLine
 10
-0.3393018326226524
 20
-38.316612243653
 30
0.0
 11
-0.3312146744196411
 21
-38.54813003540098
 31
0.0
  0
LINE
  5
3755
330
1F
100
AcDbEntity
  8
AM_0
  6
CONTINUOUS
 48
0.5
100
AcDbLine
 10
-0.1835820755426596
 20
-38.545734405518
 30
0.0
 11
-0.3311421951716511
 21
-38.54814529418999
 31
0.0
  0
LINE
  5
3756
330
1F
100
AcDbEntity
  8
AM_0
  6
CONTINUOUS
 48
0.5
100
AcDbLine
 10
-0.1835553726616581
 20
-38.54574966430701
 30
0.0
 11
-0.1915814957086468
 21
-38.31423187255899
 31
0.0
  0
LINE
  5
3757
330
1F
100
AcDbEntity
  8
AM_0
  6
CONTINUOUS
 48
0.5
100
AcDbLine
 10
-1.181644209331651
 20
-37.554252624512
 30
0.0
 11
-0.9523465713926526
 21
-37.55852508544899
 31
0.0
  0
LINE
  5
3758
330
1F
100
AcDbEntity
  8
AM_0
  6
CONTINUOUS
 48
0.5
100
AcDbLine
 10
-1.181667097515656
 20
-37.55422973632798
 30
0.0
 11
-1.181667097515656
 21
-37.70339965820298
 31
0.0
  0
LINE
  5
3759
330
1F
100
AcDbEntity
  8
AM_0
  6
CONTINUOUS
 48
0.5
100
AcDbLine
 10
-0.9522817215386538
 20
-37.70759201049799
 30
0.0
 11
-1.181674726909648
 21
-37.70338058471699
 31
0.0
  0
LINE
  5
375A
330
1F
100
AcDbEntity
  8
AM_0
  6
CONTINUOUS
 48
0.5
100
AcDbLine
 10
-0.3311574539606568
 20
-38.54811859130899
 30
0.0
 11
-1.215957411236644
 21
-39.23409271240299
 31
0.0
  0
LINE
  5
375B
330
1F
100
AcDbEntity
  8
AM_0
  6
CONTINUOUS
 48
0.5
100
AcDbLine
 10
-1.420688398784648
 20
-40.07114410400399
 30
0.0
 11
-1.215980299419641
 21
-39.23414993286198
 31
0.0
  0
LINE
  5
375C
330
1F
100
AcDbEntity
  8
AM_0
  6
CONTINUOUS
 48
0.5
100
AcDbLine
 10
-1.829131849712652
 20
-38.625244140625
 30
0.0
 11
-2.623233564800642
 21
-38.876647949219
 31
0.0
  0
LINE
  5
375D
330
1F
100
AcDbEntity
  8
AM_0
  6
CONTINUOUS
 48
0.5
100
AcDbLine
 10
-1.181609877056644
 20
-37.703369140625
 30
0.0
 11
-1.829017408794641
 21
-38.625190734863
 31
0.0
  0
LINE
  5
375E
330
1F
100
AcDbEntity
  8
AM_7
  6
AM_ISO08W050
 48
0.5
100
AcDbLine
 10
-30.11924339146065
 20
-41.48332977294899
 30
0.0
 11
-13.10541129917565
 21
-41.48332977294899
 31
0.0
  0
ARC
  5
375F
330
1F
100
AcDbEntity
  8
AM_0
  6
CONTINUOUS
 48
0.5
100
AcDbCircle
 10
-25.59982353062065
 20
-45.75
 30
0.0
 40
3.0
100
AcDbArc
 50
180.0000359721813
 51
270.0000179860906
  0
LINE
  5
3760
330
1F
100
AcDbEntity
  8
AM_0
  6
CONTINUOUS
 48
0.5
100
AcDbLine
 10
-28.59982353062065
 20
-45.75
 30
0.0
 11
-28.59982353062065
 21
-45.0
 31
0.0
  0
LINE
  5
3761
330
1F
100
AcDbEntity
  8
AM_0
  6
CONTINUOUS
 48
0.5
100
AcDbLine
 10
-11.32609153599165
 20
-49.83966064453099
 30
0.0
 11
-10.59648490757464
 21
-48.867778778076
 31
0.0
  0
LINE
  5
3762
330
1F
100
AcDbEntity
  8
AM_0
  6
CONTINUOUS
 48
0.5
100
AcDbLine
 10
-6.096664198345649
 20
-49.82878112793
 30
0.0
 11
-11.32608390659764
 21
-49.83967590332099
 31
0.0
  0
LINE
  5
3763
330
1F
100
AcDbEntity
  8
AM_0
  6
CONTINUOUS
 48
0.5
100
AcDbLine
 10
-10.85433936924366
 20
-47.32998657226599
 30
0.0
 11
-11.20953346104065
 21
-48.25878524780299
 31
0.0
  0
LINE
  5
3764
330
1F
100
AcDbEntity
  8
AM_0
  6
CONTINUOUS
 48
0.5
100
AcDbLine
 10
-11.21358085483964
 20
-43.695148468018
 30
0.0
 11
-11.20958305210564
 21
-48.25883865356499
 31
0.0
  0
LINE
  5
3765
330
1F
100
AcDbEntity
  8
AM_0
  6
CONTINUOUS
 48
0.5
100
AcDbLine
 10
-19.27087760776965
 20
-43.98332977294899
 30
0.0
 11
-14.27087760776965
 21
-43.98332977294899
 31
0.0
  0
LINE
  5
3766
330
1F
100
AcDbEntity
  8
AM_0
  6
CONTINUOUS
 48
0.5
100
AcDbLine
 10
-19.27087760776965
 20
-43.48332977294899
 30
0.0
 11
-13.77087760776964
 21
-43.48332977294899
 31
0.0
  0
LINE
  5
3767
330
1F
100
AcDbEntity
  8
AM_0
  6
CONTINUOUS
 48
0.5
100
AcDbLine
 10
-19.27087760776965
 20
-43.98332977294899
 30
0.0
 11
-19.77086997837464
 21
-43.48333358764699
 31
0.0
  0
LINE
  5
3768
330
1F
100
AcDbEntity
  8
AM_0
  6
CONTINUOUS
 48
0.5
100
AcDbLine
 10
-10.85436607212464
 20
-47.33003616332999
 30
0.0
 11
-11.21355796665665
 21
-43.69515228271498
 31
0.0
  0
LINE
  5
3769
330
1F
100
AcDbEntity
  8
AM_0
  6
CONTINUOUS
 48
0.5
100
AcDbLine
 10
-14.27087760776965
 20
-43.98332595825197
 30
0.0
 11
-13.77087760776964
 21
-43.48332595825198
 31
0.0
  0
LINE
  5
376A
330
1F
100
AcDbEntity
  8
AM_0
  6
CONTINUOUS
 48
0.5
100
AcDbLine
 10
-12.38304496616764
 20
-43.62775039672899
 30
0.0
 11
-13.77080131382464
 21
-43.62625503540098
 31
0.0
  0
LINE
  5
376B
330
1F
100
AcDbEntity
  8
AM_0
  6
CONTINUOUS
 48
0.5
100
AcDbLine
 10
-12.37959647983964
 20
-43.734260559082
 30
0.0
 11
-12.23198295444964
 21
-43.73444366455098
 31
0.0
  0
LINE
  5
376C
330
1F
100
AcDbEntity
  8
AM_0
  6
CONTINUOUS
 48
0.5
100
AcDbLine
 10
-12.23191428989865
 20
-43.734455108643
 30
0.0
 11
-11.21350456089464
 21
-43.69517898559599
 31
0.0
  0
LINE
  5
376D
330
1F
100
AcDbEntity
  8
AM_0
  6
CONTINUOUS
 48
0.5
100
AcDbLine
 10
-25.59982258887115
 20
-48.74999999999985
 30
0.0
 11
-12.33237815708565
 21
-48.75
 31
0.0
  0
LINE
  5
376E
330
1F
100
AcDbEntity
  8
AM_0
  6
CONTINUOUS
 48
0.5
100
AcDbLine
 10
-11.55544639439065
 20
-49.83554840087899
 30
0.0
 11
-11.32611442417565
 21
-49.83975982665999
 31
0.0
  0
LINE
  5
376F
330
1F
100
AcDbEntity
  8
AM_0
  6
CONTINUOUS
 48
0.5
100
AcDbLine
 10
-12.16850639194964
 20
-49.22647857665999
 30
0.0
 11
-12.17650199741764
 21
-48.994987487793
 31
0.0
  0
LINE
  5
3770
330
1F
100
AcDbEntity
  8
AM_0
  6
CONTINUOUS
 48
0.5
100
AcDbLine
 10
-12.32421470493764
 20
-48.99744796752898
 30
0.0
 11
-12.17649436802365
 21
-48.995067596436
 31
0.0
  0
LINE
  5
3771
330
1F
100
AcDbEntity
  8
AM_0
  6
CONTINUOUS
 48
0.5
100
AcDbLine
 10
-12.32420707554264
 20
-48.99744033813499
 30
0.0
 11
-12.31608939976165
 21
-49.22901916503898
 31
0.0
  0
LINE
  5
3772
330
1F
100
AcDbEntity
  8
AM_0
  6
CONTINUOUS
 48
0.5
100
AcDbLine
 10
-11.32598472446865
 20
-49.98897171020499
 30
0.0
 11
-11.55537010044565
 21
-49.98466873168999
 31
0.0
  0
LINE
  5
3773
330
1F
100
AcDbEntity
  8
AM_0
  6
CONTINUOUS
 48
0.5
100
AcDbLine
 10
-11.32597709507464
 20
-49.988960266113
 30
0.0
 11
-11.32606864780865
 21
-49.83975982665999
 31
0.0
  0
LINE
  5
3774
330
1F
100
AcDbEntity
  8
AM_0
  6
CONTINUOUS
 48
0.5
100
AcDbLine
 10
-11.20957160801364
 20
-48.25881958007798
 30
0.0
 11
-11.00577522129464
 21
-48.66881942748998
 31
0.0
  0
LINE
  5
3775
330
1F
100
AcDbEntity
  8
AM_0
  6
CONTINUOUS
 48
0.5
100
AcDbLine
 10
-12.17644859165665
 20
-48.99499893188499
 30
0.0
 11
-11.20953727573865
 21
-48.258792877197
 31
0.0
  0
LINE
  5
3776
330
1F
100
AcDbEntity
  8
AM_0
  6
CONTINUOUS
 48
0.5
100
AcDbLine
 10
-1.057369001812645
 20
-48.26968383789099
 30
0.0
 11
-1.293056257671651
 21
-47.340270996094
 31
0.0
  0
LINE
  5
3777
330
1F
100
AcDbEntity
  8
AM_0
  6
CONTINUOUS
 48
0.5
100
AcDbLine
 10
-1.061492689556644
 20
-43.706043243408
 30
0.0
 11
-1.057403334087652
 21
-48.26972961425801
 31
0.0
  0
LINE
  5
3778
330
1F
100
AcDbEntity
  8
AM_0
  6
CONTINUOUS
 48
0.5
100
AcDbLine
 10
-0.1751935562556497
 20
-43.74738693237299
 30
0.0
 11
-0.14769721836565
 21
-49.00790786743201
 31
0.0
  0
LINE
  5
3779
330
1F
100
AcDbEntity
  8
AM_0
  6
CONTINUOUS
 48
0.5
100
AcDbLine
 10
-1.293075331158661
 20
-47.34030151367199
 30
0.0
 11
-1.061477430767652
 21
-43.706008911133
 31
0.0
  0
LINE
  5
377A
330
1F
100
AcDbEntity
  8
AM_0
  6
CONTINUOUS
 48
0.5
100
AcDbLine
 10
-0.0274999222226597
 20
-43.74753952026398
 30
0.0
 11
-0.1752050003476597
 21
-43.747417449951
 31
0.0
  0
LINE
  5
377B
330
1F
100
AcDbEntity
  8
AM_0
  6
CONTINUOUS
 48
0.5
100
AcDbLine
 10
-0.175243147320657
 20
-43.74739074707099
 30
0.0
 11
-1.061485060161658
 21
-43.706008911133
 31
0.0
  0
LINE
  5
377C
330
1F
100
AcDbEntity
  8
AM_0
  6
CONTINUOUS
 48
0.5
100
AcDbLine
 10
-2.453632124370642
 20
-48.532341003418
 30
0.0
 11
-6.047553785747652
 21
-48.82674407958998
 31
0.0
  0
LINE
  5
377D
330
1F
100
AcDbEntity
  8
AM_0
  6
CONTINUOUS
 48
0.5
100
AcDbLine
 10
-6.047580488628653
 20
-48.82669067382798
 30
0.0
 11
-1.649062879986644
 21
-48.877380371094
 31
0.0
  0
LINE
  5
377E
330
1F
100
AcDbEntity
  8
AM_0
  6
CONTINUOUS
 48
0.5
100
AcDbLine
 10
-6.047580488628653
 20
-48.82672119140599
 30
0.0
 11
-10.59646583408765
 21
-48.86782836914099
 31
0.0
  0
LINE
  5
377F
330
1F
100
AcDbEntity
  8
AM_0
  6
CONTINUOUS
 48
0.5
100
AcDbLine
 10
-9.651923902935649
 20
-48.524501800537
 30
0.0
 11
-6.047591932720649
 21
-48.82671737670898
 31
0.0
  0
LINE
  5
3780
330
1F
100
AcDbEntity
  8
AM_0
  6
CONTINUOUS
 48
0.5
100
AcDbLine
 10
-10.59644676060165
 20
-48.86784362793
 30
0.0
 11
-9.651897200054648
 21
-48.52453231811498
 31
0.0
  0
LINE
  5
3781
330
1F
100
AcDbEntity
  8
AM_0
  6
CONTINUOUS
 48
0.5
100
AcDbLine
 10
-6.094096907085656
 20
-49.97793197631898
 30
0.0
 11
-6.096690901226651
 21
-49.828845977783
 31
0.0
  0
LINE
  5
3782
330
1F
100
AcDbEntity
  8
AM_0
  6
CONTINUOUS
 48
0.5
100
AcDbLine
 10
-6.096706160015656
 20
-49.82883453369201
 30
0.0
 11
-6.047603376812645
 21
-48.82674407958998
 31
0.0
  0
LINE
  5
3783
330
1F
100
AcDbEntity
  8
AM_0
  6
CONTINUOUS
 48
0.5
100
AcDbLine
 10
-0.739314802593654
 20
-49.84712600707999
 30
0.0
 11
-0.9684979996156499
 21
-49.85094070434598
 31
0.0
  0
LINE
  5
3784
330
1F
100
AcDbEntity
  8
AM_0
  6
CONTINUOUS
 48
0.5
100
AcDbLine
 10
-0.9633107954916921
 20
-50.00000035517192
 30
0.0
 11
-0.9684979996156499
 21
-49.85094451904299
 31
0.0
  0
LINE
  5
3785
330
1F
100
AcDbEntity
  8
AM_0
  6
CONTINUOUS
 48
0.5
100
AcDbLine
 10
-0.9633100113336467
 20
-50.0
 30
0.0
 11
-0.734103926128654
 21
-49.996288299561
 31
0.0
  0
LINE
  5
3786
330
1F
100
AcDbEntity
  8
AM_0
  6
CONTINUOUS
 48
0.5
100
AcDbLine
 10
0.0000879684023403
 20
-49.01070022582999
 30
0.0
 11
0.0001795211363458
 21
-49.24220657348698
 31
0.0
  0
LINE
  5
3787
330
1F
100
AcDbEntity
  8
AM_0
  6
CONTINUOUS
 48
0.5
100
AcDbLine
 10
0.0001413741643432
 20
-49.010746002197
 30
0.0
 11
-0.1476590713926527
 21
-49.00793838500999
 31
0.0
  0
LINE
  5
3788
330
1F
100
AcDbEntity
  8
AM_0
  6
CONTINUOUS
 48
0.5
100
AcDbLine
 10
-0.1476476273006426
 20
-49.239414215088
 30
0.0
 11
-0.1477391800346481
 21
-49.00790786743201
 31
0.0
  0
LINE
  5
3789
330
1F
100
AcDbEntity
  8
AM_0
  6
CONTINUOUS
 48
0.5
100
AcDbLine
 10
-1.649032362408661
 20
-48.877380371094
 30
0.0
 11
-1.393562086529641
 21
-48.79779815673799
 31
0.0
  0
LINE
  5
378A
330
1F
100
AcDbEntity
  8
AM_0
  6
CONTINUOUS
 48
0.5
100
AcDbLine
 10
-0.9684941849176595
 20
-49.85088729858398
 30
0.0
 11
-1.649081953472659
 21
-48.87739944457999
 31
0.0
  0
LINE
  5
378B
330
1F
100
AcDbEntity
  8
AM_0
  6
CONTINUOUS
 48
0.5
100
AcDbLine
 10
-2.453727491802652
 20
-48.53230285644599
 30
0.0
 11
-1.649123915142652
 21
-48.87739944457999
 31
0.0
  0
LINE
  5
378C
330
1F
100
AcDbEntity
  8
AM_0
  6
CONTINUOUS
 48
0.5
100
AcDbLine
 10
-0.1476514419976524
 20
-49.00792312622098
 30
0.0
 11
-1.057384260601651
 21
-48.26970672607399
 31
0.0
  0
DIMENSION
  5
378E
330
1F
100
AcDbEntity
  8
AM_5
100
AcDbDimension
  2
*D5
 10
-61.69989319516651
 20
-6.34999999999999
 30
0.0
 11
-64.87248630257067
 21
0.2255046377527776
 31
0.0
 70
   160
  1
<>
  3
AM_JIS$0
100
AcDbAlignedDimension
 13
-48.69982353061664
 23
6.349999999999994
 33
0.0
 14
-48.69982353061664
 24
-6.349999999999994
 34
0.0
 50
270.0
100
AcDbRotatedDimension
1001
GENIUS_GENDTOL_13
1000

1000
h7
1000

1040
0.0
1001
ACAD
1000
DSTYLE
1002
{
1070
   287
1070
     5
1070
    42
1040
1.0
1070
    43
1040
12.0
1070
    48
1040
0.1
1070
    78
1070
     8
1070
   140
1040
3.2
1070
   176
1070
   256
1070
   177
1070
   256
1070
   271
1070
     3
1070
   272
1070
     3
1070
   275
1070
     0
1070
   279
1070
     2
1070
   284
1070
     0
1070
   289
1070
     3
1070
   340
1005
6B
1070
   371
1070
    -1
1070
   372
1070
    -1
1002
}
  0
DIMENSION
  5
3790
330
1F
100
AcDbEntity
  8
AM_5
100
AcDbDimension
  2
*D6
 10
-86.03383179379667
 20
-34.99999999999987
 30
0.0
 11
-89.13383179379664
 21
-0.0000000000000015
 31
0.0
 70
    32
  1
%%c<>
  3
AM_JIS$0
100
AcDbAlignedDimension
 13
-47.19982274582537
 23
34.99999999999988
 33
0.0
 14
-47.1998227458254
 24
-34.99999999999988
 34
0.0
 50
270.0
100
AcDbRotatedDimension
1001
GENIUS_GENDTOL_13
1000

1000
h7
1000

1040
0.0
1001
ACAD
1000
DSTYLE
1002
{
1070
   287
1070
     5
1070
    42
1040
1.0
1070
    43
1040
12.0
1070
    48
1040
0.1
1070
    78
1070
     8
1070
   140
1040
3.2
1070
   176
1070
   256
1070
   177
1070
   256
1070
   271
1070
     3
1070
   272
1070
     3
1070
   275
1070
     0
1070
   279
1070
     2
1070
   284
1070
     0
1070
   289
1070
     3
1070
   340
1005
6B
1070
   371
1070
    -1
1070
   372
1070
    -1
1002
}
  0
DIMENSION
  5
39B0
330
1F
100
AcDbEntity
  8
AM_5
100
AcDbDimension
  2
*D7
 10
-17.9999999999998
 20
-74.01668626107419
 30
0.0
 11
-33.99999999999963
 21
-70.91668626107419
 31
0.0
 70
    32
  1
<>
  3
AM_JIS$0
100
AcDbAlignedDimension
 13
-49.99999999999947
 23
-32.50000000000005
 33
0.0
 14
-17.9999999999998
 24
-23.0
 34
0.0
100
AcDbRotatedDimension
1001
GENIUS_GENDTOL_13
1000

1000
h7
1000

1040
0.0
1001
ACAD
1000
DSTYLE
1002
{
1070
   287
1070
     5
1070
    42
1040
1.0
1070
    43
1040
12.0
1070
    48
1040
0.1
1070
    78
1070
     8
1070
   140
1040
3.2
1070
   176
1070
   256
1070
   177
1070
   256
1070
   271
1070
     3
1070
   272
1070
     3
1070
   275
1070
     0
1070
   279
1070
     2
1070
   284
1070
     0
1070
   289
1070
     3
1070
   340
1005
6B
1070
   371
1070
    -1
1070
   372
1070
    -1
1002
}
  0
LINE
  5
3A45
330
1F
100
AcDbEntity
  8
AM_11
100
AcDbLine
 10
-0.9633100113336467
 20
-50.0
 30
0.0
 11
0.0
 21
-50.0
 31
0.0
  0
LINE
  5
3A46
330
1F
100
AcDbEntity
  8
AM_11
100
AcDbLine
 10
-0.9634361267089985
 20
50.0
 30
0.0
 11
0.0
 21
50.0
 31
0.0
  0
DIMENSION
  5
3A4E
330
1F
100
AcDbEntity
  8
AM_5
100
AcDbDimension
  2
*D8
 10
34.01666337289016
 20
-50.0
 30
0.0
 11
30.91666337289018
 21
0.0000000000000018
 31
0.0
 70
    32
  1
%%c<>
  3
AM_JIS$0
100
AcDbAlignedDimension
 13
0.0
 23
50.0
 33
0.0
 14
0.0
 24
-50.0
 34
0.0
 50
90.0
100
AcDbRotatedDimension
1001
GENIUS_GENDTOL_13
1000

1000
h7
1000

1040
0.0
1001
ACAD
1000
DSTYLE
1002
{
1070
   287
1070
     5
1070
    42
1040
1.0
1070
    43
1040
12.0
1070
    48
1040
0.1
1070
    78
1070
     8
1070
   140
1040
3.2
1070
   176
1070
   256
1070
   177
1070
   256
1070
   271
1070
     3
1070
   272
1070
     3
1070
   275
1070
     0
1070
   279
1070
     2
1070
   284
1070
     0
1070
   289
1070
     3
1070
   340
1005
6B
1070
   371
1070
    -1
1070
   372
1070
    -1
1002
}
  0
LINE
  5
3B04
330
1F
100
AcDbEntity
  8
AM_11
100
AcDbLine
 10
0.0
 20
-49.99999999999999
 30
0.0
 11
0.0
 21
50.0
 31
0.0
  0
DIMENSION
  5
3B59
330
1F
100
AcDbEntity
  8
AM_5
100
AcDbDimension
  2
*D9
 10
-0.0000000000000021
 20
-84.01668626107413
 30
0.0
 11
-24.99999999999973
 21
-80.91668626107415
 31
0.0
 70
    32
  1
<>
  3
AM_JIS$0
100
AcDbAlignedDimension
 13
-49.99999999999947
 23
-32.50000000000005
 33
0.0
 14
0.0
 24
-50.0
 34
0.0
100
AcDbRotatedDimension
1001
GENIUS_GENDTOL_13
1000

1000
h7
1000

1040
0.0
1001
ACAD
1000
DSTYLE
1002
{
1070
   287
1070
     5
1070
    42
1040
1.0
1070
    43
1040
12.0
1070
    48
1040
0.1
1070
    78
1070
     8
1070
   140
1040
3.2
1070
   176
1070
   256
1070
   177
1070
   256
1070
   271
1070
     3
1070
   272
1070
     3
1070
   275
1070
     0
1070
   279
1070
     2
1070
   284
1070
     0
1070
   289
1070
     3
1070
   340
1005
6B
1070
   371
1070
    -1
1070
   372
1070
    -1
1002
}
  0
DIMENSION
  5
3BE5
330
1F
100
AcDbEntity
  8
AM_5
100
AcDbDimension
  2
*D10
 10
20.41581824691655
 20
-23.00000000000015
 30
0.0
 11
17.31581824691655
 21
-0.000000000000079
 31
0.0
 70
    32
  1
%%c<>
  3
AM_JIS$0
100
AcDbAlignedDimension
 13
-8.890849836773654
 23
23.0
 33
0.0
 14
-8.890849836773625
 24
-23.00000000000014
 34
0.0
 50
90.0
100
AcDbRotatedDimension
1001
GENIUS_GENDTOL_13
1000

1000
h7
1000

1040
0.0
1001
ACAD
1000
DSTYLE
1002
{
1070
   287
1070
     5
1070
    42
1040
1.0
1070
    43
1040
12.0
1070
    48
1040
0.1
1070
    78
1070
     8
1070
   140
1040
3.2
1070
   176
1070
   256
1070
   177
1070
   256
1070
   271
1070
     3
1070
   272
1070
     3
1070
   275
1070
     0
1070
   279
1070
     2
1070
   284
1070
     0
1070
   289
1070
     3
1070
   340
1005
6B
1070
   371
1070
    -1
1070
   372
1070
    -1
1002
}
  0
DIMENSION
  5
3E27
330
1F
100
AcDbEntity
  8
AM_5
100
AcDbDimension
  2
*D11
 10
-41.99999999999983
 20
-64.01668626107422
 30
0.0
 11
-45.99999999999965
 21
-60.91668626107423
 31
0.0
 70
    32
  1
<>
  3
AM_JIS$0
100
AcDbAlignedDimension
 13
-49.9999999999995
 23
-32.50000000000005
 33
0.0
 14
-41.99999999999983
 24
-6.349999999999992
 34
0.0
100
AcDbRotatedDimension
1001
GENIUS_GENDTOL_13
1000

1000
h7
1000

1040
0.0
1001
ACAD
1000
DSTYLE
1002
{
1070
   287
1070
     5
1070
    42
1040
1.0
1070
    43
1040
12.0
1070
    48
1040
0.1
1070
    78
1070
     8
1070
   140
1040
3.2
1070
   176
1070
   256
1070
   177
1070
   256
1070
   271
1070
     3
1070
   272
1070
     3
1070
   275
1070
     0
1070
   279
1070
     2
1070
   284
1070
     0
1070
   289
1070
     3
1070
   340
1005
6B
1070
   371
1070
    -1
1070
   372
1070
    -1
1002
}
  0
DIMENSION
  5
4304
330
1F
100
AcDbEntity
  8
AM_5
100
AcDbDimension
  2
*D12
 10
-76.03383179379662
 20
-15.87499999999996
 30
0.0
 11
-79.13383179379661
 21
0.0000000000000068
 31
0.0
 70
    32
  1
%%c<>
  3
AM_JIS$0
100
AcDbAlignedDimension
 13
-48.49982353061665
 23
15.875
 33
0.0
 14
-48.49982353061663
 24
-15.87499999999997
 34
0.0
 50
270.0
100
AcDbRotatedDimension
1001
GENIUS_GENDTOL_13
1000

1000
h7
1000

1040
0.0
1001
ACAD
1000
DSTYLE
1002
{
1070
   287
1070
     5
1070
    42
1040
1.0
1070
    43
1040
12.0
1070
    48
1040
0.1
1070
    78
1070
     8
1070
   140
1040
3.2
1070
   176
1070
   256
1070
   177
1070
   256
1070
   271
1070
     3
1070
   272
1070
     3
1070
   275
1070
     0
1070
   279
1070
     2
1070
   284
1070
     0
1070
   289
1070
     3
1070
   340
1005
6B
1070
   371
1070
    -1
1070
   372
1070
    -1
1002
}
  0
DIMENSION
  5
44F6
330
1F
100
AcDbEntity
  8
AM_5
100
AcDbDimension
  2
*D13
 10
0.0
 20
50.0
 30
0.0
 11
21.88055282878387
 21
-71.88055282878373
 31
0.0
 70
    34
  1
<>
  3
AM_JIS$2
100
AcDb2LineAngularDimension
 13
-0.9633100113336467
 23
-50.0
 33
0.0
 14
0.0
 24
-50.0
 34
0.0
 15
0.0
 25
-49.99999999999999
 35
0.0
 16
17.02188728134358
 26
-79.4827736119974
 36
0.0
1001
ACAD
1000
DSTYLE
1002
{
1070
   179
1070
     3
1002
}
1001
GENIUS_GENDTOL_13
1000

1000
h7
1000

1040
0.0
  0
VIEWPORT
  5
110
330
101
100
AcDbEntity
 67
     1
  8
0
100
AcDbViewport
 10
420.5
 20
297.0
 30
0.0
 40
948.9782706766916
 41
628.452
 68
     1
 69
     1
1001
ACAD
1000
MVIEW
1002
{
1070
    16
1010
0.0
1020
0.0
1030
0.0
1010
0.0
1020
0.0
1030
1.0
1040
0.0
1040
628.452
1040
420.5
1040
297.0
1040
50.0
1040
0.0
1040
0.0
1070
     0
1070
   100
1070
     1
1070
     1
1070
     0
1070
     0
1070
     0
1070
     0
1040
0.0
1040
0.0
1040
0.0
1040
10.0
1040
10.0
1040
10.0
1040
10.0
1070
     0
1002
{
1002
}
1002
}
  0
ENDSEC
  0
SECTION
  2
OBJECTS
  0
DICTIONARY
  5
C
330
0
100
AcDbDictionary
  3
ACAD_GROUP
350
D
  3
ACAD_LAYOUT
350
1A
  3
ACAD_MLINESTYLE
350
17
  3
ACAD_PLOTSETTINGS
350
19
  3
ACAD_PLOTSTYLENAME
350
E
  3
ACDBVARIABLEDICTIONARY
350
34
  3
ACMDICTIONARY
350
43
  3
AMG
350
2B
  3
AMGSNAPSETTINGS
350
6E
  3
DWGPROPS
350
460F
  3
ACDBHEADERROUNDTRIPXREC
350
461B
  0
DICTIONARY
  5
74
330
1F
100
AcDbDictionary
280
     1
  3
ACAD_INDEX
360
4611
  3
ACAD_LAYOUTSELFREF
360
463E
  0
DICTIONARY
  5
4643
330
101
100
AcDbDictionary
280
     1
  3
ACAD_LAYOUTSELFREF
360
4644
  0
DICTIONARY
  5
D
102
{ACAD_REACTORS
330
C
102
}
330
C
100
AcDbDictionary
  0
DICTIONARY
  5
1A
102
{ACAD_REACTORS
330
C
102
}
330
C
100
AcDbDictionary
  0
DICTIONARY
  5
17
102
{ACAD_REACTORS
330
C
102
}
330
C
100
AcDbDictionary
  3
STANDARD
350
18
  0
DICTIONARY
  5
19
102
{ACAD_REACTORS
330
C
102
}
330
C
100
AcDbDictionary
  0
ACDBDICTIONARYWDFLT
  5
E
102
{ACAD_REACTORS
330
C
102
}
330
C
100
AcDbDictionary
281
     1
  3
Normal
350
F
100
AcDbDictionaryWithDefault
340
F
  0
DICTIONARY
  5
34
102
{ACAD_REACTORS
330
C
102
}
330
C
100
AcDbDictionary
  3
INDEXCTL
350
35
  3
SORTENTS
350
B5E
  0
DICTIONARY
  5
43
102
{ACAD_REACTORS
330
C
102
}
330
C
100
AcDbDictionary
  3
ACMSTDDICTIONARY
350
260
  0
DICTIONARY
  5
2B
102
{ACAD_REACTORS
330
C
102
}
330
C
100
AcDbDictionary
  3
ACMGSETTINGS
350
2C
  0
DICTIONARY
  5
6E
102
{ACAD_REACTORS
330
C
102
}
330
C
100
AcDbDictionary
  0
XRECORD
  5
460F
102
{ACAD_REACTORS
330
C
102
}
330
C
100
AcDbXrecord
  1
DWGPROPS COOKIE
  2

  3

  4

  6

  7

  8

  9

300
AmdtFileType=82
301
=
302
=
303
=
304
=
305
=
306
=
307
=
308
=
309
=
 40
0.3354007638888889
 41
2452836.771637361
 42
2453076.553342002
  1

 90
        1
  0
DICTIONARY
  5
461B
102
{ACAD_REACTORS
330
C
102
}
330
C
100
AcDbDictionary
  3
TSTACKALIGN
350
461C
  3
TSTACKSIZE
350
461D
  3
HYPERLINKBASE
350
461E
  3
STYLESHEET
350
461F
  3
LAYOUTDICT
350
4620
  3
PLOTSETDICT
350
4621
  3
PLOTSTYLNAMDICT
350
4622
  3
LWETCUNION
350
4623
  3
INSUNITS
350
4624
  3
CEPSNTYPE
350
4625
  3
FINGERPRINTGUID
350
4626
  3
VERSIONGUID
350
4627
  3
PSVPSCALE
350
4628
  3
DIMSTYLEDATA
350
4629
  3
PUCSORTHOREF
350
462A
  3
PUCSORTHOVIEW
350
462B
  3
PUCSBASE
350
462C
  3
PUCSORGTOP
350
462D
  3
PUCSORGBOTTOM
350
462E
  3
PUCSORGLEFT
350
462F
  3
PUCSORGRIGHT
350
4630
  3
PUCSORGFRONT
350
4631
  3
PUCSORGBACK
350
4632
  3
UCSORTHOREF
350
4633
  3
UCSORTHOVIEW
350
4634
  3
UCSBASE
350
4635
  3
UCSORGTOP
350
4636
  3
UCSORGBOTTOM
350
4637
  3
UCSORGLEFT
350
4638
  3
UCSORGRIGHT
350
4639
  3
UCSORGFRONT
350
463A
  3
UCSORGBACK
350
463B
  0
DICTIONARY
  5
4611
102
{ACAD_REACTORS
330
74
102
}
330
74
100
AcDbDictionary
  3
*A1
350
4612
  0
XRECORD
  5
463E
102
{ACAD_REACTORS
330
74
102
}
330
74
100
AcDbXrecord
340
1F
  0
XRECORD
  5
4644
102
{ACAD_REACTORS
330
4643
102
}
330
4643
100
AcDbXrecord
340
101
  0
MLINESTYLE
  5
18
102
{ACAD_REACTORS
330
17
102
}
330
17
100
AcDbMlineStyle
  2
STANDARD
 70
     0
  3

 62
   256
 51
90.0
 52
90.0
 71
     2
 49
0.5
 62
   256
  6
BYLAYER
 49
-0.5
 62
   256
  6
BYLAYER
  0
ACDBPLACEHOLDER
  5
F
102
{ACAD_REACTORS
330
E
102
}
330
E
100
AcDbPlaceHolder
280
     0
  0
DICTIONARYVAR
  5
35
102
{ACAD_REACTORS
330
34
102
}
330
34
100
DictionaryVariables
280
     0
  1
1
  0
DICTIONARYVAR
  5
B5E
102
{ACAD_REACTORS
330
34
102
}
330
34
100
DictionaryVariables
280
     0
  1
96
  0
DICTIONARY
  5
260
102
{ACAD_REACTORS
330
43
102
}
330
43
100
AcDbDictionary
  0
DICTIONARY
  5
2C
102
{ACAD_REACTORS
330
2B
102
}
330
2B
100
AcDbDictionary
  3
DWGSETTINGS
350
2D
  0
XRECORD
  5
461C
102
{ACAD_REACTORS
330
461B
102
}
330
461B
100
AcDbXrecord
 90
        1
  0
XRECORD
  5
461D
102
{ACAD_REACTORS
330
461B
102
}
330
461B
100
AcDbXrecord
 90
       70
  0
XRECORD
  5
461E
102
{ACAD_REACTORS
330
461B
102
}
330
461B
100
AcDbXrecord
  1

  0
XRECORD
  5
461F
102
{ACAD_REACTORS
330
461B
102
}
330
461B
100
AcDbXrecord
  1
ASAMI.ctb
  0
XRECORD
  5
4620
102
{ACAD_REACTORS
330
461B
102
}
330
461B
100
AcDbXrecord
340
1A
  0
XRECORD
  5
4621
102
{ACAD_REACTORS
330
461B
102
}
330
461B
100
AcDbXrecord
340
19
  0
XRECORD
  5
4622
102
{ACAD_REACTORS
330
461B
102
}
330
461B
100
AcDbXrecord
340
E
  0
XRECORD
  5
4623
102
{ACAD_REACTORS
330
461B
102
}
330
461B
100
AcDbXrecord
 90
    10781
  0
XRECORD
  5
4624
102
{ACAD_REACTORS
330
461B
102
}
330
461B
100
AcDbXrecord
 90
        4
  0
XRECORD
  5
4625
102
{ACAD_REACTORS
330
461B
102
}
330
461B
100
AcDbXrecord
 90
        0
  0
XRECORD
  5
4626
102
{ACAD_REACTORS
330
461B
102
}
330
461B
100
AcDbXrecord
  1
{AFB28963-8C59-40AE-9337-C84526B81ACE}
  0
XRECORD
  5
4627
102
{ACAD_REACTORS
330
461B
102
}
330
461B
100
AcDbXrecord
  1
{4D0ACE8C-7045-47AE-95B0-781E968ED5E3}
  0
XRECORD
  5
4628
102
{ACAD_REACTORS
330
461B
102
}
330
461B
100
AcDbXrecord
 40
0.0
  0
XRECORD
  5
4629
102
{ACAD_REACTORS
330
461B
102
}
330
461B
100
AcDbXrecord
1000
DSTYLE
1002
{
1070
    79
 70
     2
1070
   341
340
59
1070
   342
340
59
1070
   371
 70
    -1
1070
   372
 70
    -1
1002
}
  0
XRECORD
  5
462A
102
{ACAD_REACTORS
330
461B
102
}
330
461B
100
AcDbXrecord
340
0
  0
XRECORD
  5
462B
102
{ACAD_REACTORS
330
461B
102
}
330
461B
100
AcDbXrecord
 70
     0
  0
XRECORD
  5
462C
102
{ACAD_REACTORS
330
461B
102
}
330
461B
100
AcDbXrecord
340
0
  0
XRECORD
  5
462D
102
{ACAD_REACTORS
330
461B
102
}
330
461B
100
AcDbXrecord
 10
0.0
 20
0.0
 30
0.0
  0
XRECORD
  5
462E
102
{ACAD_REACTORS
330
461B
102
}
330
461B
100
AcDbXrecord
 10
0.0
 20
0.0
 30
0.0
  0
XRECORD
  5
462F
102
{ACAD_REACTORS
330
461B
102
}
330
461B
100
AcDbXrecord
 10
0.0
 20
0.0
 30
0.0
  0
XRECORD
  5
4630
102
{ACAD_REACTORS
330
461B
102
}
330
461B
100
AcDbXrecord
 10
0.0
 20
0.0
 30
0.0
  0
XRECORD
  5
4631
102
{ACAD_REACTORS
330
461B
102
}
330
461B
100
AcDbXrecord
 10
0.0
 20
0.0
 30
0.0
  0
XRECORD
  5
4632
102
{ACAD_REACTORS
330
461B
102
}
330
461B
100
AcDbXrecord
 10
0.0
 20
0.0
 30
0.0
  0
XRECORD
  5
4633
102
{ACAD_REACTORS
330
461B
102
}
330
461B
100
AcDbXrecord
340
0
  0
XRECORD
  5
4634
102
{ACAD_REACTORS
330
461B
102
}
330
461B
100
AcDbXrecord
 70
     0
  0
XRECORD
  5
4635
102
{ACAD_REACTORS
330
461B
102
}
330
461B
100
AcDbXrecord
340
0
  0
XRECORD
  5
4636
102
{ACAD_REACTORS
330
461B
102
}
330
461B
100
AcDbXrecord
 10
0.0
 20
0.0
 30
0.0
  0
XRECORD
  5
4637
102
{ACAD_REACTORS
330
461B
102
}
330
461B
100
AcDbXrecord
 10
0.0
 20
0.0
 30
0.0
  0
XRECORD
  5
4638
102
{ACAD_REACTORS
330
461B
102
}
330
461B
100
AcDbXrecord
 10
0.0
 20
0.0
 30
0.0
  0
XRECORD
  5
4639
102
{ACAD_REACTORS
330
461B
102
}
330
461B
100
AcDbXrecord
 10
0.0
 20
0.0
 30
0.0
  0
XRECORD
  5
463A
102
{ACAD_REACTORS
330
461B
102
}
330
461B
100
AcDbXrecord
 10
0.0
 20
0.0
 30
0.0
  0
XRECORD
  5
463B
102
{ACAD_REACTORS
330
461B
102
}
330
461B
100
AcDbXrecord
 10
0.0
 20
0.0
 30
0.0
  0
LAYER_INDEX
  5
4612
102
{ACAD_REACTORS
330
4611
102
}
330
4611
100
AcDbIndex
 40
2453152.365922048
100
AcDbLayerIndex
  8
0
360
4613
 90
        0
  8
AM_0
360
4614
 90
      281
  8
AM_11
360
4615
 90
        3
  8
AM_7
360
4616
 90
        3
  8
AM_5
360
4617
 90
        9
  8
Defpoints
360
4618
 90
        0
  8
AM_6
360
4619
 90
        1
  0
XRECORD
  5
2D
102
{ACAD_REACTORS
330
2C
102
}
330
2C
100
AcDbXrecord
  1
VERSION
140
15.0
  1
PRODUCT
  2
AutoCAD Mechanical 2000
  0
IDBUFFER
  5
4613
330
0
100
AcDbIdBuffer
  0
IDBUFFER
  5
4614
330
0
100
AcDbIdBuffer
330
3764
330
3765
330
3766
330
3767
330
3768
330
3769
330
376A
330
376B
330
376C
330
376D
330
376E
330
376F
330
3770
330
3771
330
3772
330
3773
330
3774
330
3775
330
3776
330
3777
330
3778
330
3779
330
377A
330
377B
330
377C
330
377D
330
377E
330
377F
330
3780
330
3781
330
3782
330
3783
330
3784
330
3785
330
3786
330
3787
330
3788
330
3789
330
378A
330
378B
330
378C
330
33F5
330
33F6
330
33F7
330
33F8
330
33F9
330
33FA
330
33FB
330
33FC
330
33FD
330
33FE
330
33FF
330
3400
330
3401
330
3402
330
3404
330
3405
330
3406
330
3407
330
3408
330
3409
330
340A
330
340B
330
340C
330
340D
330
340E
330
340F
330
3410
330
3411
330
3412
330
3413
330
3414
330
3415
330
3416
330
3417
330
3418
330
3419
330
341D
330
341E
330
341F
330
3420
330
3422
330
3423
330
3424
330
3425
330
3426
330
3427
330
3428
330
3429
330
342A
330
342B
330
342C
330
342D
330
342E
330
342F
330
3431
330
3432
330
3433
330
3434
330
3435
330
3436
330
3437
330
3438
330
3439
330
343A
330
343B
330
343C
330
343D
330
343E
330
343F
330
3440
330
3441
330
3442
330
3443
330
3444
330
3445
330
3446
330
3447
330
3448
330
3449
330
344A
330
344B
330
344C
330
344D
330
344E
330
344F
330
3450
330
3451
330
3452
330
3453
330
3454
330
3455
330
3456
330
3457
330
3458
330
3459
330
345A
330
345B
330
345C
330
345D
330
345E
330
345F
330
3460
330
3461
330
3462
330
3463
330
3464
330
3465
330
3466
330
3467
330
3468
330
3469
330
346A
330
346B
330
346C
330
346D
330
346E
330
346F
330
3470
330
3471
330
3472
330
3473
330
3474
330
3475
330
3476
330
3477
330
3478
330
3479
330
347A
330
347B
330
347C
330
347D
330
347E
330
347F
330
3480
330
3481
330
3482
330
3483
330
3484
330
3485
330
3486
330
3487
330
3488
330
3489
330
348A
330
348B
330
348C
330
348D
330
348E
330
348F
330
3708
330
3709
330
370A
330
370B
330
370C
330
370D
330
370E
330
370F
330
3710
330
3711
330
3712
330
3713
330
3714
330
3715
330
3716
330
3717
330
3718
330
3719
330
371A
330
371B
330
371C
330
371D
330
371E
330
371F
330
3720
330
3721
330
3722
330
3723
330
3724
330
3725
330
3726
330
3727
330
3728
330
3729
330
372A
330
372B
330
372C
330
372D
330
372E
330
372F
330
3730
330
3731
330
3732
330
3733
330
3734
330
3735
330
3736
330
3737
330
3738
330
3739
330
373A
330
373B
330
373C
330
373D
330
373E
330
373F
330
3740
330
3741
330
3742
330
3743
330
3744
330
3745
330
3746
330
3747
330
3748
330
3749
330
374A
330
374B
330
374C
330
374D
330
374E
330
374F
330
3750
330
3751
330
3752
330
3753
330
3754
330
3755
330
3756
330
3757
330
3758
330
3759
330
375A
330
375B
330
375C
330
375D
330
375F
330
3760
330
3761
330
3762
330
3763
  0
IDBUFFER
  5
4615
330
0
100
AcDbIdBuffer
330
3A45
330
3A46
330
3B04
  0
IDBUFFER
  5
4616
330
0
100
AcDbIdBuffer
330
341A
330
3430
330
375E
  0
IDBUFFER
  5
4617
330
0
100
AcDbIdBuffer
330
378E
330
3790
330
39B0
330
3A4E
330
3B59
330
3BE5
330
3E27
330
4304
330
44F6
  0
IDBUFFER
  5
4618
330
0
100
AcDbIdBuffer
  0
IDBUFFER
  5
4619
330
0
100
AcDbIdBuffer
330
E5A
  0
ENDSEC
  0
EOF
