  0
SECTION
  2
HEADER
  9
$ACADVER
  1
AC1014
  9
$ACADMAINTVER
 70
     9
  9
$DWGCODEPAGE
  3
ANSI_932
  9
$INSBASE
 10
0.0
 20
0.0
 30
0.0
  9
$EXTMIN
 10
-103.0541574941399
 20
-119.0166862610828
 30
-0.00000001
  9
$EXTMAX
 10
35.01668626108284
 20
62.65009823886797
 30
0.00000001
  9
$LIMMIN
 10
-120.0180517807952
 20
-142.757156823344
  9
$LIMMAX
 10
208.0051480274487
 20
104.8026370667214
  9
$ORTHOMODE
 70
     0
  9
$REGENMODE
 70
     1
  9
$FILLMODE
 70
     1
  9
$QTEXTMODE
 70
     0
  9
$MIRRTEXT
 70
     0
  9
$DRAGMODE
 70
     2
  9
$LTSCALE
 40
1.0
  9
$OSMODE
 70
    55
  9
$ATTMODE
 70
     1
  9
$TEXTSIZE
 40
2.5
  9
$TRACEWID
 40
1.0
  9
$TEXTSTYLE
  7
STANDARD
  9
$CLAYER
  8
AM_5
  9
$CELTYPE
  6
BYLAYER
  9
$CECOLOR
 62
   256
  9
$CELTSCALE
 40
1.0
  9
$DELOBJ
 70
     1
  9
$DISPSILH
 70
     0
  9
$DIMSCALE
 40
1.0
  9
$DIMASZ
 40
2.5
  9
$DIMEXO
 40
1.0
  9
$DIMDLI
 40
12.0
  9
$DIMRND
 40
0.0
  9
$DIMDLE
 40
0.0
  9
$DIMEXE
 40
1.0
  9
$DIMTP
 40
0.1
  9
$DIMTM
 40
0.1
  9
$DIMTXT
 40
3.2
  9
$DIMCEN
 40
0.0
  9
$DIMTSZ
 40
0.0
  9
$DIMTOL
 70
     0
  9
$DIMLIM
 70
     0
  9
$DIMTIH
 70
     0
  9
$DIMTOH
 70
     0
  9
$DIMSE1
 70
     0
  9
$DIMSE2
 70
     0
  9
$DIMTAD
 70
     3
  9
$DIMZIN
 70
     8
  9
$DIMBLK
  1
OPEN30
  9
$DIMASO
 70
     1
  9
$DIMSHO
 70
     1
  9
$DIMPOST
  1

  9
$DIMAPOST
  1
"
  9
$DIMALT
 70
     0
  9
$DIMALTD
 70
     2
  9
$DIMALTF
 40
0.0393701
  9
$DIMLFAC
 40
1.0
  9
$DIMTOFL
 70
     1
  9
$DIMTVP
 40
0.0
  9
$DIMTIX
 70
     0
  9
$DIMSOXD
 70
     0
  9
$DIMSAH
 70
     0
  9
$DIMBLK1
  1

  9
$DIMBLK2
  1

  9
$DIMSTYLE
  2
AM_JIS
  9
$DIMCLRD
 70
   256
  9
$DIMCLRE
 70
   256
  9
$DIMCLRT
 70
     2
  9
$DIMTFAC
 40
0.71
  9
$DIMGAP
 40
1.5
  9
$DIMJUST
 70
     0
  9
$DIMSD1
 70
     0
  9
$DIMSD2
 70
     0
  9
$DIMTOLJ
 70
     0
  9
$DIMTZIN
 70
     0
  9
$DIMALTZ
 70
     0
  9
$DIMALTTZ
 70
     0
  9
$DIMFIT
 70
     3
  9
$DIMUPT
 70
     0
  9
$DIMUNIT
 70
     2
  9
$DIMDEC
 70
     3
  9
$DIMTDEC
 70
     3
  9
$DIMALTU
 70
     2
  9
$DIMALTTD
 70
     2
  9
$DIMTXSTY
  7
ASAMI
  9
$DIMAUNIT
 70
     0
  9
$LUNITS
 70
     2
  9
$LUPREC
 70
     2
  9
$SKETCHINC
 40
1.0
  9
$FILLETRAD
 40
2.5
  9
$AUNITS
 70
     0
  9
$AUPREC
 70
     0
  9
$MENU
  1
.
  9
$ELEVATION
 40
0.0
  9
$PELEVATION
 40
0.0
  9
$THICKNESS
 40
0.0
  9
$LIMCHECK
 70
     0
  9
$BLIPMODE
 70
     0
  9
$CHAMFERA
 40
0.5
  9
$CHAMFERB
 40
0.5
  9
$CHAMFERC
 40
20.0
  9
$CHAMFERD
 40
0.0
  9
$SKPOLY
 70
     0
  9
$TDCREATE
 40
2452836.771637361
  9
$TDUPDATE
 40
2453152.364645798
  9
$TDINDWG
 40
0.4178461458
  9
$TDUSRTIMER
 40
0.4178461458
  9
$USRTIMER
 70
     1
  9
$ANGBASE
 50
0.0
  9
$ANGDIR
 70
     0
  9
$PDMODE
 70
     0
  9
$PDSIZE
 40
0.0
  9
$PLINEWID
 40
0.0
  9
$COORDS
 70
     1
  9
$SPLFRAME
 70
     0
  9
$SPLINETYPE
 70
     6
  9
$SPLINESEGS
 70
     8
  9
$ATTDIA
 70
     1
  9
$ATTREQ
 70
     1
  9
$HANDLING
 70
 12289
  9
$HANDSEED
  5
8748
  9
$SURFTAB1
 70
     6
  9
$SURFTAB2
 70
     6
  9
$SURFTYPE
 70
     6
  9
$SURFU
 70
     6
  9
$SURFV
 70
     6
  9
$UCSNAME
  2

  9
$UCSORG
 10
0.0
 20
0.0
 30
0.0
  9
$UCSXDIR
 10
1.0
 20
0.0
 30
0.0
  9
$UCSYDIR
 10
0.0
 20
1.0
 30
0.0
  9
$PUCSNAME
  2

  9
$PUCSORG
 10
0.0
 20
0.0
 30
0.0
  9
$PUCSXDIR
 10
1.0
 20
0.0
 30
0.0
  9
$PUCSYDIR
 10
0.0
 20
1.0
 30
0.0
  9
$USERI1
 70
     0
  9
$USERI2
 70
     0
  9
$USERI3
 70
     0
  9
$USERI4
 70
     0
  9
$USERI5
 70
     0
  9
$USERR1
 40
0.0
  9
$USERR2
 40
0.0
  9
$USERR3
 40
0.0
  9
$USERR4
 40
0.0
  9
$USERR5
 40
0.0
  9
$WORLDVIEW
 70
     1
  9
$SHADEDGE
 70
     3
  9
$SHADEDIF
 70
    70
  9
$TILEMODE
 70
     1
  9
$MAXACTVP
 70
    64
  9
$PINSBASE
 10
0.0
 20
0.0
 30
0.0
  9
$PLIMCHECK
 70
     0
  9
$PEXTMIN
 10
1.000000000000000E+20
 20
1.000000000000000E+20
 30
1.000000000000000E+20
  9
$PEXTMAX
 10
-1.000000000000000E+20
 20
-1.000000000000000E+20
 30
-1.000000000000000E+20
  9
$PLIMMIN
 10
0.0
 20
0.0
  9
$PLIMMAX
 10
841.0
 20
594.0
  9
$UNITMODE
 70
     0
  9
$VISRETAIN
 70
     1
  9
$PLINEGEN
 70
     0
  9
$PSLTSCALE
 70
     0
  9
$TREEDEPTH
 70
  3020
  9
$PICKSTYLE
 70
     0
  9
$CMLSTYLE
  2
STANDARD
  9
$CMLJUST
 70
     0
  9
$CMLSCALE
 40
20.0
  9
$PROXYGRAPHICS
 70
     1
  9
$MEASUREMENT
 70
     1
  0
ENDSEC
  0
SECTION
  2
CLASSES
  0
CLASS
  1
ACDBDICTIONARYWDFLT
  2
AcDbDictionaryWithDefault
  3
AutoCAD 2000
 90
        0
280
     0
281
     0
  0
CLASS
  1
ACDBPLACEHOLDER
  2
AcDbPlaceHolder
  3
AutoCAD 2000
 90
        0
280
     0
281
     0
  0
CLASS
  1
LAYOUT
  2
AcDbLayout
  3
AutoCAD 2000
 90
        0
280
     0
281
     0
  0
CLASS
  1
AMGSETTINGSOBJ
  2
AmgSettingsObj
  3
"AcadM|Product Description: AutoCAD Mechanical 2000|Company: Autodesk"
 90
        0
280
     0
281
     0
  0
CLASS
  1
ACME_DOCUMENT
  2
AcMeDbDoc
  3
AcMeServices
 90
        0
280
     0
281
     0
  0
CLASS
  1
ACMESCOPE
  2
AcMeScope
  3
AcMeServices
 90
        0
280
     0
281
     0
  0
CLASS
  1
ACMECOMMANDHISTORY
  2
AcMeCommandHistory
  3
AcMeServices
 90
        0
280
     0
281
     0
  0
CLASS
  1
DICTIONARYVAR
  2
AcDbDictionaryVar
  3
AutoCAD 2000
 90
        0
280
     0
281
     0
  0
CLASS
  1
ACIMSYSVARMAN
  2
AcImSysVarManager
  3
AcMeServices
 90
        0
280
     0
281
     0
  0
CLASS
  1
ACIMREALSYSVAR
  2
AcImRealSysVar
  3
AcMeServices
 90
        0
280
     0
281
     0
  0
CLASS
  1
ACIMINTSYSVAR
  2
AcImIntSysVar
  3
AcMeServices
 90
        0
280
     0
281
     0
  0
CLASS
  1
ACMEDRAWINGMAN
  2
AcMeDrawingMan
  3
AcMeServices
 90
        0
280
     0
281
     0
  0
CLASS
  1
ACMEVIEW
  2
AcMeView
  3
AcMeServices
 90
        0
280
     0
281
     0
  0
CLASS
  1
ACDBENTITYCACHE
  2
AcMeEntityCache
  3
AcMeServices
 90
        0
280
     0
281
     0
  0
CLASS
  1
GSMANAGER
  2
AcMeGSManager
  3
AcMeServices
 90
        0
280
     0
281
     0
  0
CLASS
  1
AmdtInternalReactor
  2
AmdtInternalReactor
  3
AcMeServices
 90
        0
280
     0
281
     0
  0
CLASS
  1
ACMESTATEMGR
  2
AcMeStateMgr
  3
AcMeServices
 90
        0
280
     0
281
     0
  0
CLASS
  1
ACME_DATABASE
  2
AcMeDbDatabase
  3
AcMeServices
 90
        0
280
     0
281
     0
  0
CLASS
  1
ACRFINSADJUSTERMGR
  2
AcRfInsAdjusterMgr
  3
AcMeServices
 90
        0
280
     0
281
     0
  0
CLASS
  1
ACMDATADICTIONARY
  2
AcmDataDictionary
  3
"AcmSymBB|Product Description: AutoCAD Mechanical 2000|Company: Autodesk"
 90
        0
280
     0
281
     0
  0
CLASS
  1
ACMDATAENTRYBLOCK
  2
AcmDataEntryBlock
  3
"AcmSymBB|Product Description: AutoCAD Mechanical 2000|Company: Autodesk"
 90
        0
280
     0
281
     0
  0
CLASS
  1
AMGOBJPROPCFG
  2
AmgObjPropCfg
  3
"AmgLay|Product Description: AutoCAD Mechanical 2000|Company: Autodesk"
 90
        1
280
     0
281
     0
  0
CLASS
  1
ACAMGFILTERDAT
  2
AcAmgFilterDat
  3
"AcadM|Product Description: AutoCAD Mechanical 2000|Company: Autodesk"
 90
        0
280
     0
281
     0
  0
CLASS
  1
LAYER_INDEX
  2
AcDbLayerIndex
  3
AutoCAD 2000
 90
        0
280
     0
281
     0
  0
CLASS
  1
IDBUFFER
  2
AcDbIdBuffer
  3
AutoCAD 2000
 90
        0
280
     0
281
     0
  0
CLASS
  1
ACIMSTRSYSVAR
  2
AcImStrSysVar
  3
AcMeServices
 90
        0
280
     0
281
     0
  0
CLASS
  1
ACMSTANDARDJIS
  2
AcmStandardJIS
  3
"AcmSymBB|Product Description: AutoCAD Mechanical 2000|Company: Autodesk"
 90
        0
280
     0
281
     0
  0
CLASS
  1
ACMSURFSTANDARDJIS
  2
AcmSurfTextStdJIS
  3
"AcmSymBB|Product Description: AutoCAD Mechanical 2000|Company: Autodesk"
 90
        0
280
     0
281
     0
  0
CLASS
  1
ACMFCFSTANDARDJIS
  2
AcmFCFStdJIS
  3
"AcmSymBB|Product Description: AutoCAD Mechanical 2000|Company: Autodesk"
 90
        0
280
     0
281
     0
  0
CLASS
  1
ACMWELDSTANDARDJIS
  2
AcmWeldingStdJIS
  3
"AcmSymBB|Product Description: AutoCAD Mechanical 2000|Company: Autodesk"
 90
        0
280
     0
281
     0
  0
CLASS
  1
ACMIDSTANDARDJIS
  2
AcmIdStdJIS
  3
"AcmSymBB|Product Description: AutoCAD Mechanical 2000|Company: Autodesk"
 90
        0
280
     0
281
     0
  0
CLASS
  1
ACMDATUMSTANDARDJIS
  2
AcmDatumStdJIS
  3
"AcmSymBB|Product Description: AutoCAD Mechanical 2000|Company: Autodesk"
 90
        0
280
     0
281
     0
  0
CLASS
  1
ACMBOMSTANDARDJIS
  2
AcmBOMStdJIS
  3
"AcmSymBB|Product Description: AutoCAD Mechanical 2000|Company: Autodesk"
 90
        0
280
     0
281
     0
  0
CLASS
  1
ACMSTANDARDANSI
  2
AcmStandardANSI
  3
"AcmSymBB|Product Description: AutoCAD Mechanical 2000|Company: Autodesk"
 90
        0
280
     0
281
     0
  0
CLASS
  1
ACMSURFSTANDARDANSI
  2
AcmSurfTextStdANSI
  3
"AcmSymBB|Product Description: AutoCAD Mechanical 2000|Company: Autodesk"
 90
        0
280
     0
281
     0
  0
CLASS
  1
ACMFCFSTANDARDANSI
  2
AcmFCFStdANSI
  3
"AcmSymBB|Product Description: AutoCAD Mechanical 2000|Company: Autodesk"
 90
        0
280
     0
281
     0
  0
CLASS
  1
ACMWELDSTANDARDANSI
  2
AcmWeldingStdANSI
  3
"AcmSymBB|Product Description: AutoCAD Mechanical 2000|Company: Autodesk"
 90
        0
280
     0
281
     0
  0
CLASS
  1
ACMIDSTANDARDANSI
  2
AcmIdStdANSI
  3
"AcmSymBB|Product Description: AutoCAD Mechanical 2000|Company: Autodesk"
 90
        0
280
     0
281
     0
  0
CLASS
  1
ACMDATUMSTANDARDANSI
  2
AcmDatumStdANSI
  3
"AcmSymBB|Product Description: AutoCAD Mechanical 2000|Company: Autodesk"
 90
        0
280
     0
281
     0
  0
CLASS
  1
ACMBOMSTANDARDANSI
  2
AcmBOMStdANSI
  3
"AcmSymBB|Product Description: AutoCAD Mechanical 2000|Company: Autodesk"
 90
        0
280
     0
281
     0
  0
CLASS
  1
ACMSTANDARDBSI
  2
AcmStandardBSI
  3
"AcmSymBB|Product Description: AutoCAD Mechanical 2000|Company: Autodesk"
 90
        0
280
     0
281
     0
  0
CLASS
  1
ACMSURFSTANDARDBSI
  2
AcmSurfTextStdBSI
  3
"AcmSymBB|Product Description: AutoCAD Mechanical 2000|Company: Autodesk"
 90
        0
280
     0
281
     0
  0
CLASS
  1
ACMFCFSTANDARDBSI
  2
AcmFCFStdBSI
  3
"AcmSymBB|Product Description: AutoCAD Mechanical 2000|Company: Autodesk"
 90
        0
280
     0
281
     0
  0
CLASS
  1
ACMWELDSTANDARDBSI
  2
AcmWeldingStdBSI
  3
"AcmSymBB|Product Description: AutoCAD Mechanical 2000|Company: Autodesk"
 90
        0
280
     0
281
     0
  0
CLASS
  1
ACMIDSTANDARDBSI
  2
AcmIdStdBSI
  3
"AcmSymBB|Product Description: AutoCAD Mechanical 2000|Company: Autodesk"
 90
        0
280
     0
281
     0
  0
CLASS
  1
ACMDATUMSTANDARDBSI
  2
AcmDatumStdBSI
  3
"AcmSymBB|Product Description: AutoCAD Mechanical 2000|Company: Autodesk"
 90
        0
280
     0
281
     0
  0
CLASS
  1
ACMBOMSTANDARDBSI
  2
AcmBOMStdBSI
  3
"AcmSymBB|Product Description: AutoCAD Mechanical 2000|Company: Autodesk"
 90
        0
280
     0
281
     0
  0
CLASS
  1
LONG_TRANSACTION
  2
AcDbLongTransaction
  3
AutoCAD 2000
 90
        0
280
     0
281
     0
  0
CLASS
  1
LWPOLYLINE
  2
AcDbPolyline
  3
AutoCAD 2000
 90
        0
280
     0
281
     1
  0
CLASS
  1
HATCH
  2
AcDbHatch
  3
AutoCAD 2000
 90
        0
280
     0
281
     1
  0
CLASS
  1
XRECORD
  2
AcDbXrecord
  3
AutoCAD 2000
 90
        0
280
     0
281
     0
  0
ENDSEC
  0
SECTION
  2
TABLES
  0
TABLE
  2
VPORT
  5
8
330
0
100
AcDbSymbolTable
 70
     3
  0
VPORT
  5
86D5
330
8
100
AcDbSymbolTableRecord
100
AcDbViewportTableRecord
  2
*ACTIVE
 70
     0
 10
0.0
 20
0.0
 11
1.0
 21
1.0
 12
-13.1041126286704
 22
-26.4936061344424
 13
0.0
 23
0.0
 14
2.5
 24
2.5
 15
10.0
 25
10.0
 16
0.0
 26
0.0
 36
1.0
 17
0.0
 27
0.0
 37
0.0
 40
195.8154584338326
 41
1.56570841889117
 42
50.0
 43
0.0
 44
0.0
 50
0.0
 51
0.0
 71
     0
 72
   100
 73
     1
 74
     3
 75
     0
 76
     0
 77
     0
 78
     0
  0
ENDTAB
  0
TABLE
  2
LTYPE
  5
5
330
0
100
AcDbSymbolTable
 70
    10
  0
LTYPE
  5
14
330
5
100
AcDbSymbolTableRecord
100
AcDbLinetypeTableRecord
  2
BYBLOCK
 70
     0
  3

 72
    65
 73
     0
 40
0.0
  0
LTYPE
  5
15
330
5
100
AcDbSymbolTableRecord
100
AcDbLinetypeTableRecord
  2
BYLAYER
 70
     0
  3

 72
    65
 73
     0
 40
0.0
  0
LTYPE
  5
16
330
5
100
AcDbSymbolTableRecord
100
AcDbLinetypeTableRecord
  2
CONTINUOUS
 70
     0
  3
Solid line
 72
    65
 73
     0
 40
0.0
  0
LTYPE
  5
4B
330
5
100
AcDbSymbolTableRecord
100
AcDbLinetypeTableRecord
  2
AM_ISO02W050
 70
     0
  3
__ __ __ __ __ __ __ __ __ __ __ __ __ __ __
 72
    65
 73
     2
 40
7.5
 49
6.0
 74
     0
 49
-1.5
 74
     0
  0
LTYPE
  5
4C
330
5
100
AcDbSymbolTableRecord
100
AcDbLinetypeTableRecord
  2
AM_ISO08W050
 70
     0
  3
____ . ____ . ____ . ____ . ____ . ____ . ____
 72
    65
 73
     4
 40
18.0
 49
12.0
 74
     0
 49
-1.5
 74
     0
 49
3.0
 74
     0
 49
-1.5
 74
     0
  0
LTYPE
  5
4D
330
5
100
AcDbSymbolTableRecord
100
AcDbLinetypeTableRecord
  2
AM_ISO09W050
 70
     0
  3
_____ . . _____ . . _____ . . ____ .. ____
 72
    65
 73
     6
 40
22.5
 49
12.0
 74
     0
 49
-1.5
 74
     0
 49
3.0
 74
     0
 49
-1.5
 74
     0
 49
3.0
 74
     0
 49
-1.5
 74
     0
  0
LTYPE
  5
4E
330
5
100
AcDbSymbolTableRecord
100
AcDbLinetypeTableRecord
  2
AMCONSTR
 70
     0
  3
_______________________
 72
    65
 73
     2
 40
9999.0
 49
9999.0
 74
     0
 49
0.0
 74
     0
  0
LTYPE
  5
4F
330
5
100
AcDbSymbolTableRecord
100
AcDbLinetypeTableRecord
  2
AM_ISO02W050X2
 70
     0
  3
 _ _ _ _ _ _ _ _ _ _ _ _
 72
    65
 73
     2
 40
3.75
 49
3.0
 74
     0
 49
-0.75
 74
     0
  0
LTYPE
  5
50
330
5
100
AcDbSymbolTableRecord
100
AcDbLinetypeTableRecord
  2
AM_ISO08W050X2
 70
     0
  3
__ . __ . __ . __ . __ . __
 72
    65
 73
     4
 40
9.0
 49
6.0
 74
     0
 49
-0.75
 74
     0
 49
1.5
 74
     0
 49
-0.75
 74
     0
  0
LTYPE
  5
53
330
5
100
AcDbSymbolTableRecord
100
AcDbLinetypeTableRecord
  2
AMZIGZAG
 70
     0
  3
/\/-/\/-/\/-/\/-/\/-/\/
 72
    65
 73
     2
 40
11.00009999999999
 49
0.0001
 74
     4
 75
   135
340
52
 46
0.04
 50
0.0
 44
0.0
 45
0.0
 49
-11.0
 74
     0
  0
LTYPE
  5
166
330
5
100
AcDbSymbolTableRecord
100
AcDbLinetypeTableRecord
  2
ACJISTGL
 70
     0
  3
_ _ _ _ _
 72
    65
 73
     2
 40
3.0
 49
2.0
 74
     0
 49
-1.0
 74
     0
  0
LTYPE
  5
26A
330
5
100
AcDbSymbolTableRecord
100
AcDbLinetypeTableRecord
  2
ACJISTGB
 70
     0
  3
__ . . __ . .
 72
    65
 73
     6
 40
9.0
 49
4.0
 74
     0
 49
-1.0
 74
     0
 49
1.0
 74
     0
 49
-1.0
 74
     0
 49
1.0
 74
     0
 49
-1.0
 74
     0
  0
ENDTAB
  0
TABLE
  2
LAYER
  5
2
330
0
100
AcDbSymbolTable
 70
     7
  0
LAYER
  5
10
330
2
100
AcDbSymbolTableRecord
100
AcDbLayerTableRecord
  2
0
 70
     0
 62
     7
  6
CONTINUOUS
  0
LAYER
  5
BD4
330
2
100
AcDbSymbolTableRecord
100
AcDbLayerTableRecord
  2
AM_11
 70
     0
 62
     3
  6
AM_ISO09W050
  0
LAYER
  5
BD5
330
2
100
AcDbSymbolTableRecord
100
AcDbLayerTableRecord
  2
AM_7
 70
     0
 62
     4
  6
AM_ISO08W050
  0
LAYER
  5
BD6
330
2
100
AcDbSymbolTableRecord
100
AcDbLayerTableRecord
  2
AM_5
 70
     0
 62
     3
  6
CONTINUOUS
  0
LAYER
  5
BD7
330
2
100
AcDbSymbolTableRecord
100
AcDbLayerTableRecord
  2
DEFPOINTS
 70
     0
 62
     7
  6
CONTINUOUS
  0
LAYER
  5
E59
330
2
100
AcDbSymbolTableRecord
100
AcDbLayerTableRecord
  2
AM_6
 70
     0
 62
     2
  6
CONTINUOUS
  0
LAYER
  5
5BEF
330
2
100
AcDbSymbolTableRecord
100
AcDbLayerTableRecord
  2
AM_0
 70
     0
 62
     7
  6
CONTINUOUS
  0
ENDTAB
  0
TABLE
  2
STYLE
  5
3
330
0
100
AcDbSymbolTable
 70
     5
  0
STYLE
  5
11
330
3
100
AcDbSymbolTableRecord
100
AcDbTextStyleTableRecord
  2
STANDARD
 70
     0
 40
0.0
 41
1.0
 50
0.0
 71
     0
 42
2.5
  3
simplex.shx
  4
EXTFONT.SHX
  0
STYLE
  5
52
330
3
100
AcDbSymbolTableRecord
100
AcDbTextStyleTableRecord
  2

 70
     1
 40
0.0
 41
1.0
 50
0.0
 71
     0
 42
2.5
  3
ltypeshp.shx
  4

  0
STYLE
  5
6B
330
3
100
AcDbSymbolTableRecord
100
AcDbTextStyleTableRecord
  2
ASAMI
 70
     0
 40
0.0
 41
1.0
 50
0.0
 71
     0
 42
2.5
  3
simplex.shx
  4
EXTFONT.SHX
  0
STYLE
  5
262
330
3
100
AcDbSymbolTableRecord
100
AcDbTextStyleTableRecord
  2
ACJISTS
 70
     0
 40
1.0
 41
1.0
 50
0.0
 71
     0
 42
2.5
  3
simplex.shx
  4
bigfont.shx
  0
STYLE
  5
269
330
3
100
AcDbSymbolTableRecord
100
AcDbTextStyleTableRecord
  2
ACJISGDT
 70
     0
 40
0.0
 41
1.0
 50
0.0
 71
     0
 42
2.5
  3
amgdtans.shx
  4

  0
ENDTAB
  0
TABLE
  2
VIEW
  5
6
330
0
100
AcDbSymbolTable
 70
     0
  0
ENDTAB
  0
TABLE
  2
UCS
  5
7
330
0
100
AcDbSymbolTable
 70
     0
  0
ENDTAB
  0
TABLE
  2
APPID
  5
9
330
0
100
AcDbSymbolTable
 70
    12
  0
APPID
  5
12
330
9
100
AcDbSymbolTableRecord
100
AcDbRegAppTableRecord
  2
ACAD
 70
     0
  0
APPID
  5
30
330
9
100
AcDbSymbolTableRecord
100
AcDbRegAppTableRecord
  2
MCAD_NO_VIS
 70
     0
  0
APPID
  5
31
330
9
100
AcDbSymbolTableRecord
100
AcDbRegAppTableRecord
  2
ACAD_TEMP_GRAPHIC
 70
     0
  0
APPID
  5
2C2
330
9
100
AcDbSymbolTableRecord
100
AcDbRegAppTableRecord
  2
GENIUS_GENDTOL_13
 70
     0
  0
APPID
  5
339
330
9
100
AcDbSymbolTableRecord
100
AcDbRegAppTableRecord
  2
GENIUS_GENODEF_13
 70
     0
  0
APPID
  5
33A
330
9
100
AcDbSymbolTableRecord
100
AcDbRegAppTableRecord
  2
GENIUS_GENOBJ-N-RSBK_13
 70
     0
  0
APPID
  5
33B
330
9
100
AcDbSymbolTableRecord
100
AcDbRegAppTableRecord
  2
GENIUS_GENOBJ-N-LIB_13
 70
     0
  0
APPID
  5
33C
330
9
100
AcDbSymbolTableRecord
100
AcDbRegAppTableRecord
  2
GENIUS_GENSCALE_13
 70
     0
  0
APPID
  5
378
330
9
100
AcDbSymbolTableRecord
100
AcDbRegAppTableRecord
  2
GENIUS_GENDIMSH_14
 70
     0
  0
APPID
  5
BD8
330
9
100
AcDbSymbolTableRecord
100
AcDbRegAppTableRecord
  2
GENIUS_GENOBJ-N-CEN_13
 70
     0
  0
APPID
  5
BD9
330
9
100
AcDbSymbolTableRecord
100
AcDbRegAppTableRecord
  2
GENIUS_GENFIL_13
 70
     0
  0
APPID
  5
BDA
330
9
100
AcDbSymbolTableRecord
100
AcDbRegAppTableRecord
  2
GENIUS_GENOBJ-N-CHA_13
 70
     0
  0
ENDTAB
  0
TABLE
  2
DIMSTYLE
  5
A
330
0
100
AcDbSymbolTable
 70
     9
  0
DIMSTYLE
105
58
330
A
100
AcDbSymbolTableRecord
100
AcDbDimStyleTableRecord
  2
AM_JIS
 70
     0
  3

  4
"
  5
OPEN30
  6

  7

 40
1.0
 41
2.5
 42
1.0
 43
12.0
 44
1.0
 45
0.0
 46
0.0
 47
0.1
 48
0.1
140
3.2
141
0.0
142
0.0
143
0.0393701
144
1.0
145
0.0
146
0.71
147
1.5
 71
     0
 72
     0
 73
     0
 74
     0
 75
     0
 76
     0
 77
     3
 78
     8
170
     0
171
     2
172
     1
173
     0
174
     0
175
     0
176
   256
177
   256
178
     2
270
     2
271
     3
272
     3
273
     2
274
     2
340
6B
275
     0
280
     0
281
     0
282
     0
283
     0
284
     0
285
     0
286
     0
287
     3
288
     0
  0
DIMSTYLE
105
5F
330
A
100
AcDbSymbolTableRecord
100
AcDbDimStyleTableRecord
  2
AM_JIS$3
 70
     0
  3

  4
"
  5
OPEN30
  6

  7

 40
1.0
 41
2.5
 42
1.0
 43
10.0
 44
1.0
 45
0.0
 46
0.0
 47
0.1
 48
0.1
140
3.2
141
0.0
142
0.0
143
0.0393701
144
1.0
145
0.0
146
0.71
147
1.5
 71
     0
 72
     0
 73
     0
 74
     1
 75
     0
 76
     0
 77
     3
 78
     8
170
     0
171
     2
172
     0
173
     0
174
     0
175
     0
176
   256
177
   256
178
     2
270
     2
271
     2
272
     3
273
     2
274
     2
340
6B
275
     0
280
     0
281
     0
282
     0
283
     0
284
     0
285
     0
286
     0
287
     0
288
     1
  0
DIMSTYLE
105
60
330
A
100
AcDbSymbolTableRecord
100
AcDbDimStyleTableRecord
  2
AM_JIS$4
 70
     0
  3

  4
"
  5
OPEN30
  6

  7

 40
1.0
 41
2.5
 42
1.0
 43
10.0
 44
1.0
 45
0.0
 46
0.0
 47
0.1
 48
0.1
140
3.2
141
0.0
142
0.0
143
0.0393701
144
1.0
145
0.0
146
0.71
147
1.5
 71
     0
 72
     0
 73
     0
 74
     1
 75
     0
 76
     0
 77
     3
 78
     8
170
     0
171
     2
172
     0
173
     0
174
     0
175
     0
176
   256
177
   256
178
     2
270
     2
271
     2
272
     3
273
     2
274
     2
340
6B
275
     0
280
     0
281
     0
282
     0
283
     0
284
     0
285
     0
286
     0
287
     0
288
     1
  0
DIMSTYLE
105
61
330
A
100
AcDbSymbolTableRecord
100
AcDbDimStyleTableRecord
  2
AM_JIS$6
 70
     0
  3

  4
"
  5
OPEN30
  6

  7

 40
1.0
 41
2.5
 42
1.0
 43
10.0
 44
1.0
 45
0.0
 46
0.0
 47
0.1
 48
0.1
140
3.2
141
0.0
142
0.0
143
0.0393701
144
1.0
145
0.0
146
0.71
147
1.5
 71
     0
 72
     0
 73
     0
 74
     0
 75
     0
 76
     0
 77
     0
 78
     8
170
     0
171
     2
172
     1
173
     0
174
     0
175
     0
176
   256
177
   256
178
     2
270
     2
271
     2
272
     2
273
     2
274
     2
340
6B
275
     0
280
     0
281
     0
282
     0
283
     0
284
     0
285
     0
286
     0
287
     3
288
     0
  0
DIMSTYLE
105
62
330
A
100
AcDbSymbolTableRecord
100
AcDbDimStyleTableRecord
  2
AM_JIS$7
 70
     0
  3

  4
"
  5
OPEN30
  6

  7

 40
1.0
 41
2.5
 42
1.0
 43
10.0
 44
1.0
 45
0.0
 46
0.0
 47
0.1
 48
0.1
140
3.2
141
0.0
142
0.0
143
0.0393701
144
1.0
145
0.0
146
0.71
147
1.5
 71
     0
 72
     0
 73
     0
 74
     0
 75
     0
 76
     0
 77
     3
 78
     8
170
     0
171
     2
172
     1
173
     0
174
     0
175
     0
176
   256
177
   256
178
     2
270
     2
271
     2
272
     3
273
     2
274
     2
340
6B
275
     0
280
     0
281
     0
282
     0
283
     0
284
     0
285
     0
286
     0
287
     3
288
     0
  0
DIMSTYLE
105
63
330
A
100
AcDbSymbolTableRecord
100
AcDbDimStyleTableRecord
  2
AM_JIS$SF
 70
     0
  3

  4
"
  5
OPEN30
  6

  7

 40
1.0
 41
2.5
 42
1.0
 43
10.0
 44
1.0
 45
0.0
 46
0.0
 47
0.1
 48
0.1
140
3.2
141
0.0
142
0.0
143
0.0393701
144
1.0
145
0.0
146
0.71
147
1.5
 71
     0
 72
     0
 73
     0
 74
     0
 75
     1
 76
     1
 77
     3
 78
     8
170
     0
171
     2
172
     1
173
     0
174
     0
175
     0
176
   256
177
   256
178
     2
270
     2
271
     2
272
     2
273
     2
274
     2
340
6B
275
     0
280
     0
281
     0
282
     0
283
     0
284
     0
285
     0
286
     0
287
     3
288
     0
  0
DIMSTYLE
105
68
330
A
100
AcDbSymbolTableRecord
100
AcDbDimStyleTableRecord
  2
AM_JIS$SH
 70
     0
  3

  4
"
  5

  6
GENAXEH
  7
OPEN30
 40
1.0
 41
2.5
 42
1.0
 43
10.0
 44
1.0
 45
0.0
 46
0.0
 47
0.1
 48
0.1
140
3.2
141
0.0
142
0.0
143
0.0393701
144
2.0
145
0.0
146
0.71
147
1.5
 71
     0
 72
     0
 73
     0
 74
     0
 75
     1
 76
     1
 77
     3
 78
     8
170
     0
171
     2
172
     1
173
     1
174
     0
175
     0
176
   256
177
   256
178
     2
270
     2
271
     2
272
     2
273
     2
274
     2
340
6B
275
     0
280
     0
281
     0
282
     0
283
     0
284
     0
285
     0
286
     0
287
     3
288
     0
  0
DIMSTYLE
105
B34
102
{ACAD_REACTORS
330
82A1
102
}
330
A
100
AcDbSymbolTableRecord
100
AcDbDimStyleTableRecord
  2
AM_JIS$2
 70
     0
  3

  4
"
  5
OPEN30
  6

  7

 40
1.0
 41
2.5
 42
1.0
 43
12.0
 44
1.0
 45
0.0
 46
0.0
 47
0.1
 48
0.1
140
3.2
141
0.0
142
0.0
143
0.0393701
144
1.0
145
0.0
146
0.71
147
1.5
 71
     0
 72
     0
 73
     0
 74
     0
 75
     0
 76
     0
 77
     3
 78
     8
170
     0
171
     2
172
     1
173
     0
174
     0
175
     0
176
   256
177
   256
178
     2
270
     2
271
     3
272
     3
273
     2
274
     2
340
6B
275
     0
280
     0
281
     0
282
     0
283
     0
284
     0
285
     0
286
     0
287
     3
288
     0
  0
DIMSTYLE
105
1AB6
102
{ACAD_REACTORS
330
7F64
330
7F62
330
7F67
330
7F66
330
7F65
330
7F68
330
7F69
330
83C7
102
}
330
A
100
AcDbSymbolTableRecord
100
AcDbDimStyleTableRecord
  2
AM_JIS$0
 70
     0
  3

  4
"
  5
OPEN30
  6

  7

 40
1.0
 41
2.5
 42
0.0
 43
10.0
 44
1.0
 45
0.0
 46
0.0
 47
0.1
 48
0.1000000001
140
3.799999999999999
141
0.0
142
0.0
143
0.0393701
144
1.0
145
0.0
146
0.71
147
1.5
 71
     0
 72
     0
 73
     0
 74
     0
 75
     0
 76
     0
 77
     3
 78
     1
170
     0
171
     2
172
     1
173
     0
174
     0
175
     0
176
     3
177
     3
178
     2
270
     2
271
     2
272
     2
273
     2
274
     2
340
11
275
     1
280
     0
281
     0
282
     0
283
     0
284
     8
285
     0
286
     0
287
     0
288
     0
  0
ENDTAB
  0
TABLE
  2
BLOCK_RECORD
  5
1
330
0
100
AcDbSymbolTable
 70
    14
  0
BLOCK_RECORD
  5
1F
102
{ACAD_XDICTIONARY
360
74
102
}
330
1
100
AcDbSymbolTableRecord
100
AcDbBlockTableRecord
  2
*MODEL_SPACE
  0
BLOCK_RECORD
  5
101
102
{ACAD_XDICTIONARY
360
86FE
102
}
330
1
100
AcDbSymbolTableRecord
100
AcDbBlockTableRecord
  2
*PAPER_SPACE
  0
BLOCK_RECORD
  5
59
330
1
100
AcDbSymbolTableRecord
100
AcDbBlockTableRecord
  2
_OPEN30
  0
BLOCK_RECORD
  5
64
330
1
100
AcDbSymbolTableRecord
100
AcDbBlockTableRecord
  2
GENAXEH
  0
BLOCK_RECORD
  5
7F76
330
1
100
AcDbSymbolTableRecord
100
AcDbBlockTableRecord
  2
*D5
  0
BLOCK_RECORD
  5
7F82
330
1
100
AcDbSymbolTableRecord
100
AcDbBlockTableRecord
  2
*D6
  0
BLOCK_RECORD
  5
7F8E
330
1
100
AcDbSymbolTableRecord
100
AcDbBlockTableRecord
  2
*D7
  0
BLOCK_RECORD
  5
7F9A
330
1
100
AcDbSymbolTableRecord
100
AcDbBlockTableRecord
  2
*D8
  0
BLOCK_RECORD
  5
7FA6
330
1
100
AcDbSymbolTableRecord
100
AcDbBlockTableRecord
  2
*D9
  0
BLOCK_RECORD
  5
7FB2
330
1
100
AcDbSymbolTableRecord
100
AcDbBlockTableRecord
  2
*D10
  0
BLOCK_RECORD
  5
7FBE
330
1
100
AcDbSymbolTableRecord
100
AcDbBlockTableRecord
  2
*D11
  0
BLOCK_RECORD
  5
82A2
330
1
100
AcDbSymbolTableRecord
100
AcDbBlockTableRecord
  2
*D12
  0
BLOCK_RECORD
  5
83C8
330
1
100
AcDbSymbolTableRecord
100
AcDbBlockTableRecord
  2
*D13
  0
ENDTAB
  0
ENDSEC
  0
SECTION
  2
BLOCKS
  0
BLOCK
  5
20
330
1F
100
AcDbEntity
  8
0
100
AcDbBlockBegin
  2
*MODEL_SPACE
 70
     0
 10
0.0
 20
0.0
 30
0.0
  3
*MODEL_SPACE
  1

  0
ENDBLK
  5
21
330
1F
100
AcDbEntity
  8
0
100
AcDbBlockEnd
  0
BLOCK
  5
103
330
101
100
AcDbEntity
 67
     1
  8
0
100
AcDbBlockBegin
  2
*PAPER_SPACE
 70
     0
 10
0.0
 20
0.0
 30
0.0
  3
*PAPER_SPACE
  1

  0
ENDBLK
  5
104
330
101
100
AcDbEntity
 67
     1
  8
0
100
AcDbBlockEnd
  0
BLOCK
  5
5D
330
59
100
AcDbEntity
  8
0
100
AcDbBlockBegin
  2
_OPEN30
 70
     0
 10
0.0
 20
0.0
 30
0.0
  3
_OPEN30
  1

  0
LINE
  5
5A
330
59
100
AcDbEntity
  8
0
 62
     0
100
AcDbLine
 10
-1.0
 20
0.26794919
 30
0.0
 11
0.0
 21
0.0
 31
0.0
  0
LINE
  5
5B
330
59
100
AcDbEntity
  8
0
 62
     0
100
AcDbLine
 10
0.0
 20
0.0
 30
0.0
 11
-1.0
 21
-0.26794919
 31
0.0
  0
LINE
  5
5C
330
59
100
AcDbEntity
  8
0
 62
     0
100
AcDbLine
 10
0.0
 20
0.0
 30
0.0
 11
-1.0
 21
0.0
 31
0.0
  0
ENDBLK
  5
5E
330
59
100
AcDbEntity
  8
0
100
AcDbBlockEnd
  0
BLOCK
  5
66
330
64
100
AcDbEntity
  8
0
100
AcDbBlockBegin
  2
GENAXEH
 70
     0
 10
0.0
 20
0.0
 30
0.0
  3
GENAXEH
  1

  0
LINE
  5
65
330
64
100
AcDbEntity
  8
0
100
AcDbLine
 10
-1.0
 20
0.0
 30
0.0
 11
1.0
 21
0.0
 31
0.0
  0
ENDBLK
  5
67
330
64
100
AcDbEntity
  8
0
100
AcDbBlockEnd
  0
BLOCK
  5
7F80
330
7F76
100
AcDbEntity
  8
0
100
AcDbBlockBegin
  2
*D5
 70
     1
 10
0.0
 20
0.0
 30
0.0
  3
*D5
  1

  0
LINE
  5
8709
330
7F76
100
AcDbEntity
  8
AM_5
100
AcDbLine
 10
-62.5
 20
19.05000000000001
 30
0.0
 11
-89.35415749414
 21
19.05000000000002
 31
0.0
  0
LINE
  5
870A
330
7F76
100
AcDbEntity
  8
AM_5
100
AcDbLine
 10
-62.5
 20
-19.05000000000001
 30
0.0
 11
-89.35415749414
 21
-19.05
 31
0.0
  0
LINE
  5
870B
330
7F76
100
AcDbEntity
  8
AM_5
100
AcDbLine
 10
-88.35415749414
 20
16.55000000000002
 30
0.0
 11
-88.35415749414
 21
-16.55
 31
0.0
  0
INSERT
  5
870C
330
7F76
100
AcDbEntity
  8
AM_5
100
AcDbBlockReference
  2
_OPEN30
 10
-88.35415749414
 20
19.05000000000002
 30
0.0
 41
2.5
 42
2.5
 43
2.5
 50
90.0
  0
INSERT
  5
870D
330
7F76
100
AcDbEntity
  8
AM_5
100
AcDbBlockReference
  2
_OPEN30
 10
-88.35415749414
 20
-19.05
 30
0.0
 41
2.5
 42
2.5
 43
2.5
 50
270.0
  0
MTEXT
  5
870E
330
7F76
100
AcDbEntity
  8
AM_5
 62
     2
100
AcDbMText
 10
-91.45415749413999
 20
-0.0000000000000084
 30
0.0
 40
3.2
 41
0.0
 71
     5
 72
     1
  1
%%c38.1
  7
ASAMI
 11
0.0000000000000001
 21
1.0
 31
0.0
  0
POINT
  5
870F
330
7F76
100
AcDbEntity
  8
DEFPOINTS
 62
     0
100
AcDbPoint
 10
-61.5
 20
19.05000000000001
 30
0.0
  0
POINT
  5
8710
330
7F76
100
AcDbEntity
  8
DEFPOINTS
 62
     0
100
AcDbPoint
 10
-61.5
 20
-19.05000000000001
 30
0.0
  0
POINT
  5
8711
330
7F76
100
AcDbEntity
  8
DEFPOINTS
 62
     0
100
AcDbPoint
 10
-88.35415749414
 20
-19.05
 30
0.0
  0
ENDBLK
  5
7F81
330
7F76
100
AcDbEntity
  8
0
100
AcDbBlockEnd
  0
BLOCK
  5
7F8C
330
7F82
100
AcDbEntity
  8
0
100
AcDbBlockBegin
  2
*D6
 70
     1
 10
0.0
 20
0.0
 30
0.0
  3
*D6
  1

  0
LINE
  5
8700
330
7F82
100
AcDbEntity
  8
AM_5
100
AcDbLine
 10
-60.99999905825058
 20
39.99999999999985
 30
0.0
 11
-99.35415749413998
 21
39.99999999999986
 31
0.0
  0
LINE
  5
8701
330
7F82
100
AcDbEntity
  8
AM_5
100
AcDbLine
 10
-60.99999905825058
 20
-39.99999999999985
 30
0.0
 11
-99.35415749414001
 21
-39.99999999999985
 31
0.0
  0
LINE
  5
8702
330
7F82
100
AcDbEntity
  8
AM_5
100
AcDbLine
 10
-98.35415749413998
 20
37.49999999999986
 30
0.0
 11
-98.35415749414002
 21
-37.49999999999985
 31
0.0
  0
INSERT
  5
8703
330
7F82
100
AcDbEntity
  8
AM_5
100
AcDbBlockReference
  2
_OPEN30
 10
-98.35415749413998
 20
39.99999999999986
 30
0.0
 41
2.5
 42
2.5
 43
2.5
 50
90.0
  0
INSERT
  5
8704
330
7F82
100
AcDbEntity
  8
AM_5
100
AcDbBlockReference
  2
_OPEN30
 10
-98.35415749414002
 20
-39.99999999999985
 30
0.0
 41
2.5
 42
2.5
 43
2.5
 50
270.0
  0
MTEXT
  5
8705
330
7F82
100
AcDbEntity
  8
AM_5
 62
     2
100
AcDbMText
 10
-101.4541574941399
 20
-0.0000000000000078
 30
0.0
 40
3.2
 41
0.0
 71
     5
 72
     1
  1
%%c80
  7
ASAMI
 11
0.0000000000000001
 21
1.0
 31
0.0
  0
POINT
  5
8706
330
7F82
100
AcDbEntity
  8
DEFPOINTS
 62
     0
100
AcDbPoint
 10
-59.99999905825058
 20
39.99999999999985
 30
0.0
  0
POINT
  5
8707
330
7F82
100
AcDbEntity
  8
DEFPOINTS
 62
     0
100
AcDbPoint
 10
-59.99999905825058
 20
-39.99999999999985
 30
0.0
  0
POINT
  5
8708
330
7F82
100
AcDbEntity
  8
DEFPOINTS
 62
     0
100
AcDbPoint
 10
-98.35415749414002
 20
-39.99999999999985
 30
0.0
  0
ENDBLK
  5
7F8D
330
7F82
100
AcDbEntity
  8
0
100
AcDbBlockEnd
  0
BLOCK
  5
7F98
330
7F8E
100
AcDbEntity
  8
0
100
AcDbBlockBegin
  2
*D7
 70
     1
 10
0.0
 20
0.0
 30
0.0
  3
*D7
  1

  0
LINE
  5
8724
330
7F8E
100
AcDbEntity
  8
AM_5
100
AcDbLine
 10
-63.0
 20
-38.0
 30
0.0
 11
-63.0
 21
-87.51668626108283
 31
0.0
  0
LINE
  5
8725
330
7F8E
100
AcDbEntity
  8
AM_5
100
AcDbLine
 10
-25.0
 20
-29.0
 30
0.0
 11
-25.0
 21
-87.51668626108283
 31
0.0
  0
LINE
  5
8726
330
7F8E
100
AcDbEntity
  8
AM_5
100
AcDbLine
 10
-60.5
 20
-86.51668626108284
 30
0.0
 11
-27.5
 21
-86.51668626108284
 31
0.0
  0
INSERT
  5
8727
330
7F8E
100
AcDbEntity
  8
AM_5
100
AcDbBlockReference
  2
_OPEN30
 10
-63.0
 20
-86.51668626108284
 30
0.0
 41
2.5
 42
2.5
 43
2.5
 50
180.0
  0
INSERT
  5
8728
330
7F8E
100
AcDbEntity
  8
AM_5
100
AcDbBlockReference
  2
_OPEN30
 10
-25.0
 20
-86.51668626108284
 30
0.0
 41
2.5
 42
2.5
 43
2.5
  0
MTEXT
  5
8729
330
7F8E
100
AcDbEntity
  8
AM_5
 62
     2
100
AcDbMText
 10
-44.0
 20
-83.41668626108285
 30
0.0
 40
3.2
 41
0.0
 71
     5
 72
     1
  1
38
  7
ASAMI
  0
POINT
  5
872A
330
7F8E
100
AcDbEntity
  8
DEFPOINTS
 62
     0
100
AcDbPoint
 10
-63.0
 20
-37.0
 30
0.0
  0
POINT
  5
872B
330
7F8E
100
AcDbEntity
  8
DEFPOINTS
 62
     0
100
AcDbPoint
 10
-25.0
 20
-28.0
 30
0.0
  0
POINT
  5
872C
330
7F8E
100
AcDbEntity
  8
DEFPOINTS
 62
     0
100
AcDbPoint
 10
-25.0
 20
-86.51668626108284
 30
0.0
  0
ENDBLK
  5
7F99
330
7F8E
100
AcDbEntity
  8
0
100
AcDbBlockEnd
  0
BLOCK
  5
7FA4
330
7F9A
100
AcDbEntity
  8
0
100
AcDbBlockBegin
  2
*D8
 70
     1
 10
0.0
 20
0.0
 30
0.0
  3
*D8
  1

  0
LINE
  5
871B
330
7F9A
100
AcDbEntity
  8
AM_5
100
AcDbLine
 10
-62.99999999999949
 20
-38.00000000000006
 30
0.0
 11
-62.9999999999995
 21
-97.51668626108283
 31
0.0
  0
LINE
  5
871C
330
7F9A
100
AcDbEntity
  8
AM_5
100
AcDbLine
 10
-0.0000000000000001
 20
-63.5
 30
0.0
 11
-0.0000000000000021
 21
-97.51668626108283
 31
0.0
  0
LINE
  5
871D
330
7F9A
100
AcDbEntity
  8
AM_5
100
AcDbLine
 10
-60.4999999999995
 20
-96.51668626108284
 30
0.0
 11
-2.500000000000002
 21
-96.51668626108284
 31
0.0
  0
INSERT
  5
871E
330
7F9A
100
AcDbEntity
  8
AM_5
100
AcDbBlockReference
  2
_OPEN30
 10
-62.9999999999995
 20
-96.51668626108284
 30
0.0
 41
2.5
 42
2.5
 43
2.5
 50
180.0
  0
INSERT
  5
871F
330
7F9A
100
AcDbEntity
  8
AM_5
100
AcDbBlockReference
  2
_OPEN30
 10
-0.0000000000000021
 20
-96.51668626108284
 30
0.0
 41
2.5
 42
2.5
 43
2.5
  0
MTEXT
  5
8720
330
7F9A
100
AcDbEntity
  8
AM_5
 62
     2
100
AcDbMText
 10
-31.49999999999975
 20
-93.41668626108285
 30
0.0
 40
3.2
 41
0.0
 71
     5
 72
     1
  1
63
  7
ASAMI
  0
POINT
  5
8721
330
7F9A
100
AcDbEntity
  8
DEFPOINTS
 62
     0
100
AcDbPoint
 10
-62.99999999999949
 20
-37.00000000000005
 30
0.0
  0
POINT
  5
8722
330
7F9A
100
AcDbEntity
  8
DEFPOINTS
 62
     0
100
AcDbPoint
 10
0.0
 20
-62.5
 30
0.0
  0
POINT
  5
8723
330
7F9A
100
AcDbEntity
  8
DEFPOINTS
 62
     0
100
AcDbPoint
 10
-0.0000000000000021
 20
-96.51668626108284
 30
0.0
  0
ENDBLK
  5
7FA5
330
7F9A
100
AcDbEntity
  8
0
100
AcDbBlockEnd
  0
BLOCK
  5
7FB0
330
7FA6
100
AcDbEntity
  8
0
100
AcDbBlockBegin
  2
*D9
 70
     1
 10
0.0
 20
0.0
 30
0.0
  3
*D9
  1

  0
LINE
  5
8712
330
7FA6
100
AcDbEntity
  8
AM_5
100
AcDbLine
 10
-63.0
 20
-38.0
 30
0.0
 11
-63.0
 21
-77.51668626108283
 31
0.0
  0
LINE
  5
8713
330
7FA6
100
AcDbEntity
  8
AM_5
100
AcDbLine
 10
-53.0
 20
-8.949999999999988
 30
0.0
 11
-53.0
 21
-77.51668626108283
 31
0.0
  0
LINE
  5
8714
330
7FA6
100
AcDbEntity
  8
AM_5
100
AcDbLine
 10
-60.5
 20
-76.51668626108284
 30
0.0
 11
-55.5
 21
-76.51668626108284
 31
0.0
  0
INSERT
  5
8715
330
7FA6
100
AcDbEntity
  8
AM_5
100
AcDbBlockReference
  2
_OPEN30
 10
-63.0
 20
-76.51668626108284
 30
0.0
 41
2.5
 42
2.5
 43
2.5
 50
180.0
  0
INSERT
  5
8716
330
7FA6
100
AcDbEntity
  8
AM_5
100
AcDbBlockReference
  2
_OPEN30
 10
-53.0
 20
-76.51668626108284
 30
0.0
 41
2.5
 42
2.5
 43
2.5
  0
MTEXT
  5
8717
330
7FA6
100
AcDbEntity
  8
AM_5
 62
     2
100
AcDbMText
 10
-58.0
 20
-73.41668626108284
 30
0.0
 40
3.2
 41
0.0
 71
     5
 72
     1
  1
10
  7
ASAMI
  0
POINT
  5
8718
330
7FA6
100
AcDbEntity
  8
DEFPOINTS
 62
     0
100
AcDbPoint
 10
-63.0
 20
-37.0
 30
0.0
  0
POINT
  5
8719
330
7FA6
100
AcDbEntity
  8
DEFPOINTS
 62
     0
100
AcDbPoint
 10
-53.0
 20
-7.949999999999988
 30
0.0
  0
POINT
  5
871A
330
7FA6
100
AcDbEntity
  8
DEFPOINTS
 62
     0
100
AcDbPoint
 10
-53.0
 20
-76.51668626108284
 30
0.0
  0
ENDBLK
  5
7FB1
330
7FA6
100
AcDbEntity
  8
0
100
AcDbBlockEnd
  0
BLOCK
  5
7FBC
330
7FB2
100
AcDbEntity
  8
0
100
AcDbBlockBegin
  2
*D10
 70
     1
 10
0.0
 20
0.0
 30
0.0
  3
*D10
  1

  0
LINE
  5
872D
330
7FB2
100
AcDbEntity
  8
AM_5
100
AcDbLine
 10
-15.62001134936184
 20
-28.0
 30
0.0
 11
20.77133278710998
 21
-28.00000000000001
 31
0.0
  0
LINE
  5
872E
330
7FB2
100
AcDbEntity
  8
AM_5
100
AcDbLine
 10
-15.62001134936184
 20
28.0
 30
0.0
 11
20.77133278710999
 21
27.99999999999998
 31
0.0
  0
LINE
  5
872F
330
7FB2
100
AcDbEntity
  8
AM_5
100
AcDbLine
 10
19.77133278710998
 20
-25.50000000000001
 30
0.0
 11
19.77133278710999
 21
25.49999999999998
 31
0.0
  0
INSERT
  5
8730
330
7FB2
100
AcDbEntity
  8
AM_5
100
AcDbBlockReference
  2
_OPEN30
 10
19.77133278710998
 20
-28.00000000000001
 30
0.0
 41
2.5
 42
2.5
 43
2.5
 50
270.0
  0
INSERT
  5
8731
330
7FB2
100
AcDbEntity
  8
AM_5
100
AcDbBlockReference
  2
_OPEN30
 10
19.77133278710999
 20
27.99999999999998
 30
0.0
 41
2.5
 42
2.5
 43
2.5
 50
90.0
  0
MTEXT
  5
8732
330
7FB2
100
AcDbEntity
  8
AM_5
 62
     2
100
AcDbMText
 10
16.67133278710998
 20
-0.0000000000000079
 30
0.0
 40
3.2
 41
0.0
 71
     5
 72
     1
  1
%%c56
  7
ASAMI
 11
0.0000000000000001
 21
1.0
 31
0.0
  0
POINT
  5
8733
330
7FB2
100
AcDbEntity
  8
DEFPOINTS
 62
     0
100
AcDbPoint
 10
-16.62001134936184
 20
-28.0
 30
0.0
  0
POINT
  5
8734
330
7FB2
100
AcDbEntity
  8
DEFPOINTS
 62
     0
100
AcDbPoint
 10
-16.62001134936184
 20
28.0
 30
0.0
  0
POINT
  5
8735
330
7FB2
100
AcDbEntity
  8
DEFPOINTS
 62
     0
100
AcDbPoint
 10
19.77133278710999
 20
27.99999999999998
 30
0.0
  0
ENDBLK
  5
7FBD
330
7FB2
100
AcDbEntity
  8
0
100
AcDbBlockEnd
  0
BLOCK
  5
7FC8
330
7FBE
100
AcDbEntity
  8
0
100
AcDbBlockBegin
  2
*D11
 70
     1
 10
0.0
 20
0.0
 30
0.0
  3
*D11
  1

  0
LINE
  5
8736
330
7FBE
100
AcDbEntity
  8
AM_5
100
AcDbLine
 10
1.0
 20
62.49999999999998
 30
0.0
 11
35.01668626108282
 21
62.49999999999997
 31
0.0
  0
LINE
  5
8737
330
7FBE
100
AcDbEntity
  8
AM_5
100
AcDbLine
 10
0.9999999999999998
 20
-62.5
 30
0.0
 11
35.01668626108279
 21
-62.5
 31
0.0
  0
LINE
  5
8738
330
7FBE
100
AcDbEntity
  8
AM_5
100
AcDbLine
 10
34.01668626108282
 20
59.99999999999997
 30
0.0
 11
34.01668626108279
 21
-60.0
 31
0.0
  0
INSERT
  5
8739
330
7FBE
100
AcDbEntity
  8
AM_5
100
AcDbBlockReference
  2
_OPEN30
 10
34.01668626108282
 20
62.49999999999997
 30
0.0
 41
2.5
 42
2.5
 43
2.5
 50
90.0
  0
INSERT
  5
873A
330
7FBE
100
AcDbEntity
  8
AM_5
100
AcDbBlockReference
  2
_OPEN30
 10
34.01668626108279
 20
-62.5
 30
0.0
 41
2.5
 42
2.5
 43
2.5
 50
270.0
  0
MTEXT
  5
873B
330
7FBE
100
AcDbEntity
  8
AM_5
 62
     2
100
AcDbMText
 10
30.91668626108281
 20
-0.0000000000000124
 30
0.0
 40
3.2
 41
0.0
 71
     5
 72
     1
  1
%%c125
  7
ASAMI
 11
0.0000000000000001
 21
1.0
 31
0.0
  0
POINT
  5
873C
330
7FBE
100
AcDbEntity
  8
DEFPOINTS
 62
     0
100
AcDbPoint
 10
0.0
 20
62.49999999999998
 30
0.0
  0
POINT
  5
873D
330
7FBE
100
AcDbEntity
  8
DEFPOINTS
 62
     0
100
AcDbPoint
 10
0.0
 20
-62.5
 30
0.0
  0
POINT
  5
873E
330
7FBE
100
AcDbEntity
  8
DEFPOINTS
 62
     0
100
AcDbPoint
 10
34.01668626108279
 20
-62.5
 30
0.0
  0
ENDBLK
  5
7FC9
330
7FBE
100
AcDbEntity
  8
0
100
AcDbBlockEnd
  0
BLOCK
  5
82B2
330
82A2
100
AcDbEntity
  8
0
100
AcDbBlockBegin
  2
*D12
 70
     1
 10
0.0
 20
0.0
 30
0.0
  3
*D12
  1

  0
LINE
  5
8649
330
82A2
100
AcDbEntity
  8
AM_5
100
AcDbLine
 10
0.0000000000000426
 20
-63.5000004913538
 30
0.0
 11
0.0000000000000355
 21
-97.51668675243662
 31
0.0
  0
LINE
  5
864A
330
82A2
100
AcDbEntity
  8
AM_5
100
AcDbLine
 10
1.000000000000159
 20
-62.5000004913538
 30
0.0
 11
35.01668626108284
 21
-62.50000049135381
 31
0.0
  0
ARC
  5
864B
330
82A2
100
AcDbEntity
  8
AM_5
100
AcDbCircle
 10
0.0000000000000391
 20
-62.5000004913538
 30
0.0
 40
34.0166862610828
100
AcDbArc
 50
274.211806633715
 51
355.7881933662849
  0
INSERT
  5
864C
330
82A2
100
AcDbEntity
  8
AM_5
100
AcDbBlockReference
  2
_OPEN30
 10
0.0000000000000355
 20
-96.51668675243662
 30
0.0
 41
2.5
 42
2.5
 43
2.5
 50
182.1059033168575
  0
INSERT
  5
864D
330
82A2
100
AcDbEntity
  8
AM_5
100
AcDbBlockReference
  2
_OPEN30
 10
34.01668626108284
 20
-62.50000049135381
 30
0.0
 41
2.5
 42
2.5
 43
2.5
 50
87.89409668314249
  0
MTEXT
  5
864E
330
82A2
100
AcDbEntity
  8
AM_5
 62
     2
100
AcDbMText
 10
21.86139850702864
 20
-84.36139899838243
 30
0.0
 40
3.2
 41
0.0
 71
     5
 72
     1
  1
90°
  7
ASAMI
 11
0.7071067811865476
 21
0.7071067811865475
 31
0.0
1001
ACAD
1000
MTEXTBEGIN
1070
    73
1070
     1
1070
    44
1040
1.0
1070
    74
1070
     0
1000
MTEXTEND
  0
POINT
  5
864F
330
82A2
100
AcDbEntity
  8
DEFPOINTS
 62
     0
100
AcDbPoint
 10
17.00834313054144
 20
-91.9593149460166
 30
0.0
  0
POINT
  5
8650
330
82A2
100
AcDbEntity
  8
DEFPOINTS
 62
     0
100
AcDbPoint
 10
0.0000000000000391
 20
62.5
 30
0.0
  0
POINT
  5
8651
330
82A2
100
AcDbEntity
  8
DEFPOINTS
 62
     0
100
AcDbPoint
 10
0.0000000000001599
 20
-62.5000004913538
 30
0.0
  0
POINT
  5
8652
330
82A2
100
AcDbEntity
  8
DEFPOINTS
 62
     0
100
AcDbPoint
 10
-0.9634094238298445
 20
-62.5000004913538
 30
0.0
  0
POINT
  5
8653
330
82A2
100
AcDbEntity
  8
DEFPOINTS
 62
     0
100
AcDbPoint
 10
0.0000000000000391
 20
-62.5000004913538
 30
0.0
  0
ENDBLK
  5
82B3
330
82A2
100
AcDbEntity
  8
0
100
AcDbBlockEnd
  0
BLOCK
  5
83D2
330
83C8
100
AcDbEntity
  8
0
100
AcDbBlockBegin
  2
*D13
 70
     1
 10
0.0
 20
0.0
 30
0.0
  3
*D13
  1

  0
LINE
  5
873F
330
83C8
100
AcDbEntity
  8
AM_5
100
AcDbLine
 10
-62.99996948242
 20
7.949999999999989
 30
0.0
 11
-79.35415749413998
 21
7.949999999999993
 31
0.0
  0
LINE
  5
8740
330
83C8
100
AcDbEntity
  8
AM_5
100
AcDbLine
 10
-63.0
 20
-7.949999999999988
 30
0.0
 11
-79.35415749413998
 21
-7.949999999999984
 31
0.0
  0
LINE
  5
8741
330
83C8
100
AcDbEntity
  8
AM_5
100
AcDbLine
 10
-78.35415749413998
 20
5.449999999999993
 30
0.0
 11
-78.35415749413998
 21
-5.449999999999984
 31
0.0
  0
INSERT
  5
8742
330
83C8
100
AcDbEntity
  8
AM_5
100
AcDbBlockReference
  2
_OPEN30
 10
-78.35415749413998
 20
7.949999999999993
 30
0.0
 41
2.5
 42
2.5
 43
2.5
 50
90.0
  0
INSERT
  5
8743
330
83C8
100
AcDbEntity
  8
AM_5
100
AcDbBlockReference
  2
_OPEN30
 10
-78.35415749413998
 20
-7.949999999999984
 30
0.0
 41
2.5
 42
2.5
 43
2.5
 50
270.0
  0
MTEXT
  5
8744
330
83C8
100
AcDbEntity
  8
AM_5
 62
     2
100
AcDbMText
 10
-81.45415749413997
 20
-0.0000000000000077
 30
0.0
 40
3.2
 41
0.0
 71
     5
 72
     1
  1
15.9
  7
ASAMI
 11
0.0000000000000001
 21
1.0
 31
0.0
  0
POINT
  5
8745
330
83C8
100
AcDbEntity
  8
DEFPOINTS
 62
     0
100
AcDbPoint
 10
-61.99996948242
 20
7.949999999999988
 30
0.0
  0
POINT
  5
8746
330
83C8
100
AcDbEntity
  8
DEFPOINTS
 62
     0
100
AcDbPoint
 10
-62.0
 20
-7.949999999999988
 30
0.0
  0
POINT
  5
8747
330
83C8
100
AcDbEntity
  8
DEFPOINTS
 62
     0
100
AcDbPoint
 10
-78.35415749413998
 20
-7.949999999999984
 30
0.0
  0
ENDBLK
  5
83D3
330
83C8
100
AcDbEntity
  8
0
100
AcDbBlockEnd
  0
ENDSEC
  0
SECTION
  2
ENTITIES
  0
TEXT
  5
E5A
330
1F
100
AcDbEntity
  8
AM_6
100
AcDbText
 10
-52.21428571428545
 20
-119.0166862610828
 30
0.0
 40
5.0
  1
WFMF4125R
 72
     4
 11
-31.49999999999973
 21
-116.5166862610828
 31
0.0
100
AcDbText
  0
ELLIPSE
  5
7B74
330
1F
100
AcDbEntity
  8
AM_0
  6
CONTINUOUS
 48
0.5
100
AcDbEllipse
 10
-6.137603759769959
 20
56.20062255859997
 30
0.0
 11
1.645233162160025
 21
2.69616695704002
 31
0.0
210
0.0
220
0.0
230
1.0
 40
0.9791076186809998
 41
5.848580804279882
 42
9.859451593787555
  0
ELLIPSE
  5
7B75
330
1F
100
AcDbEntity
  8
AM_0
  6
CONTINUOUS
 48
0.5
100
AcDbEllipse
 10
-6.137603759769959
 20
56.20062255859997
 30
0.0
 11
1.645233162160025
 21
2.69616695704002
 31
0.0
210
0.0
220
0.0
230
1.0
 40
0.9791076186809998
 41
3.576266351061386
 42
5.84859554926446
  0
SPLINE
  5
7B76
330
1F
100
AcDbEntity
  8
AM_0
  6
CONTINUOUS
 48
0.5
100
AcDbSpline
210
0.0
220
0.0
230
1.0
 70
     8
 71
     3
 72
    11
 73
     7
 74
     5
 42
0.0000000001
 43
0.0000000001
 44
0.0000000001
 40
0.0
 40
0.0
 40
0.0
 40
0.0
 40
0.4940863002682061
 40
0.9256695078833033
 40
1.358910671731817
 40
1.85743842737167
 40
1.85743842737167
 40
1.85743842737167
 40
1.85743842737167
 10
-9.652008056639957
 20
61.02450561523998
 30
0.0
 10
-9.816177743091266
 20
60.99857229849833
 30
0.0
 10
-10.12374926001907
 20
60.94998629129069
 30
0.0
 10
-10.51543398445117
 20
60.69520438951771
 30
0.0
 10
-10.77315874249922
 20
60.30404792206713
 30
0.0
 10
-10.82614353753121
 20
59.99523982370561
 30
0.0
 10
-10.85449218749995
 20
59.83001708984997
 30
0.0
 11
-9.652008056639957
 21
61.02450561523998
 31
0.0
 11
-10.13290405272995
 21
60.91110229492997
 31
0.0
 11
-10.49359130858995
 21
60.67410278320997
 31
0.0
 11
-10.73419189452995
 21
60.31381225585997
 31
0.0
 11
-10.85449218749995
 21
59.83001708984997
 31
0.0
  0
SPLINE
  5
7B77
330
1F
100
AcDbEntity
  8
AM_0
  6
CONTINUOUS
 48
0.5
100
AcDbSpline
210
0.0
220
0.0
230
1.0
 70
     8
 71
     3
 72
    11
 73
     7
 74
     5
 42
0.0000000001
 43
0.0000000001
 44
0.0000000001
 40
0.0
 40
0.0
 40
0.0
 40
0.0
 40
1.312524410713453
 40
2.626787439298686
 40
3.94302559700469
 40
5.261354676255537
 40
5.261354676255537
 40
5.261354676255537
 40
5.261354676255537
 10
-12.17660522460995
 20
61.49502563476997
 30
0.0
 10
-12.18991711076681
 20
61.05771452883288
 30
0.0
 10
-12.21655851649214
 20
60.1825130386625
 30
0.0
 10
-12.2369883184325
 20
58.86829171539041
 30
0.0
 10
-12.24436333568483
 20
57.55199718782372
 30
0.0
 10
-12.2361807310268
 20
56.67383505848113
 30
0.0
 10
-12.23208618163995
 20
56.23440551757997
 30
0.0
 11
-12.17660522460995
 21
61.49502563476997
 31
0.0
 11
-12.21328735351995
 21
60.18301391601998
 31
0.0
 11
-12.23480224608995
 21
58.86892700195997
 31
0.0
 11
-12.24108886718995
 21
57.55270385742997
 31
0.0
 11
-12.23208618163995
 21
56.23440551757997
 31
0.0
  0
SPLINE
  5
7B78
330
1F
100
AcDbEntity
  8
AM_0
  6
CONTINUOUS
 48
0.5
100
AcDbSpline
210
0.0
220
0.0
230
1.0
 70
     8
 71
     3
 72
    11
 73
     7
 74
     5
 42
0.0000000001
 43
0.0000000001
 44
0.0000000001
 40
0.0
 40
0.0
 40
0.0
 40
0.0
 40
1.319030967183292
 40
2.635849098316108
 40
3.950811945597035
 40
5.263915963898524
 40
5.263915963898524
 40
5.263915963898524
 40
5.263915963898524
 10
-12.37969970702995
 20
56.23422241210997
 30
0.0
 10
-12.38380151121689
 20
56.67388599986384
 30
0.0
 10
-12.39199823831169
 20
57.55247558583707
 30
0.0
 10
-12.38451580648042
 20
58.86942950826683
 30
0.0
 10
-12.36430933667667
 20
60.18427418355187
 30
0.0
 10
-12.33763702561283
 20
61.05990184193672
 30
0.0
 10
-12.32431030272995
 20
61.49740600585997
 30
0.0
 11
-12.37969970702995
 21
56.23422241210997
 31
0.0
 11
-12.38870239257995
 21
57.55322265624997
 31
0.0
 11
-12.38238525390995
 21
58.87002563476997
 31
0.0
 11
-12.36099243163995
 21
60.18481445312997
 31
0.0
 11
-12.32431030272995
 21
61.49740600585997
 31
0.0
  0
SPLINE
  5
7B79
330
1F
100
AcDbEntity
  8
AM_0
  6
CONTINUOUS
 48
0.5
100
AcDbSpline
210
0.0
220
0.0
230
1.0
 70
     8
 71
     3
 72
    11
 73
     7
 74
     5
 42
0.0000000001
 43
0.0000000001
 44
0.0000000001
 40
0.0
 40
0.0
 40
0.0
 40
0.0
 40
1.31453898695328
 40
2.624894474020448
 40
3.925171212994639
 40
5.232347547938887
 40
5.232347547938887
 40
5.232347547938887
 40
5.232347547938887
 10
-6.094207763669956
 20
62.47790527343997
 30
0.0
 10
-6.532317989909728
 20
62.48970647151996
 30
0.0
 10
-7.407144163406471
 20
62.51327131055053
 30
0.0
 10
-8.71546210211401
 20
62.46915314769967
 30
0.0
 10
-10.02126363029972
 20
62.51048441054857
 30
0.0
 10
-10.89039516540921
 20
62.49612221756887
 30
0.0
 10
-11.32611083983995
 20
62.48892211913997
 30
0.0
 11
-6.094207763669956
 21
62.47790527343997
 31
0.0
 11
-7.408561062060769
 21
62.49999950864619
 31
0.0
 11
-8.718811035159959
 21
62.48337090435703
 31
0.0
 11
-10.01898144223618
 21
62.49999950864619
 31
0.0
 11
-11.32611083983995
 21
62.48892211913997
 31
0.0
  0
SPLINE
  5
7B7A
330
1F
100
AcDbEntity
  8
AM_0
  6
CONTINUOUS
 48
0.5
100
AcDbSpline
210
0.0
220
0.0
230
1.0
 70
     8
 71
     3
 72
    11
 73
     7
 74
     5
 42
0.0000000001
 43
0.0000000001
 44
0.0000000001
 40
0.0
 40
0.0
 40
0.0
 40
0.0
 40
0.2319972302335557
 40
0.4656339287883602
 40
0.6986259806642057
 40
0.928465726237577
 40
0.928465726237577
 40
0.928465726237577
 40
0.928465726237577
 10
-12.16860961913995
 20
61.72650146484997
 30
0.0
 10
-12.15307062427784
 20
61.80346696047436
 30
0.0
 10
-12.12188282423478
 20
61.95794184826787
 30
0.0
 10
-11.97060800236039
 20
62.14212173009646
 30
0.0
 10
-11.78594908301149
 20
62.29200790102956
 30
0.0
 10
-11.63197444153715
 20
62.32107546180888
 30
0.0
 10
-11.55551147460995
 20
62.33551025390998
 30
0.0
 11
-12.16860961913995
 21
61.72650146484997
 31
0.0
 11
-12.10470581054996
 21
61.94952392578997
 31
0.0
 11
-11.96478271483995
 21
62.13662719726997
 31
0.0
 11
-11.77719116210995
 21
62.27481079101997
 31
0.0
 11
-11.55551147460995
 21
62.33551025390998
 31
0.0
  0
ELLIPSE
  5
7B7B
330
1F
100
AcDbEntity
  8
AM_0
  6
CONTINUOUS
 48
0.5
100
AcDbEllipse
 10
-11.50289916991995
 20
61.66220092773997
 30
0.0
 11
-0.5205993684600117
 21
0.6557617228099844
 31
0.0
210
0.0
220
0.0
230
1.0
 40
0.9537956027345
 41
5.653643847883563
 42
7.125691926890482
  0
SPLINE
  5
7B7C
330
1F
100
AcDbEntity
  8
AM_0
  6
CONTINUOUS
 48
0.5
100
AcDbSpline
210
0.0
220
0.0
230
1.0
 70
     8
 71
     3
 72
    11
 73
     7
 74
     5
 42
0.0000000001
 43
0.0000000001
 44
0.0000000001
 40
0.0
 40
0.0
 40
0.0
 40
0.0
 40
0.1130464438732793
 40
0.2257928505037024
 40
0.3414149127616977
 40
0.4625682104561186
 40
0.4625682104561186
 40
0.4625682104561186
 40
0.4625682104561186
 10
-11.00588989257995
 20
61.16882324218997
 30
0.0
 10
-10.9778987644189
 20
61.19419136433208
 30
0.0
 10
-10.92199079951749
 20
61.2448602789316
 30
0.0
 10
-10.82284459952517
 20
61.30218495157977
 30
0.0
 10
-10.71399802275486
 20
61.34531551911381
 30
0.0
 10
-10.6363295603513
 20
61.36020811867134
 30
0.0
 10
-10.59658813476995
 20
61.36782836913997
 30
0.0
 11
-11.00588989257995
 21
61.16882324218997
 31
0.0
 11
-10.91949462890996
 21
61.24172973632997
 31
0.0
 11
-10.82250976561995
 21
61.29922485351997
 31
0.0
 11
-10.71478271483995
 21
61.34121704101997
 31
0.0
 11
-10.59658813476995
 21
61.36782836913997
 31
0.0
  0
SPLINE
  5
7B7D
330
1F
100
AcDbEntity
  8
AM_0
  6
CONTINUOUS
 48
0.5
100
AcDbSpline
210
0.0
220
0.0
230
1.0
 70
     8
 71
     3
 72
    11
 73
     7
 74
     5
 42
0.0000000001
 43
0.0000000001
 44
0.0000000001
 40
0.0
 40
0.0
 40
0.0
 40
0.0
 40
0.1157883727059974
 40
0.2316388312164024
 40
0.3487038193785918
 40
0.4654395832696633
 40
0.4654395832696633
 40
0.4654395832696633
 40
0.4654395832696633
 10
-10.59658813476995
 20
61.36782836913997
 30
0.0
 10
-10.63519690929786
 20
61.36398908660457
 30
0.0
 10
-10.71243516040489
 20
61.35630846290787
 30
0.0
 10
-10.82072887888426
 20
61.31044096818897
 30
0.0
 10
-10.91982012924566
 20
61.24819685442115
 30
0.0
 10
-10.97722691707315
 20
61.19525626367317
 30
0.0
 10
-11.00588989257995
 20
61.16882324218997
 30
0.0
 11
-10.59658813476995
 21
61.36782836913997
 31
0.0
 11
-10.71109008788995
 21
61.35061645507997
 31
0.0
 11
-10.81878662108995
 21
61.30792236328997
 31
0.0
 11
-10.91769409179995
 21
61.24530029296997
 31
0.0
 11
-11.00588989257995
 21
61.16882324218997
 31
0.0
  0
SPLINE
  5
7B7E
330
1F
100
AcDbEntity
  8
AM_0
  6
CONTINUOUS
 48
0.5
100
AcDbSpline
210
0.0
220
0.0
230
1.0
 70
     8
 71
     3
 72
    11
 73
     7
 74
     5
 42
0.0000000001
 43
0.0000000001
 44
0.0000000001
 40
0.0
 40
0.0
 40
0.0
 40
0.0
 40
0.1166291365570371
 40
0.2344762210303124
 40
0.3514008359167271
 40
0.468007926882469
 40
0.468007926882469
 40
0.468007926882469
 40
0.468007926882469
 10
-11.00588989257995
 20
61.16882324218997
 30
0.0
 10
-11.03256034553238
 20
61.1404196164872
 30
0.0
 10
-11.08617976865476
 20
61.08331574849204
 30
0.0
 10
-11.14901044761088
 20
60.98390709413033
 30
0.0
 10
-11.19657777864916
 20
60.87541989068823
 30
0.0
 10
-11.20532074157119
 20
60.79765110389081
 30
0.0
 10
-11.20968627929995
 20
60.75881958007997
 30
0.0
 11
-11.00588989257995
 21
61.16882324218997
 31
0.0
 11
-11.08300781249995
 21
61.08132934570997
 31
0.0
 11
-11.14660644530995
 21
60.98211669921997
 31
0.0
 11
-11.19088745116995
 21
60.87390136718997
 31
0.0
 11
-11.20968627929995
 21
60.75881958007997
 31
0.0
  0
SPLINE
  5
7B7F
330
1F
100
AcDbEntity
  8
AM_0
  6
CONTINUOUS
 48
0.5
100
AcDbSpline
210
0.0
220
0.0
230
1.0
 70
     8
 71
     3
 72
    11
 73
     7
 74
     5
 42
0.0000000001
 43
0.0000000001
 44
0.0000000001
 40
0.0
 40
0.0
 40
0.0
 40
0.0
 40
1.293764048419155
 40
2.592160824449166
 40
3.895490093484788
 40
5.203750744210527
 40
5.203750744210527
 40
5.203750744210527
 40
5.203750744210527
 10
-12.37969970702995
 20
56.23422241210997
 30
0.0
 10
-12.39905735618139
 20
55.80339678458689
 30
0.0
 10
-12.43784197061329
 20
54.94020282337069
 30
0.0
 10
-12.47644027837013
 20
53.64223994822154
 30
0.0
 10
-12.50185094139013
 20
52.33912046172935
 30
0.0
 10
-12.50588381057073
 20
51.46858890001515
 30
0.0
 10
-12.50790405272995
 20
51.03250122070997
 30
0.0
 11
-12.37969970702995
 21
56.23422241210997
 31
0.0
 11
-12.43450927733995
 21
54.94161987304997
 31
0.0
 11
-12.47418212890996
 21
53.64382934570997
 31
0.0
 11
-12.49859619140996
 21
52.34072875976997
 31
0.0
 11
-12.50790405272995
 21
51.03250122070997
 31
0.0
  0
SPLINE
  5
7B80
330
1F
100
AcDbEntity
  8
AM_0
  6
CONTINUOUS
 48
0.5
100
AcDbSpline
210
0.0
220
0.0
230
1.0
 70
     8
 71
     3
 72
    11
 73
     7
 74
     5
 42
0.0000000001
 43
0.0000000001
 44
0.0000000001
 40
0.0
 40
0.0
 40
0.0
 40
0.0
 40
0.4945410521492148
 40
0.920424264183069
 40
1.34465241949608
 40
1.834616501493803
 40
1.834616501493803
 40
1.834616501493803
 40
1.834616501493803
 10
-10.98208618163995
 20
52.56091308593997
 30
0.0
 10
-10.95971588868757
 20
52.39608665276219
 30
0.0
 10
-10.91808100248191
 20
52.08931687537713
 30
0.0
 10
-10.67364792002477
 20
51.69614902961003
 30
0.0
 10
-10.28835087629167
 20
51.44164696656005
 30
0.0
 10
-9.984403953780349
 20
51.39430179122541
 30
0.0
 10
-9.821502685549958
 20
51.36892700195997
 30
0.0
 11
-10.98208618163995
 21
52.56091308593997
 31
0.0
 11
-10.87869262694995
 21
52.07730102538997
 31
0.0
 11
-10.65078735351995
 21
51.71752929687997
 31
0.0
 11
-10.29840087890995
 21
51.48132324218997
 31
0.0
 11
-9.821502685549958
 21
51.36892700195997
 31
0.0
  0
SPLINE
  5
7B81
330
1F
100
AcDbEntity
  8
AM_0
  6
CONTINUOUS
 48
0.5
100
AcDbSpline
210
0.0
220
0.0
230
1.0
 70
     8
 71
     3
 72
    11
 73
     7
 74
     5
 42
0.0000000001
 43
0.0000000001
 44
0.0000000001
 40
0.0
 40
0.0
 40
0.0
 40
0.0
 40
1.293164391134196
 40
2.57896190466383
 40
3.857430026685914
 40
5.12857851489808
 40
5.12857851489808
 40
5.12857851489808
 40
5.12857851489808
 10
-0.9685974121099576
 20
62.35092163085997
 30
0.0
 10
-1.399620928685853
 20
62.35642855695171
 30
0.0
 10
-2.259212514167517
 20
62.3674110373693
 30
0.0
 10
-3.545049802688931
 20
62.36761624671911
 30
0.0
 10
-4.823502891174459
 20
62.35655335505599
 30
0.0
 10
-5.673181910040695
 20
62.33805134889522
 30
0.0
 10
-6.096801757809956
 20
62.32882690429997
 30
0.0
 11
-0.9685974121099576
 21
62.35092163085997
 31
0.0
 11
-2.261688232419956
 21
62.36471557617997
 31
0.0
 11
-3.547485351559956
 21
62.36572265624997
 31
0.0
 11
-4.825897216799958
 21
62.35372924804997
 31
0.0
 11
-6.096801757809956
 21
62.32882690429997
 31
0.0
  0
SPLINE
  5
7B82
330
1F
100
AcDbEntity
  8
AM_0
  6
CONTINUOUS
 48
0.5
100
AcDbSpline
210
0.0
220
0.0
230
1.0
 70
     8
 71
     3
 72
    11
 73
     7
 74
     5
 42
0.0000000001
 43
0.0000000001
 44
0.0000000001
 40
0.0
 40
0.0
 40
0.0
 40
0.0
 40
1.271798375129988
 40
2.559335734026418
 40
3.837273321406595
 40
5.131140884082459
 40
5.131140884082459
 40
5.131140884082459
 40
5.131140884082459
 10
-6.094207763669956
 20
62.47790527343997
 30
0.0
 10
-5.670357793120063
 20
62.48772328290129
 30
0.0
 10
-4.817412549041174
 20
62.50748080338778
 30
0.0
 10
-3.538228072201081
 20
62.49241694555466
 30
0.0
 10
-2.251901942013174
 20
62.52277893782656
 30
0.0
 10
-1.394676837787934
 20
62.50762426903573
 30
0.0
 10
-0.9634094238299582
 20
62.49999999999997
 30
0.0
 11
-6.094207763669956
 21
62.47790527343997
 31
0.0
 11
-4.822601318359957
 21
62.49999950864619
 31
0.0
 11
-3.535063959463528
 21
62.49999950864619
 31
0.0
 11
-2.257202148439958
 21
62.51391601562997
 31
0.0
 11
-0.9634094238299582
 21
62.49999999999997
 31
0.0
  0
SPLINE
  5
7B83
330
1F
100
AcDbEntity
  8
AM_0
  6
CONTINUOUS
 48
0.5
100
AcDbSpline
210
0.0
220
0.0
230
1.0
 70
     8
 71
     3
 72
    11
 73
     7
 74
     5
 42
0.0000000001
 43
0.0000000001
 44
0.0000000001
 40
0.0
 40
0.0
 40
0.0
 40
0.0
 40
0.1111634567620932
 40
0.222661724434734
 40
0.3375734107803706
 40
0.4588895779404938
 40
0.4588895779404938
 40
0.4588895779404938
 40
0.4588895779404938
 10
-11.17880249022995
 20
51.31362915038997
 30
0.0
 10
-11.20342698373187
 20
51.34145123465874
 30
0.0
 10
-11.25275013673711
 20
51.39717919995503
 30
0.0
 10
-11.30753867139902
 20
51.49632773076719
 30
0.0
 10
-11.34826788515195
 20
51.6054513197775
 30
0.0
 10
-11.36143336995447
 20
51.68325106278921
 30
0.0
 10
-11.36819458007995
 20
51.72320556640997
 30
0.0
 11
-11.17880249022995
 21
51.31362915038997
 31
0.0
 11
-11.24938964843995
 21
51.39950561523997
 31
0.0
 11
-11.30450439452995
 21
51.49642944335997
 31
0.0
 11
-11.34408569335995
 21
51.60430908203998
 31
0.0
 11
-11.36819458007995
 21
51.72320556640997
 31
0.0
  0
SPLINE
  5
7B84
330
1F
100
AcDbEntity
  8
AM_0
  6
CONTINUOUS
 48
0.5
100
AcDbSpline
210
0.0
220
0.0
230
1.0
 70
     8
 71
     3
 72
    11
 73
     7
 74
     5
 42
0.0000000001
 43
0.0000000001
 44
0.0000000001
 40
0.0
 40
0.0
 40
0.0
 40
0.0
 40
0.116241567249235
 40
0.2314682479428169
 40
0.3470937495877473
 40
0.4618174561882224
 40
0.4618174561882224
 40
0.4618174561882224
 40
0.4618174561882224
 10
-11.36819458007995
 20
51.72320556640997
 30
0.0
 10
-11.365206826462
 20
51.68436157903546
 30
0.0
 10
-11.35925740482567
 20
51.60701274493536
 30
0.0
 10
-11.31562548372087
 20
51.4983781671135
 30
0.0
 10
-11.25603730892023
 20
51.39921353908855
 30
0.0
 10
-11.20448014934939
 20
51.34208272607272
 30
0.0
 10
-11.17880249022995
 20
51.31362915038997
 30
0.0
 11
-11.36819458007995
 21
51.72320556640997
 31
0.0
 11
-11.35339355468995
 21
51.60791015624997
 31
0.0
 11
-11.31298828124995
 21
51.49999999999997
 31
0.0
 11
-11.25289916991995
 21
51.40121459960997
 31
0.0
 11
-11.17880249022995
 21
51.31362915038997
 31
0.0
  0
SPLINE
  5
7B85
330
1F
100
AcDbEntity
  8
AM_0
  6
CONTINUOUS
 48
0.5
100
AcDbSpline
210
0.0
220
0.0
230
1.0
 70
     8
 71
     3
 72
    11
 73
     7
 74
     5
 42
0.0000000001
 43
0.0000000001
 44
0.0000000001
 40
0.0
 40
0.0
 40
0.0
 40
0.0
 40
0.0476060524741556
 40
0.0948844002184015
 40
0.1419548140214564
 40
0.1890157297108684
 40
0.1890157297108684
 40
0.1890157297108684
 40
0.1890157297108684
 10
-11.17880249022995
 20
51.31362915038997
 30
0.0
 10
-11.16761681425677
 20
51.30236524431548
 30
0.0
 10
-11.14532246090057
 20
51.27991496926746
 30
0.0
 10
-11.10935592748994
 20
51.24910016439206
 30
0.0
 10
-11.07176995501377
 20
51.22058315432343
 30
0.0
 10
-11.04532542368891
 20
51.2036744475759
 30
0.0
 10
-11.03210449218995
 20
51.19522094726997
 30
0.0
 11
-11.17880249022995
 21
51.31362915038997
 31
0.0
 11
-11.14480590819995
 21
51.28030395507997
 31
0.0
 11
-11.10900878905995
 21
51.24942016601997
 31
0.0
 11
-11.07141113280995
 21
51.22109985351997
 31
0.0
 11
-11.03210449218995
 21
51.19522094726997
 31
0.0
  0
SPLINE
  5
7B86
330
1F
100
AcDbEntity
  8
AM_0
  6
CONTINUOUS
 48
0.5
100
AcDbSpline
210
0.0
220
0.0
230
1.0
 70
     8
 71
     3
 72
    11
 73
     7
 74
     5
 42
0.0000000001
 43
0.0000000001
 44
0.0000000001
 40
0.0
 40
0.0
 40
0.0
 40
0.0
 40
0.0685907535316376
 40
0.1357309304580592
 40
0.2026455693801324
 40
0.2708054716619772
 40
0.2708054716619772
 40
0.2708054716619772
 40
0.2708054716619772
 10
-11.03210449218995
 20
51.19522094726997
 30
0.0
 10
-11.01235157071633
 20
51.18363600904789
 30
0.0
 10
-10.97326346812473
 20
51.16071113414538
 30
0.0
 10
-10.90987222049361
 20
51.13662663486854
 30
0.0
 10
-10.84416007664053
 20
51.1204657037322
 30
0.0
 10
-10.79918440888629
 20
51.11717138026417
 30
0.0
 10
-10.77648925780995
 20
51.11550903320997
 30
0.0
 11
-11.03210449218995
 21
51.19522094726997
 31
0.0
 11
-10.97198486327995
 21
51.16220092773997
 31
0.0
 11
-10.90939331054995
 21
51.13790893554997
 31
0.0
 11
-10.84429931640995
 21
51.12240600585997
 31
0.0
 11
-10.77648925780995
 21
51.11550903320997
 31
0.0
  0
SPLINE
  5
7B87
330
1F
100
AcDbEntity
  8
AM_0
  6
CONTINUOUS
 48
0.5
100
AcDbSpline
210
0.0
220
0.0
230
1.0
 70
     8
 71
     3
 72
    11
 73
     7
 74
     5
 42
0.0000000001
 43
0.0000000001
 44
0.0000000001
 40
0.0
 40
0.0
 40
0.0
 40
0.0
 40
0.4944579053829359
 40
0.9204442433071125
 40
1.344604443189276
 40
1.834596542145024
 40
1.834596542145024
 40
1.834596542145024
 40
1.834596542145024
 10
-1.293182373049958
 20
59.84030151367997
 30
0.0
 10
-1.3155820188904
 20
60.0050860019291
 30
0.0
 10
-1.357279451253192
 20
60.31183594351968
 30
0.0
 10
-1.601568320410028
 20
60.70510490739577
 30
0.0
 10
-1.987011703138035
 20
60.95942411719234
 30
0.0
 10
-2.29090658191919
 20
61.00688092860821
 30
0.0
 10
-2.453796386719957
 20
61.03231811523997
 30
0.0
 11
-1.293182373049958
 21
59.84030151367997
 31
0.0
 11
-1.396606445309956
 21
60.32382202148998
 31
0.0
 11
-1.624511718749957
 21
60.68371582031997
 31
0.0
 11
-1.976898193359957
 21
60.91979980468997
 31
0.0
 11
-2.453796386719957
 21
61.03231811523997
 31
0.0
  0
SPLINE
  5
7B88
330
1F
100
AcDbEntity
  8
AM_0
  6
CONTINUOUS
 48
0.5
100
AcDbSpline
210
0.0
220
0.0
230
1.0
 70
     8
 71
     3
 72
    11
 73
     7
 74
     5
 42
0.0000000001
 43
0.0000000001
 44
0.0000000001
 40
0.0
 40
0.0
 40
0.0
 40
0.0
 40
0.2277335126057062
 40
0.4566465252025659
 40
0.6861299164076948
 40
0.9158683565919004
 40
0.9158683565919004
 40
0.9158683565919004
 40
0.9158683565919004
 10
-11.76858520507995
 20
50.19601440429998
 30
0.0
 10
-11.84442757433449
 20
50.21021284274318
 30
0.0
 10
-11.99650512316313
 20
50.23868325758993
 30
0.0
 10
-12.17714466323632
 20
50.38843758780988
 30
0.0
 10
-12.3221668000965
 20
50.57348894794123
 30
0.0
 10
-12.34757791386673
 20
50.72694186537838
 30
0.0
 10
-12.36029052733995
 20
50.80371093749997
 30
0.0
 11
-11.76858520507995
 21
50.19601440429998
 31
0.0
 11
-11.98818969726995
 21
50.25631713867998
 31
0.0
 11
-12.17098999022995
 21
50.39410400390997
 31
0.0
 11
-12.30429077147995
 21
50.58090209960997
 31
0.0
 11
-12.36029052733995
 21
50.80371093749997
 31
0.0
  0
ELLIPSE
  5
7B89
330
1F
100
AcDbEntity
  8
AM_0
  6
CONTINUOUS
 48
0.5
100
AcDbEllipse
 10
-11.69229125976996
 20
50.86941528320997
 30
0.0
 11
0.5714416469099888
 21
0.6331787036099854
 31
0.0
210
0.0
220
0.0
230
0.9999999999999998
 40
0.9192111985961
 41
2.346715390780831
 42
3.817890167206236
  0
SPLINE
  5
7B8A
330
1F
100
AcDbEntity
  8
AM_0
  6
CONTINUOUS
 48
0.5
100
AcDbSpline
210
0.0
220
0.0
230
1.0
 70
     8
 71
     3
 72
    11
 73
     7
 74
     5
 42
0.0000000001
 43
0.0000000001
 44
0.0000000001
 40
0.0
 40
0.0
 40
0.0
 40
0.0
 40
1.31478966872652
 40
2.625019651385557
 40
3.930652702700534
 40
5.231683594163551
 40
5.231683594163551
 40
5.231683594163551
 40
5.231683594163551
 10
-6.313110351559956
 20
50.00381469726997
 30
0.0
 10
-6.751374303128136
 20
50.00391674385316
 30
0.0
 10
-7.62638230838168
 20
50.00412048312233
 30
0.0
 10
-8.936583931090167
 20
50.01152374547361
 30
0.0
 10
-10.24216430776596
 20
50.02365614730772
 30
0.0
 10
-11.11095685194427
 20
50.03664058252653
 30
0.0
 10
-11.54458618163995
 20
50.04312133788997
 30
0.0
 11
-6.313110351559956
 21
50.00381469726997
 31
0.0
 11
-7.627899169919956
 21
50.00531005859997
 31
0.0
 11
-8.938110351559956
 21
50.01232910156997
 31
0.0
 11
-10.24368286132995
 21
50.02490234374997
 31
0.0
 11
-11.54458618163995
 21
50.04312133788997
 31
0.0
  0
SPLINE
  5
7B8B
330
1F
100
AcDbEntity
  8
AM_0
  6
CONTINUOUS
 48
0.5
100
AcDbSpline
210
0.0
220
0.0
230
1.0
 70
     8
 71
     3
 72
    11
 73
     7
 74
     5
 42
0.0000000001
 43
0.0000000001
 44
0.0000000001
 40
0.0
 40
0.0
 40
0.0
 40
0.0
 40
0.0476719834211699
 40
0.0949702719152742
 40
0.1420223308724418
 40
0.1891000351498625
 40
0.1891000351498625
 40
0.1891000351498625
 40
0.1891000351498625
 10
-1.246887207029956
 20
61.17941284179997
 30
0.0
 10
-1.258122297452222
 20
61.19065724865151
 30
0.0
 10
-1.280504407778293
 20
61.21305791880575
 30
0.0
 10
-1.316428908461432
 20
61.2439540394855
 30
0.0
 10
-1.354062796967892
 20
61.27241982379762
 30
0.0
 10
-1.38049004924554
 20
61.28935243347603
 30
0.0
 10
-1.393707275389957
 20
61.29782104492997
 30
0.0
 11
-1.246887207029956
 21
61.17941284179997
 31
0.0
 11
-1.281005859369955
 21
61.21270751953997
 31
0.0
 11
-1.316802978519959
 21
61.24362182617997
 31
0.0
 11
-1.354400634769959
 21
61.27191162109998
 31
0.0
 11
-1.393707275389957
 21
61.29782104492997
 31
0.0
  0
SPLINE
  5
7B8C
330
1F
100
AcDbEntity
  8
AM_0
  6
CONTINUOUS
 48
0.5
100
AcDbSpline
210
0.0
220
0.0
230
1.0
 70
     8
 71
     3
 72
    11
 73
     7
 74
     5
 42
0.0000000001
 43
0.0000000001
 44
0.0000000001
 40
0.0
 40
0.0
 40
0.0
 40
0.0
 40
0.0684690753323698
 40
0.1356092522587915
 40
0.2025238911785468
 40
0.2705834957640466
 40
0.2705834957640466
 40
0.2705834957640466
 40
0.2705834957640466
 10
-1.393798828119955
 20
61.29782104492997
 30
0.0
 10
-1.413510358380762
 20
61.30939736453837
 30
0.0
 10
-1.452550842958197
 20
61.33232532199043
 30
0.0
 10
-1.515910934982819
 20
61.3563764060154
 30
0.0
 10
-1.581585880254794
 20
61.37256122428409
 30
0.0
 10
-1.626535153802665
 20
61.37578521766867
 30
0.0
 10
-1.649200439449955
 20
61.37741088867997
 30
0.0
 11
-1.393798828119955
 21
61.29782104492997
 31
0.0
 11
-1.453796386719957
 21
61.33081054687997
 31
0.0
 11
-1.516387939449955
 21
61.35510253906997
 31
0.0
 11
-1.581481933589955
 21
61.37060546874997
 31
0.0
 11
-1.649200439449955
 21
61.37741088867997
 31
0.0
  0
SPLINE
  5
7B8D
330
1F
100
AcDbEntity
  8
AM_0
  6
CONTINUOUS
 48
0.5
100
AcDbSpline
210
0.0
220
0.0
230
1.0
 70
     8
 71
     3
 72
    11
 73
     7
 74
     5
 42
0.0000000001
 43
0.0000000001
 44
0.0000000001
 40
0.0
 40
0.0
 40
0.0
 40
0.0
 40
0.1163597476469186
 40
0.2316294557196564
 40
0.3472028159308023
 40
0.4618674126028123
 40
0.4618674126028123
 40
0.4618674126028123
 40
0.4618674126028123
 10
-1.057495117189958
 20
60.76971435546997
 30
0.0
 10
-1.060586281893928
 20
60.80858040370803
 30
0.0
 10
-1.066739653763496
 20
60.8859484092375
 30
0.0
 10
-1.110064581375664
 20
60.99472562461076
 30
0.0
 10
-1.169783024258899
 20
61.09380289903286
 30
0.0
 10
-1.221253531871462
 20
61.15095138375242
 30
0.0
 10
-1.246887207029956
 20
61.17941284179997
 30
0.0
 11
-1.057495117189958
 21
60.76971435546997
 31
0.0
 11
-1.072509765619955
 21
60.88510131835997
 31
0.0
 11
-1.112792968749957
 21
60.99310302734997
 31
0.0
 11
-1.172882080079958
 21
61.09182739257997
 31
0.0
 11
-1.246887207029956
 21
61.17941284179997
 31
0.0
  0
SPLINE
  5
7B8E
330
1F
100
AcDbEntity
  8
AM_0
  6
CONTINUOUS
 48
0.5
100
AcDbSpline
210
0.0
220
0.0
230
1.0
 70
     8
 71
     3
 72
    11
 73
     7
 74
     5
 42
0.0000000001
 43
0.0000000001
 44
0.0000000001
 40
0.0
 40
0.0
 40
0.0
 40
0.0
 40
1.319051222288573
 40
2.635851013523944
 40
3.950681072080578
 40
5.263274463920037
 40
5.263274463920037
 40
5.263274463920037
 40
5.263274463920037
 10
-0.0275878906199552
 20
56.24752807617998
 30
0.0
 10
-0.0235024802027866
 20
56.68719305838845
 30
0.0
 10
-0.0153386325774673
 20
57.56577257780583
 30
0.0
 10
-0.0070499132913
 20
58.88264179090024
 30
0.0
 10
-0.0015376065047139
 20
60.19737295020864
 30
0.0
 10
-0.0005122445456552
 20
61.07318061517059
 30
0.0
 10
0.0000000000000426
 20
61.51071166992998
 30
0.0
 11
-0.0275878906199552
 21
56.24752807617998
 31
0.0
 11
-0.0159912109399585
 21
57.56652832031997
 31
0.0
 11
-0.0075073242199579
 21
58.88330078124997
 31
0.0
 11
-0.0021972656199551
 21
60.19812011718997
 31
0.0
 11
0.0000000000000426
 21
61.51071166992998
 31
0.0
  0
SPLINE
  5
7B8F
330
1F
100
AcDbEntity
  8
AM_0
  6
CONTINUOUS
 48
0.5
100
AcDbSpline
210
0.0
220
0.0
230
1.0
 70
     8
 71
     3
 72
    11
 73
     7
 74
     5
 42
0.0000000001
 43
0.0000000001
 44
0.0000000001
 40
0.0
 40
0.0
 40
0.0
 40
0.0
 40
1.271216692845246
 40
2.550245907164884
 40
3.837050478757737
 40
5.131624324462331
 40
5.131624324462331
 40
5.131624324462331
 40
5.131624324462331
 10
-6.313110351559956
 20
50.00381469726997
 30
0.0
 10
-5.889371894561165
 20
50.00482372880179
 30
0.0
 10
-5.039290809446684
 20
50.0068479930745
 30
0.0
 10
-3.760309551442795
 20
50.01706522057954
 30
0.0
 10
-2.473589235321083
 20
50.03205376885283
 30
0.0
 10
-1.613255014054993
 20
50.04682293006634
 30
0.0
 10
-1.181793212889957
 20
50.05422973632997
 30
0.0
 11
-6.313110351559956
 21
50.00381469726997
 31
0.0
 11
-5.041900634769959
 21
50.00802612304998
 31
0.0
 11
-3.762908935549958
 21
50.01782226562998
 31
0.0
 11
-2.476196289059956
 21
50.03320312499997
 31
0.0
 11
-1.181793212889957
 21
50.05422973632997
 31
0.0
  0
SPLINE
  5
7B90
330
1F
100
AcDbEntity
  8
AM_0
  6
CONTINUOUS
 48
0.5
100
AcDbSpline
210
0.0
220
0.0
230
1.0
 70
     8
 71
     3
 72
    11
 73
     7
 74
     5
 42
0.0000000001
 43
0.0000000001
 44
0.0000000001
 40
0.0
 40
0.0
 40
0.0
 40
0.0
 40
0.2278512278697912
 40
0.456611653028274
 40
0.686169573763212
 40
0.9159080139571202
 40
0.9159080139571202
 40
0.9159080139571202
 40
0.9159080139571202
 10
-0.7394104003899571
 20
62.34710693359997
 30
0.0
 10
-0.6635246917848149
 20
62.33291696863555
 30
0.0
 10
-0.5114504669874948
 20
62.30448041633168
 30
0.0
 10
-0.3307828967814892
 20
62.15473031227155
 30
0.0
 10
-0.1858512411427844
 20
61.96964478157112
 30
0.0
 10
-0.1604237970844651
 20
61.81617530039993
 30
0.0
 10
-0.1477050781199551
 20
61.73941040038997
 30
0.0
 11
-0.7394104003899571
 21
62.34710693359997
 31
0.0
 11
-0.5196838378899571
 21
62.28680419921997
 31
0.0
 11
-0.3370056152299554
 21
62.14910888671997
 31
0.0
 11
-0.2037048339799554
 21
61.96221923828997
 31
0.0
 11
-0.1477050781199551
 21
61.73941040038997
 31
0.0
  0
ELLIPSE
  5
7B91
330
1F
100
AcDbEntity
  8
AM_0
  6
CONTINUOUS
 48
0.5
100
AcDbEllipse
 10
-0.815582275389957
 20
61.67370605468997
 30
0.0
 11
0.5714416468999844
 21
0.6331787036099854
 31
0.0
210
0.0
220
0.0
230
1.0
 40
0.9192111985961
 41
5.488300790266648
 42
6.959475179307912
  0
SPLINE
  5
7B92
330
1F
100
AcDbEntity
  8
AM_0
  6
CONTINUOUS
 48
0.5
100
AcDbSpline
210
0.0
220
0.0
230
1.0
 70
     8
 71
     3
 72
    11
 73
     7
 74
     5
 42
0.0000000001
 43
0.0000000001
 44
0.0000000001
 40
0.0
 40
0.0
 40
0.0
 40
0.0
 40
0.494107321605365
 40
0.9256402607567419
 40
1.358957564346443
 40
1.857396473337371
 40
1.857396473337371
 40
1.857396473337371
 40
1.857396473337371
 10
-2.623291015619955
 20
51.37661743163997
 30
0.0
 10
-2.459129762593408
 20
51.40259761309952
 30
0.0
 10
-2.151596847347498
 20
51.45126781264763
 30
0.0
 10
-1.759803673686418
 20
51.70591028017934
 30
0.0
 10
-1.502188502055438
 20
52.09713747825844
 30
0.0
 10
-1.449169283662159
 20
52.40592266988098
 30
0.0
 10
-1.420806884769959
 20
52.57110595703998
 30
0.0
 11
-2.623291015619955
 21
51.37661743163997
 31
0.0
 11
-2.142395019529956
 21
51.49011230468997
 31
0.0
 11
-1.781707763669956
 21
51.72702026367997
 31
0.0
 11
-1.541107177729955
 21
52.08740234374997
 31
0.0
 11
-1.420806884769959
 21
52.57110595703998
 31
0.0
  0
SPLINE
  5
7B93
330
1F
100
AcDbEntity
  8
AM_0
  6
CONTINUOUS
 48
0.5
100
AcDbSpline
210
0.0
220
0.0
230
1.0
 70
     8
 71
     3
 72
    11
 73
     7
 74
     5
 42
0.0000000001
 43
0.0000000001
 44
0.0000000001
 40
0.0
 40
0.0
 40
0.0
 40
0.0
 40
1.293055165931382
 40
2.591414527039193
 40
3.895150879892812
 40
5.204172192223971
 40
5.204172192223971
 40
5.204172192223971
 40
5.204172192223971
 10
-0.0275878906199552
 20
56.24752807617998
 30
0.0
 10
-0.0387796435761697
 20
55.81665481169501
 30
0.0
 10
-0.0612090587766245
 20
54.95314081297486
 30
0.0
 10
-0.0987558978543989
 20
53.65529851905098
 30
0.0
 10
-0.139342787395902
 20
52.35222326925932
 30
0.0
 10
-0.1688845457399699
 20
51.48180485782789
 30
0.0
 10
-0.1836853027299554
 20
51.04571533203998
 30
0.0
 11
-0.0275878906199552
 21
56.24752807617998
 31
0.0
 11
-0.061798095699956
 21
54.95492553710997
 31
0.0
 11
-0.0991821289099591
 21
53.65710449218997
 31
0.0
 11
-0.1398925781199551
 21
52.35400390624997
 31
0.0
 11
-0.1836853027299554
 21
51.04571533203998
 31
0.0
  0
SPLINE
  5
7B94
330
1F
100
AcDbEntity
  8
AM_0
  6
CONTINUOUS
 48
0.5
100
AcDbSpline
210
0.0
220
0.0
230
1.0
 70
     8
 71
     3
 72
    11
 73
     7
 74
     5
 42
0.0000000001
 43
0.0000000001
 44
0.0000000001
 40
0.0
 40
0.0
 40
0.0
 40
0.0
 40
0.1166776693056477
 40
0.2345247537705004
 40
0.3513980179900764
 40
0.467929560885135
 40
0.467929560885135
 40
0.467929560885135
 40
0.467929560885135
 10
-1.419891357419956
 20
51.32412719726997
 30
0.0
 10
-1.393237940415621
 20
51.35256640885009
 30
0.0
 10
-1.339663969515418
 20
51.40972986723031
 30
0.0
 10
-1.276782928690972
 20
51.50910861514219
 30
0.0
 10
-1.229343118646057
 20
51.6175958252165
 30
0.0
 10
-1.220506707636168
 20
51.69530342609991
 30
0.0
 10
-1.216094970699955
 20
51.73410034179998
 30
0.0
 11
-1.419891357419956
 21
51.32412719726997
 31
0.0
 11
-1.342803955079958
 21
51.41171264648997
 31
0.0
 11
-1.279205322269959
 21
51.51092529296997
 31
0.0
 11
-1.234985351559956
 21
51.61911010742997
 31
0.0
 11
-1.216094970699955
 21
51.73410034179998
 31
0.0
  0
SPLINE
  5
7B95
330
1F
100
AcDbEntity
  8
AM_0
  6
CONTINUOUS
 48
0.5
100
AcDbSpline
210
0.0
220
0.0
230
1.0
 70
     8
 71
     3
 72
    11
 73
     7
 74
     5
 42
0.0000000001
 43
0.0000000001
 44
0.0000000001
 40
0.0
 40
0.0
 40
0.0
 40
0.0
 40
0.1157883727059974
 40
0.2316726021815644
 40
0.348672336207972
 40
0.4653681232784147
 40
0.4653681232784147
 40
0.4653681232784147
 40
0.4653681232784147
 10
-1.829193115229955
 20
51.12521362304997
 30
0.0
 10
-1.790579481495557
 20
51.12904199021899
 30
0.0
 10
-1.713320247274793
 20
51.13670189391596
 30
0.0
 10
-1.605110668129142
 20
51.18273467667824
 30
0.0
 10
-1.505941873353833
 20
51.2447933749227
 30
0.0
 10
-1.448549981223281
 20
51.2977055291968
 30
0.0
 10
-1.419891357419956
 20
51.32412719726997
 30
0.0
 11
-1.829193115229955
 21
51.12521362304997
 31
0.0
 11
-1.714691162109957
 21
51.14242553710997
 31
0.0
 11
-1.606994628909959
 21
51.18521118163997
 31
0.0
 11
-1.508087158199955
 21
51.24771118163997
 31
0.0
 11
-1.419891357419956
 21
51.32412719726997
 31
0.0
  0
SPLINE
  5
7B96
330
1F
100
AcDbEntity
  8
AM_0
  6
CONTINUOUS
 48
0.5
100
AcDbSpline
210
0.0
220
0.0
230
1.0
 70
     8
 71
     3
 72
    11
 73
     7
 74
     5
 42
0.0000000001
 43
0.0000000001
 44
0.0000000001
 40
0.0
 40
0.0
 40
0.0
 40
0.0
 40
0.2318546702925989
 40
0.4655464237367814
 40
0.6985022819022637
 40
0.9283956541692576
 40
0.9283956541692576
 40
0.9283956541692576
 40
0.9283956541692576
 10
-0.3393859863299582
 20
50.81661987304997
 30
0.0
 10
-0.3549038544853396
 20
50.73970350768194
 30
0.0
 10
-0.3860625454646487
 20
50.58526133587347
 30
0.0
 10
-0.5372141248983946
 20
50.40101600499809
 30
0.0
 10
-0.7219704721642834
 20
50.25122975544899
 30
0.0
 10
-0.8759247605256721
 20
50.22208636447142
 30
0.0
 10
-0.9523925781199551
 20
50.20761108398997
 30
0.0
 11
-0.3393859863299582
 21
50.81661987304997
 31
0.0
 11
-0.4031982421899585
 21
50.59371948242997
 31
0.0
 11
-0.5430908203099563
 21
50.40652465820997
 31
0.0
 11
-0.7306823730499588
 21
50.26840209960997
 31
0.0
 11
-0.9523925781199551
 21
50.20761108398997
 31
0.0
  0
ELLIPSE
  5
7B97
330
1F
100
AcDbEntity
  8
AM_0
  6
CONTINUOUS
 48
0.5
100
AcDbEllipse
 10
-1.005004882809956
 20
50.88092041015997
 30
0.0
 11
-0.5205993684600117
 21
0.6557617228099844
 31
0.0
210
0.0
220
0.0
230
1.0
 40
0.9537956027345
 41
2.512058668530255
 42
3.984086540768415
  0
ELLIPSE
  5
7B98
330
1F
100
AcDbEntity
  8
AM_0
  6
CONTINUOUS
 48
0.5
100
AcDbEllipse
 10
-13.74209594726996
 20
52.99752807617998
 30
0.0
 11
0.0010070694499973
 21
5.174407860980011
 31
0.0
210
0.0
220
0.0
230
1.0
 40
0.168676830527
 41
4.275964000445484
 42
4.376478989764152
  0
ELLIPSE
  5
7B99
330
1F
100
AcDbEntity
  8
AM_0
  6
CONTINUOUS
 48
0.5
100
AcDbEllipse
 10
-9.367401123049958
 20
51.81271362304997
 30
0.0
 11
-19.04098475529997
 21
0.0036618931300154
 31
0.0
210
0.0
220
0.0
230
1.0
 40
0.027839438403
 41
1.383238315670722
 42
1.405256415112367
  0
ELLIPSE
  5
7B9A
330
1F
100
AcDbEntity
  8
AM_0
  6
CONTINUOUS
 48
0.5
100
AcDbEllipse
 10
-6.137603759769959
 20
56.20062255859997
 30
0.0
 11
1.645233162160025
 21
2.69616695704002
 31
0.0
210
0.0
220
0.0
230
1.0
 40
0.9791076186809998
 41
5.848580804279882
 42
9.859451593787555
  0
ELLIPSE
  5
7B9B
330
1F
100
AcDbEntity
  8
AM_0
  6
CONTINUOUS
 48
0.5
100
AcDbEllipse
 10
-6.137603759769959
 20
56.20062255859997
 30
0.0
 11
1.645233162160025
 21
2.69616695704002
 31
0.0
210
0.0
220
0.0
230
1.0
 40
0.9791076186809998
 41
3.576266351061386
 42
5.84859554926446
  0
SPLINE
  5
7B9C
330
1F
100
AcDbEntity
  8
AM_0
  6
CONTINUOUS
 48
0.5
100
AcDbSpline
210
0.0
220
0.0
230
1.0
 70
     8
 71
     3
 72
    11
 73
     7
 74
     5
 42
0.0000000001
 43
0.0000000001
 44
0.0000000001
 40
0.0
 40
0.0
 40
0.0
 40
0.0
 40
0.4940863002682061
 40
0.9256695078833033
 40
1.358910671731817
 40
1.85743842737167
 40
1.85743842737167
 40
1.85743842737167
 40
1.85743842737167
 10
-9.652008056639957
 20
61.02450561523998
 30
0.0
 10
-9.816177743091266
 20
60.99857229849833
 30
0.0
 10
-10.12374926001907
 20
60.94998629129069
 30
0.0
 10
-10.51543398445117
 20
60.69520438951771
 30
0.0
 10
-10.77315874249922
 20
60.30404792206713
 30
0.0
 10
-10.82614353753121
 20
59.99523982370561
 30
0.0
 10
-10.85449218749995
 20
59.83001708984997
 30
0.0
 11
-9.652008056639957
 21
61.02450561523998
 31
0.0
 11
-10.13290405272995
 21
60.91110229492997
 31
0.0
 11
-10.49359130858995
 21
60.67410278320997
 31
0.0
 11
-10.73419189452995
 21
60.31381225585997
 31
0.0
 11
-10.85449218749995
 21
59.83001708984997
 31
0.0
  0
SPLINE
  5
7B9D
330
1F
100
AcDbEntity
  8
AM_0
  6
CONTINUOUS
 48
0.5
100
AcDbSpline
210
0.0
220
0.0
230
1.0
 70
     8
 71
     3
 72
    11
 73
     7
 74
     5
 42
0.0000000001
 43
0.0000000001
 44
0.0000000001
 40
0.0
 40
0.0
 40
0.0
 40
0.0
 40
1.312524410713453
 40
2.626787439298686
 40
3.94302559700469
 40
5.261354676255537
 40
5.261354676255537
 40
5.261354676255537
 40
5.261354676255537
 10
-12.17660522460995
 20
61.49502563476997
 30
0.0
 10
-12.18991711076681
 20
61.05771452883288
 30
0.0
 10
-12.21655851649214
 20
60.1825130386625
 30
0.0
 10
-12.2369883184325
 20
58.86829171539041
 30
0.0
 10
-12.24436333568483
 20
57.55199718782372
 30
0.0
 10
-12.2361807310268
 20
56.67383505848113
 30
0.0
 10
-12.23208618163995
 20
56.23440551757997
 30
0.0
 11
-12.17660522460995
 21
61.49502563476997
 31
0.0
 11
-12.21328735351995
 21
60.18301391601998
 31
0.0
 11
-12.23480224608995
 21
58.86892700195997
 31
0.0
 11
-12.24108886718995
 21
57.55270385742997
 31
0.0
 11
-12.23208618163995
 21
56.23440551757997
 31
0.0
  0
SPLINE
  5
7B9E
330
1F
100
AcDbEntity
  8
AM_0
  6
CONTINUOUS
 48
0.5
100
AcDbSpline
210
0.0
220
0.0
230
1.0
 70
     8
 71
     3
 72
    11
 73
     7
 74
     5
 42
0.0000000001
 43
0.0000000001
 44
0.0000000001
 40
0.0
 40
0.0
 40
0.0
 40
0.0
 40
1.319030967183292
 40
2.635849098316108
 40
3.950811945597035
 40
5.263915963898524
 40
5.263915963898524
 40
5.263915963898524
 40
5.263915963898524
 10
-12.37969970702995
 20
56.23422241210997
 30
0.0
 10
-12.38380151121689
 20
56.67388599986384
 30
0.0
 10
-12.39199823831169
 20
57.55247558583707
 30
0.0
 10
-12.38451580648042
 20
58.86942950826683
 30
0.0
 10
-12.36430933667667
 20
60.18427418355187
 30
0.0
 10
-12.33763702561283
 20
61.05990184193672
 30
0.0
 10
-12.32431030272995
 20
61.49740600585997
 30
0.0
 11
-12.37969970702995
 21
56.23422241210997
 31
0.0
 11
-12.38870239257995
 21
57.55322265624997
 31
0.0
 11
-12.38238525390995
 21
58.87002563476997
 31
0.0
 11
-12.36099243163995
 21
60.18481445312997
 31
0.0
 11
-12.32431030272995
 21
61.49740600585997
 31
0.0
  0
SPLINE
  5
7B9F
330
1F
100
AcDbEntity
  8
AM_0
  6
CONTINUOUS
 48
0.5
100
AcDbSpline
210
0.0
220
0.0
230
1.0
 70
     8
 71
     3
 72
    11
 73
     7
 74
     5
 42
0.0000000001
 43
0.0000000001
 44
0.0000000001
 40
0.0
 40
0.0
 40
0.0
 40
0.0
 40
1.31453898695328
 40
2.624894474020448
 40
3.925171212994639
 40
5.232347547938887
 40
5.232347547938887
 40
5.232347547938887
 40
5.232347547938887
 10
-6.094207763669956
 20
62.47790527343997
 30
0.0
 10
-6.532317989909728
 20
62.48970647151996
 30
0.0
 10
-7.407144163406471
 20
62.51327131055053
 30
0.0
 10
-8.71546210211401
 20
62.46915314769967
 30
0.0
 10
-10.02126363029972
 20
62.51048441054857
 30
0.0
 10
-10.89039516540921
 20
62.49612221756887
 30
0.0
 10
-11.32611083983995
 20
62.48892211913997
 30
0.0
 11
-6.094207763669956
 21
62.47790527343997
 31
0.0
 11
-7.408561062060769
 21
62.49999950864619
 31
0.0
 11
-8.718811035159959
 21
62.48337090435703
 31
0.0
 11
-10.01898144223618
 21
62.49999950864619
 31
0.0
 11
-11.32611083983995
 21
62.48892211913997
 31
0.0
  0
SPLINE
  5
7BA0
330
1F
100
AcDbEntity
  8
AM_0
  6
CONTINUOUS
 48
0.5
100
AcDbSpline
210
0.0
220
0.0
230
1.0
 70
     8
 71
     3
 72
    11
 73
     7
 74
     5
 42
0.0000000001
 43
0.0000000001
 44
0.0000000001
 40
0.0
 40
0.0
 40
0.0
 40
0.0
 40
0.2319972302335557
 40
0.4656339287883602
 40
0.6986259806642057
 40
0.928465726237577
 40
0.928465726237577
 40
0.928465726237577
 40
0.928465726237577
 10
-12.16860961913995
 20
61.72650146484997
 30
0.0
 10
-12.15307062427784
 20
61.80346696047436
 30
0.0
 10
-12.12188282423478
 20
61.95794184826787
 30
0.0
 10
-11.97060800236039
 20
62.14212173009646
 30
0.0
 10
-11.78594908301149
 20
62.29200790102956
 30
0.0
 10
-11.63197444153715
 20
62.32107546180888
 30
0.0
 10
-11.55551147460995
 20
62.33551025390998
 30
0.0
 11
-12.16860961913995
 21
61.72650146484997
 31
0.0
 11
-12.10470581054996
 21
61.94952392578997
 31
0.0
 11
-11.96478271483995
 21
62.13662719726997
 31
0.0
 11
-11.77719116210995
 21
62.27481079101997
 31
0.0
 11
-11.55551147460995
 21
62.33551025390998
 31
0.0
  0
ELLIPSE
  5
7BA1
330
1F
100
AcDbEntity
  8
AM_0
  6
CONTINUOUS
 48
0.5
100
AcDbEllipse
 10
-11.50289916991995
 20
61.66220092773997
 30
0.0
 11
-0.5205993684600117
 21
0.6557617228099844
 31
0.0
210
0.0
220
0.0
230
1.0
 40
0.9537956027345
 41
5.653643847883563
 42
7.125691926890482
  0
SPLINE
  5
7BA2
330
1F
100
AcDbEntity
  8
AM_0
  6
CONTINUOUS
 48
0.5
100
AcDbSpline
210
0.0
220
0.0
230
1.0
 70
     8
 71
     3
 72
    11
 73
     7
 74
     5
 42
0.0000000001
 43
0.0000000001
 44
0.0000000001
 40
0.0
 40
0.0
 40
0.0
 40
0.0
 40
0.1130464438732793
 40
0.2257928505037024
 40
0.3414149127616977
 40
0.4625682104561186
 40
0.4625682104561186
 40
0.4625682104561186
 40
0.4625682104561186
 10
-11.00588989257995
 20
61.16882324218997
 30
0.0
 10
-10.9778987644189
 20
61.19419136433208
 30
0.0
 10
-10.92199079951749
 20
61.2448602789316
 30
0.0
 10
-10.82284459952517
 20
61.30218495157977
 30
0.0
 10
-10.71399802275486
 20
61.34531551911381
 30
0.0
 10
-10.6363295603513
 20
61.36020811867134
 30
0.0
 10
-10.59658813476995
 20
61.36782836913997
 30
0.0
 11
-11.00588989257995
 21
61.16882324218997
 31
0.0
 11
-10.91949462890996
 21
61.24172973632997
 31
0.0
 11
-10.82250976561995
 21
61.29922485351997
 31
0.0
 11
-10.71478271483995
 21
61.34121704101997
 31
0.0
 11
-10.59658813476995
 21
61.36782836913997
 31
0.0
  0
SPLINE
  5
7BA3
330
1F
100
AcDbEntity
  8
AM_0
  6
CONTINUOUS
 48
0.5
100
AcDbSpline
210
0.0
220
0.0
230
1.0
 70
     8
 71
     3
 72
    11
 73
     7
 74
     5
 42
0.0000000001
 43
0.0000000001
 44
0.0000000001
 40
0.0
 40
0.0
 40
0.0
 40
0.0
 40
0.1157883727059974
 40
0.2316388312164024
 40
0.3487038193785918
 40
0.4654395832696633
 40
0.4654395832696633
 40
0.4654395832696633
 40
0.4654395832696633
 10
-10.59658813476995
 20
61.36782836913997
 30
0.0
 10
-10.63519690929786
 20
61.36398908660457
 30
0.0
 10
-10.71243516040489
 20
61.35630846290787
 30
0.0
 10
-10.82072887888426
 20
61.31044096818897
 30
0.0
 10
-10.91982012924566
 20
61.24819685442115
 30
0.0
 10
-10.97722691707315
 20
61.19525626367317
 30
0.0
 10
-11.00588989257995
 20
61.16882324218997
 30
0.0
 11
-10.59658813476995
 21
61.36782836913997
 31
0.0
 11
-10.71109008788995
 21
61.35061645507997
 31
0.0
 11
-10.81878662108995
 21
61.30792236328997
 31
0.0
 11
-10.91769409179995
 21
61.24530029296997
 31
0.0
 11
-11.00588989257995
 21
61.16882324218997
 31
0.0
  0
SPLINE
  5
7BA4
330
1F
100
AcDbEntity
  8
AM_0
  6
CONTINUOUS
 48
0.5
100
AcDbSpline
210
0.0
220
0.0
230
1.0
 70
     8
 71
     3
 72
    11
 73
     7
 74
     5
 42
0.0000000001
 43
0.0000000001
 44
0.0000000001
 40
0.0
 40
0.0
 40
0.0
 40
0.0
 40
0.1166291365570371
 40
0.2344762210303124
 40
0.3514008359167271
 40
0.468007926882469
 40
0.468007926882469
 40
0.468007926882469
 40
0.468007926882469
 10
-11.00588989257995
 20
61.16882324218997
 30
0.0
 10
-11.03256034553238
 20
61.1404196164872
 30
0.0
 10
-11.08617976865476
 20
61.08331574849204
 30
0.0
 10
-11.14901044761088
 20
60.98390709413033
 30
0.0
 10
-11.19657777864916
 20
60.87541989068823
 30
0.0
 10
-11.20532074157119
 20
60.79765110389081
 30
0.0
 10
-11.20968627929995
 20
60.75881958007997
 30
0.0
 11
-11.00588989257995
 21
61.16882324218997
 31
0.0
 11
-11.08300781249995
 21
61.08132934570997
 31
0.0
 11
-11.14660644530995
 21
60.98211669921997
 31
0.0
 11
-11.19088745116995
 21
60.87390136718997
 31
0.0
 11
-11.20968627929995
 21
60.75881958007997
 31
0.0
  0
SPLINE
  5
7BA5
330
1F
100
AcDbEntity
  8
AM_0
  6
CONTINUOUS
 48
0.5
100
AcDbSpline
210
0.0
220
0.0
230
1.0
 70
     8
 71
     3
 72
    11
 73
     7
 74
     5
 42
0.0000000001
 43
0.0000000001
 44
0.0000000001
 40
0.0
 40
0.0
 40
0.0
 40
0.0
 40
1.293764048419155
 40
2.592160824449166
 40
3.895490093484788
 40
5.203750744210527
 40
5.203750744210527
 40
5.203750744210527
 40
5.203750744210527
 10
-12.37969970702995
 20
56.23422241210997
 30
0.0
 10
-12.39905735618139
 20
55.80339678458689
 30
0.0
 10
-12.43784197061329
 20
54.94020282337069
 30
0.0
 10
-12.47644027837013
 20
53.64223994822154
 30
0.0
 10
-12.50185094139013
 20
52.33912046172935
 30
0.0
 10
-12.50588381057073
 20
51.46858890001515
 30
0.0
 10
-12.50790405272995
 20
51.03250122070997
 30
0.0
 11
-12.37969970702995
 21
56.23422241210997
 31
0.0
 11
-12.43450927733995
 21
54.94161987304997
 31
0.0
 11
-12.47418212890996
 21
53.64382934570997
 31
0.0
 11
-12.49859619140996
 21
52.34072875976997
 31
0.0
 11
-12.50790405272995
 21
51.03250122070997
 31
0.0
  0
SPLINE
  5
7BA6
330
1F
100
AcDbEntity
  8
AM_0
  6
CONTINUOUS
 48
0.5
100
AcDbSpline
210
0.0
220
0.0
230
1.0
 70
     8
 71
     3
 72
    11
 73
     7
 74
     5
 42
0.0000000001
 43
0.0000000001
 44
0.0000000001
 40
0.0
 40
0.0
 40
0.0
 40
0.0
 40
0.4945410521492148
 40
0.920424264183069
 40
1.34465241949608
 40
1.834616501493803
 40
1.834616501493803
 40
1.834616501493803
 40
1.834616501493803
 10
-10.98208618163995
 20
52.56091308593997
 30
0.0
 10
-10.95971588868757
 20
52.39608665276219
 30
0.0
 10
-10.91808100248191
 20
52.08931687537713
 30
0.0
 10
-10.67364792002477
 20
51.69614902961003
 30
0.0
 10
-10.28835087629167
 20
51.44164696656005
 30
0.0
 10
-9.984403953780349
 20
51.39430179122541
 30
0.0
 10
-9.821502685549958
 20
51.36892700195997
 30
0.0
 11
-10.98208618163995
 21
52.56091308593997
 31
0.0
 11
-10.87869262694995
 21
52.07730102538997
 31
0.0
 11
-10.65078735351995
 21
51.71752929687997
 31
0.0
 11
-10.29840087890995
 21
51.48132324218997
 31
0.0
 11
-9.821502685549958
 21
51.36892700195997
 31
0.0
  0
SPLINE
  5
7BA7
330
1F
100
AcDbEntity
  8
AM_0
  6
CONTINUOUS
 48
0.5
100
AcDbSpline
210
0.0
220
0.0
230
1.0
 70
     8
 71
     3
 72
    11
 73
     7
 74
     5
 42
0.0000000001
 43
0.0000000001
 44
0.0000000001
 40
0.0
 40
0.0
 40
0.0
 40
0.0
 40
1.293164391134196
 40
2.57896190466383
 40
3.857430026685914
 40
5.12857851489808
 40
5.12857851489808
 40
5.12857851489808
 40
5.12857851489808
 10
-0.9685974121099576
 20
62.35092163085997
 30
0.0
 10
-1.399620928685853
 20
62.35642855695171
 30
0.0
 10
-2.259212514167517
 20
62.3674110373693
 30
0.0
 10
-3.545049802688931
 20
62.36761624671911
 30
0.0
 10
-4.823502891174459
 20
62.35655335505599
 30
0.0
 10
-5.673181910040695
 20
62.33805134889522
 30
0.0
 10
-6.096801757809956
 20
62.32882690429997
 30
0.0
 11
-0.9685974121099576
 21
62.35092163085997
 31
0.0
 11
-2.261688232419956
 21
62.36471557617997
 31
0.0
 11
-3.547485351559956
 21
62.36572265624997
 31
0.0
 11
-4.825897216799958
 21
62.35372924804997
 31
0.0
 11
-6.096801757809956
 21
62.32882690429997
 31
0.0
  0
SPLINE
  5
7BA8
330
1F
100
AcDbEntity
  8
AM_0
  6
CONTINUOUS
 48
0.5
100
AcDbSpline
210
0.0
220
0.0
230
1.0
 70
     8
 71
     3
 72
    11
 73
     7
 74
     5
 42
0.0000000001
 43
0.0000000001
 44
0.0000000001
 40
0.0
 40
0.0
 40
0.0
 40
0.0
 40
1.27185025788344
 40
2.550898188382495
 40
3.837305963512545
 40
5.131173526188409
 40
5.131173526188409
 40
5.131173526188409
 40
5.131173526188409
 10
-6.094207763669956
 20
62.47790527343997
 30
0.0
 10
-5.670353928778121
 20
62.48713390341605
 30
0.0
 10
-4.820247579494631
 20
62.50564339015891
 30
0.0
 10
-3.541164042678176
 20
62.51664310666789
 30
0.0
 10
-2.254695092812994
 20
62.51668526108279
 30
0.0
 10
-1.394666784274144
 20
62.50557246303098
 30
0.0
 10
-0.9634094238299582
 20
62.49999999999997
 30
0.0
 11
-6.094207763669956
 21
62.47790527343997
 31
0.0
 11
-4.822601318359957
 21
62.50280761718997
 31
0.0
 11
-3.543609619139957
 21
62.51480102538997
 31
0.0
 11
-2.257202148439958
 21
62.51391601562997
 31
0.0
 11
-0.9634094238299582
 21
62.49999999999997
 31
0.0
  0
SPLINE
  5
7BA9
330
1F
100
AcDbEntity
  8
AM_0
  6
CONTINUOUS
 48
0.5
100
AcDbSpline
210
0.0
220
0.0
230
1.0
 70
     8
 71
     3
 72
    11
 73
     7
 74
     5
 42
0.0000000001
 43
0.0000000001
 44
0.0000000001
 40
0.0
 40
0.0
 40
0.0
 40
0.0
 40
0.1111634567620932
 40
0.222661724434734
 40
0.3375734107803706
 40
0.4588895779404938
 40
0.4588895779404938
 40
0.4588895779404938
 40
0.4588895779404938
 10
-11.17880249022995
 20
51.31362915038997
 30
0.0
 10
-11.20342698373187
 20
51.34145123465874
 30
0.0
 10
-11.25275013673711
 20
51.39717919995503
 30
0.0
 10
-11.30753867139902
 20
51.49632773076719
 30
0.0
 10
-11.34826788515195
 20
51.6054513197775
 30
0.0
 10
-11.36143336995447
 20
51.68325106278921
 30
0.0
 10
-11.36819458007995
 20
51.72320556640997
 30
0.0
 11
-11.17880249022995
 21
51.31362915038997
 31
0.0
 11
-11.24938964843995
 21
51.39950561523997
 31
0.0
 11
-11.30450439452995
 21
51.49642944335997
 31
0.0
 11
-11.34408569335995
 21
51.60430908203998
 31
0.0
 11
-11.36819458007995
 21
51.72320556640997
 31
0.0
  0
SPLINE
  5
7BAA
330
1F
100
AcDbEntity
  8
AM_0
  6
CONTINUOUS
 48
0.5
100
AcDbSpline
210
0.0
220
0.0
230
1.0
 70
     8
 71
     3
 72
    11
 73
     7
 74
     5
 42
0.0000000001
 43
0.0000000001
 44
0.0000000001
 40
0.0
 40
0.0
 40
0.0
 40
0.0
 40
0.116241567249235
 40
0.2314682479428169
 40
0.3470937495877473
 40
0.4618174561882224
 40
0.4618174561882224
 40
0.4618174561882224
 40
0.4618174561882224
 10
-11.36819458007995
 20
51.72320556640997
 30
0.0
 10
-11.365206826462
 20
51.68436157903546
 30
0.0
 10
-11.35925740482567
 20
51.60701274493536
 30
0.0
 10
-11.31562548372087
 20
51.4983781671135
 30
0.0
 10
-11.25603730892023
 20
51.39921353908855
 30
0.0
 10
-11.20448014934939
 20
51.34208272607272
 30
0.0
 10
-11.17880249022995
 20
51.31362915038997
 30
0.0
 11
-11.36819458007995
 21
51.72320556640997
 31
0.0
 11
-11.35339355468995
 21
51.60791015624997
 31
0.0
 11
-11.31298828124995
 21
51.49999999999997
 31
0.0
 11
-11.25289916991995
 21
51.40121459960997
 31
0.0
 11
-11.17880249022995
 21
51.31362915038997
 31
0.0
  0
SPLINE
  5
7BAB
330
1F
100
AcDbEntity
  8
AM_0
  6
CONTINUOUS
 48
0.5
100
AcDbSpline
210
0.0
220
0.0
230
1.0
 70
     8
 71
     3
 72
    11
 73
     7
 74
     5
 42
0.0000000001
 43
0.0000000001
 44
0.0000000001
 40
0.0
 40
0.0
 40
0.0
 40
0.0
 40
0.0476060524741556
 40
0.0948844002184015
 40
0.1419548140214564
 40
0.1890157297108684
 40
0.1890157297108684
 40
0.1890157297108684
 40
0.1890157297108684
 10
-11.17880249022995
 20
51.31362915038997
 30
0.0
 10
-11.16761681425677
 20
51.30236524431548
 30
0.0
 10
-11.14532246090057
 20
51.27991496926746
 30
0.0
 10
-11.10935592748994
 20
51.24910016439206
 30
0.0
 10
-11.07176995501377
 20
51.22058315432343
 30
0.0
 10
-11.04532542368891
 20
51.2036744475759
 30
0.0
 10
-11.03210449218995
 20
51.19522094726997
 30
0.0
 11
-11.17880249022995
 21
51.31362915038997
 31
0.0
 11
-11.14480590819995
 21
51.28030395507997
 31
0.0
 11
-11.10900878905995
 21
51.24942016601997
 31
0.0
 11
-11.07141113280995
 21
51.22109985351997
 31
0.0
 11
-11.03210449218995
 21
51.19522094726997
 31
0.0
  0
SPLINE
  5
7BAC
330
1F
100
AcDbEntity
  8
AM_0
  6
CONTINUOUS
 48
0.5
100
AcDbSpline
210
0.0
220
0.0
230
1.0
 70
     8
 71
     3
 72
    11
 73
     7
 74
     5
 42
0.0000000001
 43
0.0000000001
 44
0.0000000001
 40
0.0
 40
0.0
 40
0.0
 40
0.0
 40
0.0685907535316376
 40
0.1357309304580592
 40
0.2026455693801324
 40
0.2708054716619772
 40
0.2708054716619772
 40
0.2708054716619772
 40
0.2708054716619772
 10
-11.03210449218995
 20
51.19522094726997
 30
0.0
 10
-11.01235157071633
 20
51.18363600904789
 30
0.0
 10
-10.97326346812473
 20
51.16071113414538
 30
0.0
 10
-10.90987222049361
 20
51.13662663486854
 30
0.0
 10
-10.84416007664053
 20
51.1204657037322
 30
0.0
 10
-10.79918440888629
 20
51.11717138026417
 30
0.0
 10
-10.77648925780995
 20
51.11550903320997
 30
0.0
 11
-11.03210449218995
 21
51.19522094726997
 31
0.0
 11
-10.97198486327995
 21
51.16220092773997
 31
0.0
 11
-10.90939331054995
 21
51.13790893554997
 31
0.0
 11
-10.84429931640995
 21
51.12240600585997
 31
0.0
 11
-10.77648925780995
 21
51.11550903320997
 31
0.0
  0
SPLINE
  5
7BAD
330
1F
100
AcDbEntity
  8
AM_0
  6
CONTINUOUS
 48
0.5
100
AcDbSpline
210
0.0
220
0.0
230
1.0
 70
     8
 71
     3
 72
    11
 73
     7
 74
     5
 42
0.0000000001
 43
0.0000000001
 44
0.0000000001
 40
0.0
 40
0.0
 40
0.0
 40
0.0
 40
0.4944579053829359
 40
0.9204442433071125
 40
1.344604443189276
 40
1.834596542145024
 40
1.834596542145024
 40
1.834596542145024
 40
1.834596542145024
 10
-1.293182373049958
 20
59.84030151367997
 30
0.0
 10
-1.3155820188904
 20
60.0050860019291
 30
0.0
 10
-1.357279451253192
 20
60.31183594351968
 30
0.0
 10
-1.601568320410028
 20
60.70510490739577
 30
0.0
 10
-1.987011703138035
 20
60.95942411719234
 30
0.0
 10
-2.29090658191919
 20
61.00688092860821
 30
0.0
 10
-2.453796386719957
 20
61.03231811523997
 30
0.0
 11
-1.293182373049958
 21
59.84030151367997
 31
0.0
 11
-1.396606445309956
 21
60.32382202148998
 31
0.0
 11
-1.624511718749957
 21
60.68371582031997
 31
0.0
 11
-1.976898193359957
 21
60.91979980468997
 31
0.0
 11
-2.453796386719957
 21
61.03231811523997
 31
0.0
  0
SPLINE
  5
7BAE
330
1F
100
AcDbEntity
  8
AM_0
  6
CONTINUOUS
 48
0.5
100
AcDbSpline
210
0.0
220
0.0
230
1.0
 70
     8
 71
     3
 72
    11
 73
     7
 74
     5
 42
0.0000000001
 43
0.0000000001
 44
0.0000000001
 40
0.0
 40
0.0
 40
0.0
 40
0.0
 40
0.2277335126057062
 40
0.4566465252025659
 40
0.6861299164076948
 40
0.9158683565919004
 40
0.9158683565919004
 40
0.9158683565919004
 40
0.9158683565919004
 10
-11.76858520507995
 20
50.19601440429998
 30
0.0
 10
-11.84442757433449
 20
50.21021284274318
 30
0.0
 10
-11.99650512316313
 20
50.23868325758993
 30
0.0
 10
-12.17714466323632
 20
50.38843758780988
 30
0.0
 10
-12.3221668000965
 20
50.57348894794123
 30
0.0
 10
-12.34757791386673
 20
50.72694186537838
 30
0.0
 10
-12.36029052733995
 20
50.80371093749997
 30
0.0
 11
-11.76858520507995
 21
50.19601440429998
 31
0.0
 11
-11.98818969726995
 21
50.25631713867998
 31
0.0
 11
-12.17098999022995
 21
50.39410400390997
 31
0.0
 11
-12.30429077147995
 21
50.58090209960997
 31
0.0
 11
-12.36029052733995
 21
50.80371093749997
 31
0.0
  0
ELLIPSE
  5
7BAF
330
1F
100
AcDbEntity
  8
AM_0
  6
CONTINUOUS
 48
0.5
100
AcDbEllipse
 10
-11.69229125976996
 20
50.86941528320997
 30
0.0
 11
0.5714416469099888
 21
0.6331787036099854
 31
0.0
210
0.0
220
0.0
230
0.9999999999999998
 40
0.9192111985961
 41
2.346715390780831
 42
3.817890167206236
  0
SPLINE
  5
7BB0
330
1F
100
AcDbEntity
  8
AM_0
  6
CONTINUOUS
 48
0.5
100
AcDbSpline
210
0.0
220
0.0
230
1.0
 70
     8
 71
     3
 72
    11
 73
     7
 74
     5
 42
0.0000000001
 43
0.0000000001
 44
0.0000000001
 40
0.0
 40
0.0
 40
0.0
 40
0.0
 40
1.31478966872652
 40
2.625019651385557
 40
3.930652702700534
 40
5.231683594163551
 40
5.231683594163551
 40
5.231683594163551
 40
5.231683594163551
 10
-6.313110351559956
 20
50.00381469726997
 30
0.0
 10
-6.751374303128136
 20
50.00391674385316
 30
0.0
 10
-7.62638230838168
 20
50.00412048312233
 30
0.0
 10
-8.936583931090167
 20
50.01152374547361
 30
0.0
 10
-10.24216430776596
 20
50.02365614730772
 30
0.0
 10
-11.11095685194427
 20
50.03664058252653
 30
0.0
 10
-11.54458618163995
 20
50.04312133788997
 30
0.0
 11
-6.313110351559956
 21
50.00381469726997
 31
0.0
 11
-7.627899169919956
 21
50.00531005859997
 31
0.0
 11
-8.938110351559956
 21
50.01232910156997
 31
0.0
 11
-10.24368286132995
 21
50.02490234374997
 31
0.0
 11
-11.54458618163995
 21
50.04312133788997
 31
0.0
  0
SPLINE
  5
7BB1
330
1F
100
AcDbEntity
  8
AM_0
  6
CONTINUOUS
 48
0.5
100
AcDbSpline
210
0.0
220
0.0
230
1.0
 70
     8
 71
     3
 72
    11
 73
     7
 74
     5
 42
0.0000000001
 43
0.0000000001
 44
0.0000000001
 40
0.0
 40
0.0
 40
0.0
 40
0.0
 40
0.0476719834211699
 40
0.0949702719152742
 40
0.1420223308724418
 40
0.1891000351498625
 40
0.1891000351498625
 40
0.1891000351498625
 40
0.1891000351498625
 10
-1.246887207029956
 20
61.17941284179997
 30
0.0
 10
-1.258122297452222
 20
61.19065724865151
 30
0.0
 10
-1.280504407778293
 20
61.21305791880575
 30
0.0
 10
-1.316428908461432
 20
61.2439540394855
 30
0.0
 10
-1.354062796967892
 20
61.27241982379762
 30
0.0
 10
-1.38049004924554
 20
61.28935243347603
 30
0.0
 10
-1.393707275389957
 20
61.29782104492997
 30
0.0
 11
-1.246887207029956
 21
61.17941284179997
 31
0.0
 11
-1.281005859369955
 21
61.21270751953997
 31
0.0
 11
-1.316802978519959
 21
61.24362182617997
 31
0.0
 11
-1.354400634769959
 21
61.27191162109998
 31
0.0
 11
-1.393707275389957
 21
61.29782104492997
 31
0.0
  0
SPLINE
  5
7BB2
330
1F
100
AcDbEntity
  8
AM_0
  6
CONTINUOUS
 48
0.5
100
AcDbSpline
210
0.0
220
0.0
230
1.0
 70
     8
 71
     3
 72
    11
 73
     7
 74
     5
 42
0.0000000001
 43
0.0000000001
 44
0.0000000001
 40
0.0
 40
0.0
 40
0.0
 40
0.0
 40
0.0684690753323698
 40
0.1356092522587915
 40
0.2025238911785468
 40
0.2705834957640466
 40
0.2705834957640466
 40
0.2705834957640466
 40
0.2705834957640466
 10
-1.393798828119955
 20
61.29782104492997
 30
0.0
 10
-1.413510358380762
 20
61.30939736453837
 30
0.0
 10
-1.452550842958197
 20
61.33232532199043
 30
0.0
 10
-1.515910934982819
 20
61.3563764060154
 30
0.0
 10
-1.581585880254794
 20
61.37256122428409
 30
0.0
 10
-1.626535153802665
 20
61.37578521766867
 30
0.0
 10
-1.649200439449955
 20
61.37741088867997
 30
0.0
 11
-1.393798828119955
 21
61.29782104492997
 31
0.0
 11
-1.453796386719957
 21
61.33081054687997
 31
0.0
 11
-1.516387939449955
 21
61.35510253906997
 31
0.0
 11
-1.581481933589955
 21
61.37060546874997
 31
0.0
 11
-1.649200439449955
 21
61.37741088867997
 31
0.0
  0
SPLINE
  5
7BB3
330
1F
100
AcDbEntity
  8
AM_0
  6
CONTINUOUS
 48
0.5
100
AcDbSpline
210
0.0
220
0.0
230
1.0
 70
     8
 71
     3
 72
    11
 73
     7
 74
     5
 42
0.0000000001
 43
0.0000000001
 44
0.0000000001
 40
0.0
 40
0.0
 40
0.0
 40
0.0
 40
0.1163597476469186
 40
0.2316294557196564
 40
0.3472028159308023
 40
0.4618674126028123
 40
0.4618674126028123
 40
0.4618674126028123
 40
0.4618674126028123
 10
-1.057495117189958
 20
60.76971435546997
 30
0.0
 10
-1.060586281893928
 20
60.80858040370803
 30
0.0
 10
-1.066739653763496
 20
60.8859484092375
 30
0.0
 10
-1.110064581375664
 20
60.99472562461076
 30
0.0
 10
-1.169783024258899
 20
61.09380289903286
 30
0.0
 10
-1.221253531871462
 20
61.15095138375242
 30
0.0
 10
-1.246887207029956
 20
61.17941284179997
 30
0.0
 11
-1.057495117189958
 21
60.76971435546997
 31
0.0
 11
-1.072509765619955
 21
60.88510131835997
 31
0.0
 11
-1.112792968749957
 21
60.99310302734997
 31
0.0
 11
-1.172882080079958
 21
61.09182739257997
 31
0.0
 11
-1.246887207029956
 21
61.17941284179997
 31
0.0
  0
SPLINE
  5
7BB4
330
1F
100
AcDbEntity
  8
AM_0
  6
CONTINUOUS
 48
0.5
100
AcDbSpline
210
0.0
220
0.0
230
1.0
 70
     8
 71
     3
 72
    11
 73
     7
 74
     5
 42
0.0000000001
 43
0.0000000001
 44
0.0000000001
 40
0.0
 40
0.0
 40
0.0
 40
0.0
 40
1.319051222288573
 40
2.635851013523944
 40
3.950681072080578
 40
5.263274463920037
 40
5.263274463920037
 40
5.263274463920037
 40
5.263274463920037
 10
-0.0275878906199552
 20
56.24752807617998
 30
0.0
 10
-0.0235024802027866
 20
56.68719305838845
 30
0.0
 10
-0.0153386325774673
 20
57.56577257780583
 30
0.0
 10
-0.0070499132913
 20
58.88264179090024
 30
0.0
 10
-0.0015376065047139
 20
60.19737295020864
 30
0.0
 10
-0.0005122445456552
 20
61.07318061517059
 30
0.0
 10
0.0000000000000426
 20
61.51071166992998
 30
0.0
 11
-0.0275878906199552
 21
56.24752807617998
 31
0.0
 11
-0.0159912109399585
 21
57.56652832031997
 31
0.0
 11
-0.0075073242199579
 21
58.88330078124997
 31
0.0
 11
-0.0021972656199551
 21
60.19812011718997
 31
0.0
 11
0.0000000000000426
 21
61.51071166992998
 31
0.0
  0
SPLINE
  5
7BB5
330
1F
100
AcDbEntity
  8
AM_0
  6
CONTINUOUS
 48
0.5
100
AcDbSpline
210
0.0
220
0.0
230
1.0
 70
     8
 71
     3
 72
    11
 73
     7
 74
     5
 42
0.0000000001
 43
0.0000000001
 44
0.0000000001
 40
0.0
 40
0.0
 40
0.0
 40
0.0
 40
1.271216692845246
 40
2.550245907164884
 40
3.837050478757737
 40
5.131624324462331
 40
5.131624324462331
 40
5.131624324462331
 40
5.131624324462331
 10
-6.313110351559956
 20
50.00381469726997
 30
0.0
 10
-5.889371894561165
 20
50.00482372880179
 30
0.0
 10
-5.039290809446684
 20
50.0068479930745
 30
0.0
 10
-3.760309551442795
 20
50.01706522057954
 30
0.0
 10
-2.473589235321083
 20
50.03205376885283
 30
0.0
 10
-1.613255014054993
 20
50.04682293006634
 30
0.0
 10
-1.181793212889957
 20
50.05422973632997
 30
0.0
 11
-6.313110351559956
 21
50.00381469726997
 31
0.0
 11
-5.041900634769959
 21
50.00802612304998
 31
0.0
 11
-3.762908935549958
 21
50.01782226562998
 31
0.0
 11
-2.476196289059956
 21
50.03320312499997
 31
0.0
 11
-1.181793212889957
 21
50.05422973632997
 31
0.0
  0
SPLINE
  5
7BB6
330
1F
100
AcDbEntity
  8
AM_0
  6
CONTINUOUS
 48
0.5
100
AcDbSpline
210
0.0
220
0.0
230
1.0
 70
     8
 71
     3
 72
    11
 73
     7
 74
     5
 42
0.0000000001
 43
0.0000000001
 44
0.0000000001
 40
0.0
 40
0.0
 40
0.0
 40
0.0
 40
0.2278512278697912
 40
0.456611653028274
 40
0.686169573763212
 40
0.9159080139571202
 40
0.9159080139571202
 40
0.9159080139571202
 40
0.9159080139571202
 10
-0.7394104003899571
 20
62.34710693359997
 30
0.0
 10
-0.6635246917848149
 20
62.33291696863555
 30
0.0
 10
-0.5114504669874948
 20
62.30448041633168
 30
0.0
 10
-0.3307828967814892
 20
62.15473031227155
 30
0.0
 10
-0.1858512411427844
 20
61.96964478157112
 30
0.0
 10
-0.1604237970844651
 20
61.81617530039993
 30
0.0
 10
-0.1477050781199551
 20
61.73941040038997
 30
0.0
 11
-0.7394104003899571
 21
62.34710693359997
 31
0.0
 11
-0.5196838378899571
 21
62.28680419921997
 31
0.0
 11
-0.3370056152299554
 21
62.14910888671997
 31
0.0
 11
-0.2037048339799554
 21
61.96221923828997
 31
0.0
 11
-0.1477050781199551
 21
61.73941040038997
 31
0.0
  0
ELLIPSE
  5
7BB7
330
1F
100
AcDbEntity
  8
AM_0
  6
CONTINUOUS
 48
0.5
100
AcDbEllipse
 10
-0.815582275389957
 20
61.67370605468997
 30
0.0
 11
0.5714416468999844
 21
0.6331787036099854
 31
0.0
210
0.0
220
0.0
230
1.0
 40
0.9192111985961
 41
5.488300790266648
 42
6.959475179307912
  0
SPLINE
  5
7BB8
330
1F
100
AcDbEntity
  8
AM_0
  6
CONTINUOUS
 48
0.5
100
AcDbSpline
210
0.0
220
0.0
230
1.0
 70
     8
 71
     3
 72
    11
 73
     7
 74
     5
 42
0.0000000001
 43
0.0000000001
 44
0.0000000001
 40
0.0
 40
0.0
 40
0.0
 40
0.0
 40
0.494107321605365
 40
0.9256402607567419
 40
1.358957564346443
 40
1.857396473337371
 40
1.857396473337371
 40
1.857396473337371
 40
1.857396473337371
 10
-2.623291015619955
 20
51.37661743163997
 30
0.0
 10
-2.459129762593408
 20
51.40259761309952
 30
0.0
 10
-2.151596847347498
 20
51.45126781264763
 30
0.0
 10
-1.759803673686418
 20
51.70591028017934
 30
0.0
 10
-1.502188502055438
 20
52.09713747825844
 30
0.0
 10
-1.449169283662159
 20
52.40592266988098
 30
0.0
 10
-1.420806884769959
 20
52.57110595703998
 30
0.0
 11
-2.623291015619955
 21
51.37661743163997
 31
0.0
 11
-2.142395019529956
 21
51.49011230468997
 31
0.0
 11
-1.781707763669956
 21
51.72702026367997
 31
0.0
 11
-1.541107177729955
 21
52.08740234374997
 31
0.0
 11
-1.420806884769959
 21
52.57110595703998
 31
0.0
  0
SPLINE
  5
7BB9
330
1F
100
AcDbEntity
  8
AM_0
  6
CONTINUOUS
 48
0.5
100
AcDbSpline
210
0.0
220
0.0
230
1.0
 70
     8
 71
     3
 72
    11
 73
     7
 74
     5
 42
0.0000000001
 43
0.0000000001
 44
0.0000000001
 40
0.0
 40
0.0
 40
0.0
 40
0.0
 40
1.293055165931382
 40
2.591414527039193
 40
3.895150879892812
 40
5.204172192223971
 40
5.204172192223971
 40
5.204172192223971
 40
5.204172192223971
 10
-0.0275878906199552
 20
56.24752807617998
 30
0.0
 10
-0.0387796435761697
 20
55.81665481169501
 30
0.0
 10
-0.0612090587766245
 20
54.95314081297486
 30
0.0
 10
-0.0987558978543989
 20
53.65529851905098
 30
0.0
 10
-0.139342787395902
 20
52.35222326925932
 30
0.0
 10
-0.1688845457399699
 20
51.48180485782789
 30
0.0
 10
-0.1836853027299554
 20
51.04571533203998
 30
0.0
 11
-0.0275878906199552
 21
56.24752807617998
 31
0.0
 11
-0.061798095699956
 21
54.95492553710997
 31
0.0
 11
-0.0991821289099591
 21
53.65710449218997
 31
0.0
 11
-0.1398925781199551
 21
52.35400390624997
 31
0.0
 11
-0.1836853027299554
 21
51.04571533203998
 31
0.0
  0
SPLINE
  5
7BBA
330
1F
100
AcDbEntity
  8
AM_0
  6
CONTINUOUS
 48
0.5
100
AcDbSpline
210
0.0
220
0.0
230
1.0
 70
     8
 71
     3
 72
    11
 73
     7
 74
     5
 42
0.0000000001
 43
0.0000000001
 44
0.0000000001
 40
0.0
 40
0.0
 40
0.0
 40
0.0
 40
0.1166776693056477
 40
0.2345247537705004
 40
0.3513980179900764
 40
0.467929560885135
 40
0.467929560885135
 40
0.467929560885135
 40
0.467929560885135
 10
-1.419891357419956
 20
51.32412719726997
 30
0.0
 10
-1.393237940415621
 20
51.35256640885009
 30
0.0
 10
-1.339663969515418
 20
51.40972986723031
 30
0.0
 10
-1.276782928690972
 20
51.50910861514219
 30
0.0
 10
-1.229343118646057
 20
51.6175958252165
 30
0.0
 10
-1.220506707636168
 20
51.69530342609991
 30
0.0
 10
-1.216094970699955
 20
51.73410034179998
 30
0.0
 11
-1.419891357419956
 21
51.32412719726997
 31
0.0
 11
-1.342803955079958
 21
51.41171264648997
 31
0.0
 11
-1.279205322269959
 21
51.51092529296997
 31
0.0
 11
-1.234985351559956
 21
51.61911010742997
 31
0.0
 11
-1.216094970699955
 21
51.73410034179998
 31
0.0
  0
SPLINE
  5
7BBB
330
1F
100
AcDbEntity
  8
AM_0
  6
CONTINUOUS
 48
0.5
100
AcDbSpline
210
0.0
220
0.0
230
1.0
 70
     8
 71
     3
 72
    11
 73
     7
 74
     5
 42
0.0000000001
 43
0.0000000001
 44
0.0000000001
 40
0.0
 40
0.0
 40
0.0
 40
0.0
 40
0.1157883727059974
 40
0.2316726021815644
 40
0.348672336207972
 40
0.4653681232784147
 40
0.4653681232784147
 40
0.4653681232784147
 40
0.4653681232784147
 10
-1.829193115229955
 20
51.12521362304997
 30
0.0
 10
-1.790579481495557
 20
51.12904199021899
 30
0.0
 10
-1.713320247274793
 20
51.13670189391596
 30
0.0
 10
-1.605110668129142
 20
51.18273467667824
 30
0.0
 10
-1.505941873353833
 20
51.2447933749227
 30
0.0
 10
-1.448549981223281
 20
51.2977055291968
 30
0.0
 10
-1.419891357419956
 20
51.32412719726997
 30
0.0
 11
-1.829193115229955
 21
51.12521362304997
 31
0.0
 11
-1.714691162109957
 21
51.14242553710997
 31
0.0
 11
-1.606994628909959
 21
51.18521118163997
 31
0.0
 11
-1.508087158199955
 21
51.24771118163997
 31
0.0
 11
-1.419891357419956
 21
51.32412719726997
 31
0.0
  0
SPLINE
  5
7BBC
330
1F
100
AcDbEntity
  8
AM_0
  6
CONTINUOUS
 48
0.5
100
AcDbSpline
210
0.0
220
0.0
230
1.0
 70
     8
 71
     3
 72
    11
 73
     7
 74
     5
 42
0.0000000001
 43
0.0000000001
 44
0.0000000001
 40
0.0
 40
0.0
 40
0.0
 40
0.0
 40
0.2318546702925989
 40
0.4655464237367814
 40
0.6985022819022637
 40
0.9283956541692576
 40
0.9283956541692576
 40
0.9283956541692576
 40
0.9283956541692576
 10
-0.3393859863299582
 20
50.81661987304997
 30
0.0
 10
-0.3549038544853396
 20
50.73970350768194
 30
0.0
 10
-0.3860625454646487
 20
50.58526133587347
 30
0.0
 10
-0.5372141248983946
 20
50.40101600499809
 30
0.0
 10
-0.7219704721642834
 20
50.25122975544899
 30
0.0
 10
-0.8759247605256721
 20
50.22208636447142
 30
0.0
 10
-0.9523925781199551
 20
50.20761108398997
 30
0.0
 11
-0.3393859863299582
 21
50.81661987304997
 31
0.0
 11
-0.4031982421899585
 21
50.59371948242997
 31
0.0
 11
-0.5430908203099563
 21
50.40652465820997
 31
0.0
 11
-0.7306823730499588
 21
50.26840209960997
 31
0.0
 11
-0.9523925781199551
 21
50.20761108398997
 31
0.0
  0
ELLIPSE
  5
7BBD
330
1F
100
AcDbEntity
  8
AM_0
  6
CONTINUOUS
 48
0.5
100
AcDbEllipse
 10
-1.005004882809956
 20
50.88092041015997
 30
0.0
 11
-0.5205993684600117
 21
0.6557617228099844
 31
0.0
210
0.0
220
0.0
230
1.0
 40
0.9537956027345
 41
2.512058668530255
 42
3.984086540768415
  0
ELLIPSE
  5
7BBE
330
1F
100
AcDbEntity
  8
AM_0
  6
CONTINUOUS
 48
0.5
100
AcDbEllipse
 10
-13.74209594726996
 20
52.99752807617998
 30
0.0
 11
0.0010070694499973
 21
5.174407860980011
 31
0.0
210
0.0
220
0.0
230
1.0
 40
0.168676830527
 41
4.275964000445484
 42
4.376478989764152
  0
ELLIPSE
  5
7BBF
330
1F
100
AcDbEntity
  8
AM_0
  6
CONTINUOUS
 48
0.5
100
AcDbEllipse
 10
-9.367584228519959
 20
51.81271362304997
 30
0.0
 11
-19.04058802678997
 21
0.0036618168300038
 31
0.0
210
0.0
220
0.0
230
1.0
 40
0.0278400184638
 41
1.383234555763581
 42
1.405253043541752
  0
LINE
  5
7BC0
330
1F
100
AcDbEntity
  8
AM_0
  6
CONTINUOUS
 48
0.5
100
AcDbLine
 10
-62.0
 20
-7.949999999999988
 30
0.0
 11
-53.0
 21
-7.949999999999988
 31
0.0
  0
LINE
  5
7BC1
330
1F
100
AcDbEntity
  8
AM_0
  6
CONTINUOUS
 48
0.5
100
AcDbLine
 10
-61.99996948242
 20
7.949999999999988
 30
0.0
 11
-53.0
 21
7.949999999999988
 31
0.0
  0
LINE
  5
7BC2
330
1F
100
AcDbEntity
  8
AM_0
  6
CONTINUOUS
100
AcDbLine
 10
-61.5
 20
-19.05000000000001
 30
0.0
 11
-26.0
 21
-19.05000000000001
 31
0.0
  0
LINE
  5
7BC3
330
1F
100
AcDbEntity
  8
AM_0
  6
CONTINUOUS
100
AcDbLine
 10
-61.5
 20
19.05000000000001
 30
0.0
 11
-26.0
 21
19.05000000000001
 31
0.0
  0
LINE
  5
7BC4
330
1F
100
AcDbEntity
  8
AM_0
  6
CONTINUOUS
 48
0.5
100
AcDbLine
 10
-60.0
 20
40.0
 30
0.0
 11
-44.0
 21
40.0
 31
0.0
  0
LINE
  5
7BC5
330
1F
100
AcDbEntity
  8
AM_7
  6
AM_ISO08W050
100
AcDbLine
 10
-64.35415649414
 20
0.0
 30
0.0
 11
5.77133178711
 21
0.0
 31
0.0
  0
LINE
  5
7BC9
330
1F
100
AcDbEntity
  8
AM_0
  6
CONTINUOUS
 48
0.5
100
AcDbLine
 10
-63.0
 20
37.0
 30
0.0
 11
-63.0
 21
20.55000000000001
 31
0.0
  0
LINE
  5
7BCC
330
1F
100
AcDbEntity
  8
AM_0
  6
CONTINUOUS
 48
0.5
100
AcDbLine
 10
-61.5
 20
-7.949999999999988
 30
0.0
 11
-61.5
 21
-19.05000000000001
 31
0.0
  0
LINE
  5
7BCD
330
1F
100
AcDbEntity
  8
AM_0
  6
CONTINUOUS
 48
0.5
100
AcDbLine
 10
-63.0
 20
-8.949999999999988
 30
0.0
 11
-63.0
 21
-20.55000000000001
 31
0.0
  0
LINE
  5
7BCE
330
1F
100
AcDbEntity
  8
AM_0
  6
CONTINUOUS
 48
0.5
100
AcDbLine
 10
-62.99996948242
 20
-20.55003051758001
 30
0.0
 11
-61.5
 21
-19.05000000000001
 31
0.0
  0
LINE
  5
7BCF
330
1F
100
AcDbEntity
  8
AM_0
  6
CONTINUOUS
 48
0.5
100
AcDbLine
 10
-63.0
 20
-20.55000000000001
 30
0.0
 11
-63.0
 21
-37.0
 31
0.0
  0
LINE
  5
7BD0
330
1F
100
AcDbEntity
  8
AM_0
  6
CONTINUOUS
 48
0.5
100
AcDbLine
 10
-63.0
 20
-8.949999999999988
 30
0.0
 11
-61.99996948242
 21
-7.949999999999988
 31
0.0
  0
LINE
  5
7BD1
330
1F
100
AcDbEntity
  8
AM_0
  6
CONTINUOUS
 48
0.5
100
AcDbLine
 10
-61.5
 20
19.05000000000001
 30
0.0
 11
-61.5
 21
7.949999999999988
 31
0.0
  0
LINE
  5
7BD2
330
1F
100
AcDbEntity
  8
AM_0
  6
CONTINUOUS
 48
0.5
100
AcDbLine
 10
-63.0
 20
20.55000000000001
 30
0.0
 11
-63.0
 21
8.949999999999988
 31
0.0
  0
LINE
  5
7BD3
330
1F
100
AcDbEntity
  8
AM_0
  6
CONTINUOUS
 48
0.5
100
AcDbLine
 10
-63.0
 20
8.949999999999988
 30
0.0
 11
-61.99996948242
 21
7.949999999999988
 31
0.0
  0
LINE
  5
7BD4
330
1F
100
AcDbEntity
  8
AM_0
  6
CONTINUOUS
 48
0.5
100
AcDbLine
 10
-62.99996948242
 20
20.54996948242
 30
0.0
 11
-61.5
 21
19.05000000000001
 31
0.0
  0
ARC
  5
7BD5
330
1F
100
AcDbEntity
  8
AM_0
  6
CONTINUOUS
 48
0.5
100
AcDbCircle
 10
-60.0
 20
37.0
 30
0.0
 40
3.0
100
AcDbArc
 50
89.99998201391097
 51
179.9999640278186
  0
LINE
  5
7BDA
330
1F
100
AcDbEntity
  8
AM_0
  6
CONTINUOUS
100
AcDbLine
 10
-25.0
 20
28.0
 30
0.0
 11
-25.0
 21
-20.05000000000001
 31
0.0
  0
LINE
  5
7BDB
330
1F
100
AcDbEntity
  8
AM_0
  6
CONTINUOUS
100
AcDbLine
 10
-0.6157836914100017
 20
50.14511108398
 30
0.0
 11
-0.6157836914100017
 21
-50.14481399142828
 31
0.0
  0
LINE
  5
7BDC
330
1F
100
AcDbEntity
  8
AM_0
  6
CONTINUOUS
 48
0.5
100
AcDbLine
 10
-53.0
 20
7.949999999999988
 30
0.0
 11
-53.0
 21
-7.949999999999988
 31
0.0
  0
ARC
  5
7BDD
330
1F
100
AcDbEntity
  8
AM_0
  6
CONTINUOUS
 48
0.5
100
AcDbCircle
 10
-26.0
 20
-20.05000000000001
 30
0.0
 40
1.0
100
AcDbArc
 50
0.0
 51
89.99998201391097
  0
LINE
  5
7BDE
330
1F
100
AcDbEntity
  8
AM_0
  6
CONTINUOUS
 48
0.5
100
AcDbLine
 10
-25.0
 20
-20.05000000000001
 30
0.0
 11
-25.0
 21
-28.0
 31
0.0
  0
ARC
  5
7BDF
330
1F
100
AcDbEntity
  8
AM_0
  6
CONTINUOUS
 48
0.5
100
AcDbCircle
 10
-26.0
 20
20.05000000000001
 30
0.0
 40
1.0
100
AcDbArc
 50
270.000017986089
 51
0.0
  0
ARC
  5
7BE0
330
1F
100
AcDbEntity
  8
AM_0
  6
CONTINUOUS
 48
0.5
100
AcDbCircle
 10
-44.0
 20
56.0
 30
0.0
 40
16.0
100
AcDbArc
 50
270.000017986089
 51
0.0
  0
ARC
  5
7BE1
330
1F
100
AcDbEntity
  8
AM_0
  6
CONTINUOUS
 48
0.5
100
AcDbCircle
 10
-22.92801442023198
 20
56.42754213201413
 30
0.0
 40
5.07247264658989
100
AcDbArc
 50
89.86169286373831
 51
179.1814936433143
  0
LINE
  5
7BE2
330
1F
100
AcDbEntity
  8
AM_7
  6
AM_ISO08W050
 48
0.5
100
AcDbLine
 10
-28.71789550781996
 20
54.28732299804997
 30
0.0
 11
-11.62805175780995
 21
54.28732299804997
 31
0.0
  0
LINE
  5
7BE3
330
1F
100
AcDbEntity
  8
AM_0
  6
CONTINUOUS
 48
0.5
100
AcDbLine
 10
-27.99996948242
 20
56.5
 30
0.0
 11
-27.99996948242
 21
56.0
 31
0.0
  0
LINE
  5
7BE4
330
1F
100
AcDbEntity
  8
AM_0
  6
CONTINUOUS
 48
0.5
100
AcDbLine
 10
-7.307281494139999
 20
33.77380371092999
 30
0.0
 11
-0.9999389648399983
 21
47.29998779295999
 31
0.0
  0
ARC
  5
7BE5
330
1F
100
AcDbEntity
  8
AM_0
  6
CONTINUOUS
 48
0.5
100
AcDbCircle
 10
-16.37036132811999
 20
38.0
 30
0.0
 40
10.0
100
AcDbArc
 50
270.000017986089
 51
334.9999930433053
  0
LINE
  5
7BE6
330
1F
100
AcDbEntity
  8
AM_0
  6
CONTINUOUS
 48
0.5
100
AcDbLine
 10
-25.0
 20
28.0
 30
0.0
 11
-16.37036132811999
 21
28.0
 31
0.0
  0
LINE
  5
7BE7
330
1F
100
AcDbEntity
  8
AM_0
  6
CONTINUOUS
 48
0.5
100
AcDbLine
 10
-10.59658813476995
 20
61.36782836913997
 30
0.0
 11
-9.652008056639957
 21
61.02453613281998
 31
0.0
  0
LINE
  5
7BE8
330
1F
100
AcDbEntity
  8
AM_0
  6
CONTINUOUS
 48
0.5
100
AcDbLine
 10
-6.096801757809956
 20
62.32882690429997
 30
0.0
 11
-11.32620239257995
 21
62.33972167968997
 31
0.0
  0
LINE
  5
7BE9
330
1F
100
AcDbEntity
  8
AM_0
  6
CONTINUOUS
 48
0.5
100
AcDbLine
 10
-6.047698974609957
 20
61.32672119140997
 30
0.0
 11
-10.59658813476995
 21
61.36782836913997
 31
0.0
  0
LINE
  5
7BEA
330
1F
100
AcDbEntity
  8
AM_0
  6
CONTINUOUS
 48
0.5
100
AcDbLine
 10
-9.821502685549958
 20
51.36892700195997
 30
0.0
 11
-10.77648925780995
 21
51.11550903320997
 31
0.0
  0
LINE
  5
7BEB
330
1F
100
AcDbEntity
  8
AM_0
  6
CONTINUOUS
 48
0.5
100
AcDbLine
 10
-6.227600097659959
 20
51.07443237304997
 30
0.0
 11
-10.77648925780995
 21
51.11553955078997
 31
0.0
  0
LINE
  5
7BEC
330
1F
100
AcDbEntity
  8
AM_0
  6
CONTINUOUS
 48
0.5
100
AcDbLine
 10
-6.310485839839955
 20
50.15298461913997
 30
0.0
 11
-11.53942871093995
 21
50.19229125976997
 31
0.0
  0
LINE
  5
7BED
330
1F
100
AcDbEntity
  8
AM_0
  6
CONTINUOUS
 48
0.5
100
AcDbLine
 10
-10.59658813476995
 20
61.36782836913997
 30
0.0
 11
-9.652008056639957
 21
61.02453613281998
 31
0.0
  0
LINE
  5
7BEE
330
1F
100
AcDbEntity
  8
AM_0
  6
CONTINUOUS
 48
0.5
100
AcDbLine
 10
-6.096801757809956
 20
62.32882690429997
 30
0.0
 11
-11.32620239257995
 21
62.33972167968997
 31
0.0
  0
LINE
  5
7BEF
330
1F
100
AcDbEntity
  8
AM_0
  6
CONTINUOUS
 48
0.5
100
AcDbLine
 10
-6.047698974609957
 20
61.32672119140997
 30
0.0
 11
-10.59658813476995
 21
61.36782836913997
 31
0.0
  0
LINE
  5
7BF0
330
1F
100
AcDbEntity
  8
AM_0
  6
CONTINUOUS
 48
0.5
100
AcDbLine
 10
-9.821502685549958
 20
51.36892700195997
 30
0.0
 11
-10.77648925780995
 21
51.11550903320997
 31
0.0
  0
LINE
  5
7BF1
330
1F
100
AcDbEntity
  8
AM_0
  6
CONTINUOUS
 48
0.5
100
AcDbLine
 10
-6.227600097659959
 20
51.07443237304997
 30
0.0
 11
-10.77648925780995
 21
51.11553955078997
 31
0.0
  0
LINE
  5
7BF2
330
1F
100
AcDbEntity
  8
AM_0
  6
CONTINUOUS
 48
0.5
100
AcDbLine
 10
-6.310485839839955
 20
50.15298461913997
 30
0.0
 11
-11.53942871093995
 21
50.19229125976997
 31
0.0
  0
LINE
  5
7BF3
330
1F
100
AcDbEntity
  8
AM_0
  6
CONTINUOUS
 48
0.5
100
AcDbLine
 10
-11.21368408202995
 20
56.19512939453997
 30
0.0
 11
-11.20968627929995
 21
60.75878906249997
 31
0.0
  0
LINE
  5
7BF4
330
1F
100
AcDbEntity
  8
AM_0
  6
CONTINUOUS
 48
0.5
100
AcDbLine
 10
-10.85449218749995
 20
59.83001708984997
 30
0.0
 11
-11.21368408202995
 21
56.19509887695997
 31
0.0
  0
LINE
  5
7BF5
330
1F
100
AcDbEntity
  8
AM_0
  6
CONTINUOUS
 48
0.5
100
AcDbLine
 10
-11.21368408202995
 20
56.19512939453997
 30
0.0
 11
-11.20968627929995
 21
60.75878906249997
 31
0.0
  0
LINE
  5
7BF6
330
1F
100
AcDbEntity
  8
AM_0
  6
CONTINUOUS
 48
0.5
100
AcDbLine
 10
-10.85449218749995
 20
59.83001708984997
 30
0.0
 11
-11.21368408202995
 21
56.19509887695997
 31
0.0
  0
LINE
  5
7BF7
330
1F
100
AcDbEntity
  8
AM_0
  6
CONTINUOUS
 48
0.5
100
AcDbLine
 10
-20.86660766601995
 20
52.28732299804997
 30
0.0
 11
-14.86660766601995
 21
52.28732299804997
 31
0.0
  0
LINE
  5
7BF8
330
1F
100
AcDbEntity
  8
AM_0
  6
CONTINUOUS
 48
0.5
100
AcDbLine
 10
-20.86663818358995
 20
56.28732299804998
 30
0.0
 11
-14.86660766601995
 21
56.28732299804998
 31
0.0
  0
LINE
  5
7BF9
330
1F
100
AcDbEntity
  8
AM_0
  6
CONTINUOUS
 48
0.5
100
AcDbLine
 10
-20.36660766601996
 20
51.78732299804997
 30
0.0
 11
-15.36660766601996
 21
51.78732299804997
 31
0.0
  0
LINE
  5
7BFA
330
1F
100
AcDbEntity
  8
AM_0
  6
CONTINUOUS
 48
0.5
100
AcDbLine
 10
-20.36660766601996
 20
56.78732299804997
 30
0.0
 11
-15.36660766601996
 21
56.78732299804997
 31
0.0
  0
LINE
  5
7BFB
330
1F
100
AcDbEntity
  8
AM_0
  6
CONTINUOUS
 48
0.5
100
AcDbLine
 10
-20.36660766601996
 20
56.78732299804997
 30
0.0
 11
-20.36660766601996
 21
51.78732299804997
 31
0.0
  0
LINE
  5
7BFC
330
1F
100
AcDbEntity
  8
AM_0
  6
CONTINUOUS
 48
0.5
100
AcDbLine
 10
-20.86660766601995
 20
52.28732299804997
 30
0.0
 11
-20.36660766601996
 21
51.78732299804997
 31
0.0
  0
LINE
  5
7BFD
330
1F
100
AcDbEntity
  8
AM_0
  6
CONTINUOUS
 48
0.5
100
AcDbLine
 10
-20.86660766601995
 20
56.28732299804998
 30
0.0
 11
-20.36660766601996
 21
56.78732299804997
 31
0.0
  0
LINE
  5
7BFE
330
1F
100
AcDbEntity
  8
AM_0
  6
CONTINUOUS
 48
0.5
100
AcDbLine
 10
-20.86660766601995
 20
56.28732299804998
 30
0.0
 11
-20.86660766601995
 21
52.28732299804997
 31
0.0
  0
LINE
  5
7BFF
330
1F
100
AcDbEntity
  8
AM_0
  6
CONTINUOUS
 48
0.5
100
AcDbLine
 10
-15.36660766601996
 20
51.78732299804997
 30
0.0
 11
-15.36660766601996
 21
56.78732299804997
 31
0.0
  0
LINE
  5
7C00
330
1F
100
AcDbEntity
  8
AM_0
  6
CONTINUOUS
 48
0.5
100
AcDbLine
 10
-15.36660766601996
 20
51.78732299804997
 30
0.0
 11
-14.86660766601995
 21
52.28732299804997
 31
0.0
  0
LINE
  5
7C01
330
1F
100
AcDbEntity
  8
AM_0
  6
CONTINUOUS
 48
0.5
100
AcDbLine
 10
-14.86660766601995
 20
56.74511718749997
 30
0.0
 11
-14.86660766601995
 21
50.82952880859997
 31
0.0
  0
LINE
  5
7C02
330
1F
100
AcDbEntity
  8
AM_0
  6
CONTINUOUS
 48
0.5
100
AcDbLine
 10
-11.21368408202995
 20
56.19512939453997
 30
0.0
 11
-11.36819458007995
 21
51.72317504882997
 31
0.0
  0
LINE
  5
7C03
330
1F
100
AcDbEntity
  8
AM_0
  6
CONTINUOUS
 48
0.5
100
AcDbLine
 10
-12.23205566405995
 20
56.23443603515998
 30
0.0
 11
-12.36016845702995
 21
51.03521728515997
 31
0.0
  0
LINE
  5
7C04
330
1F
100
AcDbEntity
  8
AM_0
  6
CONTINUOUS
 48
0.5
100
AcDbLine
 10
-11.36819458007995
 20
51.72320556640997
 30
0.0
 11
-10.98208618163995
 21
52.56094360351998
 31
0.0
  0
LINE
  5
7C05
330
1F
100
AcDbEntity
  8
AM_0
  6
CONTINUOUS
 48
0.5
100
AcDbLine
 10
-11.21368408202995
 20
56.19512939453997
 30
0.0
 11
-11.36819458007995
 21
51.72317504882997
 31
0.0
  0
LINE
  5
7C06
330
1F
100
AcDbEntity
  8
AM_0
  6
CONTINUOUS
 48
0.5
100
AcDbLine
 10
-12.23205566405995
 20
56.23443603515998
 30
0.0
 11
-12.36016845702995
 21
51.03521728515997
 31
0.0
  0
LINE
  5
7C07
330
1F
100
AcDbEntity
  8
AM_0
  6
CONTINUOUS
 48
0.5
100
AcDbLine
 10
-11.36819458007995
 20
51.72320556640997
 30
0.0
 11
-10.98208618163995
 21
52.56094360351998
 31
0.0
  0
LINE
  5
7C08
330
1F
100
AcDbEntity
  8
AM_0
  6
CONTINUOUS
 48
0.5
100
AcDbLine
 10
-14.86660766601995
 20
50.82952880859997
 30
0.0
 11
-12.95001220702995
 21
50.82952880859997
 31
0.0
  0
LINE
  5
7C09
330
1F
100
AcDbEntity
  8
AM_0
  6
CONTINUOUS
 48
0.5
100
AcDbLine
 10
-12.36019897460995
 20
51.03521728515997
 30
0.0
 11
-11.36819458007995
 21
51.72320556640997
 31
0.0
  0
LINE
  5
7C0A
330
1F
100
AcDbEntity
  8
AM_0
  6
CONTINUOUS
 48
0.5
100
AcDbLine
 10
-12.36029052733995
 20
50.80371093749997
 30
0.0
 11
-12.36019897460995
 21
51.03521728515997
 31
0.0
  0
LINE
  5
7C0B
330
1F
100
AcDbEntity
  8
AM_0
  6
CONTINUOUS
 48
0.5
100
AcDbLine
 10
-12.50790405272995
 20
51.03253173828997
 30
0.0
 11
-12.36016845702995
 21
51.03524780273997
 31
0.0
  0
LINE
  5
7C0C
330
1F
100
AcDbEntity
  8
AM_0
  6
CONTINUOUS
 48
0.5
100
AcDbLine
 10
-12.50790405272995
 20
51.03247070312997
 30
0.0
 11
-12.50799560546995
 21
50.80087280273997
 31
0.0
  0
LINE
  5
7C0D
330
1F
100
AcDbEntity
  8
AM_0
  6
CONTINUOUS
 48
0.5
100
AcDbLine
 10
-11.54458618163995
 20
50.04312133788997
 30
0.0
 11
-11.77380371093995
 21
50.04690551757997
 31
0.0
  0
LINE
  5
7C0E
330
1F
100
AcDbEntity
  8
AM_0
  6
CONTINUOUS
 48
0.5
100
AcDbLine
 10
-11.53942871093995
 20
50.19232177734997
 30
0.0
 11
-10.77648925780995
 21
51.11550903320997
 31
0.0
  0
LINE
  5
7C0F
330
1F
100
AcDbEntity
  8
AM_0
  6
CONTINUOUS
 48
0.5
100
AcDbLine
 10
-11.76858520507995
 20
50.19601440429998
 30
0.0
 11
-11.53939819335995
 21
50.19232177734997
 31
0.0
  0
LINE
  5
7C10
330
1F
100
AcDbEntity
  8
AM_0
  6
CONTINUOUS
 48
0.5
100
AcDbLine
 10
-11.54458618163995
 20
50.04312133788997
 30
0.0
 11
-11.53939819335995
 21
50.19232177734997
 31
0.0
  0
LINE
  5
7C11
330
1F
100
AcDbEntity
  8
AM_0
  6
CONTINUOUS
 48
0.5
100
AcDbLine
 10
-12.36019897460995
 20
51.03521728515997
 30
0.0
 11
-11.36819458007995
 21
51.72320556640997
 31
0.0
  0
LINE
  5
7C12
330
1F
100
AcDbEntity
  8
AM_0
  6
CONTINUOUS
 48
0.5
100
AcDbLine
 10
-12.36029052733995
 20
50.80371093749997
 30
0.0
 11
-12.36019897460995
 21
51.03521728515997
 31
0.0
  0
LINE
  5
7C13
330
1F
100
AcDbEntity
  8
AM_0
  6
CONTINUOUS
 48
0.5
100
AcDbLine
 10
-12.50790405272995
 20
51.03253173828997
 30
0.0
 11
-12.36016845702995
 21
51.03524780273997
 31
0.0
  0
LINE
  5
7C14
330
1F
100
AcDbEntity
  8
AM_0
  6
CONTINUOUS
 48
0.5
100
AcDbLine
 10
-12.50790405272995
 20
51.03247070312997
 30
0.0
 11
-12.50799560546995
 21
50.80087280273997
 31
0.0
  0
LINE
  5
7C15
330
1F
100
AcDbEntity
  8
AM_0
  6
CONTINUOUS
 48
0.5
100
AcDbLine
 10
-11.54458618163995
 20
50.04312133788997
 30
0.0
 11
-11.77380371093995
 21
50.04690551757997
 31
0.0
  0
LINE
  5
7C16
330
1F
100
AcDbEntity
  8
AM_0
  6
CONTINUOUS
 48
0.5
100
AcDbLine
 10
-11.53942871093995
 20
50.19232177734997
 30
0.0
 11
-10.77648925780995
 21
51.11550903320997
 31
0.0
  0
LINE
  5
7C17
330
1F
100
AcDbEntity
  8
AM_0
  6
CONTINUOUS
 48
0.5
100
AcDbLine
 10
-11.76858520507995
 20
50.19601440429998
 30
0.0
 11
-11.53939819335995
 21
50.19232177734997
 31
0.0
  0
LINE
  5
7C18
330
1F
100
AcDbEntity
  8
AM_0
  6
CONTINUOUS
 48
0.5
100
AcDbLine
 10
-11.54458618163995
 20
50.04312133788997
 30
0.0
 11
-11.53939819335995
 21
50.19232177734997
 31
0.0
  0
LINE
  5
7C19
330
1F
100
AcDbEntity
  8
AM_0
  6
CONTINUOUS
 48
0.5
100
AcDbLine
 10
-14.86660766601995
 20
56.74511718749997
 30
0.0
 11
-12.79882812499995
 21
56.74511718749997
 31
0.0
  0
LINE
  5
7C1A
330
1F
100
AcDbEntity
  8
AM_0
  6
CONTINUOUS
 48
0.5
100
AcDbLine
 10
-15.36660766601996
 20
56.78732299804997
 30
0.0
 11
-14.86660766601995
 21
56.28732299804998
 31
0.0
  0
LINE
  5
7C1B
330
1F
100
AcDbEntity
  8
AM_0
  6
CONTINUOUS
 48
0.5
100
AcDbLine
 10
-14.86660766601995
 20
56.28732299804998
 30
0.0
 11
-14.86660766601995
 21
52.28732299804997
 31
0.0
  0
LINE
  5
7C1C
330
1F
100
AcDbEntity
  8
AM_0
  6
CONTINUOUS
 48
0.5
100
AcDbLine
 10
-12.23208618163995
 20
56.23440551757997
 30
0.0
 11
-11.21365356444995
 21
56.19512939453997
 31
0.0
  0
LINE
  5
7C1D
330
1F
100
AcDbEntity
  8
AM_0
  6
CONTINUOUS
 48
0.5
100
AcDbLine
 10
-10.98208618163995
 20
52.56091308593997
 30
0.0
 11
-11.21368408202995
 21
56.19512939453997
 31
0.0
  0
LINE
  5
7C1E
330
1F
100
AcDbEntity
  8
AM_0
  6
CONTINUOUS
 48
0.5
100
AcDbLine
 10
-12.37969970702995
 20
56.23425292968997
 30
0.0
 11
-12.23208618163995
 21
56.23443603515998
 31
0.0
  0
LINE
  5
7C1F
330
1F
100
AcDbEntity
  8
AM_0
  6
CONTINUOUS
 48
0.5
100
AcDbLine
 10
-12.79879760741995
 20
56.74731445312997
 30
0.0
 11
-12.80758666991995
 21
56.25012207031997
 31
0.0
  0
LINE
  5
7C20
330
1F
100
AcDbEntity
  8
AM_0
  6
CONTINUOUS
 48
0.5
100
AcDbLine
 10
-12.37969970702995
 20
56.25061035156997
 30
0.0
 11
-12.80758666991995
 21
56.25012207031997
 31
0.0
  0
LINE
  5
7C21
330
1F
100
AcDbEntity
  8
AM_0
  6
CONTINUOUS
 48
0.5
100
AcDbLine
 10
-12.23208618163995
 20
56.23440551757997
 30
0.0
 11
-11.21365356444995
 21
56.19512939453997
 31
0.0
  0
LINE
  5
7C22
330
1F
100
AcDbEntity
  8
AM_0
  6
CONTINUOUS
 48
0.5
100
AcDbLine
 10
-10.98208618163995
 20
52.56091308593997
 30
0.0
 11
-11.21368408202995
 21
56.19512939453997
 31
0.0
  0
LINE
  5
7C23
330
1F
100
AcDbEntity
  8
AM_0
  6
CONTINUOUS
 48
0.5
100
AcDbLine
 10
-12.37969970702995
 20
56.23425292968997
 30
0.0
 11
-12.23208618163995
 21
56.23443603515998
 31
0.0
  0
LINE
  5
7C24
330
1F
100
AcDbEntity
  8
AM_0
  6
CONTINUOUS
 48
0.5
100
AcDbLine
 10
-12.79879760741995
 20
56.74731445312997
 30
0.0
 11
-12.80758666991995
 21
56.25012207031997
 31
0.0
  0
LINE
  5
7C25
330
1F
100
AcDbEntity
  8
AM_0
  6
CONTINUOUS
 48
0.5
100
AcDbLine
 10
-12.37969970702995
 20
56.25061035156997
 30
0.0
 11
-12.80758666991995
 21
56.25012207031997
 31
0.0
  0
LINE
  5
7C26
330
1F
100
AcDbEntity
  8
AM_0
  6
CONTINUOUS
 48
0.5
100
AcDbLine
 10
-12.80755615233995
 20
56.25012207031997
 30
0.0
 11
-12.38757324218995
 21
55.99380493163997
 31
0.0
  0
LINE
  5
7C27
330
1F
100
AcDbEntity
  8
AM_0
  6
CONTINUOUS
 48
0.5
100
AcDbLine
 10
-22.91577148436999
 20
61.5
 30
0.0
 11
-12.32434082031
 21
61.5
 31
0.0
  0
LINE
  5
7C28
330
1F
100
AcDbEntity
  8
AM_0
  6
CONTINUOUS
 48
0.5
100
AcDbLine
 10
-10.85446166991995
 20
59.83001708984997
 30
0.0
 11
-11.20968627929995
 21
60.75881958007997
 31
0.0
  0
LINE
  5
7C29
330
1F
100
AcDbEntity
  8
AM_0
  6
CONTINUOUS
 48
0.5
100
AcDbLine
 10
-12.17657470702995
 20
61.49499511718997
 30
0.0
 11
-11.20968627929995
 21
60.75878906249997
 31
0.0
  0
LINE
  5
7C2A
330
1F
100
AcDbEntity
  8
AM_0
  6
CONTINUOUS
 48
0.5
100
AcDbLine
 10
-11.32608032226996
 20
62.48892211913997
 30
0.0
 11
-11.32617187499995
 21
62.33972167968997
 31
0.0
  0
LINE
  5
7C2B
330
1F
100
AcDbEntity
  8
AM_0
  6
CONTINUOUS
 48
0.5
100
AcDbLine
 10
-11.32611083983995
 20
62.48895263671997
 30
0.0
 11
-11.55551147460995
 21
62.48464965820997
 31
0.0
  0
LINE
  5
7C2C
330
1F
100
AcDbEntity
  8
AM_0
  6
CONTINUOUS
 48
0.5
100
AcDbLine
 10
-12.32431030272995
 20
61.49740600585997
 30
0.0
 11
-12.31619262694995
 21
61.72900390624997
 31
0.0
  0
LINE
  5
7C2D
330
1F
100
AcDbEntity
  8
AM_0
  6
CONTINUOUS
 48
0.5
100
AcDbLine
 10
-12.32431030272995
 20
61.49740600585997
 30
0.0
 11
-12.17657470702995
 21
61.49502563476997
 31
0.0
  0
LINE
  5
7C2E
330
1F
100
AcDbEntity
  8
AM_0
  6
CONTINUOUS
 48
0.5
100
AcDbLine
 10
-12.16860961913995
 20
61.72650146484997
 30
0.0
 11
-12.17660522460995
 21
61.49502563476997
 31
0.0
  0
LINE
  5
7C2F
330
1F
100
AcDbEntity
  8
AM_0
  6
CONTINUOUS
 48
0.5
100
AcDbLine
 10
-11.32623291015995
 20
62.33969116210997
 30
0.0
 11
-10.59661865233995
 21
61.36782836913997
 31
0.0
  0
LINE
  5
7C30
330
1F
100
AcDbEntity
  8
AM_0
  6
CONTINUOUS
 48
0.5
100
AcDbLine
 10
-11.55548095702995
 20
62.33551025390998
 30
0.0
 11
-11.32620239257995
 21
62.33972167968997
 31
0.0
  0
LINE
  5
7C31
330
1F
100
AcDbEntity
  8
AM_0
  6
CONTINUOUS
 48
0.5
100
AcDbLine
 10
-11.20968627929995
 20
60.75885009765997
 30
0.0
 11
-11.00588989257995
 21
61.16885375976997
 31
0.0
  0
LINE
  5
7C32
330
1F
100
AcDbEntity
  8
AM_0
  6
CONTINUOUS
 48
0.5
100
AcDbLine
 10
-10.85446166991995
 20
59.83001708984997
 30
0.0
 11
-11.20968627929995
 21
60.75881958007997
 31
0.0
  0
LINE
  5
7C33
330
1F
100
AcDbEntity
  8
AM_0
  6
CONTINUOUS
 48
0.5
100
AcDbLine
 10
-12.17657470702995
 20
61.49499511718997
 30
0.0
 11
-11.20968627929995
 21
60.75878906249997
 31
0.0
  0
LINE
  5
7C34
330
1F
100
AcDbEntity
  8
AM_0
  6
CONTINUOUS
 48
0.5
100
AcDbLine
 10
-11.32608032226996
 20
62.48892211913997
 30
0.0
 11
-11.32617187499995
 21
62.33972167968997
 31
0.0
  0
LINE
  5
7C35
330
1F
100
AcDbEntity
  8
AM_0
  6
CONTINUOUS
 48
0.5
100
AcDbLine
 10
-11.32611083983995
 20
62.48895263671997
 30
0.0
 11
-11.55551147460995
 21
62.48464965820997
 31
0.0
  0
LINE
  5
7C36
330
1F
100
AcDbEntity
  8
AM_0
  6
CONTINUOUS
 48
0.5
100
AcDbLine
 10
-12.32431030272995
 20
61.49740600585997
 30
0.0
 11
-12.31619262694995
 21
61.72900390624997
 31
0.0
  0
LINE
  5
7C37
330
1F
100
AcDbEntity
  8
AM_0
  6
CONTINUOUS
 48
0.5
100
AcDbLine
 10
-12.32431030272995
 20
61.49740600585997
 30
0.0
 11
-12.17657470702995
 21
61.49502563476997
 31
0.0
  0
LINE
  5
7C38
330
1F
100
AcDbEntity
  8
AM_0
  6
CONTINUOUS
 48
0.5
100
AcDbLine
 10
-12.16860961913995
 20
61.72650146484997
 30
0.0
 11
-12.17660522460995
 21
61.49502563476997
 31
0.0
  0
LINE
  5
7C39
330
1F
100
AcDbEntity
  8
AM_0
  6
CONTINUOUS
 48
0.5
100
AcDbLine
 10
-11.32623291015995
 20
62.33969116210997
 30
0.0
 11
-10.59661865233995
 21
61.36782836913997
 31
0.0
  0
LINE
  5
7C3A
330
1F
100
AcDbEntity
  8
AM_0
  6
CONTINUOUS
 48
0.5
100
AcDbLine
 10
-11.55548095702995
 20
62.33551025390998
 30
0.0
 11
-11.32620239257995
 21
62.33972167968997
 31
0.0
  0
LINE
  5
7C3B
330
1F
100
AcDbEntity
  8
AM_0
  6
CONTINUOUS
 48
0.5
100
AcDbLine
 10
-11.20968627929995
 20
60.75885009765997
 30
0.0
 11
-11.00588989257995
 21
61.16885375976997
 31
0.0
  0
LINE
  5
7C3C
330
1F
100
AcDbEntity
  8
AM_0
  6
CONTINUOUS
 48
0.5
100
AcDbLine
 10
-1.061584472659959
 20
56.20602416992998
 30
0.0
 11
-1.057495117189958
 21
60.76971435546997
 31
0.0
  0
LINE
  5
7C3D
330
1F
100
AcDbEntity
  8
AM_0
  6
CONTINUOUS
 48
0.5
100
AcDbLine
 10
-1.293182373049958
 20
59.84030151367997
 30
0.0
 11
-1.061584472659959
 21
56.20599365234998
 31
0.0
  0
LINE
  5
7C3E
330
1F
100
AcDbEntity
  8
AM_0
  6
CONTINUOUS
 48
0.5
100
AcDbLine
 10
-0.1752624511699565
 20
56.24740600585997
 30
0.0
 11
-0.1477661132799568
 21
61.50790405273998
 31
0.0
  0
LINE
  5
7C3F
330
1F
100
AcDbEntity
  8
AM_0
  6
CONTINUOUS
 48
0.5
100
AcDbLine
 10
-1.061584472659959
 20
56.20602416992998
 30
0.0
 11
-1.057495117189958
 21
60.76971435546997
 31
0.0
  0
LINE
  5
7C40
330
1F
100
AcDbEntity
  8
AM_0
  6
CONTINUOUS
 48
0.5
100
AcDbLine
 10
-1.293182373049958
 20
59.84030151367997
 30
0.0
 11
-1.061584472659959
 21
56.20599365234998
 31
0.0
  0
LINE
  5
7C41
330
1F
100
AcDbEntity
  8
AM_0
  6
CONTINUOUS
 48
0.5
100
AcDbLine
 10
-0.1752624511699565
 20
56.24740600585997
 30
0.0
 11
-0.1477661132799568
 21
61.50790405273998
 31
0.0
  0
LINE
  5
7C42
330
1F
100
AcDbEntity
  8
AM_0
  6
CONTINUOUS
 48
0.5
100
AcDbLine
 10
-6.227569580079958
 20
51.07440185546997
 30
0.0
 11
-1.829162597659959
 21
51.12521362304997
 31
0.0
  0
LINE
  5
7C43
330
1F
100
AcDbEntity
  8
AM_0
  6
CONTINUOUS
 48
0.5
100
AcDbLine
 10
-6.310455322269959
 20
50.15304565429997
 30
0.0
 11
-1.181793212889957
 21
50.20343017578998
 31
0.0
  0
LINE
  5
7C44
330
1F
100
AcDbEntity
  8
AM_0
  6
CONTINUOUS
 48
0.5
100
AcDbLine
 10
-1.829193115229955
 20
51.12518310546997
 30
0.0
 11
-2.623260498049958
 21
51.37658691406997
 31
0.0
  0
LINE
  5
7C45
330
1F
100
AcDbEntity
  8
AM_0
  6
CONTINUOUS
 48
0.5
100
AcDbLine
 10
-6.227569580079958
 20
51.07440185546997
 30
0.0
 11
-1.829162597659959
 21
51.12521362304997
 31
0.0
  0
LINE
  5
7C46
330
1F
100
AcDbEntity
  8
AM_0
  6
CONTINUOUS
 48
0.5
100
AcDbLine
 10
-6.310455322269959
 20
50.15304565429997
 30
0.0
 11
-1.181793212889957
 21
50.20343017578998
 31
0.0
  0
LINE
  5
7C47
330
1F
100
AcDbEntity
  8
AM_0
  6
CONTINUOUS
 48
0.5
100
AcDbLine
 10
-1.829193115229955
 20
51.12518310546997
 30
0.0
 11
-2.623260498049958
 21
51.37658691406997
 31
0.0
  0
LINE
  5
7C48
330
1F
100
AcDbEntity
  8
AM_0
  6
CONTINUOUS
 48
0.5
100
AcDbLine
 10
-6.227600097659959
 20
51.07440185546997
 30
0.0
 11
-9.821502685549958
 21
51.36892700195997
 31
0.0
  0
LINE
  5
7C49
330
1F
100
AcDbEntity
  8
AM_0
  6
CONTINUOUS
 48
0.5
100
AcDbLine
 10
-6.227600097659959
 20
51.07440185546997
 30
0.0
 11
-9.821502685549958
 21
51.36892700195997
 31
0.0
  0
LINE
  5
7C4A
330
1F
100
AcDbEntity
  8
AM_0
  6
CONTINUOUS
 48
0.5
100
AcDbLine
 10
-2.623291015619955
 20
51.37661743163997
 30
0.0
 11
-6.227600097659959
 21
51.07440185546997
 31
0.0
  0
LINE
  5
7C4B
330
1F
100
AcDbEntity
  8
AM_0
  6
CONTINUOUS
 48
0.5
100
AcDbLine
 10
-6.310485839839955
 20
50.15298461913997
 30
0.0
 11
-6.227600097659959
 21
51.07440185546997
 31
0.0
  0
LINE
  5
7C4C
330
1F
100
AcDbEntity
  8
AM_0
  6
CONTINUOUS
 48
0.5
100
AcDbLine
 10
-6.313110351559956
 20
50.00384521484997
 30
0.0
 11
-6.310485839839955
 21
50.15304565429997
 31
0.0
  0
LINE
  5
7C4D
330
1F
100
AcDbEntity
  8
AM_0
  6
CONTINUOUS
 48
0.5
100
AcDbLine
 10
-2.623291015619955
 20
51.37661743163997
 30
0.0
 11
-6.227600097659959
 21
51.07440185546997
 31
0.0
  0
LINE
  5
7C4E
330
1F
100
AcDbEntity
  8
AM_0
  6
CONTINUOUS
 48
0.5
100
AcDbLine
 10
-6.310485839839955
 20
50.15298461913997
 30
0.0
 11
-6.227600097659959
 21
51.07440185546997
 31
0.0
  0
LINE
  5
7C4F
330
1F
100
AcDbEntity
  8
AM_0
  6
CONTINUOUS
 48
0.5
100
AcDbLine
 10
-6.313110351559956
 20
50.00384521484997
 30
0.0
 11
-6.310485839839955
 21
50.15304565429997
 31
0.0
  0
LINE
  5
7C50
330
1F
100
AcDbEntity
  8
AM_0
  6
CONTINUOUS
 48
0.5
100
AcDbLine
 10
-1.061584472659959
 20
56.20602416992998
 30
0.0
 11
-1.216094970699955
 21
51.73406982421997
 31
0.0
  0
LINE
  5
7C51
330
1F
100
AcDbEntity
  8
AM_0
  6
CONTINUOUS
 48
0.5
100
AcDbLine
 10
-1.420806884769959
 20
52.57110595703998
 30
0.0
 11
-1.216094970699955
 21
51.73410034179998
 31
0.0
  0
LINE
  5
7C52
330
1F
100
AcDbEntity
  8
AM_0
  6
CONTINUOUS
 48
0.5
100
AcDbLine
 10
-0.1752929687499574
 20
56.24743652343997
 30
0.0
 11
-0.3312988281199551
 21
51.04812622070998
 31
0.0
  0
LINE
  5
7C53
330
1F
100
AcDbEntity
  8
AM_0
  6
CONTINUOUS
 48
0.5
100
AcDbLine
 10
-1.061584472659959
 20
56.20602416992998
 30
0.0
 11
-1.216094970699955
 21
51.73406982421997
 31
0.0
  0
LINE
  5
7C54
330
1F
100
AcDbEntity
  8
AM_0
  6
CONTINUOUS
 48
0.5
100
AcDbLine
 10
-1.420806884769959
 20
52.57110595703998
 30
0.0
 11
-1.216094970699955
 21
51.73410034179998
 31
0.0
  0
LINE
  5
7C55
330
1F
100
AcDbEntity
  8
AM_0
  6
CONTINUOUS
 48
0.5
100
AcDbLine
 10
-0.1752929687499574
 20
56.24743652343997
 30
0.0
 11
-0.3312988281199551
 21
51.04812622070998
 31
0.0
  0
LINE
  5
7C56
330
1F
100
AcDbEntity
  8
AM_0
  6
CONTINUOUS
 48
0.5
100
AcDbLine
 10
-0.9999389648399983
 20
47.29998779295999
 30
0.0
 11
-0.9033813476600016
 21
50.064453125
 31
0.0
  0
LINE
  5
7C57
330
1F
100
AcDbEntity
  8
AM_0
  6
CONTINUOUS
 48
0.5
100
AcDbLine
 10
-1.181793212889957
 20
50.20339965820998
 30
0.0
 11
-1.829193115229955
 21
51.12521362304997
 31
0.0
  0
LINE
  5
7C58
330
1F
100
AcDbEntity
  8
AM_0
  6
CONTINUOUS
 48
0.5
100
AcDbLine
 10
-0.3312988281199551
 20
51.04815673828998
 30
0.0
 11
-1.216094970699955
 21
51.73413085937998
 31
0.0
  0
LINE
  5
7C59
330
1F
100
AcDbEntity
  8
AM_0
  6
CONTINUOUS
 48
0.5
100
AcDbLine
 10
-0.9523925781199551
 20
50.20764160156997
 30
0.0
 11
-1.181793212889957
 21
50.20343017578998
 31
0.0
  0
LINE
  5
7C5A
330
1F
100
AcDbEntity
  8
AM_0
  6
CONTINUOUS
 48
0.5
100
AcDbLine
 10
-1.181793212889957
 20
50.05422973632997
 30
0.0
 11
-1.181793212889957
 21
50.20339965820998
 31
0.0
  0
LINE
  5
7C5B
330
1F
100
AcDbEntity
  8
AM_0
  6
CONTINUOUS
 48
0.5
100
AcDbLine
 10
-1.181793212889957
 20
50.05422973632997
 30
0.0
 11
-0.9524841308599576
 21
50.05850219726998
 31
0.0
  0
LINE
  5
7C5C
330
1F
100
AcDbEntity
  8
AM_0
  6
CONTINUOUS
 48
0.5
100
AcDbLine
 10
-0.1836853027299554
 20
51.04574584960997
 30
0.0
 11
-0.1917114257799568
 21
50.81420898437997
 31
0.0
  0
LINE
  5
7C5D
330
1F
100
AcDbEntity
  8
AM_0
  6
CONTINUOUS
 48
0.5
100
AcDbLine
 10
-0.1836853027299554
 20
51.04571533203998
 30
0.0
 11
-0.3312683105499587
 21
51.04812622070998
 31
0.0
  0
LINE
  5
7C5E
330
1F
100
AcDbEntity
  8
AM_0
  6
CONTINUOUS
 48
0.5
100
AcDbLine
 10
-0.3393859863299582
 20
50.81665039062997
 30
0.0
 11
-0.3312988281199551
 21
51.04812622070998
 31
0.0
  0
LINE
  5
7C5F
330
1F
100
AcDbEntity
  8
AM_0
  6
CONTINUOUS
 48
0.5
100
AcDbLine
 10
-1.181793212889957
 20
50.20339965820998
 30
0.0
 11
-1.829193115229955
 21
51.12521362304997
 31
0.0
  0
LINE
  5
7C60
330
1F
100
AcDbEntity
  8
AM_0
  6
CONTINUOUS
 48
0.5
100
AcDbLine
 10
-0.3312988281199551
 20
51.04815673828998
 30
0.0
 11
-1.216094970699955
 21
51.73413085937998
 31
0.0
  0
LINE
  5
7C61
330
1F
100
AcDbEntity
  8
AM_0
  6
CONTINUOUS
 48
0.5
100
AcDbLine
 10
-0.9523925781199551
 20
50.20764160156997
 30
0.0
 11
-1.181793212889957
 21
50.20343017578998
 31
0.0
  0
LINE
  5
7C62
330
1F
100
AcDbEntity
  8
AM_0
  6
CONTINUOUS
 48
0.5
100
AcDbLine
 10
-1.181793212889957
 20
50.05422973632997
 30
0.0
 11
-1.181793212889957
 21
50.20339965820998
 31
0.0
  0
LINE
  5
7C63
330
1F
100
AcDbEntity
  8
AM_0
  6
CONTINUOUS
 48
0.5
100
AcDbLine
 10
-1.181793212889957
 20
50.05422973632997
 30
0.0
 11
-0.9524841308599576
 21
50.05850219726998
 31
0.0
  0
LINE
  5
7C64
330
1F
100
AcDbEntity
  8
AM_0
  6
CONTINUOUS
 48
0.5
100
AcDbLine
 10
-0.1836853027299554
 20
51.04574584960997
 30
0.0
 11
-0.1917114257799568
 21
50.81420898437997
 31
0.0
  0
LINE
  5
7C65
330
1F
100
AcDbEntity
  8
AM_0
  6
CONTINUOUS
 48
0.5
100
AcDbLine
 10
-0.1836853027299554
 20
51.04571533203998
 30
0.0
 11
-0.3312683105499587
 21
51.04812622070998
 31
0.0
  0
LINE
  5
7C66
330
1F
100
AcDbEntity
  8
AM_0
  6
CONTINUOUS
 48
0.5
100
AcDbLine
 10
-0.3393859863299582
 20
50.81665039062997
 30
0.0
 11
-0.3312988281199551
 21
51.04812622070998
 31
0.0
  0
LINE
  5
7C67
330
1F
100
AcDbEntity
  8
AM_0
  6
CONTINUOUS
 48
0.5
100
AcDbLine
 10
-0.1752929687499574
 20
56.24740600585997
 30
0.0
 11
-1.061553955079958
 21
56.20602416992998
 31
0.0
  0
LINE
  5
7C68
330
1F
100
AcDbEntity
  8
AM_0
  6
CONTINUOUS
 48
0.5
100
AcDbLine
 10
-1.420806884769959
 20
52.57113647460997
 30
0.0
 11
-1.061584472659959
 21
56.20605468749997
 31
0.0
  0
LINE
  5
7C69
330
1F
100
AcDbEntity
  8
AM_0
  6
CONTINUOUS
 48
0.5
100
AcDbLine
 10
-0.027618408199956
 20
56.24752807617998
 30
0.0
 11
-0.1753234863299582
 21
56.24740600585997
 31
0.0
  0
LINE
  5
7C6A
330
1F
100
AcDbEntity
  8
AM_0
  6
CONTINUOUS
 48
0.5
100
AcDbLine
 10
-0.1752929687499574
 20
56.24740600585997
 30
0.0
 11
-1.061553955079958
 21
56.20602416992998
 31
0.0
  0
LINE
  5
7C6B
330
1F
100
AcDbEntity
  8
AM_0
  6
CONTINUOUS
 48
0.5
100
AcDbLine
 10
-1.420806884769959
 20
52.57113647460997
 30
0.0
 11
-1.061584472659959
 21
56.20605468749997
 31
0.0
  0
LINE
  5
7C6C
330
1F
100
AcDbEntity
  8
AM_0
  6
CONTINUOUS
 48
0.5
100
AcDbLine
 10
-0.027618408199956
 20
56.24752807617998
 30
0.0
 11
-0.1753234863299582
 21
56.24740600585997
 31
0.0
  0
LINE
  5
7C6D
330
1F
100
AcDbEntity
  8
AM_0
  6
CONTINUOUS
 48
0.5
100
AcDbLine
 10
-6.047698974609957
 20
61.32672119140997
 30
0.0
 11
-1.649200439449955
 21
61.37741088867997
 31
0.0
  0
LINE
  5
7C6E
330
1F
100
AcDbEntity
  8
AM_0
  6
CONTINUOUS
 48
0.5
100
AcDbLine
 10
-2.453796386719957
 20
61.03234863281997
 30
0.0
 11
-1.649200439449955
 21
61.37744140624997
 31
0.0
  0
LINE
  5
7C6F
330
1F
100
AcDbEntity
  8
AM_0
  6
CONTINUOUS
 48
0.5
100
AcDbLine
 10
-6.047698974609957
 20
61.32672119140997
 30
0.0
 11
-1.649200439449955
 21
61.37741088867997
 31
0.0
  0
LINE
  5
7C70
330
1F
100
AcDbEntity
  8
AM_0
  6
CONTINUOUS
 48
0.5
100
AcDbLine
 10
-2.453796386719957
 20
61.03234863281997
 30
0.0
 11
-1.649200439449955
 21
61.37744140624997
 31
0.0
  0
LINE
  5
7C71
330
1F
100
AcDbEntity
  8
AM_0
  6
CONTINUOUS
 48
0.5
100
AcDbLine
 10
-9.652008056639957
 20
61.02453613281998
 30
0.0
 11
-6.047698974609957
 21
61.32675170898997
 31
0.0
  0
LINE
  5
7C72
330
1F
100
AcDbEntity
  8
AM_0
  6
CONTINUOUS
 48
0.5
100
AcDbLine
 10
-9.652008056639957
 20
61.02453613281998
 30
0.0
 11
-6.047698974609957
 21
61.32675170898997
 31
0.0
  0
LINE
  5
7C73
330
1F
100
AcDbEntity
  8
AM_0
  6
CONTINUOUS
 48
0.5
100
AcDbLine
 10
-6.096801757809956
 20
62.32882690429997
 30
0.0
 11
-6.047698974609957
 21
61.32672119140997
 31
0.0
  0
LINE
  5
7C74
330
1F
100
AcDbEntity
  8
AM_0
  6
CONTINUOUS
 48
0.5
100
AcDbLine
 10
-2.453796386719957
 20
61.03231811523997
 30
0.0
 11
-6.047698974609957
 21
61.32672119140997
 31
0.0
  0
LINE
  5
7C75
330
1F
100
AcDbEntity
  8
AM_0
  6
CONTINUOUS
 48
0.5
100
AcDbLine
 10
-6.094207763669956
 20
62.47790527343997
 30
0.0
 11
-6.096801757809956
 21
62.32882690429997
 31
0.0
  0
LINE
  5
7C76
330
1F
100
AcDbEntity
  8
AM_0
  6
CONTINUOUS
 48
0.5
100
AcDbLine
 10
-6.096801757809956
 20
62.32882690429997
 30
0.0
 11
-6.047698974609957
 21
61.32672119140997
 31
0.0
  0
LINE
  5
7C77
330
1F
100
AcDbEntity
  8
AM_0
  6
CONTINUOUS
 48
0.5
100
AcDbLine
 10
-2.453796386719957
 20
61.03231811523997
 30
0.0
 11
-6.047698974609957
 21
61.32672119140997
 31
0.0
  0
LINE
  5
7C78
330
1F
100
AcDbEntity
  8
AM_0
  6
CONTINUOUS
 48
0.5
100
AcDbLine
 10
-6.094207763669956
 20
62.47790527343997
 30
0.0
 11
-6.096801757809956
 21
62.32882690429997
 31
0.0
  0
LINE
  5
7C79
330
1F
100
AcDbEntity
  8
AM_0
  6
CONTINUOUS
 48
0.5
100
AcDbLine
 10
-1.057495117189958
 20
60.76971435546997
 30
0.0
 11
-1.293182373049958
 21
59.84030151367997
 31
0.0
  0
LINE
  5
7C7A
330
1F
100
AcDbEntity
  8
AM_0
  6
CONTINUOUS
 48
0.5
100
AcDbLine
 10
-0.9685974121099576
 20
62.35089111328997
 30
0.0
 11
-1.649200439449955
 21
61.37741088867997
 31
0.0
  0
LINE
  5
7C7B
330
1F
100
AcDbEntity
  8
AM_0
  6
CONTINUOUS
 48
0.5
100
AcDbLine
 10
-1.649169921869955
 20
61.37741088867997
 30
0.0
 11
-1.393676757809956
 21
61.29782104492997
 31
0.0
  0
LINE
  5
7C7C
330
1F
100
AcDbEntity
  8
AM_0
  6
CONTINUOUS
 48
0.5
100
AcDbLine
 10
-0.1477661132799568
 20
61.50787353515998
 30
0.0
 11
-1.057464599609957
 21
60.76971435546997
 31
0.0
  0
LINE
  5
7C7D
330
1F
100
AcDbEntity
  8
AM_0
  6
CONTINUOUS
 48
0.5
100
AcDbLine
 10
-0.1477050781199551
 20
61.73941040038997
 30
0.0
 11
-0.1477966308599576
 21
61.50790405273998
 31
0.0
  0
LINE
  5
7C7E
330
1F
100
AcDbEntity
  8
AM_0
  6
CONTINUOUS
 48
0.5
100
AcDbLine
 10
0.0000000000000426
 20
61.51071166992998
 30
0.0
 11
-0.1477966308599576
 21
61.50790405273998
 31
0.0
  0
LINE
  5
7C7F
330
1F
100
AcDbEntity
  8
AM_0
  6
CONTINUOUS
 48
0.5
100
AcDbLine
 10
0.0000000000000426
 20
61.51071166992998
 30
0.0
 11
0.0000915527300407
 21
61.74221801757997
 31
0.0
  0
LINE
  5
7C80
330
1F
100
AcDbEntity
  8
AM_0
  6
CONTINUOUS
 48
0.5
100
AcDbLine
 10
-0.9634094238299582
 20
62.49999999999997
 30
0.0
 11
-0.7341918945299569
 21
62.49630737304997
 31
0.0
  0
LINE
  5
7C81
330
1F
100
AcDbEntity
  8
AM_0
  6
CONTINUOUS
 48
0.5
100
AcDbLine
 10
-0.9633789062499573
 20
62.49999999999997
 30
0.0
 11
-0.9685668945299568
 21
62.35092163085997
 31
0.0
  0
LINE
  5
7C82
330
1F
100
AcDbEntity
  8
AM_0
  6
CONTINUOUS
 48
0.5
100
AcDbLine
 10
-0.7394104003899571
 20
62.34707641601997
 30
0.0
 11
-0.9685974121099576
 21
62.35089111328997
 31
0.0
  0
LINE
  5
7C83
330
1F
100
AcDbEntity
  8
AM_0
  6
CONTINUOUS
 48
0.5
100
AcDbLine
 10
-1.057495117189958
 20
60.76971435546997
 30
0.0
 11
-1.293182373049958
 21
59.84030151367997
 31
0.0
  0
LINE
  5
7C84
330
1F
100
AcDbEntity
  8
AM_0
  6
CONTINUOUS
 48
0.5
100
AcDbLine
 10
-0.9685974121099576
 20
62.35089111328997
 30
0.0
 11
-1.649200439449955
 21
61.37741088867997
 31
0.0
  0
LINE
  5
7C85
330
1F
100
AcDbEntity
  8
AM_0
  6
CONTINUOUS
 48
0.5
100
AcDbLine
 10
-1.649169921869955
 20
61.37741088867997
 30
0.0
 11
-1.393676757809956
 21
61.29782104492997
 31
0.0
  0
LINE
  5
7C86
330
1F
100
AcDbEntity
  8
AM_0
  6
CONTINUOUS
 48
0.5
100
AcDbLine
 10
-0.1477661132799568
 20
61.50787353515998
 30
0.0
 11
-1.057464599609957
 21
60.76971435546997
 31
0.0
  0
LINE
  5
7C87
330
1F
100
AcDbEntity
  8
AM_0
  6
CONTINUOUS
 48
0.5
100
AcDbLine
 10
-0.1477050781199551
 20
61.73941040038997
 30
0.0
 11
-0.1477966308599576
 21
61.50790405273998
 31
0.0
  0
LINE
  5
7C88
330
1F
100
AcDbEntity
  8
AM_0
  6
CONTINUOUS
 48
0.5
100
AcDbLine
 10
0.0000000000000426
 20
61.51071166992998
 30
0.0
 11
-0.1477966308599576
 21
61.50790405273998
 31
0.0
  0
LINE
  5
7C89
330
1F
100
AcDbEntity
  8
AM_0
  6
CONTINUOUS
 48
0.5
100
AcDbLine
 10
0.0000000000000426
 20
61.51071166992998
 30
0.0
 11
0.0000915527300407
 21
61.74221801757997
 31
0.0
  0
LINE
  5
7C8A
330
1F
100
AcDbEntity
  8
AM_0
  6
CONTINUOUS
 48
0.5
100
AcDbLine
 10
-0.9634094238299582
 20
62.49999999999997
 30
0.0
 11
-0.7341918945299569
 21
62.49630737304997
 31
0.0
  0
LINE
  5
7C8B
330
1F
100
AcDbEntity
  8
AM_0
  6
CONTINUOUS
 48
0.5
100
AcDbLine
 10
-0.9633789062499573
 20
62.49999999999997
 30
0.0
 11
-0.9685668945299568
 21
62.35092163085997
 31
0.0
  0
LINE
  5
7C8C
330
1F
100
AcDbEntity
  8
AM_0
  6
CONTINUOUS
 48
0.5
100
AcDbLine
 10
-0.7394104003899571
 20
62.34707641601997
 30
0.0
 11
-0.9685974121099576
 21
62.35089111328997
 31
0.0
  0
LINE
  5
7E54
330
1F
100
AcDbEntity
  8
AM_11
100
AcDbLine
 10
0.0000000000000426
 20
62.49999999999998
 30
0.0
 11
-0.9634094238299582
 21
62.49999999999998
 31
0.0
  0
ELLIPSE
  5
7E59
330
1F
100
AcDbEntity
  8
AM_0
  6
CONTINUOUS
 48
0.5
100
AcDbEllipse
 10
-9.367584228520001
 20
-51.81271362304997
 30
0.0
 11
-19.04058802678997
 21
-0.0036618168300038
 31
0.0
210
0.0
220
0.0
230
-1.0
 40
0.0278400184638
 41
1.383234555763581
 42
1.405253043541752
  0
ELLIPSE
  5
7E5A
330
1F
100
AcDbEntity
  8
AM_0
  6
CONTINUOUS
 48
0.5
100
AcDbEllipse
 10
-13.74209594727
 20
-52.99752807617998
 30
0.0
 11
0.0010070694499973
 21
-5.174407860980011
 31
0.0
210
0.0
220
0.0
230
-1.0
 40
0.168676830527
 41
4.275964000445484
 42
4.376478989764152
  0
ELLIPSE
  5
7E5B
330
1F
100
AcDbEntity
  8
AM_0
  6
CONTINUOUS
 48
0.5
100
AcDbEllipse
 10
-1.005004882809998
 20
-50.88092041015997
 30
0.0
 11
-0.5205993684600117
 21
-0.6557617228099844
 31
0.0
210
0.0
220
0.0
230
-1.0
 40
0.9537956027345
 41
2.512058668530255
 42
3.984086540768415
  0
SPLINE
  5
7E5C
330
1F
100
AcDbEntity
  8
AM_0
  6
CONTINUOUS
 48
0.5
100
AcDbSpline
210
0.0
220
0.0
230
1.0
 70
     8
 71
     3
 72
    11
 73
     7
 74
     5
 42
0.0000000001
 43
0.0000000001
 44
0.0000000001
 40
0.0
 40
0.0
 40
0.0
 40
0.0
 40
0.2318546702925989
 40
0.4655464237367814
 40
0.6985022819022637
 40
0.9283956541692576
 40
0.9283956541692576
 40
0.9283956541692576
 40
0.9283956541692576
 10
-0.3393859863300008
 20
-50.81661987304997
 30
0.0
 10
-0.3549038544853822
 20
-50.73970350768194
 30
0.0
 10
-0.3860625454646914
 20
-50.58526133587347
 30
0.0
 10
-0.5372141248984372
 20
-50.40101600499809
 30
0.0
 10
-0.7219704721643259
 20
-50.25122975544899
 30
0.0
 10
-0.8759247605257149
 20
-50.22208636447142
 30
0.0
 10
-0.9523925781199977
 20
-50.20761108398997
 30
0.0
 11
-0.3393859863300008
 21
-50.81661987304997
 31
0.0
 11
-0.4031982421900011
 21
-50.59371948242997
 31
0.0
 11
-0.5430908203099989
 21
-50.40652465820997
 31
0.0
 11
-0.7306823730500014
 21
-50.26840209960997
 31
0.0
 11
-0.9523925781199977
 21
-50.20761108398997
 31
0.0
  0
SPLINE
  5
7E5D
330
1F
100
AcDbEntity
  8
AM_0
  6
CONTINUOUS
 48
0.5
100
AcDbSpline
210
0.0
220
0.0
230
1.0
 70
     8
 71
     3
 72
    11
 73
     7
 74
     5
 42
0.0000000001
 43
0.0000000001
 44
0.0000000001
 40
0.0
 40
0.0
 40
0.0
 40
0.0
 40
0.1157883727059974
 40
0.2316726021815644
 40
0.348672336207972
 40
0.4653681232784147
 40
0.4653681232784147
 40
0.4653681232784147
 40
0.4653681232784147
 10
-1.829193115229998
 20
-51.12521362304997
 30
0.0
 10
-1.790579481495599
 20
-51.12904199021899
 30
0.0
 10
-1.713320247274836
 20
-51.13670189391596
 30
0.0
 10
-1.605110668129185
 20
-51.18273467667824
 30
0.0
 10
-1.505941873353875
 20
-51.2447933749227
 30
0.0
 10
-1.448549981223324
 20
-51.2977055291968
 30
0.0
 10
-1.419891357419999
 20
-51.32412719726997
 30
0.0
 11
-1.829193115229998
 21
-51.12521362304997
 31
0.0
 11
-1.71469116211
 21
-51.14242553710997
 31
0.0
 11
-1.606994628910001
 21
-51.18521118163997
 31
0.0
 11
-1.508087158199998
 21
-51.24771118163997
 31
0.0
 11
-1.419891357419999
 21
-51.32412719726997
 31
0.0
  0
SPLINE
  5
7E5E
330
1F
100
AcDbEntity
  8
AM_0
  6
CONTINUOUS
 48
0.5
100
AcDbSpline
210
0.0
220
0.0
230
1.0
 70
     8
 71
     3
 72
    11
 73
     7
 74
     5
 42
0.0000000001
 43
0.0000000001
 44
0.0000000001
 40
0.0
 40
0.0
 40
0.0
 40
0.0
 40
0.1166776693056477
 40
0.2345247537705004
 40
0.3513980179900764
 40
0.467929560885135
 40
0.467929560885135
 40
0.467929560885135
 40
0.467929560885135
 10
-1.419891357419999
 20
-51.32412719726997
 30
0.0
 10
-1.393237940415663
 20
-51.35256640885009
 30
0.0
 10
-1.339663969515461
 20
-51.40972986723031
 30
0.0
 10
-1.276782928691014
 20
-51.50910861514219
 30
0.0
 10
-1.2293431186461
 20
-51.6175958252165
 30
0.0
 10
-1.220506707636211
 20
-51.69530342609991
 30
0.0
 10
-1.216094970699998
 20
-51.73410034179998
 30
0.0
 11
-1.419891357419999
 21
-51.32412719726997
 31
0.0
 11
-1.34280395508
 21
-51.41171264648997
 31
0.0
 11
-1.279205322270001
 21
-51.51092529296997
 31
0.0
 11
-1.234985351559998
 21
-51.61911010742997
 31
0.0
 11
-1.216094970699998
 21
-51.73410034179998
 31
0.0
  0
SPLINE
  5
7E5F
330
1F
100
AcDbEntity
  8
AM_0
  6
CONTINUOUS
 48
0.5
100
AcDbSpline
210
0.0
220
0.0
230
1.0
 70
     8
 71
     3
 72
    11
 73
     7
 74
     5
 42
0.0000000001
 43
0.0000000001
 44
0.0000000001
 40
0.0
 40
0.0
 40
0.0
 40
0.0
 40
1.293055165931382
 40
2.591414527039193
 40
3.895150879892812
 40
5.204172192223971
 40
5.204172192223971
 40
5.204172192223971
 40
5.204172192223971
 10
-0.0275878906199978
 20
-56.24752807617998
 30
0.0
 10
-0.0387796435762123
 20
-55.81665481169501
 30
0.0
 10
-0.0612090587766672
 20
-54.95314081297486
 30
0.0
 10
-0.0987558978544416
 20
-53.65529851905098
 30
0.0
 10
-0.1393427873959446
 20
-52.35222326925932
 30
0.0
 10
-0.1688845457400125
 20
-51.48180485782789
 30
0.0
 10
-0.183685302729998
 20
-51.04571533203998
 30
0.0
 11
-0.0275878906199978
 21
-56.24752807617998
 31
0.0
 11
-0.0617980956999986
 21
-54.95492553710997
 31
0.0
 11
-0.0991821289100017
 21
-53.65710449218997
 31
0.0
 11
-0.1398925781199978
 21
-52.35400390624997
 31
0.0
 11
-0.183685302729998
 21
-51.04571533203998
 31
0.0
  0
SPLINE
  5
7E60
330
1F
100
AcDbEntity
  8
AM_0
  6
CONTINUOUS
 48
0.5
100
AcDbSpline
210
0.0
220
0.0
230
1.0
 70
     8
 71
     3
 72
    11
 73
     7
 74
     5
 42
0.0000000001
 43
0.0000000001
 44
0.0000000001
 40
0.0
 40
0.0
 40
0.0
 40
0.0
 40
0.494107321605365
 40
0.9256402607567419
 40
1.358957564346443
 40
1.857396473337371
 40
1.857396473337371
 40
1.857396473337371
 40
1.857396473337371
 10
-2.623291015619997
 20
-51.37661743163997
 30
0.0
 10
-2.45912976259345
 20
-51.40259761309952
 30
0.0
 10
-2.15159684734754
 20
-51.45126781264763
 30
0.0
 10
-1.759803673686461
 20
-51.70591028017934
 30
0.0
 10
-1.502188502055481
 20
-52.09713747825844
 30
0.0
 10
-1.449169283662202
 20
-52.40592266988098
 30
0.0
 10
-1.420806884770001
 20
-52.57110595703998
 30
0.0
 11
-2.623291015619997
 21
-51.37661743163997
 31
0.0
 11
-2.142395019529999
 21
-51.49011230468997
 31
0.0
 11
-1.781707763669999
 21
-51.72702026367997
 31
0.0
 11
-1.541107177729998
 21
-52.08740234374997
 31
0.0
 11
-1.420806884770001
 21
-52.57110595703998
 31
0.0
  0
ELLIPSE
  5
7E61
330
1F
100
AcDbEntity
  8
AM_0
  6
CONTINUOUS
 48
0.5
100
AcDbEllipse
 10
-0.8155822753899997
 20
-61.67370605468997
 30
0.0
 11
0.5714416468999844
 21
-0.6331787036099854
 31
0.0
210
0.0
220
0.0
230
-1.0
 40
0.9192111985961
 41
5.488300790266648
 42
6.959475179307912
  0
SPLINE
  5
7E62
330
1F
100
AcDbEntity
  8
AM_0
  6
CONTINUOUS
 48
0.5
100
AcDbSpline
210
0.0
220
0.0
230
1.0
 70
     8
 71
     3
 72
    11
 73
     7
 74
     5
 42
0.0000000001
 43
0.0000000001
 44
0.0000000001
 40
0.0
 40
0.0
 40
0.0
 40
0.0
 40
0.2278512278697912
 40
0.456611653028274
 40
0.686169573763212
 40
0.9159080139571202
 40
0.9159080139571202
 40
0.9159080139571202
 40
0.9159080139571202
 10
-0.7394104003899998
 20
-62.34710693359997
 30
0.0
 10
-0.6635246917848575
 20
-62.33291696863555
 30
0.0
 10
-0.5114504669875375
 20
-62.30448041633168
 30
0.0
 10
-0.3307828967815317
 20
-62.15473031227155
 30
0.0
 10
-0.1858512411428271
 20
-61.96964478157112
 30
0.0
 10
-0.1604237970845078
 20
-61.81617530039993
 30
0.0
 10
-0.1477050781199978
 20
-61.73941040038997
 30
0.0
 11
-0.7394104003899998
 21
-62.34710693359997
 31
0.0
 11
-0.5196838378899998
 21
-62.28680419921997
 31
0.0
 11
-0.3370056152299981
 21
-62.14910888671997
 31
0.0
 11
-0.2037048339799981
 21
-61.96221923828997
 31
0.0
 11
-0.1477050781199978
 21
-61.73941040038997
 31
0.0
  0
SPLINE
  5
7E63
330
1F
100
AcDbEntity
  8
AM_0
  6
CONTINUOUS
 48
0.5
100
AcDbSpline
210
0.0
220
0.0
230
1.0
 70
     8
 71
     3
 72
    11
 73
     7
 74
     5
 42
0.0000000001
 43
0.0000000001
 44
0.0000000001
 40
0.0
 40
0.0
 40
0.0
 40
0.0
 40
1.271216692845246
 40
2.550245907164884
 40
3.837050478757737
 40
5.131624324462331
 40
5.131624324462331
 40
5.131624324462331
 40
5.131624324462331
 10
-6.313110351559998
 20
-50.00381469726997
 30
0.0
 10
-5.889371894561207
 20
-50.00482372880179
 30
0.0
 10
-5.039290809446726
 20
-50.0068479930745
 30
0.0
 10
-3.760309551442837
 20
-50.01706522057954
 30
0.0
 10
-2.473589235321126
 20
-50.03205376885283
 30
0.0
 10
-1.613255014055036
 20
-50.04682293006634
 30
0.0
 10
-1.181793212889999
 20
-50.05422973632997
 30
0.0
 11
-6.313110351559998
 21
-50.00381469726997
 31
0.0
 11
-5.041900634770001
 21
-50.00802612304998
 31
0.0
 11
-3.762908935550001
 21
-50.01782226562998
 31
0.0
 11
-2.476196289059998
 21
-50.03320312499997
 31
0.0
 11
-1.181793212889999
 21
-50.05422973632997
 31
0.0
  0
SPLINE
  5
7E64
330
1F
100
AcDbEntity
  8
AM_0
  6
CONTINUOUS
 48
0.5
100
AcDbSpline
210
0.0
220
0.0
230
1.0
 70
     8
 71
     3
 72
    11
 73
     7
 74
     5
 42
0.0000000001
 43
0.0000000001
 44
0.0000000001
 40
0.0
 40
0.0
 40
0.0
 40
0.0
 40
1.319051222288573
 40
2.635851013523944
 40
3.950681072080578
 40
5.263274463920037
 40
5.263274463920037
 40
5.263274463920037
 40
5.263274463920037
 10
-0.0275878906199978
 20
-56.24752807617998
 30
0.0
 10
-0.0235024802028292
 20
-56.68719305838845
 30
0.0
 10
-0.01533863257751
 20
-57.56577257780583
 30
0.0
 10
-0.0070499132913426
 20
-58.88264179090024
 30
0.0
 10
-0.0015376065047565
 20
-60.19737295020864
 30
0.0
 10
-0.0005122445456978
 20
-61.07318061517059
 30
0.0
 10
0.0
 20
-61.51071166992998
 30
0.0
 11
-0.0275878906199978
 21
-56.24752807617998
 31
0.0
 11
-0.0159912109400011
 21
-57.56652832031997
 31
0.0
 11
-0.0075073242200006
 21
-58.88330078124997
 31
0.0
 11
-0.0021972656199978
 21
-60.19812011718997
 31
0.0
 11
0.0
 21
-61.51071166992998
 31
0.0
  0
SPLINE
  5
7E65
330
1F
100
AcDbEntity
  8
AM_0
  6
CONTINUOUS
 48
0.5
100
AcDbSpline
210
0.0
220
0.0
230
1.0
 70
     8
 71
     3
 72
    11
 73
     7
 74
     5
 42
0.0000000001
 43
0.0000000001
 44
0.0000000001
 40
0.0
 40
0.0
 40
0.0
 40
0.0
 40
0.1163597476469186
 40
0.2316294557196564
 40
0.3472028159308023
 40
0.4618674126028123
 40
0.4618674126028123
 40
0.4618674126028123
 40
0.4618674126028123
 10
-1.057495117190001
 20
-60.76971435546997
 30
0.0
 10
-1.060586281893971
 20
-60.80858040370803
 30
0.0
 10
-1.066739653763538
 20
-60.8859484092375
 30
0.0
 10
-1.110064581375707
 20
-60.99472562461076
 30
0.0
 10
-1.169783024258942
 20
-61.09380289903286
 30
0.0
 10
-1.221253531871505
 20
-61.15095138375242
 30
0.0
 10
-1.246887207029999
 20
-61.17941284179997
 30
0.0
 11
-1.057495117190001
 21
-60.76971435546997
 31
0.0
 11
-1.072509765619997
 21
-60.88510131835997
 31
0.0
 11
-1.11279296875
 21
-60.99310302734997
 31
0.0
 11
-1.17288208008
 21
-61.09182739257997
 31
0.0
 11
-1.246887207029999
 21
-61.17941284179997
 31
0.0
  0
SPLINE
  5
7E66
330
1F
100
AcDbEntity
  8
AM_0
  6
CONTINUOUS
 48
0.5
100
AcDbSpline
210
0.0
220
0.0
230
1.0
 70
     8
 71
     3
 72
    11
 73
     7
 74
     5
 42
0.0000000001
 43
0.0000000001
 44
0.0000000001
 40
0.0
 40
0.0
 40
0.0
 40
0.0
 40
0.0684690753323698
 40
0.1356092522587915
 40
0.2025238911785468
 40
0.2705834957640466
 40
0.2705834957640466
 40
0.2705834957640466
 40
0.2705834957640466
 10
-1.393798828119997
 20
-61.29782104492997
 30
0.0
 10
-1.413510358380805
 20
-61.30939736453837
 30
0.0
 10
-1.45255084295824
 20
-61.33232532199043
 30
0.0
 10
-1.515910934982862
 20
-61.3563764060154
 30
0.0
 10
-1.581585880254837
 20
-61.37256122428409
 30
0.0
 10
-1.626535153802708
 20
-61.37578521766867
 30
0.0
 10
-1.649200439449998
 20
-61.37741088867997
 30
0.0
 11
-1.393798828119997
 21
-61.29782104492997
 31
0.0
 11
-1.45379638672
 21
-61.33081054687997
 31
0.0
 11
-1.516387939449998
 21
-61.35510253906997
 31
0.0
 11
-1.581481933589998
 21
-61.37060546874997
 31
0.0
 11
-1.649200439449998
 21
-61.37741088867997
 31
0.0
  0
SPLINE
  5
7E67
330
1F
100
AcDbEntity
  8
AM_0
  6
CONTINUOUS
 48
0.5
100
AcDbSpline
210
0.0
220
0.0
230
1.0
 70
     8
 71
     3
 72
    11
 73
     7
 74
     5
 42
0.0000000001
 43
0.0000000001
 44
0.0000000001
 40
0.0
 40
0.0
 40
0.0
 40
0.0
 40
0.0476719834211699
 40
0.0949702719152742
 40
0.1420223308724418
 40
0.1891000351498625
 40
0.1891000351498625
 40
0.1891000351498625
 40
0.1891000351498625
 10
-1.246887207029999
 20
-61.17941284179997
 30
0.0
 10
-1.258122297452265
 20
-61.19065724865151
 30
0.0
 10
-1.280504407778336
 20
-61.21305791880575
 30
0.0
 10
-1.316428908461475
 20
-61.2439540394855
 30
0.0
 10
-1.354062796967935
 20
-61.27241982379762
 30
0.0
 10
-1.380490049245583
 20
-61.28935243347603
 30
0.0
 10
-1.393707275389999
 20
-61.29782104492997
 30
0.0
 11
-1.246887207029999
 21
-61.17941284179997
 31
0.0
 11
-1.281005859369997
 21
-61.21270751953997
 31
0.0
 11
-1.316802978520001
 21
-61.24362182617997
 31
0.0
 11
-1.354400634770001
 21
-61.27191162109998
 31
0.0
 11
-1.393707275389999
 21
-61.29782104492997
 31
0.0
  0
SPLINE
  5
7E68
330
1F
100
AcDbEntity
  8
AM_0
  6
CONTINUOUS
 48
0.5
100
AcDbSpline
210
0.0
220
0.0
230
1.0
 70
     8
 71
     3
 72
    11
 73
     7
 74
     5
 42
0.0000000001
 43
0.0000000001
 44
0.0000000001
 40
0.0
 40
0.0
 40
0.0
 40
0.0
 40
1.31478966872652
 40
2.625019651385557
 40
3.930652702700534
 40
5.231683594163551
 40
5.231683594163551
 40
5.231683594163551
 40
5.231683594163551
 10
-6.313110351559998
 20
-50.00381469726997
 30
0.0
 10
-6.751374303128178
 20
-50.00391674385316
 30
0.0
 10
-7.626382308381724
 20
-50.00412048312233
 30
0.0
 10
-8.936583931090208
 20
-50.01152374547361
 30
0.0
 10
-10.24216430776601
 20
-50.02365614730772
 30
0.0
 10
-11.11095685194431
 20
-50.03664058252653
 30
0.0
 10
-11.54458618163999
 20
-50.04312133788997
 30
0.0
 11
-6.313110351559998
 21
-50.00381469726997
 31
0.0
 11
-7.627899169919999
 21
-50.00531005859997
 31
0.0
 11
-8.938110351559998
 21
-50.01232910156997
 31
0.0
 11
-10.24368286133
 21
-50.02490234374997
 31
0.0
 11
-11.54458618163999
 21
-50.04312133788997
 31
0.0
  0
ELLIPSE
  5
7E69
330
1F
100
AcDbEntity
  8
AM_0
  6
CONTINUOUS
 48
0.5
100
AcDbEllipse
 10
-11.69229125977
 20
-50.86941528320997
 30
0.0
 11
0.5714416469099888
 21
-0.6331787036099854
 31
0.0
210
0.0
220
0.0
230
-1.0
 40
0.9192111985961
 41
2.346715390780831
 42
3.817890167206236
  0
SPLINE
  5
7E6A
330
1F
100
AcDbEntity
  8
AM_0
  6
CONTINUOUS
 48
0.5
100
AcDbSpline
210
0.0
220
0.0
230
1.0
 70
     8
 71
     3
 72
    11
 73
     7
 74
     5
 42
0.0000000001
 43
0.0000000001
 44
0.0000000001
 40
0.0
 40
0.0
 40
0.0
 40
0.0
 40
0.2277335126057062
 40
0.4566465252025659
 40
0.6861299164076948
 40
0.9158683565919004
 40
0.9158683565919004
 40
0.9158683565919004
 40
0.9158683565919004
 10
-11.76858520508
 20
-50.19601440429998
 30
0.0
 10
-11.84442757433453
 20
-50.21021284274318
 30
0.0
 10
-11.99650512316318
 20
-50.23868325758993
 30
0.0
 10
-12.17714466323636
 20
-50.38843758780988
 30
0.0
 10
-12.32216680009654
 20
-50.57348894794123
 30
0.0
 10
-12.34757791386677
 20
-50.72694186537838
 30
0.0
 10
-12.36029052733999
 20
-50.80371093749997
 30
0.0
 11
-11.76858520508
 21
-50.19601440429998
 31
0.0
 11
-11.98818969727
 21
-50.25631713867998
 31
0.0
 11
-12.17098999022999
 21
-50.39410400390997
 31
0.0
 11
-12.30429077147999
 21
-50.58090209960997
 31
0.0
 11
-12.36029052733999
 21
-50.80371093749997
 31
0.0
  0
SPLINE
  5
7E6B
330
1F
100
AcDbEntity
  8
AM_0
  6
CONTINUOUS
 48
0.5
100
AcDbSpline
210
0.0
220
0.0
230
1.0
 70
     8
 71
     3
 72
    11
 73
     7
 74
     5
 42
0.0000000001
 43
0.0000000001
 44
0.0000000001
 40
0.0
 40
0.0
 40
0.0
 40
0.0
 40
0.4944579053829359
 40
0.9204442433071125
 40
1.344604443189276
 40
1.834596542145024
 40
1.834596542145024
 40
1.834596542145024
 40
1.834596542145024
 10
-1.293182373050001
 20
-59.84030151367997
 30
0.0
 10
-1.315582018890443
 20
-60.0050860019291
 30
0.0
 10
-1.357279451253235
 20
-60.31183594351968
 30
0.0
 10
-1.601568320410071
 20
-60.70510490739577
 30
0.0
 10
-1.987011703138078
 20
-60.95942411719234
 30
0.0
 10
-2.290906581919232
 20
-61.00688092860821
 30
0.0
 10
-2.45379638672
 20
-61.03231811523997
 30
0.0
 11
-1.293182373050001
 21
-59.84030151367997
 31
0.0
 11
-1.396606445309998
 21
-60.32382202148998
 31
0.0
 11
-1.62451171875
 21
-60.68371582031997
 31
0.0
 11
-1.97689819336
 21
-60.91979980468997
 31
0.0
 11
-2.45379638672
 21
-61.03231811523997
 31
0.0
  0
SPLINE
  5
7E6C
330
1F
100
AcDbEntity
  8
AM_0
  6
CONTINUOUS
 48
0.5
100
AcDbSpline
210
0.0
220
0.0
230
1.0
 70
     8
 71
     3
 72
    11
 73
     7
 74
     5
 42
0.0000000001
 43
0.0000000001
 44
0.0000000001
 40
0.0
 40
0.0
 40
0.0
 40
0.0
 40
0.0685907535316376
 40
0.1357309304580592
 40
0.2026455693801324
 40
0.2708054716619772
 40
0.2708054716619772
 40
0.2708054716619772
 40
0.2708054716619772
 10
-11.03210449219
 20
-51.19522094726997
 30
0.0
 10
-11.01235157071638
 20
-51.18363600904789
 30
0.0
 10
-10.97326346812477
 20
-51.16071113414538
 30
0.0
 10
-10.90987222049366
 20
-51.13662663486854
 30
0.0
 10
-10.84416007664057
 20
-51.1204657037322
 30
0.0
 10
-10.79918440888633
 20
-51.11717138026417
 30
0.0
 10
-10.77648925781
 20
-51.11550903320997
 30
0.0
 11
-11.03210449219
 21
-51.19522094726997
 31
0.0
 11
-10.97198486327999
 21
-51.16220092773997
 31
0.0
 11
-10.90939331055
 21
-51.13790893554997
 31
0.0
 11
-10.84429931641
 21
-51.12240600585997
 31
0.0
 11
-10.77648925781
 21
-51.11550903320997
 31
0.0
  0
SPLINE
  5
7E6D
330
1F
100
AcDbEntity
  8
AM_0
  6
CONTINUOUS
 48
0.5
100
AcDbSpline
210
0.0
220
0.0
230
1.0
 70
     8
 71
     3
 72
    11
 73
     7
 74
     5
 42
0.0000000001
 43
0.0000000001
 44
0.0000000001
 40
0.0
 40
0.0
 40
0.0
 40
0.0
 40
0.0476060524741556
 40
0.0948844002184015
 40
0.1419548140214564
 40
0.1890157297108684
 40
0.1890157297108684
 40
0.1890157297108684
 40
0.1890157297108684
 10
-11.17880249022999
 20
-51.31362915038997
 30
0.0
 10
-11.16761681425682
 20
-51.30236524431548
 30
0.0
 10
-11.14532246090062
 20
-51.27991496926746
 30
0.0
 10
-11.10935592748998
 20
-51.24910016439206
 30
0.0
 10
-11.07176995501381
 20
-51.22058315432343
 30
0.0
 10
-11.04532542368895
 20
-51.2036744475759
 30
0.0
 10
-11.03210449219
 20
-51.19522094726997
 30
0.0
 11
-11.17880249022999
 21
-51.31362915038997
 31
0.0
 11
-11.14480590819999
 21
-51.28030395507997
 31
0.0
 11
-11.10900878905999
 21
-51.24942016601997
 31
0.0
 11
-11.07141113280999
 21
-51.22109985351997
 31
0.0
 11
-11.03210449219
 21
-51.19522094726997
 31
0.0
  0
SPLINE
  5
7E6E
330
1F
100
AcDbEntity
  8
AM_0
  6
CONTINUOUS
 48
0.5
100
AcDbSpline
210
0.0
220
0.0
230
1.0
 70
     8
 71
     3
 72
    11
 73
     7
 74
     5
 42
0.0000000001
 43
0.0000000001
 44
0.0000000001
 40
0.0
 40
0.0
 40
0.0
 40
0.0
 40
0.116241567249235
 40
0.2314682479428169
 40
0.3470937495877473
 40
0.4618174561882224
 40
0.4618174561882224
 40
0.4618174561882224
 40
0.4618174561882224
 10
-11.36819458008
 20
-51.72320556640997
 30
0.0
 10
-11.36520682646204
 20
-51.68436157903546
 30
0.0
 10
-11.35925740482571
 20
-51.60701274493536
 30
0.0
 10
-11.31562548372092
 20
-51.4983781671135
 30
0.0
 10
-11.25603730892027
 20
-51.39921353908855
 30
0.0
 10
-11.20448014934944
 20
-51.34208272607272
 30
0.0
 10
-11.17880249022999
 20
-51.31362915038997
 30
0.0
 11
-11.36819458008
 21
-51.72320556640997
 31
0.0
 11
-11.35339355469
 21
-51.60791015624997
 31
0.0
 11
-11.31298828125
 21
-51.49999999999997
 31
0.0
 11
-11.25289916991999
 21
-51.40121459960997
 31
0.0
 11
-11.17880249022999
 21
-51.31362915038997
 31
0.0
  0
SPLINE
  5
7E6F
330
1F
100
AcDbEntity
  8
AM_0
  6
CONTINUOUS
 48
0.5
100
AcDbSpline
210
0.0
220
0.0
230
1.0
 70
     8
 71
     3
 72
    11
 73
     7
 74
     5
 42
0.0000000001
 43
0.0000000001
 44
0.0000000001
 40
0.0
 40
0.0
 40
0.0
 40
0.0
 40
0.1111634567620932
 40
0.222661724434734
 40
0.3375734107803706
 40
0.4588895779404938
 40
0.4588895779404938
 40
0.4588895779404938
 40
0.4588895779404938
 10
-11.17880249022999
 20
-51.31362915038997
 30
0.0
 10
-11.20342698373191
 20
-51.34145123465874
 30
0.0
 10
-11.25275013673715
 20
-51.39717919995503
 30
0.0
 10
-11.30753867139906
 20
-51.49632773076719
 30
0.0
 10
-11.348267885152
 20
-51.6054513197775
 30
0.0
 10
-11.36143336995451
 20
-51.68325106278921
 30
0.0
 10
-11.36819458008
 20
-51.72320556640997
 30
0.0
 11
-11.17880249022999
 21
-51.31362915038997
 31
0.0
 11
-11.24938964844
 21
-51.39950561523997
 31
0.0
 11
-11.30450439452999
 21
-51.49642944335997
 31
0.0
 11
-11.34408569335999
 21
-51.60430908203998
 31
0.0
 11
-11.36819458008
 21
-51.72320556640997
 31
0.0
  0
SPLINE
  5
7E70
330
1F
100
AcDbEntity
  8
AM_0
  6
CONTINUOUS
 48
0.5
100
AcDbSpline
210
0.0
220
0.0
230
1.0
 70
     8
 71
     3
 72
    11
 73
     7
 74
     5
 42
0.0000000001
 43
0.0000000001
 44
0.0000000001
 40
0.0
 40
0.0
 40
0.0
 40
0.0
 40
1.27185025788344
 40
2.550898188382495
 40
3.837305963512545
 40
5.131173526188409
 40
5.131173526188409
 40
5.131173526188409
 40
5.131173526188409
 10
-6.094207763669999
 20
-62.47790527343997
 30
0.0
 10
-5.670353928778164
 20
-62.48713390341605
 30
0.0
 10
-4.820247579494673
 20
-62.50564339015891
 30
0.0
 10
-3.541164042678219
 20
-62.51664310666789
 30
0.0
 10
-2.254695092813037
 20
-62.51668526108279
 30
0.0
 10
-1.394666784274186
 20
-62.50557246303098
 30
0.0
 10
-0.9634094238300008
 20
-62.49999999999997
 30
0.0
 11
-6.094207763669999
 21
-62.47790527343997
 31
0.0
 11
-4.82260131836
 21
-62.50280761718997
 31
0.0
 11
-3.543609619139999
 21
-62.51480102538997
 31
0.0
 11
-2.257202148440001
 21
-62.51391601562997
 31
0.0
 11
-0.9634094238300008
 21
-62.49999999999997
 31
0.0
  0
SPLINE
  5
7E71
330
1F
100
AcDbEntity
  8
AM_0
  6
CONTINUOUS
 48
0.5
100
AcDbSpline
210
0.0
220
0.0
230
1.0
 70
     8
 71
     3
 72
    11
 73
     7
 74
     5
 42
0.0000000001
 43
0.0000000001
 44
0.0000000001
 40
0.0
 40
0.0
 40
0.0
 40
0.0
 40
1.293164391134196
 40
2.57896190466383
 40
3.857430026685914
 40
5.12857851489808
 40
5.12857851489808
 40
5.12857851489808
 40
5.12857851489808
 10
-0.9685974121100002
 20
-62.35092163085997
 30
0.0
 10
-1.399620928685896
 20
-62.35642855695171
 30
0.0
 10
-2.259212514167559
 20
-62.3674110373693
 30
0.0
 10
-3.545049802688974
 20
-62.36761624671911
 30
0.0
 10
-4.823502891174502
 20
-62.35655335505599
 30
0.0
 10
-5.673181910040738
 20
-62.33805134889522
 30
0.0
 10
-6.096801757809998
 20
-62.32882690429997
 30
0.0
 11
-0.9685974121100002
 21
-62.35092163085997
 31
0.0
 11
-2.261688232419999
 21
-62.36471557617997
 31
0.0
 11
-3.547485351559998
 21
-62.36572265624997
 31
0.0
 11
-4.825897216800001
 21
-62.35372924804997
 31
0.0
 11
-6.096801757809998
 21
-62.32882690429997
 31
0.0
  0
SPLINE
  5
7E72
330
1F
100
AcDbEntity
  8
AM_0
  6
CONTINUOUS
 48
0.5
100
AcDbSpline
210
0.0
220
0.0
230
1.0
 70
     8
 71
     3
 72
    11
 73
     7
 74
     5
 42
0.0000000001
 43
0.0000000001
 44
0.0000000001
 40
0.0
 40
0.0
 40
0.0
 40
0.0
 40
0.4945410521492148
 40
0.920424264183069
 40
1.34465241949608
 40
1.834616501493803
 40
1.834616501493803
 40
1.834616501493803
 40
1.834616501493803
 10
-10.98208618164
 20
-52.56091308593997
 30
0.0
 10
-10.95971588868761
 20
-52.39608665276219
 30
0.0
 10
-10.91808100248196
 20
-52.08931687537713
 30
0.0
 10
-10.67364792002481
 20
-51.69614902961003
 30
0.0
 10
-10.28835087629172
 20
-51.44164696656005
 30
0.0
 10
-9.984403953780391
 20
-51.39430179122541
 30
0.0
 10
-9.821502685550001
 20
-51.36892700195997
 30
0.0
 11
-10.98208618164
 21
-52.56091308593997
 31
0.0
 11
-10.87869262694999
 21
-52.07730102538997
 31
0.0
 11
-10.65078735352
 21
-51.71752929687997
 31
0.0
 11
-10.29840087891
 21
-51.48132324218997
 31
0.0
 11
-9.821502685550001
 21
-51.36892700195997
 31
0.0
  0
SPLINE
  5
7E73
330
1F
100
AcDbEntity
  8
AM_0
  6
CONTINUOUS
 48
0.5
100
AcDbSpline
210
0.0
220
0.0
230
1.0
 70
     8
 71
     3
 72
    11
 73
     7
 74
     5
 42
0.0000000001
 43
0.0000000001
 44
0.0000000001
 40
0.0
 40
0.0
 40
0.0
 40
0.0
 40
1.293764048419155
 40
2.592160824449166
 40
3.895490093484788
 40
5.203750744210527
 40
5.203750744210527
 40
5.203750744210527
 40
5.203750744210527
 10
-12.37969970703
 20
-56.23422241210997
 30
0.0
 10
-12.39905735618144
 20
-55.80339678458689
 30
0.0
 10
-12.43784197061334
 20
-54.94020282337069
 30
0.0
 10
-12.47644027837017
 20
-53.64223994822154
 30
0.0
 10
-12.50185094139017
 20
-52.33912046172935
 30
0.0
 10
-12.50588381057077
 20
-51.46858890001515
 30
0.0
 10
-12.50790405272999
 20
-51.03250122070997
 30
0.0
 11
-12.37969970703
 21
-56.23422241210997
 31
0.0
 11
-12.43450927734
 21
-54.94161987304997
 31
0.0
 11
-12.47418212891
 21
-53.64382934570997
 31
0.0
 11
-12.49859619141
 21
-52.34072875976997
 31
0.0
 11
-12.50790405272999
 21
-51.03250122070997
 31
0.0
  0
SPLINE
  5
7E74
330
1F
100
AcDbEntity
  8
AM_0
  6
CONTINUOUS
 48
0.5
100
AcDbSpline
210
0.0
220
0.0
230
1.0
 70
     8
 71
     3
 72
    11
 73
     7
 74
     5
 42
0.0000000001
 43
0.0000000001
 44
0.0000000001
 40
0.0
 40
0.0
 40
0.0
 40
0.0
 40
0.1166291365570371
 40
0.2344762210303124
 40
0.3514008359167271
 40
0.468007926882469
 40
0.468007926882469
 40
0.468007926882469
 40
0.468007926882469
 10
-11.00588989258
 20
-61.16882324218997
 30
0.0
 10
-11.03256034553242
 20
-61.1404196164872
 30
0.0
 10
-11.0861797686548
 20
-61.08331574849204
 30
0.0
 10
-11.14901044761092
 20
-60.98390709413033
 30
0.0
 10
-11.1965777786492
 20
-60.87541989068823
 30
0.0
 10
-11.20532074157123
 20
-60.79765110389081
 30
0.0
 10
-11.2096862793
 20
-60.75881958007997
 30
0.0
 11
-11.00588989258
 21
-61.16882324218997
 31
0.0
 11
-11.0830078125
 21
-61.08132934570997
 31
0.0
 11
-11.14660644530999
 21
-60.98211669921997
 31
0.0
 11
-11.19088745116999
 21
-60.87390136718997
 31
0.0
 11
-11.2096862793
 21
-60.75881958007997
 31
0.0
  0
SPLINE
  5
7E75
330
1F
100
AcDbEntity
  8
AM_0
  6
CONTINUOUS
 48
0.5
100
AcDbSpline
210
0.0
220
0.0
230
1.0
 70
     8
 71
     3
 72
    11
 73
     7
 74
     5
 42
0.0000000001
 43
0.0000000001
 44
0.0000000001
 40
0.0
 40
0.0
 40
0.0
 40
0.0
 40
0.1157883727059974
 40
0.2316388312164024
 40
0.3487038193785918
 40
0.4654395832696633
 40
0.4654395832696633
 40
0.4654395832696633
 40
0.4654395832696633
 10
-10.59658813477
 20
-61.36782836913997
 30
0.0
 10
-10.6351969092979
 20
-61.36398908660457
 30
0.0
 10
-10.71243516040493
 20
-61.35630846290787
 30
0.0
 10
-10.8207288788843
 20
-61.31044096818897
 30
0.0
 10
-10.91982012924571
 20
-61.24819685442115
 30
0.0
 10
-10.97722691707319
 20
-61.19525626367317
 30
0.0
 10
-11.00588989258
 20
-61.16882324218997
 30
0.0
 11
-10.59658813477
 21
-61.36782836913997
 31
0.0
 11
-10.71109008789
 21
-61.35061645507997
 31
0.0
 11
-10.81878662108999
 21
-61.30792236328997
 31
0.0
 11
-10.9176940918
 21
-61.24530029296997
 31
0.0
 11
-11.00588989258
 21
-61.16882324218997
 31
0.0
  0
SPLINE
  5
7E76
330
1F
100
AcDbEntity
  8
AM_0
  6
CONTINUOUS
 48
0.5
100
AcDbSpline
210
0.0
220
0.0
230
1.0
 70
     8
 71
     3
 72
    11
 73
     7
 74
     5
 42
0.0000000001
 43
0.0000000001
 44
0.0000000001
 40
0.0
 40
0.0
 40
0.0
 40
0.0
 40
0.1130464438732793
 40
0.2257928505037024
 40
0.3414149127616977
 40
0.4625682104561186
 40
0.4625682104561186
 40
0.4625682104561186
 40
0.4625682104561186
 10
-11.00588989258
 20
-61.16882324218997
 30
0.0
 10
-10.97789876441895
 20
-61.19419136433208
 30
0.0
 10
-10.92199079951753
 20
-61.2448602789316
 30
0.0
 10
-10.82284459952521
 20
-61.30218495157977
 30
0.0
 10
-10.7139980227549
 20
-61.34531551911381
 30
0.0
 10
-10.63632956035134
 20
-61.36020811867134
 30
0.0
 10
-10.59658813477
 20
-61.36782836913997
 30
0.0
 11
-11.00588989258
 21
-61.16882324218997
 31
0.0
 11
-10.91949462891
 21
-61.24172973632997
 31
0.0
 11
-10.82250976561999
 21
-61.29922485351997
 31
0.0
 11
-10.71478271483999
 21
-61.34121704101997
 31
0.0
 11
-10.59658813477
 21
-61.36782836913997
 31
0.0
  0
ELLIPSE
  5
7E77
330
1F
100
AcDbEntity
  8
AM_0
  6
CONTINUOUS
 48
0.5
100
AcDbEllipse
 10
-11.50289916992
 20
-61.66220092773997
 30
0.0
 11
-0.5205993684600117
 21
-0.6557617228099844
 31
0.0
210
0.0
220
0.0
230
-1.0
 40
0.9537956027345
 41
5.653643847883563
 42
7.125691926890482
  0
SPLINE
  5
7E78
330
1F
100
AcDbEntity
  8
AM_0
  6
CONTINUOUS
 48
0.5
100
AcDbSpline
210
0.0
220
0.0
230
1.0
 70
     8
 71
     3
 72
    11
 73
     7
 74
     5
 42
0.0000000001
 43
0.0000000001
 44
0.0000000001
 40
0.0
 40
0.0
 40
0.0
 40
0.0
 40
0.2319972302335557
 40
0.4656339287883602
 40
0.6986259806642057
 40
0.928465726237577
 40
0.928465726237577
 40
0.928465726237577
 40
0.928465726237577
 10
-12.16860961914
 20
-61.72650146484997
 30
0.0
 10
-12.15307062427788
 20
-61.80346696047436
 30
0.0
 10
-12.12188282423482
 20
-61.95794184826787
 30
0.0
 10
-11.97060800236043
 20
-62.14212173009646
 30
0.0
 10
-11.78594908301153
 20
-62.29200790102956
 30
0.0
 10
-11.63197444153719
 20
-62.32107546180888
 30
0.0
 10
-11.55551147461
 20
-62.33551025390998
 30
0.0
 11
-12.16860961914
 21
-61.72650146484997
 31
0.0
 11
-12.10470581055
 21
-61.94952392578997
 31
0.0
 11
-11.96478271483999
 21
-62.13662719726997
 31
0.0
 11
-11.77719116211
 21
-62.27481079101997
 31
0.0
 11
-11.55551147461
 21
-62.33551025390998
 31
0.0
  0
SPLINE
  5
7E79
330
1F
100
AcDbEntity
  8
AM_0
  6
CONTINUOUS
 48
0.5
100
AcDbSpline
210
0.0
220
0.0
230
1.0
 70
     8
 71
     3
 72
    11
 73
     7
 74
     5
 42
0.0000000001
 43
0.0000000001
 44
0.0000000001
 40
0.0
 40
0.0
 40
0.0
 40
0.0
 40
1.314577781191367
 40
2.624822024367815
 40
3.930613378349256
 40
5.232234098129384
 40
5.232234098129384
 40
5.232234098129384
 40
5.232234098129384
 10
-6.094207763669999
 20
-62.47790527343997
 30
0.0
 10
-6.532326102006347
 20
-62.48617771261061
 30
0.0
 10
-7.407118510792137
 20
-62.50269532065252
 30
0.0
 10
-8.717322288725778
 20
-62.51117571108503
 30
0.0
 10
-10.02323361921653
 20
-62.50841995712729
 30
0.0
 10
-10.89228178921273
 20
-62.49541446424313
 30
0.0
 10
-11.32611083983999
 20
-62.48892211913997
 30
0.0
 11
-6.094207763669999
 21
-62.47790527343997
 31
0.0
 11
-7.408599853520001
 21
-62.49999999999997
 31
0.0
 11
-8.718811035160001
 21
-62.50930786132997
 31
0.0
 11
-10.02459716797
 21
-62.50561523437998
 31
0.0
 11
-11.32611083983999
 21
-62.48892211913997
 31
0.0
  0
SPLINE
  5
7E7A
330
1F
100
AcDbEntity
  8
AM_0
  6
CONTINUOUS
 48
0.5
100
AcDbSpline
210
0.0
220
0.0
230
1.0
 70
     8
 71
     3
 72
    11
 73
     7
 74
     5
 42
0.0000000001
 43
0.0000000001
 44
0.0000000001
 40
0.0
 40
0.0
 40
0.0
 40
0.0
 40
1.319030967183292
 40
2.635849098316108
 40
3.950811945597035
 40
5.263915963898524
 40
5.263915963898524
 40
5.263915963898524
 40
5.263915963898524
 10
-12.37969970703
 20
-56.23422241210997
 30
0.0
 10
-12.38380151121693
 20
-56.67388599986384
 30
0.0
 10
-12.39199823831173
 20
-57.55247558583707
 30
0.0
 10
-12.38451580648047
 20
-58.86942950826683
 30
0.0
 10
-12.36430933667671
 20
-60.18427418355187
 30
0.0
 10
-12.33763702561288
 20
-61.05990184193672
 30
0.0
 10
-12.32431030272999
 20
-61.49740600585997
 30
0.0
 11
-12.37969970703
 21
-56.23422241210997
 31
0.0
 11
-12.38870239258
 21
-57.55322265624997
 31
0.0
 11
-12.38238525391
 21
-58.87002563476997
 31
0.0
 11
-12.36099243164
 21
-60.18481445312997
 31
0.0
 11
-12.32431030272999
 21
-61.49740600585997
 31
0.0
  0
SPLINE
  5
7E7B
330
1F
100
AcDbEntity
  8
AM_0
  6
CONTINUOUS
 48
0.5
100
AcDbSpline
210
0.0
220
0.0
230
1.0
 70
     8
 71
     3
 72
    11
 73
     7
 74
     5
 42
0.0000000001
 43
0.0000000001
 44
0.0000000001
 40
0.0
 40
0.0
 40
0.0
 40
0.0
 40
1.312524410713453
 40
2.626787439298686
 40
3.94302559700469
 40
5.261354676255537
 40
5.261354676255537
 40
5.261354676255537
 40
5.261354676255537
 10
-12.17660522461
 20
-61.49502563476997
 30
0.0
 10
-12.18991711076686
 20
-61.05771452883288
 30
0.0
 10
-12.21655851649218
 20
-60.1825130386625
 30
0.0
 10
-12.23698831843255
 20
-58.86829171539041
 30
0.0
 10
-12.24436333568487
 20
-57.55199718782372
 30
0.0
 10
-12.23618073102685
 20
-56.67383505848113
 30
0.0
 10
-12.23208618164
 20
-56.23440551757997
 30
0.0
 11
-12.17660522461
 21
-61.49502563476997
 31
0.0
 11
-12.21328735352
 21
-60.18301391601998
 31
0.0
 11
-12.23480224608999
 21
-58.86892700195997
 31
0.0
 11
-12.24108886719
 21
-57.55270385742997
 31
0.0
 11
-12.23208618164
 21
-56.23440551757997
 31
0.0
  0
SPLINE
  5
7E7C
330
1F
100
AcDbEntity
  8
AM_0
  6
CONTINUOUS
 48
0.5
100
AcDbSpline
210
0.0
220
0.0
230
1.0
 70
     8
 71
     3
 72
    11
 73
     7
 74
     5
 42
0.0000000001
 43
0.0000000001
 44
0.0000000001
 40
0.0
 40
0.0
 40
0.0
 40
0.0
 40
0.4940863002682061
 40
0.9256695078833033
 40
1.358910671731817
 40
1.85743842737167
 40
1.85743842737167
 40
1.85743842737167
 40
1.85743842737167
 10
-9.652008056639999
 20
-61.02450561523998
 30
0.0
 10
-9.816177743091309
 20
-60.99857229849833
 30
0.0
 10
-10.12374926001911
 20
-60.94998629129069
 30
0.0
 10
-10.51543398445122
 20
-60.69520438951771
 30
0.0
 10
-10.77315874249926
 20
-60.30404792206713
 30
0.0
 10
-10.82614353753125
 20
-59.99523982370561
 30
0.0
 10
-10.8544921875
 20
-59.83001708984997
 30
0.0
 11
-9.652008056639999
 21
-61.02450561523998
 31
0.0
 11
-10.13290405272999
 21
-60.91110229492997
 31
0.0
 11
-10.49359130858999
 21
-60.67410278320997
 31
0.0
 11
-10.73419189453
 21
-60.31381225585997
 31
0.0
 11
-10.8544921875
 21
-59.83001708984997
 31
0.0
  0
ELLIPSE
  5
7E7D
330
1F
100
AcDbEntity
  8
AM_0
  6
CONTINUOUS
 48
0.5
100
AcDbEllipse
 10
-6.137603759770001
 20
-56.20062255859997
 30
0.0
 11
1.645233162160025
 21
-2.69616695704002
 31
0.0
210
0.0
220
0.0
230
-1.0
 40
0.9791076186809998
 41
3.576266351061386
 42
5.84859554926446
  0
ELLIPSE
  5
7E7E
330
1F
100
AcDbEntity
  8
AM_0
  6
CONTINUOUS
 48
0.5
100
AcDbEllipse
 10
-6.137603759770001
 20
-56.20062255859997
 30
0.0
 11
1.645233162160025
 21
-2.69616695704002
 31
0.0
210
0.0
220
0.0
230
-1.0
 40
0.9791076186809998
 41
5.848580804279882
 42
9.859451593787555
  0
ELLIPSE
  5
7E7F
330
1F
100
AcDbEntity
  8
AM_0
  6
CONTINUOUS
 48
0.5
100
AcDbEllipse
 10
-9.367401123050001
 20
-51.81271362304997
 30
0.0
 11
-19.04098475529997
 21
-0.0036618931300154
 31
0.0
210
0.0
220
0.0
230
-1.0
 40
0.027839438403
 41
1.383238315670722
 42
1.405256415112367
  0
ELLIPSE
  5
7E80
330
1F
100
AcDbEntity
  8
AM_0
  6
CONTINUOUS
 48
0.5
100
AcDbEllipse
 10
-13.74209594727
 20
-52.99752807617998
 30
0.0
 11
0.0010070694499973
 21
-5.174407860980011
 31
0.0
210
0.0
220
0.0
230
-1.0
 40
0.168676830527
 41
4.275964000445484
 42
4.376478989764152
  0
ELLIPSE
  5
7E81
330
1F
100
AcDbEntity
  8
AM_0
  6
CONTINUOUS
 48
0.5
100
AcDbEllipse
 10
-1.005004882809998
 20
-50.88092041015997
 30
0.0
 11
-0.5205993684600117
 21
-0.6557617228099844
 31
0.0
210
0.0
220
0.0
230
-1.0
 40
0.9537956027345
 41
2.512058668530255
 42
3.984086540768415
  0
SPLINE
  5
7E82
330
1F
100
AcDbEntity
  8
AM_0
  6
CONTINUOUS
 48
0.5
100
AcDbSpline
210
0.0
220
0.0
230
1.0
 70
     8
 71
     3
 72
    11
 73
     7
 74
     5
 42
0.0000000001
 43
0.0000000001
 44
0.0000000001
 40
0.0
 40
0.0
 40
0.0
 40
0.0
 40
0.2318546702925989
 40
0.4655464237367814
 40
0.6985022819022637
 40
0.9283956541692576
 40
0.9283956541692576
 40
0.9283956541692576
 40
0.9283956541692576
 10
-0.3393859863300008
 20
-50.81661987304997
 30
0.0
 10
-0.3549038544853822
 20
-50.73970350768194
 30
0.0
 10
-0.3860625454646914
 20
-50.58526133587347
 30
0.0
 10
-0.5372141248984372
 20
-50.40101600499809
 30
0.0
 10
-0.7219704721643259
 20
-50.25122975544899
 30
0.0
 10
-0.8759247605257149
 20
-50.22208636447142
 30
0.0
 10
-0.9523925781199977
 20
-50.20761108398997
 30
0.0
 11
-0.3393859863300008
 21
-50.81661987304997
 31
0.0
 11
-0.4031982421900011
 21
-50.59371948242997
 31
0.0
 11
-0.5430908203099989
 21
-50.40652465820997
 31
0.0
 11
-0.7306823730500014
 21
-50.26840209960997
 31
0.0
 11
-0.9523925781199977
 21
-50.20761108398997
 31
0.0
  0
SPLINE
  5
7E83
330
1F
100
AcDbEntity
  8
AM_0
  6
CONTINUOUS
 48
0.5
100
AcDbSpline
210
0.0
220
0.0
230
1.0
 70
     8
 71
     3
 72
    11
 73
     7
 74
     5
 42
0.0000000001
 43
0.0000000001
 44
0.0000000001
 40
0.0
 40
0.0
 40
0.0
 40
0.0
 40
0.1157883727059974
 40
0.2316726021815644
 40
0.348672336207972
 40
0.4653681232784147
 40
0.4653681232784147
 40
0.4653681232784147
 40
0.4653681232784147
 10
-1.829193115229998
 20
-51.12521362304997
 30
0.0
 10
-1.790579481495599
 20
-51.12904199021899
 30
0.0
 10
-1.713320247274836
 20
-51.13670189391596
 30
0.0
 10
-1.605110668129185
 20
-51.18273467667824
 30
0.0
 10
-1.505941873353875
 20
-51.2447933749227
 30
0.0
 10
-1.448549981223324
 20
-51.2977055291968
 30
0.0
 10
-1.419891357419999
 20
-51.32412719726997
 30
0.0
 11
-1.829193115229998
 21
-51.12521362304997
 31
0.0
 11
-1.71469116211
 21
-51.14242553710997
 31
0.0
 11
-1.606994628910001
 21
-51.18521118163997
 31
0.0
 11
-1.508087158199998
 21
-51.24771118163997
 31
0.0
 11
-1.419891357419999
 21
-51.32412719726997
 31
0.0
  0
SPLINE
  5
7E84
330
1F
100
AcDbEntity
  8
AM_0
  6
CONTINUOUS
 48
0.5
100
AcDbSpline
210
0.0
220
0.0
230
1.0
 70
     8
 71
     3
 72
    11
 73
     7
 74
     5
 42
0.0000000001
 43
0.0000000001
 44
0.0000000001
 40
0.0
 40
0.0
 40
0.0
 40
0.0
 40
0.1166776693056477
 40
0.2345247537705004
 40
0.3513980179900764
 40
0.467929560885135
 40
0.467929560885135
 40
0.467929560885135
 40
0.467929560885135
 10
-1.419891357419999
 20
-51.32412719726997
 30
0.0
 10
-1.393237940415663
 20
-51.35256640885009
 30
0.0
 10
-1.339663969515461
 20
-51.40972986723031
 30
0.0
 10
-1.276782928691014
 20
-51.50910861514219
 30
0.0
 10
-1.2293431186461
 20
-51.6175958252165
 30
0.0
 10
-1.220506707636211
 20
-51.69530342609991
 30
0.0
 10
-1.216094970699998
 20
-51.73410034179998
 30
0.0
 11
-1.419891357419999
 21
-51.32412719726997
 31
0.0
 11
-1.34280395508
 21
-51.41171264648997
 31
0.0
 11
-1.279205322270001
 21
-51.51092529296997
 31
0.0
 11
-1.234985351559998
 21
-51.61911010742997
 31
0.0
 11
-1.216094970699998
 21
-51.73410034179998
 31
0.0
  0
SPLINE
  5
7E85
330
1F
100
AcDbEntity
  8
AM_0
  6
CONTINUOUS
 48
0.5
100
AcDbSpline
210
0.0
220
0.0
230
1.0
 70
     8
 71
     3
 72
    11
 73
     7
 74
     5
 42
0.0000000001
 43
0.0000000001
 44
0.0000000001
 40
0.0
 40
0.0
 40
0.0
 40
0.0
 40
1.293055165931382
 40
2.591414527039193
 40
3.895150879892812
 40
5.204172192223971
 40
5.204172192223971
 40
5.204172192223971
 40
5.204172192223971
 10
-0.0275878906199978
 20
-56.24752807617998
 30
0.0
 10
-0.0387796435762123
 20
-55.81665481169501
 30
0.0
 10
-0.0612090587766672
 20
-54.95314081297486
 30
0.0
 10
-0.0987558978544416
 20
-53.65529851905098
 30
0.0
 10
-0.1393427873959446
 20
-52.35222326925932
 30
0.0
 10
-0.1688845457400125
 20
-51.48180485782789
 30
0.0
 10
-0.183685302729998
 20
-51.04571533203998
 30
0.0
 11
-0.0275878906199978
 21
-56.24752807617998
 31
0.0
 11
-0.0617980956999986
 21
-54.95492553710997
 31
0.0
 11
-0.0991821289100017
 21
-53.65710449218997
 31
0.0
 11
-0.1398925781199978
 21
-52.35400390624997
 31
0.0
 11
-0.183685302729998
 21
-51.04571533203998
 31
0.0
  0
SPLINE
  5
7E86
330
1F
100
AcDbEntity
  8
AM_0
  6
CONTINUOUS
 48
0.5
100
AcDbSpline
210
0.0
220
0.0
230
1.0
 70
     8
 71
     3
 72
    11
 73
     7
 74
     5
 42
0.0000000001
 43
0.0000000001
 44
0.0000000001
 40
0.0
 40
0.0
 40
0.0
 40
0.0
 40
0.494107321605365
 40
0.9256402607567419
 40
1.358957564346443
 40
1.857396473337371
 40
1.857396473337371
 40
1.857396473337371
 40
1.857396473337371
 10
-2.623291015619997
 20
-51.37661743163997
 30
0.0
 10
-2.45912976259345
 20
-51.40259761309952
 30
0.0
 10
-2.15159684734754
 20
-51.45126781264763
 30
0.0
 10
-1.759803673686461
 20
-51.70591028017934
 30
0.0
 10
-1.502188502055481
 20
-52.09713747825844
 30
0.0
 10
-1.449169283662202
 20
-52.40592266988098
 30
0.0
 10
-1.420806884770001
 20
-52.57110595703998
 30
0.0
 11
-2.623291015619997
 21
-51.37661743163997
 31
0.0
 11
-2.142395019529999
 21
-51.49011230468997
 31
0.0
 11
-1.781707763669999
 21
-51.72702026367997
 31
0.0
 11
-1.541107177729998
 21
-52.08740234374997
 31
0.0
 11
-1.420806884770001
 21
-52.57110595703998
 31
0.0
  0
ELLIPSE
  5
7E87
330
1F
100
AcDbEntity
  8
AM_0
  6
CONTINUOUS
 48
0.5
100
AcDbEllipse
 10
-0.8155822753899997
 20
-61.67370605468997
 30
0.0
 11
0.5714416468999844
 21
-0.6331787036099854
 31
0.0
210
0.0
220
0.0
230
-1.0
 40
0.9192111985961
 41
5.488300790266648
 42
6.959475179307912
  0
SPLINE
  5
7E88
330
1F
100
AcDbEntity
  8
AM_0
  6
CONTINUOUS
 48
0.5
100
AcDbSpline
210
0.0
220
0.0
230
1.0
 70
     8
 71
     3
 72
    11
 73
     7
 74
     5
 42
0.0000000001
 43
0.0000000001
 44
0.0000000001
 40
0.0
 40
0.0
 40
0.0
 40
0.0
 40
0.2278512278697912
 40
0.456611653028274
 40
0.686169573763212
 40
0.9159080139571202
 40
0.9159080139571202
 40
0.9159080139571202
 40
0.9159080139571202
 10
-0.7394104003899998
 20
-62.34710693359997
 30
0.0
 10
-0.6635246917848575
 20
-62.33291696863555
 30
0.0
 10
-0.5114504669875375
 20
-62.30448041633168
 30
0.0
 10
-0.3307828967815317
 20
-62.15473031227155
 30
0.0
 10
-0.1858512411428271
 20
-61.96964478157112
 30
0.0
 10
-0.1604237970845078
 20
-61.81617530039993
 30
0.0
 10
-0.1477050781199978
 20
-61.73941040038997
 30
0.0
 11
-0.7394104003899998
 21
-62.34710693359997
 31
0.0
 11
-0.5196838378899998
 21
-62.28680419921997
 31
0.0
 11
-0.3370056152299981
 21
-62.14910888671997
 31
0.0
 11
-0.2037048339799981
 21
-61.96221923828997
 31
0.0
 11
-0.1477050781199978
 21
-61.73941040038997
 31
0.0
  0
SPLINE
  5
7E89
330
1F
100
AcDbEntity
  8
AM_0
  6
CONTINUOUS
 48
0.5
100
AcDbSpline
210
0.0
220
0.0
230
1.0
 70
     8
 71
     3
 72
    11
 73
     7
 74
     5
 42
0.0000000001
 43
0.0000000001
 44
0.0000000001
 40
0.0
 40
0.0
 40
0.0
 40
0.0
 40
1.271216692845246
 40
2.550245907164884
 40
3.837050478757737
 40
5.131624324462331
 40
5.131624324462331
 40
5.131624324462331
 40
5.131624324462331
 10
-6.313110351559998
 20
-50.00381469726997
 30
0.0
 10
-5.889371894561207
 20
-50.00482372880179
 30
0.0
 10
-5.039290809446726
 20
-50.0068479930745
 30
0.0
 10
-3.760309551442837
 20
-50.01706522057954
 30
0.0
 10
-2.473589235321126
 20
-50.03205376885283
 30
0.0
 10
-1.613255014055036
 20
-50.04682293006634
 30
0.0
 10
-1.181793212889999
 20
-50.05422973632997
 30
0.0
 11
-6.313110351559998
 21
-50.00381469726997
 31
0.0
 11
-5.041900634770001
 21
-50.00802612304998
 31
0.0
 11
-3.762908935550001
 21
-50.01782226562998
 31
0.0
 11
-2.476196289059998
 21
-50.03320312499997
 31
0.0
 11
-1.181793212889999
 21
-50.05422973632997
 31
0.0
  0
SPLINE
  5
7E8A
330
1F
100
AcDbEntity
  8
AM_0
  6
CONTINUOUS
 48
0.5
100
AcDbSpline
210
0.0
220
0.0
230
1.0
 70
     8
 71
     3
 72
    11
 73
     7
 74
     5
 42
0.0000000001
 43
0.0000000001
 44
0.0000000001
 40
0.0
 40
0.0
 40
0.0
 40
0.0
 40
1.319051222288573
 40
2.635851013523944
 40
3.950681072080578
 40
5.263274463920037
 40
5.263274463920037
 40
5.263274463920037
 40
5.263274463920037
 10
-0.0275878906199978
 20
-56.24752807617998
 30
0.0
 10
-0.0235024802028292
 20
-56.68719305838845
 30
0.0
 10
-0.01533863257751
 20
-57.56577257780583
 30
0.0
 10
-0.0070499132913426
 20
-58.88264179090024
 30
0.0
 10
-0.0015376065047565
 20
-60.19737295020864
 30
0.0
 10
-0.0005122445456978
 20
-61.07318061517059
 30
0.0
 10
0.0
 20
-61.51071166992998
 30
0.0
 11
-0.0275878906199978
 21
-56.24752807617998
 31
0.0
 11
-0.0159912109400011
 21
-57.56652832031997
 31
0.0
 11
-0.0075073242200006
 21
-58.88330078124997
 31
0.0
 11
-0.0021972656199978
 21
-60.19812011718997
 31
0.0
 11
0.0
 21
-61.51071166992998
 31
0.0
  0
SPLINE
  5
7E8B
330
1F
100
AcDbEntity
  8
AM_0
  6
CONTINUOUS
 48
0.5
100
AcDbSpline
210
0.0
220
0.0
230
1.0
 70
     8
 71
     3
 72
    11
 73
     7
 74
     5
 42
0.0000000001
 43
0.0000000001
 44
0.0000000001
 40
0.0
 40
0.0
 40
0.0
 40
0.0
 40
0.1163597476469186
 40
0.2316294557196564
 40
0.3472028159308023
 40
0.4618674126028123
 40
0.4618674126028123
 40
0.4618674126028123
 40
0.4618674126028123
 10
-1.057495117190001
 20
-60.76971435546997
 30
0.0
 10
-1.060586281893971
 20
-60.80858040370803
 30
0.0
 10
-1.066739653763538
 20
-60.8859484092375
 30
0.0
 10
-1.110064581375707
 20
-60.99472562461076
 30
0.0
 10
-1.169783024258942
 20
-61.09380289903286
 30
0.0
 10
-1.221253531871505
 20
-61.15095138375242
 30
0.0
 10
-1.246887207029999
 20
-61.17941284179997
 30
0.0
 11
-1.057495117190001
 21
-60.76971435546997
 31
0.0
 11
-1.072509765619997
 21
-60.88510131835997
 31
0.0
 11
-1.11279296875
 21
-60.99310302734997
 31
0.0
 11
-1.17288208008
 21
-61.09182739257997
 31
0.0
 11
-1.246887207029999
 21
-61.17941284179997
 31
0.0
  0
SPLINE
  5
7E8C
330
1F
100
AcDbEntity
  8
AM_0
  6
CONTINUOUS
 48
0.5
100
AcDbSpline
210
0.0
220
0.0
230
1.0
 70
     8
 71
     3
 72
    11
 73
     7
 74
     5
 42
0.0000000001
 43
0.0000000001
 44
0.0000000001
 40
0.0
 40
0.0
 40
0.0
 40
0.0
 40
0.0684690753323698
 40
0.1356092522587915
 40
0.2025238911785468
 40
0.2705834957640466
 40
0.2705834957640466
 40
0.2705834957640466
 40
0.2705834957640466
 10
-1.393798828119997
 20
-61.29782104492997
 30
0.0
 10
-1.413510358380805
 20
-61.30939736453837
 30
0.0
 10
-1.45255084295824
 20
-61.33232532199043
 30
0.0
 10
-1.515910934982862
 20
-61.3563764060154
 30
0.0
 10
-1.581585880254837
 20
-61.37256122428409
 30
0.0
 10
-1.626535153802708
 20
-61.37578521766867
 30
0.0
 10
-1.649200439449998
 20
-61.37741088867997
 30
0.0
 11
-1.393798828119997
 21
-61.29782104492997
 31
0.0
 11
-1.45379638672
 21
-61.33081054687997
 31
0.0
 11
-1.516387939449998
 21
-61.35510253906997
 31
0.0
 11
-1.581481933589998
 21
-61.37060546874997
 31
0.0
 11
-1.649200439449998
 21
-61.37741088867997
 31
0.0
  0
SPLINE
  5
7E8D
330
1F
100
AcDbEntity
  8
AM_0
  6
CONTINUOUS
 48
0.5
100
AcDbSpline
210
0.0
220
0.0
230
1.0
 70
     8
 71
     3
 72
    11
 73
     7
 74
     5
 42
0.0000000001
 43
0.0000000001
 44
0.0000000001
 40
0.0
 40
0.0
 40
0.0
 40
0.0
 40
0.0476719834211699
 40
0.0949702719152742
 40
0.1420223308724418
 40
0.1891000351498625
 40
0.1891000351498625
 40
0.1891000351498625
 40
0.1891000351498625
 10
-1.246887207029999
 20
-61.17941284179997
 30
0.0
 10
-1.258122297452265
 20
-61.19065724865151
 30
0.0
 10
-1.280504407778336
 20
-61.21305791880575
 30
0.0
 10
-1.316428908461475
 20
-61.2439540394855
 30
0.0
 10
-1.354062796967935
 20
-61.27241982379762
 30
0.0
 10
-1.380490049245583
 20
-61.28935243347603
 30
0.0
 10
-1.393707275389999
 20
-61.29782104492997
 30
0.0
 11
-1.246887207029999
 21
-61.17941284179997
 31
0.0
 11
-1.281005859369997
 21
-61.21270751953997
 31
0.0
 11
-1.316802978520001
 21
-61.24362182617997
 31
0.0
 11
-1.354400634770001
 21
-61.27191162109998
 31
0.0
 11
-1.393707275389999
 21
-61.29782104492997
 31
0.0
  0
SPLINE
  5
7E8E
330
1F
100
AcDbEntity
  8
AM_0
  6
CONTINUOUS
 48
0.5
100
AcDbSpline
210
0.0
220
0.0
230
1.0
 70
     8
 71
     3
 72
    11
 73
     7
 74
     5
 42
0.0000000001
 43
0.0000000001
 44
0.0000000001
 40
0.0
 40
0.0
 40
0.0
 40
0.0
 40
1.31478966872652
 40
2.625019651385557
 40
3.930652702700534
 40
5.231683594163551
 40
5.231683594163551
 40
5.231683594163551
 40
5.231683594163551
 10
-6.313110351559998
 20
-50.00381469726997
 30
0.0
 10
-6.751374303128178
 20
-50.00391674385316
 30
0.0
 10
-7.626382308381724
 20
-50.00412048312233
 30
0.0
 10
-8.936583931090208
 20
-50.01152374547361
 30
0.0
 10
-10.24216430776601
 20
-50.02365614730772
 30
0.0
 10
-11.11095685194431
 20
-50.03664058252653
 30
0.0
 10
-11.54458618163999
 20
-50.04312133788997
 30
0.0
 11
-6.313110351559998
 21
-50.00381469726997
 31
0.0
 11
-7.627899169919999
 21
-50.00531005859997
 31
0.0
 11
-8.938110351559998
 21
-50.01232910156997
 31
0.0
 11
-10.24368286133
 21
-50.02490234374997
 31
0.0
 11
-11.54458618163999
 21
-50.04312133788997
 31
0.0
  0
ELLIPSE
  5
7E8F
330
1F
100
AcDbEntity
  8
AM_0
  6
CONTINUOUS
 48
0.5
100
AcDbEllipse
 10
-11.69229125977
 20
-50.86941528320997
 30
0.0
 11
0.5714416469099888
 21
-0.6331787036099854
 31
0.0
210
0.0
220
0.0
230
-1.0
 40
0.9192111985961
 41
2.346715390780831
 42
3.817890167206236
  0
SPLINE
  5
7E90
330
1F
100
AcDbEntity
  8
AM_0
  6
CONTINUOUS
 48
0.5
100
AcDbSpline
210
0.0
220
0.0
230
1.0
 70
     8
 71
     3
 72
    11
 73
     7
 74
     5
 42
0.0000000001
 43
0.0000000001
 44
0.0000000001
 40
0.0
 40
0.0
 40
0.0
 40
0.0
 40
0.2277335126057062
 40
0.4566465252025659
 40
0.6861299164076948
 40
0.9158683565919004
 40
0.9158683565919004
 40
0.9158683565919004
 40
0.9158683565919004
 10
-11.76858520508
 20
-50.19601440429998
 30
0.0
 10
-11.84442757433453
 20
-50.21021284274318
 30
0.0
 10
-11.99650512316318
 20
-50.23868325758993
 30
0.0
 10
-12.17714466323636
 20
-50.38843758780988
 30
0.0
 10
-12.32216680009654
 20
-50.57348894794123
 30
0.0
 10
-12.34757791386677
 20
-50.72694186537838
 30
0.0
 10
-12.36029052733999
 20
-50.80371093749997
 30
0.0
 11
-11.76858520508
 21
-50.19601440429998
 31
0.0
 11
-11.98818969727
 21
-50.25631713867998
 31
0.0
 11
-12.17098999022999
 21
-50.39410400390997
 31
0.0
 11
-12.30429077147999
 21
-50.58090209960997
 31
0.0
 11
-12.36029052733999
 21
-50.80371093749997
 31
0.0
  0
SPLINE
  5
7E91
330
1F
100
AcDbEntity
  8
AM_0
  6
CONTINUOUS
 48
0.5
100
AcDbSpline
210
0.0
220
0.0
230
1.0
 70
     8
 71
     3
 72
    11
 73
     7
 74
     5
 42
0.0000000001
 43
0.0000000001
 44
0.0000000001
 40
0.0
 40
0.0
 40
0.0
 40
0.0
 40
0.4944579053829359
 40
0.9204442433071125
 40
1.344604443189276
 40
1.834596542145024
 40
1.834596542145024
 40
1.834596542145024
 40
1.834596542145024
 10
-1.293182373050001
 20
-59.84030151367997
 30
0.0
 10
-1.315582018890443
 20
-60.0050860019291
 30
0.0
 10
-1.357279451253235
 20
-60.31183594351968
 30
0.0
 10
-1.601568320410071
 20
-60.70510490739577
 30
0.0
 10
-1.987011703138078
 20
-60.95942411719234
 30
0.0
 10
-2.290906581919232
 20
-61.00688092860821
 30
0.0
 10
-2.45379638672
 20
-61.03231811523997
 30
0.0
 11
-1.293182373050001
 21
-59.84030151367997
 31
0.0
 11
-1.396606445309998
 21
-60.32382202148998
 31
0.0
 11
-1.62451171875
 21
-60.68371582031997
 31
0.0
 11
-1.97689819336
 21
-60.91979980468997
 31
0.0
 11
-2.45379638672
 21
-61.03231811523997
 31
0.0
  0
SPLINE
  5
7E92
330
1F
100
AcDbEntity
  8
AM_0
  6
CONTINUOUS
 48
0.5
100
AcDbSpline
210
0.0
220
0.0
230
1.0
 70
     8
 71
     3
 72
    11
 73
     7
 74
     5
 42
0.0000000001
 43
0.0000000001
 44
0.0000000001
 40
0.0
 40
0.0
 40
0.0
 40
0.0
 40
0.0685907535316376
 40
0.1357309304580592
 40
0.2026455693801324
 40
0.2708054716619772
 40
0.2708054716619772
 40
0.2708054716619772
 40
0.2708054716619772
 10
-11.03210449219
 20
-51.19522094726997
 30
0.0
 10
-11.01235157071638
 20
-51.18363600904789
 30
0.0
 10
-10.97326346812477
 20
-51.16071113414538
 30
0.0
 10
-10.90987222049366
 20
-51.13662663486854
 30
0.0
 10
-10.84416007664057
 20
-51.1204657037322
 30
0.0
 10
-10.79918440888633
 20
-51.11717138026417
 30
0.0
 10
-10.77648925781
 20
-51.11550903320997
 30
0.0
 11
-11.03210449219
 21
-51.19522094726997
 31
0.0
 11
-10.97198486327999
 21
-51.16220092773997
 31
0.0
 11
-10.90939331055
 21
-51.13790893554997
 31
0.0
 11
-10.84429931641
 21
-51.12240600585997
 31
0.0
 11
-10.77648925781
 21
-51.11550903320997
 31
0.0
  0
SPLINE
  5
7E93
330
1F
100
AcDbEntity
  8
AM_0
  6
CONTINUOUS
 48
0.5
100
AcDbSpline
210
0.0
220
0.0
230
1.0
 70
     8
 71
     3
 72
    11
 73
     7
 74
     5
 42
0.0000000001
 43
0.0000000001
 44
0.0000000001
 40
0.0
 40
0.0
 40
0.0
 40
0.0
 40
0.0476060524741556
 40
0.0948844002184015
 40
0.1419548140214564
 40
0.1890157297108684
 40
0.1890157297108684
 40
0.1890157297108684
 40
0.1890157297108684
 10
-11.17880249022999
 20
-51.31362915038997
 30
0.0
 10
-11.16761681425682
 20
-51.30236524431548
 30
0.0
 10
-11.14532246090062
 20
-51.27991496926746
 30
0.0
 10
-11.10935592748998
 20
-51.24910016439206
 30
0.0
 10
-11.07176995501381
 20
-51.22058315432343
 30
0.0
 10
-11.04532542368895
 20
-51.2036744475759
 30
0.0
 10
-11.03210449219
 20
-51.19522094726997
 30
0.0
 11
-11.17880249022999
 21
-51.31362915038997
 31
0.0
 11
-11.14480590819999
 21
-51.28030395507997
 31
0.0
 11
-11.10900878905999
 21
-51.24942016601997
 31
0.0
 11
-11.07141113280999
 21
-51.22109985351997
 31
0.0
 11
-11.03210449219
 21
-51.19522094726997
 31
0.0
  0
SPLINE
  5
7E94
330
1F
100
AcDbEntity
  8
AM_0
  6
CONTINUOUS
 48
0.5
100
AcDbSpline
210
0.0
220
0.0
230
1.0
 70
     8
 71
     3
 72
    11
 73
     7
 74
     5
 42
0.0000000001
 43
0.0000000001
 44
0.0000000001
 40
0.0
 40
0.0
 40
0.0
 40
0.0
 40
0.116241567249235
 40
0.2314682479428169
 40
0.3470937495877473
 40
0.4618174561882224
 40
0.4618174561882224
 40
0.4618174561882224
 40
0.4618174561882224
 10
-11.36819458008
 20
-51.72320556640997
 30
0.0
 10
-11.36520682646204
 20
-51.68436157903546
 30
0.0
 10
-11.35925740482571
 20
-51.60701274493536
 30
0.0
 10
-11.31562548372092
 20
-51.4983781671135
 30
0.0
 10
-11.25603730892027
 20
-51.39921353908855
 30
0.0
 10
-11.20448014934944
 20
-51.34208272607272
 30
0.0
 10
-11.17880249022999
 20
-51.31362915038997
 30
0.0
 11
-11.36819458008
 21
-51.72320556640997
 31
0.0
 11
-11.35339355469
 21
-51.60791015624997
 31
0.0
 11
-11.31298828125
 21
-51.49999999999997
 31
0.0
 11
-11.25289916991999
 21
-51.40121459960997
 31
0.0
 11
-11.17880249022999
 21
-51.31362915038997
 31
0.0
  0
SPLINE
  5
7E95
330
1F
100
AcDbEntity
  8
AM_0
  6
CONTINUOUS
 48
0.5
100
AcDbSpline
210
0.0
220
0.0
230
1.0
 70
     8
 71
     3
 72
    11
 73
     7
 74
     5
 42
0.0000000001
 43
0.0000000001
 44
0.0000000001
 40
0.0
 40
0.0
 40
0.0
 40
0.0
 40
0.1111634567620932
 40
0.222661724434734
 40
0.3375734107803706
 40
0.4588895779404938
 40
0.4588895779404938
 40
0.4588895779404938
 40
0.4588895779404938
 10
-11.17880249022999
 20
-51.31362915038997
 30
0.0
 10
-11.20342698373191
 20
-51.34145123465874
 30
0.0
 10
-11.25275013673715
 20
-51.39717919995503
 30
0.0
 10
-11.30753867139906
 20
-51.49632773076719
 30
0.0
 10
-11.348267885152
 20
-51.6054513197775
 30
0.0
 10
-11.36143336995451
 20
-51.68325106278921
 30
0.0
 10
-11.36819458008
 20
-51.72320556640997
 30
0.0
 11
-11.17880249022999
 21
-51.31362915038997
 31
0.0
 11
-11.24938964844
 21
-51.39950561523997
 31
0.0
 11
-11.30450439452999
 21
-51.49642944335997
 31
0.0
 11
-11.34408569335999
 21
-51.60430908203998
 31
0.0
 11
-11.36819458008
 21
-51.72320556640997
 31
0.0
  0
SPLINE
  5
7E96
330
1F
100
AcDbEntity
  8
AM_0
  6
CONTINUOUS
 48
0.5
100
AcDbSpline
210
0.0
220
0.0
230
1.0
 70
     8
 71
     3
 72
    11
 73
     7
 74
     5
 42
0.0000000001
 43
0.0000000001
 44
0.0000000001
 40
0.0
 40
0.0
 40
0.0
 40
0.0
 40
1.27185025788344
 40
2.550898188382495
 40
3.837305963512545
 40
5.131173526188409
 40
5.131173526188409
 40
5.131173526188409
 40
5.131173526188409
 10
-6.094207763669999
 20
-62.47790527343997
 30
0.0
 10
-5.670353928778164
 20
-62.48713390341605
 30
0.0
 10
-4.820247579494673
 20
-62.50564339015891
 30
0.0
 10
-3.541164042678219
 20
-62.51664310666789
 30
0.0
 10
-2.254695092813037
 20
-62.51668526108279
 30
0.0
 10
-1.394666784274186
 20
-62.50557246303098
 30
0.0
 10
-0.9634094238300008
 20
-62.49999999999997
 30
0.0
 11
-6.094207763669999
 21
-62.47790527343997
 31
0.0
 11
-4.82260131836
 21
-62.50280761718997
 31
0.0
 11
-3.543609619139999
 21
-62.51480102538997
 31
0.0
 11
-2.257202148440001
 21
-62.51391601562997
 31
0.0
 11
-0.9634094238300008
 21
-62.49999999999997
 31
0.0
  0
SPLINE
  5
7E97
330
1F
100
AcDbEntity
  8
AM_0
  6
CONTINUOUS
 48
0.5
100
AcDbSpline
210
0.0
220
0.0
230
1.0
 70
     8
 71
     3
 72
    11
 73
     7
 74
     5
 42
0.0000000001
 43
0.0000000001
 44
0.0000000001
 40
0.0
 40
0.0
 40
0.0
 40
0.0
 40
1.293164391134196
 40
2.57896190466383
 40
3.857430026685914
 40
5.12857851489808
 40
5.12857851489808
 40
5.12857851489808
 40
5.12857851489808
 10
-0.9685974121100002
 20
-62.35092163085997
 30
0.0
 10
-1.399620928685896
 20
-62.35642855695171
 30
0.0
 10
-2.259212514167559
 20
-62.3674110373693
 30
0.0
 10
-3.545049802688974
 20
-62.36761624671911
 30
0.0
 10
-4.823502891174502
 20
-62.35655335505599
 30
0.0
 10
-5.673181910040738
 20
-62.33805134889522
 30
0.0
 10
-6.096801757809998
 20
-62.32882690429997
 30
0.0
 11
-0.9685974121100002
 21
-62.35092163085997
 31
0.0
 11
-2.261688232419999
 21
-62.36471557617997
 31
0.0
 11
-3.547485351559998
 21
-62.36572265624997
 31
0.0
 11
-4.825897216800001
 21
-62.35372924804997
 31
0.0
 11
-6.096801757809998
 21
-62.32882690429997
 31
0.0
  0
SPLINE
  5
7E98
330
1F
100
AcDbEntity
  8
AM_0
  6
CONTINUOUS
 48
0.5
100
AcDbSpline
210
0.0
220
0.0
230
1.0
 70
     8
 71
     3
 72
    11
 73
     7
 74
     5
 42
0.0000000001
 43
0.0000000001
 44
0.0000000001
 40
0.0
 40
0.0
 40
0.0
 40
0.0
 40
0.4945410521492148
 40
0.920424264183069
 40
1.34465241949608
 40
1.834616501493803
 40
1.834616501493803
 40
1.834616501493803
 40
1.834616501493803
 10
-10.98208618164
 20
-52.56091308593997
 30
0.0
 10
-10.95971588868761
 20
-52.39608665276219
 30
0.0
 10
-10.91808100248196
 20
-52.08931687537713
 30
0.0
 10
-10.67364792002481
 20
-51.69614902961003
 30
0.0
 10
-10.28835087629172
 20
-51.44164696656005
 30
0.0
 10
-9.984403953780391
 20
-51.39430179122541
 30
0.0
 10
-9.821502685550001
 20
-51.36892700195997
 30
0.0
 11
-10.98208618164
 21
-52.56091308593997
 31
0.0
 11
-10.87869262694999
 21
-52.07730102538997
 31
0.0
 11
-10.65078735352
 21
-51.71752929687997
 31
0.0
 11
-10.29840087891
 21
-51.48132324218997
 31
0.0
 11
-9.821502685550001
 21
-51.36892700195997
 31
0.0
  0
SPLINE
  5
7E99
330
1F
100
AcDbEntity
  8
AM_0
  6
CONTINUOUS
 48
0.5
100
AcDbSpline
210
0.0
220
0.0
230
1.0
 70
     8
 71
     3
 72
    11
 73
     7
 74
     5
 42
0.0000000001
 43
0.0000000001
 44
0.0000000001
 40
0.0
 40
0.0
 40
0.0
 40
0.0
 40
1.293764048419155
 40
2.592160824449166
 40
3.895490093484788
 40
5.203750744210527
 40
5.203750744210527
 40
5.203750744210527
 40
5.203750744210527
 10
-12.37969970703
 20
-56.23422241210997
 30
0.0
 10
-12.39905735618144
 20
-55.80339678458689
 30
0.0
 10
-12.43784197061334
 20
-54.94020282337069
 30
0.0
 10
-12.47644027837017
 20
-53.64223994822154
 30
0.0
 10
-12.50185094139017
 20
-52.33912046172935
 30
0.0
 10
-12.50588381057077
 20
-51.46858890001515
 30
0.0
 10
-12.50790405272999
 20
-51.03250122070997
 30
0.0
 11
-12.37969970703
 21
-56.23422241210997
 31
0.0
 11
-12.43450927734
 21
-54.94161987304997
 31
0.0
 11
-12.47418212891
 21
-53.64382934570997
 31
0.0
 11
-12.49859619141
 21
-52.34072875976997
 31
0.0
 11
-12.50790405272999
 21
-51.03250122070997
 31
0.0
  0
SPLINE
  5
7E9A
330
1F
100
AcDbEntity
  8
AM_0
  6
CONTINUOUS
 48
0.5
100
AcDbSpline
210
0.0
220
0.0
230
1.0
 70
     8
 71
     3
 72
    11
 73
     7
 74
     5
 42
0.0000000001
 43
0.0000000001
 44
0.0000000001
 40
0.0
 40
0.0
 40
0.0
 40
0.0
 40
0.1166291365570371
 40
0.2344762210303124
 40
0.3514008359167271
 40
0.468007926882469
 40
0.468007926882469
 40
0.468007926882469
 40
0.468007926882469
 10
-11.00588989258
 20
-61.16882324218997
 30
0.0
 10
-11.03256034553242
 20
-61.1404196164872
 30
0.0
 10
-11.0861797686548
 20
-61.08331574849204
 30
0.0
 10
-11.14901044761092
 20
-60.98390709413033
 30
0.0
 10
-11.1965777786492
 20
-60.87541989068823
 30
0.0
 10
-11.20532074157123
 20
-60.79765110389081
 30
0.0
 10
-11.2096862793
 20
-60.75881958007997
 30
0.0
 11
-11.00588989258
 21
-61.16882324218997
 31
0.0
 11
-11.0830078125
 21
-61.08132934570997
 31
0.0
 11
-11.14660644530999
 21
-60.98211669921997
 31
0.0
 11
-11.19088745116999
 21
-60.87390136718997
 31
0.0
 11
-11.2096862793
 21
-60.75881958007997
 31
0.0
  0
SPLINE
  5
7E9B
330
1F
100
AcDbEntity
  8
AM_0
  6
CONTINUOUS
 48
0.5
100
AcDbSpline
210
0.0
220
0.0
230
1.0
 70
     8
 71
     3
 72
    11
 73
     7
 74
     5
 42
0.0000000001
 43
0.0000000001
 44
0.0000000001
 40
0.0
 40
0.0
 40
0.0
 40
0.0
 40
0.1157883727059974
 40
0.2316388312164024
 40
0.3487038193785918
 40
0.4654395832696633
 40
0.4654395832696633
 40
0.4654395832696633
 40
0.4654395832696633
 10
-10.59658813477
 20
-61.36782836913997
 30
0.0
 10
-10.6351969092979
 20
-61.36398908660457
 30
0.0
 10
-10.71243516040493
 20
-61.35630846290787
 30
0.0
 10
-10.8207288788843
 20
-61.31044096818897
 30
0.0
 10
-10.91982012924571
 20
-61.24819685442115
 30
0.0
 10
-10.97722691707319
 20
-61.19525626367317
 30
0.0
 10
-11.00588989258
 20
-61.16882324218997
 30
0.0
 11
-10.59658813477
 21
-61.36782836913997
 31
0.0
 11
-10.71109008789
 21
-61.35061645507997
 31
0.0
 11
-10.81878662108999
 21
-61.30792236328997
 31
0.0
 11
-10.9176940918
 21
-61.24530029296997
 31
0.0
 11
-11.00588989258
 21
-61.16882324218997
 31
0.0
  0
SPLINE
  5
7E9C
330
1F
100
AcDbEntity
  8
AM_0
  6
CONTINUOUS
 48
0.5
100
AcDbSpline
210
0.0
220
0.0
230
1.0
 70
     8
 71
     3
 72
    11
 73
     7
 74
     5
 42
0.0000000001
 43
0.0000000001
 44
0.0000000001
 40
0.0
 40
0.0
 40
0.0
 40
0.0
 40
0.1130464438732793
 40
0.2257928505037024
 40
0.3414149127616977
 40
0.4625682104561186
 40
0.4625682104561186
 40
0.4625682104561186
 40
0.4625682104561186
 10
-11.00588989258
 20
-61.16882324218997
 30
0.0
 10
-10.97789876441895
 20
-61.19419136433208
 30
0.0
 10
-10.92199079951753
 20
-61.2448602789316
 30
0.0
 10
-10.82284459952521
 20
-61.30218495157977
 30
0.0
 10
-10.7139980227549
 20
-61.34531551911381
 30
0.0
 10
-10.63632956035134
 20
-61.36020811867134
 30
0.0
 10
-10.59658813477
 20
-61.36782836913997
 30
0.0
 11
-11.00588989258
 21
-61.16882324218997
 31
0.0
 11
-10.91949462891
 21
-61.24172973632997
 31
0.0
 11
-10.82250976561999
 21
-61.29922485351997
 31
0.0
 11
-10.71478271483999
 21
-61.34121704101997
 31
0.0
 11
-10.59658813477
 21
-61.36782836913997
 31
0.0
  0
ELLIPSE
  5
7E9D
330
1F
100
AcDbEntity
  8
AM_0
  6
CONTINUOUS
 48
0.5
100
AcDbEllipse
 10
-11.50289916992
 20
-61.66220092773997
 30
0.0
 11
-0.5205993684600117
 21
-0.6557617228099844
 31
0.0
210
0.0
220
0.0
230
-1.0
 40
0.9537956027345
 41
5.653643847883563
 42
7.125691926890482
  0
SPLINE
  5
7E9E
330
1F
100
AcDbEntity
  8
AM_0
  6
CONTINUOUS
 48
0.5
100
AcDbSpline
210
0.0
220
0.0
230
1.0
 70
     8
 71
     3
 72
    11
 73
     7
 74
     5
 42
0.0000000001
 43
0.0000000001
 44
0.0000000001
 40
0.0
 40
0.0
 40
0.0
 40
0.0
 40
0.2319972302335557
 40
0.4656339287883602
 40
0.6986259806642057
 40
0.928465726237577
 40
0.928465726237577
 40
0.928465726237577
 40
0.928465726237577
 10
-12.16860961914
 20
-61.72650146484997
 30
0.0
 10
-12.15307062427788
 20
-61.80346696047436
 30
0.0
 10
-12.12188282423482
 20
-61.95794184826787
 30
0.0
 10
-11.97060800236043
 20
-62.14212173009646
 30
0.0
 10
-11.78594908301153
 20
-62.29200790102956
 30
0.0
 10
-11.63197444153719
 20
-62.32107546180888
 30
0.0
 10
-11.55551147461
 20
-62.33551025390998
 30
0.0
 11
-12.16860961914
 21
-61.72650146484997
 31
0.0
 11
-12.10470581055
 21
-61.94952392578997
 31
0.0
 11
-11.96478271483999
 21
-62.13662719726997
 31
0.0
 11
-11.77719116211
 21
-62.27481079101997
 31
0.0
 11
-11.55551147461
 21
-62.33551025390998
 31
0.0
  0
SPLINE
  5
7E9F
330
1F
100
AcDbEntity
  8
AM_0
  6
CONTINUOUS
 48
0.5
100
AcDbSpline
210
0.0
220
0.0
230
1.0
 70
     8
 71
     3
 72
    11
 73
     7
 74
     5
 42
0.0000000001
 43
0.0000000001
 44
0.0000000001
 40
0.0
 40
0.0
 40
0.0
 40
0.0
 40
1.314577781191367
 40
2.624822024367815
 40
3.930613378349256
 40
5.232234098129384
 40
5.232234098129384
 40
5.232234098129384
 40
5.232234098129384
 10
-6.094207763669999
 20
-62.47790527343997
 30
0.0
 10
-6.532326102006347
 20
-62.48617771261061
 30
0.0
 10
-7.407118510792137
 20
-62.50269532065252
 30
0.0
 10
-8.717322288725778
 20
-62.51117571108503
 30
0.0
 10
-10.02323361921653
 20
-62.50841995712729
 30
0.0
 10
-10.89228178921273
 20
-62.49541446424313
 30
0.0
 10
-11.32611083983999
 20
-62.48892211913997
 30
0.0
 11
-6.094207763669999
 21
-62.47790527343997
 31
0.0
 11
-7.408599853520001
 21
-62.49999999999997
 31
0.0
 11
-8.718811035160001
 21
-62.50930786132997
 31
0.0
 11
-10.02459716797
 21
-62.50561523437998
 31
0.0
 11
-11.32611083983999
 21
-62.48892211913997
 31
0.0
  0
SPLINE
  5
7EA0
330
1F
100
AcDbEntity
  8
AM_0
  6
CONTINUOUS
 48
0.5
100
AcDbSpline
210
0.0
220
0.0
230
1.0
 70
     8
 71
     3
 72
    11
 73
     7
 74
     5
 42
0.0000000001
 43
0.0000000001
 44
0.0000000001
 40
0.0
 40
0.0
 40
0.0
 40
0.0
 40
1.319030967183292
 40
2.635849098316108
 40
3.950811945597035
 40
5.263915963898524
 40
5.263915963898524
 40
5.263915963898524
 40
5.263915963898524
 10
-12.37969970703
 20
-56.23422241210997
 30
0.0
 10
-12.38380151121693
 20
-56.67388599986384
 30
0.0
 10
-12.39199823831173
 20
-57.55247558583707
 30
0.0
 10
-12.38451580648047
 20
-58.86942950826683
 30
0.0
 10
-12.36430933667671
 20
-60.18427418355187
 30
0.0
 10
-12.33763702561288
 20
-61.05990184193672
 30
0.0
 10
-12.32431030272999
 20
-61.49740600585997
 30
0.0
 11
-12.37969970703
 21
-56.23422241210997
 31
0.0
 11
-12.38870239258
 21
-57.55322265624997
 31
0.0
 11
-12.38238525391
 21
-58.87002563476997
 31
0.0
 11
-12.36099243164
 21
-60.18481445312997
 31
0.0
 11
-12.32431030272999
 21
-61.49740600585997
 31
0.0
  0
SPLINE
  5
7EA1
330
1F
100
AcDbEntity
  8
AM_0
  6
CONTINUOUS
 48
0.5
100
AcDbSpline
210
0.0
220
0.0
230
1.0
 70
     8
 71
     3
 72
    11
 73
     7
 74
     5
 42
0.0000000001
 43
0.0000000001
 44
0.0000000001
 40
0.0
 40
0.0
 40
0.0
 40
0.0
 40
1.312524410713453
 40
2.626787439298686
 40
3.94302559700469
 40
5.261354676255537
 40
5.261354676255537
 40
5.261354676255537
 40
5.261354676255537
 10
-12.17660522461
 20
-61.49502563476997
 30
0.0
 10
-12.18991711076686
 20
-61.05771452883288
 30
0.0
 10
-12.21655851649218
 20
-60.1825130386625
 30
0.0
 10
-12.23698831843255
 20
-58.86829171539041
 30
0.0
 10
-12.24436333568487
 20
-57.55199718782372
 30
0.0
 10
-12.23618073102685
 20
-56.67383505848113
 30
0.0
 10
-12.23208618164
 20
-56.23440551757997
 30
0.0
 11
-12.17660522461
 21
-61.49502563476997
 31
0.0
 11
-12.21328735352
 21
-60.18301391601998
 31
0.0
 11
-12.23480224608999
 21
-58.86892700195997
 31
0.0
 11
-12.24108886719
 21
-57.55270385742997
 31
0.0
 11
-12.23208618164
 21
-56.23440551757997
 31
0.0
  0
SPLINE
  5
7EA2
330
1F
100
AcDbEntity
  8
AM_0
  6
CONTINUOUS
 48
0.5
100
AcDbSpline
210
0.0
220
0.0
230
1.0
 70
     8
 71
     3
 72
    11
 73
     7
 74
     5
 42
0.0000000001
 43
0.0000000001
 44
0.0000000001
 40
0.0
 40
0.0
 40
0.0
 40
0.0
 40
0.4940863002682061
 40
0.9256695078833033
 40
1.358910671731817
 40
1.85743842737167
 40
1.85743842737167
 40
1.85743842737167
 40
1.85743842737167
 10
-9.652008056639999
 20
-61.02450561523998
 30
0.0
 10
-9.816177743091309
 20
-60.99857229849833
 30
0.0
 10
-10.12374926001911
 20
-60.94998629129069
 30
0.0
 10
-10.51543398445122
 20
-60.69520438951771
 30
0.0
 10
-10.77315874249926
 20
-60.30404792206713
 30
0.0
 10
-10.82614353753125
 20
-59.99523982370561
 30
0.0
 10
-10.8544921875
 20
-59.83001708984997
 30
0.0
 11
-9.652008056639999
 21
-61.02450561523998
 31
0.0
 11
-10.13290405272999
 21
-60.91110229492997
 31
0.0
 11
-10.49359130858999
 21
-60.67410278320997
 31
0.0
 11
-10.73419189453
 21
-60.31381225585997
 31
0.0
 11
-10.8544921875
 21
-59.83001708984997
 31
0.0
  0
ELLIPSE
  5
7EA3
330
1F
100
AcDbEntity
  8
AM_0
  6
CONTINUOUS
 48
0.5
100
AcDbEllipse
 10
-6.137603759770001
 20
-56.20062255859997
 30
0.0
 11
1.645233162160025
 21
-2.69616695704002
 31
0.0
210
0.0
220
0.0
230
-1.0
 40
0.9791076186809998
 41
3.576266351061386
 42
5.84859554926446
  0
ELLIPSE
  5
7EA4
330
1F
100
AcDbEntity
  8
AM_0
  6
CONTINUOUS
 48
0.5
100
AcDbEllipse
 10
-6.137603759770001
 20
-56.20062255859997
 30
0.0
 11
1.645233162160025
 21
-2.69616695704002
 31
0.0
210
0.0
220
0.0
230
-1.0
 40
0.9791076186809998
 41
5.848580804279882
 42
9.859451593787555
  0
LINE
  5
7EA5
330
1F
100
AcDbEntity
  8
AM_0
  6
CONTINUOUS
 48
0.5
100
AcDbLine
 10
-7.307281494139999
 20
-33.77380371092999
 30
0.0
 11
-0.9999389648399983
 21
-47.29998779295999
 31
0.0
  0
ARC
  5
7EA6
330
1F
100
AcDbEntity
  8
AM_0
  6
CONTINUOUS
 48
0.5
100
AcDbCircle
 10
-16.37036132811999
 20
-38.0
 30
0.0
 40
10.0
100
AcDbArc
 50
25.00000695669462
 51
89.99998201391099
  0
ARC
  5
7EA7
330
1F
100
AcDbEntity
  8
AM_0
  6
CONTINUOUS
 48
0.5
100
AcDbCircle
 10
-26.0
 20
-20.04999999999
 30
0.0
 40
1.0
100
AcDbArc
 50
0.0
 51
89.99998201391099
  0
LINE
  5
7EA8
330
1F
100
AcDbEntity
  8
AM_0
  6
CONTINUOUS
 48
0.5
100
AcDbLine
 10
-25.0
 20
-28.0
 30
0.0
 11
-16.37036132811999
 21
-28.0
 31
0.0
  0
LINE
  5
7EA9
330
1F
100
AcDbEntity
  8
AM_0
  6
CONTINUOUS
 48
0.5
100
AcDbLine
 10
-6.227600097660001
 20
-51.07440185546997
 30
0.0
 11
-9.821502685550001
 21
-51.36892700195997
 31
0.0
  0
LINE
  5
7EAA
330
1F
100
AcDbEntity
  8
AM_0
  6
CONTINUOUS
 48
0.5
100
AcDbLine
 10
-6.227600097660001
 20
-51.07440185546997
 30
0.0
 11
-9.821502685550001
 21
-51.36892700195997
 31
0.0
  0
LINE
  5
7EAB
330
1F
100
AcDbEntity
  8
AM_0
  6
CONTINUOUS
 48
0.5
100
AcDbLine
 10
-6.310485839839998
 20
-50.15298461913997
 30
0.0
 11
-11.53942871094
 21
-50.19229125976997
 31
0.0
  0
LINE
  5
7EAC
330
1F
100
AcDbEntity
  8
AM_0
  6
CONTINUOUS
 48
0.5
100
AcDbLine
 10
-6.227600097660001
 20
-51.07443237304997
 30
0.0
 11
-10.77648925781
 21
-51.11553955078997
 31
0.0
  0
LINE
  5
7EAD
330
1F
100
AcDbEntity
  8
AM_0
  6
CONTINUOUS
 48
0.5
100
AcDbLine
 10
-6.04769897461
 20
-61.32672119140997
 30
0.0
 11
-10.59658813477
 21
-61.36782836913997
 31
0.0
  0
LINE
  5
7EAE
330
1F
100
AcDbEntity
  8
AM_0
  6
CONTINUOUS
 48
0.5
100
AcDbLine
 10
-6.096801757809998
 20
-62.32882690429997
 30
0.0
 11
-11.32620239258
 21
-62.33972167968997
 31
0.0
  0
LINE
  5
7EAF
330
1F
100
AcDbEntity
  8
AM_0
  6
CONTINUOUS
 48
0.5
100
AcDbLine
 10
-6.310485839839998
 20
-50.15298461913997
 30
0.0
 11
-11.53942871094
 21
-50.19229125976997
 31
0.0
  0
LINE
  5
7EB0
330
1F
100
AcDbEntity
  8
AM_0
  6
CONTINUOUS
 48
0.5
100
AcDbLine
 10
-6.227600097660001
 20
-51.07443237304997
 30
0.0
 11
-10.77648925781
 21
-51.11553955078997
 31
0.0
  0
LINE
  5
7EB1
330
1F
100
AcDbEntity
  8
AM_0
  6
CONTINUOUS
 48
0.5
100
AcDbLine
 10
-6.04769897461
 20
-61.32672119140997
 30
0.0
 11
-10.59658813477
 21
-61.36782836913997
 31
0.0
  0
LINE
  5
7EB2
330
1F
100
AcDbEntity
  8
AM_0
  6
CONTINUOUS
 48
0.5
100
AcDbLine
 10
-6.096801757809998
 20
-62.32882690429997
 30
0.0
 11
-11.32620239258
 21
-62.33972167968997
 31
0.0
  0
LINE
  5
7EB3
330
1F
100
AcDbEntity
  8
AM_0
  6
CONTINUOUS
 48
0.5
100
AcDbLine
 10
-9.652008056639999
 20
-61.02453613281998
 30
0.0
 11
-6.04769897461
 21
-61.32675170898997
 31
0.0
  0
LINE
  5
7EB4
330
1F
100
AcDbEntity
  8
AM_0
  6
CONTINUOUS
 48
0.5
100
AcDbLine
 10
-9.652008056639999
 20
-61.02453613281998
 30
0.0
 11
-6.04769897461
 21
-61.32675170898997
 31
0.0
  0
LINE
  5
7EB5
330
1F
100
AcDbEntity
  8
AM_0
  6
CONTINUOUS
 48
0.5
100
AcDbLine
 10
-10.98208618164
 20
-52.56091308593997
 30
0.0
 11
-11.21368408202999
 21
-56.19512939453997
 31
0.0
  0
LINE
  5
7EB6
330
1F
100
AcDbEntity
  8
AM_0
  6
CONTINUOUS
 48
0.5
100
AcDbLine
 10
-10.98208618164
 20
-52.56091308593997
 30
0.0
 11
-11.21368408202999
 21
-56.19512939453997
 31
0.0
  0
LINE
  5
7EB7
330
1F
100
AcDbEntity
  8
AM_0
  6
CONTINUOUS
 48
0.5
100
AcDbLine
 10
-14.86660766602
 20
-56.28732299804998
 30
0.0
 11
-14.86660766602
 21
-52.28732299804997
 31
0.0
  0
LINE
  5
7EB8
330
1F
100
AcDbEntity
  8
AM_0
  6
CONTINUOUS
 48
0.5
100
AcDbLine
 10
-12.23205566405999
 20
-56.23443603515998
 30
0.0
 11
-12.36016845703
 21
-51.03521728515997
 31
0.0
  0
LINE
  5
7EB9
330
1F
100
AcDbEntity
  8
AM_0
  6
CONTINUOUS
 48
0.5
100
AcDbLine
 10
-11.21368408202999
 20
-56.19512939453997
 30
0.0
 11
-11.36819458008
 21
-51.72317504882997
 31
0.0
  0
LINE
  5
7EBA
330
1F
100
AcDbEntity
  8
AM_0
  6
CONTINUOUS
 48
0.5
100
AcDbLine
 10
-12.23205566405999
 20
-56.23443603515998
 30
0.0
 11
-12.36016845703
 21
-51.03521728515997
 31
0.0
  0
LINE
  5
7EBB
330
1F
100
AcDbEntity
  8
AM_0
  6
CONTINUOUS
 48
0.5
100
AcDbLine
 10
-11.21368408202999
 20
-56.19512939453997
 30
0.0
 11
-11.36819458008
 21
-51.72317504882997
 31
0.0
  0
LINE
  5
7EBC
330
1F
100
AcDbEntity
  8
AM_0
  6
CONTINUOUS
 48
0.5
100
AcDbLine
 10
-14.86660766602
 20
-56.74511718749997
 30
0.0
 11
-14.86660766602
 21
-50.82952880859997
 31
0.0
  0
LINE
  5
7EBD
330
1F
100
AcDbEntity
  8
AM_0
  6
CONTINUOUS
 48
0.5
100
AcDbLine
 10
-15.36660766602
 20
-51.78732299804997
 30
0.0
 11
-15.36660766602
 21
-56.78732299804997
 31
0.0
  0
LINE
  5
7EBE
330
1F
100
AcDbEntity
  8
AM_0
  6
CONTINUOUS
 48
0.5
100
AcDbLine
 10
-20.86660766602
 20
-56.28732299804998
 30
0.0
 11
-20.86660766602
 21
-52.28732299804997
 31
0.0
  0
LINE
  5
7EBF
330
1F
100
AcDbEntity
  8
AM_0
  6
CONTINUOUS
 48
0.5
100
AcDbLine
 10
-20.36660766602
 20
-56.78732299804997
 30
0.0
 11
-20.36660766602
 21
-51.78732299804997
 31
0.0
  0
LINE
  5
7EC0
330
1F
100
AcDbEntity
  8
AM_7
  6
AM_ISO08W050
 48
0.5
100
AcDbLine
 10
-28.71789550782
 20
-54.28732299804997
 30
0.0
 11
-11.62805175780999
 21
-54.28732299804997
 31
0.0
  0
LINE
  5
7EC1
330
1F
100
AcDbEntity
  8
AM_0
  6
CONTINUOUS
 48
0.5
100
AcDbLine
 10
-20.36660766602
 20
-51.78732299804997
 30
0.0
 11
-15.36660766602
 21
-51.78732299804997
 31
0.0
  0
LINE
  5
7EC2
330
1F
100
AcDbEntity
  8
AM_0
  6
CONTINUOUS
 48
0.5
100
AcDbLine
 10
-20.86660766602
 20
-52.28732299804997
 30
0.0
 11
-14.86660766602
 21
-52.28732299804997
 31
0.0
  0
LINE
  5
7EC3
330
1F
100
AcDbEntity
  8
AM_0
  6
CONTINUOUS
 48
0.5
100
AcDbLine
 10
-20.86660766602
 20
-52.28732299804997
 30
0.0
 11
-20.36660766602
 21
-51.78732299804997
 31
0.0
  0
LINE
  5
7EC4
330
1F
100
AcDbEntity
  8
AM_0
  6
CONTINUOUS
 48
0.5
100
AcDbLine
 10
-11.54458618163999
 20
-50.04312133788997
 30
0.0
 11
-11.53939819335999
 21
-50.19232177734997
 31
0.0
  0
LINE
  5
7EC5
330
1F
100
AcDbEntity
  8
AM_0
  6
CONTINUOUS
 48
0.5
100
AcDbLine
 10
-11.76858520508
 20
-50.19601440429998
 30
0.0
 11
-11.53939819335999
 21
-50.19232177734997
 31
0.0
  0
LINE
  5
7EC6
330
1F
100
AcDbEntity
  8
AM_0
  6
CONTINUOUS
 48
0.5
100
AcDbLine
 10
-11.53942871094
 20
-50.19232177734997
 30
0.0
 11
-10.77648925781
 21
-51.11550903320997
 31
0.0
  0
LINE
  5
7EC7
330
1F
100
AcDbEntity
  8
AM_0
  6
CONTINUOUS
 48
0.5
100
AcDbLine
 10
-11.54458618163999
 20
-50.04312133788997
 30
0.0
 11
-11.77380371094
 21
-50.04690551757997
 31
0.0
  0
LINE
  5
7EC8
330
1F
100
AcDbEntity
  8
AM_0
  6
CONTINUOUS
 48
0.5
100
AcDbLine
 10
-12.50790405272999
 20
-51.03247070312997
 30
0.0
 11
-12.50799560547
 21
-50.80087280273997
 31
0.0
  0
LINE
  5
7EC9
330
1F
100
AcDbEntity
  8
AM_0
  6
CONTINUOUS
 48
0.5
100
AcDbLine
 10
-12.50790405272999
 20
-51.03253173828997
 30
0.0
 11
-12.36016845703
 21
-51.03524780273997
 31
0.0
  0
LINE
  5
7ECA
330
1F
100
AcDbEntity
  8
AM_0
  6
CONTINUOUS
 48
0.5
100
AcDbLine
 10
-12.36029052733999
 20
-50.80371093749997
 30
0.0
 11
-12.36019897461
 21
-51.03521728515997
 31
0.0
  0
LINE
  5
7ECB
330
1F
100
AcDbEntity
  8
AM_0
  6
CONTINUOUS
 48
0.5
100
AcDbLine
 10
-12.36019897461
 20
-51.03521728515997
 30
0.0
 11
-11.36819458008
 21
-51.72320556640997
 31
0.0
  0
LINE
  5
7ECC
330
1F
100
AcDbEntity
  8
AM_0
  6
CONTINUOUS
 48
0.5
100
AcDbLine
 10
-11.54458618163999
 20
-50.04312133788997
 30
0.0
 11
-11.53939819335999
 21
-50.19232177734997
 31
0.0
  0
LINE
  5
7ECD
330
1F
100
AcDbEntity
  8
AM_0
  6
CONTINUOUS
 48
0.5
100
AcDbLine
 10
-11.76858520508
 20
-50.19601440429998
 30
0.0
 11
-11.53939819335999
 21
-50.19232177734997
 31
0.0
  0
LINE
  5
7ECE
330
1F
100
AcDbEntity
  8
AM_0
  6
CONTINUOUS
 48
0.5
100
AcDbLine
 10
-11.53942871094
 20
-50.19232177734997
 30
0.0
 11
-10.77648925781
 21
-51.11550903320997
 31
0.0
  0
LINE
  5
7ECF
330
1F
100
AcDbEntity
  8
AM_0
  6
CONTINUOUS
 48
0.5
100
AcDbLine
 10
-11.54458618163999
 20
-50.04312133788997
 30
0.0
 11
-11.77380371094
 21
-50.04690551757997
 31
0.0
  0
LINE
  5
7ED0
330
1F
100
AcDbEntity
  8
AM_0
  6
CONTINUOUS
 48
0.5
100
AcDbLine
 10
-12.50790405272999
 20
-51.03247070312997
 30
0.0
 11
-12.50799560547
 21
-50.80087280273997
 31
0.0
  0
LINE
  5
7ED1
330
1F
100
AcDbEntity
  8
AM_0
  6
CONTINUOUS
 48
0.5
100
AcDbLine
 10
-12.50790405272999
 20
-51.03253173828997
 30
0.0
 11
-12.36016845703
 21
-51.03524780273997
 31
0.0
  0
LINE
  5
7ED2
330
1F
100
AcDbEntity
  8
AM_0
  6
CONTINUOUS
 48
0.5
100
AcDbLine
 10
-12.36029052733999
 20
-50.80371093749997
 30
0.0
 11
-12.36019897461
 21
-51.03521728515997
 31
0.0
  0
LINE
  5
7ED3
330
1F
100
AcDbEntity
  8
AM_0
  6
CONTINUOUS
 48
0.5
100
AcDbLine
 10
-12.36019897461
 20
-51.03521728515997
 30
0.0
 11
-11.36819458008
 21
-51.72320556640997
 31
0.0
  0
LINE
  5
7ED4
330
1F
100
AcDbEntity
  8
AM_0
  6
CONTINUOUS
 48
0.5
100
AcDbLine
 10
-14.86660766602
 20
-50.82952880859997
 30
0.0
 11
-12.95001220702999
 21
-50.82952880859997
 31
0.0
  0
LINE
  5
7ED5
330
1F
100
AcDbEntity
  8
AM_0
  6
CONTINUOUS
 48
0.5
100
AcDbLine
 10
-11.36819458008
 20
-51.72320556640997
 30
0.0
 11
-10.98208618164
 21
-52.56094360351998
 31
0.0
  0
LINE
  5
7ED6
330
1F
100
AcDbEntity
  8
AM_0
  6
CONTINUOUS
 48
0.5
100
AcDbLine
 10
-11.36819458008
 20
-51.72320556640997
 30
0.0
 11
-10.98208618164
 21
-52.56094360351998
 31
0.0
  0
LINE
  5
7ED7
330
1F
100
AcDbEntity
  8
AM_0
  6
CONTINUOUS
 48
0.5
100
AcDbLine
 10
-15.36660766602
 20
-51.78732299804997
 30
0.0
 11
-14.86660766602
 21
-52.28732299804997
 31
0.0
  0
LINE
  5
7ED8
330
1F
100
AcDbEntity
  8
AM_0
  6
CONTINUOUS
 48
0.5
100
AcDbLine
 10
-9.821502685550001
 20
-51.36892700195997
 30
0.0
 11
-10.77648925781
 21
-51.11550903320997
 31
0.0
  0
LINE
  5
7ED9
330
1F
100
AcDbEntity
  8
AM_0
  6
CONTINUOUS
 48
0.5
100
AcDbLine
 10
-9.821502685550001
 20
-51.36892700195997
 30
0.0
 11
-10.77648925781
 21
-51.11550903320997
 31
0.0
  0
ARC
  5
7EDA
330
1F
100
AcDbEntity
  8
AM_0
  6
CONTINUOUS
 48
0.5
100
AcDbCircle
 10
-22.92801442023198
 20
-56.42754213201415
 30
0.0
 40
5.072472646589836
100
AcDbArc
 50
180.8185063566854
 51
270.1383071362617
  0
LINE
  5
7EDB
330
1F
100
AcDbEntity
  8
AM_0
  6
CONTINUOUS
 48
0.5
100
AcDbLine
 10
-27.99996948242
 20
-56.5
 30
0.0
 11
-27.99996948242
 21
-56.0
 31
0.0
  0
LINE
  5
7EDC
330
1F
100
AcDbEntity
  8
AM_0
  6
CONTINUOUS
 48
0.5
100
AcDbLine
 10
-22.91577148436999
 20
-61.5
 30
0.0
 11
-12.32434082031
 21
-61.5
 31
0.0
  0
LINE
  5
7EDD
330
1F
100
AcDbEntity
  8
AM_0
  6
CONTINUOUS
 48
0.5
100
AcDbLine
 10
-20.36660766602
 20
-56.78732299804997
 30
0.0
 11
-15.36660766602
 21
-56.78732299804997
 31
0.0
  0
LINE
  5
7EDE
330
1F
100
AcDbEntity
  8
AM_0
  6
CONTINUOUS
 48
0.5
100
AcDbLine
 10
-20.86663818358999
 20
-56.28732299804998
 30
0.0
 11
-14.86660766602
 21
-56.28732299804998
 31
0.0
  0
LINE
  5
7EDF
330
1F
100
AcDbEntity
  8
AM_0
  6
CONTINUOUS
 48
0.5
100
AcDbLine
 10
-20.86660766602
 20
-56.28732299804998
 30
0.0
 11
-20.36660766602
 21
-56.78732299804997
 31
0.0
  0
LINE
  5
7EE0
330
1F
100
AcDbEntity
  8
AM_0
  6
CONTINUOUS
 48
0.5
100
AcDbLine
 10
-11.2096862793
 20
-60.75885009765997
 30
0.0
 11
-11.00588989258
 21
-61.16885375976997
 31
0.0
  0
LINE
  5
7EE1
330
1F
100
AcDbEntity
  8
AM_0
  6
CONTINUOUS
 48
0.5
100
AcDbLine
 10
-11.55548095702999
 20
-62.33551025390998
 30
0.0
 11
-11.32620239258
 21
-62.33972167968997
 31
0.0
  0
LINE
  5
7EE2
330
1F
100
AcDbEntity
  8
AM_0
  6
CONTINUOUS
 48
0.5
100
AcDbLine
 10
-11.32623291016
 20
-62.33969116210997
 30
0.0
 11
-10.59661865233999
 21
-61.36782836913997
 31
0.0
  0
LINE
  5
7EE3
330
1F
100
AcDbEntity
  8
AM_0
  6
CONTINUOUS
 48
0.5
100
AcDbLine
 10
-12.16860961914
 20
-61.72650146484997
 30
0.0
 11
-12.17660522461
 21
-61.49502563476997
 31
0.0
  0
LINE
  5
7EE4
330
1F
100
AcDbEntity
  8
AM_0
  6
CONTINUOUS
 48
0.5
100
AcDbLine
 10
-12.32431030272999
 20
-61.49740600585997
 30
0.0
 11
-12.17657470703
 21
-61.49502563476997
 31
0.0
  0
LINE
  5
7EE5
330
1F
100
AcDbEntity
  8
AM_0
  6
CONTINUOUS
 48
0.5
100
AcDbLine
 10
-12.32431030272999
 20
-61.49740600585997
 30
0.0
 11
-12.31619262694999
 21
-61.72900390624997
 31
0.0
  0
LINE
  5
7EE6
330
1F
100
AcDbEntity
  8
AM_0
  6
CONTINUOUS
 48
0.5
100
AcDbLine
 10
-11.32611083983999
 20
-62.48895263671997
 30
0.0
 11
-11.55551147461
 21
-62.48464965820997
 31
0.0
  0
LINE
  5
7EE7
330
1F
100
AcDbEntity
  8
AM_0
  6
CONTINUOUS
 48
0.5
100
AcDbLine
 10
-11.32608032227
 20
-62.48892211913997
 30
0.0
 11
-11.32617187499999
 21
-62.33972167968997
 31
0.0
  0
LINE
  5
7EE8
330
1F
100
AcDbEntity
  8
AM_0
  6
CONTINUOUS
 48
0.5
100
AcDbLine
 10
-12.17657470703
 20
-61.49499511718997
 30
0.0
 11
-11.2096862793
 21
-60.75878906249997
 31
0.0
  0
LINE
  5
7EE9
330
1F
100
AcDbEntity
  8
AM_0
  6
CONTINUOUS
 48
0.5
100
AcDbLine
 10
-10.85446166991999
 20
-59.83001708984997
 30
0.0
 11
-11.2096862793
 21
-60.75881958007997
 31
0.0
  0
LINE
  5
7EEA
330
1F
100
AcDbEntity
  8
AM_0
  6
CONTINUOUS
 48
0.5
100
AcDbLine
 10
-11.2096862793
 20
-60.75885009765997
 30
0.0
 11
-11.00588989258
 21
-61.16885375976997
 31
0.0
  0
LINE
  5
7EEB
330
1F
100
AcDbEntity
  8
AM_0
  6
CONTINUOUS
 48
0.5
100
AcDbLine
 10
-11.55548095702999
 20
-62.33551025390998
 30
0.0
 11
-11.32620239258
 21
-62.33972167968997
 31
0.0
  0
LINE
  5
7EEC
330
1F
100
AcDbEntity
  8
AM_0
  6
CONTINUOUS
 48
0.5
100
AcDbLine
 10
-11.32623291016
 20
-62.33969116210997
 30
0.0
 11
-10.59661865233999
 21
-61.36782836913997
 31
0.0
  0
LINE
  5
7EED
330
1F
100
AcDbEntity
  8
AM_0
  6
CONTINUOUS
 48
0.5
100
AcDbLine
 10
-12.16860961914
 20
-61.72650146484997
 30
0.0
 11
-12.17660522461
 21
-61.49502563476997
 31
0.0
  0
LINE
  5
7EEE
330
1F
100
AcDbEntity
  8
AM_0
  6
CONTINUOUS
 48
0.5
100
AcDbLine
 10
-12.32431030272999
 20
-61.49740600585997
 30
0.0
 11
-12.17657470703
 21
-61.49502563476997
 31
0.0
  0
LINE
  5
7EEF
330
1F
100
AcDbEntity
  8
AM_0
  6
CONTINUOUS
 48
0.5
100
AcDbLine
 10
-12.32431030272999
 20
-61.49740600585997
 30
0.0
 11
-12.31619262694999
 21
-61.72900390624997
 31
0.0
  0
LINE
  5
7EF0
330
1F
100
AcDbEntity
  8
AM_0
  6
CONTINUOUS
 48
0.5
100
AcDbLine
 10
-11.32611083983999
 20
-62.48895263671997
 30
0.0
 11
-11.55551147461
 21
-62.48464965820997
 31
0.0
  0
LINE
  5
7EF1
330
1F
100
AcDbEntity
  8
AM_0
  6
CONTINUOUS
 48
0.5
100
AcDbLine
 10
-11.32608032227
 20
-62.48892211913997
 30
0.0
 11
-11.32617187499999
 21
-62.33972167968997
 31
0.0
  0
LINE
  5
7EF2
330
1F
100
AcDbEntity
  8
AM_0
  6
CONTINUOUS
 48
0.5
100
AcDbLine
 10
-12.17657470703
 20
-61.49499511718997
 30
0.0
 11
-11.2096862793
 21
-60.75878906249997
 31
0.0
  0
LINE
  5
7EF3
330
1F
100
AcDbEntity
  8
AM_0
  6
CONTINUOUS
 48
0.5
100
AcDbLine
 10
-10.85446166991999
 20
-59.83001708984997
 30
0.0
 11
-11.2096862793
 21
-60.75881958007997
 31
0.0
  0
LINE
  5
7EF4
330
1F
100
AcDbEntity
  8
AM_0
  6
CONTINUOUS
 48
0.5
100
AcDbLine
 10
-12.80755615233999
 20
-56.25012207031997
 30
0.0
 11
-12.38757324219
 21
-55.99380493163997
 31
0.0
  0
LINE
  5
7EF5
330
1F
100
AcDbEntity
  8
AM_0
  6
CONTINUOUS
 48
0.5
100
AcDbLine
 10
-12.37969970703
 20
-56.25061035156997
 30
0.0
 11
-12.80758666991999
 21
-56.25012207031997
 31
0.0
  0
LINE
  5
7EF6
330
1F
100
AcDbEntity
  8
AM_0
  6
CONTINUOUS
 48
0.5
100
AcDbLine
 10
-12.79879760742
 20
-56.74731445312997
 30
0.0
 11
-12.80758666991999
 21
-56.25012207031997
 31
0.0
  0
LINE
  5
7EF7
330
1F
100
AcDbEntity
  8
AM_0
  6
CONTINUOUS
 48
0.5
100
AcDbLine
 10
-12.37969970703
 20
-56.23425292968997
 30
0.0
 11
-12.23208618164
 21
-56.23443603515998
 31
0.0
  0
LINE
  5
7EF8
330
1F
100
AcDbEntity
  8
AM_0
  6
CONTINUOUS
 48
0.5
100
AcDbLine
 10
-12.23208618164
 20
-56.23440551757997
 30
0.0
 11
-11.21365356444999
 21
-56.19512939453997
 31
0.0
  0
LINE
  5
7EF9
330
1F
100
AcDbEntity
  8
AM_0
  6
CONTINUOUS
 48
0.5
100
AcDbLine
 10
-12.37969970703
 20
-56.25061035156997
 30
0.0
 11
-12.80758666991999
 21
-56.25012207031997
 31
0.0
  0
LINE
  5
7EFA
330
1F
100
AcDbEntity
  8
AM_0
  6
CONTINUOUS
 48
0.5
100
AcDbLine
 10
-12.79879760742
 20
-56.74731445312997
 30
0.0
 11
-12.80758666991999
 21
-56.25012207031997
 31
0.0
  0
LINE
  5
7EFB
330
1F
100
AcDbEntity
  8
AM_0
  6
CONTINUOUS
 48
0.5
100
AcDbLine
 10
-12.37969970703
 20
-56.23425292968997
 30
0.0
 11
-12.23208618164
 21
-56.23443603515998
 31
0.0
  0
LINE
  5
7EFC
330
1F
100
AcDbEntity
  8
AM_0
  6
CONTINUOUS
 48
0.5
100
AcDbLine
 10
-12.23208618164
 20
-56.23440551757997
 30
0.0
 11
-11.21365356444999
 21
-56.19512939453997
 31
0.0
  0
LINE
  5
7EFD
330
1F
100
AcDbEntity
  8
AM_0
  6
CONTINUOUS
 48
0.5
100
AcDbLine
 10
-15.36660766602
 20
-56.78732299804997
 30
0.0
 11
-14.86660766602
 21
-56.28732299804998
 31
0.0
  0
LINE
  5
7EFE
330
1F
100
AcDbEntity
  8
AM_0
  6
CONTINUOUS
 48
0.5
100
AcDbLine
 10
-14.86660766602
 20
-56.74511718749997
 30
0.0
 11
-12.798828125
 21
-56.74511718749997
 31
0.0
  0
LINE
  5
7EFF
330
1F
100
AcDbEntity
  8
AM_0
  6
CONTINUOUS
 48
0.5
100
AcDbLine
 10
-10.8544921875
 20
-59.83001708984997
 30
0.0
 11
-11.21368408202999
 21
-56.19509887695997
 31
0.0
  0
LINE
  5
7F00
330
1F
100
AcDbEntity
  8
AM_0
  6
CONTINUOUS
 48
0.5
100
AcDbLine
 10
-11.21368408202999
 20
-56.19512939453997
 30
0.0
 11
-11.2096862793
 21
-60.75878906249997
 31
0.0
  0
LINE
  5
7F01
330
1F
100
AcDbEntity
  8
AM_0
  6
CONTINUOUS
 48
0.5
100
AcDbLine
 10
-10.8544921875
 20
-59.83001708984997
 30
0.0
 11
-11.21368408202999
 21
-56.19509887695997
 31
0.0
  0
LINE
  5
7F02
330
1F
100
AcDbEntity
  8
AM_0
  6
CONTINUOUS
 48
0.5
100
AcDbLine
 10
-11.21368408202999
 20
-56.19512939453997
 30
0.0
 11
-11.2096862793
 21
-60.75878906249997
 31
0.0
  0
LINE
  5
7F03
330
1F
100
AcDbEntity
  8
AM_0
  6
CONTINUOUS
 48
0.5
100
AcDbLine
 10
-10.59658813477
 20
-61.36782836913997
 30
0.0
 11
-9.652008056639999
 21
-61.02453613281998
 31
0.0
  0
LINE
  5
7F04
330
1F
100
AcDbEntity
  8
AM_0
  6
CONTINUOUS
 48
0.5
100
AcDbLine
 10
-10.59658813477
 20
-61.36782836913997
 30
0.0
 11
-9.652008056639999
 21
-61.02453613281998
 31
0.0
  0
LINE
  5
7F05
330
1F
100
AcDbEntity
  8
AM_0
  6
CONTINUOUS
 48
0.5
100
AcDbLine
 10
-0.17529296875
 20
-56.24743652343997
 30
0.0
 11
-0.3312988281199978
 21
-51.04812622070998
 31
0.0
  0
LINE
  5
7F06
330
1F
100
AcDbEntity
  8
AM_0
  6
CONTINUOUS
 48
0.5
100
AcDbLine
 10
-1.061584472660001
 20
-56.20602416992998
 30
0.0
 11
-1.216094970699998
 21
-51.73406982421997
 31
0.0
  0
LINE
  5
7F07
330
1F
100
AcDbEntity
  8
AM_0
  6
CONTINUOUS
 48
0.5
100
AcDbLine
 10
-0.17529296875
 20
-56.24743652343997
 30
0.0
 11
-0.3312988281199978
 21
-51.04812622070998
 31
0.0
  0
LINE
  5
7F08
330
1F
100
AcDbEntity
  8
AM_0
  6
CONTINUOUS
 48
0.5
100
AcDbLine
 10
-1.061584472660001
 20
-56.20602416992998
 30
0.0
 11
-1.216094970699998
 21
-51.73406982421997
 31
0.0
  0
LINE
  5
7F09
330
1F
100
AcDbEntity
  8
AM_0
  6
CONTINUOUS
 48
0.5
100
AcDbLine
 10
-1.420806884770001
 20
-52.57113647460997
 30
0.0
 11
-1.061584472660001
 21
-56.20605468749997
 31
0.0
  0
LINE
  5
7F0A
330
1F
100
AcDbEntity
  8
AM_0
  6
CONTINUOUS
 48
0.5
100
AcDbLine
 10
-1.420806884770001
 20
-52.57113647460997
 30
0.0
 11
-1.061584472660001
 21
-56.20605468749997
 31
0.0
  0
LINE
  5
7F0B
330
1F
100
AcDbEntity
  8
AM_0
  6
CONTINUOUS
 48
0.5
100
AcDbLine
 10
-1.181793212889999
 20
-50.20339965820998
 30
0.0
 11
-1.829193115229998
 21
-51.12521362304997
 31
0.0
  0
LINE
  5
7F0C
330
1F
100
AcDbEntity
  8
AM_0
  6
CONTINUOUS
 48
0.5
100
AcDbLine
 10
-1.181793212889999
 20
-50.20339965820998
 30
0.0
 11
-1.829193115229998
 21
-51.12521362304997
 31
0.0
  0
LINE
  5
7F0D
330
1F
100
AcDbEntity
  8
AM_0
  6
CONTINUOUS
 48
0.5
100
AcDbLine
 10
-6.310455322270001
 20
-50.15304565429997
 30
0.0
 11
-1.181793212889999
 21
-50.20343017578998
 31
0.0
  0
LINE
  5
7F0E
330
1F
100
AcDbEntity
  8
AM_0
  6
CONTINUOUS
 48
0.5
100
AcDbLine
 10
-6.310455322270001
 20
-50.15304565429997
 30
0.0
 11
-1.181793212889999
 21
-50.20343017578998
 31
0.0
  0
LINE
  5
7F0F
330
1F
100
AcDbEntity
  8
AM_0
  6
CONTINUOUS
 48
0.5
100
AcDbLine
 10
-6.313110351559998
 20
-50.00384521484997
 30
0.0
 11
-6.310485839839998
 21
-50.15304565429997
 31
0.0
  0
LINE
  5
7F10
330
1F
100
AcDbEntity
  8
AM_0
  6
CONTINUOUS
 48
0.5
100
AcDbLine
 10
-6.310485839839998
 20
-50.15298461913997
 30
0.0
 11
-6.227600097660001
 21
-51.07440185546997
 31
0.0
  0
LINE
  5
7F11
330
1F
100
AcDbEntity
  8
AM_0
  6
CONTINUOUS
 48
0.5
100
AcDbLine
 10
-2.623291015619997
 20
-51.37661743163997
 30
0.0
 11
-6.227600097660001
 21
-51.07440185546997
 31
0.0
  0
LINE
  5
7F12
330
1F
100
AcDbEntity
  8
AM_0
  6
CONTINUOUS
 48
0.5
100
AcDbLine
 10
-6.313110351559998
 20
-50.00384521484997
 30
0.0
 11
-6.310485839839998
 21
-50.15304565429997
 31
0.0
  0
LINE
  5
7F13
330
1F
100
AcDbEntity
  8
AM_0
  6
CONTINUOUS
 48
0.5
100
AcDbLine
 10
-6.310485839839998
 20
-50.15298461913997
 30
0.0
 11
-6.227600097660001
 21
-51.07440185546997
 31
0.0
  0
LINE
  5
7F14
330
1F
100
AcDbEntity
  8
AM_0
  6
CONTINUOUS
 48
0.5
100
AcDbLine
 10
-2.623291015619997
 20
-51.37661743163997
 30
0.0
 11
-6.227600097660001
 21
-51.07440185546997
 31
0.0
  0
LINE
  5
7F15
330
1F
100
AcDbEntity
  8
AM_0
  6
CONTINUOUS
 48
0.5
100
AcDbLine
 10
-1.829193115229998
 20
-51.12518310546997
 30
0.0
 11
-2.623260498050001
 21
-51.37658691406997
 31
0.0
  0
LINE
  5
7F16
330
1F
100
AcDbEntity
  8
AM_0
  6
CONTINUOUS
 48
0.5
100
AcDbLine
 10
-6.22756958008
 20
-51.07440185546997
 30
0.0
 11
-1.829162597660001
 21
-51.12521362304997
 31
0.0
  0
LINE
  5
7F17
330
1F
100
AcDbEntity
  8
AM_0
  6
CONTINUOUS
 48
0.5
100
AcDbLine
 10
-1.829193115229998
 20
-51.12518310546997
 30
0.0
 11
-2.623260498050001
 21
-51.37658691406997
 31
0.0
  0
LINE
  5
7F18
330
1F
100
AcDbEntity
  8
AM_0
  6
CONTINUOUS
 48
0.5
100
AcDbLine
 10
-6.22756958008
 20
-51.07440185546997
 30
0.0
 11
-1.829162597660001
 21
-51.12521362304997
 31
0.0
  0
LINE
  5
7F19
330
1F
100
AcDbEntity
  8
AM_0
  6
CONTINUOUS
 48
0.5
100
AcDbLine
 10
-0.3393859863300008
 20
-50.81665039062997
 30
0.0
 11
-0.3312988281199978
 21
-51.04812622070998
 31
0.0
  0
LINE
  5
7F1A
330
1F
100
AcDbEntity
  8
AM_0
  6
CONTINUOUS
 48
0.5
100
AcDbLine
 10
-0.183685302729998
 20
-51.04571533203998
 30
0.0
 11
-0.3312683105500014
 21
-51.04812622070998
 31
0.0
  0
LINE
  5
7F1B
330
1F
100
AcDbEntity
  8
AM_0
  6
CONTINUOUS
 48
0.5
100
AcDbLine
 10
-0.183685302729998
 20
-51.04574584960997
 30
0.0
 11
-0.1917114257799994
 21
-50.81420898437997
 31
0.0
  0
LINE
  5
7F1C
330
1F
100
AcDbEntity
  8
AM_0
  6
CONTINUOUS
 48
0.5
100
AcDbLine
 10
-1.181793212889999
 20
-50.05422973632997
 30
0.0
 11
-0.9524841308600002
 21
-50.05850219726998
 31
0.0
  0
LINE
  5
7F1D
330
1F
100
AcDbEntity
  8
AM_0
  6
CONTINUOUS
 48
0.5
100
AcDbLine
 10
-1.181793212889999
 20
-50.05422973632997
 30
0.0
 11
-1.181793212889999
 21
-50.20339965820998
 31
0.0
  0
LINE
  5
7F1E
330
1F
100
AcDbEntity
  8
AM_0
  6
CONTINUOUS
 48
0.5
100
AcDbLine
 10
-0.9523925781199977
 20
-50.20764160156997
 30
0.0
 11
-1.181793212889999
 21
-50.20343017578998
 31
0.0
  0
LINE
  5
7F1F
330
1F
100
AcDbEntity
  8
AM_0
  6
CONTINUOUS
 48
0.5
100
AcDbLine
 10
-0.3312988281199978
 20
-51.04815673828998
 30
0.0
 11
-1.216094970699998
 21
-51.73413085937998
 31
0.0
  0
LINE
  5
7F20
330
1F
100
AcDbEntity
  8
AM_0
  6
CONTINUOUS
 48
0.5
100
AcDbLine
 10
-0.3393859863300008
 20
-50.81665039062997
 30
0.0
 11
-0.3312988281199978
 21
-51.04812622070998
 31
0.0
  0
LINE
  5
7F21
330
1F
100
AcDbEntity
  8
AM_0
  6
CONTINUOUS
 48
0.5
100
AcDbLine
 10
-0.183685302729998
 20
-51.04571533203998
 30
0.0
 11
-0.3312683105500014
 21
-51.04812622070998
 31
0.0
  0
LINE
  5
7F22
330
1F
100
AcDbEntity
  8
AM_0
  6
CONTINUOUS
 48
0.5
100
AcDbLine
 10
-0.183685302729998
 20
-51.04574584960997
 30
0.0
 11
-0.1917114257799994
 21
-50.81420898437997
 31
0.0
  0
LINE
  5
7F23
330
1F
100
AcDbEntity
  8
AM_0
  6
CONTINUOUS
 48
0.5
100
AcDbLine
 10
-1.181793212889999
 20
-50.05422973632997
 30
0.0
 11
-0.9524841308600002
 21
-50.05850219726998
 31
0.0
  0
LINE
  5
7F24
330
1F
100
AcDbEntity
  8
AM_0
  6
CONTINUOUS
 48
0.5
100
AcDbLine
 10
-1.181793212889999
 20
-50.05422973632997
 30
0.0
 11
-1.181793212889999
 21
-50.20339965820998
 31
0.0
  0
LINE
  5
7F25
330
1F
100
AcDbEntity
  8
AM_0
  6
CONTINUOUS
 48
0.5
100
AcDbLine
 10
-0.9523925781199977
 20
-50.20764160156997
 30
0.0
 11
-1.181793212889999
 21
-50.20343017578998
 31
0.0
  0
LINE
  5
7F26
330
1F
100
AcDbEntity
  8
AM_0
  6
CONTINUOUS
 48
0.5
100
AcDbLine
 10
-0.3312988281199978
 20
-51.04815673828998
 30
0.0
 11
-1.216094970699998
 21
-51.73413085937998
 31
0.0
  0
LINE
  5
7F27
330
1F
100
AcDbEntity
  8
AM_0
  6
CONTINUOUS
 48
0.5
100
AcDbLine
 10
-0.9999389648399983
 20
-47.29998779295999
 30
0.0
 11
-0.9033813476600016
 21
-50.064453125
 31
0.0
  0
LINE
  5
7F28
330
1F
100
AcDbEntity
  8
AM_0
  6
CONTINUOUS
 48
0.5
100
AcDbLine
 10
-1.420806884770001
 20
-52.57110595703998
 30
0.0
 11
-1.216094970699998
 21
-51.73410034179998
 31
0.0
  0
LINE
  5
7F29
330
1F
100
AcDbEntity
  8
AM_0
  6
CONTINUOUS
 48
0.5
100
AcDbLine
 10
-1.420806884770001
 20
-52.57110595703998
 30
0.0
 11
-1.216094970699998
 21
-51.73410034179998
 31
0.0
  0
LINE
  5
7F2A
330
1F
100
AcDbEntity
  8
AM_0
  6
CONTINUOUS
 48
0.5
100
AcDbLine
 10
-1.649169921869997
 20
-61.37741088867997
 30
0.0
 11
-1.393676757809998
 21
-61.29782104492997
 31
0.0
  0
LINE
  5
7F2B
330
1F
100
AcDbEntity
  8
AM_0
  6
CONTINUOUS
 48
0.5
100
AcDbLine
 10
-0.9685974121100002
 20
-62.35089111328997
 30
0.0
 11
-1.649200439449998
 21
-61.37741088867997
 31
0.0
  0
LINE
  5
7F2C
330
1F
100
AcDbEntity
  8
AM_0
  6
CONTINUOUS
 48
0.5
100
AcDbLine
 10
-1.649169921869997
 20
-61.37741088867997
 30
0.0
 11
-1.393676757809998
 21
-61.29782104492997
 31
0.0
  0
LINE
  5
7F2D
330
1F
100
AcDbEntity
  8
AM_0
  6
CONTINUOUS
 48
0.5
100
AcDbLine
 10
-0.9685974121100002
 20
-62.35089111328997
 30
0.0
 11
-1.649200439449998
 21
-61.37741088867997
 31
0.0
  0
LINE
  5
7F2E
330
1F
100
AcDbEntity
  8
AM_0
  6
CONTINUOUS
 48
0.5
100
AcDbLine
 10
-6.094207763669999
 20
-62.47790527343997
 30
0.0
 11
-6.096801757809998
 21
-62.32882690429997
 31
0.0
  0
LINE
  5
7F2F
330
1F
100
AcDbEntity
  8
AM_0
  6
CONTINUOUS
 48
0.5
100
AcDbLine
 10
-2.45379638672
 20
-61.03231811523997
 30
0.0
 11
-6.04769897461
 21
-61.32672119140997
 31
0.0
  0
LINE
  5
7F30
330
1F
100
AcDbEntity
  8
AM_0
  6
CONTINUOUS
 48
0.5
100
AcDbLine
 10
-6.096801757809998
 20
-62.32882690429997
 30
0.0
 11
-6.04769897461
 21
-61.32672119140997
 31
0.0
  0
LINE
  5
7F31
330
1F
100
AcDbEntity
  8
AM_0
  6
CONTINUOUS
 48
0.5
100
AcDbLine
 10
-6.094207763669999
 20
-62.47790527343997
 30
0.0
 11
-6.096801757809998
 21
-62.32882690429997
 31
0.0
  0
LINE
  5
7F32
330
1F
100
AcDbEntity
  8
AM_0
  6
CONTINUOUS
 48
0.5
100
AcDbLine
 10
-2.45379638672
 20
-61.03231811523997
 30
0.0
 11
-6.04769897461
 21
-61.32672119140997
 31
0.0
  0
LINE
  5
7F33
330
1F
100
AcDbEntity
  8
AM_0
  6
CONTINUOUS
 48
0.5
100
AcDbLine
 10
-6.096801757809998
 20
-62.32882690429997
 30
0.0
 11
-6.04769897461
 21
-61.32672119140997
 31
0.0
  0
LINE
  5
7F34
330
1F
100
AcDbEntity
  8
AM_0
  6
CONTINUOUS
 48
0.5
100
AcDbLine
 10
-2.45379638672
 20
-61.03234863281997
 30
0.0
 11
-1.649200439449998
 21
-61.37744140624997
 31
0.0
  0
LINE
  5
7F35
330
1F
100
AcDbEntity
  8
AM_0
  6
CONTINUOUS
 48
0.5
100
AcDbLine
 10
-6.04769897461
 20
-61.32672119140997
 30
0.0
 11
-1.649200439449998
 21
-61.37741088867997
 31
0.0
  0
LINE
  5
7F36
330
1F
100
AcDbEntity
  8
AM_0
  6
CONTINUOUS
 48
0.5
100
AcDbLine
 10
-2.45379638672
 20
-61.03234863281997
 30
0.0
 11
-1.649200439449998
 21
-61.37744140624997
 31
0.0
  0
LINE
  5
7F37
330
1F
100
AcDbEntity
  8
AM_0
  6
CONTINUOUS
 48
0.5
100
AcDbLine
 10
-6.04769897461
 20
-61.32672119140997
 30
0.0
 11
-1.649200439449998
 21
-61.37741088867997
 31
0.0
  0
LINE
  5
7F38
330
1F
100
AcDbEntity
  8
AM_0
  6
CONTINUOUS
 48
0.5
100
AcDbLine
 10
-0.17529296875
 20
-56.24740600585997
 30
0.0
 11
-1.06155395508
 21
-56.20602416992998
 31
0.0
  0
LINE
  5
7F39
330
1F
100
AcDbEntity
  8
AM_0
  6
CONTINUOUS
 48
0.5
100
AcDbLine
 10
-0.1752624511699992
 20
-56.24740600585997
 30
0.0
 11
-0.1477661132799994
 21
-61.50790405273998
 31
0.0
  0
LINE
  5
7F3A
330
1F
100
AcDbEntity
  8
AM_0
  6
CONTINUOUS
 48
0.5
100
AcDbLine
 10
-1.293182373050001
 20
-59.84030151367997
 30
0.0
 11
-1.061584472660001
 21
-56.20599365234998
 31
0.0
  0
LINE
  5
7F3B
330
1F
100
AcDbEntity
  8
AM_0
  6
CONTINUOUS
 48
0.5
100
AcDbLine
 10
-1.061584472660001
 20
-56.20602416992998
 30
0.0
 11
-1.057495117190001
 21
-60.76971435546997
 31
0.0
  0
LINE
  5
7F3C
330
1F
100
AcDbEntity
  8
AM_0
  6
CONTINUOUS
 48
0.5
100
AcDbLine
 10
-0.1752624511699992
 20
-56.24740600585997
 30
0.0
 11
-0.1477661132799994
 21
-61.50790405273998
 31
0.0
  0
LINE
  5
7F3D
330
1F
100
AcDbEntity
  8
AM_0
  6
CONTINUOUS
 48
0.5
100
AcDbLine
 10
-1.293182373050001
 20
-59.84030151367997
 30
0.0
 11
-1.061584472660001
 21
-56.20599365234998
 31
0.0
  0
LINE
  5
7F3E
330
1F
100
AcDbEntity
  8
AM_0
  6
CONTINUOUS
 48
0.5
100
AcDbLine
 10
-1.061584472660001
 20
-56.20602416992998
 30
0.0
 11
-1.057495117190001
 21
-60.76971435546997
 31
0.0
  0
LINE
  5
7F3F
330
1F
100
AcDbEntity
  8
AM_0
  6
CONTINUOUS
 48
0.5
100
AcDbLine
 10
-0.7394104003899998
 20
-62.34707641601997
 30
0.0
 11
-0.9685974121100002
 21
-62.35089111328997
 31
0.0
  0
LINE
  5
7F40
330
1F
100
AcDbEntity
  8
AM_0
  6
CONTINUOUS
 48
0.5
100
AcDbLine
 10
-0.96337890625
 20
-62.49999999999997
 30
0.0
 11
-0.9685668945299994
 21
-62.35092163085997
 31
0.0
  0
LINE
  5
7F41
330
1F
100
AcDbEntity
  8
AM_0
  6
CONTINUOUS
 48
0.5
100
AcDbLine
 10
-0.9634094238300008
 20
-62.49999999999997
 30
0.0
 11
-0.7341918945299995
 21
-62.49630737304997
 31
0.0
  0
LINE
  5
7F42
330
1F
100
AcDbEntity
  8
AM_0
  6
CONTINUOUS
 48
0.5
100
AcDbLine
 10
0.0
 20
-61.51071166992998
 30
0.0
 11
0.0000915527299981
 21
-61.74221801757997
 31
0.0
  0
LINE
  5
7F43
330
1F
100
AcDbEntity
  8
AM_0
  6
CONTINUOUS
 48
0.5
100
AcDbLine
 10
0.0
 20
-61.51071166992998
 30
0.0
 11
-0.1477966308600003
 21
-61.50790405273998
 31
0.0
  0
LINE
  5
7F44
330
1F
100
AcDbEntity
  8
AM_0
  6
CONTINUOUS
 48
0.5
100
AcDbLine
 10
-0.1477050781199978
 20
-61.73941040038997
 30
0.0
 11
-0.1477966308600003
 21
-61.50790405273998
 31
0.0
  0
LINE
  5
7F45
330
1F
100
AcDbEntity
  8
AM_0
  6
CONTINUOUS
 48
0.5
100
AcDbLine
 10
-0.1477661132799994
 20
-61.50787353515998
 30
0.0
 11
-1.05746459961
 21
-60.76971435546997
 31
0.0
  0
LINE
  5
7F46
330
1F
100
AcDbEntity
  8
AM_0
  6
CONTINUOUS
 48
0.5
100
AcDbLine
 10
-1.057495117190001
 20
-60.76971435546997
 30
0.0
 11
-1.293182373050001
 21
-59.84030151367997
 31
0.0
  0
LINE
  5
7F47
330
1F
100
AcDbEntity
  8
AM_0
  6
CONTINUOUS
 48
0.5
100
AcDbLine
 10
-0.7394104003899998
 20
-62.34707641601997
 30
0.0
 11
-0.9685974121100002
 21
-62.35089111328997
 31
0.0
  0
LINE
  5
7F48
330
1F
100
AcDbEntity
  8
AM_0
  6
CONTINUOUS
 48
0.5
100
AcDbLine
 10
-0.96337890625
 20
-62.49999999999997
 30
0.0
 11
-0.9685668945299994
 21
-62.35092163085997
 31
0.0
  0
LINE
  5
7F49
330
1F
100
AcDbEntity
  8
AM_0
  6
CONTINUOUS
 48
0.5
100
AcDbLine
 10
-0.9634094238300008
 20
-62.49999999999997
 30
0.0
 11
-0.7341918945299995
 21
-62.49630737304997
 31
0.0
  0
LINE
  5
7F4A
330
1F
100
AcDbEntity
  8
AM_0
  6
CONTINUOUS
 48
0.5
100
AcDbLine
 10
0.0
 20
-61.51071166992998
 30
0.0
 11
0.0000915527299981
 21
-61.74221801757997
 31
0.0
  0
LINE
  5
7F4B
330
1F
100
AcDbEntity
  8
AM_0
  6
CONTINUOUS
 48
0.5
100
AcDbLine
 10
0.0
 20
-61.51071166992998
 30
0.0
 11
-0.1477966308600003
 21
-61.50790405273998
 31
0.0
  0
LINE
  5
7F4C
330
1F
100
AcDbEntity
  8
AM_0
  6
CONTINUOUS
 48
0.5
100
AcDbLine
 10
-0.1477050781199978
 20
-61.73941040038997
 30
0.0
 11
-0.1477966308600003
 21
-61.50790405273998
 31
0.0
  0
LINE
  5
7F4D
330
1F
100
AcDbEntity
  8
AM_0
  6
CONTINUOUS
 48
0.5
100
AcDbLine
 10
-0.1477661132799994
 20
-61.50787353515998
 30
0.0
 11
-1.05746459961
 21
-60.76971435546997
 31
0.0
  0
LINE
  5
7F4E
330
1F
100
AcDbEntity
  8
AM_0
  6
CONTINUOUS
 48
0.5
100
AcDbLine
 10
-1.057495117190001
 20
-60.76971435546997
 30
0.0
 11
-1.293182373050001
 21
-59.84030151367997
 31
0.0
  0
LINE
  5
7F4F
330
1F
100
AcDbEntity
  8
AM_0
  6
CONTINUOUS
 48
0.5
100
AcDbLine
 10
-0.0276184081999986
 20
-56.24752807617998
 30
0.0
 11
-0.1753234863300008
 21
-56.24740600585997
 31
0.0
  0
LINE
  5
7F50
330
1F
100
AcDbEntity
  8
AM_0
  6
CONTINUOUS
 48
0.5
100
AcDbLine
 10
-0.17529296875
 20
-56.24740600585997
 30
0.0
 11
-1.06155395508
 21
-56.20602416992998
 31
0.0
  0
LINE
  5
7F51
330
1F
100
AcDbEntity
  8
AM_0
  6
CONTINUOUS
 48
0.5
100
AcDbLine
 10
-0.0276184081999986
 20
-56.24752807617998
 30
0.0
 11
-0.1753234863300008
 21
-56.24740600585997
 31
0.0
  0
LINE
  5
7F52
330
1F
100
AcDbEntity
  8
AM_0
  6
CONTINUOUS
 48
0.5
100
AcDbLine
 10
-60.0
 20
-40.0
 30
0.0
 11
-44.0
 21
-40.0
 31
0.0
  0
ARC
  5
7F53
330
1F
100
AcDbEntity
  8
AM_0
  6
CONTINUOUS
 48
0.5
100
AcDbCircle
 10
-44.0
 20
-56.0
 30
0.0
 40
16.0
100
AcDbArc
 50
0.0
 51
89.99998201391099
  0
ARC
  5
7F54
330
1F
100
AcDbEntity
  8
AM_0
  6
CONTINUOUS
 48
0.5
100
AcDbCircle
 10
-60.0
 20
-37.0
 30
0.0
 40
3.0
100
AcDbArc
 50
180.0000359721813
 51
270.000017986089
  0
LINE
  5
7F5A
330
1F
100
AcDbEntity
  8
AM_11
100
AcDbLine
 10
0.0
 20
62.49999999999998
 30
0.0
 11
0.0
 21
-62.5
 31
0.0
  0
LINE
  5
7F61
330
1F
100
AcDbEntity
  8
AM_11
100
AcDbLine
 10
0.0000000000001137
 20
-62.5
 30
0.0
 11
-0.9634094238298871
 21
-62.5
 31
0.0
  0
DIMENSION
  5
7F62
330
1F
100
AcDbEntity
  8
AM_5
100
AcDbDimension
  2
*D6
 10
-98.35415749414002
 20
-39.99999999999985
 30
0.0
 11
-101.4541574941399
 21
-0.0000000000000078
 31
0.0
 70
    32
  1
%%c<>
  3
AM_JIS$0
100
AcDbAlignedDimension
 13
-59.99999905825058
 23
39.99999999999985
 33
0.0
 14
-59.99999905825058
 24
-39.99999999999985
 34
0.0
 50
270.0
100
AcDbRotatedDimension
1001
GENIUS_GENDTOL_13
1000

1000
h7
1000

1040
0.0
1001
ACAD
1000
DSTYLE
1002
{
1070
   287
1070
     5
1070
    42
1040
1.0
1070
    43
1040
12.0
1070
    48
1040
0.1
1070
    78
1070
     8
1070
   140
1040
3.2
1070
   176
1070
   256
1070
   177
1070
   256
1070
   271
1070
     3
1070
   272
1070
     3
1070
   275
1070
     0
1070
   279
1070
     2
1070
   284
1070
     0
1070
   289
1070
     3
1070
   340
1005
6B
1070
   371
1070
    -1
1070
   372
1070
    -1
1002
}
  0
DIMENSION
  5
7F64
330
1F
100
AcDbEntity
  8
AM_5
100
AcDbDimension
  2
*D5
 10
-88.35415749414
 20
-19.05
 30
0.0
 11
-91.45415749413999
 21
-0.0000000000000084
 31
0.0
 70
    32
  1
%%c<>
  3
AM_JIS$0
100
AcDbAlignedDimension
 13
-61.5
 23
19.05000000000001
 33
0.0
 14
-61.5
 24
-19.05000000000001
 34
0.0
 50
270.0
100
AcDbRotatedDimension
1001
GENIUS_GENDTOL_13
1000

1000
h7
1000

1040
0.0
1001
ACAD
1000
DSTYLE
1002
{
1070
   287
1070
     5
1070
    42
1040
1.0
1070
    43
1040
12.0
1070
    48
1040
0.1
1070
    78
1070
     8
1070
   140
1040
3.2
1070
   176
1070
   256
1070
   177
1070
   256
1070
   271
1070
     3
1070
   272
1070
     3
1070
   275
1070
     0
1070
   279
1070
     2
1070
   284
1070
     0
1070
   289
1070
     3
1070
   340
1005
6B
1070
   371
1070
    -1
1070
   372
1070
    -1
1002
}
  0
DIMENSION
  5
7F65
330
1F
100
AcDbEntity
  8
AM_5
100
AcDbDimension
  2
*D9
 10
-53.0
 20
-76.51668626108284
 30
0.0
 11
-58.0
 21
-73.41668626108284
 31
0.0
 70
    32
  1
<>
  3
AM_JIS$0
100
AcDbAlignedDimension
 13
-63.0
 23
-37.0
 33
0.0
 14
-53.0
 24
-7.949999999999988
 34
0.0
100
AcDbRotatedDimension
1001
GENIUS_GENDTOL_13
1000

1000
h7
1000

1040
0.0
1001
ACAD
1000
DSTYLE
1002
{
1070
   287
1070
     5
1070
    42
1040
1.0
1070
    43
1040
12.0
1070
    48
1040
0.1
1070
    78
1070
     8
1070
   140
1040
3.2
1070
   176
1070
   256
1070
   177
1070
   256
1070
   271
1070
     3
1070
   272
1070
     3
1070
   275
1070
     0
1070
   279
1070
     2
1070
   284
1070
     0
1070
   289
1070
     3
1070
   340
1005
6B
1070
   371
1070
    -1
1070
   372
1070
    -1
1002
}
  0
DIMENSION
  5
7F66
330
1F
100
AcDbEntity
  8
AM_5
100
AcDbDimension
  2
*D8
 10
-0.0000000000000021
 20
-96.51668626108284
 30
0.0
 11
-31.49999999999975
 21
-93.41668626108285
 31
0.0
 70
    32
  1
<>
  3
AM_JIS$0
100
AcDbAlignedDimension
 13
-62.99999999999949
 23
-37.00000000000005
 33
0.0
 14
0.0
 24
-62.5
 34
0.0
100
AcDbRotatedDimension
1001
GENIUS_GENDTOL_13
1000

1000
h7
1000

1040
0.0
1001
ACAD
1000
DSTYLE
1002
{
1070
   287
1070
     5
1070
    42
1040
1.0
1070
    43
1040
12.0
1070
    48
1040
0.1
1070
    78
1070
     8
1070
   140
1040
3.2
1070
   176
1070
   256
1070
   177
1070
   256
1070
   271
1070
     3
1070
   272
1070
     3
1070
   275
1070
     0
1070
   279
1070
     2
1070
   284
1070
     0
1070
   289
1070
     3
1070
   340
1005
6B
1070
   371
1070
    -1
1070
   372
1070
    -1
1002
}
  0
DIMENSION
  5
7F67
330
1F
100
AcDbEntity
  8
AM_5
100
AcDbDimension
  2
*D7
 10
-25.0
 20
-86.51668626108284
 30
0.0
 11
-44.0
 21
-83.41668626108285
 31
0.0
 70
    32
  1
<>
  3
AM_JIS$0
100
AcDbAlignedDimension
 13
-63.0
 23
-37.0
 33
0.0
 14
-25.0
 24
-28.0
 34
0.0
100
AcDbRotatedDimension
1001
GENIUS_GENDTOL_13
1000

1000
h7
1000

1040
0.0
1001
ACAD
1000
DSTYLE
1002
{
1070
   287
1070
     5
1070
    42
1040
1.0
1070
    43
1040
12.0
1070
    48
1040
0.1
1070
    78
1070
     8
1070
   140
1040
3.2
1070
   176
1070
   256
1070
   177
1070
   256
1070
   271
1070
     3
1070
   272
1070
     3
1070
   275
1070
     0
1070
   279
1070
     2
1070
   284
1070
     0
1070
   289
1070
     3
1070
   340
1005
6B
1070
   371
1070
    -1
1070
   372
1070
    -1
1002
}
  0
DIMENSION
  5
7F68
330
1F
100
AcDbEntity
  8
AM_5
100
AcDbDimension
  2
*D10
 10
19.77133278710999
 20
27.99999999999998
 30
0.0
 11
16.67133278710998
 21
-0.0000000000000079
 31
0.0
 70
    32
  1
%%c<>
  3
AM_JIS$0
100
AcDbAlignedDimension
 13
-16.62001134936184
 23
-28.0
 33
0.0
 14
-16.62001134936184
 24
28.0
 34
0.0
 50
90.0
100
AcDbRotatedDimension
1001
GENIUS_GENDTOL_13
1000

1000
h7
1000

1040
0.0
1001
ACAD
1000
DSTYLE
1002
{
1070
   287
1070
     5
1070
    42
1040
1.0
1070
    43
1040
12.0
1070
    48
1040
0.1
1070
    78
1070
     8
1070
   140
1040
3.2
1070
   176
1070
   256
1070
   177
1070
   256
1070
   271
1070
     3
1070
   272
1070
     3
1070
   275
1070
     0
1070
   279
1070
     2
1070
   284
1070
     0
1070
   289
1070
     3
1070
   340
1005
6B
1070
   371
1070
    -1
1070
   372
1070
    -1
1002
}
  0
DIMENSION
  5
7F69
330
1F
100
AcDbEntity
  8
AM_5
100
AcDbDimension
  2
*D11
 10
34.01668626108279
 20
-62.5
 30
0.0
 11
30.91668626108281
 21
-0.0000000000000124
 31
0.0
 70
    32
  1
%%c<>
  3
AM_JIS$0
100
AcDbAlignedDimension
 13
0.0
 23
62.49999999999998
 33
0.0
 14
0.0
 24
-62.5
 34
0.0
 50
90.0
100
AcDbRotatedDimension
1001
GENIUS_GENDTOL_13
1000

1000
h7
1000

1040
0.0
1001
ACAD
1000
DSTYLE
1002
{
1070
   287
1070
     5
1070
    42
1040
1.0
1070
    43
1040
12.0
1070
    48
1040
0.1
1070
    78
1070
     8
1070
   140
1040
3.2
1070
   176
1070
   256
1070
   177
1070
   256
1070
   271
1070
     3
1070
   272
1070
     3
1070
   275
1070
     0
1070
   279
1070
     2
1070
   284
1070
     0
1070
   289
1070
     3
1070
   340
1005
6B
1070
   371
1070
    -1
1070
   372
1070
    -1
1002
}
  0
DIMENSION
  5
82A1
330
1F
100
AcDbEntity
  8
AM_5
100
AcDbDimension
  2
*D12
 10
0.0000000000000426
 20
-62.5000004913538
 30
0.0
 11
21.86139850702865
 21
-84.36139899838243
 31
0.0
 70
    34
  1
<>
  3
AM_JIS$2
100
AcDb2LineAngularDimension
 13
0.0000000000001563
 23
-62.5000004913538
 33
0.0
 14
-0.9634094238298445
 24
-62.5000004913538
 34
0.0
 15
0.0000000000000426
 25
62.5
 35
0.0
 16
17.00834313054144
 26
-91.9593149460166
 36
0.0
1001
ACAD
1000
DSTYLE
1002
{
1070
   179
1070
     3
1002
}
1001
GENIUS_GENDTOL_13
1000

1000
h7
1000

1040
0.0
  0
DIMENSION
  5
83C7
330
1F
100
AcDbEntity
  8
AM_5
100
AcDbDimension
  2
*D13
 10
-78.35415749413998
 20
-7.949999999999984
 30
0.0
 11
-81.45415749413997
 21
-0.0000000000000077
 31
0.0
 70
    32
  1
<>
  3
AM_JIS$0
100
AcDbAlignedDimension
 13
-61.99996948242
 23
7.949999999999988
 33
0.0
 14
-62.0
 24
-7.949999999999988
 34
0.0
 50
270.0
100
AcDbRotatedDimension
1001
GENIUS_GENDTOL_13
1000

1000
h7
1000

1040
0.0
1001
ACAD
1000
DSTYLE
1002
{
1070
   287
1070
     5
1070
    42
1040
1.0
1070
    43
1040
12.0
1070
    48
1040
0.1
1070
    78
1070
     8
1070
   140
1040
3.2
1070
   176
1070
   256
1070
   177
1070
   256
1070
   271
1070
     3
1070
   272
1070
     3
1070
   275
1070
     0
1070
   279
1070
     2
1070
   284
1070
     0
1070
   289
1070
     3
1070
   340
1005
6B
1070
   371
1070
    -1
1070
   372
1070
    -1
1002
}
  0
VIEWPORT
  5
110
330
101
100
AcDbEntity
 67
     1
  8
0
100
AcDbViewport
 10
420.5
 20
297.0
 30
0.0
 40
948.9782706766916
 41
628.452
 68
     1
 69
     1
1001
ACAD
1000
MVIEW
1002
{
1070
    16
1010
0.0
1020
0.0
1030
0.0
1010
0.0
1020
0.0
1030
1.0
1040
0.0
1040
628.452
1040
420.5
1040
297.0
1040
50.0
1040
0.0
1040
0.0
1070
     0
1070
   100
1070
     1
1070
     1
1070
     0
1070
     0
1070
     0
1070
     0
1040
0.0
1040
0.0
1040
0.0
1040
10.0
1040
10.0
1040
10.0
1040
10.0
1070
     0
1002
{
1002
}
1002
}
  0
ENDSEC
  0
SECTION
  2
OBJECTS
  0
DICTIONARY
  5
C
330
0
100
AcDbDictionary
  3
ACAD_GROUP
350
D
  3
ACAD_LAYOUT
350
1A
  3
ACAD_MLINESTYLE
350
17
  3
ACAD_PLOTSETTINGS
350
19
  3
ACAD_PLOTSTYLENAME
350
E
  3
ACDBVARIABLEDICTIONARY
350
34
  3
ACMDICTIONARY
350
43
  3
AMG
350
2B
  3
AMGSNAPSETTINGS
350
6E
  3
DWGPROPS
350
86CA
  3
ACDBHEADERROUNDTRIPXREC
350
86D6
  0
DICTIONARY
  5
74
330
1F
100
AcDbDictionary
280
     1
  3
ACAD_INDEX
360
86CC
  3
ACAD_LAYOUTSELFREF
360
86F9
  0
DICTIONARY
  5
86FE
330
101
100
AcDbDictionary
280
     1
  3
ACAD_LAYOUTSELFREF
360
86FF
  0
DICTIONARY
  5
D
102
{ACAD_REACTORS
330
C
102
}
330
C
100
AcDbDictionary
  0
DICTIONARY
  5
1A
102
{ACAD_REACTORS
330
C
102
}
330
C
100
AcDbDictionary
  0
DICTIONARY
  5
17
102
{ACAD_REACTORS
330
C
102
}
330
C
100
AcDbDictionary
  3
STANDARD
350
18
  0
DICTIONARY
  5
19
102
{ACAD_REACTORS
330
C
102
}
330
C
100
AcDbDictionary
  0
ACDBDICTIONARYWDFLT
  5
E
102
{ACAD_REACTORS
330
C
102
}
330
C
100
AcDbDictionary
281
     1
  3
Normal
350
F
100
AcDbDictionaryWithDefault
340
F
  0
DICTIONARY
  5
34
102
{ACAD_REACTORS
330
C
102
}
330
C
100
AcDbDictionary
  3
INDEXCTL
350
35
  3
SORTENTS
350
B5E
  0
DICTIONARY
  5
43
102
{ACAD_REACTORS
330
C
102
}
330
C
100
AcDbDictionary
  3
ACMSTDDICTIONARY
350
260
  0
DICTIONARY
  5
2B
102
{ACAD_REACTORS
330
C
102
}
330
C
100
AcDbDictionary
  3
ACMGSETTINGS
350
2C
  0
DICTIONARY
  5
6E
102
{ACAD_REACTORS
330
C
102
}
330
C
100
AcDbDictionary
  0
XRECORD
  5
86CA
102
{ACAD_REACTORS
330
C
102
}
330
C
100
AcDbXrecord
  1
DWGPROPS COOKIE
  2

  3

  4

  6

  7

  8

  9

300
AmdtFileType=82
301
=
302
=
303
=
304
=
305
=
306
=
307
=
308
=
309
=
 40
0.417792789351852
 41
2452836.771637361
 42
2453076.562676134
  1

 90
        1
  0
DICTIONARY
  5
86D6
102
{ACAD_REACTORS
330
C
102
}
330
C
100
AcDbDictionary
  3
TSTACKALIGN
350
86D7
  3
TSTACKSIZE
350
86D8
  3
HYPERLINKBASE
350
86D9
  3
STYLESHEET
350
86DA
  3
LAYOUTDICT
350
86DB
  3
PLOTSETDICT
350
86DC
  3
PLOTSTYLNAMDICT
350
86DD
  3
LWETCUNION
350
86DE
  3
INSUNITS
350
86DF
  3
CEPSNTYPE
350
86E0
  3
FINGERPRINTGUID
350
86E1
  3
VERSIONGUID
350
86E2
  3
PSVPSCALE
350
86E3
  3
DIMSTYLEDATA
350
86E4
  3
PUCSORTHOREF
350
86E5
  3
PUCSORTHOVIEW
350
86E6
  3
PUCSBASE
350
86E7
  3
PUCSORGTOP
350
86E8
  3
PUCSORGBOTTOM
350
86E9
  3
PUCSORGLEFT
350
86EA
  3
PUCSORGRIGHT
350
86EB
  3
PUCSORGFRONT
350
86EC
  3
PUCSORGBACK
350
86ED
  3
UCSORTHOREF
350
86EE
  3
UCSORTHOVIEW
350
86EF
  3
UCSBASE
350
86F0
  3
UCSORGTOP
350
86F1
  3
UCSORGBOTTOM
350
86F2
  3
UCSORGLEFT
350
86F3
  3
UCSORGRIGHT
350
86F4
  3
UCSORGFRONT
350
86F5
  3
UCSORGBACK
350
86F6
  0
DICTIONARY
  5
86CC
102
{ACAD_REACTORS
330
74
102
}
330
74
100
AcDbDictionary
  3
*A1
350
86CD
  0
XRECORD
  5
86F9
102
{ACAD_REACTORS
330
74
102
}
330
74
100
AcDbXrecord
340
1F
  0
XRECORD
  5
86FF
102
{ACAD_REACTORS
330
86FE
102
}
330
86FE
100
AcDbXrecord
340
101
  0
MLINESTYLE
  5
18
102
{ACAD_REACTORS
330
17
102
}
330
17
100
AcDbMlineStyle
  2
STANDARD
 70
     0
  3

 62
   256
 51
90.0
 52
90.0
 71
     2
 49
0.5
 62
   256
  6
BYLAYER
 49
-0.5
 62
   256
  6
BYLAYER
  0
ACDBPLACEHOLDER
  5
F
102
{ACAD_REACTORS
330
E
102
}
330
E
100
AcDbPlaceHolder
280
     0
  0
DICTIONARYVAR
  5
35
102
{ACAD_REACTORS
330
34
102
}
330
34
100
DictionaryVariables
280
     0
  1
1
  0
DICTIONARYVAR
  5
B5E
102
{ACAD_REACTORS
330
34
102
}
330
34
100
DictionaryVariables
280
     0
  1
96
  0
DICTIONARY
  5
260
102
{ACAD_REACTORS
330
43
102
}
330
43
100
AcDbDictionary
  0
DICTIONARY
  5
2C
102
{ACAD_REACTORS
330
2B
102
}
330
2B
100
AcDbDictionary
  3
DWGSETTINGS
350
2D
  0
XRECORD
  5
86D7
102
{ACAD_REACTORS
330
86D6
102
}
330
86D6
100
AcDbXrecord
 90
        1
  0
XRECORD
  5
86D8
102
{ACAD_REACTORS
330
86D6
102
}
330
86D6
100
AcDbXrecord
 90
       70
  0
XRECORD
  5
86D9
102
{ACAD_REACTORS
330
86D6
102
}
330
86D6
100
AcDbXrecord
  1

  0
XRECORD
  5
86DA
102
{ACAD_REACTORS
330
86D6
102
}
330
86D6
100
AcDbXrecord
  1
ASAMI.ctb
  0
XRECORD
  5
86DB
102
{ACAD_REACTORS
330
86D6
102
}
330
86D6
100
AcDbXrecord
340
1A
  0
XRECORD
  5
86DC
102
{ACAD_REACTORS
330
86D6
102
}
330
86D6
100
AcDbXrecord
340
19
  0
XRECORD
  5
86DD
102
{ACAD_REACTORS
330
86D6
102
}
330
86D6
100
AcDbXrecord
340
E
  0
XRECORD
  5
86DE
102
{ACAD_REACTORS
330
86D6
102
}
330
86D6
100
AcDbXrecord
 90
    10781
  0
XRECORD
  5
86DF
102
{ACAD_REACTORS
330
86D6
102
}
330
86D6
100
AcDbXrecord
 90
        4
  0
XRECORD
  5
86E0
102
{ACAD_REACTORS
330
86D6
102
}
330
86D6
100
AcDbXrecord
 90
        0
  0
XRECORD
  5
86E1
102
{ACAD_REACTORS
330
86D6
102
}
330
86D6
100
AcDbXrecord
  1
{AFB28963-8C59-40AE-9337-C84526B81ACE}
  0
XRECORD
  5
86E2
102
{ACAD_REACTORS
330
86D6
102
}
330
86D6
100
AcDbXrecord
  1
{1DE74C45-A280-4A04-BCBE-E38CC5C6784B}
  0
XRECORD
  5
86E3
102
{ACAD_REACTORS
330
86D6
102
}
330
86D6
100
AcDbXrecord
 40
0.0
  0
XRECORD
  5
86E4
102
{ACAD_REACTORS
330
86D6
102
}
330
86D6
100
AcDbXrecord
1000
DSTYLE
1002
{
1070
    79
 70
     2
1070
   341
340
59
1070
   342
340
59
1070
   371
 70
    -1
1070
   372
 70
    -1
1002
}
  0
XRECORD
  5
86E5
102
{ACAD_REACTORS
330
86D6
102
}
330
86D6
100
AcDbXrecord
340
0
  0
XRECORD
  5
86E6
102
{ACAD_REACTORS
330
86D6
102
}
330
86D6
100
AcDbXrecord
 70
     0
  0
XRECORD
  5
86E7
102
{ACAD_REACTORS
330
86D6
102
}
330
86D6
100
AcDbXrecord
340
0
  0
XRECORD
  5
86E8
102
{ACAD_REACTORS
330
86D6
102
}
330
86D6
100
AcDbXrecord
 10
0.0
 20
0.0
 30
0.0
  0
XRECORD
  5
86E9
102
{ACAD_REACTORS
330
86D6
102
}
330
86D6
100
AcDbXrecord
 10
0.0
 20
0.0
 30
0.0
  0
XRECORD
  5
86EA
102
{ACAD_REACTORS
330
86D6
102
}
330
86D6
100
AcDbXrecord
 10
0.0
 20
0.0
 30
0.0
  0
XRECORD
  5
86EB
102
{ACAD_REACTORS
330
86D6
102
}
330
86D6
100
AcDbXrecord
 10
0.0
 20
0.0
 30
0.0
  0
XRECORD
  5
86EC
102
{ACAD_REACTORS
330
86D6
102
}
330
86D6
100
AcDbXrecord
 10
0.0
 20
0.0
 30
0.0
  0
XRECORD
  5
86ED
102
{ACAD_REACTORS
330
86D6
102
}
330
86D6
100
AcDbXrecord
 10
0.0
 20
0.0
 30
0.0
  0
XRECORD
  5
86EE
102
{ACAD_REACTORS
330
86D6
102
}
330
86D6
100
AcDbXrecord
340
0
  0
XRECORD
  5
86EF
102
{ACAD_REACTORS
330
86D6
102
}
330
86D6
100
AcDbXrecord
 70
     0
  0
XRECORD
  5
86F0
102
{ACAD_REACTORS
330
86D6
102
}
330
86D6
100
AcDbXrecord
340
0
  0
XRECORD
  5
86F1
102
{ACAD_REACTORS
330
86D6
102
}
330
86D6
100
AcDbXrecord
 10
0.0
 20
0.0
 30
0.0
  0
XRECORD
  5
86F2
102
{ACAD_REACTORS
330
86D6
102
}
330
86D6
100
AcDbXrecord
 10
0.0
 20
0.0
 30
0.0
  0
XRECORD
  5
86F3
102
{ACAD_REACTORS
330
86D6
102
}
330
86D6
100
AcDbXrecord
 10
0.0
 20
0.0
 30
0.0
  0
XRECORD
  5
86F4
102
{ACAD_REACTORS
330
86D6
102
}
330
86D6
100
AcDbXrecord
 10
0.0
 20
0.0
 30
0.0
  0
XRECORD
  5
86F5
102
{ACAD_REACTORS
330
86D6
102
}
330
86D6
100
AcDbXrecord
 10
0.0
 20
0.0
 30
0.0
  0
XRECORD
  5
86F6
102
{ACAD_REACTORS
330
86D6
102
}
330
86D6
100
AcDbXrecord
 10
0.0
 20
0.0
 30
0.0
  0
LAYER_INDEX
  5
86CD
102
{ACAD_REACTORS
330
86CC
102
}
330
86CC
100
AcDbIndex
 40
2453152.364645798
100
AcDbLayerIndex
  8
0
360
86CE
 90
        0
  8
AM_11
360
86CF
 90
        3
  8
AM_7
360
86D0
 90
        3
  8
AM_5
360
86D1
 90
        9
  8
Defpoints
360
86D2
 90
        0
  8
AM_6
360
86D3
 90
        1
  8
AM_0
360
86D4
 90
      521
  0
XRECORD
  5
2D
102
{ACAD_REACTORS
330
2C
102
}
330
2C
100
AcDbXrecord
  1
VERSION
140
15.0
  1
PRODUCT
  2
AutoCAD Mechanical 2000
  0
IDBUFFER
  5
86CE
330
0
100
AcDbIdBuffer
  0
IDBUFFER
  5
86CF
330
0
100
AcDbIdBuffer
330
7E54
330
7F5A
330
7F61
  0
IDBUFFER
  5
86D0
330
0
100
AcDbIdBuffer
330
7BC5
330
7BE2
330
7EC0
  0
IDBUFFER
  5
86D1
330
0
100
AcDbIdBuffer
330
7F62
330
7F64
330
7F65
330
7F66
330
7F67
330
7F68
330
7F69
330
82A1
330
83C7
  0
IDBUFFER
  5
86D2
330
0
100
AcDbIdBuffer
  0
IDBUFFER
  5
86D3
330
0
100
AcDbIdBuffer
330
E5A
  0
IDBUFFER
  5
86D4
330
0
100
AcDbIdBuffer
330
7F3C
330
7F3D
330
7F3E
330
7F3F
330
7F40
330
7F41
330
7F42
330
7F43
330
7F44
330
7F45
330
7F46
330
7F47
330
7F48
330
7F49
330
7F4A
330
7F4B
330
7F4C
330
7F4D
330
7F4E
330
7F4F
330
7F50
330
7F51
330
7F52
330
7F53
330
7F54
330
7B74
330
7B75
330
7B76
330
7B77
330
7B78
330
7B79
330
7B7A
330
7B7B
330
7B7C
330
7B7D
330
7B7E
330
7B7F
330
7B80
330
7B81
330
7B82
330
7B83
330
7B84
330
7B85
330
7B86
330
7B87
330
7B88
330
7B89
330
7B8A
330
7B8B
330
7B8C
330
7B8D
330
7B8E
330
7B8F
330
7B90
330
7B91
330
7B92
330
7B93
330
7B94
330
7B95
330
7B96
330
7B97
330
7B98
330
7B99
330
7B9A
330
7B9B
330
7B9C
330
7B9D
330
7B9E
330
7B9F
330
7BA0
330
7BA1
330
7BA2
330
7BA3
330
7BA4
330
7BA5
330
7BA6
330
7BA7
330
7BA8
330
7BA9
330
7BAA
330
7BAB
330
7BAC
330
7BAD
330
7BAE
330
7BAF
330
7BB0
330
7BB1
330
7BB2
330
7BB3
330
7BB4
330
7BB5
330
7BB6
330
7BB7
330
7BB8
330
7BB9
330
7BBA
330
7BBB
330
7BBC
330
7BBD
330
7BBE
330
7BBF
330
7BC0
330
7BC1
330
7BC2
330
7BC3
330
7BC4
330
7BC9
330
7BCC
330
7BCD
330
7BCE
330
7BCF
330
7BD0
330
7BD1
330
7BD2
330
7BD3
330
7BD4
330
7BD5
330
7BDA
330
7BDB
330
7BDC
330
7BDD
330
7BDE
330
7BDF
330
7BE0
330
7BE1
330
7BE3
330
7BE4
330
7BE5
330
7BE6
330
7BE7
330
7BE8
330
7BE9
330
7BEA
330
7BEB
330
7BEC
330
7BED
330
7BEE
330
7BEF
330
7BF0
330
7BF1
330
7BF2
330
7BF3
330
7BF4
330
7BF5
330
7BF6
330
7BF7
330
7BF8
330
7BF9
330
7BFA
330
7BFB
330
7BFC
330
7BFD
330
7BFE
330
7BFF
330
7C00
330
7C01
330
7C02
330
7C03
330
7C04
330
7C05
330
7C06
330
7C07
330
7C08
330
7C09
330
7C0A
330
7C0B
330
7C0C
330
7C0D
330
7C0E
330
7C0F
330
7C10
330
7C11
330
7C12
330
7C13
330
7C14
330
7C15
330
7C16
330
7C17
330
7C18
330
7C19
330
7C1A
330
7C1B
330
7C1C
330
7C1D
330
7C1E
330
7C1F
330
7C20
330
7C21
330
7C22
330
7C23
330
7C24
330
7C25
330
7C26
330
7C27
330
7C28
330
7C29
330
7C2A
330
7C2B
330
7C2C
330
7C2D
330
7C2E
330
7C2F
330
7C30
330
7C31
330
7C32
330
7C33
330
7C34
330
7C35
330
7C36
330
7C37
330
7C38
330
7C39
330
7C3A
330
7C3B
330
7C3C
330
7C3D
330
7C3E
330
7C3F
330
7C40
330
7C41
330
7C42
330
7C43
330
7C44
330
7C45
330
7C46
330
7C47
330
7C48
330
7C49
330
7C4A
330
7C4B
330
7C4C
330
7C4D
330
7C4E
330
7C4F
330
7C50
330
7C51
330
7C52
330
7C53
330
7C54
330
7C55
330
7C56
330
7C57
330
7C58
330
7C59
330
7C5A
330
7C5B
330
7C5C
330
7C5D
330
7C5E
330
7C5F
330
7C60
330
7C61
330
7C62
330
7C63
330
7C64
330
7C65
330
7C66
330
7C67
330
7C68
330
7C69
330
7C6A
330
7C6B
330
7C6C
330
7C6D
330
7C6E
330
7C6F
330
7C70
330
7C71
330
7C72
330
7C73
330
7C74
330
7C75
330
7C76
330
7C77
330
7C78
330
7C79
330
7C7A
330
7C7B
330
7C7C
330
7C7D
330
7C7E
330
7C7F
330
7C80
330
7C81
330
7C82
330
7C83
330
7C84
330
7C85
330
7C86
330
7C87
330
7C88
330
7C89
330
7C8A
330
7C8B
330
7C8C
330
7E59
330
7E5A
330
7E5B
330
7E5C
330
7E5D
330
7E5E
330
7E5F
330
7E60
330
7E61
330
7E62
330
7E63
330
7E64
330
7E65
330
7E66
330
7E67
330
7E68
330
7E69
330
7E6A
330
7E6B
330
7E6C
330
7E6D
330
7E6E
330
7E6F
330
7E70
330
7E71
330
7E72
330
7E73
330
7E74
330
7E75
330
7E76
330
7E77
330
7E78
330
7E79
330
7E7A
330
7E7B
330
7E7C
330
7E7D
330
7E7E
330
7E7F
330
7E80
330
7E81
330
7E82
330
7E83
330
7E84
330
7E85
330
7E86
330
7E87
330
7E88
330
7E89
330
7E8A
330
7E8B
330
7E8C
330
7E8D
330
7E8E
330
7E8F
330
7E90
330
7E91
330
7E92
330
7E93
330
7E94
330
7E95
330
7E96
330
7E97
330
7E98
330
7E99
330
7E9A
330
7E9B
330
7E9C
330
7E9D
330
7E9E
330
7E9F
330
7EA0
330
7EA1
330
7EA2
330
7EA3
330
7EA4
330
7EA5
330
7EA6
330
7EA7
330
7EA8
330
7EA9
330
7EAA
330
7EAB
330
7EAC
330
7EAD
330
7EAE
330
7EAF
330
7EB0
330
7EB1
330
7EB2
330
7EB3
330
7EB4
330
7EB5
330
7EB6
330
7EB7
330
7EB8
330
7EB9
330
7EBA
330
7EBB
330
7EBC
330
7EBD
330
7EBE
330
7EBF
330
7EC1
330
7EC2
330
7EC3
330
7EC4
330
7EC5
330
7EC6
330
7EC7
330
7EC8
330
7EC9
330
7ECA
330
7ECB
330
7ECC
330
7ECD
330
7ECE
330
7ECF
330
7ED0
330
7ED1
330
7ED2
330
7ED3
330
7ED4
330
7ED5
330
7ED6
330
7ED7
330
7ED8
330
7ED9
330
7EDA
330
7EDB
330
7EDC
330
7EDD
330
7EDE
330
7EDF
330
7EE0
330
7EE1
330
7EE2
330
7EE3
330
7EE4
330
7EE5
330
7EE6
330
7EE7
330
7EE8
330
7EE9
330
7EEA
330
7EEB
330
7EEC
330
7EED
330
7EEE
330
7EEF
330
7EF0
330
7EF1
330
7EF2
330
7EF3
330
7EF4
330
7EF5
330
7EF6
330
7EF7
330
7EF8
330
7EF9
330
7EFA
330
7EFB
330
7EFC
330
7EFD
330
7EFE
330
7EFF
330
7F00
330
7F01
330
7F02
330
7F03
330
7F04
330
7F05
330
7F06
330
7F07
330
7F08
330
7F09
330
7F0A
330
7F0B
330
7F0C
330
7F0D
330
7F0E
330
7F0F
330
7F10
330
7F11
330
7F12
330
7F13
330
7F14
330
7F15
330
7F16
330
7F17
330
7F18
330
7F19
330
7F1A
330
7F1B
330
7F1C
330
7F1D
330
7F1E
330
7F1F
330
7F20
330
7F21
330
7F22
330
7F23
330
7F24
330
7F25
330
7F26
330
7F27
330
7F28
330
7F29
330
7F2A
330
7F2B
330
7F2C
330
7F2D
330
7F2E
330
7F2F
330
7F30
330
7F31
330
7F32
330
7F33
330
7F34
330
7F35
330
7F36
330
7F37
330
7F38
330
7F39
330
7F3A
330
7F3B
  0
ENDSEC
  0
EOF
