  0
SECTION
  2
HEADER
  9
$ACADVER
  1
AC1015
  9
$ACADMAINTVER
 70
    20
  9
$DWGCODEPAGE
  3
ANSI_932
  9
$INSBASE
 10
0.0
 20
0.0
 30
0.0
  9
$EXTMIN
 10
-75.3330093091173
 20
-55.50118796649349
 30
-0.0015258207003583
  9
$EXTMAX
 10
26.42206860371084
 20
55.709348664304
 30
0.0000000349246037
  9
$LIMMIN
 10
0.0
 20
0.0
  9
$LIMMAX
 10
420.0
 20
297.0
  9
$ORTHOMODE
 70
     0
  9
$REGENMODE
 70
     1
  9
$FILLMODE
 70
     1
  9
$QTEXTMODE
 70
     0
  9
$MIRRTEXT
 70
     1
  9
$LTSCALE
 40
1.0
  9
$ATTMODE
 70
     1
  9
$TEXTSIZE
 40
3.799999999999999
  9
$TRACEWID
 40
1.0
  9
$TEXTSTYLE
  7
ACISOTS
  9
$CLAYER
  8
AM_0
  9
$CELTYPE
  6
ByLayer
  9
$CECOLOR
 62
   256
  9
$CELTSCALE
 40
1.0
  9
$DISPSILH
 70
     0
  9
$DIMSCALE
 40
1.0
  9
$DIMASZ
 40
2.5
  9
$DIMEXO
 40
1.0
  9
$DIMDLI
 40
10.0
  9
$DIMRND
 40
0.0
  9
$DIMDLE
 40
0.0
  9
$DIMEXE
 40
1.0
  9
$DIMTP
 40
0.1
  9
$DIMTM
 40
0.1000000001
  9
$DIMTXT
 40
3.799999999999999
  9
$DIMCEN
 40
0.0
  9
$DIMTSZ
 40
0.0
  9
$DIMTOL
 70
     0
  9
$DIMLIM
 70
     0
  9
$DIMTIH
 70
     0
  9
$DIMTOH
 70
     0
  9
$DIMSE1
 70
     0
  9
$DIMSE2
 70
     0
  9
$DIMTAD
 70
     3
  9
$DIMZIN
 70
     8
  9
$DIMBLK
  1
Open30
  9
$DIMASO
 70
     1
  9
$DIMSHO
 70
     1
  9
$DIMPOST
  1

  9
$DIMAPOST
  1
"
  9
$DIMALT
 70
     0
  9
$DIMALTD
 70
     2
  9
$DIMALTF
 40
0.0393701
  9
$DIMLFAC
 40
1.0
  9
$DIMTOFL
 70
     1
  9
$DIMTVP
 40
0.0
  9
$DIMTIX
 70
     0
  9
$DIMSOXD
 70
     0
  9
$DIMSAH
 70
     0
  9
$DIMBLK1
  1

  9
$DIMBLK2
  1

  9
$DIMSTYLE
  2
AM_JIS
  9
$DIMCLRD
 70
   256
  9
$DIMCLRE
 70
   256
  9
$DIMCLRT
 70
     2
  9
$DIMTFAC
 40
0.71
  9
$DIMGAP
 40
1.5
  9
$DIMJUST
 70
     0
  9
$DIMSD1
 70
     0
  9
$DIMSD2
 70
     0
  9
$DIMTOLJ
 70
     0
  9
$DIMTZIN
 70
     8
  9
$DIMALTZ
 70
     0
  9
$DIMALTTZ
 70
     0
  9
$DIMUPT
 70
     0
  9
$DIMDEC
 70
     0
  9
$DIMTDEC
 70
     2
  9
$DIMALTU
 70
     2
  9
$DIMALTTD
 70
     2
  9
$DIMTXSTY
  7
STANDARD
  9
$DIMAUNIT
 70
     1
  9
$DIMADEC
 70
     0
  9
$DIMALTRND
 40
0.0
  9
$DIMAZIN
 70
     2
  9
$DIMDSEP
 70
    46
  9
$DIMATFIT
 70
     3
  9
$DIMFRAC
 70
     0
  9
$DIMLDRBLK
  1
Open30
  9
$DIMLUNIT
 70
     2
  9
$DIMLWD
 70
    -1
  9
$DIMLWE
 70
    -1
  9
$DIMTMOVE
 70
     0
  9
$LUNITS
 70
     2
  9
$LUPREC
 70
     2
  9
$SKETCHINC
 40
1.0
  9
$FILLETRAD
 40
2.5
  9
$AUNITS
 70
     0
  9
$AUPREC
 70
     0
  9
$MENU
  1
.
  9
$ELEVATION
 40
0.0
  9
$PELEVATION
 40
0.0
  9
$THICKNESS
 40
0.0
  9
$LIMCHECK
 70
     0
  9
$CHAMFERA
 40
2.5
  9
$CHAMFERB
 40
2.5
  9
$CHAMFERC
 40
20.0
  9
$CHAMFERD
 40
0.0
  9
$SKPOLY
 70
     0
  9
$TDCREATE
 40
2455544.376007477
  9
$TDUCREATE
 40
2455544.001007477
  9
$TDUPDATE
 40
2455555.390184097
  9
$TDUUPDATE
 40
2455555.015184097
  9
$TDINDWG
 40
0.0751403472
  9
$TDUSRTIMER
 40
0.0751403472
  9
$USRTIMER
 70
     1
  9
$ANGBASE
 50
0.0
  9
$ANGDIR
 70
     0
  9
$PDMODE
 70
     0
  9
$PDSIZE
 40
0.0
  9
$PLINEWID
 40
0.0
  9
$SPLFRAME
 70
     0
  9
$SPLINETYPE
 70
     6
  9
$SPLINESEGS
 70
    40
  9
$HANDSEED
  5
19FB
  9
$SURFTAB1
 70
     6
  9
$SURFTAB2
 70
     6
  9
$SURFTYPE
 70
     6
  9
$SURFU
 70
     6
  9
$SURFV
 70
     6
  9
$UCSBASE
  2

  9
$UCSNAME
  2

  9
$UCSORG
 10
0.0
 20
0.0
 30
0.0
  9
$UCSXDIR
 10
1.0
 20
0.0
 30
0.0
  9
$UCSYDIR
 10
0.0
 20
1.0
 30
0.0
  9
$UCSORTHOREF
  2

  9
$UCSORTHOVIEW
 70
     0
  9
$UCSORGTOP
 10
0.0
 20
0.0
 30
0.0
  9
$UCSORGBOTTOM
 10
0.0
 20
0.0
 30
0.0
  9
$UCSORGLEFT
 10
0.0
 20
0.0
 30
0.0
  9
$UCSORGRIGHT
 10
0.0
 20
0.0
 30
0.0
  9
$UCSORGFRONT
 10
0.0
 20
0.0
 30
0.0
  9
$UCSORGBACK
 10
0.0
 20
0.0
 30
0.0
  9
$PUCSBASE
  2

  9
$PUCSNAME
  2

  9
$PUCSORG
 10
0.0
 20
0.0
 30
0.0
  9
$PUCSXDIR
 10
1.0
 20
0.0
 30
0.0
  9
$PUCSYDIR
 10
0.0
 20
1.0
 30
0.0
  9
$PUCSORTHOREF
  2

  9
$PUCSORTHOVIEW
 70
     0
  9
$PUCSORGTOP
 10
0.0
 20
0.0
 30
0.0
  9
$PUCSORGBOTTOM
 10
0.0
 20
0.0
 30
0.0
  9
$PUCSORGLEFT
 10
0.0
 20
0.0
 30
0.0
  9
$PUCSORGRIGHT
 10
0.0
 20
0.0
 30
0.0
  9
$PUCSORGFRONT
 10
0.0
 20
0.0
 30
0.0
  9
$PUCSORGBACK
 10
0.0
 20
0.0
 30
0.0
  9
$USERI1
 70
     0
  9
$USERI2
 70
     0
  9
$USERI3
 70
     0
  9
$USERI4
 70
     0
  9
$USERI5
 70
     0
  9
$USERR1
 40
0.0
  9
$USERR2
 40
0.0
  9
$USERR3
 40
0.0
  9
$USERR4
 40
0.0
  9
$USERR5
 40
0.0
  9
$WORLDVIEW
 70
     1
  9
$SHADEDGE
 70
     3
  9
$SHADEDIF
 70
    70
  9
$TILEMODE
 70
     1
  9
$MAXACTVP
 70
    64
  9
$PINSBASE
 10
0.0
 20
0.0
 30
0.0
  9
$PLIMCHECK
 70
     0
  9
$PEXTMIN
 10
1.000000000000000E+20
 20
1.000000000000000E+20
 30
1.000000000000000E+20
  9
$PEXTMAX
 10
-1.000000000000000E+20
 20
-1.000000000000000E+20
 30
-1.000000000000000E+20
  9
$PLIMMIN
 10
0.0
 20
0.0
  9
$PLIMMAX
 10
420.0
 20
297.0
  9
$UNITMODE
 70
     0
  9
$VISRETAIN
 70
     1
  9
$PLINEGEN
 70
     0
  9
$PSLTSCALE
 70
     1
  9
$TREEDEPTH
 70
  3020
  9
$CMLSTYLE
  2
Standard
  9
$CMLJUST
 70
     0
  9
$CMLSCALE
 40
20.0
  9
$PROXYGRAPHICS
 70
     1
  9
$MEASUREMENT
 70
     1
  9
$CELWEIGHT
370
    -1
  9
$ENDCAPS
280
     0
  9
$JOINSTYLE
280
     0
  9
$LWDISPLAY
290
     0
  9
$INSUNITS
 70
     4
  9
$HYPERLINKBASE
  1

  9
$STYLESHEET
  1

  9
$XEDIT
290
     1
  9
$CEPSNTYPE
380
     0
  9
$PSTYLEMODE
290
     1
  9
$FINGERPRINTGUID
  2
{3111868D-5B5F-4CA1-B0C4-BFDA86589F24}
  9
$VERSIONGUID
  2
{9F437323-287C-4E3B-AF52-4D0AD12D7787}
  9
$EXTNAMES
290
     1
  9
$PSVPSCALE
 40
0.0
  9
$OLESTARTUP
290
     0
  0
ENDSEC
  0
SECTION
  2
CLASSES
  0
CLASS
  1
ACDBDICTIONARYWDFLT
  2
AcDbDictionaryWithDefault
  3
ObjectDBX Classes
 90
        0
280
     0
281
     0
  0
CLASS
  1
ACDBPLACEHOLDER
  2
AcDbPlaceHolder
  3
ObjectDBX Classes
 90
        0
280
     0
281
     0
  0
CLASS
  1
LAYOUT
  2
AcDbLayout
  3
ObjectDBX Classes
 90
        0
280
     0
281
     0
  0
CLASS
  1
ACME_DOCUMENT
  2
AcMeDbDoc
  3
AcMeServices
 90
        0
280
     0
281
     0
  0
CLASS
  1
AMGSETTINGSOBJ
  2
AmgSettingsObj
  3
"AcadM|Product Description: AutoCAD Mechanical 2000|Company: Autodesk"
 90
        0
280
     0
281
     0
  0
CLASS
  1
ACMESCOPE
  2
AcMeScope
  3
AcMeServices
 90
        0
280
     0
281
     0
  0
CLASS
  1
ACMECOMMANDHISTORY
  2
AcMeCommandHistory
  3
AcMeServices
 90
        0
280
     0
281
     0
  0
CLASS
  1
ACIMSYSVARMAN
  2
AcImSysVarManager
  3
AcMeServices
 90
        0
280
     0
281
     0
  0
CLASS
  1
ACIMREALSYSVAR
  2
AcImRealSysVar
  3
AcMeServices
 90
        0
280
     0
281
     0
  0
CLASS
  1
ACIMINTSYSVAR
  2
AcImIntSysVar
  3
AcMeServices
 90
        0
280
     0
281
     0
  0
CLASS
  1
ACMEDRAWINGMAN
  2
AcMeDrawingMan
  3
AcMeServices
 90
        0
280
     0
281
     0
  0
CLASS
  1
ACMEVIEW
  2
AcMeView
  3
AcMeServices
 90
        0
280
     0
281
     0
  0
CLASS
  1
ACDBENTITYCACHE
  2
AcMeEntityCache
  3
AcMeServices
 90
        0
280
     0
281
     0
  0
CLASS
  1
GSMANAGER
  2
AcMeGSManager
  3
AcMeServices
 90
        0
280
     0
281
     0
  0
CLASS
  1
AMDTINTERNALREACTOR
  2
AmdtInternalReactor
  3
AcMeServices
 90
        0
280
     0
281
     0
  0
CLASS
  1
ACMESTATEMGR
  2
AcMeStateMgr
  3
AcMeServices
 90
        0
280
     0
281
     0
  0
CLASS
  1
ACGREFMASTER
  2
AcGrefMaster
  3
AcAttribServices
 90
        0
280
     0
281
     0
  0
CLASS
  1
ACME_DATABASE
  2
AcMeDbDatabase
  3
AcMeServices
 90
        0
280
     0
281
     0
  0
CLASS
  1
ACRFINSADJUSTERMGR
  2
AcRfInsAdjusterMgr
  3
AcMeServices
 90
        0
280
     0
281
     0
  0
CLASS
  1
ACGREFACADMASTER
  2
AcGrefacadMaster
  3
AcGrefServices
 90
        0
280
     0
281
     0
  0
CLASS
  1
AMIMASTER
  2
AmiMaster
  3
AmiServices
 90
        0
280
     0
281
     0
  0
CLASS
  1
ACMDATADICTIONARY
  2
AcmDataDictionary
  3
"AcmSymBB|Product Description: AutoCAD Mechanical 2004 DX|Company: Autodesk"
 90
        0
280
     0
281
     0
  0
CLASS
  1
ACMDATAENTRYBLOCK
  2
AcmDataEntryBlock
  3
"AcmSymBB|Product Description: AutoCAD Mechanical 2004 DX|Company: Autodesk"
 90
        0
280
     0
281
     0
  0
CLASS
  1
ACIMSTRSYSVAR
  2
AcImStrSysVar
  3
AcMeServices
 90
        0
280
     0
281
     0
  0
CLASS
  1
ACMSTANDARDISO
  2
AcmStandardISO
  3
"Amdt_StdImp|Product Description: AutoCAD Mechanical 2004 DX|Company: Autodesk"
 90
        0
280
     0
281
     0
  0
CLASS
  1
AMGOBJPROPCFG
  2
AmgObjPropCfg
  3
"AmgLay|Product Description: AutoCAD Mechanical 2000|Company: Autodesk"
 90
        1
280
     0
281
     0
  0
CLASS
  1
AMDTEDGESTANDARDISO
  2
AmdtEdgeStdISO
  3
"Amdt_StdImp|Product Description: AutoCAD Mechanical 2004 DX|Company: Autodesk"
 90
        0
280
     0
281
     0
  0
CLASS
  1
ACMSURFSTANDARDISO
  2
AcmSurfTextStdISO
  3
"Amdt_StdImp|Product Description: AutoCAD Mechanical 2004 DX|Company: Autodesk"
 90
        0
280
     0
281
     0
  0
CLASS
  1
ACMFCFSTANDARDISO
  2
AcmFCFStdISO
  3
"Amdt_StdImp|Product Description: AutoCAD Mechanical 2004 DX|Company: Autodesk"
 90
        0
280
     0
281
     0
  0
CLASS
  1
ACMWELDSTANDARDISO
  2
AcmWeldingStdISO
  3
"Amdt_StdImp|Product Description: AutoCAD Mechanical 2004 DX|Company: Autodesk"
 90
        0
280
     0
281
     0
  0
CLASS
  1
ACMIDSTANDARDISO
  2
AcmIdStdISO
  3
"Amdt_StdImp|Product Description: AutoCAD Mechanical 2004 DX|Company: Autodesk"
 90
        0
280
     0
281
     0
  0
CLASS
  1
ACMDATUMSTANDARDISO
  2
AcmDatumStdISO
  3
"Amdt_StdImp|Product Description: AutoCAD Mechanical 2004 DX|Company: Autodesk"
 90
        0
280
     0
281
     0
  0
CLASS
  1
ACMBOMSTANDARDISO
  2
AcmBOMStdISO
  3
"Amdt_StdImp|Product Description: AutoCAD Mechanical 2004 DX|Company: Autodesk"
 90
        0
280
     0
281
     0
  0
CLASS
  1
ACMDETAILSTANDARDISO
  2
AmdtDetailSymStdISO
  3
"Amdt_StdImp|Product Description: AutoCAD Mechanical 2004 DX|Company: Autodesk"
 90
        0
280
     0
281
     0
  0
CLASS
  1
ACMSECTIONSTANDARDISO
  2
AmdtSectionSymStdISO
  3
"Amdt_StdImp|Product Description: AutoCAD Mechanical 2004 DX|Company: Autodesk"
 90
        0
280
     0
281
     0
  0
CLASS
  1
ACMCENTERLINESTANDARDISO
  2
AmdtCenterLineStdISO
  3
"Amdt_StdImp|Product Description: AutoCAD Mechanical 2004 DX|Company: Autodesk"
 90
        0
280
     0
281
     0
  0
CLASS
  1
ACMNOTESTANDARDISO
  2
AmdtNoteStdISO
  3
"Amdt_StdImp|Product Description: AutoCAD Mechanical 2004 DX|Company: Autodesk"
 90
        0
280
     0
281
     0
  0
CLASS
  1
ACAMGLAYSTD
  2
AcAmgLayStd
  3
"AcAmgLayStd|Product Description: AutoCAD Mechanical 2000|Company: Autodesk"
 90
        0
280
     0
281
     0
  0
CLASS
  1
ACAMGDIMSTD
  2
AcAmgDimStd
  3
"AcAmgDimStd|Product Description: AutoCAD Mechanical 2000|Company: Autodesk"
 90
        0
280
     0
281
     0
  0
CLASS
  1
ACAMGHOLECHARTSTDISO
  2
AcAmgHoleChartStdISO
  3
ACMSYMBB_MODULE_NAME
 90
        0
280
     0
281
     0
  0
CLASS
  1
ACAMGTITLESTD
  2
AcAmgTitleStd
  3
"TITLEAPP"
 90
        0
280
     0
281
     0
  0
CLASS
  1
LAYER_INDEX
  2
AcDbLayerIndex
  3
ObjectDBX Classes
 90
    32768
280
     0
281
     0
  0
CLASS
  1
IDBUFFER
  2
AcDbIdBuffer
  3
ObjectDBX Classes
 90
    32768
280
     0
281
     0
  0
CLASS
  1
DICTIONARYVAR
  2
AcDbDictionaryVar
  3
ObjectDBX Classes
 90
        0
280
     0
281
     0
  0
CLASS
  1
AM_DRAWING_MGR
  2
AcDmDwgMgr
  3
AcMechDwgViewMgmt
 90
        0
280
     0
281
     0
  0
CLASS
  1
AM_DWG_DOCUMENT
  2
AcDmDwgDocument
  3
AcMechDwgViewMgmt
 90
        0
280
     0
281
     0
  0
CLASS
  1
AM_DWG_SHEET
  2
AcDmSheet
  3
AcMechDwgViewMgmt
 90
        0
280
     0
281
     0
  0
CLASS
  1
AM_VIEWDIMPARMAP
  2
AcDmViewDimParMap
  3
AcMechDwgViewMgmt
 90
        0
280
     0
281
     0
  0
CLASS
  1
AM_DWGMGR_NAME
  2
AcDmDwgMgrName
  3
AcMechDwgViewMgmt
 90
        0
280
     0
281
     0
  0
CLASS
  1
AMDTMENUSTATEMGR
  2
AmdtMenuStateMgr
  3
McadcomServices
 90
        0
280
     0
281
     0
  0
CLASS
  1
AMDTMCOMMENUSTATE
  2
AmdtMcomMenuState
  3
McadcomServices
 90
        0
280
     0
281
     0
  0
CLASS
  1
MAPIAMMOUDLE
  2
MApiAmModule
  3
MApiAmServices
 90
        0
280
     0
281
     0
  0
CLASS
  1
AMDTADMENUSTATE
  2
AmdtAdMenuState
  3
DesignerServices
 90
        0
280
     0
281
     0
  0
CLASS
  1
ADAPPL
  2
AcAdAppl
  3
DesignerServices
 90
        0
280
     0
281
     0
  0
CLASS
  1
DEPMGR
  2
AcAdDepMgr
  3
DesignerServices
 90
        0
280
     0
281
     0
  0
CLASS
  1
PARAMMGR
  2
AcAdParamMgr
  3
DesignerServices
 90
        0
280
     0
281
     0
  0
CLASS
  1
PARAMSCOPE
  2
AcAdParamScope
  3
DesignerServices
 90
        0
280
     0
281
     0
  0
CLASS
  1
NAMEDAPPL
  2
AcAdNamedAppl
  3
DesignerServices
 90
        0
280
     0
281
     0
  0
CLASS
  1
AMDTDMMENUSTATE
  2
AmdtDmMenuState
  3
AcMechDwgViewMgmt
 90
        0
280
     0
281
     0
  0
CLASS
  1
AMDTAMMENUSTATE
  2
AmdtAmMenuState
  3
DesignerAssemblies
 90
        0
280
     0
281
     0
  0
CLASS
  1
ACAMPROJECT
  2
AcAmProject
  3
DesignerAssemblies
 90
        0
280
     0
281
     0
  0
CLASS
  1
ACAMGRCOMPDEF
  2
AcAmGrCompDef
  3
DesignerAssemblies
 90
        0
280
     0
281
     0
  0
CLASS
  1
ACCMCONTEXT
  2
AcCmContext
  3
DesignerAssemblies
 90
        0
280
     0
281
     0
  0
CLASS
  1
ACAMCOMPDEF
  2
AcAmCompDef
  3
DesignerAssemblies
 90
        0
280
     0
281
     0
  0
CLASS
  1
ACAMCOMPDEFMGR
  2
AcAmCompDefMgr
  3
DesignerAssemblies
 90
        0
280
     0
281
     0
  0
CLASS
  1
AMCONTEXTMGR
  2
AcAmContextMgr
  3
DesignerAssemblies
 90
        0
280
     0
281
     0
  0
CLASS
  1
ACAMCONTEXTMODELER
  2
AcAmContextModeler
  3
DesignerAssemblies
 90
        0
280
     0
281
     0
  0
CLASS
  1
ACMTHREADLINESTANDARDISO
  2
AmdtThreadLineStdISO
  3
"Amdt_StdImp|Product Description: AutoCAD Mechanical 2004 DX|Company: Autodesk"
 90
        0
280
     0
281
     0
  0
CLASS
  1
CATALOGSTATE
  2
AcAmCatalogState
  3
DesignerAssemblies
 90
        0
280
     0
281
     0
  0
CLASS
  1
ACAMGRCOMPDEFSET
  2
AcAmGrCompDefSet
  3
DesignerAssemblies
 90
        0
280
     0
281
     0
  0
CLASS
  1
AMDTBROWSERDBTAB
  2
AmdtBrowserDbTab
  3
McadcomServices
 90
        0
280
     0
281
     0
  0
CLASS
  1
CBROWSERAPPOBJECT
  2
CBrowserAppObject
  3
McadcomServices
 90
        0
280
     0
281
     0
  0
CLASS
  1
DM_PLACEHOLDER
  2
AcDmSelsetPlaceholder
  3
AcMechDwgViewMgmt
 90
        0
280
     0
281
     0
  0
CLASS
  1
TABLESTYLE
  2
AcDbTableStyle
  3
ObjectDBX Classes
 90
     2047
280
     0
281
     0
  0
CLASS
  1
VAACXREFPANELOBJECT
  2
VaAcXREFPanelObject
  3
VAAC_ADDIN
 90
    32768
280
     0
281
     0
  0
CLASS
  1
VAACIMAGEINVENTORY
  2
VaAcImageInventory
  3
VAAC_ADDIN
 90
    32768
280
     0
281
     0
  0
CLASS
  1
AMDTNOTETEMPLATEDB
  2
AmdtNoteTemplateDB
  3
AMDT_STDIMP_MODULE_NAME
 90
        0
280
     0
281
     0
  0
CLASS
  1
ACMBOM
  2
AcmBom
  3
"AcmSymBB|Product Description: AutoCAD Mechanical 2004 DX|Company: Autodesk"
 90
    32768
280
     0
281
     0
  0
CLASS
  1
AMDTFORMULAUPDATEDISPATCHER
  2
AmdtFormulaUpdateDispatcher
  3
AcMeServices
 90
    32768
280
     0
281
     0
  0
CLASS
  1
ACMPARTLIST
  2
AcmPartList
  3
"AcmSymBB|Product Description: AutoCAD Mechanical 2004 DX|Company: Autodesk"
 90
    33791
280
     0
281
     1
  0
CLASS
  1
ACAMGFILTERDAT
  2
AcAmgFilterDat
  3
"AcadM|Product Description: AutoCAD Mechanical 2000|Company: Autodesk"
 90
        0
280
     0
281
     0
  0
CLASS
  1
ACMSTANDARDJIS
  2
AcmStandardJIS
  3
"Amdt_StdImp|Product Description: AutoCAD Mechanical 2004 DX|Company: Autodesk"
 90
        0
280
     0
281
     0
  0
CLASS
  1
ACMSURFSTANDARDJIS
  2
AcmSurfTextStdJIS
  3
"Amdt_StdImp|Product Description: AutoCAD Mechanical 2004 DX|Company: Autodesk"
 90
        0
280
     0
281
     0
  0
CLASS
  1
ACMFCFSTANDARDJIS98
  2
AcmFCFStdJIS98
  3
"Amdt_StdImp|Product Description: AutoCAD Mechanical 2004 DX|Company: Autodesk"
 90
        0
280
     0
281
     0
  0
CLASS
  1
ACMWELDSTANDARDJIS
  2
AcmWeldingStdJIS
  3
"Amdt_StdImp|Product Description: AutoCAD Mechanical 2004 DX|Company: Autodesk"
 90
        0
280
     0
281
     0
  0
CLASS
  1
ACMIDSTANDARDJIS
  2
AcmIdStdJIS
  3
"Amdt_StdImp|Product Description: AutoCAD Mechanical 2004 DX|Company: Autodesk"
 90
        0
280
     0
281
     0
  0
CLASS
  1
ACMDATUMSTANDARDJIS
  2
AcmDatumStdJIS
  3
"Amdt_StdImp|Product Description: AutoCAD Mechanical 2004 DX|Company: Autodesk"
 90
        0
280
     0
281
     0
  0
CLASS
  1
ACMBOMSTANDARDJIS
  2
AcmBOMStdJIS
  3
"Amdt_StdImp|Product Description: AutoCAD Mechanical 2004 DX|Company: Autodesk"
 90
        0
280
     0
281
     0
  0
CLASS
  1
ACMDETAILSTANDARDJIS
  2
AmdtDetailSymStdJIS
  3
"Amdt_StdImp|Product Description: AutoCAD Mechanical 2004 DX|Company: Autodesk"
 90
        0
280
     0
281
     0
  0
CLASS
  1
ACMSECTIONSTANDARDJIS
  2
AmdtSectionSymStdJIS
  3
"Amdt_StdImp|Product Description: AutoCAD Mechanical 2004 DX|Company: Autodesk"
 90
        0
280
     0
281
     0
  0
CLASS
  1
ACMCENTERLINESTANDARDJIS
  2
AmdtCenterLineStdJIS
  3
"Amdt_StdImp|Product Description: AutoCAD Mechanical 2004 DX|Company: Autodesk"
 90
        0
280
     0
281
     0
  0
CLASS
  1
ACMTHREADLINESTANDARDJIS
  2
AmdtThreadLineStdJIS
  3
"Amdt_StdImp|Product Description: AutoCAD Mechanical 2004 DX|Company: Autodesk"
 90
        0
280
     0
281
     0
  0
CLASS
  1
ACMNOTESTANDARDJIS
  2
AmdtNoteStdJIS
  3
"Amdt_StdImp|Product Description: AutoCAD Mechanical 2004 DX|Company: Autodesk"
 90
        0
280
     0
281
     0
  0
CLASS
  1
ACAMGHOLECHARTSTDJIS
  2
AcAmgHoleChartStdJIS
  3
ACMSYMBB_MODULE_NAME
 90
        0
280
     0
281
     0
  0
CLASS
  1
AMDTNOTE
  2
AmdtNote
  3
"AcmSymBB|Product Description: AutoCAD Mechanical 2004 DX|Company: Autodesk"
 90
    33791
280
     0
281
     1
  0
CLASS
  1
DIMASSOC
  2
AcDbDimAssoc
  3
"AcDbDimAssoc|Product Desc:     AcDim ARX App For Dimension|Company:          Autodesk, Inc.|WEB Address:      www.autodesk.com"
 90
        0
280
     0
281
     0
  0
CLASS
  1
SORTENTSTABLE
  2
AcDbSortentsTable
  3
ObjectDBX Classes
 90
        0
280
     0
281
     0
  0
CLASS
  1
ACRFATTGENMGR
  2
AcRfAttGeneralMgr
  3
AcAttribServices
 90
        0
280
     0
281
     0
  0
ENDSEC
  0
SECTION
  2
TABLES
  0
TABLE
  2
VPORT
  5
8
330
0
100
AcDbSymbolTable
 70
    33
  0
VPORT
  5
19F2
330
8
100
AcDbSymbolTableRecord
100
AcDbViewportTableRecord
  2
*Active
 70
     0
 10
0.0
 20
0.0
 11
1.0
 21
1.0
 12
-24.45547035270323
 22
0.1040803489052564
 13
0.0
 23
0.0
 14
2.5
 24
2.5
 15
10.0
 25
10.0
 16
0.0
 26
0.0
 36
1.0
 17
0.0
 27
0.0
 37
0.0
 40
112.0660022971882
 41
1.514762516046213
 42
50.0
 43
0.0
 44
0.0
 50
0.0
 51
0.0
 71
     0
 72
 10000
 73
     1
 74
     3
 75
     0
 76
     0
 77
     0
 78
     0
281
     0
 65
     1
110
0.0
120
0.0
130
0.0
111
1.0
121
0.0
131
0.0
112
0.0
122
1.0
132
0.0
 79
     0
146
0.0
  0
ENDTAB
  0
TABLE
  2
LTYPE
  5
5
330
0
100
AcDbSymbolTable
 70
    17
  0
LTYPE
  5
14
330
5
100
AcDbSymbolTableRecord
100
AcDbLinetypeTableRecord
  2
ByBlock
 70
     0
  3

 72
    65
 73
     0
 40
0.0
  0
LTYPE
  5
15
330
5
100
AcDbSymbolTableRecord
100
AcDbLinetypeTableRecord
  2
ByLayer
 70
     0
  3

 72
    65
 73
     0
 40
0.0
  0
LTYPE
  5
16
330
5
100
AcDbSymbolTableRecord
100
AcDbLinetypeTableRecord
  2
Continuous
 70
     0
  3
Solid line
 72
    65
 73
     0
 40
0.0
  0
LTYPE
  5
64
330
5
100
AcDbSymbolTableRecord
100
AcDbLinetypeTableRecord
  2
AM_ISO02W050
 70
     0
  3
__ __ __ __ __ __ __ __ __ __ __ __ __ __ __
 72
    65
 73
     2
 40
7.5
 49
6.0
 74
     0
 49
-1.5
 74
     0
  0
LTYPE
  5
65
330
5
100
AcDbSymbolTableRecord
100
AcDbLinetypeTableRecord
  2
AM_ISO08W050
 70
     0
  3
____ . ____ . ____ . ____ . ____ . ____ . ____
 72
    65
 73
     4
 40
18.0
 49
12.0
 74
     0
 49
-1.5
 74
     0
 49
3.0
 74
     0
 49
-1.5
 74
     0
  0
LTYPE
  5
66
330
5
100
AcDbSymbolTableRecord
100
AcDbLinetypeTableRecord
  2
AM_ISO09W050
 70
     0
  3
_____ . . _____ . . _____ . . ____ .. ____
 72
    65
 73
     6
 40
22.5
 49
12.0
 74
     0
 49
-1.5
 74
     0
 49
3.0
 74
     0
 49
-1.5
 74
     0
 49
3.0
 74
     0
 49
-1.5
 74
     0
  0
LTYPE
  5
67
330
5
100
AcDbSymbolTableRecord
100
AcDbLinetypeTableRecord
  2
Amconstr
 70
     0
  3
_______________________
 72
    65
 73
     2
 40
9999.0
 49
9999.0
 74
     0
 49
0.0
 74
     0
  0
LTYPE
  5
68
330
5
100
AcDbSymbolTableRecord
100
AcDbLinetypeTableRecord
  2
AM_ISO08W050x2
 70
     0
  3
__ . __ . __ . __ . __ . __
 72
    65
 73
     4
 40
9.0
 49
6.0
 74
     0
 49
-0.75
 74
     0
 49
1.5
 74
     0
 49
-0.75
 74
     0
  0
LTYPE
  5
69
330
5
100
AcDbSymbolTableRecord
100
AcDbLinetypeTableRecord
  2
AM_ISO02W050x2
 70
     0
  3
 _ _ _ _ _ _ _ _ _ _ _ _
 72
    65
 73
     2
 40
3.75
 49
3.0
 74
     0
 49
-0.75
 74
     0
  0
LTYPE
  5
6C
330
5
100
AcDbSymbolTableRecord
100
AcDbLinetypeTableRecord
  2
Amzigzag
 70
     0
  3
/\/-/\/-/\/-/\/-/\/-/\/
 72
    65
 73
     2
 40
11.0001
 49
0.0001
 74
     4
 75
   135
340
6B
 46
0.04
 50
0.0
 44
0.0
 45
0.0
 49
-11.0
 74
     0
  0
LTYPE
  5
7A
330
5
100
AcDbSymbolTableRecord
100
AcDbLinetypeTableRecord
  2
ACISOWELD
 70
     0
  3
_ _ _ _ _
 72
    65
 73
     2
 40
2.0
 49
2.0
 74
     0
 49
-1.0
 74
     0
  0
LTYPE
  5
7B
330
5
100
AcDbSymbolTableRecord
100
AcDbLinetypeTableRecord
  2
ACISOTGB
 70
     0
  3
__ . . __ . .
 72
    65
 73
     6
 40
9.0
 49
4.0
 74
     0
 49
-1.0
 74
     0
 49
1.0
 74
     0
 49
-1.0
 74
     0
 49
1.0
 74
     0
 49
-1.0
 74
     0
  0
LTYPE
  5
7C
330
5
100
AcDbSymbolTableRecord
100
AcDbLinetypeTableRecord
  2
ACISOTGL
 70
     0
  3
_ _ _ _ _
 72
    65
 73
     2
 40
3.0
 49
2.0
 74
     0
 49
-1.0
 74
     0
  0
LTYPE
  5
7E
330
5
100
AcDbSymbolTableRecord
100
AcDbLinetypeTableRecord
  2
CENTER
 70
     0
  3
__ . __
 72
    65
 73
     4
 40
7.0
 49
4.0
 74
     0
 49
-1.0
 74
     0
 49
1.0
 74
     0
 49
-1.0
 74
     0
  0
LTYPE
  5
D8
330
5
100
AcDbSymbolTableRecord
100
AcDbLinetypeTableRecord
  2
HIDDEN
 70
     0
  3
Hidden __ __ __ __ __ __ __ __ __ __ __ __ __ _
 72
    65
 73
     2
 40
9.524999999999998
 49
6.349999999999999
 74
     0
 49
-3.174999999999999
 74
     0
  0
LTYPE
  5
D9
330
5
100
AcDbSymbolTableRecord
100
AcDbLinetypeTableRecord
  2
PHANTOM2
 70
     0
  3
Phantom (.5x) ___ _ _ ___ _ _ ___ _ _ ___ _ _
 72
    65
 73
     6
 40
31.75
 49
15.875
 74
     0
 49
-3.174999999999999
 74
     0
 49
3.174999999999999
 74
     0
 49
-3.174999999999999
 74
     0
 49
3.174999999999999
 74
     0
 49
-3.174999999999999
 74
     0
  0
LTYPE
  5
20C
330
5
100
AcDbSymbolTableRecord
100
AcDbLinetypeTableRecord
  2
ACJISWELD
 70
     0
  3
_ _ _ _ _
 72
    65
 73
     2
 40
2.0
 49
2.0
 74
     0
 49
-1.0
 74
     0
  0
LTYPE
  5
20D
330
5
100
AcDbSymbolTableRecord
100
AcDbLinetypeTableRecord
  2
ACJISTGB
 70
     0
  3
__ . . __ . .
 72
    65
 73
     6
 40
9.0
 49
4.0
 74
     0
 49
-1.0
 74
     0
 49
1.0
 74
     0
 49
-1.0
 74
     0
 49
1.0
 74
     0
 49
-1.0
 74
     0
  0
LTYPE
  5
20E
330
5
100
AcDbSymbolTableRecord
100
AcDbLinetypeTableRecord
  2
ACJISTGL
 70
     0
  3
_ _ _ _ _
 72
    65
 73
     2
 40
3.0
 49
2.0
 74
     0
 49
-1.0
 74
     0
  0
ENDTAB
  0
TABLE
  2
LAYER
  5
2
102
{ACAD_XDICTIONARY
360
34B
102
}
330
0
100
AcDbSymbolTable
 70
     7
  0
LAYER
  5
10
330
2
100
AcDbSymbolTableRecord
100
AcDbLayerTableRecord
  2
0
 70
     0
 62
     7
  6
Continuous
370
    -3
390
F
  0
LAYER
  5
34A
330
2
100
AcDbSymbolTableRecord
100
AcDbLayerTableRecord
  2
AM_0
 70
     0
 62
     7
  6
Continuous
370
    30
390
F
  0
LAYER
  5
3B0
330
2
100
AcDbSymbolTableRecord
100
AcDbLayerTableRecord
  2
AM_5
 70
     0
 62
     3
  6
Continuous
370
    13
390
F
  0
LAYER
  5
3B1
330
2
100
AcDbSymbolTableRecord
100
AcDbLayerTableRecord
  2
AM_7
 70
     0
 62
     4
  6
AM_ISO08W050
370
    13
390
F
  0
LAYER
  5
46D
330
2
100
AcDbSymbolTableRecord
100
AcDbLayerTableRecord
  2
Defpoints
 70
     0
 62
     7
  6
Continuous
290
     0
370
    -3
390
F
  0
LAYER
  5
46E
330
2
100
AcDbSymbolTableRecord
100
AcDbLayerTableRecord
  2
1
 70
     0
 62
     7
  6
Continuous
370
    -3
390
F
  0
ENDTAB
  0
TABLE
  2
STYLE
  5
3
330
0
100
AcDbSymbolTable
 70
     6
  0
STYLE
  5
11
330
3
100
AcDbSymbolTableRecord
100
AcDbTextStyleTableRecord
  2
STANDARD
 70
     0
 40
0.0
 41
1.0
 50
0.0
 71
     0
 42
3.799999999999999
  3
ISOCP.SHX
  4
EXTFONT.SHX
  0
STYLE
  5
6B
330
3
100
AcDbSymbolTableRecord
100
AcDbTextStyleTableRecord
  2

 70
     1
 40
0.0
 41
1.0
 50
0.0
 71
     0
 42
2.5
  3
ltypeshp.shx
  4

  0
STYLE
  5
6D
330
3
100
AcDbSymbolTableRecord
100
AcDbTextStyleTableRecord
  2
ACISOTS
 70
     0
 40
3.799999999999999
 41
1.0
 50
0.0
 71
     0
 42
3.799999999999999
  3
isocp.shx
  4
extfont.shx
  0
STYLE
  5
79
330
3
100
AcDbSymbolTableRecord
100
AcDbTextStyleTableRecord
  2
ACISOGDT
 70
     0
 40
0.0
 41
1.0
 50
0.0
 71
     0
 42
2.5
  3
amgdt.shx
  4
extfont.shx
  0
STYLE
  5
1FF
330
3
100
AcDbSymbolTableRecord
100
AcDbTextStyleTableRecord
  2
ACJISTS
 70
     0
 40
1.0
 41
1.0
 50
0.0
 71
     0
 42
1.0
  3
isocp.shx
  4
extfont.shx
  0
STYLE
  5
20B
330
3
100
AcDbSymbolTableRecord
100
AcDbTextStyleTableRecord
  2
ACJISGDT
 70
     0
 40
0.0
 41
1.0
 50
0.0
 71
     0
 42
1.0
  3
amgdt.shx
  4

  0
ENDTAB
  0
TABLE
  2
VIEW
  5
6
330
0
100
AcDbSymbolTable
 70
     0
  0
ENDTAB
  0
TABLE
  2
UCS
  5
7
330
0
100
AcDbSymbolTable
 70
     0
  0
ENDTAB
  0
TABLE
  2
APPID
  5
9
330
0
100
AcDbSymbolTable
 70
    17
  0
APPID
  5
12
330
9
100
AcDbSymbolTableRecord
100
AcDbRegAppTableRecord
  2
ACAD
 70
     0
  0
APPID
  5
46
330
9
100
AcDbSymbolTableRecord
100
AcDbRegAppTableRecord
  2
MCAD_NO_VIS
 70
     0
  0
APPID
  5
47
330
9
100
AcDbSymbolTableRecord
100
AcDbRegAppTableRecord
  2
ACAD_TEMP_GRAPHIC
 70
     0
  0
APPID
  5
58
330
9
100
AcDbSymbolTableRecord
100
AcDbRegAppTableRecord
  2
ACATTRIBSERVICES
 70
     0
  0
APPID
  5
EE
330
9
100
AcDbSymbolTableRecord
100
AcDbRegAppTableRecord
  2
AD_DRAW
 70
     0
  0
APPID
  5
10C
330
9
100
AcDbSymbolTableRecord
100
AcDbRegAppTableRecord
  2
DESIGNERASSEMBLIES
 70
     0
  0
APPID
  5
111
330
9
100
AcDbSymbolTableRecord
100
AcDbRegAppTableRecord
  2
ACADM_DIM_EDIT
 70
     0
  0
APPID
  5
112
330
9
100
AcDbSymbolTableRecord
100
AcDbRegAppTableRecord
  2
AMDT_DM_ADJ
 70
     0
  0
APPID
  5
243
330
9
100
AcDbSymbolTableRecord
100
AcDbRegAppTableRecord
  2
ACAD_DSTYLE_DIMTEXT_FILL
 70
     0
  0
APPID
  5
3B4
330
9
100
AcDbSymbolTableRecord
100
AcDbRegAppTableRecord
  2
ACAD_PSEXT
 70
     0
  0
APPID
  5
472
330
9
100
AcDbSymbolTableRecord
100
AcDbRegAppTableRecord
  2
GENIUS_GENDTOL_13
 70
     0
  0
APPID
  5
473
330
9
100
AcDbSymbolTableRecord
100
AcDbRegAppTableRecord
  2
GENIUS_GENODEF_13
 70
     0
  0
APPID
  5
474
330
9
100
AcDbSymbolTableRecord
100
AcDbRegAppTableRecord
  2
GENIUS_GENOBJ-N-CEN_13
 70
     0
  0
APPID
  5
BCE
330
9
100
AcDbSymbolTableRecord
100
AcDbRegAppTableRecord
  2
ACAD_DIMASSOC_DIMLFAC
 70
     0
  0
APPID
  5
BCF
330
9
100
AcDbSymbolTableRecord
100
AcDbRegAppTableRecord
  2
ACAD_DIMASSOC_CALC_DIMLFAC
 70
     0
  0
APPID
  5
BD0
330
9
100
AcDbSymbolTableRecord
100
AcDbRegAppTableRecord
  2
ACAD_DIMASSOC_OVERRIDDEN_DIMLFAC
 70
     0
  0
APPID
  5
DDC
330
9
100
AcDbSymbolTableRecord
100
AcDbRegAppTableRecord
  2
GENIUS_GENOBJ-N-FIL_13
 70
     0
  0
ENDTAB
  0
TABLE
  2
DIMSTYLE
  5
A
330
0
100
AcDbSymbolTable
 70
    16
100
AcDbDimStyleTable
 71
     2
340
216
340
81
  0
DIMSTYLE
105
81
330
A
100
AcDbSymbolTableRecord
100
AcDbDimStyleTableRecord
  2
AM_ISO
 70
     0
  4
"
 41
2.5
 42
1.0
 43
10.0
 44
1.0
 47
0.1
 48
0.1
 73
     0
 74
     0
 77
     1
 78
     8
 79
     2
140
3.5
141
0.0
143
0.0393701
146
0.71
147
1.5
172
     1
176
   256
177
   256
178
     2
271
     2
272
     3
274
     4
283
     0
284
     8
340
11
371
    -1
372
    -1
  0
DIMSTYLE
105
82
330
A
100
AcDbSymbolTableRecord
100
AcDbDimStyleTableRecord
  2
AM_ISO$3
 70
     0
  4
"
 41
2.5
 42
1.0
 43
10.0
 44
1.0
 47
0.1
 48
0.1
 73
     0
 77
     1
 78
     8
 79
     2
140
3.5
141
0.0
143
0.0393701
146
0.71
147
1.5
176
   256
177
   256
178
     2
271
     2
272
     3
274
     4
283
     0
284
     8
288
     1
289
     0
340
11
371
    -1
372
    -1
  0
DIMSTYLE
105
83
330
A
100
AcDbSymbolTableRecord
100
AcDbDimStyleTableRecord
  2
AM_ISO$4
 70
     0
  4
"
 41
2.5
 42
1.0
 43
10.0
 44
1.0
 47
0.1
 48
0.1
 73
     0
 77
     1
 78
     8
 79
     2
140
3.5
141
0.0
143
0.0393701
146
0.71
147
1.5
176
   256
177
   256
178
     2
271
     2
272
     3
274
     4
283
     0
284
     8
288
     1
289
     0
340
11
371
    -1
372
    -1
  0
DIMSTYLE
105
84
330
A
100
AcDbSymbolTableRecord
100
AcDbDimStyleTableRecord
  2
AM_ISO$6
 70
     0
  4
"
 41
2.5
 42
1.0
 43
10.0
 44
1.0
 47
0.1
 48
0.1
 73
     0
 74
     0
 78
     8
 79
     2
140
3.5
141
0.0
143
0.0393701
146
0.71
147
1.5
172
     1
176
   256
177
   256
178
     2
271
     2
272
     3
274
     4
283
     0
284
     8
340
11
371
    -1
372
    -1
  0
DIMSTYLE
105
85
330
A
100
AcDbSymbolTableRecord
100
AcDbDimStyleTableRecord
  2
AM_ISO$7
 70
     0
  4
"
 41
2.5
 42
1.0
 43
10.0
 44
1.0
 47
0.1
 48
0.1
 73
     0
 74
     0
 77
     1
 78
     8
 79
     2
140
5.0
141
0.0
143
0.0393701
146
0.71
147
1.5
172
     1
176
   256
177
   256
178
     2
271
     2
272
     3
274
     4
283
     0
284
     8
340
11
371
    -1
372
    -1
  0
DIMSTYLE
105
86
330
A
100
AcDbSymbolTableRecord
100
AcDbDimStyleTableRecord
  2
AM_ISO$SF
 70
     0
  4
"
 41
2.5
 42
1.0
 43
10.0
 44
1.0
 47
0.1
 48
0.1
 73
     0
 74
     0
 75
     1
 76
     1
 77
     1
 78
     8
 79
     2
140
3.5
141
0.0
143
0.0393701
146
0.71
147
1.5
172
     1
176
   256
177
   256
178
     2
271
     2
272
     3
274
     4
283
     0
284
     8
340
11
371
    -1
372
    -1
  0
DIMSTYLE
105
8B
330
A
100
AcDbSymbolTableRecord
100
AcDbDimStyleTableRecord
  2
AM_ISO$SH
 70
     0
  4
"
 41
2.5
 42
1.0
 43
10.0
 44
1.0
 47
0.1
 48
0.1
 73
     0
 74
     0
 75
     1
 76
     1
 77
     1
 78
     8
 79
     2
140
3.5
141
0.0
143
0.0393701
144
2.0
146
0.71
147
1.5
172
     1
173
     1
176
   256
177
   256
178
     2
271
     2
272
     3
274
     4
283
     0
284
     8
340
11
343
87
371
    -1
372
    -1
  0
DIMSTYLE
105
216
330
A
100
AcDbSymbolTableRecord
100
AcDbDimStyleTableRecord
  2
AM_JIS
 70
     0
  4
"
 41
2.5
 42
1.0
 43
10.0
 44
1.0
 47
0.1
 48
0.1000000001
 73
     0
 74
     0
 77
     3
 78
     8
 79
     2
140
3.799999999999999
141
0.0
143
0.0393701
146
0.71
147
1.5
172
     1
176
   256
177
   256
178
     2
271
     2
272
     2
275
     1
283
     0
284
     8
340
11
341
217
342
217
371
    -1
372
    -1
  0
DIMSTYLE
105
21D
330
A
100
AcDbSymbolTableRecord
100
AcDbDimStyleTableRecord
  2
AM_JIS$3
 70
     0
  4
"
 41
2.5
 42
1.0
 43
10.0
 44
1.0
 47
0.1
 48
0.1000000001
 73
     0
 77
     3
 78
     8
 79
     2
140
3.799999999999999
141
0.0
143
0.0393701
146
0.71
147
1.5
176
   256
177
   256
178
     2
271
     2
272
     2
275
     1
283
     0
284
     8
288
     1
289
     0
340
11
341
217
342
217
371
    -1
372
    -1
  0
DIMSTYLE
105
21E
330
A
100
AcDbSymbolTableRecord
100
AcDbDimStyleTableRecord
  2
AM_JIS$4
 70
     0
  4
"
 41
2.5
 42
1.0
 43
10.0
 44
1.0
 47
0.1
 48
0.1000000001
 73
     0
 77
     3
 78
     8
 79
     2
140
3.799999999999999
141
0.0
143
0.0393701
146
0.71
147
1.5
176
   256
177
   256
178
     2
271
     2
272
     2
275
     1
283
     0
284
     8
288
     1
289
     0
340
11
341
217
342
217
371
    -1
372
    -1
  0
DIMSTYLE
105
21F
330
A
100
AcDbSymbolTableRecord
100
AcDbDimStyleTableRecord
  2
AM_JIS$6
 70
     0
  4
"
 41
2.5
 42
1.0
 43
10.0
 44
1.0
 47
0.1
 48
0.1000000001
 73
     0
 74
     0
 78
     8
 79
     2
140
3.799999999999999
141
0.0
143
0.0393701
146
0.71
147
1.5
172
     1
176
   256
177
   256
178
     2
271
     2
272
     2
275
     1
283
     0
284
     8
340
11
341
217
342
217
371
    -1
372
    -1
  0
DIMSTYLE
105
220
330
A
100
AcDbSymbolTableRecord
100
AcDbDimStyleTableRecord
  2
AM_JIS$7
 70
     0
  4
"
 41
2.5
 42
1.0
 43
10.0
 44
1.0
 47
0.1
 48
0.1000000001
 73
     0
 74
     0
 77
     3
 78
     8
 79
     2
140
5.0
141
0.0
143
0.0393701
146
0.71
147
1.5
172
     1
176
   256
177
   256
178
     2
271
     2
272
     2
275
     1
283
     0
284
     8
340
11
341
217
342
217
371
    -1
372
    -1
  0
DIMSTYLE
105
221
330
A
100
AcDbSymbolTableRecord
100
AcDbDimStyleTableRecord
  2
AM_JIS$SF
 70
     0
  4
"
 41
2.5
 42
1.0
 43
10.0
 44
1.0
 47
0.1
 48
0.1
 73
     0
 74
     0
 75
     1
 76
     1
 77
     3
 78
     8
 79
     2
140
3.5
141
0.0
143
0.0393701
146
0.71
147
1.5
172
     1
176
   256
177
   256
178
     2
271
     2
272
     3
274
     4
283
     0
284
     8
340
11
341
217
342
217
343
217
344
217
371
    -1
372
    -1
  0
DIMSTYLE
105
222
330
A
100
AcDbSymbolTableRecord
100
AcDbDimStyleTableRecord
  2
AM_JIS$SH
 70
     0
  4
"
 41
2.5
 42
1.0
 43
10.0
 44
1.0
 47
0.1
 48
0.1
 73
     0
 74
     0
 75
     1
 76
     1
 77
     3
 78
     8
 79
     2
140
3.5
141
0.0
143
0.0393701
144
2.0
146
0.71
147
1.5
172
     1
173
     1
176
   256
177
   256
178
     2
271
     2
272
     3
274
     4
283
     0
284
     8
340
11
341
217
342
217
343
87
344
217
371
    -1
372
    -1
  0
DIMSTYLE
105
470
102
{ACAD_REACTORS
330
192B
102
}
330
A
100
AcDbSymbolTableRecord
100
AcDbDimStyleTableRecord
  2
AM_JIS$2
 70
     0
  4
"
 41
2.5
 42
0.0
 43
10.0
 44
1.0
 48
0.000000001
 73
     0
 74
     0
 77
     3
 78
     1
 79
     2
140
3.799999999999999
141
0.0
143
0.0393701
146
0.71
147
1.5
172
     1
176
   256
177
   256
178
     2
179
     1
271
     3
272
     3
275
     1
283
     0
284
     8
289
     2
340
11
341
217
342
217
371
    -1
372
    -1
  0
DIMSTYLE
105
471
102
{ACAD_REACTORS
330
17DC
330
17DD
330
17E5
330
17E6
330
17E7
330
17E8
330
17E9
330
17EC
330
1928
330
192E
102
}
330
A
100
AcDbSymbolTableRecord
100
AcDbDimStyleTableRecord
  2
AM_JIS$0
 70
     0
  4
"
 41
2.5
 42
0.0
 43
10.0
 44
1.0
 48
0.000000001
 73
     0
 74
     0
 77
     3
 78
     1
 79
     2
140
3.799999999999999
141
0.0
143
0.0393701
146
0.71
147
1.5
172
     1
176
   256
177
   256
178
     2
179
     1
271
     3
272
     3
275
     1
283
     0
284
     8
340
11
341
217
342
217
371
    -1
372
    -1
  0
ENDTAB
  0
TABLE
  2
BLOCK_RECORD
  5
1
330
0
100
AcDbSymbolTable
 70
    38
  0
BLOCK_RECORD
  5
1F
102
{ACAD_XDICTIONARY
360
8F
102
}
330
1
100
AcDbSymbolTableRecord
100
AcDbBlockTableRecord
  2
*Model_Space
340
22
  0
BLOCK_RECORD
  5
1B
330
1
100
AcDbSymbolTableRecord
100
AcDbBlockTableRecord
  2
*Paper_Space
340
1E
  0
BLOCK_RECORD
  5
23
330
1
100
AcDbSymbolTableRecord
100
AcDbBlockTableRecord
  2
*Paper_Space0
340
26
  0
BLOCK_RECORD
  5
87
330
1
100
AcDbSymbolTableRecord
100
AcDbBlockTableRecord
  2
GENAXEH
340
0
  0
BLOCK_RECORD
  5
217
330
1
100
AcDbSymbolTableRecord
100
AcDbBlockTableRecord
  2
_Open30
340
0
102
{BLKREFS
331
16BE
331
16BF
331
16C7
331
16C8
331
16D0
331
16D1
331
16D9
331
16DA
331
16E2
331
16E3
331
16EA
331
16F2
331
16F3
331
1705
331
170D
331
170E
331
1765
331
1766
331
1771
331
1772
331
177C
331
1787
331
1788
331
1737
331
1741
331
174B
331
174C
331
1757
331
1758
331
18EC
331
18ED
331
18F8
331
18F9
331
1905
331
197B
331
1984
331
198B
331
198C
331
1994
331
1995
331
199F
331
19A0
331
19A8
331
19A9
331
19B0
331
19B8
331
19B9
331
19C1
331
19C2
331
19D4
331
19DC
331
19DD
102
}
  0
BLOCK_RECORD
  5
3DC
330
1
100
AcDbSymbolTableRecord
100
AcDbBlockTableRecord
  2
_None
340
0
  0
BLOCK_RECORD
  5
1821
330
1
100
AcDbSymbolTableRecord
100
AcDbBlockTableRecord
  2
*D23
340
0
  0
BLOCK_RECORD
  5
1829
330
1
100
AcDbSymbolTableRecord
100
AcDbBlockTableRecord
  2
*D24
340
0
  0
BLOCK_RECORD
  5
1831
330
1
100
AcDbSymbolTableRecord
100
AcDbBlockTableRecord
  2
*D25
340
0
  0
BLOCK_RECORD
  5
183B
330
1
100
AcDbSymbolTableRecord
100
AcDbBlockTableRecord
  2
*D26
340
0
  0
BLOCK_RECORD
  5
1845
330
1
100
AcDbSymbolTableRecord
100
AcDbBlockTableRecord
  2
*D27
340
0
  0
BLOCK_RECORD
  5
1851
330
1
100
AcDbSymbolTableRecord
100
AcDbBlockTableRecord
  2
*D28
340
0
  0
BLOCK_RECORD
  5
185B
330
1
100
AcDbSymbolTableRecord
100
AcDbBlockTableRecord
  2
*D29
340
0
  0
BLOCK_RECORD
  5
1863
330
1
100
AcDbSymbolTableRecord
100
AcDbBlockTableRecord
  2
*D30
340
0
  0
BLOCK_RECORD
  5
1931
330
1
100
AcDbSymbolTableRecord
100
AcDbBlockTableRecord
  2
*D35
340
0
  0
BLOCK_RECORD
  5
193B
330
1
100
AcDbSymbolTableRecord
100
AcDbBlockTableRecord
  2
*D36
340
0
  0
BLOCK_RECORD
  5
1947
330
1
100
AcDbSymbolTableRecord
100
AcDbBlockTableRecord
  2
*D37
340
0
  0
ENDTAB
  0
ENDSEC
  0
SECTION
  2
BLOCKS
  0
BLOCK
  5
20
330
1F
100
AcDbEntity
  8
0
100
AcDbBlockBegin
  2
*Model_Space
 70
     0
 10
0.0
 20
0.0
 30
0.0
  3
*Model_Space
  1

  0
ENDBLK
  5
21
330
1F
100
AcDbEntity
  8
0
100
AcDbBlockEnd
  0
BLOCK
  5
1C
330
1B
100
AcDbEntity
 67
     1
  8
0
100
AcDbBlockBegin
  2
*Paper_Space
 70
     0
 10
0.0
 20
0.0
 30
0.0
  3
*Paper_Space
  1

  0
ENDBLK
  5
1D
330
1B
100
AcDbEntity
 67
     1
  8
0
100
AcDbBlockEnd
  0
BLOCK
  5
24
330
23
100
AcDbEntity
  8
0
100
AcDbBlockBegin
  2
*Paper_Space0
 70
     0
 10
0.0
 20
0.0
 30
0.0
  3
*Paper_Space0
  1

  0
ENDBLK
  5
25
330
23
100
AcDbEntity
  8
0
100
AcDbBlockEnd
  0
BLOCK
  5
89
330
87
100
AcDbEntity
  8
0
100
AcDbBlockBegin
  2
GENAXEH
 70
     0
 10
0.0
 20
0.0
 30
0.0
  3
GENAXEH
  1

  0
LINE
  5
88
330
87
100
AcDbEntity
  8
0
100
AcDbLine
 10
-1.0
 20
0.0
 30
0.0
 11
1.0
 21
0.0
 31
0.0
  0
ENDBLK
  5
8A
330
87
100
AcDbEntity
  8
0
100
AcDbBlockEnd
  0
BLOCK
  5
21B
330
217
100
AcDbEntity
  8
0
100
AcDbBlockBegin
  2
_Open30
 70
     0
 10
0.0
 20
0.0
 30
0.0
  3
_Open30
  1

  0
LINE
  5
218
330
217
100
AcDbEntity
  8
0
  6
ByBlock
 62
     0
370
    -2
100
AcDbLine
 10
-1.0
 20
0.26794919
 30
0.0
 11
0.0
 21
0.0
 31
0.0
  0
LINE
  5
219
330
217
100
AcDbEntity
  8
0
  6
ByBlock
 62
     0
370
    -2
100
AcDbLine
 10
0.0
 20
0.0
 30
0.0
 11
-1.0
 21
-0.26794919
 31
0.0
  0
LINE
  5
21A
330
217
100
AcDbEntity
  8
0
  6
ByBlock
 62
     0
370
    -2
100
AcDbLine
 10
0.0
 20
0.0
 30
0.0
 11
-1.0
 21
0.0
 31
0.0
  0
ENDBLK
  5
21C
330
217
100
AcDbEntity
  8
0
100
AcDbBlockEnd
  0
BLOCK
  5
3DD
330
3DC
100
AcDbEntity
  8
0
100
AcDbBlockBegin
  2
_None
 70
     0
 10
0.0
 20
0.0
 30
0.0
  3
_None
  1

  0
ENDBLK
  5
3DE
330
3DC
100
AcDbEntity
  8
0
100
AcDbBlockEnd
  0
BLOCK
  5
18B3
330
1821
100
AcDbEntity
  8
0
100
AcDbBlockBegin
  2
*D23
 70
     1
 10
0.0
 20
0.0
 30
0.0
  3
*D23
  1

  0
LINE
  5
1978
330
1821
100
AcDbEntity
  8
AM_5
100
AcDbLine
 10
-9.000000000000056
 20
9.000000000000053
 30
0.0
 11
19.18642004563702
 21
9.000000000000046
 31
0.0
  0
LINE
  5
1979
330
1821
100
AcDbEntity
  8
AM_5
100
AcDbLine
 10
18.18642004563702
 20
0.0000000000000479
 30
0.0
 11
18.18642004563702
 21
6.500000000000045
 31
0.0
  0
MTEXT
  5
197A
330
1821
100
AcDbEntity
  8
AM_5
 62
     2
100
AcDbMText
 10
14.84314929952805
 20
-1.940903389671408
 30
0.0
 40
3.799999999999999
 41
0.0
 71
     5
 72
     1
  1
φ18
 11
0.0000000000000001
 21
1.0
 31
0.0
 73
     1
 44
1.0
1001
ACAD
1000
MTEXTBEGIN
1070
    73
1070
     1
1070
    44
1040
1.0
1070
    74
1070
     0
1000
MTEXTEND
  0
INSERT
  5
197B
330
1821
100
AcDbEntity
  8
AM_5
100
AcDbBlockReference
  2
_Open30
 10
18.18642004563702
 20
9.000000000000046
 30
0.0
 41
2.5
 42
2.5
 43
2.5
 50
90.0
  0
POINT
  5
197C
330
1821
100
AcDbEntity
  8
Defpoints
 62
     0
100
AcDbPoint
 10
-0.7560527715129979
 20
0.0000000000000533
 30
0.0
  0
POINT
  5
197D
330
1821
100
AcDbEntity
  8
Defpoints
 62
     0
100
AcDbPoint
 10
-9.000000000000056
 20
9.000000000000053
 30
0.0
  0
POINT
  5
197E
330
1821
100
AcDbEntity
  8
Defpoints
 62
     0
100
AcDbPoint
 10
18.18642004563702
 20
9.000000000000046
 30
0.0
  0
ENDBLK
  5
18B4
330
1821
100
AcDbEntity
  8
0
100
AcDbBlockEnd
  0
BLOCK
  5
18B5
330
1829
100
AcDbEntity
  8
0
100
AcDbBlockBegin
  2
*D24
 70
     1
 10
0.0
 20
0.0
 30
0.0
  3
*D24
  1

  0
LINE
  5
197F
330
1829
100
AcDbEntity
  8
AM_5
100
AcDbLine
 10
-13.99768399999999
 20
5.500000000000053
 30
0.0
 11
9.65108691750602
 21
5.500000000000047
 31
0.0
  0
LINE
  5
1980
330
1829
100
AcDbEntity
  8
AM_5
100
AcDbLine
 10
8.651086917506018
 20
0.0000000000000506
 30
0.0
 11
8.651086917506018
 21
-2.499999999999949
 31
0.0
  0
LINE
  5
1981
330
1829
100
AcDbEntity
  8
AM_5
100
AcDbLine
 10
8.65108691750602
 20
8.000000000000047
 30
0.0
 11
8.65108691750602
 21
10.50000000000005
 31
0.0
  0
MTEXT
  5
1982
330
1829
100
AcDbEntity
  8
AM_5
 62
     2
100
AcDbMText
 10
5.413663250917386
 20
-2.428475189894758
 30
0.0
 40
3.799999999999999
 41
0.0
 71
     5
 72
     1
  1
φ11
 11
0.0000000000000001
 21
1.0
 31
0.0
 73
     1
 44
1.0
1001
ACAD
1000
MTEXTBEGIN
1070
    73
1070
     1
1070
    44
1040
1.0
1070
    74
1070
     0
1000
MTEXTEND
  0
LINE
  5
1983
330
1829
100
AcDbEntity
  8
AM_5
100
AcDbLine
 10
8.651086917506018
 20
0.0000000000000506
 30
0.0
 11
8.65108691750602
 21
5.500000000000047
 31
0.0
  0
INSERT
  5
1984
330
1829
100
AcDbEntity
  8
AM_5
100
AcDbBlockReference
  2
_Open30
 10
8.65108691750602
 20
5.500000000000047
 30
0.0
 41
2.5
 42
2.5
 43
2.5
 50
270.0
  0
POINT
  5
1985
330
1829
100
AcDbEntity
  8
Defpoints
 62
     0
100
AcDbPoint
 10
-0.7560527715129979
 20
0.0000000000000533
 30
0.0
  0
POINT
  5
1986
330
1829
100
AcDbEntity
  8
Defpoints
 62
     0
100
AcDbPoint
 10
-13.99768399999999
 20
5.500000000000053
 30
0.0
  0
POINT
  5
1987
330
1829
100
AcDbEntity
  8
Defpoints
 62
     0
100
AcDbPoint
 10
8.65108691750602
 20
5.500000000000047
 30
0.0
  0
ENDBLK
  5
18B6
330
1829
100
AcDbEntity
  8
0
100
AcDbBlockEnd
  0
BLOCK
  5
18B7
330
1831
100
AcDbEntity
  8
0
100
AcDbBlockBegin
  2
*D25
 70
     1
 10
0.0
 20
0.0
 30
0.0
  3
*D25
  1

  0
LINE
  5
1988
330
1831
100
AcDbEntity
  8
AM_5
100
AcDbLine
 10
-38.99768399999999
 20
-12.26232854663687
 30
0.0
 11
-38.99768399999999
 21
-47.18063437292511
 31
0.0
  0
LINE
  5
1989
330
1831
100
AcDbEntity
  8
AM_5
100
AcDbLine
 10
-12.99768399999998
 20
-8.999999999999946
 30
0.0
 11
-12.99768399999998
 21
-47.18063437292511
 31
0.0
  0
LINE
  5
198A
330
1831
100
AcDbEntity
  8
AM_5
100
AcDbLine
 10
-36.49768399999999
 20
-46.18063437292511
 30
0.0
 11
-15.49768399999998
 21
-46.18063437292511
 31
0.0
  0
INSERT
  5
198B
330
1831
100
AcDbEntity
  8
AM_5
100
AcDbBlockReference
  2
_Open30
 10
-38.99768399999999
 20
-46.18063437292511
 30
0.0
 41
2.5
 42
2.5
 43
2.5
 50
180.0
  0
INSERT
  5
198C
330
1831
100
AcDbEntity
  8
AM_5
100
AcDbBlockReference
  2
_Open30
 10
-12.99768399999998
 20
-46.18063437292511
 30
0.0
 41
2.5
 42
2.5
 43
2.5
  0
MTEXT
  5
198D
330
1831
100
AcDbEntity
  8
AM_5
 62
     2
100
AcDbMText
 10
-25.99768399999998
 20
-42.78026035717708
 30
0.0
 40
3.799999999999999
 41
0.0
 71
     5
 72
     1
  1
26
 73
     1
 44
1.0
1001
ACAD
1000
MTEXTBEGIN
1070
    73
1070
     1
1070
    44
1040
1.0
1070
    74
1070
     0
1000
MTEXTEND
  0
POINT
  5
198E
330
1831
100
AcDbEntity
  8
Defpoints
 62
     0
100
AcDbPoint
 10
-38.99768399999999
 20
-12.26232854663687
 30
0.0
  0
POINT
  5
198F
330
1831
100
AcDbEntity
  8
Defpoints
 62
     0
100
AcDbPoint
 10
-12.99768399999998
 20
-8.999999999999946
 30
0.0
  0
POINT
  5
1990
330
1831
100
AcDbEntity
  8
Defpoints
 62
     0
100
AcDbPoint
 10
-12.99768399999998
 20
-46.18063437292511
 30
0.0
  0
ENDBLK
  5
18B8
330
1831
100
AcDbEntity
  8
0
100
AcDbBlockEnd
  0
BLOCK
  5
18B9
330
183B
100
AcDbEntity
  8
0
100
AcDbBlockBegin
  2
*D26
 70
     1
 10
0.0
 20
0.0
 30
0.0
  3
*D26
  1

  0
LINE
  5
1991
330
183B
100
AcDbEntity
  8
AM_5
100
AcDbLine
 10
-38.99768399999999
 20
-12.26232854663687
 30
0.0
 11
-38.99768399999999
 21
-36.49663947552932
 31
0.0
  0
LINE
  5
1992
330
183B
100
AcDbEntity
  8
AM_5
100
AcDbLine
 10
-18.99768399999999
 20
-11.49999999999995
 30
0.0
 11
-18.99768399999999
 21
-36.49663947552932
 31
0.0
  0
LINE
  5
1993
330
183B
100
AcDbEntity
  8
AM_5
100
AcDbLine
 10
-36.49768399999999
 20
-35.49663947552932
 30
0.0
 11
-21.49768399999999
 21
-35.49663947552932
 31
0.0
  0
INSERT
  5
1994
330
183B
100
AcDbEntity
  8
AM_5
100
AcDbBlockReference
  2
_Open30
 10
-38.99768399999999
 20
-35.49663947552932
 30
0.0
 41
2.5
 42
2.5
 43
2.5
 50
180.0
  0
INSERT
  5
1995
330
183B
100
AcDbEntity
  8
AM_5
100
AcDbBlockReference
  2
_Open30
 10
-18.99768399999999
 20
-35.49663947552932
 30
0.0
 41
2.5
 42
2.5
 43
2.5
  0
MTEXT
  5
1996
330
183B
100
AcDbEntity
  8
AM_5
 62
     2
100
AcDbMText
 10
-28.99768399999999
 20
-32.09626545978129
 30
0.0
 40
3.799999999999999
 41
0.0
 71
     5
 72
     1
  1
20
 73
     1
 44
1.0
1001
ACAD
1000
MTEXTBEGIN
1070
    73
1070
     1
1070
    44
1040
1.0
1070
    74
1070
     0
1000
MTEXTEND
  0
POINT
  5
1997
330
183B
100
AcDbEntity
  8
Defpoints
 62
     0
100
AcDbPoint
 10
-38.99768399999999
 20
-12.26232854663687
 30
0.0
  0
POINT
  5
1998
330
183B
100
AcDbEntity
  8
Defpoints
 62
     0
100
AcDbPoint
 10
-18.99768399999999
 20
-11.49999999999995
 30
0.0
  0
POINT
  5
1999
330
183B
100
AcDbEntity
  8
Defpoints
 62
     0
100
AcDbPoint
 10
-18.99768399999999
 20
-35.49663947552932
 30
0.0
  0
ENDBLK
  5
18BA
330
183B
100
AcDbEntity
  8
0
100
AcDbBlockEnd
  0
BLOCK
  5
18BB
330
1845
100
AcDbEntity
  8
0
100
AcDbBlockBegin
  2
*D27
 70
     1
 10
0.0
 20
0.0
 30
0.0
  3
*D27
  1

  0
LINE
  5
199A
330
1845
100
AcDbEntity
  8
AM_5
100
AcDbLine
 10
-38.99768399999999
 20
-12.26232854663687
 30
0.0
 11
-38.99768399999999
 21
-25.67909531756556
 31
0.0
  0
LINE
  5
199B
330
1845
100
AcDbEntity
  8
AM_5
100
AcDbLine
 10
-32.69768400000004
 20
-5.199999999999992
 30
0.0
 11
-32.69768400000004
 21
-25.67909531756556
 31
0.0
  0
LINE
  5
199C
330
1845
100
AcDbEntity
  8
AM_5
100
AcDbLine
 10
-30.19768400000004
 20
-24.67909531756556
 30
0.0
 11
-27.69768400000004
 21
-24.67909531756556
 31
0.0
  0
LINE
  5
199D
330
1845
100
AcDbEntity
  8
AM_5
100
AcDbLine
 10
-41.49768399999999
 20
-24.67909531756556
 30
0.0
 11
-52.70248672850492
 21
-24.67909531756556
 31
0.0
  0
LINE
  5
199E
330
1845
100
AcDbEntity
  8
AM_5
100
AcDbLine
 10
-32.69768400000004
 20
-24.67909531756556
 30
0.0
 11
-38.99768399999999
 21
-24.67909531756556
 31
0.0
  0
INSERT
  5
199F
330
1845
100
AcDbEntity
  8
AM_5
100
AcDbBlockReference
  2
_Open30
 10
-32.69768400000004
 20
-24.67909531756556
 30
0.0
 41
2.5
 42
2.5
 43
2.5
 50
180.0
  0
INSERT
  5
19A0
330
1845
100
AcDbEntity
  8
AM_5
100
AcDbBlockReference
  2
_Open30
 10
-38.99768399999999
 20
-24.67909531756556
 30
0.0
 41
2.5
 42
2.5
 43
2.5
  0
MTEXT
  5
19A1
330
1845
100
AcDbEntity
  8
AM_5
 62
     2
100
AcDbMText
 10
-48.35008536425246
 20
-21.27909531756556
 30
0.0
 40
3.799999999999999
 41
0.0
 71
     5
 72
     1
  1
6.3
 73
     1
 44
1.0
1001
ACAD
1000
MTEXTBEGIN
1070
    73
1070
     1
1070
    44
1040
1.0
1070
    74
1070
     0
1000
MTEXTEND
  0
POINT
  5
19A2
330
1845
100
AcDbEntity
  8
Defpoints
 62
     0
100
AcDbPoint
 10
-38.99768399999999
 20
-12.26232854663687
 30
0.0
  0
POINT
  5
19A3
330
1845
100
AcDbEntity
  8
Defpoints
 62
     0
100
AcDbPoint
 10
-32.69768400000004
 20
-5.199999999999992
 30
0.0
  0
POINT
  5
19A4
330
1845
100
AcDbEntity
  8
Defpoints
 62
     0
100
AcDbPoint
 10
-32.69768400000004
 20
-24.67909531756556
 30
0.0
  0
ENDBLK
  5
18BC
330
1845
100
AcDbEntity
  8
0
100
AcDbBlockEnd
  0
BLOCK
  5
18BD
330
1851
100
AcDbEntity
  8
0
100
AcDbBlockBegin
  2
*D28
 70
     1
 10
0.0
 20
0.0
 30
0.0
  3
*D28
  1

  0
LINE
  5
19A5
330
1851
100
AcDbEntity
  8
AM_5
100
AcDbLine
 10
-31.86853400000001
 20
11.00000000000005
 30
0.0
 11
-59.88323730631811
 21
11.00000000000006
 31
0.0
  0
LINE
  5
19A6
330
1851
100
AcDbEntity
  8
AM_5
100
AcDbLine
 10
-31.86853400000001
 20
-10.99999999999994
 30
0.0
 11
-59.88323730631811
 21
-10.99999999999994
 31
0.0
  0
LINE
  5
19A7
330
1851
100
AcDbEntity
  8
AM_5
100
AcDbLine
 10
-58.8832373063181
 20
8.50000000000006
 30
0.0
 11
-58.8832373063181
 21
-8.499999999999939
 31
0.0
  0
INSERT
  5
19A8
330
1851
100
AcDbEntity
  8
AM_5
100
AcDbBlockReference
  2
_Open30
 10
-58.8832373063181
 20
11.00000000000006
 30
0.0
 41
2.5
 42
2.5
 43
2.5
 50
90.0
  0
INSERT
  5
19A9
330
1851
100
AcDbEntity
  8
AM_5
100
AcDbBlockReference
  2
_Open30
 10
-58.8832373063181
 20
-10.99999999999994
 30
0.0
 41
2.5
 42
2.5
 43
2.5
 50
270.0
  0
MTEXT
  5
19AA
330
1851
100
AcDbEntity
  8
AM_5
 62
     2
100
AcDbMText
 10
-62.28361132206615
 20
0.000000000000052
 30
0.0
 40
3.799999999999999
 41
0.0
 71
     5
 72
     1
  1
φ22
 11
0.0000000000000001
 21
1.0
 31
0.0
 73
     1
 44
1.0
1001
ACAD
1000
MTEXTBEGIN
1070
    73
1070
     1
1070
    44
1040
1.0
1070
    74
1070
     0
1000
MTEXTEND
  0
POINT
  5
19AB
330
1851
100
AcDbEntity
  8
Defpoints
 62
     0
100
AcDbPoint
 10
-31.86853400000001
 20
11.00000000000005
 30
0.0
  0
POINT
  5
19AC
330
1851
100
AcDbEntity
  8
Defpoints
 62
     0
100
AcDbPoint
 10
-31.86853400000001
 20
-10.99999999999994
 30
0.0
  0
POINT
  5
19AD
330
1851
100
AcDbEntity
  8
Defpoints
 62
     0
100
AcDbPoint
 10
-58.8832373063181
 20
-10.99999999999994
 30
0.0
  0
ENDBLK
  5
18BE
330
1851
100
AcDbEntity
  8
0
100
AcDbBlockEnd
  0
BLOCK
  5
18BF
330
185B
100
AcDbEntity
  8
0
100
AcDbBlockBegin
  2
*D29
 70
     1
 10
0.0
 20
0.0
 30
0.0
  3
*D29
  1

  0
LINE
  5
19AE
330
185B
100
AcDbEntity
  8
AM_5
100
AcDbLine
 10
-37.997684
 20
20.00000000000005
 30
0.0
 11
-71.19892124751942
 21
20.00000000000007
 31
0.0
  0
LINE
  5
19AF
330
185B
100
AcDbEntity
  8
AM_5
100
AcDbLine
 10
-70.19892124751942
 20
0.0000000000000611
 30
0.0
 11
-70.19892124751942
 21
17.50000000000006
 31
0.0
  0
INSERT
  5
19B0
330
185B
100
AcDbEntity
  8
AM_5
100
AcDbBlockReference
  2
_Open30
 10
-70.19892124751942
 20
20.00000000000007
 30
0.0
 41
2.5
 42
2.5
 43
2.5
 50
90.0
  0
MTEXT
  5
19B1
330
185B
100
AcDbEntity
  8
AM_5
 62
     2
100
AcDbMText
 10
-73.59892124751943
 20
6.835398576160908
 30
0.0
 40
3.799999999999999
 41
0.0
 71
     5
 72
     1
  1
φ40
 11
0.0000000000000001
 21
1.0
 31
0.0
 73
     1
 44
1.0
1001
ACAD
1000
MTEXTBEGIN
1070
    73
1070
     1
1070
    44
1040
1.0
1070
    74
1070
     0
1000
MTEXTEND
  0
POINT
  5
19B2
330
185B
100
AcDbEntity
  8
Defpoints
 62
     0
100
AcDbPoint
 10
-42.50073314066054
 20
0.0000000000000533
 30
0.0
  0
POINT
  5
19B3
330
185B
100
AcDbEntity
  8
Defpoints
 62
     0
100
AcDbPoint
 10
-37.997684
 20
20.00000000000005
 30
0.0
  0
POINT
  5
19B4
330
185B
100
AcDbEntity
  8
Defpoints
 62
     0
100
AcDbPoint
 10
-70.19892124751942
 20
20.00000000000007
 30
0.0
  0
ENDBLK
  5
18C0
330
185B
100
AcDbEntity
  8
0
100
AcDbBlockEnd
  0
BLOCK
  5
18C1
330
1863
100
AcDbEntity
  8
0
100
AcDbBlockBegin
  2
*D30
 70
     1
 10
0.0
 20
0.0
 30
0.0
  3
*D30
  1

  0
LINE
  5
19B5
330
1863
100
AcDbEntity
  8
AM_5
100
AcDbLine
 10
-37.997684
 20
-5.199999999999992
 30
0.0
 11
-47.33610357000219
 21
-5.199999999999988
 31
0.0
  0
LINE
  5
19B6
330
1863
100
AcDbEntity
  8
AM_5
100
AcDbLine
 10
-37.997684
 20
5.199999999999985
 30
0.0
 11
-47.33610357000219
 21
5.199999999999988
 31
0.0
  0
LINE
  5
19B7
330
1863
100
AcDbEntity
  8
AM_5
100
AcDbLine
 10
-46.33610357000219
 20
-2.699999999999989
 30
0.0
 11
-46.33610357000219
 21
2.699999999999988
 31
0.0
  0
INSERT
  5
19B8
330
1863
100
AcDbEntity
  8
AM_5
100
AcDbBlockReference
  2
_Open30
 10
-46.33610357000219
 20
-5.199999999999988
 30
0.0
 41
2.5
 42
2.5
 43
2.5
 50
270.0
  0
INSERT
  5
19B9
330
1863
100
AcDbEntity
  8
AM_5
100
AcDbBlockReference
  2
_Open30
 10
-46.33610357000219
 20
5.199999999999988
 30
0.0
 41
2.5
 42
2.5
 43
2.5
 50
90.0
  0
MTEXT
  5
19BA
330
1863
100
AcDbEntity
  8
AM_5
 62
     2
100
AcDbMText
 10
-49.73610357000219
 20
-0.0000000000000074
 30
0.0
 40
3.799999999999999
 41
0.0
 71
     5
 72
     1
  1
10.4
 11
0.0000000000000001
 21
1.0
 31
0.0
 73
     1
 44
1.0
1001
ACAD
1000
MTEXTBEGIN
1070
    73
1070
     1
1070
    44
1040
1.0
1070
    74
1070
     0
1000
MTEXTEND
  0
POINT
  5
19BB
330
1863
100
AcDbEntity
  8
Defpoints
 62
     0
100
AcDbPoint
 10
-37.997684
 20
-5.199999999999992
 30
0.0
  0
POINT
  5
19BC
330
1863
100
AcDbEntity
  8
Defpoints
 62
     0
100
AcDbPoint
 10
-37.997684
 20
5.199999999999985
 30
0.0
  0
POINT
  5
19BD
330
1863
100
AcDbEntity
  8
Defpoints
 62
     0
100
AcDbPoint
 10
-46.33610357000219
 20
5.199999999999988
 30
0.0
  0
ENDBLK
  5
18C2
330
1863
100
AcDbEntity
  8
0
100
AcDbBlockEnd
  0
BLOCK
  5
194F
330
1931
100
AcDbEntity
  8
0
100
AcDbBlockBegin
  2
*D35
 70
     1
 10
0.0
 20
0.0
 30
0.0
  3
*D35
  1

  0
LINE
  5
19BE
330
1931
100
AcDbEntity
  8
AM_5
100
AcDbLine
 10
-38.99768399999999
 20
20.00000000000003
 30
0.0
 11
-38.99768399999999
 21
51.58044370986286
 31
0.0
  0
LINE
  5
19BF
330
1931
100
AcDbEntity
  8
AM_5
100
AcDbLine
 10
1.002316000000007
 20
25.00000000000003
 30
0.0
 11
1.002316000000009
 21
51.58044370986286
 31
0.0
  0
LINE
  5
19C0
330
1931
100
AcDbEntity
  8
AM_5
100
AcDbLine
 10
-36.49768399999999
 20
50.58044370986286
 30
0.0
 11
-1.49768399999999
 21
50.58044370986286
 31
0.0
  0
INSERT
  5
19C1
330
1931
100
AcDbEntity
  8
AM_5
100
AcDbBlockReference
  2
_Open30
 10
-38.99768399999999
 20
50.58044370986286
 30
0.0
 41
2.5
 42
2.5
 43
2.5
 50
180.0
  0
INSERT
  5
19C2
330
1931
100
AcDbEntity
  8
AM_5
100
AcDbBlockReference
  2
_Open30
 10
1.002316000000009
 20
50.58044370986286
 30
0.0
 41
2.5
 42
2.5
 43
2.5
  0
MTEXT
  5
19C3
330
1931
100
AcDbEntity
  8
AM_5
 62
     2
100
AcDbMText
 10
-25.65243640968254
 20
53.98044370986286
 30
0.0
 40
3.799999999999999
 41
0.0
 71
     5
 72
     1
  1
40
 73
     1
 44
1.0
1001
ACAD
1000
MTEXTBEGIN
1070
    73
1070
     1
1070
    44
1040
1.0
1070
    74
1070
     0
1000
MTEXTEND
  0
POINT
  5
19C4
330
1931
100
AcDbEntity
  8
Defpoints
 62
     0
100
AcDbPoint
 10
-38.99768399999999
 20
20.00000000000003
 30
0.0
  0
POINT
  5
19C5
330
1931
100
AcDbEntity
  8
Defpoints
 62
     0
100
AcDbPoint
 10
1.002316000000007
 20
25.00000000000003
 30
0.0
  0
POINT
  5
19C6
330
1931
100
AcDbEntity
  8
Defpoints
 62
     0
100
AcDbPoint
 10
1.002316000000009
 20
50.58044370986286
 30
0.0
  0
ENDBLK
  5
1950
330
1931
100
AcDbEntity
  8
0
100
AcDbBlockEnd
  0
BLOCK
  5
1951
330
193B
100
AcDbEntity
  8
0
100
AcDbBlockBegin
  2
*D36
 70
     1
 10
0.0
 20
0.0
 30
0.0
  3
*D36
  1

  0
LINE
  5
19D9
330
193B
100
AcDbEntity
  8
AM_5
100
AcDbLine
 10
1.002316000000007
 20
25.00000000000003
 30
0.0
 11
1.002316000000011
 21
43.93121240463535
 31
0.0
  0
LINE
  5
19DA
330
193B
100
AcDbEntity
  8
AM_5
100
AcDbLine
 10
-5.955614726875639
 20
31.95793072687568
 30
0.0
 11
-12.38407266740048
 21
38.38638866740057
 31
0.0
  0
ARC
  5
19DB
330
193B
100
AcDbEntity
  8
AM_5
100
AcDbCircle
 10
1.002316000000007
 20
25.00000000000003
 30
0.0
 40
17.93121240463531
100
AcDbArc
 50
97.99475877272257
 51
127.0052412272773
  0
INSERT
  5
19DC
330
193B
100
AcDbEntity
  8
AM_5
100
AcDbBlockReference
  2
_Open30
 10
1.002316000000014
 20
42.93121240463534
 30
0.0
 41
2.5
 42
2.5
 43
2.5
 50
3.997379386361274
  0
INSERT
  5
19DD
330
193B
100
AcDbEntity
  8
AM_5
100
AcDbBlockReference
  2
_Open30
 10
-11.67696588621394
 20
37.67928188621401
 30
0.0
 41
2.5
 42
2.5
 43
2.5
 50
221.0026206136387
  0
MTEXT
  5
19DE
330
193B
100
AcDbEntity
  8
AM_5
 62
     2
100
AcDbMText
 10
-9.557052971321157
 20
41.94878591491709
 30
0.0
 40
3.799999999999999
 41
0.0
 71
     5
 72
     1
  1
45°
 73
     1
 44
1.0
1001
ACAD
1000
MTEXTBEGIN
1070
    73
1070
     1
1070
    44
1040
1.0
1070
    74
1070
     0
1000
MTEXTEND
  0
POINT
  5
19DF
330
193B
100
AcDbEntity
  8
Defpoints
 62
     0
100
AcDbPoint
 10
-3.638623272098168
 20
42.32022115831219
 30
0.0
  0
POINT
  5
19E0
330
193B
100
AcDbEntity
  8
Defpoints
 62
     0
100
AcDbPoint
 10
1.002316000000007
 20
25.00000000000003
 30
0.0
  0
POINT
  5
19E1
330
193B
100
AcDbEntity
  8
Defpoints
 62
     0
100
AcDbPoint
 10
1.002316000000005
 20
22.48269985897596
 30
0.0
  0
POINT
  5
19E2
330
193B
100
AcDbEntity
  8
Defpoints
 62
     0
100
AcDbPoint
 10
1.002316000000007
 20
25.00000000000003
 30
0.0
  0
POINT
  5
19E3
330
193B
100
AcDbEntity
  8
Defpoints
 62
     0
100
AcDbPoint
 10
-5.955614726875639
 20
31.95793072687568
 30
0.0
  0
ENDBLK
  5
1952
330
193B
100
AcDbEntity
  8
0
100
AcDbBlockEnd
  0
BLOCK
  5
1953
330
1947
100
AcDbEntity
  8
0
100
AcDbBlockBegin
  2
*D37
 70
     1
 10
0.0
 20
0.0
 30
0.0
  3
*D37
  1

  0
LINE
  5
19D2
330
1947
100
AcDbEntity
  8
AM_5
100
AcDbLine
 10
1.002316000000007
 20
25.00000000000003
 30
0.0
 11
26.39372490091598
 21
25.00000000000002
 31
0.0
  0
LINE
  5
19D3
330
1947
100
AcDbEntity
  8
AM_5
100
AcDbLine
 10
25.39372490091597
 20
0.0000000000000461
 30
0.0
 11
25.39372490091598
 21
22.50000000000002
 31
0.0
  0
INSERT
  5
19D4
330
1947
100
AcDbEntity
  8
AM_5
100
AcDbBlockReference
  2
_Open30
 10
25.39372490091598
 20
25.00000000000002
 30
0.0
 41
2.5
 42
2.5
 43
2.5
 50
90.0
  0
MTEXT
  5
19D5
330
1947
100
AcDbEntity
  8
AM_5
 62
     2
100
AcDbMText
 10
21.99372490091597
 20
0.8065792189069579
 30
0.0
 40
3.799999999999999
 41
0.0
 71
     5
 72
     1
  1
%%c50
 11
0.0000000000000001
 21
1.0
 31
0.0
 73
     1
 44
1.0
1001
ACAD
1000
MTEXTBEGIN
1070
    73
1070
     1
1070
    44
1040
1.0
1070
    74
1070
     0
1000
MTEXTEND
  0
POINT
  5
19D6
330
1947
100
AcDbEntity
  8
Defpoints
 62
     0
100
AcDbPoint
 10
0.0
 20
0.0000000000000533
 30
0.0
  0
POINT
  5
19D7
330
1947
100
AcDbEntity
  8
Defpoints
 62
     0
100
AcDbPoint
 10
1.002316000000007
 20
25.00000000000003
 30
0.0
  0
POINT
  5
19D8
330
1947
100
AcDbEntity
  8
Defpoints
 62
     0
100
AcDbPoint
 10
25.39372490091598
 20
25.00000000000002
 30
0.0
  0
ENDBLK
  5
1954
330
1947
100
AcDbEntity
  8
0
100
AcDbBlockEnd
  0
ENDSEC
  0
SECTION
  2
ENTITIES
  0
LINE
  5
17DB
330
1F
100
AcDbEntity
  8
AM_7
100
AcDbLine
 10
-42.50073314066054
 20
0.0000000000000533
 30
0.0
 11
0.0
 21
-0.0000000000000036
 31
0.0
1001
GENIUS_GENODEF_13
1002
{
1000
HIER
1070
     0
1002
}
1002
{
1000
MANEDIT
1070
     0
1002
}
1002
{
1000
NOSEL
1070
     0
1002
}
1002
{
1000
BEHIND
1070
     0
1002
}
1002
{
1000
REACTOR
1002
}
1001
GENIUS_GENOBJ-N-CEN_13
1002
{
1000
OWNER
1000
GEN
1002
}
  0
DIMENSION
  5
17DC
330
1F
100
AcDbEntity
  8
AM_5
100
AcDbDimension
  2
*D23
 10
18.18642004563702
 20
9.000000000000046
 30
0.0
 11
18.24314929952805
 21
-1.940903389671408
 31
0.0
 70
   160
  1
φ<>
 71
     5
 42
18.0
  3
AM_JIS$0
100
AcDbAlignedDimension
 13
-0.7560527715129979
 23
0.0000000000000533
 33
0.0
 14
-9.000000000000056
 24
9.000000000000053
 34
0.0
 50
90.0
100
AcDbRotatedDimension
1001
GENIUS_GENDTOL_13
1000

1000
h7
1000

1040
0.0
1001
ACAD
1000
DSTYLE
1002
{
1070
    75
1070
     1
1070
   144
1040
2.0
1070
   173
1070
     1
1070
   271
1070
     0
1070
   279
1070
     1
1070
   342
1005
0
1070
   343
1005
3DC
1070
   344
1005
217
1002
}
  0
DIMENSION
  5
17DD
330
1F
100
AcDbEntity
  8
AM_5
100
AcDbDimension
  2
*D24
 10
8.65108691750602
 20
5.500000000000047
 30
0.0
 11
8.813663250917386
 21
-2.428475189894758
 31
0.0
 70
   160
  1
φ<>
 71
     5
 42
10.99999999999999
  3
AM_JIS$0
100
AcDbAlignedDimension
 13
-0.7560527715129979
 23
0.0000000000000533
 33
0.0
 14
-13.99768399999999
 24
5.500000000000053
 34
0.0
 50
90.0
100
AcDbRotatedDimension
1001
GENIUS_GENDTOL_13
1000

1000
h7
1000

1040
0.0
1001
ACAD
1000
DSTYLE
1002
{
1070
    75
1070
     1
1070
   144
1040
2.0
1070
   173
1070
     1
1070
   271
1070
     0
1070
   279
1070
     1
1070
   342
1005
0
1070
   343
1005
3DC
1070
   344
1005
217
1002
}
  0
LINE
  5
17DE
330
1F
100
AcDbEntity
  8
0
100
AcDbLine
 10
-8.000000000000056
 20
11.04142900000004
 30
0.0
 11
-8.000000000000056
 21
-11.04142899999988
 31
0.0
  0
ARC
  5
17DF
330
1F
100
AcDbEntity
  8
1
100
AcDbCircle
 10
-9.000000000000056
 20
-9.999999999999946
 30
0.0
 40
1.0
100
AcDbArc
 50
0.0
 51
90.0
  0
ARC
  5
17E0
330
1F
100
AcDbEntity
  8
1
100
AcDbCircle
 10
-9.000000000000056
 20
10.00000000000005
 30
0.0
 40
1.0
100
AcDbArc
 50
270.0
 51
0.0
  0
LINE
  5
17E1
330
1F
100
AcDbEntity
  8
0
100
AcDbLine
 10
-30.85881500000011
 20
20.00000000000005
 30
0.0
 11
-37.997684
 21
20.00000000000005
 31
0.0
  0
LINE
  5
17E2
330
1F
100
AcDbEntity
  8
AM_0
100
AcDbLine
 10
-37.99768399999994
 20
-5.199999999999935
 30
0.0
 11
-32.69768399999998
 21
-5.199999999999935
 31
0.0
  0
LINE
  5
17E3
330
1F
100
AcDbEntity
  8
AM_0
100
AcDbLine
 10
-32.69768399999998
 20
5.200000000000041
 30
0.0
 11
-37.99768399999994
 21
5.200000000000041
 31
0.0
  0
LINE
  5
17E4
330
1F
100
AcDbEntity
  8
0
100
AcDbLine
 10
-30.85881499999999
 20
20.00000000000005
 30
0.0
 11
-37.997684
 21
20.00000000000005
 31
0.0
  0
DIMENSION
  5
17E5
330
1F
100
AcDbEntity
  8
AM_5
100
AcDbDimension
  2
*D25
 10
-12.99768399999998
 20
-46.18063437292511
 30
0.0
 11
-25.99768399999998
 21
-42.78026035717708
 31
0.0
 70
    32
  1
<>
 71
     5
 42
26.00000000000001
  3
AM_JIS$0
100
AcDbAlignedDimension
 13
-38.99768399999999
 23
-12.26232854663687
 33
0.0
 14
-12.99768399999998
 24
-8.999999999999946
 34
0.0
100
AcDbRotatedDimension
1001
GENIUS_GENDTOL_13
1000

1000
h7
1000

1040
0.0
1001
ACAD
1000
DSTYLE
1002
{
1070
   271
1070
     0
1002
}
  0
DIMENSION
  5
17E6
330
1F
100
AcDbEntity
  8
AM_5
100
AcDbDimension
  2
*D26
 10
-18.99768399999999
 20
-35.49663947552932
 30
0.0
 11
-28.99768399999999
 21
-32.09626545978129
 31
0.0
 70
    32
  1
<>
 71
     5
 42
20.0
  3
AM_JIS$0
100
AcDbAlignedDimension
 13
-38.99768399999999
 23
-12.26232854663687
 33
0.0
 14
-18.99768399999999
 24
-11.49999999999995
 34
0.0
100
AcDbRotatedDimension
1001
GENIUS_GENDTOL_13
1000

1000
h7
1000

1040
0.0
1001
ACAD
1000
DSTYLE
1002
{
1070
   271
1070
     0
1002
}
  0
DIMENSION
  5
17E7
330
1F
100
AcDbEntity
  8
AM_5
100
AcDbDimension
  2
*D27
 10
-32.69768400000004
 20
-24.67909531756556
 30
0.0
 11
-48.35008536425246
 21
-24.67909531756556
 31
0.0
 70
   160
  1
<>
 71
     5
 42
6.299999999999954
  3
AM_JIS$0
100
AcDbAlignedDimension
 13
-38.99768399999999
 23
-12.26232854663687
 33
0.0
 14
-32.69768400000004
 24
-5.199999999999992
 34
0.0
100
AcDbRotatedDimension
1001
GENIUS_GENDTOL_13
1000

1000
h7
1000

1040
0.0
1001
ACAD
1000
DSTYLE
1002
{
1070
   271
1070
     1
1002
}
  0
DIMENSION
  5
17E8
330
1F
100
AcDbEntity
  8
AM_5
100
AcDbDimension
  2
*D28
 10
-58.8832373063181
 20
-10.99999999999994
 30
0.0
 11
-62.28361132206615
 21
0.000000000000052
 31
0.0
 70
    32
  1
φ<>
 71
     5
 42
22.0
  3
AM_JIS$0
100
AcDbAlignedDimension
 13
-31.86853400000001
 23
11.00000000000005
 33
0.0
 14
-31.86853400000001
 24
-10.99999999999994
 34
0.0
 50
270.0
100
AcDbRotatedDimension
1001
ACAD
1000
DSTYLE
1002
{
1070
    47
1040
0.021
1070
    48
1040
0.0
1070
   271
1070
     0
1070
   274
1070
     4
1002
}
  0
DIMENSION
  5
17E9
330
1F
100
AcDbEntity
  8
AM_5
100
AcDbDimension
  2
*D29
 10
-70.19892124751942
 20
20.00000000000007
 30
0.0
 11
-70.19892124751942
 21
6.835398576160908
 31
0.0
 70
   160
  1
φ<>
 71
     5
 42
40.0
  3
AM_JIS$0
100
AcDbAlignedDimension
 13
-42.50073314066054
 23
0.0000000000000533
 33
0.0
 14
-37.997684
 24
20.00000000000005
 34
0.0
 50
270.0
100
AcDbRotatedDimension
1001
GENIUS_GENDTOL_13
1000

1000
h7
1000

1040
0.0
1001
ACAD
1000
DSTYLE
1002
{
1070
   271
1070
     0
1070
    75
1070
     1
1070
   144
1040
2.0
1070
   173
1070
     1
1070
   342
1005
0
1070
   343
1005
3DC
1070
   344
1005
217
1002
}
  0
LINE
  5
17EA
330
1F
100
AcDbEntity
  8
AM_0
100
AcDbLine
 10
-37.99768399999994
 20
11.00000000000002
 30
0.0
 11
-37.99768399999994
 21
5.200000000000041
 31
0.0
  0
LINE
  5
17EB
330
1F
100
AcDbEntity
  8
AM_0
100
AcDbLine
 10
-37.99768399999994
 20
5.200000000000041
 30
0.0
 11
-38.99768399999999
 21
6.200000000000098
 31
0.0
  0
DIMENSION
  5
17EC
330
1F
100
AcDbEntity
  8
AM_5
100
AcDbDimension
  2
*D30
 10
-46.33610357000219
 20
5.199999999999988
 30
0.0
 11
-46.33610357000219
 21
-0.0000000000000078
 31
0.0
 70
   160
  1
<>
 71
     5
 42
10.39999999999998
  3
AM_JIS$0
100
AcDbAlignedDimension
 13
-37.997684
 23
-5.199999999999992
 33
0.0
 14
-37.997684
 24
5.199999999999985
 34
0.0
 50
270.0
100
AcDbRotatedDimension
1001
ACAD
1000
DSTYLE
1002
{
1070
    47
1040
0.2
1070
    48
1040
0.0
1070
   271
1070
     1
1070
   272
1070
     1
1070
   274
1070
     0
1002
}
  0
LINE
  5
17ED
330
1F
100
AcDbEntity
  8
AM_0
100
AcDbLine
 10
-38.99768399999999
 20
-6.199999999999992
 30
0.0
 11
-37.99768399999994
 21
-5.199999999999935
 31
0.0
  0
LINE
  5
17EE
330
1F
100
AcDbEntity
  8
AM_0
100
AcDbLine
 10
-37.99768399999994
 20
-5.199999999999992
 30
0.0
 11
-37.99768399999994
 21
-10.99999999999992
 31
0.0
  0
LINE
  5
17EF
330
1F
100
AcDbEntity
  8
0
100
AcDbLine
 10
-38.99768399999999
 20
-6.199999999999992
 30
0.0
 11
-38.99768399999999
 21
-13.55705043556361
 31
0.0
  0
LINE
  5
17F0
330
1F
100
AcDbEntity
  8
0
100
AcDbLine
 10
-38.99768399999999
 20
19.00000000000005
 30
0.0
 11
-38.99768399999999
 21
6.200000000000098
 31
0.0
  0
LINE
  5
17F1
330
1F
100
AcDbEntity
  8
0
100
AcDbLine
 10
-37.997684
 20
11.00000000000008
 30
0.0
 11
-38.99768399999999
 21
12.00000000000008
 31
0.0
  0
ARC
  5
17F2
330
1F
100
AcDbEntity
  8
1
100
AcDbCircle
 10
-37.997684
 20
19.00000000000005
 30
0.0
 40
1.0
100
AcDbArc
 50
90.0
 51
180.0
  0
LINE
  5
17F3
330
1F
100
AcDbEntity
  8
0
100
AcDbLine
 10
-18.99768399999999
 20
-11.49999999999995
 30
0.0
 11
-18.99768399999999
 21
11.50000000000005
 31
0.0
  0
LINE
  5
17F4
330
1F
100
AcDbEntity
  8
0
100
AcDbLine
 10
-12.99768399999999
 20
-8.999999999999946
 30
0.0
 11
-12.99768399999999
 21
9.000000000000053
 31
0.0
  0
LINE
  5
17F5
330
1F
100
AcDbEntity
  8
0
100
AcDbLine
 10
-21.99768399999999
 20
11.50000000000005
 30
0.0
 11
-21.99768399999999
 21
-10.99999999999994
 31
0.0
  0
LINE
  5
17F6
330
1F
100
AcDbEntity
  8
0
100
AcDbLine
 10
-18.99768399999999
 20
-11.49999999999995
 30
0.0
 11
-21.99768399999999
 21
-11.49999999999995
 31
0.0
  0
LINE
  5
17F7
330
1F
100
AcDbEntity
  8
0
100
AcDbLine
 10
-21.99768399999999
 20
-10.99999999999994
 30
0.0
 11
-31.86853400000001
 21
-10.99999999999994
 31
0.0
  0
LINE
  5
17F8
330
1F
100
AcDbEntity
  8
0
100
AcDbLine
 10
-21.99768399999999
 20
-11.49999999999995
 30
0.0
 11
-21.99768399999999
 21
-10.99999999999994
 31
0.0
  0
LINE
  5
17F9
330
1F
100
AcDbEntity
  8
AM_0
100
AcDbLine
 10
-32.69768399999998
 20
-5.199999999999935
 30
0.0
 11
-32.69768399999998
 21
5.200000000000041
 31
0.0
  0
LINE
  5
17FA
330
1F
100
AcDbEntity
  8
0
100
AcDbLine
 10
-9.000000000000056
 20
-8.999999999999946
 30
0.0
 11
-12.99768399999999
 21
-8.999999999999946
 31
0.0
  0
LINE
  5
17FB
330
1F
100
AcDbEntity
  8
0
100
AcDbLine
 10
-12.99768399999999
 20
-5.499999999999946
 30
0.0
 11
-18.99768399999999
 21
-5.499999999999946
 31
0.0
  0
LINE
  5
17FC
330
1F
100
AcDbEntity
  8
0
100
AcDbLine
 10
-12.99768399999999
 20
5.500000000000053
 30
0.0
 11
-18.99768399999999
 21
5.500000000000053
 31
0.0
  0
ARC
  5
17FD
330
1F
100
AcDbEntity
  8
1
100
AcDbCircle
 10
-30.85881499999988
 20
35.00000000000006
 30
0.0
 40
15.0
100
AcDbArc
 50
270.0
 51
315.1974532680702
  0
LINE
  5
17FE
330
1F
100
AcDbEntity
  8
0
100
AcDbLine
 10
-18.99768399999999
 20
11.50000000000005
 30
0.0
 11
-21.99768399999999
 21
11.50000000000005
 31
0.0
  0
LINE
  5
17FF
330
1F
100
AcDbEntity
  8
0
100
AcDbLine
 10
-21.99768399999999
 20
11.00000000000005
 30
0.0
 11
-37.99768399999994
 21
11.00000000000002
 31
0.0
  0
LINE
  5
1800
330
1F
100
AcDbEntity
  8
0
100
AcDbLine
 10
-9.000000000000056
 20
9.000000000000053
 30
0.0
 11
-12.99768399999999
 21
9.000000000000053
 31
0.0
  0
LINE
  5
1801
330
1F
100
AcDbEntity
  8
0
100
AcDbLine
 10
-8.000000000000056
 20
11.04142900000004
 30
0.0
 11
-5.550976000000048
 21
13.70829000000003
 31
0.0
  0
SPLINE
  5
1802
330
1F
100
AcDbEntity
  8
0
100
AcDbSpline
210
0.0
220
0.0
230
1.0
 70
     8
 71
     3
 72
    11
 73
     7
 74
     5
 42
0.0000000001
 43
0.0000000001
 44
0.0000000001
 40
0.0
 40
0.0
 40
0.0
 40
0.0
 40
0.0414122678683931
 40
0.0766921063317192
 40
0.1072336788190433
 40
0.1351601653507245
 40
0.1351601653507245
 40
0.1351601653507245
 40
0.1351601653507245
 10
-5.572556000000133
 20
13.57933000000002
 30
0.0
 10
-5.574582769064761
 20
13.59302241878725
 30
0.0
 10
-5.57833617829867
 20
13.61837964966644
 30
0.0
 10
-5.576442523612513
 20
13.65421744941102
 30
0.0
 10
-5.568427100031755
 20
13.68507732926456
 30
0.0
 10
-5.556616956924955
 20
13.70078665204528
 30
0.0
 10
-5.550976000000048
 20
13.70829000000003
 30
0.0
 11
-5.572556000000133
 21
13.57933000000002
 31
0.0
 11
-5.577147000000024
 21
13.62048700000008
 31
0.0
 11
-5.575076000000137
 21
13.65570600000006
 31
0.0
 11
-5.566345000000239
 21
13.68497300000006
 31
0.0
 11
-5.550976000000048
 21
13.70829000000003
 31
0.0
  0
LINE
  5
1803
330
1F
100
AcDbEntity
  8
0
100
AcDbLine
 10
-15.70534999999998
 20
28.80000000000006
 30
0.0
 11
-11.63084559477534
 21
28.80000000000006
 31
0.0
  0
ARC
  5
1804
330
1F
100
AcDbEntity
  8
1
100
AcDbCircle
 10
-15.70534999999998
 20
26.80000000000007
 30
0.0
 40
2.0
100
AcDbArc
 50
90.0
 51
142.2117433308265
  0
LINE
  5
1805
330
1F
100
AcDbEntity
  8
0
100
AcDbLine
 10
0.0
 20
-23.81071399999997
 30
0.0
 11
0.0
 21
21.48038385897595
 31
0.0
  0
LINE
  5
1806
330
1F
100
AcDbEntity
  8
0
100
AcDbLine
 10
0.0
 20
19.75301500000005
 30
0.0
 11
-8.0
 21
11.04142900000004
 31
0.0
  0
LINE
  5
180C
330
1F
100
AcDbEntity
  8
0
100
AcDbLine
 10
-17.285911
 20
28.02549000000004
 30
0.0
 11
-20.21572376524826
 21
24.43001376686081
 31
0.0
  0
ARC
  5
180D
330
1F
100
AcDbEntity
  8
1
100
AcDbCircle
 10
-9.000000000000056
 20
-9.999999999999946
 30
0.0
 40
1.0
100
AcDbArc
 50
0.0
 51
90.0
  0
LINE
  5
180E
330
1F
100
AcDbEntity
  8
0
100
AcDbLine
 10
-30.85881500000011
 20
-19.99999999999994
 30
0.0
 11
-37.997684
 21
-19.99999999999994
 31
0.0
  0
LINE
  5
180F
330
1F
100
AcDbEntity
  8
0
100
AcDbLine
 10
-30.85881499999999
 20
-19.99999999999994
 30
0.0
 11
-37.997684
 21
-19.99999999999994
 31
0.0
  0
LINE
  5
1810
330
1F
100
AcDbEntity
  8
0
100
AcDbLine
 10
-37.997684
 20
-10.99999999999997
 30
0.0
 11
-38.99768399999999
 21
-11.99999999999997
 31
0.0
  0
ARC
  5
1811
330
1F
100
AcDbEntity
  8
1
100
AcDbCircle
 10
-37.997684
 20
-18.99999999999995
 30
0.0
 40
1.0
100
AcDbArc
 50
180.0
 51
270.0
  0
ARC
  5
1812
330
1F
100
AcDbEntity
  8
1
100
AcDbCircle
 10
-30.85881499999988
 20
-34.99999999999995
 30
0.0
 40
15.0
100
AcDbArc
 50
44.80254673192983
 51
90.0
  0
LINE
  5
1813
330
1F
100
AcDbEntity
  8
0
100
AcDbLine
 10
-18.99768399999999
 20
-11.49999999999995
 30
0.0
 11
-21.99768399999999
 21
-11.49999999999995
 31
0.0
  0
LINE
  5
1814
330
1F
100
AcDbEntity
  8
0
100
AcDbLine
 10
-21.99768399999999
 20
-10.99999999999994
 30
0.0
 11
-37.99768399999994
 21
-10.99999999999992
 31
0.0
  0
LINE
  5
1815
330
1F
100
AcDbEntity
  8
0
100
AcDbLine
 10
-9.000000000000056
 20
-8.999999999999946
 30
0.0
 11
-12.99768399999999
 21
-8.999999999999946
 31
0.0
  0
LINE
  5
1816
330
1F
100
AcDbEntity
  8
0
100
AcDbLine
 10
-8.000000000000056
 20
-11.04142899999994
 30
0.0
 11
-5.550976000000048
 21
-13.70828999999992
 31
0.0
  0
SPLINE
  5
1817
330
1F
100
AcDbEntity
  8
0
100
AcDbSpline
210
0.0
220
0.0
230
1.0
 70
     8
 71
     3
 72
    11
 73
     7
 74
     5
 42
0.0000000001
 43
0.0000000001
 44
0.0000000001
 40
0.0
 40
0.0
 40
0.0
 40
0.0
 40
0.0414122678683931
 40
0.0766921063317192
 40
0.1072336788190433
 40
0.1351601653507245
 40
0.1351601653507245
 40
0.1351601653507245
 40
0.1351601653507245
 10
-5.572556000000133
 20
-13.57932999999992
 30
0.0
 10
-5.574582769064761
 20
-13.59302241878715
 30
0.0
 10
-5.57833617829867
 20
-13.61837964966633
 30
0.0
 10
-5.576442523612513
 20
-13.65421744941091
 30
0.0
 10
-5.568427100031755
 20
-13.68507732926446
 30
0.0
 10
-5.556616956924955
 20
-13.70078665204518
 30
0.0
 10
-5.550976000000048
 20
-13.70828999999992
 30
0.0
 11
-5.572556000000133
 21
-13.57932999999992
 31
0.0
 11
-5.577147000000024
 21
-13.62048699999997
 31
0.0
 11
-5.575076000000137
 21
-13.65570599999995
 31
0.0
 11
-5.566345000000239
 21
-13.68497299999996
 31
0.0
 11
-5.550976000000048
 21
-13.70828999999992
 31
0.0
  0
LINE
  5
1818
330
1F
100
AcDbEntity
  8
0
100
AcDbLine
 10
-15.70534999999998
 20
-28.79999999999996
 30
0.0
 11
-8.25418399999998
 21
-28.79999999999996
 31
0.0
  0
ARC
  5
1819
330
1F
100
AcDbEntity
  8
1
100
AcDbCircle
 10
-15.70534999999998
 20
-26.79999999999996
 30
0.0
 40
2.0
100
AcDbArc
 50
217.7882566691734
 51
270.0
  0
LINE
  5
181A
330
1F
100
AcDbEntity
  8
0
100
AcDbLine
 10
0.0
 20
-19.75301499999995
 30
0.0
 11
-8.0
 21
-11.04142899999994
 31
0.0
  0
LINE
  5
181B
330
1F
100
AcDbEntity
  8
0
100
AcDbLine
 10
-5.82167099999998
 20
-26.58676499999996
 30
0.0
 11
-2.670969999999982
 21
-26.58676499999996
 31
0.0
  0
LINE
  5
181C
330
1F
100
AcDbEntity
  8
0
100
AcDbLine
 10
-6.687696999999985
 20
-27.08676499999996
 30
0.0
 11
-7.388158000000004
 21
-28.29999999999996
 31
0.0
  0
ARC
  5
181D
330
1F
100
AcDbEntity
  8
1
100
AcDbCircle
 10
-8.25418399999998
 20
-27.79999999999996
 30
0.0
 40
1.00000051633787
100
AcDbArc
 50
270.0
 51
330.0000170803103
  0
ARC
  5
181E
330
1F
100
AcDbEntity
  8
1
100
AcDbCircle
 10
-5.82167099999998
 20
-27.58676499999996
 30
0.0
 40
1.00000051633787
100
AcDbArc
 50
90.0
 51
150.0000170803104
  0
LINE
  5
181F
330
1F
100
AcDbEntity
  8
0
100
AcDbLine
 10
0.0
 20
-23.81071399999997
 30
0.0
 11
-2.670969999999982
 21
-26.58676499999996
 31
0.0
  0
LINE
  5
1820
330
1F
100
AcDbEntity
  8
0
100
AcDbLine
 10
-17.285911
 20
-28.02548999999994
 30
0.0
 11
-20.21572376524826
 21
-24.4300137668607
 31
0.0
  0
LINE
  5
1921
330
1F
100
AcDbEntity
  8
AM_0
100
AcDbLine
 10
-15.43084559477535
 20
25.00000000000003
 30
0.0
 11
-15.43084559477535
 21
22.48269985897591
 31
0.0
  0
LINE
  5
1922
330
1F
100
AcDbEntity
  8
AM_0
100
AcDbLine
 10
-15.43084559477535
 20
22.48269985897591
 30
0.0
 11
-8.472914867899703
 21
15.52476913210026
 31
0.0
  0
LINE
  5
1923
330
1F
100
AcDbEntity
  8
AM_0
100
AcDbLine
 10
-8.472914867899703
 20
15.52476913210026
 30
0.0
 11
-5.955614726875637
 21
15.52476913210026
 31
0.0
  0
LINE
  5
1924
330
1F
100
AcDbEntity
  8
AM_0
100
AcDbLine
 10
-5.955614726875637
 20
15.52476913210026
 30
0.0
 11
1.002316000000007
 21
22.48269985897596
 31
0.0
  0
LINE
  5
1925
102
{ACAD_REACTORS
330
192A
330
192D
330
1930
102
}
330
1F
100
AcDbEntity
  8
AM_0
100
AcDbLine
 10
1.002316000000007
 20
25.00000000000003
 30
0.0
 11
-5.955614726875637
 21
31.95793072687567
 31
0.0
  0
LINE
  5
1926
330
1F
100
AcDbEntity
  8
AM_0
100
AcDbLine
 10
-5.955614726875637
 20
31.95793072687567
 30
0.0
 11
-8.472914867899703
 21
31.95793072687573
 31
0.0
  0
LINE
  5
1927
330
1F
100
AcDbEntity
  8
AM_0
100
AcDbLine
 10
-8.472914867899703
 20
31.95793072687573
 30
0.0
 11
-15.43084559477535
 21
25.00000000000003
 31
0.0
  0
DIMENSION
  5
1928
102
{ACAD_XDICTIONARY
360
1929
102
}
102
{ACAD_REACTORS
330
192A
102
}
330
1F
100
AcDbEntity
  8
AM_5
100
AcDbDimension
  2
*D35
 10
1.002316000000009
 20
50.58044370986286
 30
0.0
 11
-25.65243640968254
 21
50.58044370986286
 31
0.0
 70
   160
 71
     5
 42
40.0
  3
AM_JIS$0
100
AcDbAlignedDimension
 13
-38.99768399999999
 23
20.00000000000003
 33
0.0
 14
1.002316000000007
 24
25.00000000000003
 34
0.0
100
AcDbRotatedDimension
1001
ACAD
1000
DSTYLE
1002
{
1070
   179
1070
     0
1070
   271
1070
     0
1002
}
  0
DIMENSION
  5
192B
102
{ACAD_XDICTIONARY
360
192C
102
}
102
{ACAD_REACTORS
330
192D
102
}
330
1F
100
AcDbEntity
  8
AM_5
100
AcDbDimension
  2
*D36
 10
-5.955614726875637
 20
31.95793072687567
 30
0.0
 11
-6.256930737262168
 21
36.65177760030704
 31
0.0
 70
   162
 71
     5
 42
0.7853981633974473
  3
AM_JIS$2
100
AcDb2LineAngularDimension
 13
1.002316000000007
 23
22.48269985897596
 33
0.0
 14
1.002316000000007
 24
25.00000000000003
 34
0.0
 15
1.002316000000007
 25
25.00000000000003
 35
0.0
 16
-3.638623272098168
 26
42.32022115831219
 36
0.0
1001
ACAD_DIMASSOC_DIMLFAC
1040
1.0
1001
ACAD_DIMASSOC_CALC_DIMLFAC
1040
1.0
1001
ACAD_DIMASSOC_OVERRIDDEN_DIMLFAC
1040
1.0
1001
ACAD
1000
DSTYLE
1002
{
1070
   144
1040
1.0
1070
   179
1070
     0
1070
   271
1070
     0
1070
   279
1070
     1
1002
}
  0
DIMENSION
  5
192E
102
{ACAD_XDICTIONARY
360
192F
102
}
102
{ACAD_REACTORS
330
1930
102
}
330
1F
100
AcDbEntity
  8
AM_5
100
AcDbDimension
  2
*D37
 10
25.39372490091598
 20
25.00000000000002
 30
0.0
 11
25.39372490091597
 21
0.8065792189069576
 31
0.0
 70
   160
  1
%%c<>
 71
     5
 42
49.99999999999995
  3
AM_JIS$0
100
AcDbAlignedDimension
 13
0.0
 23
0.0000000000000533
 33
0.0
 14
1.002316000000007
 24
25.00000000000003
 34
0.0
 50
90.0
100
AcDbRotatedDimension
1001
ACAD
1000
DSTYLE
1002
{
1070
    75
1070
     1
1070
   144
1040
2.0
1070
   173
1070
     1
1070
   179
1070
     0
1070
   271
1070
     0
1070
   343
1005
3DC
1002
}
  0
LINE
  5
1975
330
1F
100
AcDbEntity
  8
AM_0
100
AcDbLine
 10
1.002316000000007
 20
25.00000000000003
 30
0.0
 11
1.002316000000007
 21
22.48269985897596
 31
0.0
  0
TEXT
  5
1976
330
1F
100
AcDbEntity
  8
AM_0
100
AcDbText
 10
-36.31785915529366
 20
-54.73857371379785
 30
0.0
 40
3.799999999999999
  1
%%uWGC4050RS
  7
ACISOTS
100
AcDbText
  0
ENDSEC
  0
SECTION
  2
OBJECTS
  0
DICTIONARY
  5
C
330
0
100
AcDbDictionary
281
     1
  3
ACAD_COLOR
350
BE
  3
ACAD_GROUP
350
D
  3
ACAD_LAYOUT
350
1A
  3
ACAD_MATERIAL
350
BD
  3
ACAD_MLINESTYLE
350
17
  3
ACAD_PLOTSETTINGS
350
19
  3
ACAD_PLOTSTYLENAME
350
E
  3
ACAD_TABLESTYLE
350
11A
  3
ACDBHEADERROUNDTRIPXREC
350
19F4
  3
AcDbVariableDictionary
350
94
  3
AcmDictionary
350
5B
  3
AMG
350
41
  3
AMGSNAPSETTINGS
350
1B8
  3
DWGPROPS
350
19F3
  0
DICTIONARY
  5
34B
330
2
100
AcDbDictionary
280
     1
281
     1
  3
AMLAYER_GROUPCOLORS
360
34C
  0
DICTIONARY
  5
8F
330
1F
100
AcDbDictionary
280
     1
281
     1
  0
DICTIONARY
  5
1929
330
1928
100
AcDbDictionary
280
     1
281
     1
  3
ACAD_DIMASSOC
360
192A
  0
DICTIONARY
  5
192C
330
192B
100
AcDbDictionary
280
     1
281
     1
  3
ACAD_DIMASSOC
360
192D
  0
DICTIONARY
  5
192F
330
192E
100
AcDbDictionary
280
     1
281
     1
  3
ACAD_DIMASSOC
360
1930
  0
DICTIONARY
  5
BE
102
{ACAD_REACTORS
330
C
102
}
330
C
100
AcDbDictionary
281
     1
  0
DICTIONARY
  5
D
102
{ACAD_REACTORS
330
C
102
}
330
C
100
AcDbDictionary
281
     1
  0
DICTIONARY
  5
1A
102
{ACAD_REACTORS
330
C
102
}
330
C
100
AcDbDictionary
281
     1
  3
Model
350
22
  3
レイアウト1
350
1E
  3
レイアウト2
350
26
  0
DICTIONARY
  5
BD
102
{ACAD_REACTORS
330
C
102
}
330
C
100
AcDbDictionary
281
     1
  0
DICTIONARY
  5
17
102
{ACAD_REACTORS
330
C
102
}
330
C
100
AcDbDictionary
281
     1
  3
Standard
350
18
  0
DICTIONARY
  5
19
102
{ACAD_REACTORS
330
C
102
}
330
C
100
AcDbDictionary
281
     1
  0
ACDBDICTIONARYWDFLT
  5
E
102
{ACAD_REACTORS
330
C
102
}
330
C
100
AcDbDictionary
281
     1
  3
Normal
350
F
100
AcDbDictionaryWithDefault
340
F
  0
DICTIONARY
  5
11A
102
{ACAD_REACTORS
330
C
102
}
330
C
100
AcDbDictionary
281
     1
  3
Standard
350
11B
  0
DICTIONARY
  5
19F4
102
{ACAD_REACTORS
330
C
102
}
330
C
100
AcDbDictionary
281
     1
  0
DICTIONARY
  5
94
102
{ACAD_REACTORS
330
C
102
}
330
C
100
AcDbDictionary
281
     1
  3
CTABLESTYLE
350
138
  3
DIMASSOC
350
96
  3
INDEXCTL
350
95
  3
PROJECTNAME
350
19F1
  0
DICTIONARY
  5
5B
102
{ACAD_REACTORS
330
C
102
}
330
C
100
AcDbDictionary
281
     1
  3
AcmBOM
350
1B5
  3
AcmStdDictionary
350
61
  3
AMDTSECTSYM_ARROWCOLOR
350
123
  0
DICTIONARY
  5
41
102
{ACAD_REACTORS
330
C
102
}
330
C
100
AcDbDictionary
281
     1
  0
DICTIONARY
  5
1B8
102
{ACAD_REACTORS
330
C
102
}
330
C
100
AcDbDictionary
281
     1
  0
XRECORD
  5
19F3
102
{ACAD_REACTORS
330
C
102
}
330
C
100
AcDbXrecord
280
     1
  1
DWGPROPS COOKIE
  2

  3

  4

  6

  7

  8

  9

300
AmdtFileType=84
301
=
302
=
303
=
304
=
305
=
306
=
307
=
308
=
309
=
 40
0.0751396180555556
 41
2455544.376007477
 42
2455555.390184097
  1

 90
        1
  0
DICTIONARY
  5
34C
102
{ACAD_REACTORS
330
34B
102
}
330
34B
100
AcDbDictionary
280
     1
281
     1
  0
DIMASSOC
  5
192A
102
{ACAD_REACTORS
330
1929
102
}
330
1929
100
AcDbDimAssoc
330
1928
 90
        2
 70
     0
 71
     0
  1
AcDbOsnapPointRef
 72
    13
331
1925
 73
     0
 91
        0
 40
0.0
 10
0.0
 20
0.0
 30
2.000000000000000E+50
 75
     0
  0
DIMASSOC
  5
192D
102
{ACAD_REACTORS
330
192C
102
}
330
192C
100
AcDbDimAssoc
330
192B
 90
       12
 70
     1
 71
     0
  1
AcDbOsnapPointRef
 72
    13
331
1925
 73
     2
 91
        0
 40
0.0
 10
0.0
 20
0.0
 30
2.000000000000000E+50
 75
     0
  1
AcDbOsnapPointRef
 72
     1
331
1925
 73
     2
 91
        0
 40
0.0
 10
0.0
 20
0.0
 30
2.000000000000000E+50
 75
     0
  0
DIMASSOC
  5
1930
102
{ACAD_REACTORS
330
192F
102
}
330
192F
100
AcDbDimAssoc
330
192E
 90
        2
 70
     0
 71
     0
  1
AcDbOsnapPointRef
 72
    13
331
1925
 73
     0
 91
        0
 40
0.0
 10
0.0
 20
0.0
 30
2.000000000000000E+50
 75
     0
  0
LAYOUT
  5
22
102
{ACAD_XDICTIONARY
360
19F7
102
}
102
{ACAD_REACTORS
330
1A
102
}
330
1A
100
AcDbPlotSettings
  1

  2
SII LP-2150 (D-SCAN C2)
  4
User119
  6

 40
3.174999952316284
 41
3.174999952316284
 42
3.175003051757812
 43
3.17498779296875
 44
210.0579986572266
 45
296.9259948730469
 46
0.0
 47
0.0
 48
0.0
 49
0.0
140
0.0
141
0.0
142
1.0
143
1.580715189147934
 70
 11952
 72
     1
 73
     1
 74
     0
  7
sei_cad.ctb
 75
     0
147
0.6326250338234799
148
19.65895403440572
149
1.143774069319647
100
AcDbLayout
  1
Model
 70
     1
 71
     0
 10
0.0
 20
0.0
 11
12.0
 21
9.0
 12
0.0
 22
0.0
 32
0.0
 14
0.0
 24
0.0
 34
0.0
 15
0.0
 25
0.0
 35
0.0
146
0.0
 13
0.0
 23
0.0
 33
0.0
 16
1.0
 26
0.0
 36
0.0
 17
0.0
 27
1.0
 37
0.0
 76
     0
330
1F
1001
ACAD_PSEXT
1000
SII LP-2150 (D-SCAN C2)
1000
SII LP-2150 (D-SCAN C2)
1000
133.153.16.130#3000
1000

1070
     0
  0
LAYOUT
  5
1E
102
{ACAD_XDICTIONARY
360
19F5
102
}
102
{ACAD_REACTORS
330
1A
102
}
330
1A
100
AcDbPlotSettings
  1

  2

  4

  6

 40
0.0
 41
0.0
 42
0.0
 43
0.0
 44
0.0
 45
0.0
 46
0.0
 47
0.0
 48
0.0
 49
0.0
140
0.0
141
0.0
142
1.0
143
1.0
 70
   688
 72
     0
 73
     0
 74
     5
  7
sei_cad.ctb
 75
    16
147
1.0
148
0.0
149
0.0
100
AcDbLayout
  1
レイアウト1
 70
     1
 71
     1
 10
0.0
 20
0.0
 11
420.0
 21
297.0
 12
0.0
 22
0.0
 32
0.0
 14
1.000000000000000E+20
 24
1.000000000000000E+20
 34
1.000000000000000E+20
 15
-1.000000000000000E+20
 25
-1.000000000000000E+20
 35
-1.000000000000000E+20
146
0.0
 13
0.0
 23
0.0
 33
0.0
 16
1.0
 26
0.0
 36
0.0
 17
0.0
 27
1.0
 37
0.0
 76
     0
330
1B
  0
LAYOUT
  5
26
102
{ACAD_XDICTIONARY
360
19F9
102
}
102
{ACAD_REACTORS
330
1A
102
}
330
1A
100
AcDbPlotSettings
  1

  2

  4

  6

 40
0.0
 41
0.0
 42
0.0
 43
0.0
 44
0.0
 45
0.0
 46
0.0
 47
0.0
 48
0.0
 49
0.0
140
0.0
141
0.0
142
1.0
143
1.0
 70
   688
 72
     0
 73
     0
 74
     5
  7
sei_cad.ctb
 75
    16
147
1.0
148
0.0
149
0.0
100
AcDbLayout
  1
レイアウト2
 70
     1
 71
     2
 10
0.0
 20
0.0
 11
12.0
 21
9.0
 12
0.0
 22
0.0
 32
0.0
 14
0.0
 24
0.0
 34
0.0
 15
0.0
 25
0.0
 35
0.0
146
0.0
 13
0.0
 23
0.0
 33
0.0
 16
1.0
 26
0.0
 36
0.0
 17
0.0
 27
1.0
 37
0.0
 76
     0
330
23
  0
MLINESTYLE
  5
18
102
{ACAD_REACTORS
330
17
102
}
330
17
100
AcDbMlineStyle
  2
STANDARD
 70
     0
  3

 62
   256
 51
90.0
 52
90.0
 71
     2
 49
0.5
 62
   256
  6
BYLAYER
 49
-0.5
 62
   256
  6
BYLAYER
  0
ACDBPLACEHOLDER
  5
F
102
{ACAD_REACTORS
330
E
102
}
330
E
  0
TABLESTYLE
  5
11B
102
{ACAD_REACTORS
330
11A
102
}
330
11A
100
AcDbTableStyle
  3
Standard
 70
     0
 71
     0
 40
1.5
 41
1.5
280
     0
281
     0
  7
STANDARD
140
4.5
170
     2
 62
     0
 63
     7
283
     0
274
    -2
284
     1
 64
     0
275
    -2
285
     1
 65
     0
276
    -2
286
     1
 66
     0
277
    -2
287
     1
 67
     0
278
    -2
288
     1
 68
     0
279
    -2
289
     1
 69
     0
  7
STANDARD
140
6.0
170
     5
 62
     0
 63
     7
283
     0
274
    -2
284
     1
 64
     0
275
    -2
285
     1
 65
     0
276
    -2
286
     1
 66
     0
277
    -2
287
     1
 67
     0
278
    -2
288
     1
 68
     0
279
    -2
289
     1
 69
     0
  7
STANDARD
140
4.5
170
     5
 62
     0
 63
     7
283
     0
274
    -2
284
     1
 64
     0
275
    -2
285
     1
 65
     0
276
    -2
286
     1
 66
     0
277
    -2
287
     1
 67
     0
278
    -2
288
     1
 68
     0
279
    -2
289
     1
 69
     0
  0
DICTIONARYVAR
  5
138
102
{ACAD_REACTORS
330
94
102
}
330
94
100
DictionaryVariables
280
     0
  1
STANDARD
  0
DICTIONARYVAR
  5
96
102
{ACAD_REACTORS
330
94
102
}
330
94
100
DictionaryVariables
280
     0
  1
2
  0
DICTIONARYVAR
  5
95
102
{ACAD_REACTORS
330
94
102
}
330
94
100
DictionaryVariables
280
     0
  1
0
  0
DICTIONARYVAR
  5
19F1
102
{ACAD_REACTORS
330
94
102
}
330
94
100
DictionaryVariables
280
     0
  1

  0
DICTIONARY
  5
1B5
102
{ACAD_REACTORS
330
5B
102
}
330
5B
100
AcDbDictionary
281
     1
  0
DICTIONARY
  5
61
102
{ACAD_REACTORS
330
5B
102
}
330
5B
100
AcDbDictionary
281
     1
  0
XRECORD
  5
123
102
{ACAD_REACTORS
330
5B
102
}
330
5B
100
AcDbXrecord
280
     1
 90
-1023410169
  0
DICTIONARY
  5
19F7
330
22
100
AcDbDictionary
280
     1
281
     1
  3
ACAD_XREC_ROUNDTRIP
360
19F8
  0
DICTIONARY
  5
19F5
330
1E
100
AcDbDictionary
280
     1
281
     1
  3
ACAD_XREC_ROUNDTRIP
360
19F6
  0
DICTIONARY
  5
19F9
330
26
100
AcDbDictionary
280
     1
281
     1
  3
ACAD_XREC_ROUNDTRIP
360
19FA
  0
XRECORD
  5
19F8
102
{ACAD_REACTORS
330
19F7
102
}
330
19F7
100
AcDbXrecord
280
     1
102
SHADEPLOT
 70
     0
102
SHADEPLOTRESLEVEL
 70
     2
102
SHADEPLOTCUSTOMDPI
 70
   300
  0
XRECORD
  5
19F6
102
{ACAD_REACTORS
330
19F5
102
}
330
19F5
100
AcDbXrecord
280
     1
102
SHADEPLOT
 70
     0
102
SHADEPLOTRESLEVEL
 70
     2
102
SHADEPLOTCUSTOMDPI
 70
   300
  0
XRECORD
  5
19FA
102
{ACAD_REACTORS
330
19F9
102
}
330
19F9
100
AcDbXrecord
280
     1
102
SHADEPLOT
 70
     0
102
SHADEPLOTRESLEVEL
 70
     2
102
SHADEPLOTCUSTOMDPI
 70
   300
  0
ENDSEC
  0
EOF
