  0
SECTION
  2
HEADER
  9
$ACADVER
  1
AC1014
  9
$ACADMAINTVER
 70
     9
  9
$DWGCODEPAGE
  3
ANSI_932
  9
$INSBASE
 10
0.0
 20
0.0
 30
0.0
  9
$EXTMIN
 10
-80.2936007962954
 20
-108.000001
 30
0.0
  9
$EXTMAX
 10
36.43102507455366
 20
31.49999999999997
 30
0.0
  9
$LIMMIN
 10
-100.2431816884136
 20
-132.2498288288252
  9
$LIMMAX
 10
131.7946292086844
 20
67.46680498618889
  9
$ORTHOMODE
 70
     0
  9
$REGENMODE
 70
     1
  9
$FILLMODE
 70
     1
  9
$QTEXTMODE
 70
     0
  9
$MIRRTEXT
 70
     0
  9
$DRAGMODE
 70
     2
  9
$LTSCALE
 40
1.0
  9
$OSMODE
 70
    55
  9
$ATTMODE
 70
     1
  9
$TEXTSIZE
 40
2.5
  9
$TRACEWID
 40
1.0
  9
$TEXTSTYLE
  7
STANDARD
  9
$CLAYER
  8
AM_5
  9
$CELTYPE
  6
BYLAYER
  9
$CECOLOR
 62
   256
  9
$CELTSCALE
 40
1.0
  9
$DELOBJ
 70
     1
  9
$DISPSILH
 70
     0
  9
$DIMSCALE
 40
1.0
  9
$DIMASZ
 40
2.5
  9
$DIMEXO
 40
1.0
  9
$DIMDLI
 40
12.0
  9
$DIMRND
 40
0.0
  9
$DIMDLE
 40
0.0
  9
$DIMEXE
 40
1.0
  9
$DIMTP
 40
0.1
  9
$DIMTM
 40
0.1
  9
$DIMTXT
 40
3.2
  9
$DIMCEN
 40
0.0
  9
$DIMTSZ
 40
0.0
  9
$DIMTOL
 70
     0
  9
$DIMLIM
 70
     0
  9
$DIMTIH
 70
     0
  9
$DIMTOH
 70
     0
  9
$DIMSE1
 70
     0
  9
$DIMSE2
 70
     0
  9
$DIMTAD
 70
     3
  9
$DIMZIN
 70
     8
  9
$DIMBLK
  1
OPEN30
  9
$DIMASO
 70
     1
  9
$DIMSHO
 70
     1
  9
$DIMPOST
  1

  9
$DIMAPOST
  1
"
  9
$DIMALT
 70
     0
  9
$DIMALTD
 70
     2
  9
$DIMALTF
 40
0.0393701
  9
$DIMLFAC
 40
1.0
  9
$DIMTOFL
 70
     1
  9
$DIMTVP
 40
0.0
  9
$DIMTIX
 70
     0
  9
$DIMSOXD
 70
     0
  9
$DIMSAH
 70
     0
  9
$DIMBLK1
  1

  9
$DIMBLK2
  1

  9
$DIMSTYLE
  2
AM_JIS
  9
$DIMCLRD
 70
   256
  9
$DIMCLRE
 70
   256
  9
$DIMCLRT
 70
     2
  9
$DIMTFAC
 40
0.71
  9
$DIMGAP
 40
1.5
  9
$DIMJUST
 70
     0
  9
$DIMSD1
 70
     0
  9
$DIMSD2
 70
     0
  9
$DIMTOLJ
 70
     0
  9
$DIMTZIN
 70
     0
  9
$DIMALTZ
 70
     0
  9
$DIMALTTZ
 70
     0
  9
$DIMFIT
 70
     3
  9
$DIMUPT
 70
     0
  9
$DIMUNIT
 70
     2
  9
$DIMDEC
 70
     3
  9
$DIMTDEC
 70
     3
  9
$DIMALTU
 70
     2
  9
$DIMALTTD
 70
     2
  9
$DIMTXSTY
  7
ASAMI
  9
$DIMAUNIT
 70
     0
  9
$LUNITS
 70
     2
  9
$LUPREC
 70
     2
  9
$SKETCHINC
 40
1.0
  9
$FILLETRAD
 40
2.5
  9
$AUNITS
 70
     0
  9
$AUPREC
 70
     0
  9
$MENU
  1
.
  9
$ELEVATION
 40
0.0
  9
$PELEVATION
 40
0.0
  9
$THICKNESS
 40
0.0
  9
$LIMCHECK
 70
     0
  9
$BLIPMODE
 70
     0
  9
$CHAMFERA
 40
0.5
  9
$CHAMFERB
 40
0.5
  9
$CHAMFERC
 40
20.0
  9
$CHAMFERD
 40
0.0
  9
$SKPOLY
 70
     0
  9
$TDCREATE
 40
2452836.771637361
  9
$TDUPDATE
 40
2453152.363890752
  9
$TDINDWG
 40
0.3452425347
  9
$TDUSRTIMER
 40
0.3452425347
  9
$USRTIMER
 70
     1
  9
$ANGBASE
 50
0.0
  9
$ANGDIR
 70
     0
  9
$PDMODE
 70
     0
  9
$PDSIZE
 40
0.0
  9
$PLINEWID
 40
0.0
  9
$COORDS
 70
     1
  9
$SPLFRAME
 70
     0
  9
$SPLINETYPE
 70
     6
  9
$SPLINESEGS
 70
     8
  9
$ATTDIA
 70
     1
  9
$ATTREQ
 70
     1
  9
$HANDLING
 70
 12289
  9
$HANDSEED
  5
460B
  9
$SURFTAB1
 70
     6
  9
$SURFTAB2
 70
     6
  9
$SURFTYPE
 70
     6
  9
$SURFU
 70
     6
  9
$SURFV
 70
     6
  9
$UCSNAME
  2

  9
$UCSORG
 10
0.0
 20
0.0
 30
0.0
  9
$UCSXDIR
 10
1.0
 20
0.0
 30
0.0
  9
$UCSYDIR
 10
0.0
 20
1.0
 30
0.0
  9
$PUCSNAME
  2

  9
$PUCSORG
 10
0.0
 20
0.0
 30
0.0
  9
$PUCSXDIR
 10
1.0
 20
0.0
 30
0.0
  9
$PUCSYDIR
 10
0.0
 20
1.0
 30
0.0
  9
$USERI1
 70
     0
  9
$USERI2
 70
     0
  9
$USERI3
 70
     0
  9
$USERI4
 70
     0
  9
$USERI5
 70
     0
  9
$USERR1
 40
0.0
  9
$USERR2
 40
0.0
  9
$USERR3
 40
0.0
  9
$USERR4
 40
0.0
  9
$USERR5
 40
0.0
  9
$WORLDVIEW
 70
     1
  9
$SHADEDGE
 70
     3
  9
$SHADEDIF
 70
    70
  9
$TILEMODE
 70
     1
  9
$MAXACTVP
 70
    64
  9
$PINSBASE
 10
0.0
 20
0.0
 30
0.0
  9
$PLIMCHECK
 70
     0
  9
$PEXTMIN
 10
1.000000000000000E+20
 20
1.000000000000000E+20
 30
1.000000000000000E+20
  9
$PEXTMAX
 10
-1.000000000000000E+20
 20
-1.000000000000000E+20
 30
-1.000000000000000E+20
  9
$PLIMMIN
 10
0.0
 20
0.0
  9
$PLIMMAX
 10
841.0
 20
594.0
  9
$UNITMODE
 70
     0
  9
$VISRETAIN
 70
     1
  9
$PLINEGEN
 70
     0
  9
$PSLTSCALE
 70
     0
  9
$TREEDEPTH
 70
  3020
  9
$PICKSTYLE
 70
     0
  9
$CMLSTYLE
  2
STANDARD
  9
$CMLJUST
 70
     0
  9
$CMLSCALE
 40
20.0
  9
$PROXYGRAPHICS
 70
     1
  9
$MEASUREMENT
 70
     1
  0
ENDSEC
  0
SECTION
  2
CLASSES
  0
CLASS
  1
ACDBDICTIONARYWDFLT
  2
AcDbDictionaryWithDefault
  3
AutoCAD 2000
 90
        0
280
     0
281
     0
  0
CLASS
  1
ACDBPLACEHOLDER
  2
AcDbPlaceHolder
  3
AutoCAD 2000
 90
        0
280
     0
281
     0
  0
CLASS
  1
LAYOUT
  2
AcDbLayout
  3
AutoCAD 2000
 90
        0
280
     0
281
     0
  0
CLASS
  1
AMGSETTINGSOBJ
  2
AmgSettingsObj
  3
"AcadM|Product Description: AutoCAD Mechanical 2000|Company: Autodesk"
 90
        0
280
     0
281
     0
  0
CLASS
  1
ACME_DOCUMENT
  2
AcMeDbDoc
  3
AcMeServices
 90
        0
280
     0
281
     0
  0
CLASS
  1
ACMESCOPE
  2
AcMeScope
  3
AcMeServices
 90
        0
280
     0
281
     0
  0
CLASS
  1
ACMECOMMANDHISTORY
  2
AcMeCommandHistory
  3
AcMeServices
 90
        0
280
     0
281
     0
  0
CLASS
  1
DICTIONARYVAR
  2
AcDbDictionaryVar
  3
AutoCAD 2000
 90
        0
280
     0
281
     0
  0
CLASS
  1
ACIMSYSVARMAN
  2
AcImSysVarManager
  3
AcMeServices
 90
        0
280
     0
281
     0
  0
CLASS
  1
ACIMREALSYSVAR
  2
AcImRealSysVar
  3
AcMeServices
 90
        0
280
     0
281
     0
  0
CLASS
  1
ACIMINTSYSVAR
  2
AcImIntSysVar
  3
AcMeServices
 90
        0
280
     0
281
     0
  0
CLASS
  1
ACMEDRAWINGMAN
  2
AcMeDrawingMan
  3
AcMeServices
 90
        0
280
     0
281
     0
  0
CLASS
  1
ACMEVIEW
  2
AcMeView
  3
AcMeServices
 90
        0
280
     0
281
     0
  0
CLASS
  1
ACDBENTITYCACHE
  2
AcMeEntityCache
  3
AcMeServices
 90
        0
280
     0
281
     0
  0
CLASS
  1
GSMANAGER
  2
AcMeGSManager
  3
AcMeServices
 90
        0
280
     0
281
     0
  0
CLASS
  1
AmdtInternalReactor
  2
AmdtInternalReactor
  3
AcMeServices
 90
        0
280
     0
281
     0
  0
CLASS
  1
ACMESTATEMGR
  2
AcMeStateMgr
  3
AcMeServices
 90
        0
280
     0
281
     0
  0
CLASS
  1
ACME_DATABASE
  2
AcMeDbDatabase
  3
AcMeServices
 90
        0
280
     0
281
     0
  0
CLASS
  1
ACRFINSADJUSTERMGR
  2
AcRfInsAdjusterMgr
  3
AcMeServices
 90
        0
280
     0
281
     0
  0
CLASS
  1
ACMDATADICTIONARY
  2
AcmDataDictionary
  3
"AcmSymBB|Product Description: AutoCAD Mechanical 2000|Company: Autodesk"
 90
        0
280
     0
281
     0
  0
CLASS
  1
ACMDATAENTRYBLOCK
  2
AcmDataEntryBlock
  3
"AcmSymBB|Product Description: AutoCAD Mechanical 2000|Company: Autodesk"
 90
        0
280
     0
281
     0
  0
CLASS
  1
AMGOBJPROPCFG
  2
AmgObjPropCfg
  3
"AmgLay|Product Description: AutoCAD Mechanical 2000|Company: Autodesk"
 90
        1
280
     0
281
     0
  0
CLASS
  1
ACAMGFILTERDAT
  2
AcAmgFilterDat
  3
"AcadM|Product Description: AutoCAD Mechanical 2000|Company: Autodesk"
 90
        0
280
     0
281
     0
  0
CLASS
  1
LAYER_INDEX
  2
AcDbLayerIndex
  3
AutoCAD 2000
 90
        0
280
     0
281
     0
  0
CLASS
  1
IDBUFFER
  2
AcDbIdBuffer
  3
AutoCAD 2000
 90
        0
280
     0
281
     0
  0
CLASS
  1
ACIMSTRSYSVAR
  2
AcImStrSysVar
  3
AcMeServices
 90
        0
280
     0
281
     0
  0
CLASS
  1
ACMSTANDARDJIS
  2
AcmStandardJIS
  3
"AcmSymBB|Product Description: AutoCAD Mechanical 2000|Company: Autodesk"
 90
        0
280
     0
281
     0
  0
CLASS
  1
ACMSURFSTANDARDJIS
  2
AcmSurfTextStdJIS
  3
"AcmSymBB|Product Description: AutoCAD Mechanical 2000|Company: Autodesk"
 90
        0
280
     0
281
     0
  0
CLASS
  1
ACMFCFSTANDARDJIS
  2
AcmFCFStdJIS
  3
"AcmSymBB|Product Description: AutoCAD Mechanical 2000|Company: Autodesk"
 90
        0
280
     0
281
     0
  0
CLASS
  1
ACMWELDSTANDARDJIS
  2
AcmWeldingStdJIS
  3
"AcmSymBB|Product Description: AutoCAD Mechanical 2000|Company: Autodesk"
 90
        0
280
     0
281
     0
  0
CLASS
  1
ACMIDSTANDARDJIS
  2
AcmIdStdJIS
  3
"AcmSymBB|Product Description: AutoCAD Mechanical 2000|Company: Autodesk"
 90
        0
280
     0
281
     0
  0
CLASS
  1
ACMDATUMSTANDARDJIS
  2
AcmDatumStdJIS
  3
"AcmSymBB|Product Description: AutoCAD Mechanical 2000|Company: Autodesk"
 90
        0
280
     0
281
     0
  0
CLASS
  1
ACMBOMSTANDARDJIS
  2
AcmBOMStdJIS
  3
"AcmSymBB|Product Description: AutoCAD Mechanical 2000|Company: Autodesk"
 90
        0
280
     0
281
     0
  0
CLASS
  1
ACMSTANDARDANSI
  2
AcmStandardANSI
  3
"AcmSymBB|Product Description: AutoCAD Mechanical 2000|Company: Autodesk"
 90
        0
280
     0
281
     0
  0
CLASS
  1
ACMSURFSTANDARDANSI
  2
AcmSurfTextStdANSI
  3
"AcmSymBB|Product Description: AutoCAD Mechanical 2000|Company: Autodesk"
 90
        0
280
     0
281
     0
  0
CLASS
  1
ACMFCFSTANDARDANSI
  2
AcmFCFStdANSI
  3
"AcmSymBB|Product Description: AutoCAD Mechanical 2000|Company: Autodesk"
 90
        0
280
     0
281
     0
  0
CLASS
  1
ACMWELDSTANDARDANSI
  2
AcmWeldingStdANSI
  3
"AcmSymBB|Product Description: AutoCAD Mechanical 2000|Company: Autodesk"
 90
        0
280
     0
281
     0
  0
CLASS
  1
ACMIDSTANDARDANSI
  2
AcmIdStdANSI
  3
"AcmSymBB|Product Description: AutoCAD Mechanical 2000|Company: Autodesk"
 90
        0
280
     0
281
     0
  0
CLASS
  1
ACMDATUMSTANDARDANSI
  2
AcmDatumStdANSI
  3
"AcmSymBB|Product Description: AutoCAD Mechanical 2000|Company: Autodesk"
 90
        0
280
     0
281
     0
  0
CLASS
  1
ACMBOMSTANDARDANSI
  2
AcmBOMStdANSI
  3
"AcmSymBB|Product Description: AutoCAD Mechanical 2000|Company: Autodesk"
 90
        0
280
     0
281
     0
  0
CLASS
  1
ACMSTANDARDBSI
  2
AcmStandardBSI
  3
"AcmSymBB|Product Description: AutoCAD Mechanical 2000|Company: Autodesk"
 90
        0
280
     0
281
     0
  0
CLASS
  1
ACMSURFSTANDARDBSI
  2
AcmSurfTextStdBSI
  3
"AcmSymBB|Product Description: AutoCAD Mechanical 2000|Company: Autodesk"
 90
        0
280
     0
281
     0
  0
CLASS
  1
ACMFCFSTANDARDBSI
  2
AcmFCFStdBSI
  3
"AcmSymBB|Product Description: AutoCAD Mechanical 2000|Company: Autodesk"
 90
        0
280
     0
281
     0
  0
CLASS
  1
ACMWELDSTANDARDBSI
  2
AcmWeldingStdBSI
  3
"AcmSymBB|Product Description: AutoCAD Mechanical 2000|Company: Autodesk"
 90
        0
280
     0
281
     0
  0
CLASS
  1
ACMIDSTANDARDBSI
  2
AcmIdStdBSI
  3
"AcmSymBB|Product Description: AutoCAD Mechanical 2000|Company: Autodesk"
 90
        0
280
     0
281
     0
  0
CLASS
  1
ACMDATUMSTANDARDBSI
  2
AcmDatumStdBSI
  3
"AcmSymBB|Product Description: AutoCAD Mechanical 2000|Company: Autodesk"
 90
        0
280
     0
281
     0
  0
CLASS
  1
ACMBOMSTANDARDBSI
  2
AcmBOMStdBSI
  3
"AcmSymBB|Product Description: AutoCAD Mechanical 2000|Company: Autodesk"
 90
        0
280
     0
281
     0
  0
CLASS
  1
LONG_TRANSACTION
  2
AcDbLongTransaction
  3
AutoCAD 2000
 90
        0
280
     0
281
     0
  0
CLASS
  1
LWPOLYLINE
  2
AcDbPolyline
  3
AutoCAD 2000
 90
        0
280
     0
281
     1
  0
CLASS
  1
HATCH
  2
AcDbHatch
  3
AutoCAD 2000
 90
        0
280
     0
281
     1
  0
CLASS
  1
XRECORD
  2
AcDbXrecord
  3
AutoCAD 2000
 90
        0
280
     0
281
     0
  0
ENDSEC
  0
SECTION
  2
TABLES
  0
TABLE
  2
VPORT
  5
8
330
0
100
AcDbSymbolTable
 70
     3
  0
VPORT
  5
4579
330
8
100
AcDbSymbolTableRecord
100
AcDbViewportTableRecord
  2
*ACTIVE
 70
     0
 10
0.0
 20
0.0
 11
1.0
 21
1.0
 12
0.5305601412705414
 22
-33.90032530389477
 13
0.0
 23
0.0
 14
2.5
 24
2.5
 15
10.0
 25
10.0
 16
0.0
 26
0.0
 36
1.0
 17
0.0
 27
0.0
 37
0.0
 40
170.9546602026577
 41
1.56570841889117
 42
50.0
 43
0.0
 44
0.0
 50
0.0
 51
0.0
 71
     0
 72
   100
 73
     1
 74
     3
 75
     0
 76
     0
 77
     0
 78
     0
  0
ENDTAB
  0
TABLE
  2
LTYPE
  5
5
330
0
100
AcDbSymbolTable
 70
    10
  0
LTYPE
  5
14
330
5
100
AcDbSymbolTableRecord
100
AcDbLinetypeTableRecord
  2
BYBLOCK
 70
     0
  3

 72
    65
 73
     0
 40
0.0
  0
LTYPE
  5
15
330
5
100
AcDbSymbolTableRecord
100
AcDbLinetypeTableRecord
  2
BYLAYER
 70
     0
  3

 72
    65
 73
     0
 40
0.0
  0
LTYPE
  5
16
330
5
100
AcDbSymbolTableRecord
100
AcDbLinetypeTableRecord
  2
CONTINUOUS
 70
     0
  3
Solid line
 72
    65
 73
     0
 40
0.0
  0
LTYPE
  5
4B
330
5
100
AcDbSymbolTableRecord
100
AcDbLinetypeTableRecord
  2
AM_ISO02W050
 70
     0
  3
__ __ __ __ __ __ __ __ __ __ __ __ __ __ __
 72
    65
 73
     2
 40
7.5
 49
6.0
 74
     0
 49
-1.5
 74
     0
  0
LTYPE
  5
4C
330
5
100
AcDbSymbolTableRecord
100
AcDbLinetypeTableRecord
  2
AM_ISO08W050
 70
     0
  3
____ . ____ . ____ . ____ . ____ . ____ . ____
 72
    65
 73
     4
 40
18.0
 49
12.0
 74
     0
 49
-1.5
 74
     0
 49
3.0
 74
     0
 49
-1.5
 74
     0
  0
LTYPE
  5
4D
330
5
100
AcDbSymbolTableRecord
100
AcDbLinetypeTableRecord
  2
AM_ISO09W050
 70
     0
  3
_____ . . _____ . . _____ . . ____ .. ____
 72
    65
 73
     6
 40
22.5
 49
12.0
 74
     0
 49
-1.5
 74
     0
 49
3.0
 74
     0
 49
-1.5
 74
     0
 49
3.0
 74
     0
 49
-1.5
 74
     0
  0
LTYPE
  5
4E
330
5
100
AcDbSymbolTableRecord
100
AcDbLinetypeTableRecord
  2
AMCONSTR
 70
     0
  3
_______________________
 72
    65
 73
     2
 40
9999.0
 49
9999.0
 74
     0
 49
0.0
 74
     0
  0
LTYPE
  5
4F
330
5
100
AcDbSymbolTableRecord
100
AcDbLinetypeTableRecord
  2
AM_ISO02W050X2
 70
     0
  3
 _ _ _ _ _ _ _ _ _ _ _ _
 72
    65
 73
     2
 40
3.75
 49
3.0
 74
     0
 49
-0.75
 74
     0
  0
LTYPE
  5
50
330
5
100
AcDbSymbolTableRecord
100
AcDbLinetypeTableRecord
  2
AM_ISO08W050X2
 70
     0
  3
__ . __ . __ . __ . __ . __
 72
    65
 73
     4
 40
9.0
 49
6.0
 74
     0
 49
-0.75
 74
     0
 49
1.5
 74
     0
 49
-0.75
 74
     0
  0
LTYPE
  5
53
330
5
100
AcDbSymbolTableRecord
100
AcDbLinetypeTableRecord
  2
AMZIGZAG
 70
     0
  3
/\/-/\/-/\/-/\/-/\/-/\/
 72
    65
 73
     2
 40
11.00009999999999
 49
0.0001
 74
     4
 75
   135
340
52
 46
0.04
 50
0.0
 44
0.0
 45
0.0
 49
-11.0
 74
     0
  0
LTYPE
  5
166
330
5
100
AcDbSymbolTableRecord
100
AcDbLinetypeTableRecord
  2
ACJISTGL
 70
     0
  3
_ _ _ _ _
 72
    65
 73
     2
 40
3.0
 49
2.0
 74
     0
 49
-1.0
 74
     0
  0
LTYPE
  5
26A
330
5
100
AcDbSymbolTableRecord
100
AcDbLinetypeTableRecord
  2
ACJISTGB
 70
     0
  3
__ . . __ . .
 72
    65
 73
     6
 40
9.0
 49
4.0
 74
     0
 49
-1.0
 74
     0
 49
1.0
 74
     0
 49
-1.0
 74
     0
 49
1.0
 74
     0
 49
-1.0
 74
     0
  0
ENDTAB
  0
TABLE
  2
LAYER
  5
2
330
0
100
AcDbSymbolTable
 70
     7
  0
LAYER
  5
10
330
2
100
AcDbSymbolTableRecord
100
AcDbLayerTableRecord
  2
0
 70
     0
 62
     7
  6
CONTINUOUS
  0
LAYER
  5
BD4
330
2
100
AcDbSymbolTableRecord
100
AcDbLayerTableRecord
  2
AM_11
 70
     0
 62
     3
  6
AM_ISO09W050
  0
LAYER
  5
BD5
330
2
100
AcDbSymbolTableRecord
100
AcDbLayerTableRecord
  2
AM_7
 70
     0
 62
     4
  6
AM_ISO08W050
  0
LAYER
  5
BD6
330
2
100
AcDbSymbolTableRecord
100
AcDbLayerTableRecord
  2
AM_5
 70
     0
 62
     3
  6
CONTINUOUS
  0
LAYER
  5
BD7
330
2
100
AcDbSymbolTableRecord
100
AcDbLayerTableRecord
  2
DEFPOINTS
 70
     0
 62
     7
  6
CONTINUOUS
  0
LAYER
  5
E59
330
2
100
AcDbSymbolTableRecord
100
AcDbLayerTableRecord
  2
AM_6
 70
     0
 62
     2
  6
CONTINUOUS
  0
LAYER
  5
4062
330
2
100
AcDbSymbolTableRecord
100
AcDbLayerTableRecord
  2
AM_0
 70
     0
 62
     7
  6
CONTINUOUS
  0
ENDTAB
  0
TABLE
  2
STYLE
  5
3
330
0
100
AcDbSymbolTable
 70
     5
  0
STYLE
  5
11
330
3
100
AcDbSymbolTableRecord
100
AcDbTextStyleTableRecord
  2
STANDARD
 70
     0
 40
0.0
 41
1.0
 50
0.0
 71
     0
 42
2.5
  3
simplex.shx
  4
EXTFONT.SHX
  0
STYLE
  5
52
330
3
100
AcDbSymbolTableRecord
100
AcDbTextStyleTableRecord
  2

 70
     1
 40
0.0
 41
1.0
 50
0.0
 71
     0
 42
2.5
  3
ltypeshp.shx
  4

  0
STYLE
  5
6B
330
3
100
AcDbSymbolTableRecord
100
AcDbTextStyleTableRecord
  2
ASAMI
 70
     0
 40
0.0
 41
1.0
 50
0.0
 71
     0
 42
2.5
  3
simplex.shx
  4
EXTFONT.SHX
  0
STYLE
  5
262
330
3
100
AcDbSymbolTableRecord
100
AcDbTextStyleTableRecord
  2
ACJISTS
 70
     0
 40
1.0
 41
1.0
 50
0.0
 71
     0
 42
2.5
  3
simplex.shx
  4
bigfont.shx
  0
STYLE
  5
269
330
3
100
AcDbSymbolTableRecord
100
AcDbTextStyleTableRecord
  2
ACJISGDT
 70
     0
 40
0.0
 41
1.0
 50
0.0
 71
     0
 42
2.5
  3
amgdtans.shx
  4

  0
ENDTAB
  0
TABLE
  2
VIEW
  5
6
330
0
100
AcDbSymbolTable
 70
     0
  0
ENDTAB
  0
TABLE
  2
UCS
  5
7
330
0
100
AcDbSymbolTable
 70
     0
  0
ENDTAB
  0
TABLE
  2
APPID
  5
9
330
0
100
AcDbSymbolTable
 70
    12
  0
APPID
  5
12
330
9
100
AcDbSymbolTableRecord
100
AcDbRegAppTableRecord
  2
ACAD
 70
     0
  0
APPID
  5
30
330
9
100
AcDbSymbolTableRecord
100
AcDbRegAppTableRecord
  2
MCAD_NO_VIS
 70
     0
  0
APPID
  5
31
330
9
100
AcDbSymbolTableRecord
100
AcDbRegAppTableRecord
  2
ACAD_TEMP_GRAPHIC
 70
     0
  0
APPID
  5
2C2
330
9
100
AcDbSymbolTableRecord
100
AcDbRegAppTableRecord
  2
GENIUS_GENDTOL_13
 70
     0
  0
APPID
  5
339
330
9
100
AcDbSymbolTableRecord
100
AcDbRegAppTableRecord
  2
GENIUS_GENODEF_13
 70
     0
  0
APPID
  5
33A
330
9
100
AcDbSymbolTableRecord
100
AcDbRegAppTableRecord
  2
GENIUS_GENOBJ-N-RSBK_13
 70
     0
  0
APPID
  5
33B
330
9
100
AcDbSymbolTableRecord
100
AcDbRegAppTableRecord
  2
GENIUS_GENOBJ-N-LIB_13
 70
     0
  0
APPID
  5
33C
330
9
100
AcDbSymbolTableRecord
100
AcDbRegAppTableRecord
  2
GENIUS_GENSCALE_13
 70
     0
  0
APPID
  5
378
330
9
100
AcDbSymbolTableRecord
100
AcDbRegAppTableRecord
  2
GENIUS_GENDIMSH_14
 70
     0
  0
APPID
  5
BD8
330
9
100
AcDbSymbolTableRecord
100
AcDbRegAppTableRecord
  2
GENIUS_GENOBJ-N-CEN_13
 70
     0
  0
APPID
  5
BD9
330
9
100
AcDbSymbolTableRecord
100
AcDbRegAppTableRecord
  2
GENIUS_GENFIL_13
 70
     0
  0
APPID
  5
BDA
330
9
100
AcDbSymbolTableRecord
100
AcDbRegAppTableRecord
  2
GENIUS_GENOBJ-N-CHA_13
 70
     0
  0
ENDTAB
  0
TABLE
  2
DIMSTYLE
  5
A
330
0
100
AcDbSymbolTable
 70
     9
  0
DIMSTYLE
105
58
330
A
100
AcDbSymbolTableRecord
100
AcDbDimStyleTableRecord
  2
AM_JIS
 70
     0
  3

  4
"
  5
OPEN30
  6

  7

 40
1.0
 41
2.5
 42
1.0
 43
12.0
 44
1.0
 45
0.0
 46
0.0
 47
0.1
 48
0.1
140
3.2
141
0.0
142
0.0
143
0.0393701
144
1.0
145
0.0
146
0.71
147
1.5
 71
     0
 72
     0
 73
     0
 74
     0
 75
     0
 76
     0
 77
     3
 78
     8
170
     0
171
     2
172
     1
173
     0
174
     0
175
     0
176
   256
177
   256
178
     2
270
     2
271
     3
272
     3
273
     2
274
     2
340
6B
275
     0
280
     0
281
     0
282
     0
283
     0
284
     0
285
     0
286
     0
287
     3
288
     0
  0
DIMSTYLE
105
5F
330
A
100
AcDbSymbolTableRecord
100
AcDbDimStyleTableRecord
  2
AM_JIS$3
 70
     0
  3

  4
"
  5
OPEN30
  6

  7

 40
1.0
 41
2.5
 42
1.0
 43
10.0
 44
1.0
 45
0.0
 46
0.0
 47
0.1
 48
0.1
140
3.2
141
0.0
142
0.0
143
0.0393701
144
1.0
145
0.0
146
0.71
147
1.5
 71
     0
 72
     0
 73
     0
 74
     1
 75
     0
 76
     0
 77
     3
 78
     8
170
     0
171
     2
172
     0
173
     0
174
     0
175
     0
176
   256
177
   256
178
     2
270
     2
271
     2
272
     3
273
     2
274
     2
340
6B
275
     0
280
     0
281
     0
282
     0
283
     0
284
     0
285
     0
286
     0
287
     0
288
     1
  0
DIMSTYLE
105
60
330
A
100
AcDbSymbolTableRecord
100
AcDbDimStyleTableRecord
  2
AM_JIS$4
 70
     0
  3

  4
"
  5
OPEN30
  6

  7

 40
1.0
 41
2.5
 42
1.0
 43
10.0
 44
1.0
 45
0.0
 46
0.0
 47
0.1
 48
0.1
140
3.2
141
0.0
142
0.0
143
0.0393701
144
1.0
145
0.0
146
0.71
147
1.5
 71
     0
 72
     0
 73
     0
 74
     1
 75
     0
 76
     0
 77
     3
 78
     8
170
     0
171
     2
172
     0
173
     0
174
     0
175
     0
176
   256
177
   256
178
     2
270
     2
271
     2
272
     3
273
     2
274
     2
340
6B
275
     0
280
     0
281
     0
282
     0
283
     0
284
     0
285
     0
286
     0
287
     0
288
     1
  0
DIMSTYLE
105
61
330
A
100
AcDbSymbolTableRecord
100
AcDbDimStyleTableRecord
  2
AM_JIS$6
 70
     0
  3

  4
"
  5
OPEN30
  6

  7

 40
1.0
 41
2.5
 42
1.0
 43
10.0
 44
1.0
 45
0.0
 46
0.0
 47
0.1
 48
0.1
140
3.2
141
0.0
142
0.0
143
0.0393701
144
1.0
145
0.0
146
0.71
147
1.5
 71
     0
 72
     0
 73
     0
 74
     0
 75
     0
 76
     0
 77
     0
 78
     8
170
     0
171
     2
172
     1
173
     0
174
     0
175
     0
176
   256
177
   256
178
     2
270
     2
271
     2
272
     2
273
     2
274
     2
340
6B
275
     0
280
     0
281
     0
282
     0
283
     0
284
     0
285
     0
286
     0
287
     3
288
     0
  0
DIMSTYLE
105
62
330
A
100
AcDbSymbolTableRecord
100
AcDbDimStyleTableRecord
  2
AM_JIS$7
 70
     0
  3

  4
"
  5
OPEN30
  6

  7

 40
1.0
 41
2.5
 42
1.0
 43
10.0
 44
1.0
 45
0.0
 46
0.0
 47
0.1
 48
0.1
140
3.2
141
0.0
142
0.0
143
0.0393701
144
1.0
145
0.0
146
0.71
147
1.5
 71
     0
 72
     0
 73
     0
 74
     0
 75
     0
 76
     0
 77
     3
 78
     8
170
     0
171
     2
172
     1
173
     0
174
     0
175
     0
176
   256
177
   256
178
     2
270
     2
271
     2
272
     3
273
     2
274
     2
340
6B
275
     0
280
     0
281
     0
282
     0
283
     0
284
     0
285
     0
286
     0
287
     3
288
     0
  0
DIMSTYLE
105
63
330
A
100
AcDbSymbolTableRecord
100
AcDbDimStyleTableRecord
  2
AM_JIS$SF
 70
     0
  3

  4
"
  5
OPEN30
  6

  7

 40
1.0
 41
2.5
 42
1.0
 43
10.0
 44
1.0
 45
0.0
 46
0.0
 47
0.1
 48
0.1
140
3.2
141
0.0
142
0.0
143
0.0393701
144
1.0
145
0.0
146
0.71
147
1.5
 71
     0
 72
     0
 73
     0
 74
     0
 75
     1
 76
     1
 77
     3
 78
     8
170
     0
171
     2
172
     1
173
     0
174
     0
175
     0
176
   256
177
   256
178
     2
270
     2
271
     2
272
     2
273
     2
274
     2
340
6B
275
     0
280
     0
281
     0
282
     0
283
     0
284
     0
285
     0
286
     0
287
     3
288
     0
  0
DIMSTYLE
105
68
330
A
100
AcDbSymbolTableRecord
100
AcDbDimStyleTableRecord
  2
AM_JIS$SH
 70
     0
  3

  4
"
  5

  6
GENAXEH
  7
OPEN30
 40
1.0
 41
2.5
 42
1.0
 43
10.0
 44
1.0
 45
0.0
 46
0.0
 47
0.1
 48
0.1
140
3.2
141
0.0
142
0.0
143
0.0393701
144
2.0
145
0.0
146
0.71
147
1.5
 71
     0
 72
     0
 73
     0
 74
     0
 75
     1
 76
     1
 77
     3
 78
     8
170
     0
171
     2
172
     1
173
     1
174
     0
175
     0
176
   256
177
   256
178
     2
270
     2
271
     2
272
     2
273
     2
274
     2
340
6B
275
     0
280
     0
281
     0
282
     0
283
     0
284
     0
285
     0
286
     0
287
     3
288
     0
  0
DIMSTYLE
105
B34
330
A
100
AcDbSymbolTableRecord
100
AcDbDimStyleTableRecord
  2
AM_JIS$2
 70
     0
  3

  4
"
  5
OPEN30
  6

  7

 40
1.0
 41
2.5
 42
1.0
 43
12.0
 44
1.0
 45
0.0
 46
0.0
 47
0.1
 48
0.1
140
3.2
141
0.0
142
0.0
143
0.0393701
144
1.0
145
0.0
146
0.71
147
1.5
 71
     0
 72
     0
 73
     0
 74
     0
 75
     0
 76
     0
 77
     3
 78
     8
170
     0
171
     2
172
     1
173
     0
174
     0
175
     0
176
   256
177
   256
178
     2
270
     2
271
     3
272
     3
273
     2
274
     2
340
6B
275
     0
280
     0
281
     0
282
     0
283
     0
284
     0
285
     0
286
     0
287
     3
288
     0
  0
DIMSTYLE
105
1AB6
102
{ACAD_REACTORS
330
382E
330
382D
330
38C6
330
39D4
330
39D3
330
39D5
330
394E
330
3BE0
330
3D51
330
40C3
330
4323
102
}
330
A
100
AcDbSymbolTableRecord
100
AcDbDimStyleTableRecord
  2
AM_JIS$0
 70
     0
  3

  4
"
  5
OPEN30
  6

  7

 40
1.0
 41
2.5
 42
0.0
 43
10.0
 44
1.0
 45
0.0
 46
0.0
 47
0.1
 48
0.1000000001
140
3.799999999999999
141
0.0
142
0.0
143
0.0393701
144
1.0
145
0.0
146
0.71
147
1.5
 71
     0
 72
     0
 73
     0
 74
     0
 75
     0
 76
     0
 77
     3
 78
     1
170
     0
171
     2
172
     1
173
     0
174
     0
175
     0
176
     3
177
     3
178
     2
270
     2
271
     2
272
     2
273
     2
274
     2
340
11
275
     1
280
     0
281
     0
282
     0
283
     0
284
     8
285
     0
286
     0
287
     0
288
     0
  0
ENDTAB
  0
TABLE
  2
BLOCK_RECORD
  5
1
330
0
100
AcDbSymbolTable
 70
    16
  0
BLOCK_RECORD
  5
1F
102
{ACAD_XDICTIONARY
360
74
102
}
330
1
100
AcDbSymbolTableRecord
100
AcDbBlockTableRecord
  2
*MODEL_SPACE
  0
BLOCK_RECORD
  5
101
102
{ACAD_XDICTIONARY
360
45A2
102
}
330
1
100
AcDbSymbolTableRecord
100
AcDbBlockTableRecord
  2
*PAPER_SPACE
  0
BLOCK_RECORD
  5
59
330
1
100
AcDbSymbolTableRecord
100
AcDbBlockTableRecord
  2
_OPEN30
  0
BLOCK_RECORD
  5
64
330
1
100
AcDbSymbolTableRecord
100
AcDbBlockTableRecord
  2
GENAXEH
  0
BLOCK_RECORD
  5
383E
330
1
100
AcDbSymbolTableRecord
100
AcDbBlockTableRecord
  2
*D5
  0
BLOCK_RECORD
  5
384A
330
1
100
AcDbSymbolTableRecord
100
AcDbBlockTableRecord
  2
*D6
  0
BLOCK_RECORD
  5
38D7
330
1
100
AcDbSymbolTableRecord
100
AcDbBlockTableRecord
  2
*D7
  0
BLOCK_RECORD
  5
394F
330
1
100
AcDbSymbolTableRecord
100
AcDbBlockTableRecord
  2
*D8
  0
BLOCK_RECORD
  5
39D6
330
1
100
AcDbSymbolTableRecord
100
AcDbBlockTableRecord
  2
*D9
  0
BLOCK_RECORD
  5
39E2
330
1
100
AcDbSymbolTableRecord
100
AcDbBlockTableRecord
  2
*D10
  0
BLOCK_RECORD
  5
39EE
330
1
100
AcDbSymbolTableRecord
100
AcDbBlockTableRecord
  2
*D11
  0
BLOCK_RECORD
  5
3BE1
330
1
100
AcDbSymbolTableRecord
100
AcDbBlockTableRecord
  2
*D12
  0
BLOCK_RECORD
  5
3D52
330
1
100
AcDbSymbolTableRecord
100
AcDbBlockTableRecord
  2
*D13
  0
BLOCK_RECORD
  5
40C4
330
1
100
AcDbSymbolTableRecord
100
AcDbBlockTableRecord
  2
*D14
  0
BLOCK_RECORD
  5
4324
330
1
100
AcDbSymbolTableRecord
100
AcDbBlockTableRecord
  2
*D15
  0
ENDTAB
  0
ENDSEC
  0
SECTION
  2
BLOCKS
  0
BLOCK
  5
20
330
1F
100
AcDbEntity
  8
0
100
AcDbBlockBegin
  2
*MODEL_SPACE
 70
     0
 10
0.0
 20
0.0
 30
0.0
  3
*MODEL_SPACE
  1

  0
ENDBLK
  5
21
330
1F
100
AcDbEntity
  8
0
100
AcDbBlockEnd
  0
BLOCK
  5
103
330
101
100
AcDbEntity
 67
     1
  8
0
100
AcDbBlockBegin
  2
*PAPER_SPACE
 70
     0
 10
0.0
 20
0.0
 30
0.0
  3
*PAPER_SPACE
  1

  0
ENDBLK
  5
104
330
101
100
AcDbEntity
 67
     1
  8
0
100
AcDbBlockEnd
  0
BLOCK
  5
5D
330
59
100
AcDbEntity
  8
0
100
AcDbBlockBegin
  2
_OPEN30
 70
     0
 10
0.0
 20
0.0
 30
0.0
  3
_OPEN30
  1

  0
LINE
  5
5A
330
59
100
AcDbEntity
  8
0
 62
     0
100
AcDbLine
 10
-1.0
 20
0.26794919
 30
0.0
 11
0.0
 21
0.0
 31
0.0
  0
LINE
  5
5B
330
59
100
AcDbEntity
  8
0
 62
     0
100
AcDbLine
 10
0.0
 20
0.0
 30
0.0
 11
-1.0
 21
-0.26794919
 31
0.0
  0
LINE
  5
5C
330
59
100
AcDbEntity
  8
0
 62
     0
100
AcDbLine
 10
0.0
 20
0.0
 30
0.0
 11
-1.0
 21
0.0
 31
0.0
  0
ENDBLK
  5
5E
330
59
100
AcDbEntity
  8
0
100
AcDbBlockEnd
  0
BLOCK
  5
66
330
64
100
AcDbEntity
  8
0
100
AcDbBlockBegin
  2
GENAXEH
 70
     0
 10
0.0
 20
0.0
 30
0.0
  3
GENAXEH
  1

  0
LINE
  5
65
330
64
100
AcDbEntity
  8
0
100
AcDbLine
 10
-1.0
 20
0.0
 30
0.0
 11
1.0
 21
0.0
 31
0.0
  0
ENDBLK
  5
67
330
64
100
AcDbEntity
  8
0
100
AcDbBlockEnd
  0
BLOCK
  5
3848
330
383E
100
AcDbEntity
  8
0
100
AcDbBlockBegin
  2
*D5
 70
     1
 10
0.0
 20
0.0
 30
0.0
  3
*D5
  1

  0
LINE
  5
45AD
330
383E
100
AcDbEntity
  8
AM_5
100
AcDbLine
 10
-40.00001001358032
 20
11.0
 30
0.0
 11
-66.59360079629539
 21
11.0
 31
0.0
  0
LINE
  5
45AE
330
383E
100
AcDbEntity
  8
AM_5
100
AcDbLine
 10
-40.00001001358032
 20
-11.0
 30
0.0
 11
-66.59360079629539
 21
-10.99999999999999
 31
0.0
  0
LINE
  5
45AF
330
383E
100
AcDbEntity
  8
AM_5
100
AcDbLine
 10
-65.59360079629539
 20
8.500000000000007
 30
0.0
 11
-65.59360079629539
 21
-8.499999999999992
 31
0.0
  0
INSERT
  5
45B0
330
383E
100
AcDbEntity
  8
AM_5
100
AcDbBlockReference
  2
_OPEN30
 10
-65.59360079629539
 20
11.0
 30
0.0
 41
2.5
 42
2.5
 43
2.5
 50
90.0
  0
INSERT
  5
45B1
330
383E
100
AcDbEntity
  8
AM_5
100
AcDbBlockReference
  2
_OPEN30
 10
-65.59360079629539
 20
-10.99999999999999
 30
0.0
 41
2.5
 42
2.5
 43
2.5
 50
270.0
  0
MTEXT
  5
45B2
330
383E
100
AcDbEntity
  8
AM_5
 62
     2
100
AcDbMText
 10
-68.69360079629538
 20
-0.0000000000000027
 30
0.0
 40
3.2
 41
0.0
 71
     5
 72
     1
  1
%%c22
  7
ASAMI
 11
0.0000000000000001
 21
1.0
 31
0.0
  0
POINT
  5
45B3
330
383E
100
AcDbEntity
  8
DEFPOINTS
 62
     0
100
AcDbPoint
 10
-39.00001001358032
 20
11.0
 30
0.0
  0
POINT
  5
45B4
330
383E
100
AcDbEntity
  8
DEFPOINTS
 62
     0
100
AcDbPoint
 10
-39.00001001358032
 20
-11.0
 30
0.0
  0
POINT
  5
45B5
330
383E
100
AcDbEntity
  8
DEFPOINTS
 62
     0
100
AcDbPoint
 10
-65.59360079629539
 20
-10.99999999999999
 30
0.0
  0
ENDBLK
  5
3849
330
383E
100
AcDbEntity
  8
0
100
AcDbBlockEnd
  0
BLOCK
  5
3854
330
384A
100
AcDbEntity
  8
0
100
AcDbBlockBegin
  2
*D6
 70
     1
 10
0.0
 20
0.0
 30
0.0
  3
*D6
  1

  0
LINE
  5
45A4
330
384A
100
AcDbEntity
  8
AM_5
100
AcDbLine
 10
-40.00000690976054
 20
25.0
 30
0.0
 11
-76.59360079629539
 21
25.00000000000001
 31
0.0
  0
LINE
  5
45A5
330
384A
100
AcDbEntity
  8
AM_5
100
AcDbLine
 10
-40.00001001358032
 20
-25.0
 30
0.0
 11
-76.59360079629539
 21
-24.99999999999998
 31
0.0
  0
LINE
  5
45A6
330
384A
100
AcDbEntity
  8
AM_5
100
AcDbLine
 10
-75.59360079629539
 20
22.50000000000001
 30
0.0
 11
-75.59360079629539
 21
-22.49999999999998
 31
0.0
  0
INSERT
  5
45A7
330
384A
100
AcDbEntity
  8
AM_5
100
AcDbBlockReference
  2
_OPEN30
 10
-75.59360079629539
 20
25.00000000000001
 30
0.0
 41
2.5
 42
2.5
 43
2.5
 50
90.0
  0
INSERT
  5
45A8
330
384A
100
AcDbEntity
  8
AM_5
100
AcDbBlockReference
  2
_OPEN30
 10
-75.59360079629539
 20
-24.99999999999998
 30
0.0
 41
2.5
 42
2.5
 43
2.5
 50
270.0
  0
MTEXT
  5
45A9
330
384A
100
AcDbEntity
  8
AM_5
 62
     2
100
AcDbMText
 10
-78.69360079629538
 20
0.0000000000000015
 30
0.0
 40
3.2
 41
0.0
 71
     5
 72
     1
  1
%%c50
  7
ASAMI
 11
0.0000000000000001
 21
1.0
 31
0.0
  0
POINT
  5
45AA
330
384A
100
AcDbEntity
  8
DEFPOINTS
 62
     0
100
AcDbPoint
 10
-39.00000690976054
 20
25.0
 30
0.0
  0
POINT
  5
45AB
330
384A
100
AcDbEntity
  8
DEFPOINTS
 62
     0
100
AcDbPoint
 10
-39.00001001358032
 20
-25.0
 30
0.0
  0
POINT
  5
45AC
330
384A
100
AcDbEntity
  8
DEFPOINTS
 62
     0
100
AcDbPoint
 10
-75.59360079629539
 20
-24.99999999999998
 30
0.0
  0
ENDBLK
  5
3855
330
384A
100
AcDbEntity
  8
0
100
AcDbBlockEnd
  0
BLOCK
  5
38E1
330
38D7
100
AcDbEntity
  8
0
100
AcDbBlockBegin
  2
*D7
 70
     1
 10
0.0
 20
0.0
 30
0.0
  3
*D7
  1

  0
LINE
  5
45B6
330
38D7
100
AcDbEntity
  8
AM_5
100
AcDbLine
 10
-40.00000000000002
 20
-25.00001517136704
 30
0.0
 11
-40.00000000000002
 21
-56.50000100000003
 31
0.0
  0
LINE
  5
45B7
330
38D7
100
AcDbEntity
  8
AM_5
100
AcDbLine
 10
-20.00000000000003
 20
-12.49987792968599
 30
0.0
 11
-20.00000000000003
 21
-56.50000100000003
 31
0.0
  0
LINE
  5
45B8
330
38D7
100
AcDbEntity
  8
AM_5
100
AcDbLine
 10
-37.50000000000003
 20
-55.50000100000002
 30
0.0
 11
-22.50000000000003
 21
-55.50000100000002
 31
0.0
  0
INSERT
  5
45B9
330
38D7
100
AcDbEntity
  8
AM_5
100
AcDbBlockReference
  2
_OPEN30
 10
-40.00000000000002
 20
-55.50000100000002
 30
0.0
 41
2.5
 42
2.5
 43
2.5
 50
180.0
  0
INSERT
  5
45BA
330
38D7
100
AcDbEntity
  8
AM_5
100
AcDbBlockReference
  2
_OPEN30
 10
-20.00000000000003
 20
-55.50000100000002
 30
0.0
 41
2.5
 42
2.5
 43
2.5
  0
MTEXT
  5
45BB
330
38D7
100
AcDbEntity
  8
AM_5
 62
     2
100
AcDbMText
 10
-30.00000000000003
 20
-52.40000100000003
 30
0.0
 40
3.2
 41
0.0
 71
     5
 72
     1
  1
20
  7
ASAMI
  0
POINT
  5
45BC
330
38D7
100
AcDbEntity
  8
DEFPOINTS
 62
     0
100
AcDbPoint
 10
-40.00000000000002
 20
-24.00001517136704
 30
0.0
  0
POINT
  5
45BD
330
38D7
100
AcDbEntity
  8
DEFPOINTS
 62
     0
100
AcDbPoint
 10
-20.00000000000003
 20
-11.49987792968599
 30
0.0
  0
POINT
  5
45BE
330
38D7
100
AcDbEntity
  8
DEFPOINTS
 62
     0
100
AcDbPoint
 10
-20.00000000000003
 20
-55.50000100000002
 30
0.0
  0
ENDBLK
  5
38E2
330
38D7
100
AcDbEntity
  8
0
100
AcDbBlockEnd
  0
BLOCK
  5
3959
330
394F
100
AcDbEntity
  8
0
100
AcDbBlockBegin
  2
*D8
 70
     1
 10
0.0
 20
0.0
 30
0.0
  3
*D8
  1

  0
LINE
  5
45BF
330
394F
100
AcDbEntity
  8
AM_5
100
AcDbLine
 10
-40.00000000000002
 20
-25.00001525878897
 30
0.0
 11
-40.00000000000002
 21
-67.50000100000002
 31
0.0
  0
LINE
  5
45C0
330
394F
100
AcDbEntity
  8
AM_5
100
AcDbLine
 10
-5.800000000000011
 20
-16.75229506583875
 30
0.0
 11
-5.800000000000014
 21
-67.50000100000002
 31
0.0
  0
LINE
  5
45C1
330
394F
100
AcDbEntity
  8
AM_5
100
AcDbLine
 10
-37.50000000000003
 20
-66.50000100000003
 30
0.0
 11
-8.300000000000014
 21
-66.50000100000003
 31
0.0
  0
INSERT
  5
45C2
330
394F
100
AcDbEntity
  8
AM_5
100
AcDbBlockReference
  2
_OPEN30
 10
-40.00000000000002
 20
-66.50000100000003
 30
0.0
 41
2.5
 42
2.5
 43
2.5
 50
180.0
  0
INSERT
  5
45C3
330
394F
100
AcDbEntity
  8
AM_5
100
AcDbBlockReference
  2
_OPEN30
 10
-5.800000000000014
 20
-66.50000100000003
 30
0.0
 41
2.5
 42
2.5
 43
2.5
  0
MTEXT
  5
45C4
330
394F
100
AcDbEntity
  8
AM_5
 62
     2
100
AcDbMText
 10
-22.90000000000002
 20
-63.40000100000002
 30
0.0
 40
3.2
 41
0.0
 71
     5
 72
     1
  1
34.2
  7
ASAMI
  0
POINT
  5
45C5
330
394F
100
AcDbEntity
  8
DEFPOINTS
 62
     0
100
AcDbPoint
 10
-40.00000000000002
 20
-24.00001525878897
 30
0.0
  0
POINT
  5
45C6
330
394F
100
AcDbEntity
  8
DEFPOINTS
 62
     0
100
AcDbPoint
 10
-5.800000000000011
 20
-15.75229506583875
 30
0.0
  0
POINT
  5
45C7
330
394F
100
AcDbEntity
  8
DEFPOINTS
 62
     0
100
AcDbPoint
 10
-5.800000000000014
 20
-66.50000100000003
 30
0.0
  0
ENDBLK
  5
395A
330
394F
100
AcDbEntity
  8
0
100
AcDbBlockEnd
  0
BLOCK
  5
39E0
330
39D6
100
AcDbEntity
  8
0
100
AcDbBlockBegin
  2
*D9
 70
     1
 10
0.0
 20
0.0
 30
0.0
  3
*D9
  1

  0
LINE
  5
45D1
330
39D6
100
AcDbEntity
  8
AM_5
100
AcDbLine
 10
1.0
 20
31.49999999999997
 30
0.0
 11
36.43102507455366
 21
31.49999999999996
 31
0.0
  0
LINE
  5
45D2
330
39D6
100
AcDbEntity
  8
AM_5
100
AcDbLine
 10
1.000000000000113
 20
-31.50000000000003
 30
0.0
 11
36.43102507455364
 21
-31.50000000000003
 31
0.0
  0
LINE
  5
45D3
330
39D6
100
AcDbEntity
  8
AM_5
100
AcDbLine
 10
35.43102507455365
 20
28.99999999999996
 30
0.0
 11
35.43102507455364
 21
-29.00000000000003
 31
0.0
  0
INSERT
  5
45D4
330
39D6
100
AcDbEntity
  8
AM_5
100
AcDbBlockReference
  2
_OPEN30
 10
35.43102507455365
 20
31.49999999999996
 30
0.0
 41
2.5
 42
2.5
 43
2.5
 50
90.0
  0
INSERT
  5
45D5
330
39D6
100
AcDbEntity
  8
AM_5
100
AcDbBlockReference
  2
_OPEN30
 10
35.43102507455364
 20
-31.50000000000003
 30
0.0
 41
2.5
 42
2.5
 43
2.5
 50
270.0
  0
MTEXT
  5
45D6
330
39D6
100
AcDbEntity
  8
AM_5
 62
     2
100
AcDbMText
 10
32.33102507455365
 20
-0.0000000000000338
 30
0.0
 40
3.2
 41
0.0
 71
     5
 72
     1
  1
%%c63
  7
ASAMI
 11
0.0000000000000001
 21
1.0
 31
0.0
  0
POINT
  5
45D7
330
39D6
100
AcDbEntity
  8
DEFPOINTS
 62
     0
100
AcDbPoint
 10
0.0
 20
31.49999999999997
 30
0.0
  0
POINT
  5
45D8
330
39D6
100
AcDbEntity
  8
DEFPOINTS
 62
     0
100
AcDbPoint
 10
0.0000000000001137
 20
-31.50000000000003
 30
0.0
  0
POINT
  5
45D9
330
39D6
100
AcDbEntity
  8
DEFPOINTS
 62
     0
100
AcDbPoint
 10
35.43102507455364
 20
-31.50000000000003
 30
0.0
  0
ENDBLK
  5
39E1
330
39D6
100
AcDbEntity
  8
0
100
AcDbBlockEnd
  0
BLOCK
  5
39EC
330
39E2
100
AcDbEntity
  8
0
100
AcDbBlockBegin
  2
*D10
 70
     1
 10
0.0
 20
0.0
 30
0.0
  3
*D10
  1

  0
LINE
  5
45C8
330
39E2
100
AcDbEntity
  8
AM_5
100
AcDbLine
 10
-6.84273355744105
 20
9.0
 30
0.0
 11
26.43102507455365
 21
8.999999999999991
 31
0.0
  0
LINE
  5
45C9
330
39E2
100
AcDbEntity
  8
AM_5
100
AcDbLine
 10
-6.800001708669128
 20
-9.0
 30
0.0
 11
26.43102507455364
 21
-9.000000000000008
 31
0.0
  0
LINE
  5
45CA
330
39E2
100
AcDbEntity
  8
AM_5
100
AcDbLine
 10
25.43102507455365
 20
6.499999999999991
 30
0.0
 11
25.43102507455365
 21
-6.500000000000008
 31
0.0
  0
INSERT
  5
45CB
330
39E2
100
AcDbEntity
  8
AM_5
100
AcDbBlockReference
  2
_OPEN30
 10
25.43102507455365
 20
8.999999999999991
 30
0.0
 41
2.5
 42
2.5
 43
2.5
 50
90.0
  0
INSERT
  5
45CC
330
39E2
100
AcDbEntity
  8
AM_5
100
AcDbBlockReference
  2
_OPEN30
 10
25.43102507455364
 20
-9.000000000000008
 30
0.0
 41
2.5
 42
2.5
 43
2.5
 50
270.0
  0
MTEXT
  5
45CD
330
39E2
100
AcDbEntity
  8
AM_5
 62
     2
100
AcDbMText
 10
22.33102507455364
 20
-0.0000000000000047
 30
0.0
 40
3.2
 41
0.0
 71
     5
 72
     1
  1
%%c18
  7
ASAMI
 11
0.0000000000000001
 21
1.0
 31
0.0
  0
POINT
  5
45CE
330
39E2
100
AcDbEntity
  8
DEFPOINTS
 62
     0
100
AcDbPoint
 10
-7.84273355744105
 20
9.0
 30
0.0
  0
POINT
  5
45CF
330
39E2
100
AcDbEntity
  8
DEFPOINTS
 62
     0
100
AcDbPoint
 10
-7.800001708669128
 20
-9.0
 30
0.0
  0
POINT
  5
45D0
330
39E2
100
AcDbEntity
  8
DEFPOINTS
 62
     0
100
AcDbPoint
 10
25.43102507455364
 20
-9.000000000000008
 30
0.0
  0
ENDBLK
  5
39ED
330
39E2
100
AcDbEntity
  8
0
100
AcDbBlockEnd
  0
BLOCK
  5
39F8
330
39EE
100
AcDbEntity
  8
0
100
AcDbBlockBegin
  2
*D11
 70
     1
 10
0.0
 20
0.0
 30
0.0
  3
*D11
  1

  0
LINE
  5
45DA
330
39EE
100
AcDbEntity
  8
AM_5
100
AcDbLine
 10
-14.00000000000003
 20
5.5
 30
0.0
 11
16.43102507455364
 21
5.499999999999991
 31
0.0
  0
LINE
  5
45DB
330
39EE
100
AcDbEntity
  8
AM_5
100
AcDbLine
 10
-14.00000000000003
 20
-5.5
 30
0.0
 11
16.43102507455364
 21
-5.500000000000008
 31
0.0
  0
LINE
  5
45DC
330
39EE
100
AcDbEntity
  8
AM_5
100
AcDbLine
 10
15.43102507455364
 20
2.999999999999991
 30
0.0
 11
15.43102507455364
 21
-3.000000000000008
 31
0.0
  0
INSERT
  5
45DD
330
39EE
100
AcDbEntity
  8
AM_5
100
AcDbBlockReference
  2
_OPEN30
 10
15.43102507455365
 20
5.499999999999991
 30
0.0
 41
2.5
 42
2.5
 43
2.5
 50
90.0
  0
INSERT
  5
45DE
330
39EE
100
AcDbEntity
  8
AM_5
100
AcDbBlockReference
  2
_OPEN30
 10
15.43102507455364
 20
-5.500000000000008
 30
0.0
 41
2.5
 42
2.5
 43
2.5
 50
270.0
  0
MTEXT
  5
45DF
330
39EE
100
AcDbEntity
  8
AM_5
 62
     2
100
AcDbMText
 10
12.33102507455364
 20
-0.0000000000000059
 30
0.0
 40
3.2
 41
0.0
 71
     5
 72
     1
  1
%%c11
  7
ASAMI
 11
0.0000000000000001
 21
1.0
 31
0.0
  0
POINT
  5
45E0
330
39EE
100
AcDbEntity
  8
DEFPOINTS
 62
     0
100
AcDbPoint
 10
-15.00000000000002
 20
5.5
 30
0.0
  0
POINT
  5
45E1
330
39EE
100
AcDbEntity
  8
DEFPOINTS
 62
     0
100
AcDbPoint
 10
-15.00000000000002
 20
-5.5
 30
0.0
  0
POINT
  5
45E2
330
39EE
100
AcDbEntity
  8
DEFPOINTS
 62
     0
100
AcDbPoint
 10
15.43102507455364
 20
-5.500000000000008
 30
0.0
  0
ENDBLK
  5
39F9
330
39EE
100
AcDbEntity
  8
0
100
AcDbBlockEnd
  0
BLOCK
  5
3BEB
330
3BE1
100
AcDbEntity
  8
0
100
AcDbBlockBegin
  2
*D12
 70
     1
 10
0.0
 20
0.0
 30
0.0
  3
*D12
  1

  0
LINE
  5
45E3
330
3BE1
100
AcDbEntity
  8
AM_5
100
AcDbLine
 10
-40.00000000000002
 20
-25.00001517136704
 30
0.0
 11
-40.00000000000002
 21
-77.50000100000002
 31
0.0
  0
LINE
  5
45E4
330
3BE1
100
AcDbEntity
  8
AM_5
100
AcDbLine
 10
-0.0000000000000001
 20
-32.50000000000003
 30
0.0
 11
-0.0000000000000028
 21
-77.50000100000002
 31
0.0
  0
LINE
  5
45E5
330
3BE1
100
AcDbEntity
  8
AM_5
100
AcDbLine
 10
-37.50000000000003
 20
-76.50000100000003
 30
0.0
 11
-2.500000000000002
 21
-76.50000100000003
 31
0.0
  0
INSERT
  5
45E6
330
3BE1
100
AcDbEntity
  8
AM_5
100
AcDbBlockReference
  2
_OPEN30
 10
-40.00000000000002
 20
-76.50000100000003
 30
0.0
 41
2.5
 42
2.5
 43
2.5
 50
180.0
  0
INSERT
  5
45E7
330
3BE1
100
AcDbEntity
  8
AM_5
100
AcDbBlockReference
  2
_OPEN30
 10
-0.0000000000000028
 20
-76.50000100000003
 30
0.0
 41
2.5
 42
2.5
 43
2.5
  0
MTEXT
  5
45E8
330
3BE1
100
AcDbEntity
  8
AM_5
 62
     2
100
AcDbMText
 10
-20.00000000000001
 20
-73.40000100000003
 30
0.0
 40
3.2
 41
0.0
 71
     5
 72
     1
  1
40
  7
ASAMI
  0
POINT
  5
45E9
330
3BE1
100
AcDbEntity
  8
DEFPOINTS
 62
     0
100
AcDbPoint
 10
-40.00000000000002
 20
-24.00001517136704
 30
0.0
  0
POINT
  5
45EA
330
3BE1
100
AcDbEntity
  8
DEFPOINTS
 62
     0
100
AcDbPoint
 10
0.0
 20
-31.50000000000003
 30
0.0
  0
POINT
  5
45EB
330
3BE1
100
AcDbEntity
  8
DEFPOINTS
 62
     0
100
AcDbPoint
 10
-0.0000000000000028
 20
-76.50000100000003
 30
0.0
  0
ENDBLK
  5
3BEC
330
3BE1
100
AcDbEntity
  8
0
100
AcDbBlockEnd
  0
BLOCK
  5
3D5E
330
3D52
100
AcDbEntity
  8
0
100
AcDbBlockBegin
  2
*D13
 70
     1
 10
0.0
 20
0.0
 30
0.0
  3
*D13
  1

  0
LINE
  5
45EC
330
3D52
100
AcDbEntity
  8
AM_5
 62
     3
100
AcDbLine
 10
-40.00000000000002
 20
-24.00001525878897
 30
0.0
 11
-40.00000000000002
 21
-46.50000100000002
 31
0.0
  0
LINE
  5
45ED
330
3D52
100
AcDbEntity
  8
AM_5
 62
     3
100
AcDbLine
 10
-33.70000000000001
 20
-11.0
 30
0.0
 11
-33.70000000000001
 21
-46.50000100000002
 31
0.0
  0
LINE
  5
45EE
330
3D52
100
AcDbEntity
  8
AM_5
 62
     3
100
AcDbLine
 10
-42.50000000000002
 20
-45.50000100000002
 30
0.0
 11
-45.00000000000002
 21
-45.50000100000002
 31
0.0
  0
LINE
  5
45EF
330
3D52
100
AcDbEntity
  8
AM_5
 62
     3
100
AcDbLine
 10
-31.20000000000001
 20
-45.50000100000002
 30
0.0
 11
-28.70000000000001
 21
-45.50000100000002
 31
0.0
  0
MTEXT
  5
45F0
330
3D52
100
AcDbEntity
  8
AM_5
 62
     2
100
AcDbMText
 10
-28.47573952635548
 20
-42.24114453150287
 30
0.0
 40
3.799999999999999
 41
0.0
 71
     5
 72
     1
  1
6.3
  0
LINE
  5
45F1
330
3D52
100
AcDbEntity
  8
AM_5
 62
     3
100
AcDbLine
 10
-40.00000000000002
 20
-45.50000100000002
 30
0.0
 11
-33.70000000000001
 21
-45.50000100000002
 31
0.0
  0
INSERT
  5
45F2
330
3D52
100
AcDbEntity
  8
AM_5
 62
     3
100
AcDbBlockReference
  2
_OPEN30
 10
-40.00000000000002
 20
-45.50000100000002
 30
0.0
 41
2.5
 42
2.5
 43
2.5
  0
INSERT
  5
45F3
330
3D52
100
AcDbEntity
  8
AM_5
 62
     3
100
AcDbBlockReference
  2
_OPEN30
 10
-33.70000000000001
 20
-45.50000100000002
 30
0.0
 41
2.5
 42
2.5
 43
2.5
 50
180.0
  0
POINT
  5
45F4
330
3D52
100
AcDbEntity
  8
DEFPOINTS
 62
     0
100
AcDbPoint
 10
-40.00000000000002
 20
-24.00001525878897
 30
0.0
  0
POINT
  5
45F5
330
3D52
100
AcDbEntity
  8
DEFPOINTS
 62
     0
100
AcDbPoint
 10
-33.70000000000001
 20
-11.0
 30
0.0
  0
POINT
  5
45F6
330
3D52
100
AcDbEntity
  8
DEFPOINTS
 62
     0
100
AcDbPoint
 10
-33.70000000000001
 20
-45.50000100000002
 30
0.0
  0
ENDBLK
  5
3D5F
330
3D52
100
AcDbEntity
  8
0
100
AcDbBlockEnd
  0
BLOCK
  5
40CF
330
40C4
100
AcDbEntity
  8
0
100
AcDbBlockBegin
  2
*D14
 70
     1
 10
0.0
 20
0.0
 30
0.0
  3
*D14
  1

  0
LINE
  5
45F7
330
40C4
100
AcDbEntity
  8
AM_5
100
AcDbLine
 10
-40.00001001358032
 20
5.200007629393979
 30
0.0
 11
-56.59360079629536
 21
5.200007629393984
 31
0.0
  0
LINE
  5
45F8
330
40C4
100
AcDbEntity
  8
AM_5
100
AcDbLine
 10
-40.00001001358032
 20
-5.199992370588011
 30
0.0
 11
-56.59360079629536
 21
-5.199992370588007
 31
0.0
  0
LINE
  5
45F9
330
40C4
100
AcDbEntity
  8
AM_5
100
AcDbLine
 10
-55.59360079629535
 20
2.700007629393984
 30
0.0
 11
-55.59360079629535
 21
-2.699992370588007
 31
0.0
  0
INSERT
  5
45FA
330
40C4
100
AcDbEntity
  8
AM_5
100
AcDbBlockReference
  2
_OPEN30
 10
-55.59360079629535
 20
5.200007629393984
 30
0.0
 41
2.5
 42
2.5
 43
2.5
 50
90.0
  0
INSERT
  5
45FB
330
40C4
100
AcDbEntity
  8
AM_5
100
AcDbBlockReference
  2
_OPEN30
 10
-55.59360079629535
 20
-5.199992370588007
 30
0.0
 41
2.5
 42
2.5
 43
2.5
 50
270.0
  0
MTEXT
  5
45FC
330
40C4
100
AcDbEntity
  8
AM_5
 62
     2
100
AcDbMText
 10
-58.69360079629536
 20
0.0000076294029798
 30
0.0
 40
3.2
 41
0.0
 71
     5
 72
     1
  1
10.4
  7
ASAMI
 11
0.0000000000000001
 21
1.0
 31
0.0
  0
POINT
  5
45FD
330
40C4
100
AcDbEntity
  8
DEFPOINTS
 62
     0
100
AcDbPoint
 10
-39.00001001358032
 20
5.200007629393979
 30
0.0
  0
POINT
  5
45FE
330
40C4
100
AcDbEntity
  8
DEFPOINTS
 62
     0
100
AcDbPoint
 10
-39.00001001358031
 20
-5.199992370588011
 30
0.0
  0
POINT
  5
45FF
330
40C4
100
AcDbEntity
  8
DEFPOINTS
 62
     0
100
AcDbPoint
 10
-55.59360079629535
 20
-5.199992370588007
 30
0.0
  0
ENDBLK
  5
40D0
330
40C4
100
AcDbEntity
  8
0
100
AcDbBlockEnd
  0
BLOCK
  5
4330
330
4324
100
AcDbEntity
  8
0
100
AcDbBlockBegin
  2
*D15
 70
     1
 10
0.0
 20
0.0
 30
0.0
  3
*D15
  1

  0
LINE
  5
4600
330
4324
100
AcDbEntity
  8
AM_5
 62
     3
100
AcDbLine
 10
-20.00000000000003
 20
-11.49987792968599
 30
0.0
 11
-20.00000000000003
 21
-56.50000100000003
 31
0.0
  0
LINE
  5
4601
330
4324
100
AcDbEntity
  8
AM_5
 62
     3
100
AcDbLine
 10
-15.00000000000002
 20
-9.0
 30
0.0
 11
-15.00000000000003
 21
-56.50000100000003
 31
0.0
  0
LINE
  5
4602
330
4324
100
AcDbEntity
  8
AM_5
 62
     3
100
AcDbLine
 10
-22.50000000000003
 20
-55.50000100000002
 30
0.0
 11
-25.00000000000003
 21
-55.50000100000002
 31
0.0
  0
LINE
  5
4603
330
4324
100
AcDbEntity
  8
AM_5
 62
     3
100
AcDbLine
 10
-12.50000000000003
 20
-55.50000100000002
 30
0.0
 11
-10.00000000000003
 21
-55.50000100000002
 31
0.0
  0
MTEXT
  5
4604
330
4324
100
AcDbEntity
  8
AM_5
 62
     2
100
AcDbMText
 10
-17.63629162039069
 20
-52.44198868451338
 30
0.0
 40
3.799999999999999
 41
0.0
 71
     5
 72
     1
  1
5
  0
LINE
  5
4605
330
4324
100
AcDbEntity
  8
AM_5
 62
     3
100
AcDbLine
 10
-20.00000000000003
 20
-55.50000100000002
 30
0.0
 11
-15.00000000000003
 21
-55.50000100000002
 31
0.0
  0
INSERT
  5
4606
330
4324
100
AcDbEntity
  8
AM_5
 62
     3
100
AcDbBlockReference
  2
_OPEN30
 10
-20.00000000000003
 20
-55.50000100000002
 30
0.0
 41
2.5
 42
2.5
 43
2.5
  0
INSERT
  5
4607
330
4324
100
AcDbEntity
  8
AM_5
 62
     3
100
AcDbBlockReference
  2
_OPEN30
 10
-15.00000000000003
 20
-55.50000100000002
 30
0.0
 41
2.5
 42
2.5
 43
2.5
 50
180.0
  0
POINT
  5
4608
330
4324
100
AcDbEntity
  8
DEFPOINTS
 62
     0
100
AcDbPoint
 10
-20.00000000000003
 20
-11.49987792968599
 30
0.0
  0
POINT
  5
4609
330
4324
100
AcDbEntity
  8
DEFPOINTS
 62
     0
100
AcDbPoint
 10
-15.00000000000002
 20
-9.0
 30
0.0
  0
POINT
  5
460A
330
4324
100
AcDbEntity
  8
DEFPOINTS
 62
     0
100
AcDbPoint
 10
-15.00000000000003
 20
-55.50000100000002
 30
0.0
  0
ENDBLK
  5
4331
330
4324
100
AcDbEntity
  8
0
100
AcDbBlockEnd
  0
ENDSEC
  0
SECTION
  2
ENTITIES
  0
TEXT
  5
E5A
330
1F
100
AcDbEntity
  8
AM_6
100
AcDbText
 10
-40.95238095238095
 20
-108.000001
 30
0.0
 40
5.0
  1
WRC16063R
 72
     4
 11
-20.0
 21
-105.500001
 31
0.0
100
AcDbText
  0
LINE
  5
36DB
330
1F
100
AcDbEntity
  8
AM_0
  6
CONTINUOUS
 48
0.5
100
AcDbLine
 10
-33.70000762939005
 20
-5.199951171862011
 30
0.0
 11
-33.70000000000001
 21
5.200007629393979
 31
0.0
  0
LINE
  5
36DC
330
1F
100
AcDbEntity
  8
AM_0
  6
CONTINUOUS
 48
0.5
100
AcDbLine
 10
-20.00000000000003
 20
-11.49987792968599
 30
0.0
 11
-20.00000000000003
 21
11.49989318847701
 31
0.0
  0
LINE
  5
36DD
330
1F
100
AcDbEntity
  8
AM_0
  6
CONTINUOUS
 48
0.5
100
AcDbLine
 10
-23.00017404556334
 20
-11.49999237060998
 30
0.0
 11
-23.00017404556334
 21
11.5
 31
0.0
  0
LINE
  5
36DE
330
1F
100
AcDbEntity
  8
AM_0
  6
CONTINUOUS
 48
0.5
100
AcDbLine
 10
-1.0
 20
-19.49448925279457
 30
0.0
 11
-1.0
 21
19.49448394775399
 31
0.0
  0
LINE
  5
36DF
330
1F
100
AcDbEntity
  8
AM_0
  6
CONTINUOUS
 48
0.5
100
AcDbLine
 10
-5.800000000000011
 20
-15.75229506583875
 30
0.0
 11
-5.800000000000011
 21
10.99999932845796
 31
0.0
  0
LINE
  5
36E0
330
1F
100
AcDbEntity
  8
AM_0
  6
CONTINUOUS
 48
0.5
100
AcDbLine
 10
-15.00000000000002
 20
-9.0
 30
0.0
 11
-15.00000000000002
 21
9.0
 31
0.0
  0
LINE
  5
36E1
330
1F
100
AcDbEntity
  8
AM_0
  6
CONTINUOUS
 48
0.5
100
AcDbLine
 10
-32.90000391006532
 20
-11.0
 30
0.0
 11
-32.90000391006532
 21
11.0
 31
0.0
  0
LINE
  5
36E4
330
1F
100
AcDbEntity
  8
AM_0
  6
CONTINUOUS
 48
0.5
100
AcDbLine
 10
-40.00000238418635
 20
-11.99999237060998
 30
0.0
 11
-40.00000000000002
 21
-24.00001517136704
 31
0.0
  0
LINE
  5
36E5
330
1F
100
AcDbEntity
  8
AM_0
  6
CONTINUOUS
 48
0.5
100
AcDbLine
 10
-40.00000238418635
 20
-11.99999237060998
 30
0.0
 11
-40.0000100135764
 21
-6.199943542476006
 31
0.0
  0
LINE
  5
36E6
330
1F
100
AcDbEntity
  8
AM_0
  6
CONTINUOUS
 48
0.5
100
AcDbLine
 10
-39.00001764292619
 20
-5.199992370609976
 30
0.0
 11
-39.00001001358032
 21
-11.00000762939998
 31
0.0
  0
LINE
  5
36E7
330
1F
100
AcDbEntity
  8
AM_0
  6
CONTINUOUS
 48
0.5
100
AcDbLine
 10
-23.00017404556334
 20
-11.49999237060998
 30
0.0
 11
-20.00000000000003
 21
-11.49987792968599
 31
0.0
  0
LINE
  5
36E8
330
1F
100
AcDbEntity
  8
AM_0
  6
CONTINUOUS
 48
0.5
100
AcDbLine
 10
-15.00000000000002
 20
-9.0
 30
0.0
 11
-7.800001621246337
 21
-9.0
 31
0.0
  0
LINE
  5
36E9
330
1F
100
AcDbEntity
  8
AM_0
  6
CONTINUOUS
 48
0.5
100
AcDbLine
 10
-39.00001001358032
 20
-11.0
 30
0.0
 11
-23.00017404556334
 21
-11.0
 31
0.0
  0
ARC
  5
36EA
330
1F
100
AcDbEntity
  8
AM_0
  6
CONTINUOUS
 48
0.5
100
AcDbCircle
 10
-39.00001001358032
 20
-11.99999237060998
 30
0.0
 40
0.9999899864197001
100
AcDbArc
 50
89.99999567428931
 51
179.9999913485786
  0
ARC
  5
36EB
330
1F
100
AcDbEntity
  8
AM_0
  6
CONTINUOUS
 48
0.5
100
AcDbCircle
 10
-7.800001957017485
 20
-11.00000195701787
 30
0.0
 40
2.000001957017887
100
AcDbArc
 50
0.0000368261338979
 51
89.99999288535061
  0
LINE
  5
36EC
330
1F
100
AcDbEntity
  8
AM_0
  6
CONTINUOUS
 48
0.5
100
AcDbLine
 10
-33.70000762939005
 20
-5.199984741215985
 30
0.0
 11
-39.00002527236537
 21
-5.199992370609976
 31
0.0
  0
LINE
  5
36ED
330
1F
100
AcDbEntity
  8
AM_0
  6
CONTINUOUS
 48
0.5
100
AcDbLine
 10
-39.00001764297036
 20
-5.199992370609976
 30
0.0
 11
-40.0000100135764
 21
-6.199984741219992
 31
0.0
  0
LINE
  5
36EE
330
1F
100
AcDbEntity
  8
AM_0
  6
CONTINUOUS
 48
0.5
100
AcDbLine
 10
-20.00000000000003
 20
-5.500000000000028
 30
0.0
 11
-15.00000000000002
 21
-5.5
 31
0.0
  0
LINE
  5
36EF
330
1F
100
AcDbEntity
  8
AM_0
  6
CONTINUOUS
 48
0.5
100
AcDbLine
 10
-40.00000238418635
 20
14.182861328125
 30
0.0
 11
-40.00000238418635
 21
24.00001525878897
 31
0.0
  0
LINE
  5
36F0
330
1F
100
AcDbEntity
  8
AM_0
  6
CONTINUOUS
 48
0.5
100
AcDbLine
 10
-14.78207015991199
 20
18.96836090087899
 30
0.0
 11
-15.99999618530302
 21
21.90869903564495
 31
0.0
  0
LINE
  5
36F1
330
1F
100
AcDbEntity
  8
AM_0
  6
CONTINUOUS
 48
0.5
100
AcDbLine
 10
0.0
 20
21.90869903564495
 30
0.0
 11
-1.217929840088004
 21
18.96836090087899
 31
0.0
  0
CIRCLE
  5
36F2
330
1F
100
AcDbEntity
  8
AM_0
  6
CONTINUOUS
 48
0.5
100
AcDbCircle
 10
-8.0
 20
23.49999999999997
 30
0.0
 40
4.0
  0
LINE
  5
36F3
330
1F
100
AcDbEntity
  8
AM_0
  6
CONTINUOUS
 48
0.5
100
AcDbLine
 10
-40.00000238418635
 20
6.199992370604974
 30
0.0
 11
-40.00000238418635
 21
18.999809265137
 31
0.0
  0
LINE
  5
36F4
330
1F
100
AcDbEntity
  8
AM_0
  6
CONTINUOUS
 48
0.5
100
AcDbLine
 10
-39.00001001358032
 20
10.99999237060498
 30
0.0
 11
-39.00001001358032
 21
5.200007629393979
 31
0.0
  0
ARC
  5
36F5
330
1F
100
AcDbEntity
  8
AM_0
  6
CONTINUOUS
 48
0.5
100
AcDbCircle
 10
-7.800000810623458
 20
11.00000081062378
 30
0.0
 40
2.00000081062399
100
AcDbArc
 50
269.999974272897
 51
359.9999575390939
  0
LINE
  5
36F6
330
1F
100
AcDbEntity
  8
AM_7
  6
AM_ISO08W050
100
AcDbLine
 10
1.431024074553647
 20
0.0
 30
0.0
 11
-41.59359979629534
 21
0.0
 31
0.0
  0
LINE
  5
36F7
330
1F
100
AcDbEntity
  8
AM_0
  6
CONTINUOUS
 48
0.5
100
AcDbLine
 10
-33.70000000000001
 20
5.200015258787971
 30
0.0
 11
-39.00001001358032
 21
5.200007629393979
 31
0.0
  0
LINE
  5
36F8
330
1F
100
AcDbEntity
  8
AM_0
  6
CONTINUOUS
 48
0.5
100
AcDbLine
 10
-40.00000238418635
 20
6.199992370604974
 30
0.0
 11
-39.00001001358032
 21
5.200007629393979
 31
0.0
  0
LINE
  5
36F9
330
1F
100
AcDbEntity
  8
AM_0
  6
CONTINUOUS
 48
0.5
100
AcDbLine
 10
-15.00000000000002
 20
9.0
 30
0.0
 11
-7.800001621246337
 21
9.0
 31
0.0
  0
LINE
  5
36FA
330
1F
100
AcDbEntity
  8
AM_0
  6
CONTINUOUS
 48
0.5
100
AcDbLine
 10
-20.00000000000003
 20
5.5
 30
0.0
 11
-15.00000000000002
 21
5.5
 31
0.0
  0
LINE
  5
36FB
330
1F
100
AcDbEntity
  8
AM_0
  6
CONTINUOUS
 48
0.5
100
AcDbLine
 10
-9.591300964355014
 20
15.49999999999997
 30
0.0
 11
-12.53163909912101
 21
16.71792602539099
 31
0.0
  0
LINE
  5
36FC
330
1F
100
AcDbEntity
  8
AM_0
  6
CONTINUOUS
 48
0.5
100
AcDbLine
 10
-3.468368530273011
 20
16.71792602539099
 30
0.0
 11
-6.408701229095669
 21
15.49999932845793
 31
0.0
  0
LINE
  5
36FD
330
1F
100
AcDbEntity
  8
AM_0
  6
CONTINUOUS
 48
0.5
100
AcDbLine
 10
-5.800000000000011
 20
10.99999932845796
 30
0.0
 11
-5.800000000000011
 21
15.75229577621198
 31
0.0
  0
LINE
  5
36FE
330
1F
100
AcDbEntity
  8
AM_0
  6
CONTINUOUS
 48
0.5
100
AcDbLine
 10
-23.00017404556334
 20
11.5
 30
0.0
 11
-20.00000000000003
 21
11.49989318847701
 31
0.0
  0
LINE
  5
36FF
330
1F
100
AcDbEntity
  8
AM_0
  6
CONTINUOUS
 48
0.5
100
AcDbLine
 10
-39.00001001358032
 20
11.0
 30
0.0
 11
-23.00017404556334
 21
11.0
 31
0.0
  0
LINE
  5
3700
330
1F
100
AcDbEntity
  8
AM_0
  6
CONTINUOUS
 48
0.5
100
AcDbLine
 10
-6.408701229095669
 20
15.49999932845793
 30
0.0
 11
-9.591300964355014
 21
15.49999999999997
 31
0.0
  0
ARC
  5
3701
330
1F
100
AcDbEntity
  8
AM_0
  6
CONTINUOUS
 48
0.5
100
AcDbCircle
 10
-39.00010117816816
 20
11.99990120197907
 30
0.0
 40
0.9998988219565706
100
AcDbArc
 50
180.0009050148841
 51
270.0052282007776
  0
LINE
  5
3702
330
1F
100
AcDbEntity
  8
AM_0
  6
CONTINUOUS
 48
0.5
100
AcDbLine
 10
-12.53163909912101
 20
16.71792602539099
 30
0.0
 11
-14.782073974609
 21
18.96836090087899
 31
0.0
  0
LINE
  5
3703
330
1F
100
AcDbEntity
  8
AM_0
  6
CONTINUOUS
 48
0.5
100
AcDbLine
 10
-1.217929840088004
 20
18.96836090087899
 30
0.0
 11
-3.468364715576001
 21
16.71792602539099
 31
0.0
  0
LINE
  5
3704
330
1F
100
AcDbEntity
  8
AM_0
  6
CONTINUOUS
 48
0.5
100
AcDbLine
 10
-16.000003814697
 20
25.09154510497995
 30
0.0
 11
-14.782073974609
 21
28.03163909912098
 31
0.0
  0
LINE
  5
3705
330
1F
100
AcDbEntity
  8
AM_0
  6
CONTINUOUS
 48
0.5
100
AcDbLine
 10
-1.217929840088004
 20
28.03163146972698
 30
0.0
 11
0.0
 21
25.09130096435598
 31
0.0
  0
LINE
  5
3706
330
1F
100
AcDbEntity
  8
AM_0
  6
CONTINUOUS
 48
0.5
100
AcDbLine
 10
-16.00039148330734
 20
25.0
 30
0.0
 11
-39.00001001358032
 21
25.0
 31
0.0
  0
LINE
  5
3707
330
1F
100
AcDbEntity
  8
AM_0
  6
CONTINUOUS
 48
0.5
100
AcDbLine
 10
-16.0
 20
21.90869903564495
 30
0.0
 11
-16.0
 21
25.09155273437497
 31
0.0
  0
LINE
  5
3708
330
1F
100
AcDbEntity
  8
AM_0
  6
CONTINUOUS
 48
0.5
100
AcDbLine
 10
0.0
 20
25.09130096435598
 30
0.0
 11
0.0
 21
21.90869903564495
 31
0.0
  0
ARC
  5
3709
330
1F
100
AcDbEntity
  8
AM_0
  6
CONTINUOUS
 48
0.5
100
AcDbCircle
 10
-39.00001001358032
 20
24.00001525878897
 30
0.0
 40
0.9999899864197001
100
AcDbArc
 50
89.99999567428931
 51
180.0000050089585
  0
LINE
  5
370A
330
1F
100
AcDbEntity
  8
AM_0
  6
CONTINUOUS
 48
0.5
100
AcDbLine
 10
-1.217929840088004
 20
28.03163146972698
 30
0.0
 11
-3.468368530273011
 21
30.28207397460997
 31
0.0
  0
LINE
  5
370B
330
1F
100
AcDbEntity
  8
AM_0
  6
CONTINUOUS
 48
0.5
100
AcDbLine
 10
-3.468368530273011
 20
30.28207397460997
 30
0.0
 11
-6.408702850341995
 21
31.49999999999997
 31
0.0
  0
LINE
  5
370C
330
1F
100
AcDbEntity
  8
AM_0
  6
CONTINUOUS
 48
0.5
100
AcDbLine
 10
-9.591300964355014
 20
31.49999999999997
 30
0.0
 11
-6.408702850341995
 21
31.49999999999997
 31
0.0
  0
LINE
  5
370D
330
1F
100
AcDbEntity
  8
AM_0
  6
CONTINUOUS
 48
0.5
100
AcDbLine
 10
-12.53163528442399
 20
30.28207397460997
 30
0.0
 11
-9.591300964355014
 21
31.49999999999997
 31
0.0
  0
LINE
  5
370E
330
1F
100
AcDbEntity
  8
AM_0
  6
CONTINUOUS
 48
0.5
100
AcDbLine
 10
-14.78207015991199
 20
28.03163909912098
 30
0.0
 11
-12.53163909912101
 21
30.28207397460997
 31
0.0
  0
LINE
  5
37FC
330
1F
100
AcDbEntity
  8
AM_0
  6
CONTINUOUS
 48
0.5
100
AcDbLine
 10
-16.00039148330734
 20
-25.0
 30
0.0
 11
-39.00001001358032
 21
-25.0
 31
0.0
  0
ARC
  5
37FD
330
1F
100
AcDbEntity
  8
AM_0
  6
CONTINUOUS
 48
0.5
100
AcDbCircle
 10
-39.00001001358032
 20
-24.00001525878897
 30
0.0
 40
0.9999899864197001
100
AcDbArc
 50
179.9999949910414
 51
270.0000043257106
  0
LINE
  5
3800
330
1F
100
AcDbEntity
  8
AM_0
  6
CONTINUOUS
 48
0.5
100
AcDbLine
 10
-1.217929840088004
 20
-28.03163146972704
 30
0.0
 11
-3.468368530273011
 21
-30.28207397461002
 31
0.0
  0
LINE
  5
3801
330
1F
100
AcDbEntity
  8
AM_0
  6
CONTINUOUS
 48
0.5
100
AcDbLine
 10
-1.217929840088004
 20
-18.96836090087904
 30
0.0
 11
-3.468364715576001
 21
-16.71792602539105
 31
0.0
  0
LINE
  5
3802
330
1F
100
AcDbEntity
  8
AM_0
  6
CONTINUOUS
 48
0.5
100
AcDbLine
 10
-14.78207015991199
 20
-18.96836090087904
 30
0.0
 11
-15.99999618530302
 21
-21.90869903564501
 31
0.0
  0
LINE
  5
3803
330
1F
100
AcDbEntity
  8
AM_0
  6
CONTINUOUS
 48
0.5
100
AcDbLine
 10
-12.53163909912101
 20
-16.71792602539105
 30
0.0
 11
-14.782073974609
 21
-18.96836090087904
 31
0.0
  0
LINE
  5
3804
330
1F
100
AcDbEntity
  8
AM_0
  6
CONTINUOUS
 48
0.5
100
AcDbLine
 10
-6.408701229095669
 20
-15.50000067154206
 30
0.0
 11
-9.591300964355014
 21
-15.50000000000002
 31
0.0
  0
LINE
  5
3805
330
1F
100
AcDbEntity
  8
AM_0
  6
CONTINUOUS
 48
0.5
100
AcDbLine
 10
-9.591300964355014
 20
-15.50000000000002
 30
0.0
 11
-12.53163909912101
 21
-16.71792602539105
 31
0.0
  0
LINE
  5
3806
330
1F
100
AcDbEntity
  8
AM_0
  6
CONTINUOUS
 48
0.5
100
AcDbLine
 10
-3.468368530273011
 20
-16.71792602539105
 30
0.0
 11
-6.408701229095669
 21
-15.50000067154206
 31
0.0
  0
LINE
  5
3807
330
1F
100
AcDbEntity
  8
AM_0
  6
CONTINUOUS
 48
0.5
100
AcDbLine
 10
-14.78207015991199
 20
-28.03163909912104
 30
0.0
 11
-12.53163909912101
 21
-30.28207397461002
 31
0.0
  0
LINE
  5
3808
330
1F
100
AcDbEntity
  8
AM_0
  6
CONTINUOUS
 48
0.5
100
AcDbLine
 10
-16.000003814697
 20
-25.09154510498001
 30
0.0
 11
-14.782073974609
 21
-28.03163909912104
 31
0.0
  0
LINE
  5
3809
330
1F
100
AcDbEntity
  8
AM_0
  6
CONTINUOUS
 48
0.5
100
AcDbLine
 10
-16.0
 20
-21.90869903564501
 30
0.0
 11
-16.0
 21
-25.09155273437503
 31
0.0
  0
CIRCLE
  5
380A
330
1F
100
AcDbEntity
  8
AM_0
  6
CONTINUOUS
 48
0.5
100
AcDbCircle
 10
-8.0
 20
-23.50000000000002
 30
0.0
 40
4.0
  0
LINE
  5
380B
330
1F
100
AcDbEntity
  8
AM_0
  6
CONTINUOUS
 48
0.5
100
AcDbLine
 10
-9.591300964355014
 20
-31.50000000000003
 30
0.0
 11
-6.408702850341995
 21
-31.50000000000003
 31
0.0
  0
LINE
  5
380C
330
1F
100
AcDbEntity
  8
AM_0
  6
CONTINUOUS
 48
0.5
100
AcDbLine
 10
-12.53163528442399
 20
-30.28207397461002
 30
0.0
 11
-9.591300964355014
 21
-31.50000000000003
 31
0.0
  0
LINE
  5
380D
330
1F
100
AcDbEntity
  8
AM_0
  6
CONTINUOUS
 48
0.5
100
AcDbLine
 10
-3.468368530273011
 20
-30.28207397461002
 30
0.0
 11
-6.408702850341995
 21
-31.50000000000003
 31
0.0
  0
LINE
  5
380E
330
1F
100
AcDbEntity
  8
AM_0
  6
CONTINUOUS
 48
0.5
100
AcDbLine
 10
0.0
 20
-21.90869903564501
 30
0.0
 11
-1.217929840088004
 21
-18.96836090087904
 31
0.0
  0
LINE
  5
380F
330
1F
100
AcDbEntity
  8
AM_0
  6
CONTINUOUS
 48
0.5
100
AcDbLine
 10
-1.217929840088004
 20
-28.03163146972704
 30
0.0
 11
0.0
 21
-25.09130096435603
 31
0.0
  0
LINE
  5
3810
330
1F
100
AcDbEntity
  8
AM_0
  6
CONTINUOUS
 48
0.5
100
AcDbLine
 10
0.0
 20
-25.09130096435603
 30
0.0
 11
0.0
 21
-21.90869903564501
 31
0.0
  0
LINE
  5
3819
330
1F
100
AcDbEntity
  8
AM_11
100
AcDbLine
 10
-6.408702850341995
 20
31.49999999999997
 30
0.0
 11
0.0
 21
31.49999999999997
 31
0.0
  0
LINE
  5
381E
330
1F
100
AcDbEntity
  8
AM_11
100
AcDbLine
 10
-6.408702850341995
 20
-31.50000000000003
 30
0.0
 11
0.0
 21
-31.50000000000003
 31
0.0
  0
LINE
  5
3828
330
1F
100
AcDbEntity
  8
AM_11
100
AcDbLine
 10
0.0
 20
-31.50000000000003
 30
0.0
 11
0.0
 21
31.49999999999997
 31
0.0
  0
DIMENSION
  5
382D
330
1F
100
AcDbEntity
  8
AM_5
100
AcDbDimension
  2
*D6
 10
-75.59360079629539
 20
-24.99999999999998
 30
0.0
 11
-78.69360079629538
 21
0.0000000000000015
 31
0.0
 70
    32
  1
%%c<>
  3
AM_JIS$0
100
AcDbAlignedDimension
 13
-39.00000690976054
 23
25.0
 33
0.0
 14
-39.00001001358032
 24
-25.0
 34
0.0
 50
270.0
100
AcDbRotatedDimension
1001
GENIUS_GENDTOL_13
1000

1000
h7
1000

1040
0.0
1001
ACAD
1000
DSTYLE
1002
{
1070
   287
1070
     3
1070
    42
1040
1.0
1070
    43
1040
12.0
1070
    48
1040
0.1
1070
    78
1070
     8
1070
   140
1040
3.2
1070
   176
1070
   256
1070
   177
1070
   256
1070
   271
1070
     3
1070
   272
1070
     3
1070
   275
1070
     0
1070
   284
1070
     0
1070
   289
1070
     3
1070
   340
1005
6B
1070
   371
1070
    -1
1070
   372
1070
    -1
1002
}
  0
DIMENSION
  5
382E
330
1F
100
AcDbEntity
  8
AM_5
100
AcDbDimension
  2
*D5
 10
-65.59360079629539
 20
-10.99999999999999
 30
0.0
 11
-68.69360079629538
 21
-0.0000000000000027
 31
0.0
 70
    32
  1
%%c<>
  3
AM_JIS$0
100
AcDbAlignedDimension
 13
-39.00001001358032
 23
11.0
 33
0.0
 14
-39.00001001358032
 24
-11.0
 34
0.0
 50
270.0
100
AcDbRotatedDimension
1001
GENIUS_GENDTOL_13
1000

1000
h7
1000

1040
0.0
1001
ACAD
1000
DSTYLE
1002
{
1070
   287
1070
     3
1070
    42
1040
1.0
1070
    43
1040
12.0
1070
    48
1040
0.1
1070
    78
1070
     8
1070
   140
1040
3.2
1070
   176
1070
   256
1070
   177
1070
   256
1070
   271
1070
     3
1070
   272
1070
     3
1070
   275
1070
     0
1070
   284
1070
     0
1070
   289
1070
     3
1070
   340
1005
6B
1070
   371
1070
    -1
1070
   372
1070
    -1
1002
}
  0
DIMENSION
  5
38C6
330
1F
100
AcDbEntity
  8
AM_5
100
AcDbDimension
  2
*D7
 10
-20.00000000000003
 20
-55.50000100000002
 30
0.0
 11
-30.00000000000003
 21
-52.40000100000003
 31
0.0
 70
    32
  1
<>
  3
AM_JIS$0
100
AcDbAlignedDimension
 13
-40.00000000000002
 23
-24.00001517136704
 33
0.0
 14
-20.00000000000003
 24
-11.49987792968599
 34
0.0
100
AcDbRotatedDimension
1001
GENIUS_GENDTOL_13
1000

1000
h7
1000

1040
0.0
1001
ACAD
1000
DSTYLE
1002
{
1070
   287
1070
     3
1070
    42
1040
1.0
1070
    43
1040
12.0
1070
    48
1040
0.1
1070
    78
1070
     8
1070
   140
1040
3.2
1070
   176
1070
   256
1070
   177
1070
   256
1070
   271
1070
     3
1070
   272
1070
     3
1070
   275
1070
     0
1070
   284
1070
     0
1070
   289
1070
     3
1070
   340
1005
6B
1070
   371
1070
    -1
1070
   372
1070
    -1
1002
}
  0
DIMENSION
  5
394E
330
1F
100
AcDbEntity
  8
AM_5
100
AcDbDimension
  2
*D8
 10
-5.800000000000014
 20
-66.50000100000003
 30
0.0
 11
-22.90000000000002
 21
-63.40000100000002
 31
0.0
 70
    32
  1
<>
  3
AM_JIS$0
100
AcDbAlignedDimension
 13
-40.00000000000002
 23
-24.00001525878897
 33
0.0
 14
-5.800000000000011
 24
-15.75229506583875
 34
0.0
100
AcDbRotatedDimension
1001
GENIUS_GENDTOL_13
1000

1000
h7
1000

1040
0.0
1001
ACAD
1000
DSTYLE
1002
{
1070
   287
1070
     3
1070
    42
1040
1.0
1070
    43
1040
12.0
1070
    48
1040
0.1
1070
    78
1070
     8
1070
   140
1040
3.2
1070
   176
1070
   256
1070
   177
1070
   256
1070
   271
1070
     3
1070
   272
1070
     3
1070
   275
1070
     0
1070
   284
1070
     0
1070
   289
1070
     3
1070
   340
1005
6B
1070
   371
1070
    -1
1070
   372
1070
    -1
1002
}
  0
DIMENSION
  5
39D3
330
1F
100
AcDbEntity
  8
AM_5
100
AcDbDimension
  2
*D10
 10
25.43102507455364
 20
-9.000000000000008
 30
0.0
 11
22.33102507455364
 21
-0.0000000000000047
 31
0.0
 70
    32
  1
%%c<>
  3
AM_JIS$0
100
AcDbAlignedDimension
 13
-7.84273355744105
 23
9.0
 33
0.0
 14
-7.800001708669128
 24
-9.0
 34
0.0
 50
90.0
100
AcDbRotatedDimension
1001
GENIUS_GENDTOL_13
1000

1000
h7
1000

1040
0.0
1001
ACAD
1000
DSTYLE
1002
{
1070
   287
1070
     3
1070
    42
1040
1.0
1070
    43
1040
12.0
1070
    48
1040
0.1
1070
    78
1070
     8
1070
   140
1040
3.2
1070
   176
1070
   256
1070
   177
1070
   256
1070
   271
1070
     3
1070
   272
1070
     3
1070
   275
1070
     0
1070
   284
1070
     0
1070
   289
1070
     3
1070
   340
1005
6B
1070
   371
1070
    -1
1070
   372
1070
    -1
1002
}
  0
DIMENSION
  5
39D4
330
1F
100
AcDbEntity
  8
AM_5
100
AcDbDimension
  2
*D9
 10
35.43102507455364
 20
-31.50000000000003
 30
0.0
 11
32.33102507455365
 21
-0.0000000000000338
 31
0.0
 70
    32
  1
%%c<>
  3
AM_JIS$0
100
AcDbAlignedDimension
 13
0.0
 23
31.49999999999997
 33
0.0
 14
0.0000000000001137
 24
-31.50000000000003
 34
0.0
 50
90.0
100
AcDbRotatedDimension
1001
GENIUS_GENDTOL_13
1000

1000
h7
1000

1040
0.0
1001
ACAD
1000
DSTYLE
1002
{
1070
   287
1070
     3
1070
    42
1040
1.0
1070
    43
1040
12.0
1070
    48
1040
0.1
1070
    78
1070
     8
1070
   140
1040
3.2
1070
   176
1070
   256
1070
   177
1070
   256
1070
   271
1070
     3
1070
   272
1070
     3
1070
   275
1070
     0
1070
   284
1070
     0
1070
   289
1070
     3
1070
   340
1005
6B
1070
   371
1070
    -1
1070
   372
1070
    -1
1002
}
  0
DIMENSION
  5
39D5
330
1F
100
AcDbEntity
  8
AM_5
100
AcDbDimension
  2
*D11
 10
15.43102507455364
 20
-5.500000000000008
 30
0.0
 11
12.33102507455364
 21
-0.0000000000000059
 31
0.0
 70
    32
  1
%%c<>
  3
AM_JIS$0
100
AcDbAlignedDimension
 13
-15.00000000000002
 23
5.5
 33
0.0
 14
-15.00000000000002
 24
-5.5
 34
0.0
 50
90.0
100
AcDbRotatedDimension
1001
GENIUS_GENDTOL_13
1000

1000
h7
1000

1040
0.0
1001
ACAD
1000
DSTYLE
1002
{
1070
   287
1070
     3
1070
    42
1040
1.0
1070
    43
1040
12.0
1070
    48
1040
0.1
1070
    78
1070
     8
1070
   140
1040
3.2
1070
   176
1070
   256
1070
   177
1070
   256
1070
   271
1070
     3
1070
   272
1070
     3
1070
   275
1070
     0
1070
   284
1070
     0
1070
   289
1070
     3
1070
   340
1005
6B
1070
   371
1070
    -1
1070
   372
1070
    -1
1002
}
  0
DIMENSION
  5
3BE0
330
1F
100
AcDbEntity
  8
AM_5
100
AcDbDimension
  2
*D12
 10
-0.0000000000000028
 20
-76.50000100000003
 30
0.0
 11
-20.00000000000001
 21
-73.40000100000003
 31
0.0
 70
    32
  1
<>
  3
AM_JIS$0
100
AcDbAlignedDimension
 13
-40.00000000000002
 23
-24.00001517136704
 33
0.0
 14
0.0
 24
-31.50000000000003
 34
0.0
100
AcDbRotatedDimension
1001
GENIUS_GENDTOL_13
1000

1000
h7
1000

1040
0.0
1001
ACAD
1000
DSTYLE
1002
{
1070
   287
1070
     3
1070
    42
1040
1.0
1070
    43
1040
12.0
1070
    48
1040
0.1
1070
    78
1070
     8
1070
   140
1040
3.2
1070
   176
1070
   256
1070
   177
1070
   256
1070
   271
1070
     3
1070
   272
1070
     3
1070
   275
1070
     0
1070
   284
1070
     0
1070
   289
1070
     3
1070
   340
1005
6B
1070
   371
1070
    -1
1070
   372
1070
    -1
1002
}
  0
DIMENSION
  5
3D51
330
1F
100
AcDbEntity
  8
AM_5
100
AcDbDimension
  2
*D13
 10
-33.70000000000001
 20
-45.50000100000002
 30
0.0
 11
-28.47573952635548
 21
-42.24114453150287
 31
0.0
 70
   160
  1
<>
  3
AM_JIS$0
100
AcDbAlignedDimension
 13
-40.00000000000002
 23
-24.00001525878897
 33
0.0
 14
-33.70000000000001
 24
-11.0
 34
0.0
100
AcDbRotatedDimension
1001
GENIUS_GENDTOL_13
1000

1000
h7
1000

1040
0.0
1001
ACAD
1000
DSTYLE
1002
{
1070
   287
1070
     5
1070
   271
1070
     1
1070
   279
1070
     2
1002
}
  0
DIMENSION
  5
40C3
330
1F
100
AcDbEntity
  8
AM_5
100
AcDbDimension
  2
*D14
 10
-55.59360079629535
 20
-5.199992370588007
 30
0.0
 11
-55.59360079629535
 21
0.0000076294029795
 31
0.0
 70
   160
  1
<>
  3
AM_JIS$0
100
AcDbAlignedDimension
 13
-39.00001001358032
 23
5.200007629393979
 33
0.0
 14
-39.00001001358031
 24
-5.199992370588011
 34
0.0
 50
270.0
100
AcDbRotatedDimension
1001
GENIUS_GENDTOL_13
1000

1000
h7
1000

1040
0.0
1001
ACAD
1000
DSTYLE
1002
{
1070
   287
1070
     3
1070
    42
1040
1.0
1070
    43
1040
12.0
1070
    48
1040
0.1
1070
    78
1070
     8
1070
   140
1040
3.2
1070
   176
1070
   256
1070
   177
1070
   256
1070
   271
1070
     3
1070
   272
1070
     3
1070
   275
1070
     0
1070
   284
1070
     0
1070
   289
1070
     3
1070
   340
1005
6B
1070
   371
1070
    -1
1070
   372
1070
    -1
1002
}
  0
DIMENSION
  5
4323
330
1F
100
AcDbEntity
  8
AM_5
100
AcDbDimension
  2
*D15
 10
-15.00000000000003
 20
-55.50000100000002
 30
0.0
 11
-17.63629162039069
 21
-52.44198868451338
 31
0.0
 70
   160
  1
<>
  3
AM_JIS$0
100
AcDbAlignedDimension
 13
-20.00000000000003
 23
-11.49987792968599
 33
0.0
 14
-15.00000000000002
 24
-9.0
 34
0.0
 50
0.0000000000001132
100
AcDbRotatedDimension
1001
GENIUS_GENDTOL_13
1000

1000
h7
1000

1040
0.0
1001
ACAD
1000
DSTYLE
1002
{
1070
   287
1070
     5
1070
    77
1070
     0
1070
   271
1070
     0
1070
   279
1070
     2
1002
}
  0
VIEWPORT
  5
110
330
101
100
AcDbEntity
 67
     1
  8
0
100
AcDbViewport
 10
420.5
 20
297.0
 30
0.0
 40
948.9782706766916
 41
628.452
 68
     1
 69
     1
1001
ACAD
1000
MVIEW
1002
{
1070
    16
1010
0.0
1020
0.0
1030
0.0
1010
0.0
1020
0.0
1030
1.0
1040
0.0
1040
628.452
1040
420.5
1040
297.0
1040
50.0
1040
0.0
1040
0.0
1070
     0
1070
   100
1070
     1
1070
     1
1070
     0
1070
     0
1070
     0
1070
     0
1040
0.0
1040
0.0
1040
0.0
1040
10.0
1040
10.0
1040
10.0
1040
10.0
1070
     0
1002
{
1002
}
1002
}
  0
ENDSEC
  0
SECTION
  2
OBJECTS
  0
DICTIONARY
  5
C
330
0
100
AcDbDictionary
  3
ACAD_GROUP
350
D
  3
ACAD_LAYOUT
350
1A
  3
ACAD_MLINESTYLE
350
17
  3
ACAD_PLOTSETTINGS
350
19
  3
ACAD_PLOTSTYLENAME
350
E
  3
ACDBVARIABLEDICTIONARY
350
34
  3
ACMDICTIONARY
350
43
  3
AMG
350
2B
  3
AMGSNAPSETTINGS
350
6E
  3
DWGPROPS
350
456E
  3
ACDBHEADERROUNDTRIPXREC
350
457A
  0
DICTIONARY
  5
74
330
1F
100
AcDbDictionary
280
     1
  3
ACAD_INDEX
360
4570
  3
ACAD_LAYOUTSELFREF
360
459D
  0
DICTIONARY
  5
45A2
330
101
100
AcDbDictionary
280
     1
  3
ACAD_LAYOUTSELFREF
360
45A3
  0
DICTIONARY
  5
D
102
{ACAD_REACTORS
330
C
102
}
330
C
100
AcDbDictionary
  0
DICTIONARY
  5
1A
102
{ACAD_REACTORS
330
C
102
}
330
C
100
AcDbDictionary
  0
DICTIONARY
  5
17
102
{ACAD_REACTORS
330
C
102
}
330
C
100
AcDbDictionary
  3
STANDARD
350
18
  0
DICTIONARY
  5
19
102
{ACAD_REACTORS
330
C
102
}
330
C
100
AcDbDictionary
  0
ACDBDICTIONARYWDFLT
  5
E
102
{ACAD_REACTORS
330
C
102
}
330
C
100
AcDbDictionary
281
     1
  3
Normal
350
F
100
AcDbDictionaryWithDefault
340
F
  0
DICTIONARY
  5
34
102
{ACAD_REACTORS
330
C
102
}
330
C
100
AcDbDictionary
  3
INDEXCTL
350
35
  3
SORTENTS
350
B5E
  0
DICTIONARY
  5
43
102
{ACAD_REACTORS
330
C
102
}
330
C
100
AcDbDictionary
  3
ACMSTDDICTIONARY
350
260
  0
DICTIONARY
  5
2B
102
{ACAD_REACTORS
330
C
102
}
330
C
100
AcDbDictionary
  3
ACMGSETTINGS
350
2C
  0
DICTIONARY
  5
6E
102
{ACAD_REACTORS
330
C
102
}
330
C
100
AcDbDictionary
  0
XRECORD
  5
456E
102
{ACAD_REACTORS
330
C
102
}
330
C
100
AcDbXrecord
  1
DWGPROPS COOKIE
  2

  3

  4

  6

  7

  8

  9

300
AmdtFileType=82
301
=
302
=
303
=
304
=
305
=
306
=
307
=
308
=
309
=
 40
0.3451888194444445
 41
2452836.771637361
 42
2453076.591377847
  1

 90
        1
  0
DICTIONARY
  5
457A
102
{ACAD_REACTORS
330
C
102
}
330
C
100
AcDbDictionary
  3
TSTACKALIGN
350
457B
  3
TSTACKSIZE
350
457C
  3
HYPERLINKBASE
350
457D
  3
STYLESHEET
350
457E
  3
LAYOUTDICT
350
457F
  3
PLOTSETDICT
350
4580
  3
PLOTSTYLNAMDICT
350
4581
  3
LWETCUNION
350
4582
  3
INSUNITS
350
4583
  3
CEPSNTYPE
350
4584
  3
FINGERPRINTGUID
350
4585
  3
VERSIONGUID
350
4586
  3
PSVPSCALE
350
4587
  3
DIMSTYLEDATA
350
4588
  3
PUCSORTHOREF
350
4589
  3
PUCSORTHOVIEW
350
458A
  3
PUCSBASE
350
458B
  3
PUCSORGTOP
350
458C
  3
PUCSORGBOTTOM
350
458D
  3
PUCSORGLEFT
350
458E
  3
PUCSORGRIGHT
350
458F
  3
PUCSORGFRONT
350
4590
  3
PUCSORGBACK
350
4591
  3
UCSORTHOREF
350
4592
  3
UCSORTHOVIEW
350
4593
  3
UCSBASE
350
4594
  3
UCSORGTOP
350
4595
  3
UCSORGBOTTOM
350
4596
  3
UCSORGLEFT
350
4597
  3
UCSORGRIGHT
350
4598
  3
UCSORGFRONT
350
4599
  3
UCSORGBACK
350
459A
  0
DICTIONARY
  5
4570
102
{ACAD_REACTORS
330
74
102
}
330
74
100
AcDbDictionary
  3
*A1
350
4571
  0
XRECORD
  5
459D
102
{ACAD_REACTORS
330
74
102
}
330
74
100
AcDbXrecord
340
1F
  0
XRECORD
  5
45A3
102
{ACAD_REACTORS
330
45A2
102
}
330
45A2
100
AcDbXrecord
340
101
  0
MLINESTYLE
  5
18
102
{ACAD_REACTORS
330
17
102
}
330
17
100
AcDbMlineStyle
  2
STANDARD
 70
     0
  3

 62
   256
 51
90.0
 52
90.0
 71
     2
 49
0.5
 62
   256
  6
BYLAYER
 49
-0.5
 62
   256
  6
BYLAYER
  0
ACDBPLACEHOLDER
  5
F
102
{ACAD_REACTORS
330
E
102
}
330
E
100
AcDbPlaceHolder
280
     0
  0
DICTIONARYVAR
  5
35
102
{ACAD_REACTORS
330
34
102
}
330
34
100
DictionaryVariables
280
     0
  1
1
  0
DICTIONARYVAR
  5
B5E
102
{ACAD_REACTORS
330
34
102
}
330
34
100
DictionaryVariables
280
     0
  1
96
  0
DICTIONARY
  5
260
102
{ACAD_REACTORS
330
43
102
}
330
43
100
AcDbDictionary
  0
DICTIONARY
  5
2C
102
{ACAD_REACTORS
330
2B
102
}
330
2B
100
AcDbDictionary
  3
DWGSETTINGS
350
2D
  0
XRECORD
  5
457B
102
{ACAD_REACTORS
330
457A
102
}
330
457A
100
AcDbXrecord
 90
        1
  0
XRECORD
  5
457C
102
{ACAD_REACTORS
330
457A
102
}
330
457A
100
AcDbXrecord
 90
       70
  0
XRECORD
  5
457D
102
{ACAD_REACTORS
330
457A
102
}
330
457A
100
AcDbXrecord
  1

  0
XRECORD
  5
457E
102
{ACAD_REACTORS
330
457A
102
}
330
457A
100
AcDbXrecord
  1
ASAMI.ctb
  0
XRECORD
  5
457F
102
{ACAD_REACTORS
330
457A
102
}
330
457A
100
AcDbXrecord
340
1A
  0
XRECORD
  5
4580
102
{ACAD_REACTORS
330
457A
102
}
330
457A
100
AcDbXrecord
340
19
  0
XRECORD
  5
4581
102
{ACAD_REACTORS
330
457A
102
}
330
457A
100
AcDbXrecord
340
E
  0
XRECORD
  5
4582
102
{ACAD_REACTORS
330
457A
102
}
330
457A
100
AcDbXrecord
 90
    10781
  0
XRECORD
  5
4583
102
{ACAD_REACTORS
330
457A
102
}
330
457A
100
AcDbXrecord
 90
        4
  0
XRECORD
  5
4584
102
{ACAD_REACTORS
330
457A
102
}
330
457A
100
AcDbXrecord
 90
        0
  0
XRECORD
  5
4585
102
{ACAD_REACTORS
330
457A
102
}
330
457A
100
AcDbXrecord
  1
{AFB28963-8C59-40AE-9337-C84526B81ACE}
  0
XRECORD
  5
4586
102
{ACAD_REACTORS
330
457A
102
}
330
457A
100
AcDbXrecord
  1
{37B45C93-B4FD-4179-9FC0-1A6667653805}
  0
XRECORD
  5
4587
102
{ACAD_REACTORS
330
457A
102
}
330
457A
100
AcDbXrecord
 40
0.0
  0
XRECORD
  5
4588
102
{ACAD_REACTORS
330
457A
102
}
330
457A
100
AcDbXrecord
1000
DSTYLE
1002
{
1070
    79
 70
     2
1070
   341
340
59
1070
   342
340
59
1070
   371
 70
    -1
1070
   372
 70
    -1
1002
}
  0
XRECORD
  5
4589
102
{ACAD_REACTORS
330
457A
102
}
330
457A
100
AcDbXrecord
340
0
  0
XRECORD
  5
458A
102
{ACAD_REACTORS
330
457A
102
}
330
457A
100
AcDbXrecord
 70
     0
  0
XRECORD
  5
458B
102
{ACAD_REACTORS
330
457A
102
}
330
457A
100
AcDbXrecord
340
0
  0
XRECORD
  5
458C
102
{ACAD_REACTORS
330
457A
102
}
330
457A
100
AcDbXrecord
 10
0.0
 20
0.0
 30
0.0
  0
XRECORD
  5
458D
102
{ACAD_REACTORS
330
457A
102
}
330
457A
100
AcDbXrecord
 10
0.0
 20
0.0
 30
0.0
  0
XRECORD
  5
458E
102
{ACAD_REACTORS
330
457A
102
}
330
457A
100
AcDbXrecord
 10
0.0
 20
0.0
 30
0.0
  0
XRECORD
  5
458F
102
{ACAD_REACTORS
330
457A
102
}
330
457A
100
AcDbXrecord
 10
0.0
 20
0.0
 30
0.0
  0
XRECORD
  5
4590
102
{ACAD_REACTORS
330
457A
102
}
330
457A
100
AcDbXrecord
 10
0.0
 20
0.0
 30
0.0
  0
XRECORD
  5
4591
102
{ACAD_REACTORS
330
457A
102
}
330
457A
100
AcDbXrecord
 10
0.0
 20
0.0
 30
0.0
  0
XRECORD
  5
4592
102
{ACAD_REACTORS
330
457A
102
}
330
457A
100
AcDbXrecord
340
0
  0
XRECORD
  5
4593
102
{ACAD_REACTORS
330
457A
102
}
330
457A
100
AcDbXrecord
 70
     0
  0
XRECORD
  5
4594
102
{ACAD_REACTORS
330
457A
102
}
330
457A
100
AcDbXrecord
340
0
  0
XRECORD
  5
4595
102
{ACAD_REACTORS
330
457A
102
}
330
457A
100
AcDbXrecord
 10
0.0
 20
0.0
 30
0.0
  0
XRECORD
  5
4596
102
{ACAD_REACTORS
330
457A
102
}
330
457A
100
AcDbXrecord
 10
0.0
 20
0.0
 30
0.0
  0
XRECORD
  5
4597
102
{ACAD_REACTORS
330
457A
102
}
330
457A
100
AcDbXrecord
 10
0.0
 20
0.0
 30
0.0
  0
XRECORD
  5
4598
102
{ACAD_REACTORS
330
457A
102
}
330
457A
100
AcDbXrecord
 10
0.0
 20
0.0
 30
0.0
  0
XRECORD
  5
4599
102
{ACAD_REACTORS
330
457A
102
}
330
457A
100
AcDbXrecord
 10
0.0
 20
0.0
 30
0.0
  0
XRECORD
  5
459A
102
{ACAD_REACTORS
330
457A
102
}
330
457A
100
AcDbXrecord
 10
0.0
 20
0.0
 30
0.0
  0
LAYER_INDEX
  5
4571
102
{ACAD_REACTORS
330
4570
102
}
330
4570
100
AcDbIndex
 40
2453152.363890752
100
AcDbLayerIndex
  8
0
360
4572
 90
        0
  8
AM_11
360
4573
 90
        3
  8
AM_7
360
4574
 90
        1
  8
AM_5
360
4575
 90
       11
  8
Defpoints
360
4576
 90
        0
  8
AM_6
360
4577
 90
        1
  8
AM_0
360
4578
 90
       68
  0
XRECORD
  5
2D
102
{ACAD_REACTORS
330
2C
102
}
330
2C
100
AcDbXrecord
  1
VERSION
140
15.0
  1
PRODUCT
  2
AutoCAD Mechanical 2000
  0
IDBUFFER
  5
4572
330
0
100
AcDbIdBuffer
  0
IDBUFFER
  5
4573
330
0
100
AcDbIdBuffer
330
3819
330
381E
330
3828
  0
IDBUFFER
  5
4574
330
0
100
AcDbIdBuffer
330
36F6
  0
IDBUFFER
  5
4575
330
0
100
AcDbIdBuffer
330
382D
330
382E
330
38C6
330
394E
330
39D3
330
39D4
330
39D5
330
3BE0
330
3D51
330
40C3
330
4323
  0
IDBUFFER
  5
4576
330
0
100
AcDbIdBuffer
  0
IDBUFFER
  5
4577
330
0
100
AcDbIdBuffer
330
E5A
  0
IDBUFFER
  5
4578
330
0
100
AcDbIdBuffer
330
370E
330
37FC
330
37FD
330
3800
330
3801
330
3802
330
3803
330
3804
330
3805
330
3806
330
3807
330
3808
330
3809
330
380A
330
380B
330
380C
330
380D
330
380E
330
380F
330
3810
330
36DB
330
36DC
330
36DD
330
36DE
330
36DF
330
36E0
330
36E1
330
36E4
330
36E5
330
36E6
330
36E7
330
36E8
330
36E9
330
36EA
330
36EB
330
36EC
330
36ED
330
36EE
330
36EF
330
36F0
330
36F1
330
36F2
330
36F3
330
36F4
330
36F5
330
36F7
330
36F8
330
36F9
330
36FA
330
36FB
330
36FC
330
36FD
330
36FE
330
36FF
330
3700
330
3701
330
3702
330
3703
330
3704
330
3705
330
3706
330
3707
330
3708
330
3709
330
370A
330
370B
330
370C
330
370D
  0
ENDSEC
  0
EOF
