  0
SECTION
  2
HEADER
  9
$ACADVER
  1
AC1014
  9
$ACADMAINTVER
 70
     9
  9
$DWGCODEPAGE
  3
ANSI_932
  9
$INSBASE
 10
0.0
 20
0.0
 30
0.0
  9
$EXTMIN
 10
-94.29262947900198
 20
-106.4732080764057
 30
0.0
  9
$EXTMAX
 10
43.087590263916
 20
40.0
 30
0.0
  9
$LIMMIN
 10
-105.9569314424779
 20
-123.4649984591114
  9
$LIMMAX
 10
152.8204839791342
 20
71.51428177053822
  9
$ORTHOMODE
 70
     0
  9
$REGENMODE
 70
     1
  9
$FILLMODE
 70
     1
  9
$QTEXTMODE
 70
     0
  9
$MIRRTEXT
 70
     0
  9
$DRAGMODE
 70
     2
  9
$LTSCALE
 40
1.0
  9
$OSMODE
 70
    55
  9
$ATTMODE
 70
     1
  9
$TEXTSIZE
 40
2.5
  9
$TRACEWID
 40
1.0
  9
$TEXTSTYLE
  7
STANDARD
  9
$CLAYER
  8
AM_5
  9
$CELTYPE
  6
BYLAYER
  9
$CECOLOR
 62
   256
  9
$CELTSCALE
 40
1.0
  9
$DELOBJ
 70
     1
  9
$DISPSILH
 70
     0
  9
$DIMSCALE
 40
1.0
  9
$DIMASZ
 40
2.5
  9
$DIMEXO
 40
1.0
  9
$DIMDLI
 40
12.0
  9
$DIMRND
 40
0.0
  9
$DIMDLE
 40
0.0
  9
$DIMEXE
 40
1.0
  9
$DIMTP
 40
0.1
  9
$DIMTM
 40
0.1
  9
$DIMTXT
 40
3.2
  9
$DIMCEN
 40
0.0
  9
$DIMTSZ
 40
0.0
  9
$DIMTOL
 70
     0
  9
$DIMLIM
 70
     0
  9
$DIMTIH
 70
     0
  9
$DIMTOH
 70
     0
  9
$DIMSE1
 70
     0
  9
$DIMSE2
 70
     0
  9
$DIMTAD
 70
     3
  9
$DIMZIN
 70
     8
  9
$DIMBLK
  1
OPEN30
  9
$DIMASO
 70
     1
  9
$DIMSHO
 70
     1
  9
$DIMPOST
  1

  9
$DIMAPOST
  1
"
  9
$DIMALT
 70
     0
  9
$DIMALTD
 70
     2
  9
$DIMALTF
 40
0.0393701
  9
$DIMLFAC
 40
1.0
  9
$DIMTOFL
 70
     1
  9
$DIMTVP
 40
0.0
  9
$DIMTIX
 70
     0
  9
$DIMSOXD
 70
     0
  9
$DIMSAH
 70
     0
  9
$DIMBLK1
  1

  9
$DIMBLK2
  1

  9
$DIMSTYLE
  2
AM_JIS
  9
$DIMCLRD
 70
   256
  9
$DIMCLRE
 70
   256
  9
$DIMCLRT
 70
     2
  9
$DIMTFAC
 40
0.71
  9
$DIMGAP
 40
1.5
  9
$DIMJUST
 70
     0
  9
$DIMSD1
 70
     0
  9
$DIMSD2
 70
     0
  9
$DIMTOLJ
 70
     0
  9
$DIMTZIN
 70
     0
  9
$DIMALTZ
 70
     0
  9
$DIMALTTZ
 70
     0
  9
$DIMFIT
 70
     3
  9
$DIMUPT
 70
     0
  9
$DIMUNIT
 70
     2
  9
$DIMDEC
 70
     3
  9
$DIMTDEC
 70
     3
  9
$DIMALTU
 70
     2
  9
$DIMALTTD
 70
     2
  9
$DIMTXSTY
  7
ASAMI
  9
$DIMAUNIT
 70
     0
  9
$LUNITS
 70
     2
  9
$LUPREC
 70
     2
  9
$SKETCHINC
 40
1.0
  9
$FILLETRAD
 40
2.5
  9
$AUNITS
 70
     0
  9
$AUPREC
 70
     0
  9
$MENU
  1
.
  9
$ELEVATION
 40
0.0
  9
$PELEVATION
 40
0.0
  9
$THICKNESS
 40
0.0
  9
$LIMCHECK
 70
     0
  9
$BLIPMODE
 70
     0
  9
$CHAMFERA
 40
0.5
  9
$CHAMFERB
 40
0.5
  9
$CHAMFERC
 40
20.0
  9
$CHAMFERD
 40
0.0
  9
$SKPOLY
 70
     0
  9
$TDCREATE
 40
2452836.771637361
  9
$TDUPDATE
 40
2453152.363314374
  9
$TDINDWG
 40
0.3934024537
  9
$TDUSRTIMER
 40
0.3934024537
  9
$USRTIMER
 70
     1
  9
$ANGBASE
 50
0.0
  9
$ANGDIR
 70
     0
  9
$PDMODE
 70
     0
  9
$PDSIZE
 40
0.0
  9
$PLINEWID
 40
0.0
  9
$COORDS
 70
     1
  9
$SPLFRAME
 70
     0
  9
$SPLINETYPE
 70
     6
  9
$SPLINESEGS
 70
     8
  9
$ATTDIA
 70
     1
  9
$ATTREQ
 70
     1
  9
$HANDLING
 70
 12289
  9
$HANDSEED
  5
8A84
  9
$SURFTAB1
 70
     6
  9
$SURFTAB2
 70
     6
  9
$SURFTYPE
 70
     6
  9
$SURFU
 70
     6
  9
$SURFV
 70
     6
  9
$UCSNAME
  2

  9
$UCSORG
 10
0.0
 20
0.0
 30
0.0
  9
$UCSXDIR
 10
1.0
 20
0.0
 30
0.0
  9
$UCSYDIR
 10
0.0
 20
1.0
 30
0.0
  9
$PUCSNAME
  2

  9
$PUCSORG
 10
0.0
 20
0.0
 30
0.0
  9
$PUCSXDIR
 10
1.0
 20
0.0
 30
0.0
  9
$PUCSYDIR
 10
0.0
 20
1.0
 30
0.0
  9
$USERI1
 70
     0
  9
$USERI2
 70
     0
  9
$USERI3
 70
     0
  9
$USERI4
 70
     0
  9
$USERI5
 70
     0
  9
$USERR1
 40
0.0
  9
$USERR2
 40
0.0
  9
$USERR3
 40
0.0
  9
$USERR4
 40
0.0
  9
$USERR5
 40
0.0
  9
$WORLDVIEW
 70
     1
  9
$SHADEDGE
 70
     3
  9
$SHADEDIF
 70
    70
  9
$TILEMODE
 70
     1
  9
$MAXACTVP
 70
    64
  9
$PINSBASE
 10
0.0
 20
0.0
 30
0.0
  9
$PLIMCHECK
 70
     0
  9
$PEXTMIN
 10
1.000000000000000E+20
 20
1.000000000000000E+20
 30
1.000000000000000E+20
  9
$PEXTMAX
 10
-1.000000000000000E+20
 20
-1.000000000000000E+20
 30
-1.000000000000000E+20
  9
$PLIMMIN
 10
0.0
 20
0.0
  9
$PLIMMAX
 10
841.0
 20
594.0
  9
$UNITMODE
 70
     0
  9
$VISRETAIN
 70
     1
  9
$PLINEGEN
 70
     0
  9
$PSLTSCALE
 70
     0
  9
$TREEDEPTH
 70
  3020
  9
$PICKSTYLE
 70
     0
  9
$CMLSTYLE
  2
STANDARD
  9
$CMLJUST
 70
     0
  9
$CMLSCALE
 40
20.0
  9
$PROXYGRAPHICS
 70
     1
  9
$MEASUREMENT
 70
     1
  0
ENDSEC
  0
SECTION
  2
CLASSES
  0
CLASS
  1
ACDBDICTIONARYWDFLT
  2
AcDbDictionaryWithDefault
  3
AutoCAD 2000
 90
        0
280
     0
281
     0
  0
CLASS
  1
ACDBPLACEHOLDER
  2
AcDbPlaceHolder
  3
AutoCAD 2000
 90
        0
280
     0
281
     0
  0
CLASS
  1
LAYOUT
  2
AcDbLayout
  3
AutoCAD 2000
 90
        0
280
     0
281
     0
  0
CLASS
  1
AMGSETTINGSOBJ
  2
AmgSettingsObj
  3
"AcadM|Product Description: AutoCAD Mechanical 2000|Company: Autodesk"
 90
        0
280
     0
281
     0
  0
CLASS
  1
ACME_DOCUMENT
  2
AcMeDbDoc
  3
AcMeServices
 90
        0
280
     0
281
     0
  0
CLASS
  1
ACMESCOPE
  2
AcMeScope
  3
AcMeServices
 90
        0
280
     0
281
     0
  0
CLASS
  1
ACMECOMMANDHISTORY
  2
AcMeCommandHistory
  3
AcMeServices
 90
        0
280
     0
281
     0
  0
CLASS
  1
DICTIONARYVAR
  2
AcDbDictionaryVar
  3
AutoCAD 2000
 90
        0
280
     0
281
     0
  0
CLASS
  1
ACIMSYSVARMAN
  2
AcImSysVarManager
  3
AcMeServices
 90
        0
280
     0
281
     0
  0
CLASS
  1
ACIMREALSYSVAR
  2
AcImRealSysVar
  3
AcMeServices
 90
        0
280
     0
281
     0
  0
CLASS
  1
ACIMINTSYSVAR
  2
AcImIntSysVar
  3
AcMeServices
 90
        0
280
     0
281
     0
  0
CLASS
  1
ACMEDRAWINGMAN
  2
AcMeDrawingMan
  3
AcMeServices
 90
        0
280
     0
281
     0
  0
CLASS
  1
ACMEVIEW
  2
AcMeView
  3
AcMeServices
 90
        0
280
     0
281
     0
  0
CLASS
  1
ACDBENTITYCACHE
  2
AcMeEntityCache
  3
AcMeServices
 90
        0
280
     0
281
     0
  0
CLASS
  1
GSMANAGER
  2
AcMeGSManager
  3
AcMeServices
 90
        0
280
     0
281
     0
  0
CLASS
  1
AmdtInternalReactor
  2
AmdtInternalReactor
  3
AcMeServices
 90
        0
280
     0
281
     0
  0
CLASS
  1
ACMESTATEMGR
  2
AcMeStateMgr
  3
AcMeServices
 90
        0
280
     0
281
     0
  0
CLASS
  1
ACME_DATABASE
  2
AcMeDbDatabase
  3
AcMeServices
 90
        0
280
     0
281
     0
  0
CLASS
  1
ACRFINSADJUSTERMGR
  2
AcRfInsAdjusterMgr
  3
AcMeServices
 90
        0
280
     0
281
     0
  0
CLASS
  1
ACMDATADICTIONARY
  2
AcmDataDictionary
  3
"AcmSymBB|Product Description: AutoCAD Mechanical 2000|Company: Autodesk"
 90
        0
280
     0
281
     0
  0
CLASS
  1
ACMDATAENTRYBLOCK
  2
AcmDataEntryBlock
  3
"AcmSymBB|Product Description: AutoCAD Mechanical 2000|Company: Autodesk"
 90
        0
280
     0
281
     0
  0
CLASS
  1
AMGOBJPROPCFG
  2
AmgObjPropCfg
  3
"AmgLay|Product Description: AutoCAD Mechanical 2000|Company: Autodesk"
 90
        1
280
     0
281
     0
  0
CLASS
  1
ACAMGFILTERDAT
  2
AcAmgFilterDat
  3
"AcadM|Product Description: AutoCAD Mechanical 2000|Company: Autodesk"
 90
        0
280
     0
281
     0
  0
CLASS
  1
LAYER_INDEX
  2
AcDbLayerIndex
  3
AutoCAD 2000
 90
        0
280
     0
281
     0
  0
CLASS
  1
IDBUFFER
  2
AcDbIdBuffer
  3
AutoCAD 2000
 90
        0
280
     0
281
     0
  0
CLASS
  1
ACIMSTRSYSVAR
  2
AcImStrSysVar
  3
AcMeServices
 90
        0
280
     0
281
     0
  0
CLASS
  1
ACMSTANDARDJIS
  2
AcmStandardJIS
  3
"AcmSymBB|Product Description: AutoCAD Mechanical 2000|Company: Autodesk"
 90
        0
280
     0
281
     0
  0
CLASS
  1
ACMSURFSTANDARDJIS
  2
AcmSurfTextStdJIS
  3
"AcmSymBB|Product Description: AutoCAD Mechanical 2000|Company: Autodesk"
 90
        0
280
     0
281
     0
  0
CLASS
  1
ACMFCFSTANDARDJIS
  2
AcmFCFStdJIS
  3
"AcmSymBB|Product Description: AutoCAD Mechanical 2000|Company: Autodesk"
 90
        0
280
     0
281
     0
  0
CLASS
  1
ACMWELDSTANDARDJIS
  2
AcmWeldingStdJIS
  3
"AcmSymBB|Product Description: AutoCAD Mechanical 2000|Company: Autodesk"
 90
        0
280
     0
281
     0
  0
CLASS
  1
ACMIDSTANDARDJIS
  2
AcmIdStdJIS
  3
"AcmSymBB|Product Description: AutoCAD Mechanical 2000|Company: Autodesk"
 90
        0
280
     0
281
     0
  0
CLASS
  1
ACMDATUMSTANDARDJIS
  2
AcmDatumStdJIS
  3
"AcmSymBB|Product Description: AutoCAD Mechanical 2000|Company: Autodesk"
 90
        0
280
     0
281
     0
  0
CLASS
  1
ACMBOMSTANDARDJIS
  2
AcmBOMStdJIS
  3
"AcmSymBB|Product Description: AutoCAD Mechanical 2000|Company: Autodesk"
 90
        0
280
     0
281
     0
  0
CLASS
  1
ACMSTANDARDANSI
  2
AcmStandardANSI
  3
"AcmSymBB|Product Description: AutoCAD Mechanical 2000|Company: Autodesk"
 90
        0
280
     0
281
     0
  0
CLASS
  1
ACMSURFSTANDARDANSI
  2
AcmSurfTextStdANSI
  3
"AcmSymBB|Product Description: AutoCAD Mechanical 2000|Company: Autodesk"
 90
        0
280
     0
281
     0
  0
CLASS
  1
ACMFCFSTANDARDANSI
  2
AcmFCFStdANSI
  3
"AcmSymBB|Product Description: AutoCAD Mechanical 2000|Company: Autodesk"
 90
        0
280
     0
281
     0
  0
CLASS
  1
ACMWELDSTANDARDANSI
  2
AcmWeldingStdANSI
  3
"AcmSymBB|Product Description: AutoCAD Mechanical 2000|Company: Autodesk"
 90
        0
280
     0
281
     0
  0
CLASS
  1
ACMIDSTANDARDANSI
  2
AcmIdStdANSI
  3
"AcmSymBB|Product Description: AutoCAD Mechanical 2000|Company: Autodesk"
 90
        0
280
     0
281
     0
  0
CLASS
  1
ACMDATUMSTANDARDANSI
  2
AcmDatumStdANSI
  3
"AcmSymBB|Product Description: AutoCAD Mechanical 2000|Company: Autodesk"
 90
        0
280
     0
281
     0
  0
CLASS
  1
ACMBOMSTANDARDANSI
  2
AcmBOMStdANSI
  3
"AcmSymBB|Product Description: AutoCAD Mechanical 2000|Company: Autodesk"
 90
        0
280
     0
281
     0
  0
CLASS
  1
ACMSTANDARDBSI
  2
AcmStandardBSI
  3
"AcmSymBB|Product Description: AutoCAD Mechanical 2000|Company: Autodesk"
 90
        0
280
     0
281
     0
  0
CLASS
  1
ACMSURFSTANDARDBSI
  2
AcmSurfTextStdBSI
  3
"AcmSymBB|Product Description: AutoCAD Mechanical 2000|Company: Autodesk"
 90
        0
280
     0
281
     0
  0
CLASS
  1
ACMFCFSTANDARDBSI
  2
AcmFCFStdBSI
  3
"AcmSymBB|Product Description: AutoCAD Mechanical 2000|Company: Autodesk"
 90
        0
280
     0
281
     0
  0
CLASS
  1
ACMWELDSTANDARDBSI
  2
AcmWeldingStdBSI
  3
"AcmSymBB|Product Description: AutoCAD Mechanical 2000|Company: Autodesk"
 90
        0
280
     0
281
     0
  0
CLASS
  1
ACMIDSTANDARDBSI
  2
AcmIdStdBSI
  3
"AcmSymBB|Product Description: AutoCAD Mechanical 2000|Company: Autodesk"
 90
        0
280
     0
281
     0
  0
CLASS
  1
ACMDATUMSTANDARDBSI
  2
AcmDatumStdBSI
  3
"AcmSymBB|Product Description: AutoCAD Mechanical 2000|Company: Autodesk"
 90
        0
280
     0
281
     0
  0
CLASS
  1
ACMBOMSTANDARDBSI
  2
AcmBOMStdBSI
  3
"AcmSymBB|Product Description: AutoCAD Mechanical 2000|Company: Autodesk"
 90
        0
280
     0
281
     0
  0
CLASS
  1
LONG_TRANSACTION
  2
AcDbLongTransaction
  3
AutoCAD 2000
 90
        0
280
     0
281
     0
  0
CLASS
  1
LWPOLYLINE
  2
AcDbPolyline
  3
AutoCAD 2000
 90
        0
280
     0
281
     1
  0
CLASS
  1
HATCH
  2
AcDbHatch
  3
AutoCAD 2000
 90
        0
280
     0
281
     1
  0
CLASS
  1
XRECORD
  2
AcDbXrecord
  3
AutoCAD 2000
 90
        0
280
     0
281
     0
  0
ENDSEC
  0
SECTION
  2
TABLES
  0
TABLE
  2
VPORT
  5
8
330
0
100
AcDbSymbolTable
 70
     3
  0
VPORT
  5
89F2
330
8
100
AcDbSymbolTableRecord
100
AcDbViewportTableRecord
  2
*ACTIVE
 70
     0
 10
0.0
 20
0.0
 11
1.0
 21
1.0
 12
-16.39056840346401
 22
-30.97874720679553
 13
0.0
 23
0.0
 14
2.5
 24
2.5
 15
10.0
 25
10.0
 16
0.0
 26
0.0
 36
1.0
 17
0.0
 27
0.0
 37
0.0
 40
163.8161729247628
 41
1.56570841889117
 42
50.0
 43
0.0
 44
0.0
 50
0.0
 51
0.0
 71
     0
 72
   100
 73
     1
 74
     3
 75
     0
 76
     0
 77
     0
 78
     0
  0
ENDTAB
  0
TABLE
  2
LTYPE
  5
5
330
0
100
AcDbSymbolTable
 70
    10
  0
LTYPE
  5
14
330
5
100
AcDbSymbolTableRecord
100
AcDbLinetypeTableRecord
  2
BYBLOCK
 70
     0
  3

 72
    65
 73
     0
 40
0.0
  0
LTYPE
  5
15
330
5
100
AcDbSymbolTableRecord
100
AcDbLinetypeTableRecord
  2
BYLAYER
 70
     0
  3

 72
    65
 73
     0
 40
0.0
  0
LTYPE
  5
16
330
5
100
AcDbSymbolTableRecord
100
AcDbLinetypeTableRecord
  2
CONTINUOUS
 70
     0
  3
Solid line
 72
    65
 73
     0
 40
0.0
  0
LTYPE
  5
4B
330
5
100
AcDbSymbolTableRecord
100
AcDbLinetypeTableRecord
  2
AM_ISO02W050
 70
     0
  3
__ __ __ __ __ __ __ __ __ __ __ __ __ __ __
 72
    65
 73
     2
 40
7.5
 49
6.0
 74
     0
 49
-1.5
 74
     0
  0
LTYPE
  5
4C
330
5
100
AcDbSymbolTableRecord
100
AcDbLinetypeTableRecord
  2
AM_ISO08W050
 70
     0
  3
____ . ____ . ____ . ____ . ____ . ____ . ____
 72
    65
 73
     4
 40
18.0
 49
12.0
 74
     0
 49
-1.5
 74
     0
 49
3.0
 74
     0
 49
-1.5
 74
     0
  0
LTYPE
  5
4D
330
5
100
AcDbSymbolTableRecord
100
AcDbLinetypeTableRecord
  2
AM_ISO09W050
 70
     0
  3
_____ . . _____ . . _____ . . ____ .. ____
 72
    65
 73
     6
 40
22.5
 49
12.0
 74
     0
 49
-1.5
 74
     0
 49
3.0
 74
     0
 49
-1.5
 74
     0
 49
3.0
 74
     0
 49
-1.5
 74
     0
  0
LTYPE
  5
4E
330
5
100
AcDbSymbolTableRecord
100
AcDbLinetypeTableRecord
  2
AMCONSTR
 70
     0
  3
_______________________
 72
    65
 73
     2
 40
9999.0
 49
9999.0
 74
     0
 49
0.0
 74
     0
  0
LTYPE
  5
4F
330
5
100
AcDbSymbolTableRecord
100
AcDbLinetypeTableRecord
  2
AM_ISO02W050X2
 70
     0
  3
 _ _ _ _ _ _ _ _ _ _ _ _
 72
    65
 73
     2
 40
3.75
 49
3.0
 74
     0
 49
-0.75
 74
     0
  0
LTYPE
  5
50
330
5
100
AcDbSymbolTableRecord
100
AcDbLinetypeTableRecord
  2
AM_ISO08W050X2
 70
     0
  3
__ . __ . __ . __ . __ . __
 72
    65
 73
     4
 40
9.0
 49
6.0
 74
     0
 49
-0.75
 74
     0
 49
1.5
 74
     0
 49
-0.75
 74
     0
  0
LTYPE
  5
53
330
5
100
AcDbSymbolTableRecord
100
AcDbLinetypeTableRecord
  2
AMZIGZAG
 70
     0
  3
/\/-/\/-/\/-/\/-/\/-/\/
 72
    65
 73
     2
 40
11.00009999999999
 49
0.0001
 74
     4
 75
   135
340
52
 46
0.04
 50
0.0
 44
0.0
 45
0.0
 49
-11.0
 74
     0
  0
LTYPE
  5
166
330
5
100
AcDbSymbolTableRecord
100
AcDbLinetypeTableRecord
  2
ACJISTGL
 70
     0
  3
_ _ _ _ _
 72
    65
 73
     2
 40
3.0
 49
2.0
 74
     0
 49
-1.0
 74
     0
  0
LTYPE
  5
26A
330
5
100
AcDbSymbolTableRecord
100
AcDbLinetypeTableRecord
  2
ACJISTGB
 70
     0
  3
__ . . __ . .
 72
    65
 73
     6
 40
9.0
 49
4.0
 74
     0
 49
-1.0
 74
     0
 49
1.0
 74
     0
 49
-1.0
 74
     0
 49
1.0
 74
     0
 49
-1.0
 74
     0
  0
ENDTAB
  0
TABLE
  2
LAYER
  5
2
330
0
100
AcDbSymbolTable
 70
     7
  0
LAYER
  5
10
330
2
100
AcDbSymbolTableRecord
100
AcDbLayerTableRecord
  2
0
 70
     0
 62
     7
  6
CONTINUOUS
  0
LAYER
  5
BD4
330
2
100
AcDbSymbolTableRecord
100
AcDbLayerTableRecord
  2
AM_11
 70
     0
 62
     3
  6
AM_ISO09W050
  0
LAYER
  5
BD5
330
2
100
AcDbSymbolTableRecord
100
AcDbLayerTableRecord
  2
AM_7
 70
     0
 62
     4
  6
AM_ISO08W050
  0
LAYER
  5
BD6
330
2
100
AcDbSymbolTableRecord
100
AcDbLayerTableRecord
  2
AM_5
 70
     0
 62
     3
  6
CONTINUOUS
  0
LAYER
  5
BD7
330
2
100
AcDbSymbolTableRecord
100
AcDbLayerTableRecord
  2
DEFPOINTS
 70
     0
 62
     7
  6
CONTINUOUS
  0
LAYER
  5
E59
330
2
100
AcDbSymbolTableRecord
100
AcDbLayerTableRecord
  2
AM_6
 70
     0
 62
     2
  6
CONTINUOUS
  0
LAYER
  5
4062
330
2
100
AcDbSymbolTableRecord
100
AcDbLayerTableRecord
  2
AM_0
 70
     0
 62
     7
  6
CONTINUOUS
  0
ENDTAB
  0
TABLE
  2
STYLE
  5
3
330
0
100
AcDbSymbolTable
 70
     5
  0
STYLE
  5
11
330
3
100
AcDbSymbolTableRecord
100
AcDbTextStyleTableRecord
  2
STANDARD
 70
     0
 40
0.0
 41
1.0
 50
0.0
 71
     0
 42
2.5
  3
simplex.shx
  4
EXTFONT.SHX
  0
STYLE
  5
52
330
3
100
AcDbSymbolTableRecord
100
AcDbTextStyleTableRecord
  2

 70
     1
 40
0.0
 41
1.0
 50
0.0
 71
     0
 42
2.5
  3
ltypeshp.shx
  4

  0
STYLE
  5
6B
330
3
100
AcDbSymbolTableRecord
100
AcDbTextStyleTableRecord
  2
ASAMI
 70
     0
 40
0.0
 41
1.0
 50
0.0
 71
     0
 42
2.5
  3
simplex.shx
  4
EXTFONT.SHX
  0
STYLE
  5
262
330
3
100
AcDbSymbolTableRecord
100
AcDbTextStyleTableRecord
  2
ACJISTS
 70
     0
 40
1.0
 41
1.0
 50
0.0
 71
     0
 42
2.5
  3
simplex.shx
  4
bigfont.shx
  0
STYLE
  5
269
330
3
100
AcDbSymbolTableRecord
100
AcDbTextStyleTableRecord
  2
ACJISGDT
 70
     0
 40
0.0
 41
1.0
 50
0.0
 71
     0
 42
2.5
  3
amgdtans.shx
  4

  0
ENDTAB
  0
TABLE
  2
VIEW
  5
6
330
0
100
AcDbSymbolTable
 70
     0
  0
ENDTAB
  0
TABLE
  2
UCS
  5
7
330
0
100
AcDbSymbolTable
 70
     0
  0
ENDTAB
  0
TABLE
  2
APPID
  5
9
330
0
100
AcDbSymbolTable
 70
    12
  0
APPID
  5
12
330
9
100
AcDbSymbolTableRecord
100
AcDbRegAppTableRecord
  2
ACAD
 70
     0
  0
APPID
  5
30
330
9
100
AcDbSymbolTableRecord
100
AcDbRegAppTableRecord
  2
MCAD_NO_VIS
 70
     0
  0
APPID
  5
31
330
9
100
AcDbSymbolTableRecord
100
AcDbRegAppTableRecord
  2
ACAD_TEMP_GRAPHIC
 70
     0
  0
APPID
  5
2C2
330
9
100
AcDbSymbolTableRecord
100
AcDbRegAppTableRecord
  2
GENIUS_GENDTOL_13
 70
     0
  0
APPID
  5
339
330
9
100
AcDbSymbolTableRecord
100
AcDbRegAppTableRecord
  2
GENIUS_GENODEF_13
 70
     0
  0
APPID
  5
33A
330
9
100
AcDbSymbolTableRecord
100
AcDbRegAppTableRecord
  2
GENIUS_GENOBJ-N-RSBK_13
 70
     0
  0
APPID
  5
33B
330
9
100
AcDbSymbolTableRecord
100
AcDbRegAppTableRecord
  2
GENIUS_GENOBJ-N-LIB_13
 70
     0
  0
APPID
  5
33C
330
9
100
AcDbSymbolTableRecord
100
AcDbRegAppTableRecord
  2
GENIUS_GENSCALE_13
 70
     0
  0
APPID
  5
378
330
9
100
AcDbSymbolTableRecord
100
AcDbRegAppTableRecord
  2
GENIUS_GENDIMSH_14
 70
     0
  0
APPID
  5
BD8
330
9
100
AcDbSymbolTableRecord
100
AcDbRegAppTableRecord
  2
GENIUS_GENOBJ-N-CEN_13
 70
     0
  0
APPID
  5
BD9
330
9
100
AcDbSymbolTableRecord
100
AcDbRegAppTableRecord
  2
GENIUS_GENFIL_13
 70
     0
  0
APPID
  5
BDA
330
9
100
AcDbSymbolTableRecord
100
AcDbRegAppTableRecord
  2
GENIUS_GENOBJ-N-CHA_13
 70
     0
  0
ENDTAB
  0
TABLE
  2
DIMSTYLE
  5
A
330
0
100
AcDbSymbolTable
 70
     9
  0
DIMSTYLE
105
58
330
A
100
AcDbSymbolTableRecord
100
AcDbDimStyleTableRecord
  2
AM_JIS
 70
     0
  3

  4
"
  5
OPEN30
  6

  7

 40
1.0
 41
2.5
 42
1.0
 43
12.0
 44
1.0
 45
0.0
 46
0.0
 47
0.1
 48
0.1
140
3.2
141
0.0
142
0.0
143
0.0393701
144
1.0
145
0.0
146
0.71
147
1.5
 71
     0
 72
     0
 73
     0
 74
     0
 75
     0
 76
     0
 77
     3
 78
     8
170
     0
171
     2
172
     1
173
     0
174
     0
175
     0
176
   256
177
   256
178
     2
270
     2
271
     3
272
     3
273
     2
274
     2
340
6B
275
     0
280
     0
281
     0
282
     0
283
     0
284
     0
285
     0
286
     0
287
     3
288
     0
  0
DIMSTYLE
105
5F
330
A
100
AcDbSymbolTableRecord
100
AcDbDimStyleTableRecord
  2
AM_JIS$3
 70
     0
  3

  4
"
  5
OPEN30
  6

  7

 40
1.0
 41
2.5
 42
1.0
 43
10.0
 44
1.0
 45
0.0
 46
0.0
 47
0.1
 48
0.1
140
3.2
141
0.0
142
0.0
143
0.0393701
144
1.0
145
0.0
146
0.71
147
1.5
 71
     0
 72
     0
 73
     0
 74
     1
 75
     0
 76
     0
 77
     3
 78
     8
170
     0
171
     2
172
     0
173
     0
174
     0
175
     0
176
   256
177
   256
178
     2
270
     2
271
     2
272
     3
273
     2
274
     2
340
6B
275
     0
280
     0
281
     0
282
     0
283
     0
284
     0
285
     0
286
     0
287
     0
288
     1
  0
DIMSTYLE
105
60
330
A
100
AcDbSymbolTableRecord
100
AcDbDimStyleTableRecord
  2
AM_JIS$4
 70
     0
  3

  4
"
  5
OPEN30
  6

  7

 40
1.0
 41
2.5
 42
1.0
 43
10.0
 44
1.0
 45
0.0
 46
0.0
 47
0.1
 48
0.1
140
3.2
141
0.0
142
0.0
143
0.0393701
144
1.0
145
0.0
146
0.71
147
1.5
 71
     0
 72
     0
 73
     0
 74
     1
 75
     0
 76
     0
 77
     3
 78
     8
170
     0
171
     2
172
     0
173
     0
174
     0
175
     0
176
   256
177
   256
178
     2
270
     2
271
     2
272
     3
273
     2
274
     2
340
6B
275
     0
280
     0
281
     0
282
     0
283
     0
284
     0
285
     0
286
     0
287
     0
288
     1
  0
DIMSTYLE
105
61
330
A
100
AcDbSymbolTableRecord
100
AcDbDimStyleTableRecord
  2
AM_JIS$6
 70
     0
  3

  4
"
  5
OPEN30
  6

  7

 40
1.0
 41
2.5
 42
1.0
 43
10.0
 44
1.0
 45
0.0
 46
0.0
 47
0.1
 48
0.1
140
3.2
141
0.0
142
0.0
143
0.0393701
144
1.0
145
0.0
146
0.71
147
1.5
 71
     0
 72
     0
 73
     0
 74
     0
 75
     0
 76
     0
 77
     0
 78
     8
170
     0
171
     2
172
     1
173
     0
174
     0
175
     0
176
   256
177
   256
178
     2
270
     2
271
     2
272
     2
273
     2
274
     2
340
6B
275
     0
280
     0
281
     0
282
     0
283
     0
284
     0
285
     0
286
     0
287
     3
288
     0
  0
DIMSTYLE
105
62
330
A
100
AcDbSymbolTableRecord
100
AcDbDimStyleTableRecord
  2
AM_JIS$7
 70
     0
  3

  4
"
  5
OPEN30
  6

  7

 40
1.0
 41
2.5
 42
1.0
 43
10.0
 44
1.0
 45
0.0
 46
0.0
 47
0.1
 48
0.1
140
3.2
141
0.0
142
0.0
143
0.0393701
144
1.0
145
0.0
146
0.71
147
1.5
 71
     0
 72
     0
 73
     0
 74
     0
 75
     0
 76
     0
 77
     3
 78
     8
170
     0
171
     2
172
     1
173
     0
174
     0
175
     0
176
   256
177
   256
178
     2
270
     2
271
     2
272
     3
273
     2
274
     2
340
6B
275
     0
280
     0
281
     0
282
     0
283
     0
284
     0
285
     0
286
     0
287
     3
288
     0
  0
DIMSTYLE
105
63
330
A
100
AcDbSymbolTableRecord
100
AcDbDimStyleTableRecord
  2
AM_JIS$SF
 70
     0
  3

  4
"
  5
OPEN30
  6

  7

 40
1.0
 41
2.5
 42
1.0
 43
10.0
 44
1.0
 45
0.0
 46
0.0
 47
0.1
 48
0.1
140
3.2
141
0.0
142
0.0
143
0.0393701
144
1.0
145
0.0
146
0.71
147
1.5
 71
     0
 72
     0
 73
     0
 74
     0
 75
     1
 76
     1
 77
     3
 78
     8
170
     0
171
     2
172
     1
173
     0
174
     0
175
     0
176
   256
177
   256
178
     2
270
     2
271
     2
272
     2
273
     2
274
     2
340
6B
275
     0
280
     0
281
     0
282
     0
283
     0
284
     0
285
     0
286
     0
287
     3
288
     0
  0
DIMSTYLE
105
68
330
A
100
AcDbSymbolTableRecord
100
AcDbDimStyleTableRecord
  2
AM_JIS$SH
 70
     0
  3

  4
"
  5

  6
GENAXEH
  7
OPEN30
 40
1.0
 41
2.5
 42
1.0
 43
10.0
 44
1.0
 45
0.0
 46
0.0
 47
0.1
 48
0.1
140
3.2
141
0.0
142
0.0
143
0.0393701
144
2.0
145
0.0
146
0.71
147
1.5
 71
     0
 72
     0
 73
     0
 74
     0
 75
     1
 76
     1
 77
     3
 78
     8
170
     0
171
     2
172
     1
173
     1
174
     0
175
     0
176
   256
177
   256
178
     2
270
     2
271
     2
272
     2
273
     2
274
     2
340
6B
275
     0
280
     0
281
     0
282
     0
283
     0
284
     0
285
     0
286
     0
287
     3
288
     0
  0
DIMSTYLE
105
B34
330
A
100
AcDbSymbolTableRecord
100
AcDbDimStyleTableRecord
  2
AM_JIS$2
 70
     0
  3

  4
"
  5
OPEN30
  6

  7

 40
1.0
 41
2.5
 42
1.0
 43
12.0
 44
1.0
 45
0.0
 46
0.0
 47
0.1
 48
0.1
140
3.2
141
0.0
142
0.0
143
0.0393701
144
1.0
145
0.0
146
0.71
147
1.5
 71
     0
 72
     0
 73
     0
 74
     0
 75
     0
 76
     0
 77
     3
 78
     8
170
     0
171
     2
172
     1
173
     0
174
     0
175
     0
176
   256
177
   256
178
     2
270
     2
271
     3
272
     3
273
     2
274
     2
340
6B
275
     0
280
     0
281
     0
282
     0
283
     0
284
     0
285
     0
286
     0
287
     3
288
     0
  0
DIMSTYLE
105
1AB6
102
{ACAD_REACTORS
330
7F4A
330
7FDD
330
7FDC
330
804E
330
8089
330
80CF
330
82EA
330
8392
330
8627
330
87C4
330
7FDB
102
}
330
A
100
AcDbSymbolTableRecord
100
AcDbDimStyleTableRecord
  2
AM_JIS$0
 70
     0
  3

  4
"
  5
OPEN30
  6

  7

 40
1.0
 41
2.5
 42
0.0
 43
10.0
 44
1.0
 45
0.0
 46
0.0
 47
0.1
 48
0.1000000001
140
3.799999999999999
141
0.0
142
0.0
143
0.0393701
144
1.0
145
0.0
146
0.71
147
1.5
 71
     0
 72
     0
 73
     0
 74
     0
 75
     0
 76
     0
 77
     3
 78
     1
170
     0
171
     2
172
     1
173
     0
174
     0
175
     0
176
     3
177
     3
178
     2
270
     2
271
     2
272
     2
273
     2
274
     2
340
11
275
     1
280
     0
281
     0
282
     0
283
     0
284
     8
285
     0
286
     0
287
     0
288
     0
  0
ENDTAB
  0
TABLE
  2
BLOCK_RECORD
  5
1
330
0
100
AcDbSymbolTable
 70
    16
  0
BLOCK_RECORD
  5
1F
102
{ACAD_XDICTIONARY
360
74
102
}
330
1
100
AcDbSymbolTableRecord
100
AcDbBlockTableRecord
  2
*MODEL_SPACE
  0
BLOCK_RECORD
  5
101
102
{ACAD_XDICTIONARY
360
8A1B
102
}
330
1
100
AcDbSymbolTableRecord
100
AcDbBlockTableRecord
  2
*PAPER_SPACE
  0
BLOCK_RECORD
  5
59
330
1
100
AcDbSymbolTableRecord
100
AcDbBlockTableRecord
  2
_OPEN30
  0
BLOCK_RECORD
  5
64
330
1
100
AcDbSymbolTableRecord
100
AcDbBlockTableRecord
  2
GENAXEH
  0
BLOCK_RECORD
  5
7F63
330
1
100
AcDbSymbolTableRecord
100
AcDbBlockTableRecord
  2
*D5
  0
BLOCK_RECORD
  5
7FDE
330
1
100
AcDbSymbolTableRecord
100
AcDbBlockTableRecord
  2
*D6
  0
BLOCK_RECORD
  5
7FEA
330
1
100
AcDbSymbolTableRecord
100
AcDbBlockTableRecord
  2
*D7
  0
BLOCK_RECORD
  5
7FF6
330
1
100
AcDbSymbolTableRecord
100
AcDbBlockTableRecord
  2
*D8
  0
BLOCK_RECORD
  5
804F
330
1
100
AcDbSymbolTableRecord
100
AcDbBlockTableRecord
  2
*D9
  0
BLOCK_RECORD
  5
808C
330
1
100
AcDbSymbolTableRecord
100
AcDbBlockTableRecord
  2
*D10
  0
BLOCK_RECORD
  5
80D0
330
1
100
AcDbSymbolTableRecord
100
AcDbBlockTableRecord
  2
*D11
  0
BLOCK_RECORD
  5
82EB
330
1
100
AcDbSymbolTableRecord
100
AcDbBlockTableRecord
  2
*D12
  0
BLOCK_RECORD
  5
8393
330
1
100
AcDbSymbolTableRecord
100
AcDbBlockTableRecord
  2
*D13
  0
BLOCK_RECORD
  5
8628
330
1
100
AcDbSymbolTableRecord
100
AcDbBlockTableRecord
  2
*D14
  0
BLOCK_RECORD
  5
87C5
330
1
100
AcDbSymbolTableRecord
100
AcDbBlockTableRecord
  2
*D15
  0
ENDTAB
  0
ENDSEC
  0
SECTION
  2
BLOCKS
  0
BLOCK
  5
20
330
1F
100
AcDbEntity
  8
0
100
AcDbBlockBegin
  2
*MODEL_SPACE
 70
     0
 10
0.0
 20
0.0
 30
0.0
  3
*MODEL_SPACE
  1

  0
ENDBLK
  5
21
330
1F
100
AcDbEntity
  8
0
100
AcDbBlockEnd
  0
BLOCK
  5
103
330
101
100
AcDbEntity
 67
     1
  8
0
100
AcDbBlockBegin
  2
*PAPER_SPACE
 70
     0
 10
0.0
 20
0.0
 30
0.0
  3
*PAPER_SPACE
  1

  0
ENDBLK
  5
104
330
101
100
AcDbEntity
 67
     1
  8
0
100
AcDbBlockEnd
  0
BLOCK
  5
5D
330
59
100
AcDbEntity
  8
0
100
AcDbBlockBegin
  2
_OPEN30
 70
     0
 10
0.0
 20
0.0
 30
0.0
  3
_OPEN30
  1

  0
LINE
  5
5A
330
59
100
AcDbEntity
  8
0
 62
     0
100
AcDbLine
 10
-1.0
 20
0.26794919
 30
0.0
 11
0.0
 21
0.0
 31
0.0
  0
LINE
  5
5B
330
59
100
AcDbEntity
  8
0
 62
     0
100
AcDbLine
 10
0.0
 20
0.0
 30
0.0
 11
-1.0
 21
-0.26794919
 31
0.0
  0
LINE
  5
5C
330
59
100
AcDbEntity
  8
0
 62
     0
100
AcDbLine
 10
0.0
 20
0.0
 30
0.0
 11
-1.0
 21
0.0
 31
0.0
  0
ENDBLK
  5
5E
330
59
100
AcDbEntity
  8
0
100
AcDbBlockEnd
  0
BLOCK
  5
66
330
64
100
AcDbEntity
  8
0
100
AcDbBlockBegin
  2
GENAXEH
 70
     0
 10
0.0
 20
0.0
 30
0.0
  3
GENAXEH
  1

  0
LINE
  5
65
330
64
100
AcDbEntity
  8
0
100
AcDbLine
 10
-1.0
 20
0.0
 30
0.0
 11
1.0
 21
0.0
 31
0.0
  0
ENDBLK
  5
67
330
64
100
AcDbEntity
  8
0
100
AcDbBlockEnd
  0
BLOCK
  5
7F6D
330
7F63
100
AcDbEntity
  8
0
100
AcDbBlockBegin
  2
*D5
 70
     1
 10
0.0
 20
0.0
 30
0.0
  3
*D5
  1

  0
LINE
  5
8A1D
330
7F63
100
AcDbEntity
  8
AM_5
100
AcDbLine
 10
-50.33463134765202
 20
4.75
 30
0.0
 11
-70.59262947900197
 21
4.750000000000006
 31
0.0
  0
LINE
  5
8A1E
330
7F63
100
AcDbEntity
  8
AM_5
100
AcDbLine
 10
-50.134635925292
 20
-4.749999999999999
 30
0.0
 11
-70.59262947900197
 21
-4.749999999999993
 31
0.0
  0
LINE
  5
8A1F
330
7F63
100
AcDbEntity
  8
AM_5
100
AcDbLine
 10
-69.59262947900197
 20
2.250000000000005
 30
0.0
 11
-69.59262947900197
 21
-2.249999999999994
 31
0.0
  0
MTEXT
  5
8A20
330
7F63
100
AcDbEntity
  8
AM_5
 62
     2
100
AcDbMText
 10
-74.44262947900196
 20
-0.0000000000000052
 30
0.0
 40
3.2
 41
0.0
 71
     5
 72
     1
  1
9.5
  7
ASAMI
 11
0.0000000000000001
 21
1.0
 31
0.0
  0
INSERT
  5
8A21
330
7F63
100
AcDbEntity
  8
AM_5
100
AcDbBlockReference
  2
_OPEN30
 10
-69.59262947900197
 20
4.750000000000005
 30
0.0
 41
2.5
 42
2.5
 43
2.5
 50
90.0
  0
INSERT
  5
8A22
330
7F63
100
AcDbEntity
  8
AM_5
100
AcDbBlockReference
  2
_OPEN30
 10
-69.59262947900197
 20
-4.749999999999994
 30
0.0
 41
2.5
 42
2.5
 43
2.5
 50
270.0
  0
POINT
  5
8A23
330
7F63
100
AcDbEntity
  8
DEFPOINTS
 62
     0
100
AcDbPoint
 10
-49.33463134765202
 20
4.75
 30
0.0
  0
POINT
  5
8A24
330
7F63
100
AcDbEntity
  8
DEFPOINTS
 62
     0
100
AcDbPoint
 10
-49.134635925292
 20
-4.75
 30
0.0
  0
POINT
  5
8A25
330
7F63
100
AcDbEntity
  8
DEFPOINTS
 62
     0
100
AcDbPoint
 10
-69.59262947900197
 20
-4.749999999999994
 30
0.0
  0
ENDBLK
  5
7F6E
330
7F63
100
AcDbEntity
  8
0
100
AcDbBlockEnd
  0
BLOCK
  5
7FE8
330
7FDE
100
AcDbEntity
  8
0
100
AcDbBlockBegin
  2
*D6
 70
     1
 10
0.0
 20
0.0
 30
0.0
  3
*D6
  1

  0
LINE
  5
8A26
330
7FDE
100
AcDbEntity
  8
AM_5
100
AcDbLine
 10
-49.99999237059992
 20
-26.99999986886591
 30
0.0
 11
-49.99999237059992
 21
-54.97115073248801
 31
0.0
  0
LINE
  5
8A27
330
7FDE
100
AcDbEntity
  8
AM_5
100
AcDbLine
 10
-43.9999923706
 20
-5.75
 30
0.0
 11
-43.9999923706
 21
-54.97115073248801
 31
0.0
  0
LINE
  5
8A28
330
7FDE
100
AcDbEntity
  8
AM_5
100
AcDbLine
 10
-52.49999237059992
 20
-53.97115073248802
 30
0.0
 11
-54.99999237059992
 21
-53.97115073248802
 31
0.0
  0
LINE
  5
8A29
330
7FDE
100
AcDbEntity
  8
AM_5
100
AcDbLine
 10
-41.4999923706
 20
-53.97115073248802
 30
0.0
 11
-38.99999237059999
 21
-53.97115073248802
 31
0.0
  0
MTEXT
  5
8A2A
330
7FDE
100
AcDbEntity
  8
AM_5
 62
     2
100
AcDbMText
 10
-47.19728325758114
 20
-50.67665885250017
 30
0.0
 40
3.2
 41
0.0
 71
     5
 72
     1
  1
6
  7
ASAMI
  0
LINE
  5
8A2B
330
7FDE
100
AcDbEntity
  8
AM_5
100
AcDbLine
 10
-49.99999237059992
 20
-53.97115073248802
 30
0.0
 11
-43.9999923706
 21
-53.97115073248802
 31
0.0
  0
INSERT
  5
8A2C
330
7FDE
100
AcDbEntity
  8
AM_5
100
AcDbBlockReference
  2
_OPEN30
 10
-49.99999237059992
 20
-53.97115073248802
 30
0.0
 41
2.5
 42
2.5
 43
2.5
  0
INSERT
  5
8A2D
330
7FDE
100
AcDbEntity
  8
AM_5
100
AcDbBlockReference
  2
_OPEN30
 10
-43.9999923706
 20
-53.97115073248802
 30
0.0
 41
2.5
 42
2.5
 43
2.5
 50
180.0
  0
POINT
  5
8A2E
330
7FDE
100
AcDbEntity
  8
DEFPOINTS
 62
     0
100
AcDbPoint
 10
-49.99999237059992
 20
-25.99999986886591
 30
0.0
  0
POINT
  5
8A2F
330
7FDE
100
AcDbEntity
  8
DEFPOINTS
 62
     0
100
AcDbPoint
 10
-43.9999923706
 20
-4.75
 30
0.0
  0
POINT
  5
8A30
330
7FDE
100
AcDbEntity
  8
DEFPOINTS
 62
     0
100
AcDbPoint
 10
-43.9999923706
 20
-53.97115073248802
 30
0.0
  0
ENDBLK
  5
7FE9
330
7FDE
100
AcDbEntity
  8
0
100
AcDbBlockEnd
  0
BLOCK
  5
7FF4
330
7FEA
100
AcDbEntity
  8
0
100
AcDbBlockBegin
  2
*D7
 70
     1
 10
0.0
 20
0.0
 30
0.0
  3
*D7
  1

  0
LINE
  5
8A3A
330
7FEA
100
AcDbEntity
  8
AM_5
100
AcDbLine
 10
-49.99999237059992
 20
-26.99999986886585
 30
0.0
 11
-49.99999237059992
 21
-64.97321801049811
 31
0.0
  0
LINE
  5
8A3B
330
7FEA
100
AcDbEntity
  8
AM_5
100
AcDbLine
 10
-24.99999416591669
 20
-14.20000000000001
 30
0.0
 11
-24.99999416591669
 21
-64.97321801049811
 31
0.0
  0
LINE
  5
8A3C
330
7FEA
100
AcDbEntity
  8
AM_5
100
AcDbLine
 10
-47.49999237059992
 20
-63.97321801049812
 30
0.0
 11
-27.49999416591669
 21
-63.97321801049812
 31
0.0
  0
INSERT
  5
8A3D
330
7FEA
100
AcDbEntity
  8
AM_5
100
AcDbBlockReference
  2
_OPEN30
 10
-49.99999237059992
 20
-63.97321801049812
 30
0.0
 41
2.5
 42
2.5
 43
2.5
 50
180.0
  0
INSERT
  5
8A3E
330
7FEA
100
AcDbEntity
  8
AM_5
100
AcDbBlockReference
  2
_OPEN30
 10
-24.99999416591669
 20
-63.97321801049812
 30
0.0
 41
2.5
 42
2.5
 43
2.5
  0
MTEXT
  5
8A3F
330
7FEA
100
AcDbEntity
  8
AM_5
 62
     2
100
AcDbMText
 10
-37.49999326825831
 20
-60.87321801049811
 30
0.0
 40
3.2
 41
0.0
 71
     5
 72
     1
  1
25
  7
ASAMI
  0
POINT
  5
8A40
330
7FEA
100
AcDbEntity
  8
DEFPOINTS
 62
     0
100
AcDbPoint
 10
-49.99999237059992
 20
-25.99999986886585
 30
0.0
  0
POINT
  5
8A41
330
7FEA
100
AcDbEntity
  8
DEFPOINTS
 62
     0
100
AcDbPoint
 10
-24.99999416591669
 20
-13.20000000000001
 30
0.0
  0
POINT
  5
8A42
330
7FEA
100
AcDbEntity
  8
DEFPOINTS
 62
     0
100
AcDbPoint
 10
-24.99999416591669
 20
-63.97321801049812
 30
0.0
  0
ENDBLK
  5
7FF5
330
7FEA
100
AcDbEntity
  8
0
100
AcDbBlockEnd
  0
BLOCK
  5
8000
330
7FF6
100
AcDbEntity
  8
0
100
AcDbBlockBegin
  2
*D8
 70
     1
 10
0.0
 20
0.0
 30
0.0
  3
*D8
  1

  0
LINE
  5
8A31
330
7FF6
100
AcDbEntity
  8
AM_5
100
AcDbLine
 10
-49.99999237059992
 20
-26.99999986886585
 30
0.0
 11
-49.99999237059993
 21
-84.97320807640571
 31
0.0
  0
LINE
  5
8A32
330
7FF6
100
AcDbEntity
  8
AM_5
100
AcDbLine
 10
-0.0000000000000001
 20
-40.99999999999999
 30
0.0
 11
-0.0000000000000028
 21
-84.97320807640571
 31
0.0
  0
LINE
  5
8A33
330
7FF6
100
AcDbEntity
  8
AM_5
100
AcDbLine
 10
-47.49999237059992
 20
-83.97320807640571
 30
0.0
 11
-2.500000000000002
 21
-83.97320807640571
 31
0.0
  0
INSERT
  5
8A34
330
7FF6
100
AcDbEntity
  8
AM_5
100
AcDbBlockReference
  2
_OPEN30
 10
-49.99999237059992
 20
-83.97320807640571
 30
0.0
 41
2.5
 42
2.5
 43
2.5
 50
180.0
  0
INSERT
  5
8A35
330
7FF6
100
AcDbEntity
  8
AM_5
100
AcDbBlockReference
  2
_OPEN30
 10
-0.0000000000000027
 20
-83.97320807640571
 30
0.0
 41
2.5
 42
2.5
 43
2.5
  0
MTEXT
  5
8A36
330
7FF6
100
AcDbEntity
  8
AM_5
 62
     2
100
AcDbMText
 10
-24.99999618529996
 20
-80.87320807640571
 30
0.0
 40
3.2
 41
0.0
 71
     5
 72
     1
  1
50
  7
ASAMI
  0
POINT
  5
8A37
330
7FF6
100
AcDbEntity
  8
DEFPOINTS
 62
     0
100
AcDbPoint
 10
-49.99999237059992
 20
-25.99999986886585
 30
0.0
  0
POINT
  5
8A38
330
7FF6
100
AcDbEntity
  8
DEFPOINTS
 62
     0
100
AcDbPoint
 10
0.0
 20
-39.99999999999999
 30
0.0
  0
POINT
  5
8A39
330
7FF6
100
AcDbEntity
  8
DEFPOINTS
 62
     0
100
AcDbPoint
 10
-0.0000000000000027
 20
-83.97320807640571
 30
0.0
  0
ENDBLK
  5
8001
330
7FF6
100
AcDbEntity
  8
0
100
AcDbBlockEnd
  0
BLOCK
  5
805B
330
804F
100
AcDbEntity
  8
0
100
AcDbBlockBegin
  2
*D9
 70
     1
 10
0.0
 20
0.0
 30
0.0
  3
*D9
  1

  0
LINE
  5
8A43
330
804F
100
AcDbEntity
  8
AM_5
100
AcDbLine
 10
-24.99999416591669
 20
-14.20000000000001
 30
0.0
 11
-24.99999416591669
 21
-64.97321801049811
 31
0.0
  0
LINE
  5
8A44
330
804F
100
AcDbEntity
  8
AM_5
100
AcDbLine
 10
-19.99999237060598
 20
-11.0
 30
0.0
 11
-19.99999237060598
 21
-64.97321801049811
 31
0.0
  0
LINE
  5
8A45
330
804F
100
AcDbEntity
  8
AM_5
100
AcDbLine
 10
-27.49999416591669
 20
-63.97321801049812
 30
0.0
 11
-29.99999416591669
 21
-63.97321801049812
 31
0.0
  0
LINE
  5
8A46
330
804F
100
AcDbEntity
  8
AM_5
100
AcDbLine
 10
-17.49999237060598
 20
-63.97321801049812
 30
0.0
 11
-14.99999237060598
 21
-63.97321801049812
 31
0.0
  0
MTEXT
  5
8A47
330
804F
100
AcDbEntity
  8
AM_5
 62
     2
100
AcDbMText
 10
-22.27911303276516
 20
-60.94022936351411
 30
0.0
 40
3.2
 41
0.0
 71
     5
 72
     1
  1
5
  7
ASAMI
  0
LINE
  5
8A48
330
804F
100
AcDbEntity
  8
AM_5
100
AcDbLine
 10
-24.99999416591669
 20
-63.97321801049812
 30
0.0
 11
-19.99999237060598
 21
-63.97321801049812
 31
0.0
  0
INSERT
  5
8A49
330
804F
100
AcDbEntity
  8
AM_5
100
AcDbBlockReference
  2
_OPEN30
 10
-24.99999416591669
 20
-63.97321801049812
 30
0.0
 41
2.5
 42
2.5
 43
2.5
  0
INSERT
  5
8A4A
330
804F
100
AcDbEntity
  8
AM_5
100
AcDbBlockReference
  2
_OPEN30
 10
-19.99999237060598
 20
-63.97321801049812
 30
0.0
 41
2.5
 42
2.5
 43
2.5
 50
180.0
  0
POINT
  5
8A4B
330
804F
100
AcDbEntity
  8
DEFPOINTS
 62
     0
100
AcDbPoint
 10
-24.99999416591669
 20
-13.20000000000001
 30
0.0
  0
POINT
  5
8A4C
330
804F
100
AcDbEntity
  8
DEFPOINTS
 62
     0
100
AcDbPoint
 10
-19.99999237060598
 20
-10.0
 30
0.0
  0
POINT
  5
8A4D
330
804F
100
AcDbEntity
  8
DEFPOINTS
 62
     0
100
AcDbPoint
 10
-19.99999237060598
 20
-63.97321801049812
 30
0.0
  0
ENDBLK
  5
805C
330
804F
100
AcDbEntity
  8
0
100
AcDbBlockEnd
  0
BLOCK
  5
8096
330
808C
100
AcDbEntity
  8
0
100
AcDbBlockBegin
  2
*D10
 70
     1
 10
0.0
 20
0.0
 30
0.0
  3
*D10
  1

  0
LINE
  5
8A4E
330
808C
100
AcDbEntity
  8
AM_5
100
AcDbLine
 10
1.0
 20
40.0
 30
0.0
 11
43.087590263916
 21
39.99999999999999
 31
0.0
  0
LINE
  5
8A4F
330
808C
100
AcDbEntity
  8
AM_5
100
AcDbLine
 10
1.0
 20
-39.99999999999999
 30
0.0
 11
43.08759026391598
 21
-40.0
 31
0.0
  0
LINE
  5
8A50
330
808C
100
AcDbEntity
  8
AM_5
100
AcDbLine
 10
42.08759026391599
 20
37.49999999999999
 30
0.0
 11
42.08759026391598
 21
-37.5
 31
0.0
  0
INSERT
  5
8A51
330
808C
100
AcDbEntity
  8
AM_5
100
AcDbBlockReference
  2
_OPEN30
 10
42.08759026391599
 20
39.99999999999999
 30
0.0
 41
2.5
 42
2.5
 43
2.5
 50
90.0
  0
INSERT
  5
8A52
330
808C
100
AcDbEntity
  8
AM_5
100
AcDbBlockReference
  2
_OPEN30
 10
42.08759026391598
 20
-40.0
 30
0.0
 41
2.5
 42
2.5
 43
2.5
 50
270.0
  0
MTEXT
  5
8A53
330
808C
100
AcDbEntity
  8
AM_5
 62
     2
100
AcDbMText
 10
38.98759026391599
 20
0.0000000000000014
 30
0.0
 40
3.2
 41
0.0
 71
     5
 72
     1
  1
%%c80
  7
ASAMI
 11
0.0000000000000001
 21
1.0
 31
0.0
  0
POINT
  5
8A54
330
808C
100
AcDbEntity
  8
DEFPOINTS
 62
     0
100
AcDbPoint
 10
0.0
 20
40.0
 30
0.0
  0
POINT
  5
8A55
330
808C
100
AcDbEntity
  8
DEFPOINTS
 62
     0
100
AcDbPoint
 10
0.0
 20
-39.99999999999999
 30
0.0
  0
POINT
  5
8A56
330
808C
100
AcDbEntity
  8
DEFPOINTS
 62
     0
100
AcDbPoint
 10
42.08759026391598
 20
-40.0
 30
0.0
  0
ENDBLK
  5
8097
330
808C
100
AcDbEntity
  8
0
100
AcDbBlockEnd
  0
BLOCK
  5
80DA
330
80D0
100
AcDbEntity
  8
0
100
AcDbBlockBegin
  2
*D11
 70
     1
 10
0.0
 20
0.0
 30
0.0
  3
*D11
  1

  0
LINE
  5
8A57
330
80D0
100
AcDbEntity
  8
AM_5
100
AcDbLine
 10
-8.634628427032254
 20
10.0
 30
0.0
 11
33.08759026391601
 21
9.999999999999989
 31
0.0
  0
LINE
  5
8A58
330
80D0
100
AcDbEntity
  8
AM_5
100
AcDbLine
 10
-8.634628427032168
 20
-10.0
 30
0.0
 11
33.08759026391601
 21
-10.00000000000001
 31
0.0
  0
LINE
  5
8A59
330
80D0
100
AcDbEntity
  8
AM_5
100
AcDbLine
 10
32.08759026391601
 20
7.499999999999989
 30
0.0
 11
32.08759026391601
 21
-7.50000000000001
 31
0.0
  0
INSERT
  5
8A5A
330
80D0
100
AcDbEntity
  8
AM_5
100
AcDbBlockReference
  2
_OPEN30
 10
32.08759026391601
 20
9.999999999999989
 30
0.0
 41
2.5
 42
2.5
 43
2.5
 50
90.0
  0
INSERT
  5
8A5B
330
80D0
100
AcDbEntity
  8
AM_5
100
AcDbBlockReference
  2
_OPEN30
 10
32.08759026391601
 20
-10.00000000000001
 30
0.0
 41
2.5
 42
2.5
 43
2.5
 50
270.0
  0
MTEXT
  5
8A5C
330
80D0
100
AcDbEntity
  8
AM_5
 62
     2
100
AcDbMText
 10
28.98759026391601
 20
-0.0000000000000051
 30
0.0
 40
3.2
 41
0.0
 71
     5
 72
     1
  1
%%c20
  7
ASAMI
 11
0.0000000000000001
 21
1.0
 31
0.0
  0
POINT
  5
8A5D
330
80D0
100
AcDbEntity
  8
DEFPOINTS
 62
     0
100
AcDbPoint
 10
-9.634628427032254
 20
10.0
 30
0.0
  0
POINT
  5
8A5E
330
80D0
100
AcDbEntity
  8
DEFPOINTS
 62
     0
100
AcDbPoint
 10
-9.634628427032168
 20
-10.0
 30
0.0
  0
POINT
  5
8A5F
330
80D0
100
AcDbEntity
  8
DEFPOINTS
 62
     0
100
AcDbPoint
 10
32.08759026391601
 20
-10.00000000000001
 30
0.0
  0
ENDBLK
  5
80DB
330
80D0
100
AcDbEntity
  8
0
100
AcDbBlockEnd
  0
BLOCK
  5
82F5
330
82EB
100
AcDbEntity
  8
0
100
AcDbBlockBegin
  2
*D12
 70
     1
 10
0.0
 20
0.0
 30
0.0
  3
*D12
  1

  0
LINE
  5
8A60
330
82EB
100
AcDbEntity
  8
AM_5
100
AcDbLine
 10
-49.63462832926225
 20
12.7
 30
0.0
 11
-80.59262947900197
 21
12.70000000000001
 31
0.0
  0
LINE
  5
8A61
330
82EB
100
AcDbEntity
  8
AM_5
100
AcDbLine
 10
-49.63463768722644
 20
-12.70000000000001
 30
0.0
 11
-80.59262947900197
 21
-12.7
 31
0.0
  0
LINE
  5
8A62
330
82EB
100
AcDbEntity
  8
AM_5
100
AcDbLine
 10
-79.59262947900197
 20
10.20000000000001
 30
0.0
 11
-79.59262947900197
 21
-10.2
 31
0.0
  0
INSERT
  5
8A63
330
82EB
100
AcDbEntity
  8
AM_5
100
AcDbBlockReference
  2
_OPEN30
 10
-79.59262947900197
 20
12.70000000000001
 30
0.0
 41
2.5
 42
2.5
 43
2.5
 50
90.0
  0
INSERT
  5
8A64
330
82EB
100
AcDbEntity
  8
AM_5
100
AcDbBlockReference
  2
_OPEN30
 10
-79.59262947900197
 20
-12.7
 30
0.0
 41
2.5
 42
2.5
 43
2.5
 50
270.0
  0
MTEXT
  5
8A65
330
82EB
100
AcDbEntity
  8
AM_5
 62
     2
100
AcDbMText
 10
-82.69262947900196
 20
-0.0000000000000107
 30
0.0
 40
3.2
 41
0.0
 71
     5
 72
     1
  1
%%c25.4
  7
ASAMI
 11
0.0000000000000001
 21
1.0
 31
0.0
  0
POINT
  5
8A66
330
82EB
100
AcDbEntity
  8
DEFPOINTS
 62
     0
100
AcDbPoint
 10
-48.63462832926225
 20
12.7
 30
0.0
  0
POINT
  5
8A67
330
82EB
100
AcDbEntity
  8
DEFPOINTS
 62
     0
100
AcDbPoint
 10
-48.63463768722644
 20
-12.70000000000001
 30
0.0
  0
POINT
  5
8A68
330
82EB
100
AcDbEntity
  8
DEFPOINTS
 62
     0
100
AcDbPoint
 10
-79.59262947900197
 20
-12.7
 30
0.0
  0
ENDBLK
  5
82F6
330
82EB
100
AcDbEntity
  8
0
100
AcDbBlockEnd
  0
BLOCK
  5
839D
330
8393
100
AcDbEntity
  8
0
100
AcDbBlockBegin
  2
*D13
 70
     1
 10
0.0
 20
0.0
 30
0.0
  3
*D13
  1

  0
LINE
  5
8A69
330
8393
100
AcDbEntity
  8
AM_5
100
AcDbLine
 10
-49.63462829589198
 20
27.5
 30
0.0
 11
-90.59262947900197
 21
27.50000000000001
 31
0.0
  0
LINE
  5
8A6A
330
8393
100
AcDbEntity
  8
AM_5
100
AcDbLine
 10
-49.63462829589193
 20
-27.50000000000008
 30
0.0
 11
-90.59262947900197
 21
-27.50000000000007
 31
0.0
  0
LINE
  5
8A6B
330
8393
100
AcDbEntity
  8
AM_5
100
AcDbLine
 10
-89.59262947900198
 20
25.00000000000001
 30
0.0
 11
-89.59262947900198
 21
-25.00000000000007
 31
0.0
  0
INSERT
  5
8A6C
330
8393
100
AcDbEntity
  8
AM_5
100
AcDbBlockReference
  2
_OPEN30
 10
-89.59262947900198
 20
27.50000000000001
 30
0.0
 41
2.5
 42
2.5
 43
2.5
 50
90.0
  0
INSERT
  5
8A6D
330
8393
100
AcDbEntity
  8
AM_5
100
AcDbBlockReference
  2
_OPEN30
 10
-89.59262947900198
 20
-27.50000000000007
 30
0.0
 41
2.5
 42
2.5
 43
2.5
 50
270.0
  0
MTEXT
  5
8A6E
330
8393
100
AcDbEntity
  8
AM_5
 62
     2
100
AcDbMText
 10
-92.69262947900196
 20
-0.0000000000000439
 30
0.0
 40
3.2
 41
0.0
 71
     5
 72
     1
  1
%%c55
  7
ASAMI
 11
0.0000000000000001
 21
1.0
 31
0.0
  0
POINT
  5
8A6F
330
8393
100
AcDbEntity
  8
DEFPOINTS
 62
     0
100
AcDbPoint
 10
-48.63462829589199
 20
27.5
 30
0.0
  0
POINT
  5
8A70
330
8393
100
AcDbEntity
  8
DEFPOINTS
 62
     0
100
AcDbPoint
 10
-48.63462829589193
 20
-27.50000000000008
 30
0.0
  0
POINT
  5
8A71
330
8393
100
AcDbEntity
  8
DEFPOINTS
 62
     0
100
AcDbPoint
 10
-89.59262947900198
 20
-27.50000000000007
 30
0.0
  0
ENDBLK
  5
839E
330
8393
100
AcDbEntity
  8
0
100
AcDbBlockEnd
  0
BLOCK
  5
8632
330
8628
100
AcDbEntity
  8
0
100
AcDbBlockBegin
  2
*D14
 70
     1
 10
0.0
 20
0.0
 30
0.0
  3
*D14
  1

  0
LINE
  5
8A72
330
8628
100
AcDbEntity
  8
AM_5
100
AcDbLine
 10
-49.99999237059992
 20
-26.99999986886585
 30
0.0
 11
-49.99999237059992
 21
-74.97321801049803
 31
0.0
  0
LINE
  5
8A73
330
8628
100
AcDbEntity
  8
AM_5
100
AcDbLine
 10
-6.49999237060598
 20
-21.68294075618388
 30
0.0
 11
-6.499992370605983
 21
-74.97321801049803
 31
0.0
  0
LINE
  5
8A74
330
8628
100
AcDbEntity
  8
AM_5
100
AcDbLine
 10
-47.49999237059992
 20
-73.97321801049803
 30
0.0
 11
-8.999992370605983
 21
-73.97321801049803
 31
0.0
  0
INSERT
  5
8A75
330
8628
100
AcDbEntity
  8
AM_5
100
AcDbBlockReference
  2
_OPEN30
 10
-49.99999237059992
 20
-73.97321801049803
 30
0.0
 41
2.5
 42
2.5
 43
2.5
 50
180.0
  0
INSERT
  5
8A76
330
8628
100
AcDbEntity
  8
AM_5
100
AcDbBlockReference
  2
_OPEN30
 10
-6.499992370605983
 20
-73.97321801049803
 30
0.0
 41
2.5
 42
2.5
 43
2.5
  0
MTEXT
  5
8A77
330
8628
100
AcDbEntity
  8
AM_5
 62
     2
100
AcDbMText
 10
-28.24999237060295
 20
-70.87321801049803
 30
0.0
 40
3.2
 41
0.0
 71
     5
 72
     1
  1
43.5
  7
ASAMI
  0
POINT
  5
8A78
330
8628
100
AcDbEntity
  8
DEFPOINTS
 62
     0
100
AcDbPoint
 10
-49.99999237059992
 20
-25.99999986886585
 30
0.0
  0
POINT
  5
8A79
330
8628
100
AcDbEntity
  8
DEFPOINTS
 62
     0
100
AcDbPoint
 10
-6.49999237060598
 20
-20.68294075618388
 30
0.0
  0
POINT
  5
8A7A
330
8628
100
AcDbEntity
  8
DEFPOINTS
 62
     0
100
AcDbPoint
 10
-6.499992370605983
 20
-73.97321801049803
 30
0.0
  0
ENDBLK
  5
8633
330
8628
100
AcDbEntity
  8
0
100
AcDbBlockEnd
  0
BLOCK
  5
87CF
330
87C5
100
AcDbEntity
  8
0
100
AcDbBlockBegin
  2
*D15
 70
     1
 10
0.0
 20
0.0
 30
0.0
  3
*D15
  1

  0
LINE
  5
8A7B
330
87C5
100
AcDbEntity
  8
AM_5
100
AcDbLine
 10
-18.99999237059995
 20
6.5
 30
0.0
 11
23.08759026391601
 21
6.499999999999987
 31
0.0
  0
LINE
  5
8A7C
330
87C5
100
AcDbEntity
  8
AM_5
100
AcDbLine
 10
-18.99999237059995
 20
-6.5
 30
0.0
 11
23.08759026391601
 21
-6.500000000000012
 31
0.0
  0
LINE
  5
8A7D
330
87C5
100
AcDbEntity
  8
AM_5
100
AcDbLine
 10
22.08759026391601
 20
3.999999999999987
 30
0.0
 11
22.08759026391601
 21
-4.000000000000012
 31
0.0
  0
INSERT
  5
8A7E
330
87C5
100
AcDbEntity
  8
AM_5
100
AcDbBlockReference
  2
_OPEN30
 10
22.08759026391601
 20
6.499999999999987
 30
0.0
 41
2.5
 42
2.5
 43
2.5
 50
90.0
  0
INSERT
  5
8A7F
330
87C5
100
AcDbEntity
  8
AM_5
100
AcDbBlockReference
  2
_OPEN30
 10
22.08759026391601
 20
-6.500000000000012
 30
0.0
 41
2.5
 42
2.5
 43
2.5
 50
270.0
  0
MTEXT
  5
8A80
330
87C5
100
AcDbEntity
  8
AM_5
 62
     2
100
AcDbMText
 10
18.98759026391601
 20
-0.0000000000000081
 30
0.0
 40
3.2
 41
0.0
 71
     5
 72
     1
  1
%%c13
  7
ASAMI
 11
0.0000000000000001
 21
1.0
 31
0.0
  0
POINT
  5
8A81
330
87C5
100
AcDbEntity
  8
DEFPOINTS
 62
     0
100
AcDbPoint
 10
-19.99999237059995
 20
6.5
 30
0.0
  0
POINT
  5
8A82
330
87C5
100
AcDbEntity
  8
DEFPOINTS
 62
     0
100
AcDbPoint
 10
-19.99999237059995
 20
-6.5
 30
0.0
  0
POINT
  5
8A83
330
87C5
100
AcDbEntity
  8
DEFPOINTS
 62
     0
100
AcDbPoint
 10
22.08759026391601
 20
-6.500000000000012
 30
0.0
  0
ENDBLK
  5
87D0
330
87C5
100
AcDbEntity
  8
0
100
AcDbBlockEnd
  0
ENDSEC
  0
SECTION
  2
ENTITIES
  0
TEXT
  5
E5A
330
1F
100
AcDbEntity
  8
AM_6
100
AcDbText
 10
-46.42856761387137
 20
-106.4732080764057
 30
0.0
 40
5.0
  1
WRC20080R
 72
     4
 11
-24.99999618529995
 21
-103.9732080764057
 31
0.0
100
AcDbText
  0
LINE
  5
7D35
330
1F
100
AcDbEntity
  8
AM_0
  6
CONTINUOUS
 48
0.5
100
AcDbLine
 10
-42.89999392985026
 20
12.7
 30
0.0
 11
-42.89999565841443
 21
-12.70000000000001
 31
0.0
  0
LINE
  5
7D37
330
1F
100
AcDbEntity
  8
AM_0
  6
CONTINUOUS
100
AcDbLine
 10
-6.49999237060598
 20
20.626762390137
 30
0.0
 11
-6.49999237060598
 21
-13.0
 31
0.0
  0
LINE
  5
7D38
330
1F
100
AcDbEntity
  8
AM_0
  6
CONTINUOUS
 48
0.5
100
AcDbLine
 10
-29.99999240397625
 20
13.2
 30
0.0
 11
-29.99999413254042
 21
-13.20000000000001
 31
0.0
  0
LINE
  5
7D39
330
1F
100
AcDbEntity
  8
AM_0
  6
CONTINUOUS
 48
0.5
100
AcDbLine
 10
-43.9999923706
 20
4.75
 30
0.0
 11
-43.9999923706
 21
-4.75
 31
0.0
  0
LINE
  5
7D3D
330
1F
100
AcDbEntity
  8
AM_0
  6
CONTINUOUS
 48
0.5
100
AcDbLine
 10
-6.49999237060598
 20
-13.0
 30
0.0
 11
-6.49999237060598
 21
-20.68294075618388
 31
0.0
  0
LINE
  5
7D3E
330
1F
100
AcDbEntity
  8
AM_0
  6
CONTINUOUS
 48
0.5
100
AcDbLine
 10
-49.99999237059999
 20
-5.75
 30
0.0
 11
-49.99999237059999
 21
-26.00000000000008
 31
0.0
  0
ARC
  5
7D40
330
1F
100
AcDbEntity
  8
AM_0
  6
CONTINUOUS
 48
0.5
100
AcDbCircle
 10
-9.49999237060598
 20
-13.0
 30
0.0
 40
3.0
100
AcDbArc
 50
0.0
 51
90.00000250447845
  0
LINE
  5
7D41
330
1F
100
AcDbEntity
  8
AM_0
  6
CONTINUOUS
 48
0.5
100
AcDbLine
 10
-48.49999237059998
 20
-4.75
 30
0.0
 11
-48.49999413253442
 21
-12.70000000000001
 31
0.0
  0
LINE
  5
7D42
330
1F
100
AcDbEntity
  8
AM_0
  6
CONTINUOUS
 48
0.5
100
AcDbLine
 10
-29.99999413254042
 20
-13.20000000000001
 30
0.0
 11
-24.99999416591669
 21
-13.20000000000001
 31
0.0
  0
LINE
  5
7D43
330
1F
100
AcDbEntity
  8
AM_0
  6
CONTINUOUS
 48
0.5
100
AcDbLine
 10
-50.00000176193444
 20
-14.20000762939001
 30
0.0
 11
-48.50000176193444
 21
-12.70000000000001
 31
0.0
  0
LINE
  5
7D44
330
1F
100
AcDbEntity
  8
AM_0
  6
CONTINUOUS
 48
0.5
100
AcDbLine
 10
-48.49999413253442
 20
-12.70000000000001
 30
0.0
 11
-29.99999413254042
 21
-12.70000000000001
 31
0.0
  0
LINE
  5
7D45
330
1F
100
AcDbEntity
  8
AM_0
  6
CONTINUOUS
 48
0.5
100
AcDbLine
 10
-50.0
 20
-5.75
 30
0.0
 11
-49.0
 21
-4.75
 31
0.0
  0
LINE
  5
7D46
330
1F
100
AcDbEntity
  8
AM_0
  6
CONTINUOUS
 48
0.5
100
AcDbLine
 10
-48.99999237059998
 20
-4.75
 30
0.0
 11
-43.9999923706
 21
-4.75
 31
0.0
  0
LINE
  5
7D47
330
1F
100
AcDbEntity
  8
AM_0
  6
CONTINUOUS
 48
0.5
100
AcDbLine
 10
-19.99999237060598
 20
-10.0
 30
0.0
 11
-9.49999237060598
 21
-10.0
 31
0.0
  0
LINE
  5
7D48
330
1F
100
AcDbEntity
  8
AM_0
  6
CONTINUOUS
 48
0.5
100
AcDbLine
 10
-24.99999240398224
 20
-6.5
 30
0.0
 11
-19.99999237060598
 21
-6.5
 31
0.0
  0
LINE
  5
7D49
330
1F
100
AcDbEntity
  8
AM_0
  6
CONTINUOUS
 48
0.5
100
AcDbLine
 10
-49.99999237059999
 20
26.0
 30
0.0
 11
-49.99999237059999
 21
5.75
 31
0.0
  0
LINE
  5
7D4A
330
1F
100
AcDbEntity
  8
AM_0
  6
CONTINUOUS
 48
0.5
100
AcDbLine
 10
-48.49999240397025
 20
12.7
 30
0.0
 11
-48.49999237059998
 21
4.75
 31
0.0
  0
LINE
  5
7D4B
330
1F
100
AcDbEntity
  8
AM_7
  6
AM_ISO08W050
100
AcDbLine
 10
-55.59262847900197
 20
0.0
 30
0.0
 11
8.087589263916015
 21
0.0
 31
0.0
  0
LINE
  5
7D4C
330
1F
100
AcDbEntity
  8
AM_0
  6
CONTINUOUS
 48
0.5
100
AcDbLine
 10
-50.0
 20
5.75
 30
0.0
 11
-49.0
 21
4.75
 31
0.0
  0
LINE
  5
7D4D
330
1F
100
AcDbEntity
  8
AM_0
  6
CONTINUOUS
 48
0.5
100
AcDbLine
 10
-48.99999237059998
 20
4.75
 30
0.0
 11
-43.9999923706
 21
4.75
 31
0.0
  0
LINE
  5
7D4E
330
1F
100
AcDbEntity
  8
AM_0
  6
CONTINUOUS
 48
0.5
100
AcDbLine
 10
-24.99999240398224
 20
6.5
 30
0.0
 11
-19.99999237060598
 21
6.5
 31
0.0
  0
ARC
  5
7D4F
330
1F
100
AcDbEntity
  8
AM_0
  6
CONTINUOUS
 48
0.5
100
AcDbCircle
 10
-9.49999237060598
 20
13.0
 30
0.0
 40
3.0
100
AcDbArc
 50
269.9999974955198
 51
0.0
  0
LINE
  5
7D50
330
1F
100
AcDbEntity
  8
AM_0
  6
CONTINUOUS
 48
0.5
100
AcDbLine
 10
-19.99999237060598
 20
10.0
 30
0.0
 11
-9.49999237060598
 21
10.0
 31
0.0
  0
LINE
  5
7D51
330
1F
100
AcDbEntity
  8
AM_0
  6
CONTINUOUS
 48
0.5
100
AcDbLine
 10
-29.99999240397625
 20
13.2
 30
0.0
 11
-24.99999243735251
 21
13.2
 31
0.0
  0
LINE
  5
7D52
330
1F
100
AcDbEntity
  8
AM_0
  6
CONTINUOUS
 48
0.5
100
AcDbLine
 10
-50.00000003337027
 20
14.199992370605
 30
0.0
 11
-48.50000003337027
 21
12.699992370605
 31
0.0
  0
LINE
  5
7D53
330
1F
100
AcDbEntity
  8
AM_0
  6
CONTINUOUS
 48
0.5
100
AcDbLine
 10
-48.49999240397025
 20
12.7
 30
0.0
 11
-29.99999240397625
 21
12.7
 31
0.0
  0
CIRCLE
  5
7D54
330
1F
100
AcDbEntity
  8
AM_0
  6
CONTINUOUS
 48
0.5
100
AcDbCircle
 10
-9.930077370685467
 20
30.03149032592801
 30
0.0
 40
4.5
  0
LINE
  5
7D55
330
1F
100
AcDbEntity
  8
AM_0
  6
CONTINUOUS
 48
0.5
100
AcDbLine
 10
-29.13396453857498
 20
29.0
 30
0.0
 11
-27.11324310302797
 21
32.5
 31
0.0
  0
LINE
  5
7D56
330
1F
100
AcDbEntity
  8
AM_0
  6
CONTINUOUS
 48
0.5
100
AcDbLine
 10
0.0265342626155416
 20
32.046516418457
 30
0.0
 11
0.0034324559745471
 21
28.083484649658
 31
0.0
  0
LINE
  5
7D57
330
1F
100
AcDbEntity
  8
AM_0
  6
CONTINUOUS
 48
0.5
100
AcDbLine
 10
-19.88666611580245
 20
28.01652145385702
 30
0.0
 11
-19.86356430916146
 21
31.97959899902301
 31
0.0
  0
LINE
  5
7D58
330
1F
100
AcDbEntity
  8
AM_0
  6
CONTINUOUS
 48
0.5
100
AcDbLine
 10
-4.345970925372455
 20
21.605319976807
 30
0.0
 11
-1.532067116778449
 21
24.417026519775
 31
0.0
  0
LINE
  5
7D59
330
1F
100
AcDbEntity
  8
AM_0
  6
CONTINUOUS
 48
0.5
100
AcDbLine
 10
-18.39406662849745
 20
24.36032485961901
 30
0.0
 11
-15.61278611091944
 21
21.567417144775
 31
0.0
  0
LINE
  5
7D5A
330
1F
100
AcDbEntity
  8
AM_0
  6
CONTINUOUS
 48
0.5
100
AcDbLine
 10
-8.010056313556447
 20
20.076419830322
 30
0.0
 11
-11.96651535896643
 21
20.06311416626
 31
0.0
  0
LINE
  5
7D5B
330
1F
100
AcDbEntity
  8
AM_0
  6
CONTINUOUS
 48
0.5
100
AcDbLine
 10
-11.96648484138844
 20
20.063106536865
 30
0.0
 11
-15.61280136970845
 21
21.56740951538101
 31
0.0
  0
LINE
  5
7D5C
330
1F
100
AcDbEntity
  8
AM_0
  6
CONTINUOUS
 48
0.5
100
AcDbLine
 10
-4.345967110675445
 20
21.605319976807
 30
0.0
 11
-8.010056313556447
 21
20.076419830322
 31
0.0
  0
LINE
  5
7D5D
330
1F
100
AcDbEntity
  8
AM_0
  6
CONTINUOUS
 48
0.5
100
AcDbLine
 10
-7.126946267169444
 20
20.379390716553
 30
0.0
 11
-7.28525620369345
 21
20.378856658935
 31
0.0
  0
ARC
  5
7D5E
330
1F
100
AcDbEntity
  8
AM_0
  6
CONTINUOUS
 48
0.5
100
AcDbCircle
 10
-31.732040405274
 20
30.5
 30
0.0
 40
3.0
100
AcDbArc
 50
269.9999974955198
 51
329.999999165172
  0
ARC
  5
7D5F
330
1F
100
AcDbEntity
  8
AM_0
  6
CONTINUOUS
 48
0.5
100
AcDbCircle
 10
-48.49999237059998
 20
26.0
 30
0.0
 40
1.5
100
AcDbArc
 50
90.00000250447845
 51
180.0000050089585
  0
LINE
  5
7D60
330
1F
100
AcDbEntity
  8
AM_0
  6
CONTINUOUS
 48
0.5
100
AcDbLine
 10
-48.49999237059998
 20
27.5
 30
0.0
 11
-31.732040405274
 21
27.5
 31
0.0
  0
LINE
  5
7D61
330
1F
100
AcDbEntity
  8
AM_0
  6
CONTINUOUS
 48
0.5
100
AcDbLine
 10
-18.39408951668144
 20
24.36031723022401
 30
0.0
 11
-19.88670426277545
 21
28.01659774780302
 31
0.0
  0
LINE
  5
7D62
330
1F
100
AcDbEntity
  8
AM_0
  6
CONTINUOUS
 48
0.5
100
AcDbLine
 10
0.0034286412775373
 20
28.08349227905301
 30
0.0
 11
-1.532059487384458
 21
24.417026519775
 31
0.0
  0
LINE
  5
7D63
330
1F
100
AcDbEntity
  8
AM_0
  6
CONTINUOUS
 48
0.5
100
AcDbLine
 10
-1.466202553790452
 20
35.702793121338
 30
0.0
 11
-4.247391518634458
 21
38.495670318603
 31
0.0
  0
LINE
  5
7D64
330
1F
100
AcDbEntity
  8
AM_0
  6
CONTINUOUS
 48
0.5
100
AcDbLine
 10
-15.51419144539244
 20
38.457778930664
 30
0.0
 11
-18.32817917732546
 21
35.64598846435501
 31
0.0
  0
ARC
  5
7D65
330
1F
100
AcDbEntity
  8
AM_0
  6
CONTINUOUS
 48
0.5
100
AcDbCircle
 10
-24.51516723632897
 20
31.0
 30
0.0
 40
3.0
100
AcDbArc
 50
90.00000250447845
 51
149.9999973439397
  0
LINE
  5
7D66
330
1F
100
AcDbEntity
  8
AM_0
  6
CONTINUOUS
 48
0.5
100
AcDbLine
 10
-24.51516723632897
 20
34.0
 30
0.0
 11
-18.87931060791098
 21
34.0
 31
0.0
  0
LINE
  5
7D67
330
1F
100
AcDbEntity
  8
AM_0
  6
CONTINUOUS
 48
0.5
100
AcDbLine
 10
-19.86357193855644
 20
31.979610443115
 30
0.0
 11
-18.32817917732546
 21
35.64598083496099
 31
0.0
  0
LINE
  5
7D68
330
1F
100
AcDbEntity
  8
AM_0
  6
CONTINUOUS
 48
0.5
100
AcDbLine
 10
-1.466191109698456
 20
35.702816009521
 30
0.0
 11
0.0265190038265359
 21
32.04650115966802
 31
0.0
  0
LINE
  5
7D69
330
1F
100
AcDbEntity
  8
AM_0
  6
CONTINUOUS
 48
0.5
100
AcDbLine
 10
-7.893746193927455
 20
40.0
 30
0.0
 11
-4.247357186359465
 21
38.49569320678699
 31
0.0
  0
LINE
  5
7D6A
330
1F
100
AcDbEntity
  8
AM_0
  6
CONTINUOUS
 48
0.5
100
AcDbLine
 10
-11.85006791023644
 20
39.98668289184601
 30
0.0
 11
-7.893761452716432
 21
39.999988555908
 31
0.0
  0
LINE
  5
7D6B
330
1F
100
AcDbEntity
  8
AM_0
  6
CONTINUOUS
 48
0.5
100
AcDbLine
 10
-15.51420670418144
 20
38.45779418945301
 30
0.0
 11
-11.85008316902545
 21
39.98669433593701
 31
0.0
  0
ARC
  5
7F30
330
1F
100
AcDbEntity
  8
AM_0
  6
CONTINUOUS
 48
0.5
100
AcDbCircle
 10
-31.73204040527394
 20
-30.50000000000006
 30
0.0
 40
3.0
100
AcDbArc
 50
30.00000083482799
 51
90.00000250448017
  0
LINE
  5
7F31
330
1F
100
AcDbEntity
  8
AM_0
  6
CONTINUOUS
 48
0.5
100
AcDbLine
 10
-48.49999237059993
 20
-27.50000000000008
 30
0.0
 11
-31.73204040527394
 21
-27.50000000000005
 31
0.0
  0
ARC
  5
7F32
330
1F
100
AcDbEntity
  8
AM_0
  6
CONTINUOUS
 48
0.5
100
AcDbCircle
 10
-48.49999237059993
 20
-26.00000000000008
 30
0.0
 40
1.5
100
AcDbArc
 50
179.9999949910415
 51
269.9999974955216
  0
LINE
  5
7F33
330
1F
100
AcDbEntity
  8
AM_0
  6
CONTINUOUS
 48
0.5
100
AcDbLine
 10
-11.84228016551665
 20
-39.98669433593801
 30
0.0
 11
-7.88597370799664
 21
-40.0
 31
0.0
  0
LINE
  5
7F34
330
1F
100
AcDbEntity
  8
AM_0
  6
CONTINUOUS
 48
0.5
100
AcDbLine
 10
-8.002268568836683
 20
-20.076431274414
 30
0.0
 11
-11.95872761424666
 21
-20.063125610352
 31
0.0
  0
CIRCLE
  5
7F35
330
1F
100
AcDbEntity
  8
AM_0
  6
CONTINUOUS
 48
0.5
100
AcDbCircle
 10
-9.922289625965674
 20
-30.03150177002001
 30
0.0
 40
4.5
  0
LINE
  5
7F36
330
1F
100
AcDbEntity
  8
AM_0
  6
CONTINUOUS
 48
0.5
100
AcDbLine
 10
-19.85578419383665
 20
-31.979621887207
 30
0.0
 11
-18.32039143260567
 21
-35.64599227905299
 31
0.0
  0
LINE
  5
7F37
330
1F
100
AcDbEntity
  8
AM_0
  6
CONTINUOUS
 48
0.5
100
AcDbLine
 10
-24.51516723632892
 20
-34.00000000000005
 30
0.0
 11
-18.87931060791092
 21
-34.00000000000003
 31
0.0
  0
ARC
  5
7F38
330
1F
100
AcDbEntity
  8
AM_0
  6
CONTINUOUS
 48
0.5
100
AcDbCircle
 10
-24.51516723632892
 20
-31.00000000000005
 30
0.0
 40
3.0
100
AcDbArc
 50
210.0000026560603
 51
269.9999974955216
  0
LINE
  5
7F39
330
1F
100
AcDbEntity
  8
AM_0
  6
CONTINUOUS
 48
0.5
100
AcDbLine
 10
-29.13396453857492
 20
-29.00000000000005
 30
0.0
 11
-27.11324310302791
 21
-32.50000000000005
 31
0.0
  0
LINE
  5
7F3A
330
1F
100
AcDbEntity
  8
AM_0
  6
CONTINUOUS
 48
0.5
100
AcDbLine
 10
-18.38630177196165
 20
-24.36032867431602
 30
0.0
 11
-19.87891651805566
 21
-28.01660919189501
 31
0.0
  0
LINE
  5
7F3B
330
1F
100
AcDbEntity
  8
AM_0
  6
CONTINUOUS
 48
0.5
100
AcDbLine
 10
-18.38627888377766
 20
-24.36033630371102
 30
0.0
 11
-15.60499836619965
 21
-21.567428588867
 31
0.0
  0
LINE
  5
7F3C
330
1F
100
AcDbEntity
  8
AM_0
  6
CONTINUOUS
 48
0.5
100
AcDbLine
 10
-11.95869709666868
 20
-20.063117980957
 30
0.0
 11
-15.60501362498865
 21
-21.56742095947301
 31
0.0
  0
LINE
  5
7F3D
330
1F
100
AcDbEntity
  8
AM_0
  6
CONTINUOUS
 48
0.5
100
AcDbLine
 10
-19.87887837108266
 20
-28.01653289794902
 30
0.0
 11
-19.85577656444166
 21
-31.979610443115
 31
0.0
  0
LINE
  5
7F3E
330
1F
100
AcDbEntity
  8
AM_0
  6
CONTINUOUS
 48
0.5
100
AcDbLine
 10
-15.50640370067265
 20
-38.457790374756
 30
0.0
 11
-18.32039143260567
 21
-35.64599990844701
 31
0.0
  0
LINE
  5
7F3F
330
1F
100
AcDbEntity
  8
AM_0
  6
CONTINUOUS
 48
0.5
100
AcDbLine
 10
-15.50641895946165
 20
-38.457805633545
 30
0.0
 11
-11.84229542430566
 21
-39.98670578002901
 31
0.0
  0
LINE
  5
7F40
330
1F
100
AcDbEntity
  8
AM_0
  6
CONTINUOUS
 48
0.5
100
AcDbLine
 10
-1.458403364978664
 20
-35.70282745361296
 30
0.0
 11
0.034306748546328
 21
-32.04651260375999
 31
0.0
  0
LINE
  5
7F41
330
1F
100
AcDbEntity
  8
AM_0
  6
CONTINUOUS
 48
0.5
100
AcDbLine
 10
0.0112163859973293
 20
-28.08350372314498
 30
0.0
 11
-1.524271742664666
 21
-24.41703796386699
 31
0.0
  0
LINE
  5
7F42
330
1F
100
AcDbEntity
  8
AM_0
  6
CONTINUOUS
 48
0.5
100
AcDbLine
 10
-4.338179365955653
 20
-21.60533142089899
 30
0.0
 11
-8.002268568836683
 21
-20.076431274414
 31
0.0
  0
LINE
  5
7F44
330
1F
100
AcDbEntity
  8
AM_0
  6
CONTINUOUS
 48
0.5
100
AcDbLine
 10
-4.338183180652663
 20
-21.60533142089899
 30
0.0
 11
-1.524279372058657
 21
-24.41703796386699
 31
0.0
  0
LINE
  5
7F45
330
1F
100
AcDbEntity
  8
AM_0
  6
CONTINUOUS
 48
0.5
100
AcDbLine
 10
0.0343220073353336
 20
-32.04652786254897
 30
0.0
 11
0.0112202006943392
 21
-28.08349609374997
 31
0.0
  0
LINE
  5
7F46
330
1F
100
AcDbEntity
  8
AM_0
  6
CONTINUOUS
 48
0.5
100
AcDbLine
 10
-7.885958449207663
 20
-40.00001144409199
 30
0.0
 11
-4.239569441639673
 21
-38.49570465087899
 31
0.0
  0
LINE
  5
7F47
330
1F
100
AcDbEntity
  8
AM_0
  6
CONTINUOUS
 48
0.5
100
AcDbLine
 10
-1.45841480907066
 20
-35.70280456542997
 30
0.0
 11
-4.239603773914666
 21
-38.49568176269499
 31
0.0
  0
DIMENSION
  5
7F4A
330
1F
100
AcDbEntity
  8
AM_5
100
AcDbDimension
  2
*D5
 10
-69.59262947900197
 20
-4.749999999999994
 30
0.0
 11
-74.44262947900196
 21
-0.0000000000000052
 31
0.0
 70
    32
  1
<>
  3
AM_JIS$0
100
AcDbAlignedDimension
 13
-49.33463134765202
 23
4.75
 33
0.0
 14
-49.134635925292
 24
-4.75
 34
0.0
 50
270.0
100
AcDbRotatedDimension
1001
GENIUS_GENDTOL_13
1000

1000
h7
1000

1040
0.0
1001
ACAD
1000
DSTYLE
1002
{
1070
   287
1070
     5
1070
    42
1040
1.0
1070
    43
1040
12.0
1070
    48
1040
0.1
1070
    78
1070
     8
1070
   140
1040
3.2
1070
   176
1070
   256
1070
   177
1070
   256
1070
   271
1070
     3
1070
   272
1070
     3
1070
   275
1070
     0
1070
   279
1070
     2
1070
   284
1070
     0
1070
   289
1070
     3
1070
   340
1005
6B
1070
   371
1070
    -1
1070
   372
1070
    -1
1002
}
  0
DIMENSION
  5
7FDB
330
1F
100
AcDbEntity
  8
AM_5
100
AcDbDimension
  2
*D6
 10
-43.9999923706
 20
-53.97115073248802
 30
0.0
 11
-47.19728325758114
 21
-50.67665885250017
 31
0.0
 70
   160
  1
<>
  3
AM_JIS$0
100
AcDbAlignedDimension
 13
-49.99999237059992
 23
-25.99999986886591
 33
0.0
 14
-43.9999923706
 24
-4.75
 34
0.0
100
AcDbRotatedDimension
1001
GENIUS_GENDTOL_13
1000

1000
h7
1000

1040
0.0
1001
ACAD
1000
DSTYLE
1002
{
1070
   287
1070
     5
1070
    42
1040
1.0
1070
    43
1040
12.0
1070
    48
1040
0.1
1070
    78
1070
     8
1070
   140
1040
3.2
1070
   176
1070
   256
1070
   177
1070
   256
1070
   271
1070
     3
1070
   272
1070
     3
1070
   275
1070
     0
1070
   279
1070
     2
1070
   284
1070
     0
1070
   289
1070
     3
1070
   340
1005
6B
1070
   371
1070
    -1
1070
   372
1070
    -1
1002
}
  0
DIMENSION
  5
7FDC
330
1F
100
AcDbEntity
  8
AM_5
100
AcDbDimension
  2
*D8
 10
-0.0000000000000027
 20
-83.97320807640571
 30
0.0
 11
-24.99999618529996
 21
-80.87320807640571
 31
0.0
 70
    32
  1
<>
  3
AM_JIS$0
100
AcDbAlignedDimension
 13
-49.99999237059992
 23
-25.99999986886585
 33
0.0
 14
0.0
 24
-39.99999999999999
 34
0.0
 50
0.0000113836296182
100
AcDbRotatedDimension
1001
GENIUS_GENDTOL_13
1000

1000
h7
1000

1040
0.0
1001
ACAD
1000
DSTYLE
1002
{
1070
   287
1070
     3
1070
    42
1040
1.0
1070
    43
1040
12.0
1070
    48
1040
0.1
1070
    78
1070
     8
1070
   140
1040
3.2
1070
   176
1070
   256
1070
   177
1070
   256
1070
   271
1070
     3
1070
   272
1070
     3
1070
   275
1070
     0
1070
   284
1070
     0
1070
   289
1070
     3
1070
   340
1005
6B
1070
   371
1070
    -1
1070
   372
1070
    -1
1002
}
  0
DIMENSION
  5
7FDD
330
1F
100
AcDbEntity
  8
AM_5
100
AcDbDimension
  2
*D7
 10
-24.99999416591669
 20
-63.97321801049812
 30
0.0
 11
-37.49999326825831
 21
-60.87321801049811
 31
0.0
 70
    32
  1
<>
  3
AM_JIS$0
100
AcDbAlignedDimension
 13
-49.99999237059992
 23
-25.99999986886585
 33
0.0
 14
-24.99999416591669
 24
-13.20000000000001
 34
0.0
100
AcDbRotatedDimension
1001
GENIUS_GENDTOL_13
1000

1000
h7
1000

1040
0.0
1001
ACAD
1000
DSTYLE
1002
{
1070
   287
1070
     5
1070
    42
1040
1.0
1070
    43
1040
12.0
1070
    48
1040
0.1
1070
    78
1070
     8
1070
   140
1040
3.2
1070
   176
1070
   256
1070
   177
1070
   256
1070
   271
1070
     3
1070
   272
1070
     3
1070
   275
1070
     0
1070
   279
1070
     2
1070
   284
1070
     0
1070
   289
1070
     3
1070
   340
1005
6B
1070
   371
1070
    -1
1070
   372
1070
    -1
1002
}
  0
DIMENSION
  5
804E
330
1F
100
AcDbEntity
  8
AM_5
100
AcDbDimension
  2
*D9
 10
-19.99999237060598
 20
-63.97321801049812
 30
0.0
 11
-22.27911303276516
 21
-60.94022936351411
 31
0.0
 70
   160
  1
<>
  3
AM_JIS$0
100
AcDbAlignedDimension
 13
-24.99999416591669
 23
-13.20000000000001
 33
0.0
 14
-19.99999237060598
 24
-10.0
 34
0.0
100
AcDbRotatedDimension
1001
GENIUS_GENDTOL_13
1000

1000
h7
1000

1040
0.0
1001
ACAD
1000
DSTYLE
1002
{
1070
   287
1070
     5
1070
    42
1040
1.0
1070
    43
1040
12.0
1070
    48
1040
0.1
1070
    78
1070
     8
1070
   140
1040
3.2
1070
   176
1070
   256
1070
   177
1070
   256
1070
   271
1070
     3
1070
   272
1070
     3
1070
   275
1070
     0
1070
   279
1070
     2
1070
   284
1070
     0
1070
   289
1070
     3
1070
   340
1005
6B
1070
   371
1070
    -1
1070
   372
1070
    -1
1002
}
  0
DIMENSION
  5
8089
330
1F
100
AcDbEntity
  8
AM_5
100
AcDbDimension
  2
*D10
 10
42.08759026391598
 20
-40.0
 30
0.0
 11
38.98759026391599
 21
0.0000000000000014
 31
0.0
 70
    32
  1
%%c<>
  3
AM_JIS$0
100
AcDbAlignedDimension
 13
0.0
 23
40.0
 33
0.0
 14
0.0
 24
-39.99999999999999
 34
0.0
 50
90.0
100
AcDbRotatedDimension
1001
GENIUS_GENDTOL_13
1000

1000
h7
1000

1040
0.0
1001
ACAD
1000
DSTYLE
1002
{
1070
   287
1070
     3
1070
    42
1040
1.0
1070
    43
1040
12.0
1070
    48
1040
0.1
1070
    78
1070
     8
1070
   140
1040
3.2
1070
   176
1070
   256
1070
   177
1070
   256
1070
   271
1070
     3
1070
   272
1070
     3
1070
   275
1070
     0
1070
   284
1070
     0
1070
   289
1070
     3
1070
   340
1005
6B
1070
   371
1070
    -1
1070
   372
1070
    -1
1002
}
  0
LINE
  5
808A
330
1F
100
AcDbEntity
  8
AM_11
100
AcDbLine
 10
0.0
 20
-39.99999999999999
 30
0.0
 11
0.0
 21
40.0
 31
0.0
  0
LINE
  5
808B
330
1F
100
AcDbEntity
  8
AM_11
100
AcDbLine
 10
-7.893746193927455
 20
40.0
 30
0.0
 11
0.0
 21
40.0
 31
0.0
  0
LINE
  5
80BC
330
1F
100
AcDbEntity
  8
AM_11
100
AcDbLine
 10
-7.885943190418686
 20
-40.0
 30
0.0
 11
0.0
 21
-40.0
 31
0.0
  0
DIMENSION
  5
80CF
330
1F
100
AcDbEntity
  8
AM_5
100
AcDbDimension
  2
*D11
 10
32.08759026391601
 20
-10.00000000000001
 30
0.0
 11
28.98759026391601
 21
-0.0000000000000051
 31
0.0
 70
    32
  1
%%c<>
  3
AM_JIS$0
100
AcDbAlignedDimension
 13
-9.634628427032254
 23
10.0
 33
0.0
 14
-9.634628427032168
 24
-10.0
 34
0.0
 50
90.0
100
AcDbRotatedDimension
1001
GENIUS_GENDTOL_13
1000

1000
h7
1000

1040
0.0
1001
ACAD
1000
DSTYLE
1002
{
1070
   287
1070
     3
1070
    42
1040
1.0
1070
    43
1040
12.0
1070
    48
1040
0.1
1070
    78
1070
     8
1070
   140
1040
3.2
1070
   176
1070
   256
1070
   177
1070
   256
1070
   271
1070
     3
1070
   272
1070
     3
1070
   275
1070
     0
1070
   284
1070
     0
1070
   289
1070
     3
1070
   340
1005
6B
1070
   371
1070
    -1
1070
   372
1070
    -1
1002
}
  0
DIMENSION
  5
82EA
330
1F
100
AcDbEntity
  8
AM_5
100
AcDbDimension
  2
*D12
 10
-79.59262947900197
 20
-12.7
 30
0.0
 11
-82.69262947900196
 21
-0.0000000000000107
 31
0.0
 70
    32
  1
%%c<>
  3
AM_JIS$0
100
AcDbAlignedDimension
 13
-48.63462832926225
 23
12.7
 33
0.0
 14
-48.63463768722644
 24
-12.70000000000001
 34
0.0
 50
270.0
100
AcDbRotatedDimension
1001
GENIUS_GENDTOL_13
1000

1000
h7
1000

1040
0.0
1001
ACAD
1000
DSTYLE
1002
{
1070
   287
1070
     5
1070
    42
1040
1.0
1070
    43
1040
12.0
1070
    48
1040
0.1
1070
    78
1070
     8
1070
   140
1040
3.2
1070
   176
1070
   256
1070
   177
1070
   256
1070
   271
1070
     3
1070
   272
1070
     3
1070
   275
1070
     0
1070
   279
1070
     2
1070
   284
1070
     0
1070
   289
1070
     3
1070
   340
1005
6B
1070
   371
1070
    -1
1070
   372
1070
    -1
1002
}
  0
DIMENSION
  5
8392
330
1F
100
AcDbEntity
  8
AM_5
100
AcDbDimension
  2
*D13
 10
-89.59262947900198
 20
-27.50000000000007
 30
0.0
 11
-92.69262947900196
 21
-0.0000000000000439
 31
0.0
 70
    32
  1
%%c<>
  3
AM_JIS$0
100
AcDbAlignedDimension
 13
-48.63462829589199
 23
27.5
 33
0.0
 14
-48.63462829589193
 24
-27.50000000000008
 34
0.0
 50
270.0
100
AcDbRotatedDimension
1001
GENIUS_GENDTOL_13
1000

1000
h7
1000

1040
0.0
1001
ACAD
1000
DSTYLE
1002
{
1070
   287
1070
     5
1070
    42
1040
1.0
1070
    43
1040
12.0
1070
    48
1040
0.1
1070
    78
1070
     8
1070
   140
1040
3.2
1070
   176
1070
   256
1070
   177
1070
   256
1070
   271
1070
     3
1070
   272
1070
     3
1070
   275
1070
     0
1070
   279
1070
     2
1070
   284
1070
     0
1070
   289
1070
     3
1070
   340
1005
6B
1070
   371
1070
    -1
1070
   372
1070
    -1
1002
}
  0
LINE
  5
85A1
330
1F
100
AcDbEntity
  8
AM_0
100
AcDbLine
 10
-24.99999237059998
 20
13.2
 30
0.0
 11
-24.99999237059998
 21
-13.20000000000001
 31
0.0
  0
LINE
  5
85E6
330
1F
100
AcDbEntity
  8
AM_0
100
AcDbLine
 10
-19.99999237059995
 20
10.0
 30
0.0
 11
-19.99999237060001
 21
-10.0
 31
0.0
  0
DIMENSION
  5
8627
330
1F
100
AcDbEntity
  8
AM_5
100
AcDbDimension
  2
*D14
 10
-6.499992370605983
 20
-73.97321801049803
 30
0.0
 11
-28.24999237060295
 21
-70.87321801049803
 31
0.0
 70
    32
  1
<>
  3
AM_JIS$0
100
AcDbAlignedDimension
 13
-49.99999237059992
 23
-25.99999986886585
 33
0.0
 14
-6.49999237060598
 24
-20.68294075618388
 34
0.0
100
AcDbRotatedDimension
1001
GENIUS_GENDTOL_13
1000

1000
h7
1000

1040
0.0
1001
ACAD
1000
DSTYLE
1002
{
1070
   287
1070
     5
1070
    42
1040
1.0
1070
    43
1040
12.0
1070
    48
1040
0.1
1070
    78
1070
     8
1070
   140
1040
3.2
1070
   176
1070
   256
1070
   177
1070
   256
1070
   271
1070
     3
1070
   272
1070
     3
1070
   275
1070
     0
1070
   279
1070
     2
1070
   284
1070
     0
1070
   289
1070
     3
1070
   340
1005
6B
1070
   371
1070
    -1
1070
   372
1070
    -1
1002
}
  0
DIMENSION
  5
87C4
330
1F
100
AcDbEntity
  8
AM_5
100
AcDbDimension
  2
*D15
 10
22.08759026391601
 20
-6.500000000000012
 30
0.0
 11
18.98759026391601
 21
-0.0000000000000081
 31
0.0
 70
    32
  1
%%c<>
  3
AM_JIS$0
100
AcDbAlignedDimension
 13
-19.99999237059995
 23
6.5
 33
0.0
 14
-19.99999237059995
 24
-6.5
 34
0.0
 50
90.0
100
AcDbRotatedDimension
1001
GENIUS_GENDTOL_13
1000

1000
h7
1000

1040
0.0
1001
ACAD
1000
DSTYLE
1002
{
1070
   287
1070
     3
1070
    42
1040
1.0
1070
    43
1040
12.0
1070
    48
1040
0.1
1070
    78
1070
     8
1070
   140
1040
3.2
1070
   176
1070
   256
1070
   177
1070
   256
1070
   271
1070
     3
1070
   272
1070
     3
1070
   275
1070
     0
1070
   284
1070
     0
1070
   289
1070
     3
1070
   340
1005
6B
1070
   371
1070
    -1
1070
   372
1070
    -1
1002
}
  0
VIEWPORT
  5
110
330
101
100
AcDbEntity
 67
     1
  8
0
100
AcDbViewport
 10
420.5
 20
297.0
 30
0.0
 40
948.9782706766916
 41
628.452
 68
     1
 69
     1
1001
ACAD
1000
MVIEW
1002
{
1070
    16
1010
0.0
1020
0.0
1030
0.0
1010
0.0
1020
0.0
1030
1.0
1040
0.0
1040
628.452
1040
420.5
1040
297.0
1040
50.0
1040
0.0
1040
0.0
1070
     0
1070
   100
1070
     1
1070
     1
1070
     0
1070
     0
1070
     0
1070
     0
1040
0.0
1040
0.0
1040
0.0
1040
10.0
1040
10.0
1040
10.0
1040
10.0
1070
     0
1002
{
1002
}
1002
}
  0
ENDSEC
  0
SECTION
  2
OBJECTS
  0
DICTIONARY
  5
C
330
0
100
AcDbDictionary
  3
ACAD_GROUP
350
D
  3
ACAD_LAYOUT
350
1A
  3
ACAD_MLINESTYLE
350
17
  3
ACAD_PLOTSETTINGS
350
19
  3
ACAD_PLOTSTYLENAME
350
E
  3
ACDBVARIABLEDICTIONARY
350
34
  3
ACMDICTIONARY
350
43
  3
AMG
350
2B
  3
AMGSNAPSETTINGS
350
6E
  3
DWGPROPS
350
89E7
  3
ACDBHEADERROUNDTRIPXREC
350
89F3
  0
DICTIONARY
  5
74
330
1F
100
AcDbDictionary
280
     1
  3
ACAD_INDEX
360
89E9
  3
ACAD_LAYOUTSELFREF
360
8A16
  0
DICTIONARY
  5
8A1B
330
101
100
AcDbDictionary
280
     1
  3
ACAD_LAYOUTSELFREF
360
8A1C
  0
DICTIONARY
  5
D
102
{ACAD_REACTORS
330
C
102
}
330
C
100
AcDbDictionary
  0
DICTIONARY
  5
1A
102
{ACAD_REACTORS
330
C
102
}
330
C
100
AcDbDictionary
  0
DICTIONARY
  5
17
102
{ACAD_REACTORS
330
C
102
}
330
C
100
AcDbDictionary
  3
STANDARD
350
18
  0
DICTIONARY
  5
19
102
{ACAD_REACTORS
330
C
102
}
330
C
100
AcDbDictionary
  0
ACDBDICTIONARYWDFLT
  5
E
102
{ACAD_REACTORS
330
C
102
}
330
C
100
AcDbDictionary
281
     1
  3
Normal
350
F
100
AcDbDictionaryWithDefault
340
F
  0
DICTIONARY
  5
34
102
{ACAD_REACTORS
330
C
102
}
330
C
100
AcDbDictionary
  3
INDEXCTL
350
35
  3
SORTENTS
350
B5E
  0
DICTIONARY
  5
43
102
{ACAD_REACTORS
330
C
102
}
330
C
100
AcDbDictionary
  3
ACMSTDDICTIONARY
350
260
  0
DICTIONARY
  5
2B
102
{ACAD_REACTORS
330
C
102
}
330
C
100
AcDbDictionary
  3
ACMGSETTINGS
350
2C
  0
DICTIONARY
  5
6E
102
{ACAD_REACTORS
330
C
102
}
330
C
100
AcDbDictionary
  0
XRECORD
  5
89E7
102
{ACAD_REACTORS
330
C
102
}
330
C
100
AcDbXrecord
  1
DWGPROPS COOKIE
  2

  3

  4

  6

  7

  8

  9

300
AmdtFileType=82
301
=
302
=
303
=
304
=
305
=
306
=
307
=
308
=
309
=
 40
0.3933498263888889
 41
2452836.771637361
 42
2453076.607731111
  1

 90
        1
  0
DICTIONARY
  5
89F3
102
{ACAD_REACTORS
330
C
102
}
330
C
100
AcDbDictionary
  3
TSTACKALIGN
350
89F4
  3
TSTACKSIZE
350
89F5
  3
HYPERLINKBASE
350
89F6
  3
STYLESHEET
350
89F7
  3
LAYOUTDICT
350
89F8
  3
PLOTSETDICT
350
89F9
  3
PLOTSTYLNAMDICT
350
89FA
  3
LWETCUNION
350
89FB
  3
INSUNITS
350
89FC
  3
CEPSNTYPE
350
89FD
  3
FINGERPRINTGUID
350
89FE
  3
VERSIONGUID
350
89FF
  3
PSVPSCALE
350
8A00
  3
DIMSTYLEDATA
350
8A01
  3
PUCSORTHOREF
350
8A02
  3
PUCSORTHOVIEW
350
8A03
  3
PUCSBASE
350
8A04
  3
PUCSORGTOP
350
8A05
  3
PUCSORGBOTTOM
350
8A06
  3
PUCSORGLEFT
350
8A07
  3
PUCSORGRIGHT
350
8A08
  3
PUCSORGFRONT
350
8A09
  3
PUCSORGBACK
350
8A0A
  3
UCSORTHOREF
350
8A0B
  3
UCSORTHOVIEW
350
8A0C
  3
UCSBASE
350
8A0D
  3
UCSORGTOP
350
8A0E
  3
UCSORGBOTTOM
350
8A0F
  3
UCSORGLEFT
350
8A10
  3
UCSORGRIGHT
350
8A11
  3
UCSORGFRONT
350
8A12
  3
UCSORGBACK
350
8A13
  0
DICTIONARY
  5
89E9
102
{ACAD_REACTORS
330
74
102
}
330
74
100
AcDbDictionary
  3
*A1
350
89EA
  0
XRECORD
  5
8A16
102
{ACAD_REACTORS
330
74
102
}
330
74
100
AcDbXrecord
340
1F
  0
XRECORD
  5
8A1C
102
{ACAD_REACTORS
330
8A1B
102
}
330
8A1B
100
AcDbXrecord
340
101
  0
MLINESTYLE
  5
18
102
{ACAD_REACTORS
330
17
102
}
330
17
100
AcDbMlineStyle
  2
STANDARD
 70
     0
  3

 62
   256
 51
90.0
 52
90.0
 71
     2
 49
0.5
 62
   256
  6
BYLAYER
 49
-0.5
 62
   256
  6
BYLAYER
  0
ACDBPLACEHOLDER
  5
F
102
{ACAD_REACTORS
330
E
102
}
330
E
100
AcDbPlaceHolder
280
     0
  0
DICTIONARYVAR
  5
35
102
{ACAD_REACTORS
330
34
102
}
330
34
100
DictionaryVariables
280
     0
  1
1
  0
DICTIONARYVAR
  5
B5E
102
{ACAD_REACTORS
330
34
102
}
330
34
100
DictionaryVariables
280
     0
  1
96
  0
DICTIONARY
  5
260
102
{ACAD_REACTORS
330
43
102
}
330
43
100
AcDbDictionary
  0
DICTIONARY
  5
2C
102
{ACAD_REACTORS
330
2B
102
}
330
2B
100
AcDbDictionary
  3
DWGSETTINGS
350
2D
  0
XRECORD
  5
89F4
102
{ACAD_REACTORS
330
89F3
102
}
330
89F3
100
AcDbXrecord
 90
        1
  0
XRECORD
  5
89F5
102
{ACAD_REACTORS
330
89F3
102
}
330
89F3
100
AcDbXrecord
 90
       70
  0
XRECORD
  5
89F6
102
{ACAD_REACTORS
330
89F3
102
}
330
89F3
100
AcDbXrecord
  1

  0
XRECORD
  5
89F7
102
{ACAD_REACTORS
330
89F3
102
}
330
89F3
100
AcDbXrecord
  1
ASAMI.ctb
  0
XRECORD
  5
89F8
102
{ACAD_REACTORS
330
89F3
102
}
330
89F3
100
AcDbXrecord
340
1A
  0
XRECORD
  5
89F9
102
{ACAD_REACTORS
330
89F3
102
}
330
89F3
100
AcDbXrecord
340
19
  0
XRECORD
  5
89FA
102
{ACAD_REACTORS
330
89F3
102
}
330
89F3
100
AcDbXrecord
340
E
  0
XRECORD
  5
89FB
102
{ACAD_REACTORS
330
89F3
102
}
330
89F3
100
AcDbXrecord
 90
    10781
  0
XRECORD
  5
89FC
102
{ACAD_REACTORS
330
89F3
102
}
330
89F3
100
AcDbXrecord
 90
        4
  0
XRECORD
  5
89FD
102
{ACAD_REACTORS
330
89F3
102
}
330
89F3
100
AcDbXrecord
 90
        0
  0
XRECORD
  5
89FE
102
{ACAD_REACTORS
330
89F3
102
}
330
89F3
100
AcDbXrecord
  1
{AFB28963-8C59-40AE-9337-C84526B81ACE}
  0
XRECORD
  5
89FF
102
{ACAD_REACTORS
330
89F3
102
}
330
89F3
100
AcDbXrecord
  1
{1056BD53-2009-40B0-832B-53241D3D81AA}
  0
XRECORD
  5
8A00
102
{ACAD_REACTORS
330
89F3
102
}
330
89F3
100
AcDbXrecord
 40
0.0
  0
XRECORD
  5
8A01
102
{ACAD_REACTORS
330
89F3
102
}
330
89F3
100
AcDbXrecord
1000
DSTYLE
1002
{
1070
    79
 70
     2
1070
   341
340
59
1070
   342
340
59
1070
   371
 70
    -1
1070
   372
 70
    -1
1002
}
  0
XRECORD
  5
8A02
102
{ACAD_REACTORS
330
89F3
102
}
330
89F3
100
AcDbXrecord
340
0
  0
XRECORD
  5
8A03
102
{ACAD_REACTORS
330
89F3
102
}
330
89F3
100
AcDbXrecord
 70
     0
  0
XRECORD
  5
8A04
102
{ACAD_REACTORS
330
89F3
102
}
330
89F3
100
AcDbXrecord
340
0
  0
XRECORD
  5
8A05
102
{ACAD_REACTORS
330
89F3
102
}
330
89F3
100
AcDbXrecord
 10
0.0
 20
0.0
 30
0.0
  0
XRECORD
  5
8A06
102
{ACAD_REACTORS
330
89F3
102
}
330
89F3
100
AcDbXrecord
 10
0.0
 20
0.0
 30
0.0
  0
XRECORD
  5
8A07
102
{ACAD_REACTORS
330
89F3
102
}
330
89F3
100
AcDbXrecord
 10
0.0
 20
0.0
 30
0.0
  0
XRECORD
  5
8A08
102
{ACAD_REACTORS
330
89F3
102
}
330
89F3
100
AcDbXrecord
 10
0.0
 20
0.0
 30
0.0
  0
XRECORD
  5
8A09
102
{ACAD_REACTORS
330
89F3
102
}
330
89F3
100
AcDbXrecord
 10
0.0
 20
0.0
 30
0.0
  0
XRECORD
  5
8A0A
102
{ACAD_REACTORS
330
89F3
102
}
330
89F3
100
AcDbXrecord
 10
0.0
 20
0.0
 30
0.0
  0
XRECORD
  5
8A0B
102
{ACAD_REACTORS
330
89F3
102
}
330
89F3
100
AcDbXrecord
340
0
  0
XRECORD
  5
8A0C
102
{ACAD_REACTORS
330
89F3
102
}
330
89F3
100
AcDbXrecord
 70
     0
  0
XRECORD
  5
8A0D
102
{ACAD_REACTORS
330
89F3
102
}
330
89F3
100
AcDbXrecord
340
0
  0
XRECORD
  5
8A0E
102
{ACAD_REACTORS
330
89F3
102
}
330
89F3
100
AcDbXrecord
 10
0.0
 20
0.0
 30
0.0
  0
XRECORD
  5
8A0F
102
{ACAD_REACTORS
330
89F3
102
}
330
89F3
100
AcDbXrecord
 10
0.0
 20
0.0
 30
0.0
  0
XRECORD
  5
8A10
102
{ACAD_REACTORS
330
89F3
102
}
330
89F3
100
AcDbXrecord
 10
0.0
 20
0.0
 30
0.0
  0
XRECORD
  5
8A11
102
{ACAD_REACTORS
330
89F3
102
}
330
89F3
100
AcDbXrecord
 10
0.0
 20
0.0
 30
0.0
  0
XRECORD
  5
8A12
102
{ACAD_REACTORS
330
89F3
102
}
330
89F3
100
AcDbXrecord
 10
0.0
 20
0.0
 30
0.0
  0
XRECORD
  5
8A13
102
{ACAD_REACTORS
330
89F3
102
}
330
89F3
100
AcDbXrecord
 10
0.0
 20
0.0
 30
0.0
  0
LAYER_INDEX
  5
89EA
102
{ACAD_REACTORS
330
89E9
102
}
330
89E9
100
AcDbIndex
 40
2453152.363314374
100
AcDbLayerIndex
  8
0
360
89EB
 90
        0
  8
AM_11
360
89EC
 90
        3
  8
AM_7
360
89ED
 90
        1
  8
AM_5
360
89EE
 90
       11
  8
Defpoints
360
89EF
 90
        0
  8
AM_6
360
89F0
 90
        1
  8
AM_0
360
89F1
 90
       74
  0
XRECORD
  5
2D
102
{ACAD_REACTORS
330
2C
102
}
330
2C
100
AcDbXrecord
  1
VERSION
140
15.0
  1
PRODUCT
  2
AutoCAD Mechanical 2000
  0
IDBUFFER
  5
89EB
330
0
100
AcDbIdBuffer
  0
IDBUFFER
  5
89EC
330
0
100
AcDbIdBuffer
330
808A
330
808B
330
80BC
  0
IDBUFFER
  5
89ED
330
0
100
AcDbIdBuffer
330
7D4B
  0
IDBUFFER
  5
89EE
330
0
100
AcDbIdBuffer
330
7F4A
330
7FDB
330
7FDC
330
7FDD
330
804E
330
8089
330
80CF
330
82EA
330
8392
330
8627
330
87C4
  0
IDBUFFER
  5
89EF
330
0
100
AcDbIdBuffer
  0
IDBUFFER
  5
89F0
330
0
100
AcDbIdBuffer
330
E5A
  0
IDBUFFER
  5
89F1
330
0
100
AcDbIdBuffer
330
7D6B
330
7F30
330
7F31
330
7F32
330
7F33
330
7F34
330
7F35
330
7F36
330
7F37
330
7F38
330
7F39
330
7F3A
330
7F3B
330
7F3C
330
7F3D
330
7F3E
330
7F3F
330
7F40
330
7F41
330
7F42
330
7F44
330
7F45
330
7F46
330
7F47
330
85A1
330
85E6
330
7D35
330
7D37
330
7D38
330
7D39
330
7D3D
330
7D3E
330
7D40
330
7D41
330
7D42
330
7D43
330
7D44
330
7D45
330
7D46
330
7D47
330
7D48
330
7D49
330
7D4A
330
7D4C
330
7D4D
330
7D4E
330
7D4F
330
7D50
330
7D51
330
7D52
330
7D53
330
7D54
330
7D55
330
7D56
330
7D57
330
7D58
330
7D59
330
7D5A
330
7D5B
330
7D5C
330
7D5D
330
7D5E
330
7D5F
330
7D60
330
7D61
330
7D62
330
7D63
330
7D64
330
7D65
330
7D66
330
7D67
330
7D68
330
7D69
330
7D6A
  0
ENDSEC
  0
EOF
