  0
SECTION
  2
HEADER
  9
$ACADVER
  1
AC1014
  9
$ACADMAINTVER
 70
     9
  9
$DWGCODEPAGE
  3
ANSI_932
  9
$INSBASE
 10
0.0
 20
0.0
 30
0.0
  9
$EXTMIN
 10
-93.08471854392672
 20
-116.5000010000009
 30
0.0
  9
$EXTMAX
 10
28.10800803900459
 20
50.00000000000004
 30
0.0
  9
$LIMMIN
 10
-111.3030422099927
 20
-133.9992026969443
  9
$LIMMAX
 10
181.4108896020025
 20
81.99978596884102
  9
$ORTHOMODE
 70
     0
  9
$REGENMODE
 70
     1
  9
$FILLMODE
 70
     1
  9
$QTEXTMODE
 70
     0
  9
$MIRRTEXT
 70
     0
  9
$DRAGMODE
 70
     2
  9
$LTSCALE
 40
1.0
  9
$OSMODE
 70
    55
  9
$ATTMODE
 70
     1
  9
$TEXTSIZE
 40
2.5
  9
$TRACEWID
 40
1.0
  9
$TEXTSTYLE
  7
STANDARD
  9
$CLAYER
  8
AM_5
  9
$CELTYPE
  6
BYLAYER
  9
$CECOLOR
 62
   256
  9
$CELTSCALE
 40
1.0
  9
$DELOBJ
 70
     1
  9
$DISPSILH
 70
     0
  9
$DIMSCALE
 40
1.0
  9
$DIMASZ
 40
2.5
  9
$DIMEXO
 40
1.0
  9
$DIMDLI
 40
12.0
  9
$DIMRND
 40
0.0
  9
$DIMDLE
 40
0.0
  9
$DIMEXE
 40
1.0
  9
$DIMTP
 40
0.1
  9
$DIMTM
 40
0.1
  9
$DIMTXT
 40
3.2
  9
$DIMCEN
 40
0.0
  9
$DIMTSZ
 40
0.0
  9
$DIMTOL
 70
     0
  9
$DIMLIM
 70
     0
  9
$DIMTIH
 70
     0
  9
$DIMTOH
 70
     0
  9
$DIMSE1
 70
     0
  9
$DIMSE2
 70
     0
  9
$DIMTAD
 70
     3
  9
$DIMZIN
 70
     8
  9
$DIMBLK
  1
OPEN30
  9
$DIMASO
 70
     1
  9
$DIMSHO
 70
     1
  9
$DIMPOST
  1

  9
$DIMAPOST
  1
"
  9
$DIMALT
 70
     0
  9
$DIMALTD
 70
     2
  9
$DIMALTF
 40
0.0393701
  9
$DIMLFAC
 40
1.0
  9
$DIMTOFL
 70
     1
  9
$DIMTVP
 40
0.0
  9
$DIMTIX
 70
     0
  9
$DIMSOXD
 70
     0
  9
$DIMSAH
 70
     0
  9
$DIMBLK1
  1

  9
$DIMBLK2
  1

  9
$DIMSTYLE
  2
AM_JIS
  9
$DIMCLRD
 70
   256
  9
$DIMCLRE
 70
   256
  9
$DIMCLRT
 70
     2
  9
$DIMTFAC
 40
0.71
  9
$DIMGAP
 40
1.5
  9
$DIMJUST
 70
     0
  9
$DIMSD1
 70
     0
  9
$DIMSD2
 70
     0
  9
$DIMTOLJ
 70
     0
  9
$DIMTZIN
 70
     0
  9
$DIMALTZ
 70
     0
  9
$DIMALTTZ
 70
     0
  9
$DIMFIT
 70
     3
  9
$DIMUPT
 70
     0
  9
$DIMUNIT
 70
     2
  9
$DIMDEC
 70
     3
  9
$DIMTDEC
 70
     3
  9
$DIMALTU
 70
     2
  9
$DIMALTTD
 70
     2
  9
$DIMTXSTY
  7
ASAMI
  9
$DIMAUNIT
 70
     0
  9
$LUNITS
 70
     2
  9
$LUPREC
 70
     2
  9
$SKETCHINC
 40
1.0
  9
$FILLETRAD
 40
2.5
  9
$AUNITS
 70
     0
  9
$AUPREC
 70
     0
  9
$MENU
  1
.
  9
$ELEVATION
 40
0.0
  9
$PELEVATION
 40
0.0
  9
$THICKNESS
 40
0.0
  9
$LIMCHECK
 70
     0
  9
$BLIPMODE
 70
     0
  9
$CHAMFERA
 40
0.5
  9
$CHAMFERB
 40
0.5
  9
$CHAMFERC
 40
20.0
  9
$CHAMFERD
 40
0.0
  9
$SKPOLY
 70
     0
  9
$TDCREATE
 40
2452836.771637361
  9
$TDUPDATE
 40
2453152.363396666
  9
$TDINDWG
 40
0.4021130324
  9
$TDUSRTIMER
 40
0.4021130324
  9
$USRTIMER
 70
     1
  9
$ANGBASE
 50
0.0
  9
$ANGDIR
 70
     0
  9
$PDMODE
 70
     0
  9
$PDSIZE
 40
0.0
  9
$PLINEWID
 40
0.0
  9
$COORDS
 70
     1
  9
$SPLFRAME
 70
     0
  9
$SPLINETYPE
 70
     6
  9
$SPLINESEGS
 70
     8
  9
$ATTDIA
 70
     1
  9
$ATTREQ
 70
     1
  9
$HANDLING
 70
 12289
  9
$HANDSEED
  5
971C
  9
$SURFTAB1
 70
     6
  9
$SURFTAB2
 70
     6
  9
$SURFTYPE
 70
     6
  9
$SURFU
 70
     6
  9
$SURFV
 70
     6
  9
$UCSNAME
  2

  9
$UCSORG
 10
0.0
 20
0.0
 30
0.0
  9
$UCSXDIR
 10
1.0
 20
0.0
 30
0.0
  9
$UCSYDIR
 10
0.0
 20
1.0
 30
0.0
  9
$PUCSNAME
  2

  9
$PUCSORG
 10
0.0
 20
0.0
 30
0.0
  9
$PUCSXDIR
 10
1.0
 20
0.0
 30
0.0
  9
$PUCSYDIR
 10
0.0
 20
1.0
 30
0.0
  9
$USERI1
 70
     0
  9
$USERI2
 70
     0
  9
$USERI3
 70
     0
  9
$USERI4
 70
     0
  9
$USERI5
 70
     0
  9
$USERR1
 40
0.0
  9
$USERR2
 40
0.0
  9
$USERR3
 40
0.0
  9
$USERR4
 40
0.0
  9
$USERR5
 40
0.0
  9
$WORLDVIEW
 70
     1
  9
$SHADEDGE
 70
     3
  9
$SHADEDIF
 70
    70
  9
$TILEMODE
 70
     1
  9
$MAXACTVP
 70
    64
  9
$PINSBASE
 10
0.0
 20
0.0
 30
0.0
  9
$PLIMCHECK
 70
     0
  9
$PEXTMIN
 10
1.000000000000000E+20
 20
1.000000000000000E+20
 30
1.000000000000000E+20
  9
$PEXTMAX
 10
-1.000000000000000E+20
 20
-1.000000000000000E+20
 30
-1.000000000000000E+20
  9
$PLIMMIN
 10
0.0
 20
0.0
  9
$PLIMMAX
 10
841.0
 20
594.0
  9
$UNITMODE
 70
     0
  9
$VISRETAIN
 70
     1
  9
$PLINEGEN
 70
     0
  9
$PSLTSCALE
 70
     0
  9
$TREEDEPTH
 70
  3020
  9
$PICKSTYLE
 70
     0
  9
$CMLSTYLE
  2
STANDARD
  9
$CMLJUST
 70
     0
  9
$CMLSCALE
 40
20.0
  9
$PROXYGRAPHICS
 70
     1
  9
$MEASUREMENT
 70
     1
  0
ENDSEC
  0
SECTION
  2
CLASSES
  0
CLASS
  1
ACDBDICTIONARYWDFLT
  2
AcDbDictionaryWithDefault
  3
AutoCAD 2000
 90
        0
280
     0
281
     0
  0
CLASS
  1
ACDBPLACEHOLDER
  2
AcDbPlaceHolder
  3
AutoCAD 2000
 90
        0
280
     0
281
     0
  0
CLASS
  1
LAYOUT
  2
AcDbLayout
  3
AutoCAD 2000
 90
        0
280
     0
281
     0
  0
CLASS
  1
AMGSETTINGSOBJ
  2
AmgSettingsObj
  3
"AcadM|Product Description: AutoCAD Mechanical 2000|Company: Autodesk"
 90
        0
280
     0
281
     0
  0
CLASS
  1
ACME_DOCUMENT
  2
AcMeDbDoc
  3
AcMeServices
 90
        0
280
     0
281
     0
  0
CLASS
  1
ACMESCOPE
  2
AcMeScope
  3
AcMeServices
 90
        0
280
     0
281
     0
  0
CLASS
  1
ACMECOMMANDHISTORY
  2
AcMeCommandHistory
  3
AcMeServices
 90
        0
280
     0
281
     0
  0
CLASS
  1
DICTIONARYVAR
  2
AcDbDictionaryVar
  3
AutoCAD 2000
 90
        0
280
     0
281
     0
  0
CLASS
  1
ACIMSYSVARMAN
  2
AcImSysVarManager
  3
AcMeServices
 90
        0
280
     0
281
     0
  0
CLASS
  1
ACIMREALSYSVAR
  2
AcImRealSysVar
  3
AcMeServices
 90
        0
280
     0
281
     0
  0
CLASS
  1
ACIMINTSYSVAR
  2
AcImIntSysVar
  3
AcMeServices
 90
        0
280
     0
281
     0
  0
CLASS
  1
ACMEDRAWINGMAN
  2
AcMeDrawingMan
  3
AcMeServices
 90
        0
280
     0
281
     0
  0
CLASS
  1
ACMEVIEW
  2
AcMeView
  3
AcMeServices
 90
        0
280
     0
281
     0
  0
CLASS
  1
ACDBENTITYCACHE
  2
AcMeEntityCache
  3
AcMeServices
 90
        0
280
     0
281
     0
  0
CLASS
  1
GSMANAGER
  2
AcMeGSManager
  3
AcMeServices
 90
        0
280
     0
281
     0
  0
CLASS
  1
AmdtInternalReactor
  2
AmdtInternalReactor
  3
AcMeServices
 90
        0
280
     0
281
     0
  0
CLASS
  1
ACMESTATEMGR
  2
AcMeStateMgr
  3
AcMeServices
 90
        0
280
     0
281
     0
  0
CLASS
  1
ACME_DATABASE
  2
AcMeDbDatabase
  3
AcMeServices
 90
        0
280
     0
281
     0
  0
CLASS
  1
ACRFINSADJUSTERMGR
  2
AcRfInsAdjusterMgr
  3
AcMeServices
 90
        0
280
     0
281
     0
  0
CLASS
  1
ACMDATADICTIONARY
  2
AcmDataDictionary
  3
"AcmSymBB|Product Description: AutoCAD Mechanical 2000|Company: Autodesk"
 90
        0
280
     0
281
     0
  0
CLASS
  1
ACMDATAENTRYBLOCK
  2
AcmDataEntryBlock
  3
"AcmSymBB|Product Description: AutoCAD Mechanical 2000|Company: Autodesk"
 90
        0
280
     0
281
     0
  0
CLASS
  1
AMGOBJPROPCFG
  2
AmgObjPropCfg
  3
"AmgLay|Product Description: AutoCAD Mechanical 2000|Company: Autodesk"
 90
        1
280
     0
281
     0
  0
CLASS
  1
ACAMGFILTERDAT
  2
AcAmgFilterDat
  3
"AcadM|Product Description: AutoCAD Mechanical 2000|Company: Autodesk"
 90
        0
280
     0
281
     0
  0
CLASS
  1
LAYER_INDEX
  2
AcDbLayerIndex
  3
AutoCAD 2000
 90
        0
280
     0
281
     0
  0
CLASS
  1
IDBUFFER
  2
AcDbIdBuffer
  3
AutoCAD 2000
 90
        0
280
     0
281
     0
  0
CLASS
  1
ACIMSTRSYSVAR
  2
AcImStrSysVar
  3
AcMeServices
 90
        0
280
     0
281
     0
  0
CLASS
  1
ACMSTANDARDJIS
  2
AcmStandardJIS
  3
"AcmSymBB|Product Description: AutoCAD Mechanical 2000|Company: Autodesk"
 90
        0
280
     0
281
     0
  0
CLASS
  1
ACMSURFSTANDARDJIS
  2
AcmSurfTextStdJIS
  3
"AcmSymBB|Product Description: AutoCAD Mechanical 2000|Company: Autodesk"
 90
        0
280
     0
281
     0
  0
CLASS
  1
ACMFCFSTANDARDJIS
  2
AcmFCFStdJIS
  3
"AcmSymBB|Product Description: AutoCAD Mechanical 2000|Company: Autodesk"
 90
        0
280
     0
281
     0
  0
CLASS
  1
ACMWELDSTANDARDJIS
  2
AcmWeldingStdJIS
  3
"AcmSymBB|Product Description: AutoCAD Mechanical 2000|Company: Autodesk"
 90
        0
280
     0
281
     0
  0
CLASS
  1
ACMIDSTANDARDJIS
  2
AcmIdStdJIS
  3
"AcmSymBB|Product Description: AutoCAD Mechanical 2000|Company: Autodesk"
 90
        0
280
     0
281
     0
  0
CLASS
  1
ACMDATUMSTANDARDJIS
  2
AcmDatumStdJIS
  3
"AcmSymBB|Product Description: AutoCAD Mechanical 2000|Company: Autodesk"
 90
        0
280
     0
281
     0
  0
CLASS
  1
ACMBOMSTANDARDJIS
  2
AcmBOMStdJIS
  3
"AcmSymBB|Product Description: AutoCAD Mechanical 2000|Company: Autodesk"
 90
        0
280
     0
281
     0
  0
CLASS
  1
ACMSTANDARDANSI
  2
AcmStandardANSI
  3
"AcmSymBB|Product Description: AutoCAD Mechanical 2000|Company: Autodesk"
 90
        0
280
     0
281
     0
  0
CLASS
  1
ACMSURFSTANDARDANSI
  2
AcmSurfTextStdANSI
  3
"AcmSymBB|Product Description: AutoCAD Mechanical 2000|Company: Autodesk"
 90
        0
280
     0
281
     0
  0
CLASS
  1
ACMFCFSTANDARDANSI
  2
AcmFCFStdANSI
  3
"AcmSymBB|Product Description: AutoCAD Mechanical 2000|Company: Autodesk"
 90
        0
280
     0
281
     0
  0
CLASS
  1
ACMWELDSTANDARDANSI
  2
AcmWeldingStdANSI
  3
"AcmSymBB|Product Description: AutoCAD Mechanical 2000|Company: Autodesk"
 90
        0
280
     0
281
     0
  0
CLASS
  1
ACMIDSTANDARDANSI
  2
AcmIdStdANSI
  3
"AcmSymBB|Product Description: AutoCAD Mechanical 2000|Company: Autodesk"
 90
        0
280
     0
281
     0
  0
CLASS
  1
ACMDATUMSTANDARDANSI
  2
AcmDatumStdANSI
  3
"AcmSymBB|Product Description: AutoCAD Mechanical 2000|Company: Autodesk"
 90
        0
280
     0
281
     0
  0
CLASS
  1
ACMBOMSTANDARDANSI
  2
AcmBOMStdANSI
  3
"AcmSymBB|Product Description: AutoCAD Mechanical 2000|Company: Autodesk"
 90
        0
280
     0
281
     0
  0
CLASS
  1
ACMSTANDARDBSI
  2
AcmStandardBSI
  3
"AcmSymBB|Product Description: AutoCAD Mechanical 2000|Company: Autodesk"
 90
        0
280
     0
281
     0
  0
CLASS
  1
ACMSURFSTANDARDBSI
  2
AcmSurfTextStdBSI
  3
"AcmSymBB|Product Description: AutoCAD Mechanical 2000|Company: Autodesk"
 90
        0
280
     0
281
     0
  0
CLASS
  1
ACMFCFSTANDARDBSI
  2
AcmFCFStdBSI
  3
"AcmSymBB|Product Description: AutoCAD Mechanical 2000|Company: Autodesk"
 90
        0
280
     0
281
     0
  0
CLASS
  1
ACMWELDSTANDARDBSI
  2
AcmWeldingStdBSI
  3
"AcmSymBB|Product Description: AutoCAD Mechanical 2000|Company: Autodesk"
 90
        0
280
     0
281
     0
  0
CLASS
  1
ACMIDSTANDARDBSI
  2
AcmIdStdBSI
  3
"AcmSymBB|Product Description: AutoCAD Mechanical 2000|Company: Autodesk"
 90
        0
280
     0
281
     0
  0
CLASS
  1
ACMDATUMSTANDARDBSI
  2
AcmDatumStdBSI
  3
"AcmSymBB|Product Description: AutoCAD Mechanical 2000|Company: Autodesk"
 90
        0
280
     0
281
     0
  0
CLASS
  1
ACMBOMSTANDARDBSI
  2
AcmBOMStdBSI
  3
"AcmSymBB|Product Description: AutoCAD Mechanical 2000|Company: Autodesk"
 90
        0
280
     0
281
     0
  0
CLASS
  1
LONG_TRANSACTION
  2
AcDbLongTransaction
  3
AutoCAD 2000
 90
        0
280
     0
281
     0
  0
CLASS
  1
LWPOLYLINE
  2
AcDbPolyline
  3
AutoCAD 2000
 90
        0
280
     0
281
     1
  0
CLASS
  1
HATCH
  2
AcDbHatch
  3
AutoCAD 2000
 90
        0
280
     0
281
     1
  0
CLASS
  1
XRECORD
  2
AcDbXrecord
  3
AutoCAD 2000
 90
        0
280
     0
281
     0
  0
ENDSEC
  0
SECTION
  2
TABLES
  0
TABLE
  2
VPORT
  5
8
330
0
100
AcDbSymbolTable
 70
     3
  0
VPORT
  5
969E
330
8
100
AcDbSymbolTableRecord
100
AcDbViewportTableRecord
  2
*ACTIVE
 70
     0
 10
0.0
 20
0.0
 11
1.0
 21
1.0
 12
-22.5620585992251
 22
-34.24770257898218
 13
0.0
 23
0.0
 14
2.5
 24
2.5
 15
10.0
 25
10.0
 16
0.0
 26
0.0
 36
1.0
 17
0.0
 27
0.0
 37
0.0
 40
175.4135377770719
 41
1.56570841889117
 42
50.0
 43
0.0
 44
0.0
 50
0.0
 51
0.0
 71
     0
 72
   100
 73
     1
 74
     3
 75
     0
 76
     0
 77
     0
 78
     0
  0
ENDTAB
  0
TABLE
  2
LTYPE
  5
5
330
0
100
AcDbSymbolTable
 70
    10
  0
LTYPE
  5
14
330
5
100
AcDbSymbolTableRecord
100
AcDbLinetypeTableRecord
  2
BYBLOCK
 70
     0
  3

 72
    65
 73
     0
 40
0.0
  0
LTYPE
  5
15
330
5
100
AcDbSymbolTableRecord
100
AcDbLinetypeTableRecord
  2
BYLAYER
 70
     0
  3

 72
    65
 73
     0
 40
0.0
  0
LTYPE
  5
16
330
5
100
AcDbSymbolTableRecord
100
AcDbLinetypeTableRecord
  2
CONTINUOUS
 70
     0
  3
Solid line
 72
    65
 73
     0
 40
0.0
  0
LTYPE
  5
4B
330
5
100
AcDbSymbolTableRecord
100
AcDbLinetypeTableRecord
  2
AM_ISO02W050
 70
     0
  3
__ __ __ __ __ __ __ __ __ __ __ __ __ __ __
 72
    65
 73
     2
 40
7.5
 49
6.0
 74
     0
 49
-1.5
 74
     0
  0
LTYPE
  5
4C
330
5
100
AcDbSymbolTableRecord
100
AcDbLinetypeTableRecord
  2
AM_ISO08W050
 70
     0
  3
____ . ____ . ____ . ____ . ____ . ____ . ____
 72
    65
 73
     4
 40
18.0
 49
12.0
 74
     0
 49
-1.5
 74
     0
 49
3.0
 74
     0
 49
-1.5
 74
     0
  0
LTYPE
  5
4D
330
5
100
AcDbSymbolTableRecord
100
AcDbLinetypeTableRecord
  2
AM_ISO09W050
 70
     0
  3
_____ . . _____ . . _____ . . ____ .. ____
 72
    65
 73
     6
 40
22.5
 49
12.0
 74
     0
 49
-1.5
 74
     0
 49
3.0
 74
     0
 49
-1.5
 74
     0
 49
3.0
 74
     0
 49
-1.5
 74
     0
  0
LTYPE
  5
4E
330
5
100
AcDbSymbolTableRecord
100
AcDbLinetypeTableRecord
  2
AMCONSTR
 70
     0
  3
_______________________
 72
    65
 73
     2
 40
9999.0
 49
9999.0
 74
     0
 49
0.0
 74
     0
  0
LTYPE
  5
4F
330
5
100
AcDbSymbolTableRecord
100
AcDbLinetypeTableRecord
  2
AM_ISO02W050X2
 70
     0
  3
 _ _ _ _ _ _ _ _ _ _ _ _
 72
    65
 73
     2
 40
3.75
 49
3.0
 74
     0
 49
-0.75
 74
     0
  0
LTYPE
  5
50
330
5
100
AcDbSymbolTableRecord
100
AcDbLinetypeTableRecord
  2
AM_ISO08W050X2
 70
     0
  3
__ . __ . __ . __ . __ . __
 72
    65
 73
     4
 40
9.0
 49
6.0
 74
     0
 49
-0.75
 74
     0
 49
1.5
 74
     0
 49
-0.75
 74
     0
  0
LTYPE
  5
53
330
5
100
AcDbSymbolTableRecord
100
AcDbLinetypeTableRecord
  2
AMZIGZAG
 70
     0
  3
/\/-/\/-/\/-/\/-/\/-/\/
 72
    65
 73
     2
 40
11.00009999999999
 49
0.0001
 74
     4
 75
   135
340
52
 46
0.04
 50
0.0
 44
0.0
 45
0.0
 49
-11.0
 74
     0
  0
LTYPE
  5
166
330
5
100
AcDbSymbolTableRecord
100
AcDbLinetypeTableRecord
  2
ACJISTGL
 70
     0
  3
_ _ _ _ _
 72
    65
 73
     2
 40
3.0
 49
2.0
 74
     0
 49
-1.0
 74
     0
  0
LTYPE
  5
26A
330
5
100
AcDbSymbolTableRecord
100
AcDbLinetypeTableRecord
  2
ACJISTGB
 70
     0
  3
__ . . __ . .
 72
    65
 73
     6
 40
9.0
 49
4.0
 74
     0
 49
-1.0
 74
     0
 49
1.0
 74
     0
 49
-1.0
 74
     0
 49
1.0
 74
     0
 49
-1.0
 74
     0
  0
ENDTAB
  0
TABLE
  2
LAYER
  5
2
330
0
100
AcDbSymbolTable
 70
     7
  0
LAYER
  5
10
330
2
100
AcDbSymbolTableRecord
100
AcDbLayerTableRecord
  2
0
 70
     0
 62
     7
  6
CONTINUOUS
  0
LAYER
  5
BD4
330
2
100
AcDbSymbolTableRecord
100
AcDbLayerTableRecord
  2
AM_11
 70
     0
 62
     3
  6
AM_ISO09W050
  0
LAYER
  5
BD5
330
2
100
AcDbSymbolTableRecord
100
AcDbLayerTableRecord
  2
AM_7
 70
     0
 62
     4
  6
AM_ISO08W050
  0
LAYER
  5
BD6
330
2
100
AcDbSymbolTableRecord
100
AcDbLayerTableRecord
  2
AM_5
 70
     0
 62
     3
  6
CONTINUOUS
  0
LAYER
  5
BD7
330
2
100
AcDbSymbolTableRecord
100
AcDbLayerTableRecord
  2
DEFPOINTS
 70
     0
 62
     7
  6
CONTINUOUS
  0
LAYER
  5
E59
330
2
100
AcDbSymbolTableRecord
100
AcDbLayerTableRecord
  2
AM_6
 70
     0
 62
     2
  6
CONTINUOUS
  0
LAYER
  5
4062
330
2
100
AcDbSymbolTableRecord
100
AcDbLayerTableRecord
  2
AM_0
 70
     0
 62
     7
  6
CONTINUOUS
  0
ENDTAB
  0
TABLE
  2
STYLE
  5
3
330
0
100
AcDbSymbolTable
 70
     5
  0
STYLE
  5
11
330
3
100
AcDbSymbolTableRecord
100
AcDbTextStyleTableRecord
  2
STANDARD
 70
     0
 40
0.0
 41
1.0
 50
0.0
 71
     0
 42
2.5
  3
simplex.shx
  4
EXTFONT.SHX
  0
STYLE
  5
52
330
3
100
AcDbSymbolTableRecord
100
AcDbTextStyleTableRecord
  2

 70
     1
 40
0.0
 41
1.0
 50
0.0
 71
     0
 42
2.5
  3
ltypeshp.shx
  4

  0
STYLE
  5
6B
330
3
100
AcDbSymbolTableRecord
100
AcDbTextStyleTableRecord
  2
ASAMI
 70
     0
 40
0.0
 41
1.0
 50
0.0
 71
     0
 42
2.5
  3
simplex.shx
  4
EXTFONT.SHX
  0
STYLE
  5
262
330
3
100
AcDbSymbolTableRecord
100
AcDbTextStyleTableRecord
  2
ACJISTS
 70
     0
 40
1.0
 41
1.0
 50
0.0
 71
     0
 42
2.5
  3
simplex.shx
  4
bigfont.shx
  0
STYLE
  5
269
330
3
100
AcDbSymbolTableRecord
100
AcDbTextStyleTableRecord
  2
ACJISGDT
 70
     0
 40
0.0
 41
1.0
 50
0.0
 71
     0
 42
2.5
  3
amgdtans.shx
  4

  0
ENDTAB
  0
TABLE
  2
VIEW
  5
6
330
0
100
AcDbSymbolTable
 70
     0
  0
ENDTAB
  0
TABLE
  2
UCS
  5
7
330
0
100
AcDbSymbolTable
 70
     0
  0
ENDTAB
  0
TABLE
  2
APPID
  5
9
330
0
100
AcDbSymbolTable
 70
    12
  0
APPID
  5
12
330
9
100
AcDbSymbolTableRecord
100
AcDbRegAppTableRecord
  2
ACAD
 70
     0
  0
APPID
  5
30
330
9
100
AcDbSymbolTableRecord
100
AcDbRegAppTableRecord
  2
MCAD_NO_VIS
 70
     0
  0
APPID
  5
31
330
9
100
AcDbSymbolTableRecord
100
AcDbRegAppTableRecord
  2
ACAD_TEMP_GRAPHIC
 70
     0
  0
APPID
  5
2C2
330
9
100
AcDbSymbolTableRecord
100
AcDbRegAppTableRecord
  2
GENIUS_GENDTOL_13
 70
     0
  0
APPID
  5
339
330
9
100
AcDbSymbolTableRecord
100
AcDbRegAppTableRecord
  2
GENIUS_GENODEF_13
 70
     0
  0
APPID
  5
33A
330
9
100
AcDbSymbolTableRecord
100
AcDbRegAppTableRecord
  2
GENIUS_GENOBJ-N-RSBK_13
 70
     0
  0
APPID
  5
33B
330
9
100
AcDbSymbolTableRecord
100
AcDbRegAppTableRecord
  2
GENIUS_GENOBJ-N-LIB_13
 70
     0
  0
APPID
  5
33C
330
9
100
AcDbSymbolTableRecord
100
AcDbRegAppTableRecord
  2
GENIUS_GENSCALE_13
 70
     0
  0
APPID
  5
378
330
9
100
AcDbSymbolTableRecord
100
AcDbRegAppTableRecord
  2
GENIUS_GENDIMSH_14
 70
     0
  0
APPID
  5
BD8
330
9
100
AcDbSymbolTableRecord
100
AcDbRegAppTableRecord
  2
GENIUS_GENOBJ-N-CEN_13
 70
     0
  0
APPID
  5
BD9
330
9
100
AcDbSymbolTableRecord
100
AcDbRegAppTableRecord
  2
GENIUS_GENFIL_13
 70
     0
  0
APPID
  5
BDA
330
9
100
AcDbSymbolTableRecord
100
AcDbRegAppTableRecord
  2
GENIUS_GENOBJ-N-CHA_13
 70
     0
  0
ENDTAB
  0
TABLE
  2
DIMSTYLE
  5
A
330
0
100
AcDbSymbolTable
 70
     9
  0
DIMSTYLE
105
58
330
A
100
AcDbSymbolTableRecord
100
AcDbDimStyleTableRecord
  2
AM_JIS
 70
     0
  3

  4
"
  5
OPEN30
  6

  7

 40
1.0
 41
2.5
 42
1.0
 43
12.0
 44
1.0
 45
0.0
 46
0.0
 47
0.1
 48
0.1
140
3.2
141
0.0
142
0.0
143
0.0393701
144
1.0
145
0.0
146
0.71
147
1.5
 71
     0
 72
     0
 73
     0
 74
     0
 75
     0
 76
     0
 77
     3
 78
     8
170
     0
171
     2
172
     1
173
     0
174
     0
175
     0
176
   256
177
   256
178
     2
270
     2
271
     3
272
     3
273
     2
274
     2
340
6B
275
     0
280
     0
281
     0
282
     0
283
     0
284
     0
285
     0
286
     0
287
     3
288
     0
  0
DIMSTYLE
105
5F
330
A
100
AcDbSymbolTableRecord
100
AcDbDimStyleTableRecord
  2
AM_JIS$3
 70
     0
  3

  4
"
  5
OPEN30
  6

  7

 40
1.0
 41
2.5
 42
1.0
 43
10.0
 44
1.0
 45
0.0
 46
0.0
 47
0.1
 48
0.1
140
3.2
141
0.0
142
0.0
143
0.0393701
144
1.0
145
0.0
146
0.71
147
1.5
 71
     0
 72
     0
 73
     0
 74
     1
 75
     0
 76
     0
 77
     3
 78
     8
170
     0
171
     2
172
     0
173
     0
174
     0
175
     0
176
   256
177
   256
178
     2
270
     2
271
     2
272
     3
273
     2
274
     2
340
6B
275
     0
280
     0
281
     0
282
     0
283
     0
284
     0
285
     0
286
     0
287
     0
288
     1
  0
DIMSTYLE
105
60
330
A
100
AcDbSymbolTableRecord
100
AcDbDimStyleTableRecord
  2
AM_JIS$4
 70
     0
  3

  4
"
  5
OPEN30
  6

  7

 40
1.0
 41
2.5
 42
1.0
 43
10.0
 44
1.0
 45
0.0
 46
0.0
 47
0.1
 48
0.1
140
3.2
141
0.0
142
0.0
143
0.0393701
144
1.0
145
0.0
146
0.71
147
1.5
 71
     0
 72
     0
 73
     0
 74
     1
 75
     0
 76
     0
 77
     3
 78
     8
170
     0
171
     2
172
     0
173
     0
174
     0
175
     0
176
   256
177
   256
178
     2
270
     2
271
     2
272
     3
273
     2
274
     2
340
6B
275
     0
280
     0
281
     0
282
     0
283
     0
284
     0
285
     0
286
     0
287
     0
288
     1
  0
DIMSTYLE
105
61
330
A
100
AcDbSymbolTableRecord
100
AcDbDimStyleTableRecord
  2
AM_JIS$6
 70
     0
  3

  4
"
  5
OPEN30
  6

  7

 40
1.0
 41
2.5
 42
1.0
 43
10.0
 44
1.0
 45
0.0
 46
0.0
 47
0.1
 48
0.1
140
3.2
141
0.0
142
0.0
143
0.0393701
144
1.0
145
0.0
146
0.71
147
1.5
 71
     0
 72
     0
 73
     0
 74
     0
 75
     0
 76
     0
 77
     0
 78
     8
170
     0
171
     2
172
     1
173
     0
174
     0
175
     0
176
   256
177
   256
178
     2
270
     2
271
     2
272
     2
273
     2
274
     2
340
6B
275
     0
280
     0
281
     0
282
     0
283
     0
284
     0
285
     0
286
     0
287
     3
288
     0
  0
DIMSTYLE
105
62
330
A
100
AcDbSymbolTableRecord
100
AcDbDimStyleTableRecord
  2
AM_JIS$7
 70
     0
  3

  4
"
  5
OPEN30
  6

  7

 40
1.0
 41
2.5
 42
1.0
 43
10.0
 44
1.0
 45
0.0
 46
0.0
 47
0.1
 48
0.1
140
3.2
141
0.0
142
0.0
143
0.0393701
144
1.0
145
0.0
146
0.71
147
1.5
 71
     0
 72
     0
 73
     0
 74
     0
 75
     0
 76
     0
 77
     3
 78
     8
170
     0
171
     2
172
     1
173
     0
174
     0
175
     0
176
   256
177
   256
178
     2
270
     2
271
     2
272
     3
273
     2
274
     2
340
6B
275
     0
280
     0
281
     0
282
     0
283
     0
284
     0
285
     0
286
     0
287
     3
288
     0
  0
DIMSTYLE
105
63
330
A
100
AcDbSymbolTableRecord
100
AcDbDimStyleTableRecord
  2
AM_JIS$SF
 70
     0
  3

  4
"
  5
OPEN30
  6

  7

 40
1.0
 41
2.5
 42
1.0
 43
10.0
 44
1.0
 45
0.0
 46
0.0
 47
0.1
 48
0.1
140
3.2
141
0.0
142
0.0
143
0.0393701
144
1.0
145
0.0
146
0.71
147
1.5
 71
     0
 72
     0
 73
     0
 74
     0
 75
     1
 76
     1
 77
     3
 78
     8
170
     0
171
     2
172
     1
173
     0
174
     0
175
     0
176
   256
177
   256
178
     2
270
     2
271
     2
272
     2
273
     2
274
     2
340
6B
275
     0
280
     0
281
     0
282
     0
283
     0
284
     0
285
     0
286
     0
287
     3
288
     0
  0
DIMSTYLE
105
68
330
A
100
AcDbSymbolTableRecord
100
AcDbDimStyleTableRecord
  2
AM_JIS$SH
 70
     0
  3

  4
"
  5

  6
GENAXEH
  7
OPEN30
 40
1.0
 41
2.5
 42
1.0
 43
10.0
 44
1.0
 45
0.0
 46
0.0
 47
0.1
 48
0.1
140
3.2
141
0.0
142
0.0
143
0.0393701
144
2.0
145
0.0
146
0.71
147
1.5
 71
     0
 72
     0
 73
     0
 74
     0
 75
     1
 76
     1
 77
     3
 78
     8
170
     0
171
     2
172
     1
173
     1
174
     0
175
     0
176
   256
177
   256
178
     2
270
     2
271
     2
272
     2
273
     2
274
     2
340
6B
275
     0
280
     0
281
     0
282
     0
283
     0
284
     0
285
     0
286
     0
287
     3
288
     0
  0
DIMSTYLE
105
B34
330
A
100
AcDbSymbolTableRecord
100
AcDbDimStyleTableRecord
  2
AM_JIS$2
 70
     0
  3

  4
"
  5
OPEN30
  6

  7

 40
1.0
 41
2.5
 42
1.0
 43
12.0
 44
1.0
 45
0.0
 46
0.0
 47
0.1
 48
0.1
140
3.2
141
0.0
142
0.0
143
0.0393701
144
1.0
145
0.0
146
0.71
147
1.5
 71
     0
 72
     0
 73
     0
 74
     0
 75
     0
 76
     0
 77
     3
 78
     8
170
     0
171
     2
172
     1
173
     0
174
     0
175
     0
176
   256
177
   256
178
     2
270
     2
271
     3
272
     3
273
     2
274
     2
340
6B
275
     0
280
     0
281
     0
282
     0
283
     0
284
     0
285
     0
286
     0
287
     3
288
     0
  0
DIMSTYLE
105
1AB6
102
{ACAD_REACTORS
330
8DD0
330
8DFD
330
8DFB
330
8DFC
330
8E9C
330
8E9D
330
8E9B
330
8F52
330
903F
102
}
330
A
100
AcDbSymbolTableRecord
100
AcDbDimStyleTableRecord
  2
AM_JIS$0
 70
     0
  3

  4
"
  5
OPEN30
  6

  7

 40
1.0
 41
2.5
 42
0.0
 43
10.0
 44
1.0
 45
0.0
 46
0.0
 47
0.1
 48
0.1000000001
140
3.799999999999999
141
0.0
142
0.0
143
0.0393701
144
1.0
145
0.0
146
0.71
147
1.5
 71
     0
 72
     0
 73
     0
 74
     0
 75
     0
 76
     0
 77
     3
 78
     1
170
     0
171
     2
172
     1
173
     0
174
     0
175
     0
176
     3
177
     3
178
     2
270
     2
271
     2
272
     2
273
     2
274
     2
340
11
275
     1
280
     0
281
     0
282
     0
283
     0
284
     8
285
     0
286
     0
287
     0
288
     0
  0
ENDTAB
  0
TABLE
  2
BLOCK_RECORD
  5
1
330
0
100
AcDbSymbolTable
 70
    14
  0
BLOCK_RECORD
  5
1F
102
{ACAD_XDICTIONARY
360
74
102
}
330
1
100
AcDbSymbolTableRecord
100
AcDbBlockTableRecord
  2
*MODEL_SPACE
  0
BLOCK_RECORD
  5
101
102
{ACAD_XDICTIONARY
360
96C7
102
}
330
1
100
AcDbSymbolTableRecord
100
AcDbBlockTableRecord
  2
*PAPER_SPACE
  0
BLOCK_RECORD
  5
59
330
1
100
AcDbSymbolTableRecord
100
AcDbBlockTableRecord
  2
_OPEN30
  0
BLOCK_RECORD
  5
64
330
1
100
AcDbSymbolTableRecord
100
AcDbBlockTableRecord
  2
GENAXEH
  0
BLOCK_RECORD
  5
8DD2
330
1
100
AcDbSymbolTableRecord
100
AcDbBlockTableRecord
  2
*D5
  0
BLOCK_RECORD
  5
8DFE
330
1
100
AcDbSymbolTableRecord
100
AcDbBlockTableRecord
  2
*D6
  0
BLOCK_RECORD
  5
8E0A
330
1
100
AcDbSymbolTableRecord
100
AcDbBlockTableRecord
  2
*D7
  0
BLOCK_RECORD
  5
8E16
330
1
100
AcDbSymbolTableRecord
100
AcDbBlockTableRecord
  2
*D8
  0
BLOCK_RECORD
  5
8E9E
330
1
100
AcDbSymbolTableRecord
100
AcDbBlockTableRecord
  2
*D9
  0
BLOCK_RECORD
  5
8EB8
330
1
100
AcDbSymbolTableRecord
100
AcDbBlockTableRecord
  2
*D10
  0
BLOCK_RECORD
  5
8EC4
330
1
100
AcDbSymbolTableRecord
100
AcDbBlockTableRecord
  2
*D11
  0
BLOCK_RECORD
  5
8F53
330
1
100
AcDbSymbolTableRecord
100
AcDbBlockTableRecord
  2
*D12
  0
BLOCK_RECORD
  5
9040
330
1
100
AcDbSymbolTableRecord
100
AcDbBlockTableRecord
  2
*D13
  0
ENDTAB
  0
ENDSEC
  0
SECTION
  2
BLOCKS
  0
BLOCK
  5
20
330
1F
100
AcDbEntity
  8
0
100
AcDbBlockBegin
  2
*MODEL_SPACE
 70
     0
 10
0.0
 20
0.0
 30
0.0
  3
*MODEL_SPACE
  1

  0
ENDBLK
  5
21
330
1F
100
AcDbEntity
  8
0
100
AcDbBlockEnd
  0
BLOCK
  5
103
330
101
100
AcDbEntity
 67
     1
  8
0
100
AcDbBlockBegin
  2
*PAPER_SPACE
 70
     0
 10
0.0
 20
0.0
 30
0.0
  3
*PAPER_SPACE
  1

  0
ENDBLK
  5
104
330
101
100
AcDbEntity
 67
     1
  8
0
100
AcDbBlockEnd
  0
BLOCK
  5
5D
330
59
100
AcDbEntity
  8
0
100
AcDbBlockBegin
  2
_OPEN30
 70
     0
 10
0.0
 20
0.0
 30
0.0
  3
_OPEN30
  1

  0
LINE
  5
5A
330
59
100
AcDbEntity
  8
0
 62
     0
100
AcDbLine
 10
-1.0
 20
0.26794919
 30
0.0
 11
0.0
 21
0.0
 31
0.0
  0
LINE
  5
5B
330
59
100
AcDbEntity
  8
0
 62
     0
100
AcDbLine
 10
0.0
 20
0.0
 30
0.0
 11
-1.0
 21
-0.26794919
 31
0.0
  0
LINE
  5
5C
330
59
100
AcDbEntity
  8
0
 62
     0
100
AcDbLine
 10
0.0
 20
0.0
 30
0.0
 11
-1.0
 21
0.0
 31
0.0
  0
ENDBLK
  5
5E
330
59
100
AcDbEntity
  8
0
100
AcDbBlockEnd
  0
BLOCK
  5
66
330
64
100
AcDbEntity
  8
0
100
AcDbBlockBegin
  2
GENAXEH
 70
     0
 10
0.0
 20
0.0
 30
0.0
  3
GENAXEH
  1

  0
LINE
  5
65
330
64
100
AcDbEntity
  8
0
100
AcDbLine
 10
-1.0
 20
0.0
 30
0.0
 11
1.0
 21
0.0
 31
0.0
  0
ENDBLK
  5
67
330
64
100
AcDbEntity
  8
0
100
AcDbBlockEnd
  0
BLOCK
  5
8DDC
330
8DD2
100
AcDbEntity
  8
0
100
AcDbBlockBegin
  2
*D5
 70
     1
 10
0.0
 20
0.0
 30
0.0
  3
*D5
  1

  0
LINE
  5
96C9
330
8DD2
100
AcDbEntity
  8
AM_5
100
AcDbLine
 10
1.000000000000056
 20
50.00000000000004
 30
0.0
 11
28.10800803900459
 21
50.00000000000003
 31
0.0
  0
LINE
  5
96CA
330
8DD2
100
AcDbEntity
  8
AM_5
100
AcDbLine
 10
0.9999999999999431
 20
-50.0
 30
0.0
 11
28.10800803900457
 21
-50.0
 31
0.0
  0
LINE
  5
96CB
330
8DD2
100
AcDbEntity
  8
AM_5
100
AcDbLine
 10
27.10800803900459
 20
47.50000000000003
 30
0.0
 11
27.10800803900457
 21
-47.5
 31
0.0
  0
INSERT
  5
96CC
330
8DD2
100
AcDbEntity
  8
AM_5
100
AcDbBlockReference
  2
_OPEN30
 10
27.10800803900459
 20
50.00000000000003
 30
0.0
 41
2.5
 42
2.5
 43
2.5
 50
90.0
  0
INSERT
  5
96CD
330
8DD2
100
AcDbEntity
  8
AM_5
100
AcDbBlockReference
  2
_OPEN30
 10
27.10800803900457
 20
-50.0
 30
0.0
 41
2.5
 42
2.5
 43
2.5
 50
270.0
  0
MTEXT
  5
96CE
330
8DD2
100
AcDbEntity
  8
AM_5
 62
     2
100
AcDbMText
 10
24.00800803900458
 20
0.00000000000002
 30
0.0
 40
3.2
 41
0.0
 71
     5
 72
     1
  1
%%c100
  7
ASAMI
 11
0.0000000000000001
 21
1.0
 31
0.0
  0
POINT
  5
96CF
330
8DD2
100
AcDbEntity
  8
DEFPOINTS
 62
     0
100
AcDbPoint
 10
0.0000000000000568
 20
50.00000000000004
 30
0.0
  0
POINT
  5
96D0
330
8DD2
100
AcDbEntity
  8
DEFPOINTS
 62
     0
100
AcDbPoint
 10
-0.0000000000000568
 20
-50.0
 30
0.0
  0
POINT
  5
96D1
330
8DD2
100
AcDbEntity
  8
DEFPOINTS
 62
     0
100
AcDbPoint
 10
27.10800803900457
 20
-50.0
 30
0.0
  0
ENDBLK
  5
8DDD
330
8DD2
100
AcDbEntity
  8
0
100
AcDbBlockEnd
  0
BLOCK
  5
8E08
330
8DFE
100
AcDbEntity
  8
0
100
AcDbBlockBegin
  2
*D6
 70
     1
 10
0.0
 20
0.0
 30
0.0
  3
*D6
  1

  0
LINE
  5
96E4
330
8DFE
100
AcDbEntity
  8
AM_5
100
AcDbLine
 10
-49.50000000000006
 20
15.87499999999998
 30
0.0
 11
-79.38471854392673
 21
15.87499999999999
 31
0.0
  0
LINE
  5
96E5
330
8DFE
100
AcDbEntity
  8
AM_5
100
AcDbLine
 10
-49.50000000000006
 20
-15.87499999999501
 30
0.0
 11
-79.38471854392673
 21
-15.874999999995
 31
0.0
  0
LINE
  5
96E6
330
8DFE
100
AcDbEntity
  8
AM_5
100
AcDbLine
 10
-78.38471854392674
 20
13.37499999999999
 30
0.0
 11
-78.38471854392674
 21
-13.374999999995
 31
0.0
  0
INSERT
  5
96E7
330
8DFE
100
AcDbEntity
  8
AM_5
100
AcDbBlockReference
  2
_OPEN30
 10
-78.38471854392674
 20
15.87499999999999
 30
0.0
 41
2.5
 42
2.5
 43
2.5
 50
90.0
  0
INSERT
  5
96E8
330
8DFE
100
AcDbEntity
  8
AM_5
100
AcDbBlockReference
  2
_OPEN30
 10
-78.38471854392674
 20
-15.874999999995
 30
0.0
 41
2.5
 42
2.5
 43
2.5
 50
270.0
  0
MTEXT
  5
96E9
330
8DFE
100
AcDbEntity
  8
AM_5
 62
     2
100
AcDbMText
 10
-81.48471854392672
 20
0.0000000000024832
 30
0.0
 40
3.2
 41
0.0
 71
     5
 72
     1
  1
%%c31.75
  7
ASAMI
 11
0.0000000000000001
 21
1.0
 31
0.0
  0
POINT
  5
96EA
330
8DFE
100
AcDbEntity
  8
DEFPOINTS
 62
     0
100
AcDbPoint
 10
-48.50000000000005
 20
15.87499999999998
 30
0.0
  0
POINT
  5
96EB
330
8DFE
100
AcDbEntity
  8
DEFPOINTS
 62
     0
100
AcDbPoint
 10
-48.50000000000005
 20
-15.87499999999501
 30
0.0
  0
POINT
  5
96EC
330
8DFE
100
AcDbEntity
  8
DEFPOINTS
 62
     0
100
AcDbPoint
 10
-78.38471854392674
 20
-15.874999999995
 30
0.0
  0
ENDBLK
  5
8E09
330
8DFE
100
AcDbEntity
  8
0
100
AcDbBlockEnd
  0
BLOCK
  5
8E14
330
8E0A
100
AcDbEntity
  8
0
100
AcDbBlockBegin
  2
*D7
 70
     1
 10
0.0
 20
0.0
 30
0.0
  3
*D7
  1

  0
LINE
  5
96D2
330
8E0A
100
AcDbEntity
  8
AM_5
100
AcDbLine
 10
-49.12694617974171
 20
34.99999999999998
 30
0.0
 11
-89.38471854392672
 21
34.99999999999999
 31
0.0
  0
LINE
  5
96D3
330
8E0A
100
AcDbEntity
  8
AM_5
100
AcDbLine
 10
-49.14765022202914
 20
-35.00000000000001
 30
0.0
 11
-89.38471854392673
 21
-35.0
 31
0.0
  0
LINE
  5
96D4
330
8E0A
100
AcDbEntity
  8
AM_5
100
AcDbLine
 10
-88.3847185439267
 20
32.49999999999999
 30
0.0
 11
-88.38471854392674
 21
-32.5
 31
0.0
  0
INSERT
  5
96D5
330
8E0A
100
AcDbEntity
  8
AM_5
100
AcDbBlockReference
  2
_OPEN30
 10
-88.3847185439267
 20
34.99999999999999
 30
0.0
 41
2.5
 42
2.5
 43
2.5
 50
90.0
  0
INSERT
  5
96D6
330
8E0A
100
AcDbEntity
  8
AM_5
100
AcDbBlockReference
  2
_OPEN30
 10
-88.38471854392674
 20
-35.0
 30
0.0
 41
2.5
 42
2.5
 43
2.5
 50
270.0
  0
MTEXT
  5
96D7
330
8E0A
100
AcDbEntity
  8
AM_5
 62
     2
100
AcDbMText
 10
-91.48471854392672
 20
-0.0000000000000226
 30
0.0
 40
3.2
 41
0.0
 71
     5
 72
     1
  1
%%c70
  7
ASAMI
 11
0.0000000000000001
 21
1.0
 31
0.0
  0
POINT
  5
96D8
330
8E0A
100
AcDbEntity
  8
DEFPOINTS
 62
     0
100
AcDbPoint
 10
-48.1269461797417
 20
34.99999999999998
 30
0.0
  0
POINT
  5
96D9
330
8E0A
100
AcDbEntity
  8
DEFPOINTS
 62
     0
100
AcDbPoint
 10
-48.14765022202914
 20
-35.00000000000001
 30
0.0
  0
POINT
  5
96DA
330
8E0A
100
AcDbEntity
  8
DEFPOINTS
 62
     0
100
AcDbPoint
 10
-88.38471854392674
 20
-35.0
 30
0.0
  0
ENDBLK
  5
8E15
330
8E0A
100
AcDbEntity
  8
0
100
AcDbBlockEnd
  0
BLOCK
  5
8E20
330
8E16
100
AcDbEntity
  8
0
100
AcDbBlockBegin
  2
*D8
 70
     1
 10
0.0
 20
0.0
 30
0.0
  3
*D8
  1

  0
LINE
  5
96DB
330
8E16
100
AcDbEntity
  8
AM_5
100
AcDbLine
 10
-50.00000000000006
 20
6.34999999999998
 30
0.0
 11
-69.38471854392673
 21
6.349999999999985
 31
0.0
  0
LINE
  5
96DC
330
8E16
100
AcDbEntity
  8
AM_5
100
AcDbLine
 10
-50.00000000001006
 20
-6.350000000000007
 30
0.0
 11
-69.38471854392673
 21
-6.350000000000003
 31
0.0
  0
LINE
  5
96DD
330
8E16
100
AcDbEntity
  8
AM_5
100
AcDbLine
 10
-68.38471854392674
 20
3.849999999999985
 30
0.0
 11
-68.38471854392674
 21
-3.850000000000003
 31
0.0
  0
INSERT
  5
96DE
330
8E16
100
AcDbEntity
  8
AM_5
100
AcDbBlockReference
  2
_OPEN30
 10
-68.38471854392674
 20
6.349999999999985
 30
0.0
 41
2.5
 42
2.5
 43
2.5
 50
90.0
  0
INSERT
  5
96DF
330
8E16
100
AcDbEntity
  8
AM_5
100
AcDbBlockReference
  2
_OPEN30
 10
-68.38471854392674
 20
-6.350000000000003
 30
0.0
 41
2.5
 42
2.5
 43
2.5
 50
270.0
  0
MTEXT
  5
96E0
330
8E16
100
AcDbEntity
  8
AM_5
 62
     2
100
AcDbMText
 10
-71.48471854392673
 20
-0.0000000000000194
 30
0.0
 40
3.2
 41
0.0
 71
     5
 72
     1
  1
12.7
  7
ASAMI
 11
0.0000000000000001
 21
1.0
 31
0.0
  0
POINT
  5
96E1
330
8E16
100
AcDbEntity
  8
DEFPOINTS
 62
     0
100
AcDbPoint
 10
-49.00000000000005
 20
6.34999999999998
 30
0.0
  0
POINT
  5
96E2
330
8E16
100
AcDbEntity
  8
DEFPOINTS
 62
     0
100
AcDbPoint
 10
-49.00000000001006
 20
-6.350000000000008
 30
0.0
  0
POINT
  5
96E3
330
8E16
100
AcDbEntity
  8
DEFPOINTS
 62
     0
100
AcDbPoint
 10
-68.38471854392674
 20
-6.350000000000003
 30
0.0
  0
ENDBLK
  5
8E21
330
8E16
100
AcDbEntity
  8
0
100
AcDbBlockEnd
  0
BLOCK
  5
8EA8
330
8E9E
100
AcDbEntity
  8
0
100
AcDbBlockBegin
  2
*D9
 70
     1
 10
0.0
 20
0.0
 30
0.0
  3
*D9
  1

  0
LINE
  5
96F6
330
8E9E
100
AcDbEntity
  8
AM_5
100
AcDbLine
 10
-49.99999999999994
 20
-33.99999605416879
 30
0.0
 11
-49.99999999999994
 21
-85.00001093408954
 31
0.0
  0
LINE
  5
96F7
330
8E9E
100
AcDbEntity
  8
AM_5
100
AcDbLine
 10
-6.500000000006025
 20
-31.62675352087571
 30
0.0
 11
-6.500000000006028
 21
-85.00001093408954
 31
0.0
  0
LINE
  5
96F8
330
8E9E
100
AcDbEntity
  8
AM_5
100
AcDbLine
 10
-47.49999999999994
 20
-84.00001093408954
 30
0.0
 11
-9.000000000006028
 21
-84.00001093408954
 31
0.0
  0
INSERT
  5
96F9
330
8E9E
100
AcDbEntity
  8
AM_5
100
AcDbBlockReference
  2
_OPEN30
 10
-49.99999999999994
 20
-84.00001093408954
 30
0.0
 41
2.5
 42
2.5
 43
2.5
 50
180.0
  0
INSERT
  5
96FA
330
8E9E
100
AcDbEntity
  8
AM_5
100
AcDbBlockReference
  2
_OPEN30
 10
-6.500000000006028
 20
-84.00001093408954
 30
0.0
 41
2.5
 42
2.5
 43
2.5
  0
MTEXT
  5
96FB
330
8E9E
100
AcDbEntity
  8
AM_5
 62
     2
100
AcDbMText
 10
-28.25000000000298
 20
-80.90001093408956
 30
0.0
 40
3.2
 41
0.0
 71
     5
 72
     1
  1
43.5
  7
ASAMI
  0
POINT
  5
96FC
330
8E9E
100
AcDbEntity
  8
DEFPOINTS
 62
     0
100
AcDbPoint
 10
-49.99999999999994
 20
-32.99999605416878
 30
0.0
  0
POINT
  5
96FD
330
8E9E
100
AcDbEntity
  8
DEFPOINTS
 62
     0
100
AcDbPoint
 10
-6.500000000006025
 20
-30.62675352087572
 30
0.0
  0
POINT
  5
96FE
330
8E9E
100
AcDbEntity
  8
DEFPOINTS
 62
     0
100
AcDbPoint
 10
-6.500000000006028
 20
-84.00001093408954
 30
0.0
  0
ENDBLK
  5
8EA9
330
8E9E
100
AcDbEntity
  8
0
100
AcDbBlockEnd
  0
BLOCK
  5
8EC2
330
8EB8
100
AcDbEntity
  8
0
100
AcDbBlockBegin
  2
*D10
 70
     1
 10
0.0
 20
0.0
 30
0.0
  3
*D10
  1

  0
LINE
  5
96FF
330
8EB8
100
AcDbEntity
  8
AM_5
100
AcDbLine
 10
-49.99999999999994
 20
-33.99999605416879
 30
0.0
 11
-49.99999999999995
 21
-95.00000100000086
 31
0.0
  0
LINE
  5
9700
330
8EB8
100
AcDbEntity
  8
AM_5
100
AcDbLine
 10
-0.0000000000000569
 20
-50.97321319580099
 30
0.0
 11
-0.0000000000000596
 21
-95.00000100000086
 31
0.0
  0
LINE
  5
9701
330
8EB8
100
AcDbEntity
  8
AM_5
100
AcDbLine
 10
-47.49999999999995
 20
-94.00000100000086
 30
0.0
 11
-2.500000000000059
 21
-94.00000100000086
 31
0.0
  0
INSERT
  5
9702
330
8EB8
100
AcDbEntity
  8
AM_5
100
AcDbBlockReference
  2
_OPEN30
 10
-49.99999999999995
 20
-94.00000100000086
 30
0.0
 41
2.5
 42
2.5
 43
2.5
 50
180.0
  0
INSERT
  5
9703
330
8EB8
100
AcDbEntity
  8
AM_5
100
AcDbBlockReference
  2
_OPEN30
 10
-0.0000000000000595
 20
-94.00000100000086
 30
0.0
 41
2.5
 42
2.5
 43
2.5
  0
MTEXT
  5
9704
330
8EB8
100
AcDbEntity
  8
AM_5
 62
     2
100
AcDbMText
 10
-25.0
 20
-90.90000100000088
 30
0.0
 40
3.2
 41
0.0
 71
     5
 72
     1
  1
50
  7
ASAMI
  0
POINT
  5
9705
330
8EB8
100
AcDbEntity
  8
DEFPOINTS
 62
     0
100
AcDbPoint
 10
-49.99999999999994
 20
-32.99999605416878
 30
0.0
  0
POINT
  5
9706
330
8EB8
100
AcDbEntity
  8
DEFPOINTS
 62
     0
100
AcDbPoint
 10
-0.0000000000000568
 20
-49.97321319580098
 30
0.0
  0
POINT
  5
9707
330
8EB8
100
AcDbEntity
  8
DEFPOINTS
 62
     0
100
AcDbPoint
 10
-0.0000000000000595
 20
-94.00000100000086
 30
0.0
  0
ENDBLK
  5
8EC3
330
8EB8
100
AcDbEntity
  8
0
100
AcDbBlockEnd
  0
BLOCK
  5
8ECE
330
8EC4
100
AcDbEntity
  8
0
100
AcDbBlockBegin
  2
*D11
 70
     1
 10
0.0
 20
0.0
 30
0.0
  3
*D11
  1

  0
LINE
  5
96ED
330
8EC4
100
AcDbEntity
  8
AM_5
100
AcDbLine
 10
-49.99999999999994
 20
-33.99999605416879
 30
0.0
 11
-49.99999999999994
 21
-75.00001093408974
 31
0.0
  0
LINE
  5
96EE
330
8EC4
100
AcDbEntity
  8
AM_5
100
AcDbLine
 10
-18.00000000000903
 20
-24.00000000000001
 30
0.0
 11
-18.00000000000904
 21
-75.00001093408974
 31
0.0
  0
LINE
  5
96EF
330
8EC4
100
AcDbEntity
  8
AM_5
100
AcDbLine
 10
-47.49999999999994
 20
-74.00001093408974
 30
0.0
 11
-20.50000000000904
 21
-74.00001093408974
 31
0.0
  0
INSERT
  5
96F0
330
8EC4
100
AcDbEntity
  8
AM_5
100
AcDbBlockReference
  2
_OPEN30
 10
-49.99999999999994
 20
-74.00001093408974
 30
0.0
 41
2.5
 42
2.5
 43
2.5
 50
180.0
  0
INSERT
  5
96F1
330
8EC4
100
AcDbEntity
  8
AM_5
100
AcDbBlockReference
  2
_OPEN30
 10
-18.00000000000904
 20
-74.00001093408974
 30
0.0
 41
2.5
 42
2.5
 43
2.5
  0
MTEXT
  5
96F2
330
8EC4
100
AcDbEntity
  8
AM_5
 62
     2
100
AcDbMText
 10
-34.00000000000449
 20
-70.90001093408975
 30
0.0
 40
3.2
 41
0.0
 71
     5
 72
     1
  1
32
  7
ASAMI
  0
POINT
  5
96F3
330
8EC4
100
AcDbEntity
  8
DEFPOINTS
 62
     0
100
AcDbPoint
 10
-49.99999999999994
 20
-32.99999605416878
 30
0.0
  0
POINT
  5
96F4
330
8EC4
100
AcDbEntity
  8
DEFPOINTS
 62
     0
100
AcDbPoint
 10
-18.00000000000903
 20
-23.00000000000001
 30
0.0
  0
POINT
  5
96F5
330
8EC4
100
AcDbEntity
  8
DEFPOINTS
 62
     0
100
AcDbPoint
 10
-18.00000000000904
 20
-74.00001093408974
 30
0.0
  0
ENDBLK
  5
8ECF
330
8EC4
100
AcDbEntity
  8
0
100
AcDbBlockEnd
  0
BLOCK
  5
8F5F
330
8F53
100
AcDbEntity
  8
0
100
AcDbBlockBegin
  2
*D12
 70
     1
 10
0.0
 20
0.0
 30
0.0
  3
*D12
  1

  0
LINE
  5
9708
330
8F53
100
AcDbEntity
  8
AM_5
100
AcDbLine
 10
-50.00000000000006
 20
-33.99999601045738
 30
0.0
 11
-50.00000000000006
 21
-65.00001093408993
 31
0.0
  0
LINE
  5
9709
330
8F53
100
AcDbEntity
  8
AM_5
100
AcDbLine
 10
-42.00000000000005
 20
-7.350006103515013
 30
0.0
 11
-42.00000000000006
 21
-65.00001093408993
 31
0.0
  0
LINE
  5
970A
330
8F53
100
AcDbEntity
  8
AM_5
100
AcDbLine
 10
-52.50000000000006
 20
-64.00001093408993
 30
0.0
 11
-55.00000000000006
 21
-64.00001093408993
 31
0.0
  0
LINE
  5
970B
330
8F53
100
AcDbEntity
  8
AM_5
100
AcDbLine
 10
-39.50000000000006
 20
-64.00001093408993
 30
0.0
 11
-37.00000000000005
 21
-64.00001093408993
 31
0.0
  0
LINE
  5
970C
330
8F53
100
AcDbEntity
  8
AM_5
100
AcDbLine
 10
-50.00000000000006
 20
-64.00001093408993
 30
0.0
 11
-42.00000000000005
 21
-64.00001093408993
 31
0.0
  0
INSERT
  5
970D
330
8F53
100
AcDbEntity
  8
AM_5
100
AcDbBlockReference
  2
_OPEN30
 10
-50.00000000000006
 20
-64.00001093408993
 30
0.0
 41
2.5
 42
2.5
 43
2.5
  0
INSERT
  5
970E
330
8F53
100
AcDbEntity
  8
AM_5
100
AcDbBlockReference
  2
_OPEN30
 10
-42.00000000000005
 20
-64.00001093408993
 30
0.0
 41
2.5
 42
2.5
 43
2.5
 50
180.0
  0
MTEXT
  5
970F
330
8F53
100
AcDbEntity
  8
AM_5
 62
     2
100
AcDbMText
 10
-46.00000000000005
 20
-60.90001093408993
 30
0.0
 40
3.2
 41
0.0
 71
     5
 72
     1
  1
8
  7
ASAMI
  0
POINT
  5
9710
330
8F53
100
AcDbEntity
  8
DEFPOINTS
 62
     0
100
AcDbPoint
 10
-50.00000000000006
 20
-32.99999601045738
 30
0.0
  0
POINT
  5
9711
330
8F53
100
AcDbEntity
  8
DEFPOINTS
 62
     0
100
AcDbPoint
 10
-42.00000000000005
 20
-6.350006103515013
 30
0.0
  0
POINT
  5
9712
330
8F53
100
AcDbEntity
  8
DEFPOINTS
 62
     0
100
AcDbPoint
 10
-42.00000000000005
 20
-64.00001093408993
 30
0.0
  0
ENDBLK
  5
8F60
330
8F53
100
AcDbEntity
  8
0
100
AcDbBlockEnd
  0
BLOCK
  5
904A
330
9040
100
AcDbEntity
  8
0
100
AcDbBlockBegin
  2
*D13
 70
     1
 10
0.0
 20
0.0
 30
0.0
  3
*D13
  1

  0
LINE
  5
9713
330
9040
100
AcDbEntity
  8
AM_5
100
AcDbLine
 10
-8.653488290313248
 20
23.0
 30
0.0
 11
18.10800803900457
 21
22.99999999999999
 31
0.0
  0
LINE
  5
9714
330
9040
100
AcDbEntity
  8
AM_5
100
AcDbLine
 10
-8.653488290313248
 20
-23.0
 30
0.0
 11
18.10800803900457
 21
-23.0
 31
0.0
  0
LINE
  5
9715
330
9040
100
AcDbEntity
  8
AM_5
100
AcDbLine
 10
17.10800803900458
 20
20.49999999999999
 30
0.0
 11
17.10800803900457
 21
-20.5
 31
0.0
  0
INSERT
  5
9716
330
9040
100
AcDbEntity
  8
AM_5
100
AcDbBlockReference
  2
_OPEN30
 10
17.10800803900458
 20
22.99999999999999
 30
0.0
 41
2.5
 42
2.5
 43
2.5
 50
90.0
  0
INSERT
  5
9717
330
9040
100
AcDbEntity
  8
AM_5
100
AcDbBlockReference
  2
_OPEN30
 10
17.10800803900457
 20
-23.0
 30
0.0
 41
2.5
 42
2.5
 43
2.5
 50
270.0
  0
MTEXT
  5
9718
330
9040
100
AcDbEntity
  8
AM_5
 62
     2
100
AcDbMText
 10
14.00800803900457
 20
-0.0000000000000042
 30
0.0
 40
3.2
 41
0.0
 71
     5
 72
     1
  1
%%c46
  7
ASAMI
 11
0.0000000000000001
 21
1.0
 31
0.0
  0
POINT
  5
9719
330
9040
100
AcDbEntity
  8
DEFPOINTS
 62
     0
100
AcDbPoint
 10
-9.653488290313248
 20
23.0
 30
0.0
  0
POINT
  5
971A
330
9040
100
AcDbEntity
  8
DEFPOINTS
 62
     0
100
AcDbPoint
 10
-9.653488290313248
 20
-23.0
 30
0.0
  0
POINT
  5
971B
330
9040
100
AcDbEntity
  8
DEFPOINTS
 62
     0
100
AcDbPoint
 10
17.10800803900457
 20
-23.0
 30
0.0
  0
ENDBLK
  5
904B
330
9040
100
AcDbEntity
  8
0
100
AcDbBlockEnd
  0
ENDSEC
  0
SECTION
  2
ENTITIES
  0
TEXT
  5
E5A
330
1F
100
AcDbEntity
  8
AM_6
100
AcDbText
 10
-45.95238095238094
 20
-116.5000010000008
 30
0.0
 40
5.0
  1
WRC20100R
 72
     4
 11
-24.99999999999999
 21
-114.0000010000008
 31
0.0
100
AcDbText
  0
LINE
  5
8D54
330
1F
100
AcDbEntity
  8
AM_0
  6
CONTINUOUS
 48
0.5
100
AcDbLine
 10
-19.87464846195104
 20
41.97961425781302
 30
0.0
 11
-18.33925570072006
 21
45.64598464965802
 31
0.0
  0
LINE
  5
8D55
330
1F
100
AcDbEntity
  8
AM_0
  6
CONTINUOUS
 48
0.5
100
AcDbLine
 10
-1.477263818396011
 20
45.70281600952201
 30
0.0
 11
0.0154424804319433
 21
42.04650115966801
 31
0.0
  0
LINE
  5
8D56
330
1F
100
AcDbEntity
  8
AM_0
  6
CONTINUOUS
100
AcDbLine
 10
-40.59999847413002
 20
15.87499999999998
 30
0.0
 11
-40.59999847413002
 21
-15.87499999999501
 31
0.0
  0
LINE
  5
8D57
330
1F
100
AcDbEntity
  8
AM_0
  6
CONTINUOUS
100
AcDbLine
 10
-6.500000000009038
 20
30.62675476074199
 30
0.0
 11
-6.500000000008981
 21
-30.62675352087448
 31
0.0
  0
LINE
  5
8D58
330
1F
100
AcDbEntity
  8
AM_0
  6
CONTINUOUS
 48
0.5
100
AcDbLine
 10
-42.00000000000005
 20
6.34999847412098
 30
0.0
 11
-42.00000000000005
 21
-6.350006103515013
 31
0.0
  0
LINE
  5
8D59
330
1F
100
AcDbEntity
  8
AM_0
  6
CONTINUOUS
100
AcDbLine
 10
-18.00000000000903
 20
22.99999999999998
 30
0.0
 11
-18.00000000000898
 21
-23.00000000000002
 31
0.0
  0
LINE
  5
8D5B
330
1F
100
AcDbEntity
  8
AM_0
  6
CONTINUOUS
 48
0.5
100
AcDbLine
 10
-50.00000000000006
 20
-7.350006103515013
 30
0.0
 11
-50.00000000000006
 21
-32.99999618530302
 31
0.0
  0
LINE
  5
8D5D
330
1F
100
AcDbEntity
  8
AM_0
  6
CONTINUOUS
 48
0.5
100
AcDbLine
 10
-48.50000000000005
 20
-6.350006103515013
 30
0.0
 11
-48.50000000000005
 21
-15.87499999999501
 31
0.0
  0
LINE
  5
8D5E
330
1F
100
AcDbEntity
  8
AM_0
  6
CONTINUOUS
 48
0.5
100
AcDbLine
 10
-49.99999237061001
 20
-17.37499999999501
 30
0.0
 11
-48.49999237061002
 21
-15.87499999999501
 31
0.0
  0
LINE
  5
8D5F
330
1F
100
AcDbEntity
  8
AM_0
  6
CONTINUOUS
100
AcDbLine
 10
-48.50000000000005
 20
-15.87499999999501
 30
0.0
 11
-18.00000000000903
 21
-15.87499999999501
 31
0.0
  0
LINE
  5
8D60
330
1F
100
AcDbEntity
  8
AM_0
  6
CONTINUOUS
 48
0.5
100
AcDbLine
 10
-49.99998474122003
 20
-7.349984741210008
 30
0.0
 11
-49.00000000001006
 21
-6.350000000000008
 31
0.0
  0
LINE
  5
8D61
330
1F
100
AcDbEntity
  8
AM_0
  6
CONTINUOUS
 48
0.5
100
AcDbLine
 10
-49.00000000000005
 20
-6.350000000000008
 30
0.0
 11
-42.00000000000005
 21
-6.350000000000008
 31
0.0
  0
LINE
  5
8D62
330
1F
100
AcDbEntity
  8
AM_0
  6
CONTINUOUS
 48
0.5
100
AcDbLine
 10
-50.00000000000006
 20
32.99999618530299
 30
0.0
 11
-50.00000000000006
 21
7.34999847412098
 31
0.0
  0
LINE
  5
8D63
330
1F
100
AcDbEntity
  8
AM_0
  6
CONTINUOUS
 48
0.5
100
AcDbLine
 10
-48.50000000000005
 20
15.87499999999998
 30
0.0
 11
-48.50000000000005
 21
6.34999847412098
 31
0.0
  0
LINE
  5
8D64
330
1F
100
AcDbEntity
  8
AM_7
  6
AM_ISO08W050
100
AcDbLine
 10
-54.38472747802006
 20
0.0
 30
0.0
 11
3.108016967773949
 21
0.0
 31
0.0
  0
LINE
  5
8D65
330
1F
100
AcDbEntity
  8
AM_0
  6
CONTINUOUS
 48
0.5
100
AcDbLine
 10
-49.99999237061001
 20
7.34999999999998
 30
0.0
 11
-48.99999237061002
 21
6.34999999999998
 31
0.0
  0
LINE
  5
8D66
330
1F
100
AcDbEntity
  8
AM_0
  6
CONTINUOUS
 48
0.5
100
AcDbLine
 10
-49.00000000000005
 20
6.34999999999998
 30
0.0
 11
-42.00000000000005
 21
6.34999999999998
 31
0.0
  0
LINE
  5
8D67
330
1F
100
AcDbEntity
  8
AM_0
  6
CONTINUOUS
 48
0.5
100
AcDbLine
 10
-49.99999237061001
 20
17.37499999999998
 30
0.0
 11
-48.49999237061002
 21
15.87499999999998
 31
0.0
  0
LINE
  5
8D68
330
1F
100
AcDbEntity
  8
AM_0
  6
CONTINUOUS
100
AcDbLine
 10
-48.50000000000005
 20
15.87499999999998
 30
0.0
 11
-18.00000000000903
 21
15.87499999999998
 31
0.0
  0
ARC
  5
8D69
330
1F
100
AcDbEntity
  8
AM_0
  6
CONTINUOUS
 48
0.5
100
AcDbCircle
 10
-47.99999991257727
 20
32.99999999999998
 30
0.0
 40
2.0
100
AcDbArc
 50
90.00000250447845
 51
180.0000050089585
  0
LINE
  5
8D6A
330
1F
100
AcDbEntity
  8
AM_11
100
AcDbLine
 10
-37.38782501221004
 20
34.99999999999998
 30
0.0
 11
-6.500000000009038
 21
26.72363281249998
 31
0.0
  0
LINE
  5
8D6B
330
1F
100
AcDbEntity
  8
AM_0
  6
CONTINUOUS
 48
0.5
100
AcDbLine
 10
-4.357039819373028
 20
31.60532379150402
 30
0.0
 11
-1.543136010779051
 21
34.41703033447301
 31
0.0
  0
LINE
  5
8D6C
330
1F
100
AcDbEntity
  8
AM_0
  6
CONTINUOUS
 48
0.5
100
AcDbLine
 10
-18.40513552249802
 20
34.36032485961901
 30
0.0
 11
-15.62385500492001
 21
31.56742095947302
 31
0.0
  0
ARC
  5
8D6D
330
1F
100
AcDbEntity
  8
AM_0
  6
CONTINUOUS
 48
0.5
100
AcDbCircle
 10
-9.500000000009038
 20
25.99999999999998
 30
0.0
 40
3.0
100
AcDbArc
 50
269.9999974955215
 51
0.0
  0
LINE
  5
8D6E
330
1F
100
AcDbEntity
  8
AM_0
  6
CONTINUOUS
 48
0.5
100
AcDbLine
 10
-18.00000000000903
 20
22.99999999999998
 30
0.0
 11
-9.500000000009038
 21
22.99999999999998
 31
0.0
  0
LINE
  5
8D6F
330
1F
100
AcDbEntity
  8
AM_0
  6
CONTINUOUS
 48
0.5
100
AcDbLine
 10
-8.021125207555996
 20
30.07642364502001
 30
0.0
 11
-11.97759188236102
 21
30.06311798095701
 31
0.0
  0
LINE
  5
8D70
330
1F
100
AcDbEntity
  8
AM_0
  6
CONTINUOUS
 48
0.5
100
AcDbLine
 10
-11.97756136478301
 20
30.06310272216802
 30
0.0
 11
-15.62387026370902
 21
31.56740570068402
 31
0.0
  0
LINE
  5
8D71
330
1F
100
AcDbEntity
  8
AM_0
  6
CONTINUOUS
 48
0.5
100
AcDbLine
 10
-4.357039819373028
 20
31.60531616210902
 30
0.0
 11
-8.021132836951039
 21
30.07641601562501
 31
0.0
  0
LINE
  5
8D72
330
1F
100
AcDbEntity
  8
AM_0
  6
CONTINUOUS
 48
0.5
100
AcDbLine
 10
-7.138015161170017
 20
30.37938690185602
 30
0.0
 11
-7.296325097693056
 21
30.37885284423802
 31
0.0
  0
CIRCLE
  5
8D73
330
1F
100
AcDbEntity
  8
AM_0
  6
CONTINUOUS
 48
0.5
100
AcDbCircle
 10
-9.941153894080002
 20
40.03149032592801
 30
0.0
 40
4.5
  0
LINE
  5
8D74
330
1F
100
AcDbEntity
  8
AM_0
  6
CONTINUOUS
 48
0.5
100
AcDbLine
 10
-28.55662536622003
 20
37.49999999999998
 30
0.0
 11
-25.669868469248
 21
42.49999999999999
 31
0.0
  0
LINE
  5
8D75
330
1F
100
AcDbEntity
  8
AM_0
  6
CONTINUOUS
 48
0.5
100
AcDbLine
 10
0.0154653686149686
 20
42.04652023315403
 30
0.0
 11
-0.0076364380250311
 21
38.08348464965801
 31
0.0
  0
LINE
  5
8D76
330
1F
100
AcDbEntity
  8
AM_0
  6
CONTINUOUS
 48
0.5
100
AcDbLine
 10
-19.89774263919701
 20
38.01652526855501
 30
0.0
 11
-19.87464083255599
 21
41.97960281372103
 31
0.0
  0
ARC
  5
8D77
330
1F
100
AcDbEntity
  8
AM_0
  6
CONTINUOUS
 48
0.5
100
AcDbCircle
 10
-32.88674926758705
 20
39.99999999999998
 30
0.0
 40
5.0
100
AcDbArc
 50
269.9999974955215
 51
329.9999991651724
  0
LINE
  5
8D78
330
1F
100
AcDbEntity
  8
AM_0
  6
CONTINUOUS
 48
0.5
100
AcDbLine
 10
-18.40516604007603
 20
34.36031723022502
 30
0.0
 11
-19.89778078617001
 21
38.01660156250001
 31
0.0
  0
LINE
  5
8D79
330
1F
100
AcDbEntity
  8
AM_0
  6
CONTINUOUS
 48
0.5
100
AcDbLine
 10
-0.0076440674200171
 20
38.08349227905301
 30
0.0
 11
-1.543128381385031
 21
34.41702651977502
 31
0.0
  0
LINE
  5
8D7A
330
1F
100
AcDbEntity
  8
AM_0
  6
CONTINUOUS
 48
0.5
100
AcDbLine
 10
-47.99999991257727
 20
34.99999999999998
 30
0.0
 11
-32.88674918016425
 21
34.99999999999998
 31
0.0
  0
ARC
  5
8D7B
330
1F
100
AcDbEntity
  8
AM_0
  6
CONTINUOUS
 48
0.5
100
AcDbCircle
 10
-23.07179260254804
 20
40.99999999999998
 30
0.0
 40
3.0
100
AcDbArc
 50
90.00000250447845
 51
149.9999973439397
  0
LINE
  5
8D7C
330
1F
100
AcDbEntity
  8
AM_0
  6
CONTINUOUS
 48
0.5
100
AcDbLine
 10
-23.07179260254804
 20
43.99999999999998
 30
0.0
 11
-18.87931060791902
 21
43.99999999999998
 31
0.0
  0
LINE
  5
8D7D
330
1F
100
AcDbEntity
  8
AM_0
  6
CONTINUOUS
 48
0.5
100
AcDbLine
 10
-1.477271447791054
 20
45.70279693603502
 30
0.0
 11
-4.258460412635031
 21
48.49567413330102
 31
0.0
  0
LINE
  5
8D7E
330
1F
100
AcDbEntity
  8
AM_0
  6
CONTINUOUS
 48
0.5
100
AcDbLine
 10
-7.904815087928
 20
50.00000000000001
 30
0.0
 11
-4.258422265662034
 21
48.49569702148402
 31
0.0
  0
LINE
  5
8D7F
330
1F
100
AcDbEntity
  8
AM_0
  6
CONTINUOUS
 48
0.5
100
AcDbLine
 10
-11.86113680423602
 20
49.98668289184603
 30
0.0
 11
-7.904830346717062
 21
49.99998855590802
 31
0.0
  0
LINE
  5
8D80
330
1F
100
AcDbEntity
  8
AM_0
  6
CONTINUOUS
 48
0.5
100
AcDbLine
 10
-15.52526796878703
 20
48.45779418945302
 30
0.0
 11
-11.86115206302503
 21
49.98669433593803
 31
0.0
  0
LINE
  5
8D81
330
1F
100
AcDbEntity
  8
AM_0
  6
CONTINUOUS
 48
0.5
100
AcDbLine
 10
-15.52526033939204
 20
48.45778274536103
 30
0.0
 11
-18.33924807132603
 21
45.64599227905302
 31
0.0
  0
CIRCLE
  5
8DB5
330
1F
100
AcDbEntity
  8
AM_0
  6
CONTINUOUS
 48
0.5
100
AcDbCircle
 10
-9.956619262695028
 20
-40.031490325928
 30
0.0
 40
4.5
  0
LINE
  5
8DB6
330
1F
100
AcDbEntity
  8
AM_0
  6
CONTINUOUS
 48
0.5
100
AcDbLine
 10
-8.036590576171022
 20
-30.07642364502
 30
0.0
 11
-11.99305725097605
 21
-30.06311798095701
 31
0.0
  0
LINE
  5
8DB7
330
1F
100
AcDbEntity
  8
AM_11
100
AcDbLine
 10
-37.38782501221004
 20
-35.00000000000001
 30
0.0
 11
-6.500000000009038
 21
-26.72363281250001
 31
0.0
  0
LINE
  5
8DB8
330
1F
100
AcDbEntity
  8
AM_0
  6
CONTINUOUS
 48
0.5
100
AcDbLine
 10
-19.91320800781204
 20
-38.016525268555
 30
0.0
 11
-19.89010620117102
 21
-41.97960281372102
 31
0.0
  0
LINE
  5
8DB9
330
1F
100
AcDbEntity
  8
AM_0
  6
CONTINUOUS
 48
0.5
100
AcDbLine
 10
-28.55662536622003
 20
-37.50000000000001
 30
0.0
 11
-25.669868469248
 21
-42.50000000000001
 31
0.0
  0
ARC
  5
8DBA
330
1F
100
AcDbEntity
  8
AM_0
  6
CONTINUOUS
 48
0.5
100
AcDbCircle
 10
-32.88674926758705
 20
-40.00000000000001
 30
0.0
 40
5.0
100
AcDbArc
 50
30.00000083482754
 51
90.00000250447849
  0
LINE
  5
8DBB
330
1F
100
AcDbEntity
  8
AM_0
  6
CONTINUOUS
 48
0.5
100
AcDbLine
 10
-47.99999991257727
 20
-35.00000000000001
 30
0.0
 11
-32.88674918016425
 21
-35.00000000000001
 31
0.0
  0
ARC
  5
8DBC
330
1F
100
AcDbEntity
  8
AM_0
  6
CONTINUOUS
 48
0.5
100
AcDbCircle
 10
-47.99999991257727
 20
-33.00000000000001
 30
0.0
 40
2.0
100
AcDbArc
 50
179.9999949910414
 51
269.9999974955215
  0
LINE
  5
8DBD
330
1F
100
AcDbEntity
  8
AM_0
  6
CONTINUOUS
 48
0.5
100
AcDbLine
 10
-11.99302673339803
 20
-30.06310272216802
 30
0.0
 11
-15.63933563232404
 21
-31.56740570068401
 31
0.0
  0
LINE
  5
8DBE
330
1F
100
AcDbEntity
  8
AM_0
  6
CONTINUOUS
 48
0.5
100
AcDbLine
 10
-18.42060089111305
 20
-34.360324859619
 30
0.0
 11
-15.63932037353504
 21
-31.56742095947302
 31
0.0
  0
LINE
  5
8DBF
330
1F
100
AcDbEntity
  8
AM_0
  6
CONTINUOUS
 48
0.5
100
AcDbLine
 10
-18.42063140869106
 20
-34.36031723022501
 30
0.0
 11
-19.91324615478504
 21
-38.01660156250001
 31
0.0
  0
LINE
  5
8DC0
330
1F
100
AcDbEntity
  8
AM_0
  6
CONTINUOUS
 48
0.5
100
AcDbLine
 10
-23.09833449455362
 20
-44.0
 30
0.0
 11
-18.9058524999246
 21
-44.0
 31
0.0
  0
ARC
  5
8DC1
330
1F
100
AcDbEntity
  8
AM_0
  6
CONTINUOUS
 48
0.5
100
AcDbCircle
 10
-23.07179260254804
 20
-41.00000000000001
 30
0.0
 40
3.0
100
AcDbArc
 50
210.0000026560602
 51
269.9999974955215
  0
LINE
  5
8DC2
330
1F
100
AcDbEntity
  8
AM_0
  6
CONTINUOUS
 48
0.5
100
AcDbLine
 10
-15.54072570800707
 20
-48.45778274536102
 30
0.0
 11
-18.35471343994106
 21
-45.64599227905301
 31
0.0
  0
LINE
  5
8DC3
330
1F
100
AcDbEntity
  8
AM_0
  6
CONTINUOUS
 48
0.5
100
AcDbLine
 10
-19.89011383056606
 20
-41.97961425781302
 30
0.0
 11
-18.35472106933508
 21
-45.64598464965801
 31
0.0
  0
LINE
  5
8DC4
330
1F
100
AcDbEntity
  8
AM_0
  6
CONTINUOUS
 48
0.5
100
AcDbLine
 10
-0.0000000000000568
 20
-42.04652023315402
 30
0.0
 11
-0.0231018066400566
 21
-38.08348464965801
 31
0.0
  0
LINE
  5
8DC5
330
1F
100
AcDbEntity
  8
AM_0
  6
CONTINUOUS
 48
0.5
100
AcDbLine
 10
-0.0231094360350426
 20
-38.08349227905301
 30
0.0
 11
-1.558593750000056
 21
-34.41702651977501
 31
0.0
  0
LINE
  5
8DC6
330
1F
100
AcDbEntity
  8
AM_0
  6
CONTINUOUS
 48
0.5
100
AcDbLine
 10
-4.372505187988053
 20
-31.60531616210901
 30
0.0
 11
-8.036598205566065
 21
-30.076416015625
 31
0.0
  0
LINE
  5
8DC7
330
1F
100
AcDbEntity
  8
AM_0
  6
CONTINUOUS
 48
0.5
100
AcDbLine
 10
-7.153480529785042
 20
-30.37938690185601
 30
0.0
 11
-7.311790466308082
 21
-30.37885284423802
 31
0.0
  0
LINE
  5
8DC8
330
1F
100
AcDbEntity
  8
AM_0
  6
CONTINUOUS
 48
0.5
100
AcDbLine
 10
-4.372505187988053
 20
-31.60532379150401
 30
0.0
 11
-1.558601379394076
 21
-34.417030334473
 31
0.0
  0
LINE
  5
8DC9
330
1F
100
AcDbEntity
  8
AM_0
  6
CONTINUOUS
 48
0.5
100
AcDbLine
 10
-1.492729187011036
 20
-45.702816009522
 30
0.0
 11
-0.0000228881830822
 21
-42.046501159668
 31
0.0
  0
LINE
  5
8DCA
330
1F
100
AcDbEntity
  8
AM_0
  6
CONTINUOUS
 48
0.5
100
AcDbLine
 10
-1.492736816406079
 20
-45.70279693603501
 30
0.0
 11
-4.273925781250056
 21
-48.49567413330102
 31
0.0
  0
LINE
  5
8DCB
330
1F
100
AcDbEntity
  8
AM_0
  6
CONTINUOUS
 48
0.5
100
AcDbLine
 10
-11.87660217285105
 20
-49.98668289184602
 30
0.0
 11
-7.920295715332088
 21
-49.99998855590801
 31
0.0
  0
LINE
  5
8DCC
330
1F
100
AcDbEntity
  8
AM_0
  6
CONTINUOUS
 48
0.5
100
AcDbLine
 10
-15.54073333740205
 20
-48.45779418945301
 30
0.0
 11
-11.87661743164005
 21
-49.98669433593802
 31
0.0
  0
LINE
  5
8DCD
330
1F
100
AcDbEntity
  8
AM_0
  6
CONTINUOUS
 48
0.5
100
AcDbLine
 10
-7.920280456543025
 20
-50.0
 30
0.0
 11
-4.273887634277059
 21
-48.49569702148401
 31
0.0
  0
LINE
  5
8DCE
330
1F
100
AcDbEntity
  8
AM_11
100
AcDbLine
 10
-7.904815087928
 20
50.00000000000001
 30
0.0
 11
0.0000000000000568
 21
50.00000000000004
 31
0.0
  0
DIMENSION
  5
8DD0
330
1F
100
AcDbEntity
  8
AM_5
100
AcDbDimension
  2
*D5
 10
27.10800803900457
 20
-50.0
 30
0.0
 11
24.00800803900458
 21
0.00000000000002
 31
0.0
 70
    32
  1
%%c<>
  3
AM_JIS$0
100
AcDbAlignedDimension
 13
0.0000000000000568
 23
50.00000000000004
 33
0.0
 14
-0.0000000000000568
 24
-50.0
 34
0.0
 50
90.0
100
AcDbRotatedDimension
1001
GENIUS_GENDTOL_13
1000

1000
h7
1000

1040
0.0
1001
ACAD
1000
DSTYLE
1002
{
1070
   287
1070
     3
1070
    42
1040
1.0
1070
    43
1040
12.0
1070
    48
1040
0.1
1070
    78
1070
     8
1070
   140
1040
3.2
1070
   176
1070
   256
1070
   177
1070
   256
1070
   271
1070
     3
1070
   272
1070
     3
1070
   275
1070
     0
1070
   284
1070
     0
1070
   289
1070
     3
1070
   340
1005
6B
1070
   371
1070
    -1
1070
   372
1070
    -1
1002
}
  0
LINE
  5
8DF0
330
1F
100
AcDbEntity
  8
AM_11
100
AcDbLine
 10
-7.912477453034341
 20
-50.0
 30
0.0
 11
-0.0000000000000568
 21
-50.0
 31
0.0
  0
DIMENSION
  5
8DFB
330
1F
100
AcDbEntity
  8
AM_5
100
AcDbDimension
  2
*D7
 10
-88.38471854392674
 20
-35.0
 30
0.0
 11
-91.48471854392672
 21
-0.0000000000000226
 31
0.0
 70
    32
  1
%%c<>
  3
AM_JIS$0
100
AcDbAlignedDimension
 13
-48.1269461797417
 23
34.99999999999998
 33
0.0
 14
-48.14765022202914
 24
-35.00000000000001
 34
0.0
 50
270.0
100
AcDbRotatedDimension
1001
GENIUS_GENDTOL_13
1000

1000
h7
1000

1040
0.0
1001
ACAD
1000
DSTYLE
1002
{
1070
   287
1070
     5
1070
    42
1040
1.0
1070
    43
1040
12.0
1070
    48
1040
0.1
1070
    78
1070
     8
1070
   140
1040
3.2
1070
   176
1070
   256
1070
   177
1070
   256
1070
   271
1070
     3
1070
   272
1070
     3
1070
   275
1070
     0
1070
   279
1070
     2
1070
   284
1070
     0
1070
   289
1070
     3
1070
   340
1005
6B
1070
   371
1070
    -1
1070
   372
1070
    -1
1002
}
  0
DIMENSION
  5
8DFC
330
1F
100
AcDbEntity
  8
AM_5
100
AcDbDimension
  2
*D8
 10
-68.38471854392674
 20
-6.350000000000003
 30
0.0
 11
-71.48471854392673
 21
-0.0000000000000194
 31
0.0
 70
    32
  1
<>
  3
AM_JIS$0
100
AcDbAlignedDimension
 13
-49.00000000000005
 23
6.34999999999998
 33
0.0
 14
-49.00000000001006
 24
-6.350000000000008
 34
0.0
 50
270.0
100
AcDbRotatedDimension
1001
GENIUS_GENDTOL_13
1000

1000
h7
1000

1040
0.0
1001
ACAD
1000
DSTYLE
1002
{
1070
   287
1070
     5
1070
    42
1040
1.0
1070
    43
1040
12.0
1070
    48
1040
0.1
1070
    78
1070
     8
1070
   140
1040
3.2
1070
   176
1070
   256
1070
   177
1070
   256
1070
   271
1070
     3
1070
   272
1070
     3
1070
   275
1070
     0
1070
   279
1070
     2
1070
   284
1070
     0
1070
   289
1070
     3
1070
   340
1005
6B
1070
   371
1070
    -1
1070
   372
1070
    -1
1002
}
  0
DIMENSION
  5
8DFD
330
1F
100
AcDbEntity
  8
AM_5
100
AcDbDimension
  2
*D6
 10
-78.38471854392674
 20
-15.874999999995
 30
0.0
 11
-81.48471854392672
 21
0.0000000000024832
 31
0.0
 70
    32
  1
%%c<>
  3
AM_JIS$0
100
AcDbAlignedDimension
 13
-48.50000000000005
 23
15.87499999999998
 33
0.0
 14
-48.50000000000005
 24
-15.87499999999501
 34
0.0
 50
270.0
100
AcDbRotatedDimension
1001
GENIUS_GENDTOL_13
1000

1000
h7
1000

1040
0.0
1001
ACAD
1000
DSTYLE
1002
{
1070
   287
1070
     5
1070
    42
1040
1.0
1070
    43
1040
12.0
1070
    48
1040
0.1
1070
    78
1070
     8
1070
   140
1040
3.2
1070
   176
1070
   256
1070
   177
1070
   256
1070
   271
1070
     3
1070
   272
1070
     3
1070
   275
1070
     0
1070
   279
1070
     2
1070
   284
1070
     0
1070
   289
1070
     3
1070
   340
1005
6B
1070
   371
1070
    -1
1070
   372
1070
    -1
1002
}
  0
DIMENSION
  5
8E9B
330
1F
100
AcDbEntity
  8
AM_5
100
AcDbDimension
  2
*D11
 10
-18.00000000000904
 20
-74.00001093408974
 30
0.0
 11
-34.00000000000449
 21
-70.90001093408975
 31
0.0
 70
    32
  1
<>
  3
AM_JIS$0
100
AcDbAlignedDimension
 13
-49.99999999999994
 23
-32.99999605416878
 33
0.0
 14
-18.00000000000903
 24
-23.00000000000001
 34
0.0
100
AcDbRotatedDimension
1001
GENIUS_GENDTOL_13
1000

1000
h7
1000

1040
0.0
1001
ACAD
1000
DSTYLE
1002
{
1070
   287
1070
     5
1070
    42
1040
1.0
1070
    43
1040
12.0
1070
    48
1040
0.1
1070
    78
1070
     8
1070
   140
1040
3.2
1070
   176
1070
   256
1070
   177
1070
   256
1070
   271
1070
     3
1070
   272
1070
     3
1070
   275
1070
     0
1070
   279
1070
     2
1070
   284
1070
     0
1070
   289
1070
     3
1070
   340
1005
6B
1070
   371
1070
    -1
1070
   372
1070
    -1
1002
}
  0
DIMENSION
  5
8E9C
330
1F
100
AcDbEntity
  8
AM_5
100
AcDbDimension
  2
*D9
 10
-6.500000000006028
 20
-84.00001093408954
 30
0.0
 11
-28.25000000000298
 21
-80.90001093408956
 31
0.0
 70
    32
  1
<>
  3
AM_JIS$0
100
AcDbAlignedDimension
 13
-49.99999999999994
 23
-32.99999605416878
 33
0.0
 14
-6.500000000006025
 24
-30.62675352087572
 34
0.0
100
AcDbRotatedDimension
1001
GENIUS_GENDTOL_13
1000

1000
h7
1000

1040
0.0
1001
ACAD
1000
DSTYLE
1002
{
1070
   287
1070
     5
1070
    42
1040
1.0
1070
    43
1040
12.0
1070
    48
1040
0.1
1070
    78
1070
     8
1070
   140
1040
3.2
1070
   176
1070
   256
1070
   177
1070
   256
1070
   271
1070
     3
1070
   272
1070
     3
1070
   275
1070
     0
1070
   279
1070
     2
1070
   284
1070
     0
1070
   289
1070
     3
1070
   340
1005
6B
1070
   371
1070
    -1
1070
   372
1070
    -1
1002
}
  0
DIMENSION
  5
8E9D
330
1F
100
AcDbEntity
  8
AM_5
100
AcDbDimension
  2
*D10
 10
-0.0000000000000595
 20
-94.00000100000086
 30
0.0
 11
-25.0
 21
-90.90000100000088
 31
0.0
 70
    32
  1
<>
  3
AM_JIS$0
100
AcDbAlignedDimension
 13
-49.99999999999994
 23
-32.99999605416878
 33
0.0
 14
-0.0000000000000568
 24
-49.97321319580098
 34
0.0
 50
0.0000113836296182
100
AcDbRotatedDimension
1001
GENIUS_GENDTOL_13
1000

1000
h7
1000

1040
0.0
1001
ACAD
1000
DSTYLE
1002
{
1070
   287
1070
     3
1070
    42
1040
1.0
1070
    43
1040
12.0
1070
    48
1040
0.1
1070
    78
1070
     8
1070
   140
1040
3.2
1070
   176
1070
   256
1070
   177
1070
   256
1070
   271
1070
     3
1070
   272
1070
     3
1070
   275
1070
     0
1070
   284
1070
     0
1070
   289
1070
     3
1070
   340
1005
6B
1070
   371
1070
    -1
1070
   372
1070
    -1
1002
}
  0
DIMENSION
  5
8F52
330
1F
100
AcDbEntity
  8
AM_5
100
AcDbDimension
  2
*D12
 10
-42.00000000000005
 20
-64.00001093408993
 30
0.0
 11
-46.00000000000005
 21
-60.90001093408993
 31
0.0
 70
    32
  1
<>
  3
AM_JIS$0
100
AcDbAlignedDimension
 13
-50.00000000000006
 23
-32.99999601045738
 33
0.0
 14
-42.00000000000005
 24
-6.350006103515013
 34
0.0
100
AcDbRotatedDimension
1001
GENIUS_GENDTOL_13
1000

1000
h7
1000

1040
0.0
1001
ACAD
1000
DSTYLE
1002
{
1070
   287
1070
     5
1070
    42
1040
1.0
1070
    43
1040
12.0
1070
    48
1040
0.1
1070
    78
1070
     8
1070
   140
1040
3.2
1070
   176
1070
   256
1070
   177
1070
   256
1070
   271
1070
     3
1070
   272
1070
     3
1070
   275
1070
     0
1070
   279
1070
     2
1070
   284
1070
     0
1070
   289
1070
     3
1070
   340
1005
6B
1070
   371
1070
    -1
1070
   372
1070
    -1
1002
}
  0
LINE
  5
901B
330
1F
100
AcDbEntity
  8
AM_0
  6
CONTINUOUS
 48
0.5
100
AcDbLine
 10
-18.00000000000903
 20
-23.00000000000001
 30
0.0
 11
-9.500000000009038
 21
-23.00000000000001
 31
0.0
  0
ARC
  5
901C
330
1F
100
AcDbEntity
  8
AM_0
  6
CONTINUOUS
 48
0.5
100
AcDbCircle
 10
-9.500000000009038
 20
-26.00000000000001
 30
0.0
 40
3.0
100
AcDbArc
 50
0.0
 51
90.00000250447849
  0
DIMENSION
  5
903F
330
1F
100
AcDbEntity
  8
AM_5
100
AcDbDimension
  2
*D13
 10
17.10800803900457
 20
-23.0
 30
0.0
 11
14.00800803900457
 21
-0.0000000000000042
 31
0.0
 70
    32
  1
%%c<>
  3
AM_JIS$0
100
AcDbAlignedDimension
 13
-9.653488290313248
 23
23.0
 33
0.0
 14
-9.653488290313248
 24
-23.0
 34
0.0
 50
90.0
100
AcDbRotatedDimension
1001
GENIUS_GENDTOL_13
1000

1000
h7
1000

1040
0.0
1001
ACAD
1000
DSTYLE
1002
{
1070
   287
1070
     3
1070
    42
1040
1.0
1070
    43
1040
12.0
1070
    48
1040
0.1
1070
    78
1070
     8
1070
   140
1040
3.2
1070
   176
1070
   256
1070
   177
1070
   256
1070
   271
1070
     3
1070
   272
1070
     3
1070
   275
1070
     0
1070
   284
1070
     0
1070
   289
1070
     3
1070
   340
1005
6B
1070
   371
1070
    -1
1070
   372
1070
    -1
1002
}
  0
LINE
  5
94F5
330
1F
100
AcDbEntity
  8
AM_11
100
AcDbLine
 10
0.0000000000000568
 20
50.00000000000004
 30
0.0
 11
-0.0000000000000568
 21
-50.0
 31
0.0
  0
VIEWPORT
  5
110
330
101
100
AcDbEntity
 67
     1
  8
0
100
AcDbViewport
 10
420.5
 20
297.0
 30
0.0
 40
948.9782706766916
 41
628.452
 68
     1
 69
     1
1001
ACAD
1000
MVIEW
1002
{
1070
    16
1010
0.0
1020
0.0
1030
0.0
1010
0.0
1020
0.0
1030
1.0
1040
0.0
1040
628.452
1040
420.5
1040
297.0
1040
50.0
1040
0.0
1040
0.0
1070
     0
1070
   100
1070
     1
1070
     1
1070
     0
1070
     0
1070
     0
1070
     0
1040
0.0
1040
0.0
1040
0.0
1040
10.0
1040
10.0
1040
10.0
1040
10.0
1070
     0
1002
{
1002
}
1002
}
  0
ENDSEC
  0
SECTION
  2
OBJECTS
  0
DICTIONARY
  5
C
330
0
100
AcDbDictionary
  3
ACAD_GROUP
350
D
  3
ACAD_LAYOUT
350
1A
  3
ACAD_MLINESTYLE
350
17
  3
ACAD_PLOTSETTINGS
350
19
  3
ACAD_PLOTSTYLENAME
350
E
  3
ACDBVARIABLEDICTIONARY
350
34
  3
ACMDICTIONARY
350
43
  3
AMG
350
2B
  3
AMGSNAPSETTINGS
350
6E
  3
DWGPROPS
350
9693
  3
ACDBHEADERROUNDTRIPXREC
350
969F
  0
DICTIONARY
  5
74
330
1F
100
AcDbDictionary
280
     1
  3
ACAD_INDEX
360
9695
  3
ACAD_LAYOUTSELFREF
360
96C2
  0
DICTIONARY
  5
96C7
330
101
100
AcDbDictionary
280
     1
  3
ACAD_LAYOUTSELFREF
360
96C8
  0
DICTIONARY
  5
D
102
{ACAD_REACTORS
330
C
102
}
330
C
100
AcDbDictionary
  0
DICTIONARY
  5
1A
102
{ACAD_REACTORS
330
C
102
}
330
C
100
AcDbDictionary
  0
DICTIONARY
  5
17
102
{ACAD_REACTORS
330
C
102
}
330
C
100
AcDbDictionary
  3
STANDARD
350
18
  0
DICTIONARY
  5
19
102
{ACAD_REACTORS
330
C
102
}
330
C
100
AcDbDictionary
  0
ACDBDICTIONARYWDFLT
  5
E
102
{ACAD_REACTORS
330
C
102
}
330
C
100
AcDbDictionary
281
     1
  3
Normal
350
F
100
AcDbDictionaryWithDefault
340
F
  0
DICTIONARY
  5
34
102
{ACAD_REACTORS
330
C
102
}
330
C
100
AcDbDictionary
  3
INDEXCTL
350
35
  3
SORTENTS
350
B5E
  0
DICTIONARY
  5
43
102
{ACAD_REACTORS
330
C
102
}
330
C
100
AcDbDictionary
  3
ACMSTDDICTIONARY
350
260
  0
DICTIONARY
  5
2B
102
{ACAD_REACTORS
330
C
102
}
330
C
100
AcDbDictionary
  3
ACMGSETTINGS
350
2C
  0
DICTIONARY
  5
6E
102
{ACAD_REACTORS
330
C
102
}
330
C
100
AcDbDictionary
  0
XRECORD
  5
9693
102
{ACAD_REACTORS
330
C
102
}
330
C
100
AcDbXrecord
  1
DWGPROPS COOKIE
  2

  3

  4

  6

  7

  8

  9

300
AmdtFileType=82
301
=
302
=
303
=
304
=
305
=
306
=
307
=
308
=
309
=
 40
0.4020607638888889
 41
2452836.771637361
 42
2453076.607594027
  1

 90
        1
  0
DICTIONARY
  5
969F
102
{ACAD_REACTORS
330
C
102
}
330
C
100
AcDbDictionary
  3
TSTACKALIGN
350
96A0
  3
TSTACKSIZE
350
96A1
  3
HYPERLINKBASE
350
96A2
  3
STYLESHEET
350
96A3
  3
LAYOUTDICT
350
96A4
  3
PLOTSETDICT
350
96A5
  3
PLOTSTYLNAMDICT
350
96A6
  3
LWETCUNION
350
96A7
  3
INSUNITS
350
96A8
  3
CEPSNTYPE
350
96A9
  3
FINGERPRINTGUID
350
96AA
  3
VERSIONGUID
350
96AB
  3
PSVPSCALE
350
96AC
  3
DIMSTYLEDATA
350
96AD
  3
PUCSORTHOREF
350
96AE
  3
PUCSORTHOVIEW
350
96AF
  3
PUCSBASE
350
96B0
  3
PUCSORGTOP
350
96B1
  3
PUCSORGBOTTOM
350
96B2
  3
PUCSORGLEFT
350
96B3
  3
PUCSORGRIGHT
350
96B4
  3
PUCSORGFRONT
350
96B5
  3
PUCSORGBACK
350
96B6
  3
UCSORTHOREF
350
96B7
  3
UCSORTHOVIEW
350
96B8
  3
UCSBASE
350
96B9
  3
UCSORGTOP
350
96BA
  3
UCSORGBOTTOM
350
96BB
  3
UCSORGLEFT
350
96BC
  3
UCSORGRIGHT
350
96BD
  3
UCSORGFRONT
350
96BE
  3
UCSORGBACK
350
96BF
  0
DICTIONARY
  5
9695
102
{ACAD_REACTORS
330
74
102
}
330
74
100
AcDbDictionary
  3
*A1
350
9696
  0
XRECORD
  5
96C2
102
{ACAD_REACTORS
330
74
102
}
330
74
100
AcDbXrecord
340
1F
  0
XRECORD
  5
96C8
102
{ACAD_REACTORS
330
96C7
102
}
330
96C7
100
AcDbXrecord
340
101
  0
MLINESTYLE
  5
18
102
{ACAD_REACTORS
330
17
102
}
330
17
100
AcDbMlineStyle
  2
STANDARD
 70
     0
  3

 62
   256
 51
90.0
 52
90.0
 71
     2
 49
0.5
 62
   256
  6
BYLAYER
 49
-0.5
 62
   256
  6
BYLAYER
  0
ACDBPLACEHOLDER
  5
F
102
{ACAD_REACTORS
330
E
102
}
330
E
100
AcDbPlaceHolder
280
     0
  0
DICTIONARYVAR
  5
35
102
{ACAD_REACTORS
330
34
102
}
330
34
100
DictionaryVariables
280
     0
  1
1
  0
DICTIONARYVAR
  5
B5E
102
{ACAD_REACTORS
330
34
102
}
330
34
100
DictionaryVariables
280
     0
  1
96
  0
DICTIONARY
  5
260
102
{ACAD_REACTORS
330
43
102
}
330
43
100
AcDbDictionary
  0
DICTIONARY
  5
2C
102
{ACAD_REACTORS
330
2B
102
}
330
2B
100
AcDbDictionary
  3
DWGSETTINGS
350
2D
  0
XRECORD
  5
96A0
102
{ACAD_REACTORS
330
969F
102
}
330
969F
100
AcDbXrecord
 90
        1
  0
XRECORD
  5
96A1
102
{ACAD_REACTORS
330
969F
102
}
330
969F
100
AcDbXrecord
 90
       70
  0
XRECORD
  5
96A2
102
{ACAD_REACTORS
330
969F
102
}
330
969F
100
AcDbXrecord
  1

  0
XRECORD
  5
96A3
102
{ACAD_REACTORS
330
969F
102
}
330
969F
100
AcDbXrecord
  1
ASAMI.ctb
  0
XRECORD
  5
96A4
102
{ACAD_REACTORS
330
969F
102
}
330
969F
100
AcDbXrecord
340
1A
  0
XRECORD
  5
96A5
102
{ACAD_REACTORS
330
969F
102
}
330
969F
100
AcDbXrecord
340
19
  0
XRECORD
  5
96A6
102
{ACAD_REACTORS
330
969F
102
}
330
969F
100
AcDbXrecord
340
E
  0
XRECORD
  5
96A7
102
{ACAD_REACTORS
330
969F
102
}
330
969F
100
AcDbXrecord
 90
    10781
  0
XRECORD
  5
96A8
102
{ACAD_REACTORS
330
969F
102
}
330
969F
100
AcDbXrecord
 90
        4
  0
XRECORD
  5
96A9
102
{ACAD_REACTORS
330
969F
102
}
330
969F
100
AcDbXrecord
 90
        0
  0
XRECORD
  5
96AA
102
{ACAD_REACTORS
330
969F
102
}
330
969F
100
AcDbXrecord
  1
{AFB28963-8C59-40AE-9337-C84526B81ACE}
  0
XRECORD
  5
96AB
102
{ACAD_REACTORS
330
969F
102
}
330
969F
100
AcDbXrecord
  1
{1FEC73BA-AE24-4138-811C-209DA97567CD}
  0
XRECORD
  5
96AC
102
{ACAD_REACTORS
330
969F
102
}
330
969F
100
AcDbXrecord
 40
0.0
  0
XRECORD
  5
96AD
102
{ACAD_REACTORS
330
969F
102
}
330
969F
100
AcDbXrecord
1000
DSTYLE
1002
{
1070
    79
 70
     2
1070
   341
340
59
1070
   342
340
59
1070
   371
 70
    -1
1070
   372
 70
    -1
1002
}
  0
XRECORD
  5
96AE
102
{ACAD_REACTORS
330
969F
102
}
330
969F
100
AcDbXrecord
340
0
  0
XRECORD
  5
96AF
102
{ACAD_REACTORS
330
969F
102
}
330
969F
100
AcDbXrecord
 70
     0
  0
XRECORD
  5
96B0
102
{ACAD_REACTORS
330
969F
102
}
330
969F
100
AcDbXrecord
340
0
  0
XRECORD
  5
96B1
102
{ACAD_REACTORS
330
969F
102
}
330
969F
100
AcDbXrecord
 10
0.0
 20
0.0
 30
0.0
  0
XRECORD
  5
96B2
102
{ACAD_REACTORS
330
969F
102
}
330
969F
100
AcDbXrecord
 10
0.0
 20
0.0
 30
0.0
  0
XRECORD
  5
96B3
102
{ACAD_REACTORS
330
969F
102
}
330
969F
100
AcDbXrecord
 10
0.0
 20
0.0
 30
0.0
  0
XRECORD
  5
96B4
102
{ACAD_REACTORS
330
969F
102
}
330
969F
100
AcDbXrecord
 10
0.0
 20
0.0
 30
0.0
  0
XRECORD
  5
96B5
102
{ACAD_REACTORS
330
969F
102
}
330
969F
100
AcDbXrecord
 10
0.0
 20
0.0
 30
0.0
  0
XRECORD
  5
96B6
102
{ACAD_REACTORS
330
969F
102
}
330
969F
100
AcDbXrecord
 10
0.0
 20
0.0
 30
0.0
  0
XRECORD
  5
96B7
102
{ACAD_REACTORS
330
969F
102
}
330
969F
100
AcDbXrecord
340
0
  0
XRECORD
  5
96B8
102
{ACAD_REACTORS
330
969F
102
}
330
969F
100
AcDbXrecord
 70
     0
  0
XRECORD
  5
96B9
102
{ACAD_REACTORS
330
969F
102
}
330
969F
100
AcDbXrecord
340
0
  0
XRECORD
  5
96BA
102
{ACAD_REACTORS
330
969F
102
}
330
969F
100
AcDbXrecord
 10
0.0
 20
0.0
 30
0.0
  0
XRECORD
  5
96BB
102
{ACAD_REACTORS
330
969F
102
}
330
969F
100
AcDbXrecord
 10
0.0
 20
0.0
 30
0.0
  0
XRECORD
  5
96BC
102
{ACAD_REACTORS
330
969F
102
}
330
969F
100
AcDbXrecord
 10
0.0
 20
0.0
 30
0.0
  0
XRECORD
  5
96BD
102
{ACAD_REACTORS
330
969F
102
}
330
969F
100
AcDbXrecord
 10
0.0
 20
0.0
 30
0.0
  0
XRECORD
  5
96BE
102
{ACAD_REACTORS
330
969F
102
}
330
969F
100
AcDbXrecord
 10
0.0
 20
0.0
 30
0.0
  0
XRECORD
  5
96BF
102
{ACAD_REACTORS
330
969F
102
}
330
969F
100
AcDbXrecord
 10
0.0
 20
0.0
 30
0.0
  0
LAYER_INDEX
  5
9696
102
{ACAD_REACTORS
330
9695
102
}
330
9695
100
AcDbIndex
 40
2453152.363396666
100
AcDbLayerIndex
  8
0
360
9697
 90
        0
  8
AM_11
360
9698
 90
        5
  8
AM_7
360
9699
 90
        1
  8
AM_5
360
969A
 90
        9
  8
Defpoints
360
969B
 90
        0
  8
AM_6
360
969C
 90
        1
  8
AM_0
360
969D
 90
       68
  0
XRECORD
  5
2D
102
{ACAD_REACTORS
330
2C
102
}
330
2C
100
AcDbXrecord
  1
VERSION
140
15.0
  1
PRODUCT
  2
AutoCAD Mechanical 2000
  0
IDBUFFER
  5
9697
330
0
100
AcDbIdBuffer
  0
IDBUFFER
  5
9698
330
0
100
AcDbIdBuffer
330
8D6A
330
8DB7
330
8DCE
330
8DF0
330
94F5
  0
IDBUFFER
  5
9699
330
0
100
AcDbIdBuffer
330
8D64
  0
IDBUFFER
  5
969A
330
0
100
AcDbIdBuffer
330
8DD0
330
8DFB
330
8DFC
330
8DFD
330
8E9B
330
8E9C
330
8E9D
330
8F52
330
903F
  0
IDBUFFER
  5
969B
330
0
100
AcDbIdBuffer
  0
IDBUFFER
  5
969C
330
0
100
AcDbIdBuffer
330
E5A
  0
IDBUFFER
  5
969D
330
0
100
AcDbIdBuffer
330
8DBC
330
8DBD
330
8DBE
330
8DBF
330
8DC0
330
8DC1
330
8DC2
330
8DC3
330
8DC4
330
8DC5
330
8DC6
330
8DC7
330
8DC8
330
8DC9
330
8DCA
330
8DCB
330
8DCC
330
8DCD
330
901B
330
901C
330
8D54
330
8D55
330
8D56
330
8D57
330
8D58
330
8D59
330
8D5B
330
8D5D
330
8D5E
330
8D5F
330
8D60
330
8D61
330
8D62
330
8D63
330
8D65
330
8D66
330
8D67
330
8D68
330
8D69
330
8D6B
330
8D6C
330
8D6D
330
8D6E
330
8D6F
330
8D70
330
8D71
330
8D72
330
8D73
330
8D74
330
8D75
330
8D76
330
8D77
330
8D78
330
8D79
330
8D7A
330
8D7B
330
8D7C
330
8D7D
330
8D7E
330
8D7F
330
8D80
330
8D81
330
8DB5
330
8DB6
330
8DB8
330
8DB9
330
8DBA
330
8DBB
  0
ENDSEC
  0
EOF
