  0
SECTION
  2
HEADER
  9
$ACADVER
  1
AC1014
  9
$ACADMAINTVER
 70
     9
  9
$DWGCODEPAGE
  3
ANSI_932
  9
$INSBASE
 10
0.0
 20
0.0
 30
0.0
  9
$EXTMIN
 10
-107.343677757803
 20
-128.9999884830455
 30
0.0
  9
$EXTMAX
 10
30.52625756127994
 20
62.50000000000003
 30
0.0
  9
$LIMMIN
 10
-126.0166224600689
 20
-150.2688814720095
  9
$LIMMAX
 10
183.8258711809175
 20
99.51047407682564
  9
$ORTHOMODE
 70
     0
  9
$REGENMODE
 70
     1
  9
$FILLMODE
 70
     1
  9
$QTEXTMODE
 70
     0
  9
$MIRRTEXT
 70
     0
  9
$DRAGMODE
 70
     2
  9
$LTSCALE
 40
1.0
  9
$OSMODE
 70
    55
  9
$ATTMODE
 70
     1
  9
$TEXTSIZE
 40
2.5
  9
$TRACEWID
 40
1.0
  9
$TEXTSTYLE
  7
STANDARD
  9
$CLAYER
  8
AM_5
  9
$CELTYPE
  6
BYLAYER
  9
$CECOLOR
 62
   256
  9
$CELTSCALE
 40
1.0
  9
$DELOBJ
 70
     1
  9
$DISPSILH
 70
     0
  9
$DIMSCALE
 40
1.0
  9
$DIMASZ
 40
2.5
  9
$DIMEXO
 40
1.0
  9
$DIMDLI
 40
12.0
  9
$DIMRND
 40
0.0
  9
$DIMDLE
 40
0.0
  9
$DIMEXE
 40
1.0
  9
$DIMTP
 40
0.1
  9
$DIMTM
 40
0.1
  9
$DIMTXT
 40
3.2
  9
$DIMCEN
 40
0.0
  9
$DIMTSZ
 40
0.0
  9
$DIMTOL
 70
     0
  9
$DIMLIM
 70
     0
  9
$DIMTIH
 70
     0
  9
$DIMTOH
 70
     0
  9
$DIMSE1
 70
     0
  9
$DIMSE2
 70
     0
  9
$DIMTAD
 70
     3
  9
$DIMZIN
 70
     8
  9
$DIMBLK
  1
OPEN30
  9
$DIMASO
 70
     1
  9
$DIMSHO
 70
     1
  9
$DIMPOST
  1

  9
$DIMAPOST
  1
"
  9
$DIMALT
 70
     0
  9
$DIMALTD
 70
     2
  9
$DIMALTF
 40
0.0393701
  9
$DIMLFAC
 40
1.0
  9
$DIMTOFL
 70
     1
  9
$DIMTVP
 40
0.0
  9
$DIMTIX
 70
     0
  9
$DIMSOXD
 70
     0
  9
$DIMSAH
 70
     0
  9
$DIMBLK1
  1

  9
$DIMBLK2
  1

  9
$DIMSTYLE
  2
AM_JIS
  9
$DIMCLRD
 70
   256
  9
$DIMCLRE
 70
   256
  9
$DIMCLRT
 70
     2
  9
$DIMTFAC
 40
0.71
  9
$DIMGAP
 40
1.5
  9
$DIMJUST
 70
     0
  9
$DIMSD1
 70
     0
  9
$DIMSD2
 70
     0
  9
$DIMTOLJ
 70
     0
  9
$DIMTZIN
 70
     0
  9
$DIMALTZ
 70
     0
  9
$DIMALTTZ
 70
     0
  9
$DIMFIT
 70
     3
  9
$DIMUPT
 70
     0
  9
$DIMUNIT
 70
     2
  9
$DIMDEC
 70
     3
  9
$DIMTDEC
 70
     3
  9
$DIMALTU
 70
     2
  9
$DIMALTTD
 70
     2
  9
$DIMTXSTY
  7
ASAMI
  9
$DIMAUNIT
 70
     0
  9
$LUNITS
 70
     2
  9
$LUPREC
 70
     2
  9
$SKETCHINC
 40
1.0
  9
$FILLETRAD
 40
2.5
  9
$AUNITS
 70
     0
  9
$AUPREC
 70
     0
  9
$MENU
  1
.
  9
$ELEVATION
 40
0.0
  9
$PELEVATION
 40
0.0
  9
$THICKNESS
 40
0.0
  9
$LIMCHECK
 70
     0
  9
$BLIPMODE
 70
     0
  9
$CHAMFERA
 40
0.5
  9
$CHAMFERB
 40
0.5
  9
$CHAMFERC
 40
20.0
  9
$CHAMFERD
 40
0.0
  9
$SKPOLY
 70
     0
  9
$TDCREATE
 40
2452836.771637361
  9
$TDUPDATE
 40
2453152.363478229
  9
$TDINDWG
 40
0.4104548495
  9
$TDUSRTIMER
 40
0.4104548495
  9
$USRTIMER
 70
     1
  9
$ANGBASE
 50
0.0
  9
$ANGDIR
 70
     0
  9
$PDMODE
 70
     0
  9
$PDSIZE
 40
0.0
  9
$PLINEWID
 40
0.0
  9
$COORDS
 70
     1
  9
$SPLFRAME
 70
     0
  9
$SPLINETYPE
 70
     6
  9
$SPLINESEGS
 70
     8
  9
$ATTDIA
 70
     1
  9
$ATTREQ
 70
     1
  9
$HANDLING
 70
 12289
  9
$HANDSEED
  5
A11D
  9
$SURFTAB1
 70
     6
  9
$SURFTAB2
 70
     6
  9
$SURFTYPE
 70
     6
  9
$SURFU
 70
     6
  9
$SURFV
 70
     6
  9
$UCSNAME
  2

  9
$UCSORG
 10
0.0
 20
0.0
 30
0.0
  9
$UCSXDIR
 10
1.0
 20
0.0
 30
0.0
  9
$UCSYDIR
 10
0.0
 20
1.0
 30
0.0
  9
$PUCSNAME
  2

  9
$PUCSORG
 10
0.0
 20
0.0
 30
0.0
  9
$PUCSXDIR
 10
1.0
 20
0.0
 30
0.0
  9
$PUCSYDIR
 10
0.0
 20
1.0
 30
0.0
  9
$USERI1
 70
     0
  9
$USERI2
 70
     0
  9
$USERI3
 70
     0
  9
$USERI4
 70
     0
  9
$USERI5
 70
     0
  9
$USERR1
 40
0.0
  9
$USERR2
 40
0.0
  9
$USERR3
 40
0.0
  9
$USERR4
 40
0.0
  9
$USERR5
 40
0.0
  9
$WORLDVIEW
 70
     1
  9
$SHADEDGE
 70
     3
  9
$SHADEDIF
 70
    70
  9
$TILEMODE
 70
     1
  9
$MAXACTVP
 70
    64
  9
$PINSBASE
 10
0.0
 20
0.0
 30
0.0
  9
$PLIMCHECK
 70
     0
  9
$PEXTMIN
 10
1.000000000000000E+20
 20
1.000000000000000E+20
 30
1.000000000000000E+20
  9
$PEXTMAX
 10
-1.000000000000000E+20
 20
-1.000000000000000E+20
 30
-1.000000000000000E+20
  9
$PLIMMIN
 10
0.0
 20
0.0
  9
$PLIMMAX
 10
841.0
 20
594.0
  9
$UNITMODE
 70
     0
  9
$VISRETAIN
 70
     1
  9
$PLINEGEN
 70
     0
  9
$PSLTSCALE
 70
     0
  9
$TREEDEPTH
 70
  3020
  9
$PICKSTYLE
 70
     0
  9
$CMLSTYLE
  2
STANDARD
  9
$CMLJUST
 70
     0
  9
$CMLSCALE
 40
20.0
  9
$PROXYGRAPHICS
 70
     1
  9
$MEASUREMENT
 70
     1
  0
ENDSEC
  0
SECTION
  2
CLASSES
  0
CLASS
  1
ACDBDICTIONARYWDFLT
  2
AcDbDictionaryWithDefault
  3
AutoCAD 2000
 90
        0
280
     0
281
     0
  0
CLASS
  1
ACDBPLACEHOLDER
  2
AcDbPlaceHolder
  3
AutoCAD 2000
 90
        0
280
     0
281
     0
  0
CLASS
  1
LAYOUT
  2
AcDbLayout
  3
AutoCAD 2000
 90
        0
280
     0
281
     0
  0
CLASS
  1
AMGSETTINGSOBJ
  2
AmgSettingsObj
  3
"AcadM|Product Description: AutoCAD Mechanical 2000|Company: Autodesk"
 90
        0
280
     0
281
     0
  0
CLASS
  1
ACME_DOCUMENT
  2
AcMeDbDoc
  3
AcMeServices
 90
        0
280
     0
281
     0
  0
CLASS
  1
ACMESCOPE
  2
AcMeScope
  3
AcMeServices
 90
        0
280
     0
281
     0
  0
CLASS
  1
ACMECOMMANDHISTORY
  2
AcMeCommandHistory
  3
AcMeServices
 90
        0
280
     0
281
     0
  0
CLASS
  1
DICTIONARYVAR
  2
AcDbDictionaryVar
  3
AutoCAD 2000
 90
        0
280
     0
281
     0
  0
CLASS
  1
ACIMSYSVARMAN
  2
AcImSysVarManager
  3
AcMeServices
 90
        0
280
     0
281
     0
  0
CLASS
  1
ACIMREALSYSVAR
  2
AcImRealSysVar
  3
AcMeServices
 90
        0
280
     0
281
     0
  0
CLASS
  1
ACIMINTSYSVAR
  2
AcImIntSysVar
  3
AcMeServices
 90
        0
280
     0
281
     0
  0
CLASS
  1
ACMEDRAWINGMAN
  2
AcMeDrawingMan
  3
AcMeServices
 90
        0
280
     0
281
     0
  0
CLASS
  1
ACMEVIEW
  2
AcMeView
  3
AcMeServices
 90
        0
280
     0
281
     0
  0
CLASS
  1
ACDBENTITYCACHE
  2
AcMeEntityCache
  3
AcMeServices
 90
        0
280
     0
281
     0
  0
CLASS
  1
GSMANAGER
  2
AcMeGSManager
  3
AcMeServices
 90
        0
280
     0
281
     0
  0
CLASS
  1
AmdtInternalReactor
  2
AmdtInternalReactor
  3
AcMeServices
 90
        0
280
     0
281
     0
  0
CLASS
  1
ACMESTATEMGR
  2
AcMeStateMgr
  3
AcMeServices
 90
        0
280
     0
281
     0
  0
CLASS
  1
ACME_DATABASE
  2
AcMeDbDatabase
  3
AcMeServices
 90
        0
280
     0
281
     0
  0
CLASS
  1
ACRFINSADJUSTERMGR
  2
AcRfInsAdjusterMgr
  3
AcMeServices
 90
        0
280
     0
281
     0
  0
CLASS
  1
ACMDATADICTIONARY
  2
AcmDataDictionary
  3
"AcmSymBB|Product Description: AutoCAD Mechanical 2000|Company: Autodesk"
 90
        0
280
     0
281
     0
  0
CLASS
  1
ACMDATAENTRYBLOCK
  2
AcmDataEntryBlock
  3
"AcmSymBB|Product Description: AutoCAD Mechanical 2000|Company: Autodesk"
 90
        0
280
     0
281
     0
  0
CLASS
  1
AMGOBJPROPCFG
  2
AmgObjPropCfg
  3
"AmgLay|Product Description: AutoCAD Mechanical 2000|Company: Autodesk"
 90
        1
280
     0
281
     0
  0
CLASS
  1
ACAMGFILTERDAT
  2
AcAmgFilterDat
  3
"AcadM|Product Description: AutoCAD Mechanical 2000|Company: Autodesk"
 90
        0
280
     0
281
     0
  0
CLASS
  1
LAYER_INDEX
  2
AcDbLayerIndex
  3
AutoCAD 2000
 90
        0
280
     0
281
     0
  0
CLASS
  1
IDBUFFER
  2
AcDbIdBuffer
  3
AutoCAD 2000
 90
        0
280
     0
281
     0
  0
CLASS
  1
ACIMSTRSYSVAR
  2
AcImStrSysVar
  3
AcMeServices
 90
        0
280
     0
281
     0
  0
CLASS
  1
ACMSTANDARDJIS
  2
AcmStandardJIS
  3
"AcmSymBB|Product Description: AutoCAD Mechanical 2000|Company: Autodesk"
 90
        0
280
     0
281
     0
  0
CLASS
  1
ACMSURFSTANDARDJIS
  2
AcmSurfTextStdJIS
  3
"AcmSymBB|Product Description: AutoCAD Mechanical 2000|Company: Autodesk"
 90
        0
280
     0
281
     0
  0
CLASS
  1
ACMFCFSTANDARDJIS
  2
AcmFCFStdJIS
  3
"AcmSymBB|Product Description: AutoCAD Mechanical 2000|Company: Autodesk"
 90
        0
280
     0
281
     0
  0
CLASS
  1
ACMWELDSTANDARDJIS
  2
AcmWeldingStdJIS
  3
"AcmSymBB|Product Description: AutoCAD Mechanical 2000|Company: Autodesk"
 90
        0
280
     0
281
     0
  0
CLASS
  1
ACMIDSTANDARDJIS
  2
AcmIdStdJIS
  3
"AcmSymBB|Product Description: AutoCAD Mechanical 2000|Company: Autodesk"
 90
        0
280
     0
281
     0
  0
CLASS
  1
ACMDATUMSTANDARDJIS
  2
AcmDatumStdJIS
  3
"AcmSymBB|Product Description: AutoCAD Mechanical 2000|Company: Autodesk"
 90
        0
280
     0
281
     0
  0
CLASS
  1
ACMBOMSTANDARDJIS
  2
AcmBOMStdJIS
  3
"AcmSymBB|Product Description: AutoCAD Mechanical 2000|Company: Autodesk"
 90
        0
280
     0
281
     0
  0
CLASS
  1
ACMSTANDARDANSI
  2
AcmStandardANSI
  3
"AcmSymBB|Product Description: AutoCAD Mechanical 2000|Company: Autodesk"
 90
        0
280
     0
281
     0
  0
CLASS
  1
ACMSURFSTANDARDANSI
  2
AcmSurfTextStdANSI
  3
"AcmSymBB|Product Description: AutoCAD Mechanical 2000|Company: Autodesk"
 90
        0
280
     0
281
     0
  0
CLASS
  1
ACMFCFSTANDARDANSI
  2
AcmFCFStdANSI
  3
"AcmSymBB|Product Description: AutoCAD Mechanical 2000|Company: Autodesk"
 90
        0
280
     0
281
     0
  0
CLASS
  1
ACMWELDSTANDARDANSI
  2
AcmWeldingStdANSI
  3
"AcmSymBB|Product Description: AutoCAD Mechanical 2000|Company: Autodesk"
 90
        0
280
     0
281
     0
  0
CLASS
  1
ACMIDSTANDARDANSI
  2
AcmIdStdANSI
  3
"AcmSymBB|Product Description: AutoCAD Mechanical 2000|Company: Autodesk"
 90
        0
280
     0
281
     0
  0
CLASS
  1
ACMDATUMSTANDARDANSI
  2
AcmDatumStdANSI
  3
"AcmSymBB|Product Description: AutoCAD Mechanical 2000|Company: Autodesk"
 90
        0
280
     0
281
     0
  0
CLASS
  1
ACMBOMSTANDARDANSI
  2
AcmBOMStdANSI
  3
"AcmSymBB|Product Description: AutoCAD Mechanical 2000|Company: Autodesk"
 90
        0
280
     0
281
     0
  0
CLASS
  1
ACMSTANDARDBSI
  2
AcmStandardBSI
  3
"AcmSymBB|Product Description: AutoCAD Mechanical 2000|Company: Autodesk"
 90
        0
280
     0
281
     0
  0
CLASS
  1
ACMSURFSTANDARDBSI
  2
AcmSurfTextStdBSI
  3
"AcmSymBB|Product Description: AutoCAD Mechanical 2000|Company: Autodesk"
 90
        0
280
     0
281
     0
  0
CLASS
  1
ACMFCFSTANDARDBSI
  2
AcmFCFStdBSI
  3
"AcmSymBB|Product Description: AutoCAD Mechanical 2000|Company: Autodesk"
 90
        0
280
     0
281
     0
  0
CLASS
  1
ACMWELDSTANDARDBSI
  2
AcmWeldingStdBSI
  3
"AcmSymBB|Product Description: AutoCAD Mechanical 2000|Company: Autodesk"
 90
        0
280
     0
281
     0
  0
CLASS
  1
ACMIDSTANDARDBSI
  2
AcmIdStdBSI
  3
"AcmSymBB|Product Description: AutoCAD Mechanical 2000|Company: Autodesk"
 90
        0
280
     0
281
     0
  0
CLASS
  1
ACMDATUMSTANDARDBSI
  2
AcmDatumStdBSI
  3
"AcmSymBB|Product Description: AutoCAD Mechanical 2000|Company: Autodesk"
 90
        0
280
     0
281
     0
  0
CLASS
  1
ACMBOMSTANDARDBSI
  2
AcmBOMStdBSI
  3
"AcmSymBB|Product Description: AutoCAD Mechanical 2000|Company: Autodesk"
 90
        0
280
     0
281
     0
  0
CLASS
  1
LONG_TRANSACTION
  2
AcDbLongTransaction
  3
AutoCAD 2000
 90
        0
280
     0
281
     0
  0
CLASS
  1
LWPOLYLINE
  2
AcDbPolyline
  3
AutoCAD 2000
 90
        0
280
     0
281
     1
  0
CLASS
  1
HATCH
  2
AcDbHatch
  3
AutoCAD 2000
 90
        0
280
     0
281
     1
  0
CLASS
  1
XRECORD
  2
AcDbXrecord
  3
AutoCAD 2000
 90
        0
280
     0
281
     0
  0
ENDSEC
  0
SECTION
  2
TABLES
  0
TABLE
  2
VPORT
  5
8
330
0
100
AcDbSymbolTable
 70
     3
  0
VPORT
  5
A0A1
330
8
100
AcDbSymbolTableRecord
100
AcDbViewportTableRecord
  2
*ACTIVE
 70
     0
 10
0.0
 20
0.0
 11
1.0
 21
1.0
 12
-16.07473356276847
 22
-34.47716320359131
 13
0.0
 23
0.0
 14
2.5
 24
2.5
 15
10.0
 25
10.0
 16
0.0
 26
0.0
 36
1.0
 17
0.0
 27
0.0
 37
0.0
 40
199.340246577238
 41
1.56570841889117
 42
50.0
 43
0.0
 44
0.0
 50
0.0
 51
0.0
 71
     0
 72
   100
 73
     1
 74
     3
 75
     0
 76
     0
 77
     0
 78
     0
  0
ENDTAB
  0
TABLE
  2
LTYPE
  5
5
330
0
100
AcDbSymbolTable
 70
    10
  0
LTYPE
  5
14
330
5
100
AcDbSymbolTableRecord
100
AcDbLinetypeTableRecord
  2
BYBLOCK
 70
     0
  3

 72
    65
 73
     0
 40
0.0
  0
LTYPE
  5
15
330
5
100
AcDbSymbolTableRecord
100
AcDbLinetypeTableRecord
  2
BYLAYER
 70
     0
  3

 72
    65
 73
     0
 40
0.0
  0
LTYPE
  5
16
330
5
100
AcDbSymbolTableRecord
100
AcDbLinetypeTableRecord
  2
CONTINUOUS
 70
     0
  3
Solid line
 72
    65
 73
     0
 40
0.0
  0
LTYPE
  5
4B
330
5
100
AcDbSymbolTableRecord
100
AcDbLinetypeTableRecord
  2
AM_ISO02W050
 70
     0
  3
__ __ __ __ __ __ __ __ __ __ __ __ __ __ __
 72
    65
 73
     2
 40
7.5
 49
6.0
 74
     0
 49
-1.5
 74
     0
  0
LTYPE
  5
4C
330
5
100
AcDbSymbolTableRecord
100
AcDbLinetypeTableRecord
  2
AM_ISO08W050
 70
     0
  3
____ . ____ . ____ . ____ . ____ . ____ . ____
 72
    65
 73
     4
 40
18.0
 49
12.0
 74
     0
 49
-1.5
 74
     0
 49
3.0
 74
     0
 49
-1.5
 74
     0
  0
LTYPE
  5
4D
330
5
100
AcDbSymbolTableRecord
100
AcDbLinetypeTableRecord
  2
AM_ISO09W050
 70
     0
  3
_____ . . _____ . . _____ . . ____ .. ____
 72
    65
 73
     6
 40
22.5
 49
12.0
 74
     0
 49
-1.5
 74
     0
 49
3.0
 74
     0
 49
-1.5
 74
     0
 49
3.0
 74
     0
 49
-1.5
 74
     0
  0
LTYPE
  5
4E
330
5
100
AcDbSymbolTableRecord
100
AcDbLinetypeTableRecord
  2
AMCONSTR
 70
     0
  3
_______________________
 72
    65
 73
     2
 40
9999.0
 49
9999.0
 74
     0
 49
0.0
 74
     0
  0
LTYPE
  5
4F
330
5
100
AcDbSymbolTableRecord
100
AcDbLinetypeTableRecord
  2
AM_ISO02W050X2
 70
     0
  3
 _ _ _ _ _ _ _ _ _ _ _ _
 72
    65
 73
     2
 40
3.75
 49
3.0
 74
     0
 49
-0.75
 74
     0
  0
LTYPE
  5
50
330
5
100
AcDbSymbolTableRecord
100
AcDbLinetypeTableRecord
  2
AM_ISO08W050X2
 70
     0
  3
__ . __ . __ . __ . __ . __
 72
    65
 73
     4
 40
9.0
 49
6.0
 74
     0
 49
-0.75
 74
     0
 49
1.5
 74
     0
 49
-0.75
 74
     0
  0
LTYPE
  5
53
330
5
100
AcDbSymbolTableRecord
100
AcDbLinetypeTableRecord
  2
AMZIGZAG
 70
     0
  3
/\/-/\/-/\/-/\/-/\/-/\/
 72
    65
 73
     2
 40
11.00009999999999
 49
0.0001
 74
     4
 75
   135
340
52
 46
0.04
 50
0.0
 44
0.0
 45
0.0
 49
-11.0
 74
     0
  0
LTYPE
  5
166
330
5
100
AcDbSymbolTableRecord
100
AcDbLinetypeTableRecord
  2
ACJISTGL
 70
     0
  3
_ _ _ _ _
 72
    65
 73
     2
 40
3.0
 49
2.0
 74
     0
 49
-1.0
 74
     0
  0
LTYPE
  5
26A
330
5
100
AcDbSymbolTableRecord
100
AcDbLinetypeTableRecord
  2
ACJISTGB
 70
     0
  3
__ . . __ . .
 72
    65
 73
     6
 40
9.0
 49
4.0
 74
     0
 49
-1.0
 74
     0
 49
1.0
 74
     0
 49
-1.0
 74
     0
 49
1.0
 74
     0
 49
-1.0
 74
     0
  0
ENDTAB
  0
TABLE
  2
LAYER
  5
2
330
0
100
AcDbSymbolTable
 70
     7
  0
LAYER
  5
10
330
2
100
AcDbSymbolTableRecord
100
AcDbLayerTableRecord
  2
0
 70
     0
 62
     7
  6
CONTINUOUS
  0
LAYER
  5
BD4
330
2
100
AcDbSymbolTableRecord
100
AcDbLayerTableRecord
  2
AM_11
 70
     0
 62
     3
  6
AM_ISO09W050
  0
LAYER
  5
BD5
330
2
100
AcDbSymbolTableRecord
100
AcDbLayerTableRecord
  2
AM_7
 70
     0
 62
     4
  6
AM_ISO08W050
  0
LAYER
  5
BD6
330
2
100
AcDbSymbolTableRecord
100
AcDbLayerTableRecord
  2
AM_5
 70
     0
 62
     3
  6
CONTINUOUS
  0
LAYER
  5
BD7
330
2
100
AcDbSymbolTableRecord
100
AcDbLayerTableRecord
  2
DEFPOINTS
 70
     0
 62
     7
  6
CONTINUOUS
  0
LAYER
  5
E59
330
2
100
AcDbSymbolTableRecord
100
AcDbLayerTableRecord
  2
AM_6
 70
     0
 62
     2
  6
CONTINUOUS
  0
LAYER
  5
4062
330
2
100
AcDbSymbolTableRecord
100
AcDbLayerTableRecord
  2
AM_0
 70
     0
 62
     7
  6
CONTINUOUS
  0
ENDTAB
  0
TABLE
  2
STYLE
  5
3
330
0
100
AcDbSymbolTable
 70
     5
  0
STYLE
  5
11
330
3
100
AcDbSymbolTableRecord
100
AcDbTextStyleTableRecord
  2
STANDARD
 70
     0
 40
0.0
 41
1.0
 50
0.0
 71
     0
 42
2.5
  3
simplex.shx
  4
EXTFONT.SHX
  0
STYLE
  5
52
330
3
100
AcDbSymbolTableRecord
100
AcDbTextStyleTableRecord
  2

 70
     1
 40
0.0
 41
1.0
 50
0.0
 71
     0
 42
2.5
  3
ltypeshp.shx
  4

  0
STYLE
  5
6B
330
3
100
AcDbSymbolTableRecord
100
AcDbTextStyleTableRecord
  2
ASAMI
 70
     0
 40
0.0
 41
1.0
 50
0.0
 71
     0
 42
2.5
  3
simplex.shx
  4
EXTFONT.SHX
  0
STYLE
  5
262
330
3
100
AcDbSymbolTableRecord
100
AcDbTextStyleTableRecord
  2
ACJISTS
 70
     0
 40
1.0
 41
1.0
 50
0.0
 71
     0
 42
2.5
  3
simplex.shx
  4
bigfont.shx
  0
STYLE
  5
269
330
3
100
AcDbSymbolTableRecord
100
AcDbTextStyleTableRecord
  2
ACJISGDT
 70
     0
 40
0.0
 41
1.0
 50
0.0
 71
     0
 42
2.5
  3
amgdtans.shx
  4

  0
ENDTAB
  0
TABLE
  2
VIEW
  5
6
330
0
100
AcDbSymbolTable
 70
     0
  0
ENDTAB
  0
TABLE
  2
UCS
  5
7
330
0
100
AcDbSymbolTable
 70
     0
  0
ENDTAB
  0
TABLE
  2
APPID
  5
9
330
0
100
AcDbSymbolTable
 70
    12
  0
APPID
  5
12
330
9
100
AcDbSymbolTableRecord
100
AcDbRegAppTableRecord
  2
ACAD
 70
     0
  0
APPID
  5
30
330
9
100
AcDbSymbolTableRecord
100
AcDbRegAppTableRecord
  2
MCAD_NO_VIS
 70
     0
  0
APPID
  5
31
330
9
100
AcDbSymbolTableRecord
100
AcDbRegAppTableRecord
  2
ACAD_TEMP_GRAPHIC
 70
     0
  0
APPID
  5
2C2
330
9
100
AcDbSymbolTableRecord
100
AcDbRegAppTableRecord
  2
GENIUS_GENDTOL_13
 70
     0
  0
APPID
  5
339
330
9
100
AcDbSymbolTableRecord
100
AcDbRegAppTableRecord
  2
GENIUS_GENODEF_13
 70
     0
  0
APPID
  5
33A
330
9
100
AcDbSymbolTableRecord
100
AcDbRegAppTableRecord
  2
GENIUS_GENOBJ-N-RSBK_13
 70
     0
  0
APPID
  5
33B
330
9
100
AcDbSymbolTableRecord
100
AcDbRegAppTableRecord
  2
GENIUS_GENOBJ-N-LIB_13
 70
     0
  0
APPID
  5
33C
330
9
100
AcDbSymbolTableRecord
100
AcDbRegAppTableRecord
  2
GENIUS_GENSCALE_13
 70
     0
  0
APPID
  5
378
330
9
100
AcDbSymbolTableRecord
100
AcDbRegAppTableRecord
  2
GENIUS_GENDIMSH_14
 70
     0
  0
APPID
  5
BD8
330
9
100
AcDbSymbolTableRecord
100
AcDbRegAppTableRecord
  2
GENIUS_GENOBJ-N-CEN_13
 70
     0
  0
APPID
  5
BD9
330
9
100
AcDbSymbolTableRecord
100
AcDbRegAppTableRecord
  2
GENIUS_GENFIL_13
 70
     0
  0
APPID
  5
BDA
330
9
100
AcDbSymbolTableRecord
100
AcDbRegAppTableRecord
  2
GENIUS_GENOBJ-N-CHA_13
 70
     0
  0
ENDTAB
  0
TABLE
  2
DIMSTYLE
  5
A
330
0
100
AcDbSymbolTable
 70
     9
  0
DIMSTYLE
105
58
330
A
100
AcDbSymbolTableRecord
100
AcDbDimStyleTableRecord
  2
AM_JIS
 70
     0
  3

  4
"
  5
OPEN30
  6

  7

 40
1.0
 41
2.5
 42
1.0
 43
12.0
 44
1.0
 45
0.0
 46
0.0
 47
0.1
 48
0.1
140
3.2
141
0.0
142
0.0
143
0.0393701
144
1.0
145
0.0
146
0.71
147
1.5
 71
     0
 72
     0
 73
     0
 74
     0
 75
     0
 76
     0
 77
     3
 78
     8
170
     0
171
     2
172
     1
173
     0
174
     0
175
     0
176
   256
177
   256
178
     2
270
     2
271
     3
272
     3
273
     2
274
     2
340
6B
275
     0
280
     0
281
     0
282
     0
283
     0
284
     0
285
     0
286
     0
287
     3
288
     0
  0
DIMSTYLE
105
5F
330
A
100
AcDbSymbolTableRecord
100
AcDbDimStyleTableRecord
  2
AM_JIS$3
 70
     0
  3

  4
"
  5
OPEN30
  6

  7

 40
1.0
 41
2.5
 42
1.0
 43
10.0
 44
1.0
 45
0.0
 46
0.0
 47
0.1
 48
0.1
140
3.2
141
0.0
142
0.0
143
0.0393701
144
1.0
145
0.0
146
0.71
147
1.5
 71
     0
 72
     0
 73
     0
 74
     1
 75
     0
 76
     0
 77
     3
 78
     8
170
     0
171
     2
172
     0
173
     0
174
     0
175
     0
176
   256
177
   256
178
     2
270
     2
271
     2
272
     3
273
     2
274
     2
340
6B
275
     0
280
     0
281
     0
282
     0
283
     0
284
     0
285
     0
286
     0
287
     0
288
     1
  0
DIMSTYLE
105
60
330
A
100
AcDbSymbolTableRecord
100
AcDbDimStyleTableRecord
  2
AM_JIS$4
 70
     0
  3

  4
"
  5
OPEN30
  6

  7

 40
1.0
 41
2.5
 42
1.0
 43
10.0
 44
1.0
 45
0.0
 46
0.0
 47
0.1
 48
0.1
140
3.2
141
0.0
142
0.0
143
0.0393701
144
1.0
145
0.0
146
0.71
147
1.5
 71
     0
 72
     0
 73
     0
 74
     1
 75
     0
 76
     0
 77
     3
 78
     8
170
     0
171
     2
172
     0
173
     0
174
     0
175
     0
176
   256
177
   256
178
     2
270
     2
271
     2
272
     3
273
     2
274
     2
340
6B
275
     0
280
     0
281
     0
282
     0
283
     0
284
     0
285
     0
286
     0
287
     0
288
     1
  0
DIMSTYLE
105
61
330
A
100
AcDbSymbolTableRecord
100
AcDbDimStyleTableRecord
  2
AM_JIS$6
 70
     0
  3

  4
"
  5
OPEN30
  6

  7

 40
1.0
 41
2.5
 42
1.0
 43
10.0
 44
1.0
 45
0.0
 46
0.0
 47
0.1
 48
0.1
140
3.2
141
0.0
142
0.0
143
0.0393701
144
1.0
145
0.0
146
0.71
147
1.5
 71
     0
 72
     0
 73
     0
 74
     0
 75
     0
 76
     0
 77
     0
 78
     8
170
     0
171
     2
172
     1
173
     0
174
     0
175
     0
176
   256
177
   256
178
     2
270
     2
271
     2
272
     2
273
     2
274
     2
340
6B
275
     0
280
     0
281
     0
282
     0
283
     0
284
     0
285
     0
286
     0
287
     3
288
     0
  0
DIMSTYLE
105
62
330
A
100
AcDbSymbolTableRecord
100
AcDbDimStyleTableRecord
  2
AM_JIS$7
 70
     0
  3

  4
"
  5
OPEN30
  6

  7

 40
1.0
 41
2.5
 42
1.0
 43
10.0
 44
1.0
 45
0.0
 46
0.0
 47
0.1
 48
0.1
140
3.2
141
0.0
142
0.0
143
0.0393701
144
1.0
145
0.0
146
0.71
147
1.5
 71
     0
 72
     0
 73
     0
 74
     0
 75
     0
 76
     0
 77
     3
 78
     8
170
     0
171
     2
172
     1
173
     0
174
     0
175
     0
176
   256
177
   256
178
     2
270
     2
271
     2
272
     3
273
     2
274
     2
340
6B
275
     0
280
     0
281
     0
282
     0
283
     0
284
     0
285
     0
286
     0
287
     3
288
     0
  0
DIMSTYLE
105
63
330
A
100
AcDbSymbolTableRecord
100
AcDbDimStyleTableRecord
  2
AM_JIS$SF
 70
     0
  3

  4
"
  5
OPEN30
  6

  7

 40
1.0
 41
2.5
 42
1.0
 43
10.0
 44
1.0
 45
0.0
 46
0.0
 47
0.1
 48
0.1
140
3.2
141
0.0
142
0.0
143
0.0393701
144
1.0
145
0.0
146
0.71
147
1.5
 71
     0
 72
     0
 73
     0
 74
     0
 75
     1
 76
     1
 77
     3
 78
     8
170
     0
171
     2
172
     1
173
     0
174
     0
175
     0
176
   256
177
   256
178
     2
270
     2
271
     2
272
     2
273
     2
274
     2
340
6B
275
     0
280
     0
281
     0
282
     0
283
     0
284
     0
285
     0
286
     0
287
     3
288
     0
  0
DIMSTYLE
105
68
330
A
100
AcDbSymbolTableRecord
100
AcDbDimStyleTableRecord
  2
AM_JIS$SH
 70
     0
  3

  4
"
  5

  6
GENAXEH
  7
OPEN30
 40
1.0
 41
2.5
 42
1.0
 43
10.0
 44
1.0
 45
0.0
 46
0.0
 47
0.1
 48
0.1
140
3.2
141
0.0
142
0.0
143
0.0393701
144
2.0
145
0.0
146
0.71
147
1.5
 71
     0
 72
     0
 73
     0
 74
     0
 75
     1
 76
     1
 77
     3
 78
     8
170
     0
171
     2
172
     1
173
     1
174
     0
175
     0
176
   256
177
   256
178
     2
270
     2
271
     2
272
     2
273
     2
274
     2
340
6B
275
     0
280
     0
281
     0
282
     0
283
     0
284
     0
285
     0
286
     0
287
     3
288
     0
  0
DIMSTYLE
105
B34
330
A
100
AcDbSymbolTableRecord
100
AcDbDimStyleTableRecord
  2
AM_JIS$2
 70
     0
  3

  4
"
  5
OPEN30
  6

  7

 40
1.0
 41
2.5
 42
1.0
 43
12.0
 44
1.0
 45
0.0
 46
0.0
 47
0.1
 48
0.1
140
3.2
141
0.0
142
0.0
143
0.0393701
144
1.0
145
0.0
146
0.71
147
1.5
 71
     0
 72
     0
 73
     0
 74
     0
 75
     0
 76
     0
 77
     3
 78
     8
170
     0
171
     2
172
     1
173
     0
174
     0
175
     0
176
   256
177
   256
178
     2
270
     2
271
     3
272
     3
273
     2
274
     2
340
6B
275
     0
280
     0
281
     0
282
     0
283
     0
284
     0
285
     0
286
     0
287
     3
288
     0
  0
DIMSTYLE
105
1AB6
102
{ACAD_REACTORS
330
9A90
330
9A91
330
9A92
330
9B40
330
9B3F
330
9B3E
330
9BE6
330
9BE7
330
9DF0
102
}
330
A
100
AcDbSymbolTableRecord
100
AcDbDimStyleTableRecord
  2
AM_JIS$0
 70
     0
  3

  4
"
  5
OPEN30
  6

  7

 40
1.0
 41
2.5
 42
0.0
 43
10.0
 44
1.0
 45
0.0
 46
0.0
 47
0.1
 48
0.1000000001
140
3.799999999999999
141
0.0
142
0.0
143
0.0393701
144
1.0
145
0.0
146
0.71
147
1.5
 71
     0
 72
     0
 73
     0
 74
     0
 75
     0
 76
     0
 77
     3
 78
     1
170
     0
171
     2
172
     1
173
     0
174
     0
175
     0
176
     3
177
     3
178
     2
270
     2
271
     2
272
     2
273
     2
274
     2
340
11
275
     1
280
     0
281
     0
282
     0
283
     0
284
     8
285
     0
286
     0
287
     0
288
     0
  0
ENDTAB
  0
TABLE
  2
BLOCK_RECORD
  5
1
330
0
100
AcDbSymbolTable
 70
    14
  0
BLOCK_RECORD
  5
1F
102
{ACAD_XDICTIONARY
360
74
102
}
330
1
100
AcDbSymbolTableRecord
100
AcDbBlockTableRecord
  2
*MODEL_SPACE
  0
BLOCK_RECORD
  5
101
102
{ACAD_XDICTIONARY
360
A0CA
102
}
330
1
100
AcDbSymbolTableRecord
100
AcDbBlockTableRecord
  2
*PAPER_SPACE
  0
BLOCK_RECORD
  5
59
330
1
100
AcDbSymbolTableRecord
100
AcDbBlockTableRecord
  2
_OPEN30
  0
BLOCK_RECORD
  5
64
330
1
100
AcDbSymbolTableRecord
100
AcDbBlockTableRecord
  2
GENAXEH
  0
BLOCK_RECORD
  5
9A93
330
1
100
AcDbSymbolTableRecord
100
AcDbBlockTableRecord
  2
*D5
  0
BLOCK_RECORD
  5
9A9F
330
1
100
AcDbSymbolTableRecord
100
AcDbBlockTableRecord
  2
*D6
  0
BLOCK_RECORD
  5
9AAB
330
1
100
AcDbSymbolTableRecord
100
AcDbBlockTableRecord
  2
*D7
  0
BLOCK_RECORD
  5
9B42
330
1
100
AcDbSymbolTableRecord
100
AcDbBlockTableRecord
  2
*D8
  0
BLOCK_RECORD
  5
9B5A
330
1
100
AcDbSymbolTableRecord
100
AcDbBlockTableRecord
  2
*D9
  0
BLOCK_RECORD
  5
9B66
330
1
100
AcDbSymbolTableRecord
100
AcDbBlockTableRecord
  2
*D10
  0
BLOCK_RECORD
  5
9BE8
330
1
100
AcDbSymbolTableRecord
100
AcDbBlockTableRecord
  2
*D11
  0
BLOCK_RECORD
  5
9BF4
330
1
100
AcDbSymbolTableRecord
100
AcDbBlockTableRecord
  2
*D12
  0
BLOCK_RECORD
  5
9DF1
330
1
100
AcDbSymbolTableRecord
100
AcDbBlockTableRecord
  2
*D13
  0
ENDTAB
  0
ENDSEC
  0
SECTION
  2
BLOCKS
  0
BLOCK
  5
20
330
1F
100
AcDbEntity
  8
0
100
AcDbBlockBegin
  2
*MODEL_SPACE
 70
     0
 10
0.0
 20
0.0
 30
0.0
  3
*MODEL_SPACE
  1

  0
ENDBLK
  5
21
330
1F
100
AcDbEntity
  8
0
100
AcDbBlockEnd
  0
BLOCK
  5
103
330
101
100
AcDbEntity
 67
     1
  8
0
100
AcDbBlockBegin
  2
*PAPER_SPACE
 70
     0
 10
0.0
 20
0.0
 30
0.0
  3
*PAPER_SPACE
  1

  0
ENDBLK
  5
104
330
101
100
AcDbEntity
 67
     1
  8
0
100
AcDbBlockEnd
  0
BLOCK
  5
5D
330
59
100
AcDbEntity
  8
0
100
AcDbBlockBegin
  2
_OPEN30
 70
     0
 10
0.0
 20
0.0
 30
0.0
  3
_OPEN30
  1

  0
LINE
  5
5A
330
59
100
AcDbEntity
  8
0
 62
     0
100
AcDbLine
 10
-1.0
 20
0.26794919
 30
0.0
 11
0.0
 21
0.0
 31
0.0
  0
LINE
  5
5B
330
59
100
AcDbEntity
  8
0
 62
     0
100
AcDbLine
 10
0.0
 20
0.0
 30
0.0
 11
-1.0
 21
-0.26794919
 31
0.0
  0
LINE
  5
5C
330
59
100
AcDbEntity
  8
0
 62
     0
100
AcDbLine
 10
0.0
 20
0.0
 30
0.0
 11
-1.0
 21
0.0
 31
0.0
  0
ENDBLK
  5
5E
330
59
100
AcDbEntity
  8
0
100
AcDbBlockEnd
  0
BLOCK
  5
66
330
64
100
AcDbEntity
  8
0
100
AcDbBlockBegin
  2
GENAXEH
 70
     0
 10
0.0
 20
0.0
 30
0.0
  3
GENAXEH
  1

  0
LINE
  5
65
330
64
100
AcDbEntity
  8
0
100
AcDbLine
 10
-1.0
 20
0.0
 30
0.0
 11
1.0
 21
0.0
 31
0.0
  0
ENDBLK
  5
67
330
64
100
AcDbEntity
  8
0
100
AcDbBlockEnd
  0
BLOCK
  5
9A9D
330
9A93
100
AcDbEntity
  8
0
100
AcDbBlockBegin
  2
*D5
 70
     1
 10
0.0
 20
0.0
 30
0.0
  3
*D5
  1

  0
LINE
  5
A0CC
330
9A93
100
AcDbEntity
  8
AM_5
100
AcDbLine
 10
-62.49999999999994
 20
40.00000000000002
 30
0.0
 11
-103.643677757803
 21
40.00000000000003
 31
0.0
  0
LINE
  5
A0CD
330
9A93
100
AcDbEntity
  8
AM_5
100
AcDbLine
 10
-62.49999999999977
 20
-40.0000000000002
 30
0.0
 11
-103.643677757803
 21
-40.00000000000019
 31
0.0
  0
LINE
  5
A0CE
330
9A93
100
AcDbEntity
  8
AM_5
100
AcDbLine
 10
-102.643677757803
 20
37.50000000000003
 30
0.0
 11
-102.643677757803
 21
-37.50000000000019
 31
0.0
  0
INSERT
  5
A0CF
330
9A93
100
AcDbEntity
  8
AM_5
100
AcDbBlockReference
  2
_OPEN30
 10
-102.643677757803
 20
40.00000000000003
 30
0.0
 41
2.5
 42
2.5
 43
2.5
 50
90.0
  0
INSERT
  5
A0D0
330
9A93
100
AcDbEntity
  8
AM_5
100
AcDbBlockReference
  2
_OPEN30
 10
-102.643677757803
 20
-40.00000000000019
 30
0.0
 41
2.5
 42
2.5
 43
2.5
 50
270.0
  0
MTEXT
  5
A0D1
330
9A93
100
AcDbEntity
  8
AM_5
 62
     2
100
AcDbMText
 10
-105.743677757803
 20
-0.0000000000000928
 30
0.0
 40
3.2
 41
0.0
 71
     5
 72
     1
  1
%%c80
  7
ASAMI
 11
0.0000000000000001
 21
1.0
 31
0.0
  0
POINT
  5
A0D2
330
9A93
100
AcDbEntity
  8
DEFPOINTS
 62
     0
100
AcDbPoint
 10
-61.49999999999995
 20
40.00000000000002
 30
0.0
  0
POINT
  5
A0D3
330
9A93
100
AcDbEntity
  8
DEFPOINTS
 62
     0
100
AcDbPoint
 10
-61.49999999999977
 20
-40.0000000000002
 30
0.0
  0
POINT
  5
A0D4
330
9A93
100
AcDbEntity
  8
DEFPOINTS
 62
     0
100
AcDbPoint
 10
-102.643677757803
 20
-40.00000000000019
 30
0.0
  0
ENDBLK
  5
9A9E
330
9A93
100
AcDbEntity
  8
0
100
AcDbBlockEnd
  0
BLOCK
  5
9AA9
330
9A9F
100
AcDbEntity
  8
0
100
AcDbBlockBegin
  2
*D6
 70
     1
 10
0.0
 20
0.0
 30
0.0
  3
*D6
  1

  0
LINE
  5
A0D5
330
9A9F
100
AcDbEntity
  8
AM_5
100
AcDbLine
 10
-62.99999999999994
 20
7.950000000000017
 30
0.0
 11
-83.64367775780307
 21
7.950000000000023
 31
0.0
  0
LINE
  5
A0D6
330
9A9F
100
AcDbEntity
  8
AM_5
100
AcDbLine
 10
-62.99999999999994
 20
-7.949999999999987
 30
0.0
 11
-83.64367775780307
 21
-7.949999999999982
 31
0.0
  0
LINE
  5
A0D7
330
9A9F
100
AcDbEntity
  8
AM_5
100
AcDbLine
 10
-82.64367775780305
 20
5.450000000000023
 30
0.0
 11
-82.64367775780305
 21
-5.449999999999982
 31
0.0
  0
INSERT
  5
A0D8
330
9A9F
100
AcDbEntity
  8
AM_5
100
AcDbBlockReference
  2
_OPEN30
 10
-82.64367775780305
 20
7.950000000000023
 30
0.0
 41
2.5
 42
2.5
 43
2.5
 50
90.0
  0
INSERT
  5
A0D9
330
9A9F
100
AcDbEntity
  8
AM_5
100
AcDbBlockReference
  2
_OPEN30
 10
-82.64367775780305
 20
-7.949999999999982
 30
0.0
 41
2.5
 42
2.5
 43
2.5
 50
270.0
  0
MTEXT
  5
A0DA
330
9A9F
100
AcDbEntity
  8
AM_5
 62
     2
100
AcDbMText
 10
-85.74367775780306
 20
0.0000000000000072
 30
0.0
 40
3.2
 41
0.0
 71
     5
 72
     1
  1
15.9
  7
ASAMI
 11
0.0000000000000001
 21
1.0
 31
0.0
  0
POINT
  5
A0DB
330
9A9F
100
AcDbEntity
  8
DEFPOINTS
 62
     0
100
AcDbPoint
 10
-61.99999999999994
 20
7.950000000000017
 30
0.0
  0
POINT
  5
A0DC
330
9A9F
100
AcDbEntity
  8
DEFPOINTS
 62
     0
100
AcDbPoint
 10
-61.99999999999994
 20
-7.949999999999988
 30
0.0
  0
POINT
  5
A0DD
330
9A9F
100
AcDbEntity
  8
DEFPOINTS
 62
     0
100
AcDbPoint
 10
-82.64367775780305
 20
-7.949999999999982
 30
0.0
  0
ENDBLK
  5
9AAA
330
9A9F
100
AcDbEntity
  8
0
100
AcDbBlockEnd
  0
BLOCK
  5
9AB5
330
9AAB
100
AcDbEntity
  8
0
100
AcDbBlockBegin
  2
*D7
 70
     1
 10
0.0
 20
0.0
 30
0.0
  3
*D7
  1

  0
LINE
  5
A0DE
330
9AAB
100
AcDbEntity
  8
AM_5
100
AcDbLine
 10
-62.80000305175992
 20
19.05000000000001
 30
0.0
 11
-93.64367775780307
 21
19.05000000000002
 31
0.0
  0
LINE
  5
A0DF
330
9AAB
100
AcDbEntity
  8
AM_5
100
AcDbLine
 10
-62.80000305175992
 20
-19.04999999999998
 30
0.0
 11
-93.64367775780307
 21
-19.04999999999997
 31
0.0
  0
LINE
  5
A0E0
330
9AAB
100
AcDbEntity
  8
AM_5
100
AcDbLine
 10
-92.64367775780305
 20
16.55000000000002
 30
0.0
 11
-92.64367775780305
 21
-16.54999999999997
 31
0.0
  0
INSERT
  5
A0E1
330
9AAB
100
AcDbEntity
  8
AM_5
100
AcDbBlockReference
  2
_OPEN30
 10
-92.64367775780305
 20
19.05000000000002
 30
0.0
 41
2.5
 42
2.5
 43
2.5
 50
90.0
  0
INSERT
  5
A0E2
330
9AAB
100
AcDbEntity
  8
AM_5
100
AcDbBlockReference
  2
_OPEN30
 10
-92.64367775780305
 20
-19.04999999999997
 30
0.0
 41
2.5
 42
2.5
 43
2.5
 50
270.0
  0
MTEXT
  5
A0E3
330
9AAB
100
AcDbEntity
  8
AM_5
 62
     2
100
AcDbMText
 10
-95.74367775780306
 20
0.0000000000000096
 30
0.0
 40
3.2
 41
0.0
 71
     5
 72
     1
  1
%%c38.1
  7
ASAMI
 11
0.0000000000000001
 21
1.0
 31
0.0
  0
POINT
  5
A0E4
330
9AAB
100
AcDbEntity
  8
DEFPOINTS
 62
     0
100
AcDbPoint
 10
-61.80000305175991
 20
19.05000000000001
 30
0.0
  0
POINT
  5
A0E5
330
9AAB
100
AcDbEntity
  8
DEFPOINTS
 62
     0
100
AcDbPoint
 10
-61.80000305175991
 20
-19.04999999999998
 30
0.0
  0
POINT
  5
A0E6
330
9AAB
100
AcDbEntity
  8
DEFPOINTS
 62
     0
100
AcDbPoint
 10
-92.64367775780305
 20
-19.04999999999997
 30
0.0
  0
ENDBLK
  5
9AB6
330
9AAB
100
AcDbEntity
  8
0
100
AcDbBlockEnd
  0
BLOCK
  5
9B4C
330
9B42
100
AcDbEntity
  8
0
100
AcDbBlockBegin
  2
*D8
 70
     1
 10
0.0
 20
0.0
 30
0.0
  3
*D8
  1

  0
LINE
  5
A0F9
330
9B42
100
AcDbEntity
  8
AM_5
100
AcDbLine
 10
-62.99999999999966
 20
-39.49999973773174
 30
0.0
 11
-62.99999999999966
 21
-87.50000099999999
 31
0.0
  0
LINE
  5
A0FA
330
9B42
100
AcDbEntity
  8
AM_5
100
AcDbLine
 10
-25.00000000000187
 20
-29.00000000000007
 30
0.0
 11
-25.00000000000188
 21
-87.50000099999999
 31
0.0
  0
LINE
  5
A0FB
330
9B42
100
AcDbEntity
  8
AM_5
100
AcDbLine
 10
-60.49999999999966
 20
-86.50000099999997
 30
0.0
 11
-27.50000000000188
 21
-86.50000099999997
 31
0.0
  0
INSERT
  5
A0FC
330
9B42
100
AcDbEntity
  8
AM_5
100
AcDbBlockReference
  2
_OPEN30
 10
-62.99999999999966
 20
-86.50000099999997
 30
0.0
 41
2.5
 42
2.5
 43
2.5
 50
180.0
  0
INSERT
  5
A0FD
330
9B42
100
AcDbEntity
  8
AM_5
100
AcDbBlockReference
  2
_OPEN30
 10
-25.00000000000188
 20
-86.50000099999997
 30
0.0
 41
2.5
 42
2.5
 43
2.5
  0
MTEXT
  5
A0FE
330
9B42
100
AcDbEntity
  8
AM_5
 62
     2
100
AcDbMText
 10
-44.00000000000076
 20
-83.40000099999999
 30
0.0
 40
3.2
 41
0.0
 71
     5
 72
     1
  1
38
  7
ASAMI
  0
POINT
  5
A0FF
330
9B42
100
AcDbEntity
  8
DEFPOINTS
 62
     0
100
AcDbPoint
 10
-62.99999999999966
 20
-38.49999973773174
 30
0.0
  0
POINT
  5
A100
330
9B42
100
AcDbEntity
  8
DEFPOINTS
 62
     0
100
AcDbPoint
 10
-25.00000000000187
 20
-28.00000000000007
 30
0.0
  0
POINT
  5
A101
330
9B42
100
AcDbEntity
  8
DEFPOINTS
 62
     0
100
AcDbPoint
 10
-25.00000000000188
 20
-86.50000099999997
 30
0.0
  0
ENDBLK
  5
9B4D
330
9B42
100
AcDbEntity
  8
0
100
AcDbBlockEnd
  0
BLOCK
  5
9B64
330
9B5A
100
AcDbEntity
  8
0
100
AcDbBlockBegin
  2
*D9
 70
     1
 10
0.0
 20
0.0
 30
0.0
  3
*D9
  1

  0
LINE
  5
A0F0
330
9B5A
100
AcDbEntity
  8
AM_5
100
AcDbLine
 10
-62.99999999999966
 20
-39.49999973773174
 30
0.0
 11
-62.99999999999966
 21
-107.4999884830454
 31
0.0
  0
LINE
  5
A0F1
330
9B5A
100
AcDbEntity
  8
AM_5
100
AcDbLine
 10
0.0000000000000568
 20
-63.47321319580003
 30
0.0
 11
0.0000000000000541
 21
-107.4999884830454
 31
0.0
  0
LINE
  5
A0F2
330
9B5A
100
AcDbEntity
  8
AM_5
100
AcDbLine
 10
-60.49999999999966
 20
-106.4999884830454
 30
0.0
 11
-2.499999999999945
 21
-106.4999884830454
 31
0.0
  0
INSERT
  5
A0F3
330
9B5A
100
AcDbEntity
  8
AM_5
100
AcDbBlockReference
  2
_OPEN30
 10
-62.99999999999966
 20
-106.4999884830454
 30
0.0
 41
2.5
 42
2.5
 43
2.5
 50
180.0
  0
INSERT
  5
A0F4
330
9B5A
100
AcDbEntity
  8
AM_5
100
AcDbBlockReference
  2
_OPEN30
 10
0.0000000000000541
 20
-106.4999884830454
 30
0.0
 41
2.5
 42
2.5
 43
2.5
  0
MTEXT
  5
A0F5
330
9B5A
100
AcDbEntity
  8
AM_5
 62
     2
100
AcDbMText
 10
-31.4999999999998
 20
-103.3999884830454
 30
0.0
 40
3.2
 41
0.0
 71
     5
 72
     1
  1
63
  7
ASAMI
  0
POINT
  5
A0F6
330
9B5A
100
AcDbEntity
  8
DEFPOINTS
 62
     0
100
AcDbPoint
 10
-62.99999999999966
 20
-38.49999973773174
 30
0.0
  0
POINT
  5
A0F7
330
9B5A
100
AcDbEntity
  8
DEFPOINTS
 62
     0
100
AcDbPoint
 10
0.0000000000000568
 20
-62.47321319580002
 30
0.0
  0
POINT
  5
A0F8
330
9B5A
100
AcDbEntity
  8
DEFPOINTS
 62
     0
100
AcDbPoint
 10
0.0000000000000541
 20
-106.4999884830454
 30
0.0
  0
ENDBLK
  5
9B65
330
9B5A
100
AcDbEntity
  8
0
100
AcDbBlockEnd
  0
BLOCK
  5
9B72
330
9B66
100
AcDbEntity
  8
0
100
AcDbBlockBegin
  2
*D10
 70
     1
 10
0.0
 20
0.0
 30
0.0
  3
*D10
  1

  0
LINE
  5
A0E7
330
9B66
100
AcDbEntity
  8
AM_5
100
AcDbLine
 10
-62.99999999999977
 20
-39.49999969402033
 30
0.0
 11
-62.99999999999977
 21
-77.50000099999998
 31
0.0
  0
LINE
  5
A0E8
330
9B66
100
AcDbEntity
  8
AM_5
100
AcDbLine
 10
-52.99999999999994
 20
-8.949999999999988
 30
0.0
 11
-52.99999999999995
 21
-77.50000099999998
 31
0.0
  0
LINE
  5
A0E9
330
9B66
100
AcDbEntity
  8
AM_5
100
AcDbLine
 10
-60.49999999999977
 20
-76.50000099999998
 30
0.0
 11
-55.49999999999995
 21
-76.50000099999998
 31
0.0
  0
INSERT
  5
A0EA
330
9B66
100
AcDbEntity
  8
AM_5
100
AcDbBlockReference
  2
_OPEN30
 10
-62.99999999999977
 20
-76.50000099999998
 30
0.0
 41
2.5
 42
2.5
 43
2.5
 50
180.0
  0
INSERT
  5
A0EB
330
9B66
100
AcDbEntity
  8
AM_5
100
AcDbBlockReference
  2
_OPEN30
 10
-52.99999999999995
 20
-76.50000099999998
 30
0.0
 41
2.5
 42
2.5
 43
2.5
  0
MTEXT
  5
A0EC
330
9B66
100
AcDbEntity
  8
AM_5
 62
     2
100
AcDbMText
 10
-57.99999999999986
 20
-73.40000099999999
 30
0.0
 40
3.2
 41
0.0
 71
     5
 72
     1
  1
10
  7
ASAMI
  0
POINT
  5
A0ED
330
9B66
100
AcDbEntity
  8
DEFPOINTS
 62
     0
100
AcDbPoint
 10
-62.99999999999977
 20
-38.49999969402033
 30
0.0
  0
POINT
  5
A0EE
330
9B66
100
AcDbEntity
  8
DEFPOINTS
 62
     0
100
AcDbPoint
 10
-52.99999999999994
 20
-7.949999999999988
 30
0.0
  0
POINT
  5
A0EF
330
9B66
100
AcDbEntity
  8
DEFPOINTS
 62
     0
100
AcDbPoint
 10
-52.99999999999995
 20
-76.50000099999998
 30
0.0
  0
ENDBLK
  5
9B73
330
9B66
100
AcDbEntity
  8
0
100
AcDbBlockEnd
  0
BLOCK
  5
9BF2
330
9BE8
100
AcDbEntity
  8
0
100
AcDbBlockBegin
  2
*D11
 70
     1
 10
0.0
 20
0.0
 30
0.0
  3
*D11
  1

  0
LINE
  5
A102
330
9BE8
100
AcDbEntity
  8
AM_5
100
AcDbLine
 10
1.000000000000056
 20
62.50000000000003
 30
0.0
 11
30.52625756127994
 21
62.50000000000002
 31
0.0
  0
LINE
  5
A103
330
9BE8
100
AcDbEntity
  8
AM_5
100
AcDbLine
 10
0.9999999999999998
 20
-62.49999999999999
 30
0.0
 11
30.52625756127992
 21
-62.5
 31
0.0
  0
LINE
  5
A104
330
9BE8
100
AcDbEntity
  8
AM_5
100
AcDbLine
 10
29.52625756127995
 20
60.00000000000002
 30
0.0
 11
29.52625756127991
 21
-60.0
 31
0.0
  0
INSERT
  5
A105
330
9BE8
100
AcDbEntity
  8
AM_5
100
AcDbBlockReference
  2
_OPEN30
 10
29.52625756127995
 20
62.50000000000002
 30
0.0
 41
2.5
 42
2.5
 43
2.5
 50
90.0
  0
INSERT
  5
A106
330
9BE8
100
AcDbEntity
  8
AM_5
100
AcDbBlockReference
  2
_OPEN30
 10
29.52625756127991
 20
-62.5
 30
0.0
 41
2.5
 42
2.5
 43
2.5
 50
270.0
  0
MTEXT
  5
A107
330
9BE8
100
AcDbEntity
  8
AM_5
 62
     2
100
AcDbMText
 10
26.42625756127993
 20
0.0000000000000199
 30
0.0
 40
3.2
 41
0.0
 71
     5
 72
     1
  1
%%c125
  7
ASAMI
 11
0.0000000000000001
 21
1.0
 31
0.0
  0
POINT
  5
A108
330
9BE8
100
AcDbEntity
  8
DEFPOINTS
 62
     0
100
AcDbPoint
 10
0.0000000000000568
 20
62.50000000000003
 30
0.0
  0
POINT
  5
A109
330
9BE8
100
AcDbEntity
  8
DEFPOINTS
 62
     0
100
AcDbPoint
 10
0.0
 20
-62.49999999999999
 30
0.0
  0
POINT
  5
A10A
330
9BE8
100
AcDbEntity
  8
DEFPOINTS
 62
     0
100
AcDbPoint
 10
29.52625756127991
 20
-62.5
 30
0.0
  0
ENDBLK
  5
9BF3
330
9BE8
100
AcDbEntity
  8
0
100
AcDbBlockEnd
  0
BLOCK
  5
9BFE
330
9BF4
100
AcDbEntity
  8
0
100
AcDbBlockBegin
  2
*D12
 70
     1
 10
0.0
 20
0.0
 30
0.0
  3
*D12
  1

  0
LINE
  5
A10B
330
9BF4
100
AcDbEntity
  8
AM_5
100
AcDbLine
 10
-10.6534807483402
 20
28.00000000000001
 30
0.0
 11
20.52625756127993
 21
28.0
 31
0.0
  0
LINE
  5
A10C
330
9BF4
100
AcDbEntity
  8
AM_5
100
AcDbLine
 10
-10.65348074834008
 20
-28.00000000000003
 30
0.0
 11
20.52625756127992
 21
-28.00000000000004
 31
0.0
  0
LINE
  5
A10D
330
9BF4
100
AcDbEntity
  8
AM_5
100
AcDbLine
 10
19.52625756127993
 20
25.5
 30
0.0
 11
19.52625756127991
 21
-25.50000000000004
 31
0.0
  0
INSERT
  5
A10E
330
9BF4
100
AcDbEntity
  8
AM_5
100
AcDbBlockReference
  2
_OPEN30
 10
19.52625756127993
 20
28.0
 30
0.0
 41
2.5
 42
2.5
 43
2.5
 50
90.0
  0
INSERT
  5
A10F
330
9BF4
100
AcDbEntity
  8
AM_5
100
AcDbBlockReference
  2
_OPEN30
 10
19.52625756127991
 20
-28.00000000000004
 30
0.0
 41
2.5
 42
2.5
 43
2.5
 50
270.0
  0
MTEXT
  5
A110
330
9BF4
100
AcDbEntity
  8
AM_5
 62
     2
100
AcDbMText
 10
16.42625756127992
 20
-0.0000000000000186
 30
0.0
 40
3.2
 41
0.0
 71
     5
 72
     1
  1
%%c56
  7
ASAMI
 11
0.0000000000000001
 21
1.0
 31
0.0
  0
POINT
  5
A111
330
9BF4
100
AcDbEntity
  8
DEFPOINTS
 62
     0
100
AcDbPoint
 10
-11.6534807483402
 20
28.00000000000001
 30
0.0
  0
POINT
  5
A112
330
9BF4
100
AcDbEntity
  8
DEFPOINTS
 62
     0
100
AcDbPoint
 10
-11.65348074834008
 20
-28.00000000000003
 30
0.0
  0
POINT
  5
A113
330
9BF4
100
AcDbEntity
  8
DEFPOINTS
 62
     0
100
AcDbPoint
 10
19.52625756127991
 20
-28.00000000000004
 30
0.0
  0
ENDBLK
  5
9BFF
330
9BF4
100
AcDbEntity
  8
0
100
AcDbBlockEnd
  0
BLOCK
  5
9DFB
330
9DF1
100
AcDbEntity
  8
0
100
AcDbBlockBegin
  2
*D13
 70
     1
 10
0.0
 20
0.0
 30
0.0
  3
*D13
  1

  0
LINE
  5
A114
330
9DF1
100
AcDbEntity
  8
AM_5
100
AcDbLine
 10
-62.99999999999977
 20
-39.49999986886597
 30
0.0
 11
-62.99999999999978
 21
-97.50000099999997
 31
0.0
  0
LINE
  5
A115
330
9DF1
100
AcDbEntity
  8
AM_5
100
AcDbLine
 10
-6.499999999999943
 20
-44.12676301353413
 30
0.0
 11
-6.499999999999946
 21
-97.50000099999997
 31
0.0
  0
LINE
  5
A116
330
9DF1
100
AcDbEntity
  8
AM_5
100
AcDbLine
 10
-60.49999999999977
 20
-96.50000099999997
 30
0.0
 11
-8.999999999999946
 21
-96.50000099999997
 31
0.0
  0
INSERT
  5
A117
330
9DF1
100
AcDbEntity
  8
AM_5
100
AcDbBlockReference
  2
_OPEN30
 10
-62.99999999999977
 20
-96.50000099999997
 30
0.0
 41
2.5
 42
2.5
 43
2.5
 50
180.0
  0
INSERT
  5
A118
330
9DF1
100
AcDbEntity
  8
AM_5
100
AcDbBlockReference
  2
_OPEN30
 10
-6.499999999999946
 20
-96.50000099999997
 30
0.0
 41
2.5
 42
2.5
 43
2.5
  0
MTEXT
  5
A119
330
9DF1
100
AcDbEntity
  8
AM_5
 62
     2
100
AcDbMText
 10
-34.74999999999985
 20
-93.40000099999997
 30
0.0
 40
3.2
 41
0.0
 71
     5
 72
     1
  1
56.5
  7
ASAMI
  0
POINT
  5
A11A
330
9DF1
100
AcDbEntity
  8
DEFPOINTS
 62
     0
100
AcDbPoint
 10
-62.99999999999977
 20
-38.49999986886597
 30
0.0
  0
POINT
  5
A11B
330
9DF1
100
AcDbEntity
  8
DEFPOINTS
 62
     0
100
AcDbPoint
 10
-6.499999999999943
 20
-43.12676301353413
 30
0.0
  0
POINT
  5
A11C
330
9DF1
100
AcDbEntity
  8
DEFPOINTS
 62
     0
100
AcDbPoint
 10
-6.499999999999946
 20
-96.50000099999997
 30
0.0
  0
ENDBLK
  5
9DFC
330
9DF1
100
AcDbEntity
  8
0
100
AcDbBlockEnd
  0
ENDSEC
  0
SECTION
  2
ENTITIES
  0
TEXT
  5
E5A
330
1F
100
AcDbEntity
  8
AM_6
100
AcDbText
 10
-52.45238095238073
 20
-128.9999884830454
 30
0.0
 40
5.0
  1
WRC20125R
 72
     4
 11
-31.49999999999979
 21
-126.4999884830454
 31
0.0
100
AcDbText
  0
CIRCLE
  5
99E7
330
1F
100
AcDbEntity
  8
AM_0
  6
CONTINUOUS
 48
0.5
100
AcDbCircle
 10
-9.956611633300099
 20
52.531501770019
 30
0.0
 40
4.5
  0
LINE
  5
99E8
330
1F
100
AcDbEntity
  8
AM_0
  6
CONTINUOUS
 48
0.5
100
AcDbLine
 10
-35.11325073242392
 20
45.00000000000002
 30
0.0
 11
-29.91709899902491
 21
54.00000000000003
 31
0.0
  0
LINE
  5
99E9
330
1F
100
AcDbEntity
  8
AM_0
  6
CONTINUOUS
 48
0.5
100
AcDbLine
 10
-18.42061614990211
 20
46.86032867431601
 30
0.0
 11
-19.91323089599609
 21
50.51661682128901
 31
0.0
  0
LINE
  5
99EA
330
1F
100
AcDbEntity
  8
AM_0
  6
CONTINUOUS
 48
0.5
100
AcDbLine
 10
-0.0231056213370948
 20
50.58349990844701
 30
0.0
 11
-1.558593750000113
 21
46.917037963867
 31
0.0
  0
LINE
  5
99EB
330
1F
100
AcDbEntity
  8
AM_0
  6
CONTINUOUS
100
AcDbLine
 10
-51.80000305175991
 20
18.74999694824201
 30
0.0
 11
-51.80000305175991
 21
-18.74999694823998
 31
0.0
  0
LINE
  5
99EC
330
1F
100
AcDbEntity
  8
AM_0
  6
CONTINUOUS
 48
0.5
100
AcDbLine
 10
-52.99999999999994
 20
7.950000000000017
 30
0.0
 11
-52.99999999999994
 21
-7.949999999999988
 31
0.0
  0
LINE
  5
99ED
330
1F
100
AcDbEntity
  8
AM_0
  6
CONTINUOUS
100
AcDbLine
 10
-25.00000000000193
 20
28.00000000000001
 30
0.0
 11
-25.00000000000193
 21
-19.61006927490098
 31
0.0
  0
LINE
  5
99EE
330
1F
100
AcDbEntity
  8
AM_0
  6
CONTINUOUS
100
AcDbLine
 10
-6.499999999999943
 20
43.21759966648339
 30
0.0
 11
-6.499999999999943
 21
-43.2175920370893
 31
0.0
  0
LINE
  5
99EF
330
1F
100
AcDbEntity
  8
AM_0
  6
CONTINUOUS
 48
0.5
100
AcDbLine
 10
-25.00000000000193
 20
-20.05000305175097
 30
0.0
 11
-25.00000000000187
 21
-28.00000000000007
 31
0.0
  0
LINE
  5
99F0
330
1F
100
AcDbEntity
  8
AM_0
  6
CONTINUOUS
 48
0.5
100
AcDbLine
 10
-62.99999999999994
 20
-8.949999999999988
 30
0.0
 11
-62.99999999999994
 21
-38.5000000000002
 31
0.0
  0
LINE
  5
99F3
330
1F
100
AcDbEntity
  8
AM_0
  6
CONTINUOUS
 48
0.5
100
AcDbLine
 10
-61.80000305175991
 20
-7.949999999999988
 30
0.0
 11
-61.80000305175991
 21
-19.04999999999998
 31
0.0
  0
ARC
  5
99F4
330
1F
100
AcDbEntity
  8
AM_0
  6
CONTINUOUS
 48
0.5
100
AcDbCircle
 10
-52.42449951171995
 20
-18.24999694823998
 30
0.0
 40
0.8000000119209
100
AcDbArc
 50
269.9999974955215
 51
321.3178110319031
  0
ARC
  5
99F5
330
1F
100
AcDbEntity
  8
AM_0
  6
CONTINUOUS
 48
0.5
100
AcDbCircle
 10
-26.00000000000193
 20
-20.05000305175097
 30
0.0
 40
1.0
100
AcDbArc
 50
0.0
 51
90.00000250447845
  0
LINE
  5
99F6
330
1F
100
AcDbEntity
  8
AM_0
  6
CONTINUOUS
 48
0.5
100
AcDbLine
 10
-61.80000305175991
 20
-19.04999999999998
 30
0.0
 11
-52.42449951171995
 21
-19.04999999999998
 31
0.0
  0
LINE
  5
99F7
330
1F
100
AcDbEntity
  8
AM_0
  6
CONTINUOUS
 48
0.5
100
AcDbLine
 10
-62.99999999999994
 20
-20.24999694823998
 30
0.0
 11
-61.80000305175991
 21
-19.04999999999998
 31
0.0
  0
LINE
  5
99F8
330
1F
100
AcDbEntity
  8
AM_0
  6
CONTINUOUS
 48
0.5
100
AcDbLine
 10
-51.80000305175991
 20
-18.74999694823998
 30
0.0
 11
-26.00000000000193
 21
-19.05000305175097
 31
0.0
  0
LINE
  5
99F9
330
1F
100
AcDbEntity
  8
AM_0
  6
CONTINUOUS
 48
0.5
100
AcDbLine
 10
-62.99999999999994
 20
-8.949999999999988
 30
0.0
 11
-61.99999999999994
 21
-7.949999999999988
 31
0.0
  0
LINE
  5
99FA
330
1F
100
AcDbEntity
  8
AM_0
  6
CONTINUOUS
 48
0.5
100
AcDbLine
 10
-61.99999999999994
 20
-7.949999999999988
 30
0.0
 11
-52.99999999999994
 21
-7.949999999999988
 31
0.0
  0
LINE
  5
99FB
330
1F
100
AcDbEntity
  8
AM_7
  6
AM_ISO08W050
100
AcDbLine
 10
-68.64367675780306
 20
0.0000000000000142
 30
0.0
 11
5.526256561279922
 21
0.0000000000000142
 31
0.0
  0
LINE
  5
99FC
330
1F
100
AcDbEntity
  8
AM_0
  6
CONTINUOUS
 48
0.5
100
AcDbLine
 10
-62.99999999999994
 20
38.50000000000003
 30
0.0
 11
-62.99999999999994
 21
8.950000000000017
 31
0.0
  0
LINE
  5
99FD
330
1F
100
AcDbEntity
  8
AM_0
  6
CONTINUOUS
 48
0.5
100
AcDbLine
 10
-61.80000305175991
 20
19.05000000000001
 30
0.0
 11
-61.80000305175991
 21
7.950000000000017
 31
0.0
  0
LINE
  5
99FE
330
1F
100
AcDbEntity
  8
AM_0
  6
CONTINUOUS
 48
0.5
100
AcDbLine
 10
-62.99999999999994
 20
8.950000000000017
 30
0.0
 11
-61.99999999999994
 21
7.950000000000017
 31
0.0
  0
LINE
  5
99FF
330
1F
100
AcDbEntity
  8
AM_0
  6
CONTINUOUS
 48
0.5
100
AcDbLine
 10
-61.99999999999994
 20
7.950000000000017
 30
0.0
 11
-52.99999999999994
 21
7.950000000000017
 31
0.0
  0
ARC
  5
9A00
330
1F
100
AcDbEntity
  8
AM_0
  6
CONTINUOUS
 48
0.5
100
AcDbCircle
 10
-52.42449951171995
 20
18.24999694824201
 30
0.0
 40
0.8000000119209
100
AcDbArc
 50
38.68218896809688
 51
90.00000250447845
  0
ARC
  5
9A01
330
1F
100
AcDbEntity
  8
AM_0
  6
CONTINUOUS
 48
0.5
100
AcDbCircle
 10
-26.00000000000193
 20
20.05000305175701
 30
0.0
 40
1.0
100
AcDbArc
 50
269.9999974955215
 51
0.0
  0
LINE
  5
9A02
330
1F
100
AcDbEntity
  8
AM_0
  6
CONTINUOUS
 48
0.5
100
AcDbLine
 10
-51.80000305175991
 20
18.74999694824201
 30
0.0
 11
-26.00000000000193
 21
19.05000305175701
 31
0.0
  0
LINE
  5
9A03
330
1F
100
AcDbEntity
  8
AM_0
  6
CONTINUOUS
 48
0.5
100
AcDbLine
 10
-61.80000305175991
 20
19.05000000000001
 30
0.0
 11
-52.42449951171995
 21
19.05000000000001
 31
0.0
  0
LINE
  5
9A04
330
1F
100
AcDbEntity
  8
AM_0
  6
CONTINUOUS
 48
0.5
100
AcDbLine
 10
-62.99999999999994
 20
20.24998931884802
 30
0.0
 11
-61.80000305175991
 21
19.05000000000001
 31
0.0
  0
LINE
  5
9A05
330
1F
100
AcDbEntity
  8
AM_11
100
AcDbLine
 10
-35.75012207031392
 20
43.89688873291001
 30
0.0
 11
-6.700004577637912
 21
36.11293411254802
 31
0.0
  0
ARC
  5
9A06
330
1F
100
AcDbEntity
  8
AM_0
  6
CONTINUOUS
 48
0.5
100
AcDbCircle
 10
-11.50000000000005
 20
33.00000000000001
 30
0.0
 40
5.0
100
AcDbArc
 50
269.9999974955215
 51
0.0
  0
LINE
  5
9A07
330
1F
100
AcDbEntity
  8
AM_0
  6
CONTINUOUS
 48
0.5
100
AcDbLine
 10
-25.00000000000193
 20
28.00000000000001
 30
0.0
 11
-11.50000021855703
 21
28.00000000000001
 31
0.0
  0
ARC
  5
9A08
330
1F
100
AcDbEntity
  8
AM_0
  6
CONTINUOUS
 48
0.5
100
AcDbCircle
 10
-43.77350616455288
 20
50.00000000000003
 30
0.0
 40
10.0
100
AcDbArc
 50
269.9999974955215
 51
329.9999991651722
  0
ARC
  5
9A09
330
1F
100
AcDbEntity
  8
AM_0
  6
CONTINUOUS
 48
0.5
100
AcDbCircle
 10
-61.49999999999995
 20
38.50000000000003
 30
0.0
 40
1.5
100
AcDbArc
 50
90.00000250447845
 51
180.0000050089585
  0
LINE
  5
9A0A
330
1F
100
AcDbEntity
  8
AM_0
  6
CONTINUOUS
 48
0.5
100
AcDbLine
 10
-61.49999999999995
 20
40.00000000000002
 30
0.0
 11
-43.77350616455288
 21
40.00000000000002
 31
0.0
  0
LINE
  5
9A0B
330
1F
100
AcDbEntity
  8
AM_0
  6
CONTINUOUS
 48
0.5
100
AcDbLine
 10
-4.372497558593067
 20
44.105335235596
 30
0.0
 11
-1.558597564697095
 21
46.917037963867
 31
0.0
  0
LINE
  5
9A0C
330
1F
100
AcDbEntity
  8
AM_0
  6
CONTINUOUS
 48
0.5
100
AcDbLine
 10
-8.036571502685092
 20
42.57644271850499
 30
0.0
 11
-11.99303436279308
 21
42.563137054443
 31
0.0
  0
LINE
  5
9A0D
330
1F
100
AcDbEntity
  8
AM_0
  6
CONTINUOUS
 48
0.5
100
AcDbLine
 10
-18.42060089111305
 20
46.86033248901401
 30
0.0
 11
-15.63932037353509
 21
44.067428588867
 31
0.0
  0
LINE
  5
9A0E
330
1F
100
AcDbEntity
  8
AM_0
  6
CONTINUOUS
 48
0.5
100
AcDbLine
 10
-11.9930038452141
 20
42.563121795654
 30
0.0
 11
-15.63932037353509
 21
44.067428588867
 31
0.0
  0
LINE
  5
9A0F
330
1F
100
AcDbEntity
  8
AM_0
  6
CONTINUOUS
 48
0.5
100
AcDbLine
 10
-4.372486114502066
 20
44.105339050292
 30
0.0
 11
-8.036575317382073
 21
42.576438903808
 31
0.0
  0
LINE
  5
9A11
330
1F
100
AcDbEntity
  8
AM_0
  6
CONTINUOUS
 48
0.5
100
AcDbLine
 10
-1.492736816406079
 20
58.20280075073201
 30
0.0
 11
-4.273925781250113
 21
60.995677947998
 31
0.0
  0
LINE
  5
9A12
330
1F
100
AcDbEntity
  8
AM_0
  6
CONTINUOUS
 48
0.5
100
AcDbLine
 10
-15.54071807861305
 20
60.95779418945301
 30
0.0
 11
-18.35470581054607
 21
58.14600372314401
 31
0.0
  0
LINE
  5
9A13
330
1F
100
AcDbEntity
  8
AM_0
  6
CONTINUOUS
 48
0.5
100
AcDbLine
 10
-0.0000000000001137
 20
54.54652786254901
 30
0.0
 11
-0.0231018066400566
 21
50.58349609375001
 31
0.0
  0
LINE
  5
9A14
330
1F
100
AcDbEntity
  8
AM_0
  6
CONTINUOUS
 48
0.5
100
AcDbLine
 10
-19.91320037841808
 20
50.516532897949
 30
0.0
 11
-19.89009857177711
 21
54.47961044311502
 31
0.0
  0
ARC
  5
9A15
330
1F
100
AcDbEntity
  8
AM_0
  6
CONTINUOUS
 48
0.5
100
AcDbCircle
 10
-25.58696746826291
 20
51.50000000000003
 30
0.0
 40
5.0
100
AcDbArc
 50
90.00000250447845
 51
149.9999973439397
  0
LINE
  5
9A16
330
1F
100
AcDbEntity
  8
AM_0
  6
CONTINUOUS
 48
0.5
100
AcDbLine
 10
-25.58696746826291
 20
56.50000000000003
 30
0.0
 11
-18.87931823730588
 21
56.50000000000003
 31
0.0
  0
LINE
  5
9A17
330
1F
100
AcDbEntity
  8
AM_0
  6
CONTINUOUS
 48
0.5
100
AcDbLine
 10
-19.89010620117108
 20
54.47962570190401
 30
0.0
 11
-18.35471343994106
 21
58.14599609375001
 31
0.0
  0
LINE
  5
9A18
330
1F
100
AcDbEntity
  8
AM_0
  6
CONTINUOUS
 48
0.5
100
AcDbLine
 10
-1.492729187011093
 20
58.20282745361301
 30
0.0
 11
-0.0000190734861008
 21
54.54651641845702
 31
0.0
  0
LINE
  5
9A19
330
1F
100
AcDbEntity
  8
AM_0
  6
CONTINUOUS
 48
0.5
100
AcDbLine
 10
-7.920265777779718
 20
62.50000000000001
 30
0.0
 11
-4.273891448974097
 21
60.995704650879
 31
0.0
  0
LINE
  5
9A1A
330
1F
100
AcDbEntity
  8
AM_0
  6
CONTINUOUS
 48
0.5
100
AcDbLine
 10
-11.8766021728511
 20
62.486694335937
 30
0.0
 11
-7.920265777779718
 21
62.50000000000001
 31
0.0
  0
LINE
  5
9A1B
330
1F
100
AcDbEntity
  8
AM_0
  6
CONTINUOUS
 48
0.5
100
AcDbLine
 10
-15.54074096679608
 20
60.95780181884801
 30
0.0
 11
-11.87661743164005
 21
62.48670196533201
 31
0.0
  0
LINE
  5
9A4F
330
1F
100
AcDbEntity
  8
AM_0
  6
CONTINUOUS
 48
0.5
100
AcDbLine
 10
-1.492729187010866
 20
-58.20281982421896
 30
0.0
 11
-0.0000190734859302
 21
-54.54650878906297
 31
0.0
  0
LINE
  5
9A50
330
1F
100
AcDbEntity
  8
AM_0
  6
CONTINUOUS
 48
0.5
100
AcDbLine
 10
-19.8901062011709
 20
-54.47961807251002
 30
0.0
 11
-18.35471343994083
 21
-58.14598846435602
 31
0.0
  0
ARC
  5
9A51
330
1F
100
AcDbEntity
  8
AM_0
  6
CONTINUOUS
 48
0.5
100
AcDbCircle
 10
-25.58696746826274
 20
-51.50000000000009
 30
0.0
 40
5.0
100
AcDbArc
 50
210.0000026560604
 51
269.9999974955217
  0
CIRCLE
  5
9A52
330
1F
100
AcDbEntity
  8
AM_0
  6
CONTINUOUS
 48
0.5
100
AcDbCircle
 10
-9.956611633299928
 20
-52.53149414062498
 30
0.0
 40
4.5
  0
ARC
  5
9A53
330
1F
100
AcDbEntity
  8
AM_0
  6
CONTINUOUS
 48
0.5
100
AcDbCircle
 10
-43.77350616455271
 20
-50.00000000000014
 30
0.0
 40
10.0
100
AcDbArc
 50
30.00000083482797
 51
90.00000250447865
  0
LINE
  5
9A54
330
1F
100
AcDbEntity
  8
AM_0
  6
CONTINUOUS
 48
0.5
100
AcDbLine
 10
-35.11325073242375
 20
-45.00000000000011
 30
0.0
 11
-29.91709899902474
 21
-54.0000000000001
 31
0.0
  0
LINE
  5
9A55
330
1F
100
AcDbEntity
  8
AM_11
100
AcDbLine
 10
-35.75012207031375
 20
-43.89688873291009
 30
0.0
 11
-6.700004577637798
 21
-36.11293411254802
 31
0.0
  0
LINE
  5
9A56
330
1F
100
AcDbEntity
  8
AM_0
  6
CONTINUOUS
 48
0.5
100
AcDbLine
 10
-61.49999999999977
 20
-40.0000000000002
 30
0.0
 11
-43.77350616455271
 21
-40.00000000000014
 31
0.0
  0
ARC
  5
9A57
330
1F
100
AcDbEntity
  8
AM_0
  6
CONTINUOUS
 48
0.5
100
AcDbCircle
 10
-61.49999999999977
 20
-38.5000000000002
 30
0.0
 40
1.5
100
AcDbArc
 50
179.9999949910415
 51
269.9999974955217
  0
LINE
  5
9A58
330
1F
100
AcDbEntity
  8
AM_0
  6
CONTINUOUS
 48
0.5
100
AcDbLine
 10
-11.99300384521393
 20
-42.56311416625997
 30
0.0
 11
-15.63932037353493
 21
-44.067420959473
 31
0.0
  0
LINE
  5
9A59
330
1F
100
AcDbEntity
  8
AM_0
  6
CONTINUOUS
 48
0.5
100
AcDbLine
 10
-25.00000000000182
 20
-28.00000000000007
 30
0.0
 11
-11.49999999999994
 21
-28.00000000000002
 31
0.0
  0
LINE
  5
9A5A
330
1F
100
AcDbEntity
  8
AM_0
  6
CONTINUOUS
 48
0.5
100
AcDbLine
 10
-18.42060089111288
 20
-46.86032485962002
 30
0.0
 11
-15.63932037353493
 21
-44.067420959473
 31
0.0
  0
LINE
  5
9A5B
330
1F
100
AcDbEntity
  8
AM_0
  6
CONTINUOUS
 48
0.5
100
AcDbLine
 10
-18.42061614990194
 20
-46.86032104492201
 30
0.0
 11
-19.91323089599592
 21
-50.51660919189503
 31
0.0
  0
LINE
  5
9A5C
330
1F
100
AcDbEntity
  8
AM_0
  6
CONTINUOUS
 48
0.5
100
AcDbLine
 10
-19.91320037841791
 20
-50.51652526855502
 30
0.0
 11
-19.89009857177694
 21
-54.47960281372103
 31
0.0
  0
ARC
  5
9A5D
330
1F
100
AcDbEntity
  8
AM_0
  6
CONTINUOUS
 48
0.5
100
AcDbCircle
 10
-11.49999999999994
 20
-33.00000000000002
 30
0.0
 40
5.0
100
AcDbArc
 50
0.0000000000001734
 51
90.00000250447865
  0
LINE
  5
9A5E
330
1F
100
AcDbEntity
  8
AM_0
  6
CONTINUOUS
 48
0.5
100
AcDbLine
 10
-4.372497558592897
 20
-44.10532760620196
 30
0.0
 11
-1.558597564696924
 21
-46.91703033447296
 31
0.0
  0
LINE
  5
9A5F
330
1F
100
AcDbEntity
  8
AM_0
  6
CONTINUOUS
 48
0.5
100
AcDbLine
 10
-8.036571502684921
 20
-42.57643508911097
 30
0.0
 11
-11.99303436279291
 21
-42.56312942504898
 31
0.0
  0
LINE
  5
9A60
330
1F
100
AcDbEntity
  8
AM_0
  6
CONTINUOUS
 48
0.5
100
AcDbLine
 10
-4.372486114501896
 20
-44.10533142089796
 30
0.0
 11
-8.036575317381903
 21
-42.57643127441399
 31
0.0
  0
LINE
  5
9A62
330
1F
100
AcDbEntity
  8
AM_0
  6
CONTINUOUS
 48
0.5
100
AcDbLine
 10
0.0000000000000568
 20
-54.54652023315496
 30
0.0
 11
-0.023101806639886
 21
-50.58348846435596
 31
0.0
  0
LINE
  5
9A63
330
1F
100
AcDbEntity
  8
AM_0
  6
CONTINUOUS
 48
0.5
100
AcDbLine
 10
-0.0231056213369243
 20
-50.58349227905296
 30
0.0
 11
-1.558593749999943
 21
-46.91703033447296
 31
0.0
  0
LINE
  5
9A64
330
1F
100
AcDbEntity
  8
AM_0
  6
CONTINUOUS
 48
0.5
100
AcDbLine
 10
-15.54074096679585
 20
-60.95779418945401
 30
0.0
 11
-11.87661743163982
 21
-62.486694335938
 31
0.0
  0
LINE
  5
9A65
330
1F
100
AcDbEntity
  8
AM_0
  6
CONTINUOUS
 48
0.5
100
AcDbLine
 10
-25.58696746826274
 20
-56.50000000000009
 30
0.0
 11
-18.87931823730571
 21
-56.50000000000007
 31
0.0
  0
LINE
  5
9A66
330
1F
100
AcDbEntity
  8
AM_0
  6
CONTINUOUS
 48
0.5
100
AcDbLine
 10
-15.54071807861282
 20
-60.95778656005901
 30
0.0
 11
-18.35470581054585
 21
-58.14599609375001
 31
0.0
  0
LINE
  5
9A67
330
1F
100
AcDbEntity
  8
AM_0
  6
CONTINUOUS
 48
0.5
100
AcDbLine
 10
-1.492736816405852
 20
-58.20279312133796
 30
0.0
 11
-4.273925781249886
 21
-60.99567031860397
 31
0.0
  0
LINE
  5
9A68
330
1F
100
AcDbEntity
  8
AM_0
  6
CONTINUOUS
 48
0.5
100
AcDbLine
 10
-11.87660217285088
 20
-62.48668670654298
 30
0.0
 11
-7.920278686135816
 21
-62.49999999999999
 31
0.0
  0
LINE
  5
9A69
330
1F
100
AcDbEntity
  8
AM_0
  6
CONTINUOUS
 48
0.5
100
AcDbLine
 10
-7.920284271239836
 20
-62.49999999999999
 30
0.0
 11
-4.27389144897387
 21
-60.99569702148497
 31
0.0
  0
LINE
  5
9A70
330
1F
100
AcDbEntity
  8
AM_11
100
AcDbLine
 10
0.0000000000000568
 20
62.50000000000001
 30
0.0
 11
-7.920265777779718
 21
62.50000000000001
 31
0.0
  0
LINE
  5
9A75
330
1F
100
AcDbEntity
  8
AM_11
100
AcDbLine
 10
0.0000000000000568
 20
-62.49999999999999
 30
0.0
 11
-7.920284271239836
 21
-62.49999999999999
 31
0.0
  0
LINE
  5
9A84
330
1F
100
AcDbEntity
  8
AM_11
100
AcDbLine
 10
0.0000000000000568
 20
62.50000000000003
 30
0.0
 11
0.0
 21
-62.49999999999999
 31
0.0
  0
DIMENSION
  5
9A90
330
1F
100
AcDbEntity
  8
AM_5
100
AcDbDimension
  2
*D5
 10
-102.643677757803
 20
-40.00000000000019
 30
0.0
 11
-105.743677757803
 21
-0.0000000000000928
 31
0.0
 70
    32
  1
%%c<>
  3
AM_JIS$0
100
AcDbAlignedDimension
 13
-61.49999999999995
 23
40.00000000000002
 33
0.0
 14
-61.49999999999977
 24
-40.0000000000002
 34
0.0
 50
270.0
100
AcDbRotatedDimension
1001
GENIUS_GENDTOL_13
1000

1000
h7
1000

1040
0.0
1001
ACAD
1000
DSTYLE
1002
{
1070
   287
1070
     5
1070
    42
1040
1.0
1070
    43
1040
12.0
1070
    48
1040
0.1
1070
    78
1070
     8
1070
   140
1040
3.2
1070
   176
1070
   256
1070
   177
1070
   256
1070
   271
1070
     3
1070
   272
1070
     3
1070
   275
1070
     0
1070
   279
1070
     2
1070
   284
1070
     0
1070
   289
1070
     3
1070
   340
1005
6B
1070
   371
1070
    -1
1070
   372
1070
    -1
1002
}
  0
DIMENSION
  5
9A91
330
1F
100
AcDbEntity
  8
AM_5
100
AcDbDimension
  2
*D6
 10
-82.64367775780305
 20
-7.949999999999982
 30
0.0
 11
-85.74367775780306
 21
0.0000000000000072
 31
0.0
 70
    32
  1
<>
  3
AM_JIS$0
100
AcDbAlignedDimension
 13
-61.99999999999994
 23
7.950000000000017
 33
0.0
 14
-61.99999999999994
 24
-7.949999999999988
 34
0.0
 50
270.0
100
AcDbRotatedDimension
1001
GENIUS_GENDTOL_13
1000

1000
h7
1000

1040
0.0
1001
ACAD
1000
DSTYLE
1002
{
1070
   287
1070
     5
1070
    42
1040
1.0
1070
    43
1040
12.0
1070
    48
1040
0.1
1070
    78
1070
     8
1070
   140
1040
3.2
1070
   176
1070
   256
1070
   177
1070
   256
1070
   271
1070
     3
1070
   272
1070
     3
1070
   275
1070
     0
1070
   279
1070
     2
1070
   284
1070
     0
1070
   289
1070
     3
1070
   340
1005
6B
1070
   371
1070
    -1
1070
   372
1070
    -1
1002
}
  0
DIMENSION
  5
9A92
330
1F
100
AcDbEntity
  8
AM_5
100
AcDbDimension
  2
*D7
 10
-92.64367775780305
 20
-19.04999999999997
 30
0.0
 11
-95.74367775780306
 21
0.0000000000000096
 31
0.0
 70
    32
  1
%%c<>
  3
AM_JIS$0
100
AcDbAlignedDimension
 13
-61.80000305175991
 23
19.05000000000001
 33
0.0
 14
-61.80000305175991
 24
-19.04999999999998
 34
0.0
 50
270.0
100
AcDbRotatedDimension
1001
GENIUS_GENDTOL_13
1000

1000
h7
1000

1040
0.0
1001
ACAD
1000
DSTYLE
1002
{
1070
   287
1070
     5
1070
    42
1040
1.0
1070
    43
1040
12.0
1070
    48
1040
0.1
1070
    78
1070
     8
1070
   140
1040
3.2
1070
   176
1070
   256
1070
   177
1070
   256
1070
   271
1070
     3
1070
   272
1070
     3
1070
   275
1070
     0
1070
   279
1070
     2
1070
   284
1070
     0
1070
   289
1070
     3
1070
   340
1005
6B
1070
   371
1070
    -1
1070
   372
1070
    -1
1002
}
  0
DIMENSION
  5
9B3E
330
1F
100
AcDbEntity
  8
AM_5
100
AcDbDimension
  2
*D10
 10
-52.99999999999995
 20
-76.50000099999998
 30
0.0
 11
-57.99999999999986
 21
-73.40000099999999
 31
0.0
 70
    32
  1
<>
  3
AM_JIS$0
100
AcDbAlignedDimension
 13
-62.99999999999977
 23
-38.49999969402033
 33
0.0
 14
-52.99999999999994
 24
-7.949999999999988
 34
0.0
100
AcDbRotatedDimension
1001
GENIUS_GENDTOL_13
1000

1000
h7
1000

1040
0.0
1001
ACAD
1000
DSTYLE
1002
{
1070
   287
1070
     5
1070
    42
1040
1.0
1070
    43
1040
12.0
1070
    48
1040
0.1
1070
    78
1070
     8
1070
   140
1040
3.2
1070
   176
1070
   256
1070
   177
1070
   256
1070
   271
1070
     3
1070
   272
1070
     3
1070
   275
1070
     0
1070
   279
1070
     2
1070
   284
1070
     0
1070
   289
1070
     3
1070
   340
1005
6B
1070
   371
1070
    -1
1070
   372
1070
    -1
1002
}
  0
DIMENSION
  5
9B3F
330
1F
100
AcDbEntity
  8
AM_5
100
AcDbDimension
  2
*D9
 10
0.0000000000000541
 20
-106.4999884830454
 30
0.0
 11
-31.4999999999998
 21
-103.3999884830454
 31
0.0
 70
    32
  1
<>
  3
AM_JIS$0
100
AcDbAlignedDimension
 13
-62.99999999999966
 23
-38.49999973773174
 33
0.0
 14
0.0000000000000568
 24
-62.47321319580002
 34
0.0
 50
0.0000113836296182
100
AcDbRotatedDimension
1001
GENIUS_GENDTOL_13
1000

1000
h7
1000

1040
0.0
1001
ACAD
1000
DSTYLE
1002
{
1070
   287
1070
     3
1070
    42
1040
1.0
1070
    43
1040
12.0
1070
    48
1040
0.1
1070
    78
1070
     8
1070
   140
1040
3.2
1070
   176
1070
   256
1070
   177
1070
   256
1070
   271
1070
     3
1070
   272
1070
     3
1070
   275
1070
     0
1070
   284
1070
     0
1070
   289
1070
     3
1070
   340
1005
6B
1070
   371
1070
    -1
1070
   372
1070
    -1
1002
}
  0
DIMENSION
  5
9B40
330
1F
100
AcDbEntity
  8
AM_5
100
AcDbDimension
  2
*D8
 10
-25.00000000000188
 20
-86.50000099999997
 30
0.0
 11
-44.00000000000076
 21
-83.40000099999999
 31
0.0
 70
    32
  1
<>
  3
AM_JIS$0
100
AcDbAlignedDimension
 13
-62.99999999999966
 23
-38.49999973773174
 33
0.0
 14
-25.00000000000187
 24
-28.00000000000007
 34
0.0
100
AcDbRotatedDimension
1001
GENIUS_GENDTOL_13
1000

1000
h7
1000

1040
0.0
1001
ACAD
1000
DSTYLE
1002
{
1070
   287
1070
     5
1070
    42
1040
1.0
1070
    43
1040
12.0
1070
    48
1040
0.1
1070
    78
1070
     8
1070
   140
1040
3.2
1070
   176
1070
   256
1070
   177
1070
   256
1070
   271
1070
     3
1070
   272
1070
     3
1070
   275
1070
     0
1070
   279
1070
     2
1070
   284
1070
     0
1070
   289
1070
     3
1070
   340
1005
6B
1070
   371
1070
    -1
1070
   372
1070
    -1
1002
}
  0
DIMENSION
  5
9BE6
330
1F
100
AcDbEntity
  8
AM_5
100
AcDbDimension
  2
*D11
 10
29.52625756127991
 20
-62.5
 30
0.0
 11
26.42625756127993
 21
0.0000000000000199
 31
0.0
 70
    32
  1
%%c<>
  3
AM_JIS$0
100
AcDbAlignedDimension
 13
0.0000000000000568
 23
62.50000000000003
 33
0.0
 14
0.0
 24
-62.49999999999999
 34
0.0
 50
90.0
100
AcDbRotatedDimension
1001
GENIUS_GENDTOL_13
1000

1000
h7
1000

1040
0.0
1001
ACAD
1000
DSTYLE
1002
{
1070
   287
1070
     3
1070
    42
1040
1.0
1070
    43
1040
12.0
1070
    48
1040
0.1
1070
    78
1070
     8
1070
   140
1040
3.2
1070
   176
1070
   256
1070
   177
1070
   256
1070
   271
1070
     3
1070
   272
1070
     3
1070
   275
1070
     0
1070
   284
1070
     0
1070
   289
1070
     3
1070
   340
1005
6B
1070
   371
1070
    -1
1070
   372
1070
    -1
1002
}
  0
DIMENSION
  5
9BE7
330
1F
100
AcDbEntity
  8
AM_5
100
AcDbDimension
  2
*D12
 10
19.52625756127991
 20
-28.00000000000004
 30
0.0
 11
16.42625756127992
 21
-0.0000000000000186
 31
0.0
 70
    32
  1
%%c<>
  3
AM_JIS$0
100
AcDbAlignedDimension
 13
-11.6534807483402
 23
28.00000000000001
 33
0.0
 14
-11.65348074834008
 24
-28.00000000000003
 34
0.0
 50
90.0
100
AcDbRotatedDimension
1001
GENIUS_GENDTOL_13
1000

1000
h7
1000

1040
0.0
1001
ACAD
1000
DSTYLE
1002
{
1070
   287
1070
     3
1070
    42
1040
1.0
1070
    43
1040
12.0
1070
    48
1040
0.1
1070
    78
1070
     8
1070
   140
1040
3.2
1070
   176
1070
   256
1070
   177
1070
   256
1070
   271
1070
     3
1070
   272
1070
     3
1070
   275
1070
     0
1070
   284
1070
     0
1070
   289
1070
     3
1070
   340
1005
6B
1070
   371
1070
    -1
1070
   372
1070
    -1
1002
}
  0
DIMENSION
  5
9DF0
330
1F
100
AcDbEntity
  8
AM_5
100
AcDbDimension
  2
*D13
 10
-6.499999999999946
 20
-96.50000099999997
 30
0.0
 11
-34.74999999999985
 21
-93.40000099999997
 31
0.0
 70
    32
  1
<>
  3
AM_JIS$0
100
AcDbAlignedDimension
 13
-62.99999999999977
 23
-38.49999986886597
 33
0.0
 14
-6.499999999999943
 24
-43.12676301353413
 34
0.0
 50
180.0
100
AcDbRotatedDimension
1001
GENIUS_GENDTOL_13
1000

1000
h7
1000

1040
0.0
1001
ACAD
1000
DSTYLE
1002
{
1070
   287
1070
     5
1070
    42
1040
1.0
1070
    43
1040
12.0
1070
    48
1040
0.1
1070
    78
1070
     8
1070
   140
1040
3.2
1070
   176
1070
   256
1070
   177
1070
   256
1070
   271
1070
     3
1070
   272
1070
     3
1070
   275
1070
     0
1070
   279
1070
     2
1070
   284
1070
     0
1070
   289
1070
     3
1070
   340
1005
6B
1070
   371
1070
    -1
1070
   372
1070
    -1
1002
}
  0
VIEWPORT
  5
110
330
101
100
AcDbEntity
 67
     1
  8
0
100
AcDbViewport
 10
420.5
 20
297.0
 30
0.0
 40
948.9782706766916
 41
628.452
 68
     1
 69
     1
1001
ACAD
1000
MVIEW
1002
{
1070
    16
1010
0.0
1020
0.0
1030
0.0
1010
0.0
1020
0.0
1030
1.0
1040
0.0
1040
628.452
1040
420.5
1040
297.0
1040
50.0
1040
0.0
1040
0.0
1070
     0
1070
   100
1070
     1
1070
     1
1070
     0
1070
     0
1070
     0
1070
     0
1040
0.0
1040
0.0
1040
0.0
1040
10.0
1040
10.0
1040
10.0
1040
10.0
1070
     0
1002
{
1002
}
1002
}
  0
ENDSEC
  0
SECTION
  2
OBJECTS
  0
DICTIONARY
  5
C
330
0
100
AcDbDictionary
  3
ACAD_GROUP
350
D
  3
ACAD_LAYOUT
350
1A
  3
ACAD_MLINESTYLE
350
17
  3
ACAD_PLOTSETTINGS
350
19
  3
ACAD_PLOTSTYLENAME
350
E
  3
ACDBVARIABLEDICTIONARY
350
34
  3
ACMDICTIONARY
350
43
  3
AMG
350
2B
  3
AMGSNAPSETTINGS
350
6E
  3
DWGPROPS
350
A096
  3
ACDBHEADERROUNDTRIPXREC
350
A0A2
  0
DICTIONARY
  5
74
330
1F
100
AcDbDictionary
280
     1
  3
ACAD_INDEX
360
A098
  3
ACAD_LAYOUTSELFREF
360
A0C5
  0
DICTIONARY
  5
A0CA
330
101
100
AcDbDictionary
280
     1
  3
ACAD_LAYOUTSELFREF
360
A0CB
  0
DICTIONARY
  5
D
102
{ACAD_REACTORS
330
C
102
}
330
C
100
AcDbDictionary
  0
DICTIONARY
  5
1A
102
{ACAD_REACTORS
330
C
102
}
330
C
100
AcDbDictionary
  0
DICTIONARY
  5
17
102
{ACAD_REACTORS
330
C
102
}
330
C
100
AcDbDictionary
  3
STANDARD
350
18
  0
DICTIONARY
  5
19
102
{ACAD_REACTORS
330
C
102
}
330
C
100
AcDbDictionary
  0
ACDBDICTIONARYWDFLT
  5
E
102
{ACAD_REACTORS
330
C
102
}
330
C
100
AcDbDictionary
281
     1
  3
Normal
350
F
100
AcDbDictionaryWithDefault
340
F
  0
DICTIONARY
  5
34
102
{ACAD_REACTORS
330
C
102
}
330
C
100
AcDbDictionary
  3
INDEXCTL
350
35
  3
SORTENTS
350
B5E
  0
DICTIONARY
  5
43
102
{ACAD_REACTORS
330
C
102
}
330
C
100
AcDbDictionary
  3
ACMSTDDICTIONARY
350
260
  0
DICTIONARY
  5
2B
102
{ACAD_REACTORS
330
C
102
}
330
C
100
AcDbDictionary
  3
ACMGSETTINGS
350
2C
  0
DICTIONARY
  5
6E
102
{ACAD_REACTORS
330
C
102
}
330
C
100
AcDbDictionary
  0
XRECORD
  5
A096
102
{ACAD_REACTORS
330
C
102
}
330
C
100
AcDbXrecord
  1
DWGPROPS COOKIE
  2

  3

  4

  6

  7

  8

  9

300
AmdtFileType=82
301
=
302
=
303
=
304
=
305
=
306
=
307
=
308
=
309
=
 40
0.4104024074074074
 41
2452836.771637361
 42
2453076.607450254
  1

 90
        1
  0
DICTIONARY
  5
A0A2
102
{ACAD_REACTORS
330
C
102
}
330
C
100
AcDbDictionary
  3
TSTACKALIGN
350
A0A3
  3
TSTACKSIZE
350
A0A4
  3
HYPERLINKBASE
350
A0A5
  3
STYLESHEET
350
A0A6
  3
LAYOUTDICT
350
A0A7
  3
PLOTSETDICT
350
A0A8
  3
PLOTSTYLNAMDICT
350
A0A9
  3
LWETCUNION
350
A0AA
  3
INSUNITS
350
A0AB
  3
CEPSNTYPE
350
A0AC
  3
FINGERPRINTGUID
350
A0AD
  3
VERSIONGUID
350
A0AE
  3
PSVPSCALE
350
A0AF
  3
DIMSTYLEDATA
350
A0B0
  3
PUCSORTHOREF
350
A0B1
  3
PUCSORTHOVIEW
350
A0B2
  3
PUCSBASE
350
A0B3
  3
PUCSORGTOP
350
A0B4
  3
PUCSORGBOTTOM
350
A0B5
  3
PUCSORGLEFT
350
A0B6
  3
PUCSORGRIGHT
350
A0B7
  3
PUCSORGFRONT
350
A0B8
  3
PUCSORGBACK
350
A0B9
  3
UCSORTHOREF
350
A0BA
  3
UCSORTHOVIEW
350
A0BB
  3
UCSBASE
350
A0BC
  3
UCSORGTOP
350
A0BD
  3
UCSORGBOTTOM
350
A0BE
  3
UCSORGLEFT
350
A0BF
  3
UCSORGRIGHT
350
A0C0
  3
UCSORGFRONT
350
A0C1
  3
UCSORGBACK
350
A0C2
  0
DICTIONARY
  5
A098
102
{ACAD_REACTORS
330
74
102
}
330
74
100
AcDbDictionary
  3
*A1
350
A099
  0
XRECORD
  5
A0C5
102
{ACAD_REACTORS
330
74
102
}
330
74
100
AcDbXrecord
340
1F
  0
XRECORD
  5
A0CB
102
{ACAD_REACTORS
330
A0CA
102
}
330
A0CA
100
AcDbXrecord
340
101
  0
MLINESTYLE
  5
18
102
{ACAD_REACTORS
330
17
102
}
330
17
100
AcDbMlineStyle
  2
STANDARD
 70
     0
  3

 62
   256
 51
90.0
 52
90.0
 71
     2
 49
0.5
 62
   256
  6
BYLAYER
 49
-0.5
 62
   256
  6
BYLAYER
  0
ACDBPLACEHOLDER
  5
F
102
{ACAD_REACTORS
330
E
102
}
330
E
100
AcDbPlaceHolder
280
     0
  0
DICTIONARYVAR
  5
35
102
{ACAD_REACTORS
330
34
102
}
330
34
100
DictionaryVariables
280
     0
  1
1
  0
DICTIONARYVAR
  5
B5E
102
{ACAD_REACTORS
330
34
102
}
330
34
100
DictionaryVariables
280
     0
  1
96
  0
DICTIONARY
  5
260
102
{ACAD_REACTORS
330
43
102
}
330
43
100
AcDbDictionary
  0
DICTIONARY
  5
2C
102
{ACAD_REACTORS
330
2B
102
}
330
2B
100
AcDbDictionary
  3
DWGSETTINGS
350
2D
  0
XRECORD
  5
A0A3
102
{ACAD_REACTORS
330
A0A2
102
}
330
A0A2
100
AcDbXrecord
 90
        1
  0
XRECORD
  5
A0A4
102
{ACAD_REACTORS
330
A0A2
102
}
330
A0A2
100
AcDbXrecord
 90
       70
  0
XRECORD
  5
A0A5
102
{ACAD_REACTORS
330
A0A2
102
}
330
A0A2
100
AcDbXrecord
  1

  0
XRECORD
  5
A0A6
102
{ACAD_REACTORS
330
A0A2
102
}
330
A0A2
100
AcDbXrecord
  1
ASAMI.ctb
  0
XRECORD
  5
A0A7
102
{ACAD_REACTORS
330
A0A2
102
}
330
A0A2
100
AcDbXrecord
340
1A
  0
XRECORD
  5
A0A8
102
{ACAD_REACTORS
330
A0A2
102
}
330
A0A2
100
AcDbXrecord
340
19
  0
XRECORD
  5
A0A9
102
{ACAD_REACTORS
330
A0A2
102
}
330
A0A2
100
AcDbXrecord
340
E
  0
XRECORD
  5
A0AA
102
{ACAD_REACTORS
330
A0A2
102
}
330
A0A2
100
AcDbXrecord
 90
    10781
  0
XRECORD
  5
A0AB
102
{ACAD_REACTORS
330
A0A2
102
}
330
A0A2
100
AcDbXrecord
 90
        4
  0
XRECORD
  5
A0AC
102
{ACAD_REACTORS
330
A0A2
102
}
330
A0A2
100
AcDbXrecord
 90
        0
  0
XRECORD
  5
A0AD
102
{ACAD_REACTORS
330
A0A2
102
}
330
A0A2
100
AcDbXrecord
  1
{AFB28963-8C59-40AE-9337-C84526B81ACE}
  0
XRECORD
  5
A0AE
102
{ACAD_REACTORS
330
A0A2
102
}
330
A0A2
100
AcDbXrecord
  1
{01ED2D37-B6F1-410E-9F21-4104FCF8F87C}
  0
XRECORD
  5
A0AF
102
{ACAD_REACTORS
330
A0A2
102
}
330
A0A2
100
AcDbXrecord
 40
0.0
  0
XRECORD
  5
A0B0
102
{ACAD_REACTORS
330
A0A2
102
}
330
A0A2
100
AcDbXrecord
1000
DSTYLE
1002
{
1070
    79
 70
     2
1070
   341
340
59
1070
   342
340
59
1070
   371
 70
    -1
1070
   372
 70
    -1
1002
}
  0
XRECORD
  5
A0B1
102
{ACAD_REACTORS
330
A0A2
102
}
330
A0A2
100
AcDbXrecord
340
0
  0
XRECORD
  5
A0B2
102
{ACAD_REACTORS
330
A0A2
102
}
330
A0A2
100
AcDbXrecord
 70
     0
  0
XRECORD
  5
A0B3
102
{ACAD_REACTORS
330
A0A2
102
}
330
A0A2
100
AcDbXrecord
340
0
  0
XRECORD
  5
A0B4
102
{ACAD_REACTORS
330
A0A2
102
}
330
A0A2
100
AcDbXrecord
 10
0.0
 20
0.0
 30
0.0
  0
XRECORD
  5
A0B5
102
{ACAD_REACTORS
330
A0A2
102
}
330
A0A2
100
AcDbXrecord
 10
0.0
 20
0.0
 30
0.0
  0
XRECORD
  5
A0B6
102
{ACAD_REACTORS
330
A0A2
102
}
330
A0A2
100
AcDbXrecord
 10
0.0
 20
0.0
 30
0.0
  0
XRECORD
  5
A0B7
102
{ACAD_REACTORS
330
A0A2
102
}
330
A0A2
100
AcDbXrecord
 10
0.0
 20
0.0
 30
0.0
  0
XRECORD
  5
A0B8
102
{ACAD_REACTORS
330
A0A2
102
}
330
A0A2
100
AcDbXrecord
 10
0.0
 20
0.0
 30
0.0
  0
XRECORD
  5
A0B9
102
{ACAD_REACTORS
330
A0A2
102
}
330
A0A2
100
AcDbXrecord
 10
0.0
 20
0.0
 30
0.0
  0
XRECORD
  5
A0BA
102
{ACAD_REACTORS
330
A0A2
102
}
330
A0A2
100
AcDbXrecord
340
0
  0
XRECORD
  5
A0BB
102
{ACAD_REACTORS
330
A0A2
102
}
330
A0A2
100
AcDbXrecord
 70
     0
  0
XRECORD
  5
A0BC
102
{ACAD_REACTORS
330
A0A2
102
}
330
A0A2
100
AcDbXrecord
340
0
  0
XRECORD
  5
A0BD
102
{ACAD_REACTORS
330
A0A2
102
}
330
A0A2
100
AcDbXrecord
 10
0.0
 20
0.0
 30
0.0
  0
XRECORD
  5
A0BE
102
{ACAD_REACTORS
330
A0A2
102
}
330
A0A2
100
AcDbXrecord
 10
0.0
 20
0.0
 30
0.0
  0
XRECORD
  5
A0BF
102
{ACAD_REACTORS
330
A0A2
102
}
330
A0A2
100
AcDbXrecord
 10
0.0
 20
0.0
 30
0.0
  0
XRECORD
  5
A0C0
102
{ACAD_REACTORS
330
A0A2
102
}
330
A0A2
100
AcDbXrecord
 10
0.0
 20
0.0
 30
0.0
  0
XRECORD
  5
A0C1
102
{ACAD_REACTORS
330
A0A2
102
}
330
A0A2
100
AcDbXrecord
 10
0.0
 20
0.0
 30
0.0
  0
XRECORD
  5
A0C2
102
{ACAD_REACTORS
330
A0A2
102
}
330
A0A2
100
AcDbXrecord
 10
0.0
 20
0.0
 30
0.0
  0
LAYER_INDEX
  5
A099
102
{ACAD_REACTORS
330
A098
102
}
330
A098
100
AcDbIndex
 40
2453152.363478229
100
AcDbLayerIndex
  8
0
360
A09A
 90
        0
  8
AM_11
360
A09B
 90
        5
  8
AM_7
360
A09C
 90
        1
  8
AM_5
360
A09D
 90
        9
  8
Defpoints
360
A09E
 90
        0
  8
AM_6
360
A09F
 90
        1
  8
AM_0
360
A0A0
 90
       73
  0
XRECORD
  5
2D
102
{ACAD_REACTORS
330
2C
102
}
330
2C
100
AcDbXrecord
  1
VERSION
140
15.0
  1
PRODUCT
  2
AutoCAD Mechanical 2000
  0
IDBUFFER
  5
A09A
330
0
100
AcDbIdBuffer
  0
IDBUFFER
  5
A09B
330
0
100
AcDbIdBuffer
330
9A05
330
9A55
330
9A70
330
9A75
330
9A84
  0
IDBUFFER
  5
A09C
330
0
100
AcDbIdBuffer
330
99FB
  0
IDBUFFER
  5
A09D
330
0
100
AcDbIdBuffer
330
9A90
330
9A91
330
9A92
330
9B3E
330
9B3F
330
9B40
330
9BE6
330
9BE7
330
9DF0
  0
IDBUFFER
  5
A09E
330
0
100
AcDbIdBuffer
  0
IDBUFFER
  5
A09F
330
0
100
AcDbIdBuffer
330
E5A
  0
IDBUFFER
  5
A0A0
330
0
100
AcDbIdBuffer
330
9A4F
330
9A50
330
9A51
330
9A52
330
9A53
330
9A54
330
9A56
330
9A57
330
9A58
330
9A59
330
9A5A
330
9A5B
330
9A5C
330
9A5D
330
9A5E
330
9A5F
330
9A60
330
9A62
330
9A63
330
9A64
330
9A65
330
9A66
330
9A67
330
9A68
330
9A69
330
99E7
330
99E8
330
99E9
330
99EA
330
99EB
330
99EC
330
99ED
330
99EE
330
99EF
330
99F0
330
99F3
330
99F4
330
99F5
330
99F6
330
99F7
330
99F8
330
99F9
330
99FA
330
99FC
330
99FD
330
99FE
330
99FF
330
9A00
330
9A01
330
9A02
330
9A03
330
9A04
330
9A06
330
9A07
330
9A08
330
9A09
330
9A0A
330
9A0B
330
9A0C
330
9A0D
330
9A0E
330
9A0F
330
9A11
330
9A12
330
9A13
330
9A14
330
9A15
330
9A16
330
9A17
330
9A18
330
9A19
330
9A1A
330
9A1B
  0
ENDSEC
  0
EOF
