  0
SECTION
  2
HEADER
  9
$ACADVER
  1
AC1014
  9
$ACADMAINTVER
 70
     9
  9
$DWGCODEPAGE
  3
ANSI_932
  9
$INSBASE
 10
0.0
 20
0.0
 30
0.0
  9
$EXTMIN
 10
-83.15711754418309
 20
-107.9999930527272
 30
0.0
  9
$EXTMAX
 10
37.94156120873548
 20
31.5
 30
0.0
  9
$LIMMIN
 10
-97.2056772802771
 20
-124.4817953656734
  9
$LIMMAX
 10
130.7904017036853
 20
55.30780633114773
  9
$ORTHOMODE
 70
     0
  9
$REGENMODE
 70
     1
  9
$FILLMODE
 70
     1
  9
$QTEXTMODE
 70
     0
  9
$MIRRTEXT
 70
     0
  9
$DRAGMODE
 70
     2
  9
$LTSCALE
 40
1.0
  9
$OSMODE
 70
    55
  9
$ATTMODE
 70
     1
  9
$TEXTSIZE
 40
2.5
  9
$TRACEWID
 40
1.0
  9
$TEXTSTYLE
  7
STANDARD
  9
$CLAYER
  8
AM_5
  9
$CELTYPE
  6
BYLAYER
  9
$CECOLOR
 62
   256
  9
$CELTSCALE
 40
1.0
  9
$DELOBJ
 70
     1
  9
$DISPSILH
 70
     0
  9
$DIMSCALE
 40
1.0
  9
$DIMASZ
 40
2.5
  9
$DIMEXO
 40
1.0
  9
$DIMDLI
 40
12.0
  9
$DIMRND
 40
0.0
  9
$DIMDLE
 40
0.0
  9
$DIMEXE
 40
1.0
  9
$DIMTP
 40
0.1
  9
$DIMTM
 40
0.1
  9
$DIMTXT
 40
3.2
  9
$DIMCEN
 40
0.0
  9
$DIMTSZ
 40
0.0
  9
$DIMTOL
 70
     0
  9
$DIMLIM
 70
     0
  9
$DIMTIH
 70
     0
  9
$DIMTOH
 70
     0
  9
$DIMSE1
 70
     0
  9
$DIMSE2
 70
     0
  9
$DIMTAD
 70
     3
  9
$DIMZIN
 70
     8
  9
$DIMBLK
  1
OPEN30
  9
$DIMASO
 70
     1
  9
$DIMSHO
 70
     1
  9
$DIMPOST
  1

  9
$DIMAPOST
  1
"
  9
$DIMALT
 70
     0
  9
$DIMALTD
 70
     2
  9
$DIMALTF
 40
0.0393701
  9
$DIMLFAC
 40
1.0
  9
$DIMTOFL
 70
     1
  9
$DIMTVP
 40
0.0
  9
$DIMTIX
 70
     0
  9
$DIMSOXD
 70
     0
  9
$DIMSAH
 70
     0
  9
$DIMBLK1
  1

  9
$DIMBLK2
  1

  9
$DIMSTYLE
  2
AM_JIS
  9
$DIMCLRD
 70
   256
  9
$DIMCLRE
 70
   256
  9
$DIMCLRT
 70
     2
  9
$DIMTFAC
 40
0.71
  9
$DIMGAP
 40
1.5
  9
$DIMJUST
 70
     0
  9
$DIMSD1
 70
     0
  9
$DIMSD2
 70
     0
  9
$DIMTOLJ
 70
     0
  9
$DIMTZIN
 70
     0
  9
$DIMALTZ
 70
     0
  9
$DIMALTTZ
 70
     0
  9
$DIMFIT
 70
     3
  9
$DIMUPT
 70
     0
  9
$DIMUNIT
 70
     2
  9
$DIMDEC
 70
     3
  9
$DIMTDEC
 70
     3
  9
$DIMALTU
 70
     2
  9
$DIMALTTD
 70
     2
  9
$DIMTXSTY
  7
ASAMI
  9
$DIMAUNIT
 70
     0
  9
$LUNITS
 70
     2
  9
$LUPREC
 70
     2
  9
$SKETCHINC
 40
1.0
  9
$FILLETRAD
 40
2.5
  9
$AUNITS
 70
     0
  9
$AUPREC
 70
     0
  9
$MENU
  1
.
  9
$ELEVATION
 40
0.0
  9
$PELEVATION
 40
0.0
  9
$THICKNESS
 40
0.0
  9
$LIMCHECK
 70
     0
  9
$BLIPMODE
 70
     0
  9
$CHAMFERA
 40
0.5
  9
$CHAMFERB
 40
0.5
  9
$CHAMFERC
 40
20.0
  9
$CHAMFERD
 40
0.0
  9
$SKPOLY
 70
     0
  9
$TDCREATE
 40
2452836.771637361
  9
$TDUPDATE
 40
2453152.362742720
  9
$TDINDWG
 40
0.3668211343
  9
$TDUSRTIMER
 40
0.3668211343
  9
$USRTIMER
 70
     1
  9
$ANGBASE
 50
0.0
  9
$ANGDIR
 70
     0
  9
$PDMODE
 70
     0
  9
$PDSIZE
 40
0.0
  9
$PLINEWID
 40
0.0
  9
$COORDS
 70
     1
  9
$SPLFRAME
 70
     0
  9
$SPLINETYPE
 70
     6
  9
$SPLINESEGS
 70
     8
  9
$ATTDIA
 70
     1
  9
$ATTREQ
 70
     1
  9
$HANDLING
 70
 12289
  9
$HANDSEED
  5
6C23
  9
$SURFTAB1
 70
     6
  9
$SURFTAB2
 70
     6
  9
$SURFTYPE
 70
     6
  9
$SURFU
 70
     6
  9
$SURFV
 70
     6
  9
$UCSNAME
  2

  9
$UCSORG
 10
0.0
 20
0.0
 30
0.0
  9
$UCSXDIR
 10
1.0
 20
0.0
 30
0.0
  9
$UCSYDIR
 10
0.0
 20
1.0
 30
0.0
  9
$PUCSNAME
  2

  9
$PUCSORG
 10
0.0
 20
0.0
 30
0.0
  9
$PUCSXDIR
 10
1.0
 20
0.0
 30
0.0
  9
$PUCSYDIR
 10
0.0
 20
1.0
 30
0.0
  9
$USERI1
 70
     0
  9
$USERI2
 70
     0
  9
$USERI3
 70
     0
  9
$USERI4
 70
     0
  9
$USERI5
 70
     0
  9
$USERR1
 40
0.0
  9
$USERR2
 40
0.0
  9
$USERR3
 40
0.0
  9
$USERR4
 40
0.0
  9
$USERR5
 40
0.0
  9
$WORLDVIEW
 70
     1
  9
$SHADEDGE
 70
     3
  9
$SHADEDIF
 70
    70
  9
$TILEMODE
 70
     1
  9
$MAXACTVP
 70
    64
  9
$PINSBASE
 10
0.0
 20
0.0
 30
0.0
  9
$PLIMCHECK
 70
     0
  9
$PEXTMIN
 10
1.000000000000000E+20
 20
1.000000000000000E+20
 30
1.000000000000000E+20
  9
$PEXTMAX
 10
-1.000000000000000E+20
 20
-1.000000000000000E+20
 30
-1.000000000000000E+20
  9
$PLIMMIN
 10
0.0
 20
0.0
  9
$PLIMMAX
 10
841.0
 20
594.0
  9
$UNITMODE
 70
     0
  9
$VISRETAIN
 70
     1
  9
$PLINEGEN
 70
     0
  9
$PSLTSCALE
 70
     0
  9
$TREEDEPTH
 70
  3020
  9
$PICKSTYLE
 70
     0
  9
$CMLSTYLE
  2
STANDARD
  9
$CMLJUST
 70
     0
  9
$CMLSCALE
 40
20.0
  9
$PROXYGRAPHICS
 70
     1
  9
$MEASUREMENT
 70
     1
  0
ENDSEC
  0
SECTION
  2
CLASSES
  0
CLASS
  1
ACDBDICTIONARYWDFLT
  2
AcDbDictionaryWithDefault
  3
AutoCAD 2000
 90
        0
280
     0
281
     0
  0
CLASS
  1
ACDBPLACEHOLDER
  2
AcDbPlaceHolder
  3
AutoCAD 2000
 90
        0
280
     0
281
     0
  0
CLASS
  1
LAYOUT
  2
AcDbLayout
  3
AutoCAD 2000
 90
        0
280
     0
281
     0
  0
CLASS
  1
AMGSETTINGSOBJ
  2
AmgSettingsObj
  3
"AcadM|Product Description: AutoCAD Mechanical 2000|Company: Autodesk"
 90
        0
280
     0
281
     0
  0
CLASS
  1
ACME_DOCUMENT
  2
AcMeDbDoc
  3
AcMeServices
 90
        0
280
     0
281
     0
  0
CLASS
  1
ACMESCOPE
  2
AcMeScope
  3
AcMeServices
 90
        0
280
     0
281
     0
  0
CLASS
  1
ACMECOMMANDHISTORY
  2
AcMeCommandHistory
  3
AcMeServices
 90
        0
280
     0
281
     0
  0
CLASS
  1
DICTIONARYVAR
  2
AcDbDictionaryVar
  3
AutoCAD 2000
 90
        0
280
     0
281
     0
  0
CLASS
  1
ACIMSYSVARMAN
  2
AcImSysVarManager
  3
AcMeServices
 90
        0
280
     0
281
     0
  0
CLASS
  1
ACIMREALSYSVAR
  2
AcImRealSysVar
  3
AcMeServices
 90
        0
280
     0
281
     0
  0
CLASS
  1
ACIMINTSYSVAR
  2
AcImIntSysVar
  3
AcMeServices
 90
        0
280
     0
281
     0
  0
CLASS
  1
ACMEDRAWINGMAN
  2
AcMeDrawingMan
  3
AcMeServices
 90
        0
280
     0
281
     0
  0
CLASS
  1
ACMEVIEW
  2
AcMeView
  3
AcMeServices
 90
        0
280
     0
281
     0
  0
CLASS
  1
ACDBENTITYCACHE
  2
AcMeEntityCache
  3
AcMeServices
 90
        0
280
     0
281
     0
  0
CLASS
  1
GSMANAGER
  2
AcMeGSManager
  3
AcMeServices
 90
        0
280
     0
281
     0
  0
CLASS
  1
AmdtInternalReactor
  2
AmdtInternalReactor
  3
AcMeServices
 90
        0
280
     0
281
     0
  0
CLASS
  1
ACMESTATEMGR
  2
AcMeStateMgr
  3
AcMeServices
 90
        0
280
     0
281
     0
  0
CLASS
  1
ACME_DATABASE
  2
AcMeDbDatabase
  3
AcMeServices
 90
        0
280
     0
281
     0
  0
CLASS
  1
ACRFINSADJUSTERMGR
  2
AcRfInsAdjusterMgr
  3
AcMeServices
 90
        0
280
     0
281
     0
  0
CLASS
  1
ACMDATADICTIONARY
  2
AcmDataDictionary
  3
"AcmSymBB|Product Description: AutoCAD Mechanical 2000|Company: Autodesk"
 90
        0
280
     0
281
     0
  0
CLASS
  1
ACMDATAENTRYBLOCK
  2
AcmDataEntryBlock
  3
"AcmSymBB|Product Description: AutoCAD Mechanical 2000|Company: Autodesk"
 90
        0
280
     0
281
     0
  0
CLASS
  1
AMGOBJPROPCFG
  2
AmgObjPropCfg
  3
"AmgLay|Product Description: AutoCAD Mechanical 2000|Company: Autodesk"
 90
        1
280
     0
281
     0
  0
CLASS
  1
ACAMGFILTERDAT
  2
AcAmgFilterDat
  3
"AcadM|Product Description: AutoCAD Mechanical 2000|Company: Autodesk"
 90
        0
280
     0
281
     0
  0
CLASS
  1
LAYER_INDEX
  2
AcDbLayerIndex
  3
AutoCAD 2000
 90
        0
280
     0
281
     0
  0
CLASS
  1
IDBUFFER
  2
AcDbIdBuffer
  3
AutoCAD 2000
 90
        0
280
     0
281
     0
  0
CLASS
  1
ACIMSTRSYSVAR
  2
AcImStrSysVar
  3
AcMeServices
 90
        0
280
     0
281
     0
  0
CLASS
  1
ACMSTANDARDJIS
  2
AcmStandardJIS
  3
"AcmSymBB|Product Description: AutoCAD Mechanical 2000|Company: Autodesk"
 90
        0
280
     0
281
     0
  0
CLASS
  1
ACMSURFSTANDARDJIS
  2
AcmSurfTextStdJIS
  3
"AcmSymBB|Product Description: AutoCAD Mechanical 2000|Company: Autodesk"
 90
        0
280
     0
281
     0
  0
CLASS
  1
ACMFCFSTANDARDJIS
  2
AcmFCFStdJIS
  3
"AcmSymBB|Product Description: AutoCAD Mechanical 2000|Company: Autodesk"
 90
        0
280
     0
281
     0
  0
CLASS
  1
ACMWELDSTANDARDJIS
  2
AcmWeldingStdJIS
  3
"AcmSymBB|Product Description: AutoCAD Mechanical 2000|Company: Autodesk"
 90
        0
280
     0
281
     0
  0
CLASS
  1
ACMIDSTANDARDJIS
  2
AcmIdStdJIS
  3
"AcmSymBB|Product Description: AutoCAD Mechanical 2000|Company: Autodesk"
 90
        0
280
     0
281
     0
  0
CLASS
  1
ACMDATUMSTANDARDJIS
  2
AcmDatumStdJIS
  3
"AcmSymBB|Product Description: AutoCAD Mechanical 2000|Company: Autodesk"
 90
        0
280
     0
281
     0
  0
CLASS
  1
ACMBOMSTANDARDJIS
  2
AcmBOMStdJIS
  3
"AcmSymBB|Product Description: AutoCAD Mechanical 2000|Company: Autodesk"
 90
        0
280
     0
281
     0
  0
CLASS
  1
ACMSTANDARDANSI
  2
AcmStandardANSI
  3
"AcmSymBB|Product Description: AutoCAD Mechanical 2000|Company: Autodesk"
 90
        0
280
     0
281
     0
  0
CLASS
  1
ACMSURFSTANDARDANSI
  2
AcmSurfTextStdANSI
  3
"AcmSymBB|Product Description: AutoCAD Mechanical 2000|Company: Autodesk"
 90
        0
280
     0
281
     0
  0
CLASS
  1
ACMFCFSTANDARDANSI
  2
AcmFCFStdANSI
  3
"AcmSymBB|Product Description: AutoCAD Mechanical 2000|Company: Autodesk"
 90
        0
280
     0
281
     0
  0
CLASS
  1
ACMWELDSTANDARDANSI
  2
AcmWeldingStdANSI
  3
"AcmSymBB|Product Description: AutoCAD Mechanical 2000|Company: Autodesk"
 90
        0
280
     0
281
     0
  0
CLASS
  1
ACMIDSTANDARDANSI
  2
AcmIdStdANSI
  3
"AcmSymBB|Product Description: AutoCAD Mechanical 2000|Company: Autodesk"
 90
        0
280
     0
281
     0
  0
CLASS
  1
ACMDATUMSTANDARDANSI
  2
AcmDatumStdANSI
  3
"AcmSymBB|Product Description: AutoCAD Mechanical 2000|Company: Autodesk"
 90
        0
280
     0
281
     0
  0
CLASS
  1
ACMBOMSTANDARDANSI
  2
AcmBOMStdANSI
  3
"AcmSymBB|Product Description: AutoCAD Mechanical 2000|Company: Autodesk"
 90
        0
280
     0
281
     0
  0
CLASS
  1
ACMSTANDARDBSI
  2
AcmStandardBSI
  3
"AcmSymBB|Product Description: AutoCAD Mechanical 2000|Company: Autodesk"
 90
        0
280
     0
281
     0
  0
CLASS
  1
ACMSURFSTANDARDBSI
  2
AcmSurfTextStdBSI
  3
"AcmSymBB|Product Description: AutoCAD Mechanical 2000|Company: Autodesk"
 90
        0
280
     0
281
     0
  0
CLASS
  1
ACMFCFSTANDARDBSI
  2
AcmFCFStdBSI
  3
"AcmSymBB|Product Description: AutoCAD Mechanical 2000|Company: Autodesk"
 90
        0
280
     0
281
     0
  0
CLASS
  1
ACMWELDSTANDARDBSI
  2
AcmWeldingStdBSI
  3
"AcmSymBB|Product Description: AutoCAD Mechanical 2000|Company: Autodesk"
 90
        0
280
     0
281
     0
  0
CLASS
  1
ACMIDSTANDARDBSI
  2
AcmIdStdBSI
  3
"AcmSymBB|Product Description: AutoCAD Mechanical 2000|Company: Autodesk"
 90
        0
280
     0
281
     0
  0
CLASS
  1
ACMDATUMSTANDARDBSI
  2
AcmDatumStdBSI
  3
"AcmSymBB|Product Description: AutoCAD Mechanical 2000|Company: Autodesk"
 90
        0
280
     0
281
     0
  0
CLASS
  1
ACMBOMSTANDARDBSI
  2
AcmBOMStdBSI
  3
"AcmSymBB|Product Description: AutoCAD Mechanical 2000|Company: Autodesk"
 90
        0
280
     0
281
     0
  0
CLASS
  1
LONG_TRANSACTION
  2
AcDbLongTransaction
  3
AutoCAD 2000
 90
        0
280
     0
281
     0
  0
CLASS
  1
LWPOLYLINE
  2
AcDbPolyline
  3
AutoCAD 2000
 90
        0
280
     0
281
     1
  0
CLASS
  1
HATCH
  2
AcDbHatch
  3
AutoCAD 2000
 90
        0
280
     0
281
     1
  0
CLASS
  1
XRECORD
  2
AcDbXrecord
  3
AutoCAD 2000
 90
        0
280
     0
281
     0
  0
ENDSEC
  0
SECTION
  2
TABLES
  0
TABLE
  2
VPORT
  5
8
330
0
100
AcDbSymbolTable
 70
     3
  0
VPORT
  5
6B91
330
8
100
AcDbSymbolTableRecord
100
AcDbViewportTableRecord
  2
*ACTIVE
 70
     0
 10
0.0
 20
0.0
 11
1.0
 21
1.0
 12
-6.621501194746798
 22
-34.10184373652201
 13
0.0
 23
0.0
 14
2.5
 24
2.5
 15
10.0
 25
10.0
 16
0.0
 26
0.0
 36
1.0
 17
0.0
 27
0.0
 37
0.0
 40
155.6514477299063
 41
1.56570841889117
 42
50.0
 43
0.0
 44
0.0
 50
0.0
 51
0.0
 71
     0
 72
   100
 73
     1
 74
     3
 75
     0
 76
     0
 77
     0
 78
     0
  0
ENDTAB
  0
TABLE
  2
LTYPE
  5
5
330
0
100
AcDbSymbolTable
 70
    10
  0
LTYPE
  5
14
330
5
100
AcDbSymbolTableRecord
100
AcDbLinetypeTableRecord
  2
BYBLOCK
 70
     0
  3

 72
    65
 73
     0
 40
0.0
  0
LTYPE
  5
15
330
5
100
AcDbSymbolTableRecord
100
AcDbLinetypeTableRecord
  2
BYLAYER
 70
     0
  3

 72
    65
 73
     0
 40
0.0
  0
LTYPE
  5
16
330
5
100
AcDbSymbolTableRecord
100
AcDbLinetypeTableRecord
  2
CONTINUOUS
 70
     0
  3
Solid line
 72
    65
 73
     0
 40
0.0
  0
LTYPE
  5
4B
330
5
100
AcDbSymbolTableRecord
100
AcDbLinetypeTableRecord
  2
AM_ISO02W050
 70
     0
  3
__ __ __ __ __ __ __ __ __ __ __ __ __ __ __
 72
    65
 73
     2
 40
7.5
 49
6.0
 74
     0
 49
-1.5
 74
     0
  0
LTYPE
  5
4C
330
5
100
AcDbSymbolTableRecord
100
AcDbLinetypeTableRecord
  2
AM_ISO08W050
 70
     0
  3
____ . ____ . ____ . ____ . ____ . ____ . ____
 72
    65
 73
     4
 40
18.0
 49
12.0
 74
     0
 49
-1.5
 74
     0
 49
3.0
 74
     0
 49
-1.5
 74
     0
  0
LTYPE
  5
4D
330
5
100
AcDbSymbolTableRecord
100
AcDbLinetypeTableRecord
  2
AM_ISO09W050
 70
     0
  3
_____ . . _____ . . _____ . . ____ .. ____
 72
    65
 73
     6
 40
22.5
 49
12.0
 74
     0
 49
-1.5
 74
     0
 49
3.0
 74
     0
 49
-1.5
 74
     0
 49
3.0
 74
     0
 49
-1.5
 74
     0
  0
LTYPE
  5
4E
330
5
100
AcDbSymbolTableRecord
100
AcDbLinetypeTableRecord
  2
AMCONSTR
 70
     0
  3
_______________________
 72
    65
 73
     2
 40
9999.0
 49
9999.0
 74
     0
 49
0.0
 74
     0
  0
LTYPE
  5
4F
330
5
100
AcDbSymbolTableRecord
100
AcDbLinetypeTableRecord
  2
AM_ISO02W050X2
 70
     0
  3
 _ _ _ _ _ _ _ _ _ _ _ _
 72
    65
 73
     2
 40
3.75
 49
3.0
 74
     0
 49
-0.75
 74
     0
  0
LTYPE
  5
50
330
5
100
AcDbSymbolTableRecord
100
AcDbLinetypeTableRecord
  2
AM_ISO08W050X2
 70
     0
  3
__ . __ . __ . __ . __ . __
 72
    65
 73
     4
 40
9.0
 49
6.0
 74
     0
 49
-0.75
 74
     0
 49
1.5
 74
     0
 49
-0.75
 74
     0
  0
LTYPE
  5
53
330
5
100
AcDbSymbolTableRecord
100
AcDbLinetypeTableRecord
  2
AMZIGZAG
 70
     0
  3
/\/-/\/-/\/-/\/-/\/-/\/
 72
    65
 73
     2
 40
11.00009999999999
 49
0.0001
 74
     4
 75
   135
340
52
 46
0.04
 50
0.0
 44
0.0
 45
0.0
 49
-11.0
 74
     0
  0
LTYPE
  5
166
330
5
100
AcDbSymbolTableRecord
100
AcDbLinetypeTableRecord
  2
ACJISTGL
 70
     0
  3
_ _ _ _ _
 72
    65
 73
     2
 40
3.0
 49
2.0
 74
     0
 49
-1.0
 74
     0
  0
LTYPE
  5
26A
330
5
100
AcDbSymbolTableRecord
100
AcDbLinetypeTableRecord
  2
ACJISTGB
 70
     0
  3
__ . . __ . .
 72
    65
 73
     6
 40
9.0
 49
4.0
 74
     0
 49
-1.0
 74
     0
 49
1.0
 74
     0
 49
-1.0
 74
     0
 49
1.0
 74
     0
 49
-1.0
 74
     0
  0
ENDTAB
  0
TABLE
  2
LAYER
  5
2
330
0
100
AcDbSymbolTable
 70
     7
  0
LAYER
  5
10
330
2
100
AcDbSymbolTableRecord
100
AcDbLayerTableRecord
  2
0
 70
     0
 62
     7
  6
CONTINUOUS
  0
LAYER
  5
BD4
330
2
100
AcDbSymbolTableRecord
100
AcDbLayerTableRecord
  2
AM_11
 70
     0
 62
     3
  6
AM_ISO09W050
  0
LAYER
  5
BD5
330
2
100
AcDbSymbolTableRecord
100
AcDbLayerTableRecord
  2
AM_7
 70
     0
 62
     4
  6
AM_ISO08W050
  0
LAYER
  5
BD6
330
2
100
AcDbSymbolTableRecord
100
AcDbLayerTableRecord
  2
AM_5
 70
     0
 62
     3
  6
CONTINUOUS
  0
LAYER
  5
BD7
330
2
100
AcDbSymbolTableRecord
100
AcDbLayerTableRecord
  2
DEFPOINTS
 70
     0
 62
     7
  6
CONTINUOUS
  0
LAYER
  5
E59
330
2
100
AcDbSymbolTableRecord
100
AcDbLayerTableRecord
  2
AM_6
 70
     0
 62
     2
  6
CONTINUOUS
  0
LAYER
  5
4062
330
2
100
AcDbSymbolTableRecord
100
AcDbLayerTableRecord
  2
AM_0
 70
     0
 62
     7
  6
CONTINUOUS
  0
ENDTAB
  0
TABLE
  2
STYLE
  5
3
330
0
100
AcDbSymbolTable
 70
     5
  0
STYLE
  5
11
330
3
100
AcDbSymbolTableRecord
100
AcDbTextStyleTableRecord
  2
STANDARD
 70
     0
 40
0.0
 41
1.0
 50
0.0
 71
     0
 42
2.5
  3
simplex.shx
  4
EXTFONT.SHX
  0
STYLE
  5
52
330
3
100
AcDbSymbolTableRecord
100
AcDbTextStyleTableRecord
  2

 70
     1
 40
0.0
 41
1.0
 50
0.0
 71
     0
 42
2.5
  3
ltypeshp.shx
  4

  0
STYLE
  5
6B
330
3
100
AcDbSymbolTableRecord
100
AcDbTextStyleTableRecord
  2
ASAMI
 70
     0
 40
0.0
 41
1.0
 50
0.0
 71
     0
 42
2.5
  3
simplex.shx
  4
EXTFONT.SHX
  0
STYLE
  5
262
330
3
100
AcDbSymbolTableRecord
100
AcDbTextStyleTableRecord
  2
ACJISTS
 70
     0
 40
1.0
 41
1.0
 50
0.0
 71
     0
 42
2.5
  3
simplex.shx
  4
bigfont.shx
  0
STYLE
  5
269
330
3
100
AcDbSymbolTableRecord
100
AcDbTextStyleTableRecord
  2
ACJISGDT
 70
     0
 40
0.0
 41
1.0
 50
0.0
 71
     0
 42
2.5
  3
amgdtans.shx
  4

  0
ENDTAB
  0
TABLE
  2
VIEW
  5
6
330
0
100
AcDbSymbolTable
 70
     0
  0
ENDTAB
  0
TABLE
  2
UCS
  5
7
330
0
100
AcDbSymbolTable
 70
     0
  0
ENDTAB
  0
TABLE
  2
APPID
  5
9
330
0
100
AcDbSymbolTable
 70
    12
  0
APPID
  5
12
330
9
100
AcDbSymbolTableRecord
100
AcDbRegAppTableRecord
  2
ACAD
 70
     0
  0
APPID
  5
30
330
9
100
AcDbSymbolTableRecord
100
AcDbRegAppTableRecord
  2
MCAD_NO_VIS
 70
     0
  0
APPID
  5
31
330
9
100
AcDbSymbolTableRecord
100
AcDbRegAppTableRecord
  2
ACAD_TEMP_GRAPHIC
 70
     0
  0
APPID
  5
2C2
330
9
100
AcDbSymbolTableRecord
100
AcDbRegAppTableRecord
  2
GENIUS_GENDTOL_13
 70
     0
  0
APPID
  5
339
330
9
100
AcDbSymbolTableRecord
100
AcDbRegAppTableRecord
  2
GENIUS_GENODEF_13
 70
     0
  0
APPID
  5
33A
330
9
100
AcDbSymbolTableRecord
100
AcDbRegAppTableRecord
  2
GENIUS_GENOBJ-N-RSBK_13
 70
     0
  0
APPID
  5
33B
330
9
100
AcDbSymbolTableRecord
100
AcDbRegAppTableRecord
  2
GENIUS_GENOBJ-N-LIB_13
 70
     0
  0
APPID
  5
33C
330
9
100
AcDbSymbolTableRecord
100
AcDbRegAppTableRecord
  2
GENIUS_GENSCALE_13
 70
     0
  0
APPID
  5
378
330
9
100
AcDbSymbolTableRecord
100
AcDbRegAppTableRecord
  2
GENIUS_GENDIMSH_14
 70
     0
  0
APPID
  5
BD8
330
9
100
AcDbSymbolTableRecord
100
AcDbRegAppTableRecord
  2
GENIUS_GENOBJ-N-CEN_13
 70
     0
  0
APPID
  5
BD9
330
9
100
AcDbSymbolTableRecord
100
AcDbRegAppTableRecord
  2
GENIUS_GENFIL_13
 70
     0
  0
APPID
  5
BDA
330
9
100
AcDbSymbolTableRecord
100
AcDbRegAppTableRecord
  2
GENIUS_GENOBJ-N-CHA_13
 70
     0
  0
ENDTAB
  0
TABLE
  2
DIMSTYLE
  5
A
330
0
100
AcDbSymbolTable
 70
     9
  0
DIMSTYLE
105
58
330
A
100
AcDbSymbolTableRecord
100
AcDbDimStyleTableRecord
  2
AM_JIS
 70
     0
  3

  4
"
  5
OPEN30
  6

  7

 40
1.0
 41
2.5
 42
1.0
 43
12.0
 44
1.0
 45
0.0
 46
0.0
 47
0.1
 48
0.1
140
3.2
141
0.0
142
0.0
143
0.0393701
144
1.0
145
0.0
146
0.71
147
1.5
 71
     0
 72
     0
 73
     0
 74
     0
 75
     0
 76
     0
 77
     3
 78
     8
170
     0
171
     2
172
     1
173
     0
174
     0
175
     0
176
   256
177
   256
178
     2
270
     2
271
     3
272
     3
273
     2
274
     2
340
6B
275
     0
280
     0
281
     0
282
     0
283
     0
284
     0
285
     0
286
     0
287
     3
288
     0
  0
DIMSTYLE
105
5F
330
A
100
AcDbSymbolTableRecord
100
AcDbDimStyleTableRecord
  2
AM_JIS$3
 70
     0
  3

  4
"
  5
OPEN30
  6

  7

 40
1.0
 41
2.5
 42
1.0
 43
10.0
 44
1.0
 45
0.0
 46
0.0
 47
0.1
 48
0.1
140
3.2
141
0.0
142
0.0
143
0.0393701
144
1.0
145
0.0
146
0.71
147
1.5
 71
     0
 72
     0
 73
     0
 74
     1
 75
     0
 76
     0
 77
     3
 78
     8
170
     0
171
     2
172
     0
173
     0
174
     0
175
     0
176
   256
177
   256
178
     2
270
     2
271
     2
272
     3
273
     2
274
     2
340
6B
275
     0
280
     0
281
     0
282
     0
283
     0
284
     0
285
     0
286
     0
287
     0
288
     1
  0
DIMSTYLE
105
60
330
A
100
AcDbSymbolTableRecord
100
AcDbDimStyleTableRecord
  2
AM_JIS$4
 70
     0
  3

  4
"
  5
OPEN30
  6

  7

 40
1.0
 41
2.5
 42
1.0
 43
10.0
 44
1.0
 45
0.0
 46
0.0
 47
0.1
 48
0.1
140
3.2
141
0.0
142
0.0
143
0.0393701
144
1.0
145
0.0
146
0.71
147
1.5
 71
     0
 72
     0
 73
     0
 74
     1
 75
     0
 76
     0
 77
     3
 78
     8
170
     0
171
     2
172
     0
173
     0
174
     0
175
     0
176
   256
177
   256
178
     2
270
     2
271
     2
272
     3
273
     2
274
     2
340
6B
275
     0
280
     0
281
     0
282
     0
283
     0
284
     0
285
     0
286
     0
287
     0
288
     1
  0
DIMSTYLE
105
61
330
A
100
AcDbSymbolTableRecord
100
AcDbDimStyleTableRecord
  2
AM_JIS$6
 70
     0
  3

  4
"
  5
OPEN30
  6

  7

 40
1.0
 41
2.5
 42
1.0
 43
10.0
 44
1.0
 45
0.0
 46
0.0
 47
0.1
 48
0.1
140
3.2
141
0.0
142
0.0
143
0.0393701
144
1.0
145
0.0
146
0.71
147
1.5
 71
     0
 72
     0
 73
     0
 74
     0
 75
     0
 76
     0
 77
     0
 78
     8
170
     0
171
     2
172
     1
173
     0
174
     0
175
     0
176
   256
177
   256
178
     2
270
     2
271
     2
272
     2
273
     2
274
     2
340
6B
275
     0
280
     0
281
     0
282
     0
283
     0
284
     0
285
     0
286
     0
287
     3
288
     0
  0
DIMSTYLE
105
62
330
A
100
AcDbSymbolTableRecord
100
AcDbDimStyleTableRecord
  2
AM_JIS$7
 70
     0
  3

  4
"
  5
OPEN30
  6

  7

 40
1.0
 41
2.5
 42
1.0
 43
10.0
 44
1.0
 45
0.0
 46
0.0
 47
0.1
 48
0.1
140
3.2
141
0.0
142
0.0
143
0.0393701
144
1.0
145
0.0
146
0.71
147
1.5
 71
     0
 72
     0
 73
     0
 74
     0
 75
     0
 76
     0
 77
     3
 78
     8
170
     0
171
     2
172
     1
173
     0
174
     0
175
     0
176
   256
177
   256
178
     2
270
     2
271
     2
272
     3
273
     2
274
     2
340
6B
275
     0
280
     0
281
     0
282
     0
283
     0
284
     0
285
     0
286
     0
287
     3
288
     0
  0
DIMSTYLE
105
63
330
A
100
AcDbSymbolTableRecord
100
AcDbDimStyleTableRecord
  2
AM_JIS$SF
 70
     0
  3

  4
"
  5
OPEN30
  6

  7

 40
1.0
 41
2.5
 42
1.0
 43
10.0
 44
1.0
 45
0.0
 46
0.0
 47
0.1
 48
0.1
140
3.2
141
0.0
142
0.0
143
0.0393701
144
1.0
145
0.0
146
0.71
147
1.5
 71
     0
 72
     0
 73
     0
 74
     0
 75
     1
 76
     1
 77
     3
 78
     8
170
     0
171
     2
172
     1
173
     0
174
     0
175
     0
176
   256
177
   256
178
     2
270
     2
271
     2
272
     2
273
     2
274
     2
340
6B
275
     0
280
     0
281
     0
282
     0
283
     0
284
     0
285
     0
286
     0
287
     3
288
     0
  0
DIMSTYLE
105
68
330
A
100
AcDbSymbolTableRecord
100
AcDbDimStyleTableRecord
  2
AM_JIS$SH
 70
     0
  3

  4
"
  5

  6
GENAXEH
  7
OPEN30
 40
1.0
 41
2.5
 42
1.0
 43
10.0
 44
1.0
 45
0.0
 46
0.0
 47
0.1
 48
0.1
140
3.2
141
0.0
142
0.0
143
0.0393701
144
2.0
145
0.0
146
0.71
147
1.5
 71
     0
 72
     0
 73
     0
 74
     0
 75
     1
 76
     1
 77
     3
 78
     8
170
     0
171
     2
172
     1
173
     1
174
     0
175
     0
176
   256
177
   256
178
     2
270
     2
271
     2
272
     2
273
     2
274
     2
340
6B
275
     0
280
     0
281
     0
282
     0
283
     0
284
     0
285
     0
286
     0
287
     3
288
     0
  0
DIMSTYLE
105
B34
330
A
100
AcDbSymbolTableRecord
100
AcDbDimStyleTableRecord
  2
AM_JIS$2
 70
     0
  3

  4
"
  5
OPEN30
  6

  7

 40
1.0
 41
2.5
 42
1.0
 43
12.0
 44
1.0
 45
0.0
 46
0.0
 47
0.1
 48
0.1
140
3.2
141
0.0
142
0.0
143
0.0393701
144
1.0
145
0.0
146
0.71
147
1.5
 71
     0
 72
     0
 73
     0
 74
     0
 75
     0
 76
     0
 77
     3
 78
     8
170
     0
171
     2
172
     1
173
     0
174
     0
175
     0
176
   256
177
   256
178
     2
270
     2
271
     3
272
     3
273
     2
274
     2
340
6B
275
     0
280
     0
281
     0
282
     0
283
     0
284
     0
285
     0
286
     0
287
     3
288
     0
  0
DIMSTYLE
105
1AB6
102
{ACAD_REACTORS
330
5887
330
59A1
330
5A3B
330
5A3A
330
5C5C
330
5DA6
330
591B
330
60F2
330
66D1
330
686E
330
69F4
102
}
330
A
100
AcDbSymbolTableRecord
100
AcDbDimStyleTableRecord
  2
AM_JIS$0
 70
     0
  3

  4
"
  5
OPEN30
  6

  7

 40
1.0
 41
2.5
 42
0.0
 43
10.0
 44
1.0
 45
0.0
 46
0.0
 47
0.1
 48
0.1000000001
140
3.799999999999999
141
0.0
142
0.0
143
0.0393701
144
1.0
145
0.0
146
0.71
147
1.5
 71
     0
 72
     0
 73
     0
 74
     0
 75
     0
 76
     0
 77
     3
 78
     1
170
     0
171
     2
172
     1
173
     0
174
     0
175
     0
176
     3
177
     3
178
     2
270
     2
271
     2
272
     2
273
     2
274
     2
340
11
275
     1
280
     0
281
     0
282
     0
283
     0
284
     8
285
     0
286
     0
287
     0
288
     0
  0
ENDTAB
  0
TABLE
  2
BLOCK_RECORD
  5
1
330
0
100
AcDbSymbolTable
 70
    18
  0
BLOCK_RECORD
  5
1F
102
{ACAD_XDICTIONARY
360
74
102
}
330
1
100
AcDbSymbolTableRecord
100
AcDbBlockTableRecord
  2
*MODEL_SPACE
  0
BLOCK_RECORD
  5
101
102
{ACAD_XDICTIONARY
360
6BBA
102
}
330
1
100
AcDbSymbolTableRecord
100
AcDbBlockTableRecord
  2
*PAPER_SPACE
  0
BLOCK_RECORD
  5
59
330
1
100
AcDbSymbolTableRecord
100
AcDbBlockTableRecord
  2
_OPEN30
  0
BLOCK_RECORD
  5
64
330
1
100
AcDbSymbolTableRecord
100
AcDbBlockTableRecord
  2
GENAXEH
  0
BLOCK_RECORD
  5
58A0
330
1
100
AcDbSymbolTableRecord
100
AcDbBlockTableRecord
  2
*D5
  0
BLOCK_RECORD
  5
592B
330
1
100
AcDbSymbolTableRecord
100
AcDbBlockTableRecord
  2
*D6
  0
BLOCK_RECORD
  5
59A2
330
1
100
AcDbSymbolTableRecord
100
AcDbBlockTableRecord
  2
*D8
  0
BLOCK_RECORD
  5
5A3C
330
1
100
AcDbSymbolTableRecord
100
AcDbBlockTableRecord
  2
*D9
  0
BLOCK_RECORD
  5
5A48
330
1
100
AcDbSymbolTableRecord
100
AcDbBlockTableRecord
  2
*D10
  0
BLOCK_RECORD
  5
5C5D
330
1
100
AcDbSymbolTableRecord
100
AcDbBlockTableRecord
  2
*D11
  0
BLOCK_RECORD
  5
5DA7
330
1
100
AcDbSymbolTableRecord
100
AcDbBlockTableRecord
  2
*D12
  0
BLOCK_RECORD
  5
60F3
330
1
100
AcDbSymbolTableRecord
100
AcDbBlockTableRecord
  2
*D13
  0
BLOCK_RECORD
  5
66D2
330
1
100
AcDbSymbolTableRecord
100
AcDbBlockTableRecord
  2
*D14
  0
BLOCK_RECORD
  5
686F
330
1
100
AcDbSymbolTableRecord
100
AcDbBlockTableRecord
  2
*D15
  0
BLOCK_RECORD
  5
69F5
330
1
100
AcDbSymbolTableRecord
100
AcDbBlockTableRecord
  2
*D16
  0
ENDTAB
  0
ENDSEC
  0
SECTION
  2
BLOCKS
  0
BLOCK
  5
20
330
1F
100
AcDbEntity
  8
0
100
AcDbBlockBegin
  2
*MODEL_SPACE
 70
     0
 10
0.0
 20
0.0
 30
0.0
  3
*MODEL_SPACE
  1

  0
ENDBLK
  5
21
330
1F
100
AcDbEntity
  8
0
100
AcDbBlockEnd
  0
BLOCK
  5
103
330
101
100
AcDbEntity
 67
     1
  8
0
100
AcDbBlockBegin
  2
*PAPER_SPACE
 70
     0
 10
0.0
 20
0.0
 30
0.0
  3
*PAPER_SPACE
  1

  0
ENDBLK
  5
104
330
101
100
AcDbEntity
 67
     1
  8
0
100
AcDbBlockEnd
  0
BLOCK
  5
5D
330
59
100
AcDbEntity
  8
0
100
AcDbBlockBegin
  2
_OPEN30
 70
     0
 10
0.0
 20
0.0
 30
0.0
  3
_OPEN30
  1

  0
LINE
  5
5A
330
59
100
AcDbEntity
  8
0
 62
     0
100
AcDbLine
 10
-1.0
 20
0.26794919
 30
0.0
 11
0.0
 21
0.0
 31
0.0
  0
LINE
  5
5B
330
59
100
AcDbEntity
  8
0
 62
     0
100
AcDbLine
 10
0.0
 20
0.0
 30
0.0
 11
-1.0
 21
-0.26794919
 31
0.0
  0
LINE
  5
5C
330
59
100
AcDbEntity
  8
0
 62
     0
100
AcDbLine
 10
0.0
 20
0.0
 30
0.0
 11
-1.0
 21
0.0
 31
0.0
  0
ENDBLK
  5
5E
330
59
100
AcDbEntity
  8
0
100
AcDbBlockEnd
  0
BLOCK
  5
66
330
64
100
AcDbEntity
  8
0
100
AcDbBlockBegin
  2
GENAXEH
 70
     0
 10
0.0
 20
0.0
 30
0.0
  3
GENAXEH
  1

  0
LINE
  5
65
330
64
100
AcDbEntity
  8
0
100
AcDbLine
 10
-1.0
 20
0.0
 30
0.0
 11
1.0
 21
0.0
 31
0.0
  0
ENDBLK
  5
67
330
64
100
AcDbEntity
  8
0
100
AcDbBlockEnd
  0
BLOCK
  5
58AA
330
58A0
100
AcDbEntity
  8
0
100
AcDbBlockBegin
  2
*D5
 70
     1
 10
0.0
 20
0.0
 30
0.0
  3
*D5
  1

  0
LINE
  5
6BBC
330
58A0
100
AcDbEntity
  8
AM_5
100
AcDbLine
 10
-39.99961853027292
 20
10.99999237060498
 30
0.0
 11
-69.45711754418306
 21
10.99999237060499
 31
0.0
  0
LINE
  5
6BBD
330
58A0
100
AcDbEntity
  8
AM_5
100
AcDbLine
 10
-39.99961853027292
 20
-11.00000762939998
 30
0.0
 11
-69.45711754418306
 21
-11.00000762939997
 31
0.0
  0
LINE
  5
6BBE
330
58A0
100
AcDbEntity
  8
AM_5
100
AcDbLine
 10
-68.45711754418307
 20
8.499992370604994
 30
0.0
 11
-68.45711754418307
 21
-8.500007629399979
 31
0.0
  0
INSERT
  5
6BBF
330
58A0
100
AcDbEntity
  8
AM_5
100
AcDbBlockReference
  2
_OPEN30
 10
-68.45711754418307
 20
10.99999237060499
 30
0.0
 41
2.5
 42
2.5
 43
2.5
 50
90.0
  0
INSERT
  5
6BC0
330
58A0
100
AcDbEntity
  8
AM_5
100
AcDbBlockReference
  2
_OPEN30
 10
-68.45711754418307
 20
-11.00000762939997
 30
0.0
 41
2.5
 42
2.5
 43
2.5
 50
270.0
  0
MTEXT
  5
6BC1
330
58A0
100
AcDbEntity
  8
AM_5
 62
     2
100
AcDbMText
 10
-71.55711754418305
 20
-0.0000076293975039
 30
0.0
 40
3.2
 41
0.0
 71
     5
 72
     1
  1
%%c22
  7
ASAMI
 11
0.0000000000000001
 21
1.0
 31
0.0
  0
POINT
  5
6BC2
330
58A0
100
AcDbEntity
  8
DEFPOINTS
 62
     0
100
AcDbPoint
 10
-38.99961853027292
 20
10.99999237060498
 30
0.0
  0
POINT
  5
6BC3
330
58A0
100
AcDbEntity
  8
DEFPOINTS
 62
     0
100
AcDbPoint
 10
-38.99961853027292
 20
-11.00000762939998
 30
0.0
  0
POINT
  5
6BC4
330
58A0
100
AcDbEntity
  8
DEFPOINTS
 62
     0
100
AcDbPoint
 10
-68.45711754418307
 20
-11.00000762939997
 30
0.0
  0
ENDBLK
  5
58AB
330
58A0
100
AcDbEntity
  8
0
100
AcDbBlockEnd
  0
BLOCK
  5
5935
330
592B
100
AcDbEntity
  8
0
100
AcDbBlockBegin
  2
*D6
 70
     1
 10
0.0
 20
0.0
 30
0.0
  3
*D6
  1

  0
LINE
  5
6BC5
330
592B
100
AcDbEntity
  8
AM_5
100
AcDbLine
 10
-40.0
 20
-25.00001517136704
 30
0.0
 11
-40.0
 21
-56.50000894727193
 31
0.0
  0
LINE
  5
6BC6
330
592B
100
AcDbEntity
  8
AM_5
100
AcDbLine
 10
-20.0
 20
-12.49999237060998
 30
0.0
 11
-20.0
 21
-56.50000894727193
 31
0.0
  0
LINE
  5
6BC7
330
592B
100
AcDbEntity
  8
AM_5
100
AcDbLine
 10
-37.5
 20
-55.50000894727193
 30
0.0
 11
-22.5
 21
-55.50000894727193
 31
0.0
  0
INSERT
  5
6BC8
330
592B
100
AcDbEntity
  8
AM_5
100
AcDbBlockReference
  2
_OPEN30
 10
-40.0
 20
-55.50000894727193
 30
0.0
 41
2.5
 42
2.5
 43
2.5
 50
180.0
  0
INSERT
  5
6BC9
330
592B
100
AcDbEntity
  8
AM_5
100
AcDbBlockReference
  2
_OPEN30
 10
-20.0
 20
-55.50000894727193
 30
0.0
 41
2.5
 42
2.5
 43
2.5
  0
MTEXT
  5
6BCA
330
592B
100
AcDbEntity
  8
AM_5
 62
     2
100
AcDbMText
 10
-30.0
 20
-52.40000894727192
 30
0.0
 40
3.2
 41
0.0
 71
     5
 72
     1
  1
20
  7
ASAMI
  0
POINT
  5
6BCB
330
592B
100
AcDbEntity
  8
DEFPOINTS
 62
     0
100
AcDbPoint
 10
-40.0
 20
-24.00001517136704
 30
0.0
  0
POINT
  5
6BCC
330
592B
100
AcDbEntity
  8
DEFPOINTS
 62
     0
100
AcDbPoint
 10
-20.0
 20
-11.49999237060998
 30
0.0
  0
POINT
  5
6BCD
330
592B
100
AcDbEntity
  8
DEFPOINTS
 62
     0
100
AcDbPoint
 10
-20.0
 20
-55.50000894727193
 30
0.0
  0
ENDBLK
  5
5936
330
592B
100
AcDbEntity
  8
0
100
AcDbBlockEnd
  0
BLOCK
  5
59AC
330
59A2
100
AcDbEntity
  8
0
100
AcDbBlockBegin
  2
*D8
 70
     1
 10
0.0
 20
0.0
 30
0.0
  3
*D8
  1

  0
LINE
  5
6BCE
330
59A2
100
AcDbEntity
  8
AM_5
100
AcDbLine
 10
-40.0
 20
-25.00001517136704
 30
0.0
 11
-40.0
 21
-66.50000215236859
 31
0.0
  0
LINE
  5
6BCF
330
59A2
100
AcDbEntity
  8
AM_5
100
AcDbLine
 10
-5.799999999999997
 20
-16.75213290818704
 30
0.0
 11
-5.799999999999999
 21
-66.50000215236859
 31
0.0
  0
LINE
  5
6BD0
330
59A2
100
AcDbEntity
  8
AM_5
100
AcDbLine
 10
-37.5
 20
-65.5000021523686
 30
0.0
 11
-8.3
 21
-65.5000021523686
 31
0.0
  0
INSERT
  5
6BD1
330
59A2
100
AcDbEntity
  8
AM_5
100
AcDbBlockReference
  2
_OPEN30
 10
-40.0
 20
-65.5000021523686
 30
0.0
 41
2.5
 42
2.5
 43
2.5
 50
180.0
  0
INSERT
  5
6BD2
330
59A2
100
AcDbEntity
  8
AM_5
100
AcDbBlockReference
  2
_OPEN30
 10
-5.799999999999999
 20
-65.5000021523686
 30
0.0
 41
2.5
 42
2.5
 43
2.5
  0
MTEXT
  5
6BD3
330
59A2
100
AcDbEntity
  8
AM_5
 62
     2
100
AcDbMText
 10
-22.9
 20
-62.40000215236859
 30
0.0
 40
3.2
 41
0.0
 71
     5
 72
     1
  1
34.2
  7
ASAMI
  0
POINT
  5
6BD4
330
59A2
100
AcDbEntity
  8
DEFPOINTS
 62
     0
100
AcDbPoint
 10
-40.0
 20
-24.00001517136704
 30
0.0
  0
POINT
  5
6BD5
330
59A2
100
AcDbEntity
  8
DEFPOINTS
 62
     0
100
AcDbPoint
 10
-5.799999999999997
 20
-15.75213290818704
 30
0.0
  0
POINT
  5
6BD6
330
59A2
100
AcDbEntity
  8
DEFPOINTS
 62
     0
100
AcDbPoint
 10
-5.799999999999999
 20
-65.5000021523686
 30
0.0
  0
ENDBLK
  5
59AD
330
59A2
100
AcDbEntity
  8
0
100
AcDbBlockEnd
  0
BLOCK
  5
5A46
330
5A3C
100
AcDbEntity
  8
0
100
AcDbBlockBegin
  2
*D9
 70
     1
 10
0.0
 20
0.0
 30
0.0
  3
*D9
  1

  0
LINE
  5
6BE0
330
5A3C
100
AcDbEntity
  8
AM_5
100
AcDbLine
 10
-6.799999324482769
 20
9.0
 30
0.0
 11
27.94156120873547
 21
8.999999999999991
 31
0.0
  0
LINE
  5
6BE1
330
5A3C
100
AcDbEntity
  8
AM_5
100
AcDbLine
 10
-6.799999324482768
 20
-9.000000000000001
 30
0.0
 11
27.94156120873546
 21
-9.00000000000001
 31
0.0
  0
LINE
  5
6BE2
330
5A3C
100
AcDbEntity
  8
AM_5
100
AcDbLine
 10
26.94156120873547
 20
6.49999999999999
 30
0.0
 11
26.94156120873547
 21
-6.500000000000011
 31
0.0
  0
INSERT
  5
6BE3
330
5A3C
100
AcDbEntity
  8
AM_5
100
AcDbBlockReference
  2
_OPEN30
 10
26.94156120873547
 20
8.999999999999991
 30
0.0
 41
2.5
 42
2.5
 43
2.5
 50
90.0
  0
INSERT
  5
6BE4
330
5A3C
100
AcDbEntity
  8
AM_5
100
AcDbBlockReference
  2
_OPEN30
 10
26.94156120873546
 20
-9.00000000000001
 30
0.0
 41
2.5
 42
2.5
 43
2.5
 50
270.0
  0
MTEXT
  5
6BE5
330
5A3C
100
AcDbEntity
  8
AM_5
 62
     2
100
AcDbMText
 10
23.84156120873546
 20
-0.0000000000000057
 30
0.0
 40
3.2
 41
0.0
 71
     5
 72
     1
  1
%%c18
  7
ASAMI
 11
0.0000000000000001
 21
1.0
 31
0.0
  0
POINT
  5
6BE6
330
5A3C
100
AcDbEntity
  8
DEFPOINTS
 62
     0
100
AcDbPoint
 10
-7.799999324482769
 20
9.0
 30
0.0
  0
POINT
  5
6BE7
330
5A3C
100
AcDbEntity
  8
DEFPOINTS
 62
     0
100
AcDbPoint
 10
-7.799999324482768
 20
-9.000000000000001
 30
0.0
  0
POINT
  5
6BE8
330
5A3C
100
AcDbEntity
  8
DEFPOINTS
 62
     0
100
AcDbPoint
 10
26.94156120873546
 20
-9.00000000000001
 30
0.0
  0
ENDBLK
  5
5A47
330
5A3C
100
AcDbEntity
  8
0
100
AcDbBlockEnd
  0
BLOCK
  5
5A52
330
5A48
100
AcDbEntity
  8
0
100
AcDbBlockBegin
  2
*D10
 70
     1
 10
0.0
 20
0.0
 30
0.0
  3
*D10
  1

  0
LINE
  5
6BD7
330
5A48
100
AcDbEntity
  8
AM_5
100
AcDbLine
 10
1.0
 20
31.5
 30
0.0
 11
37.94156120873548
 21
31.49999999999999
 31
0.0
  0
LINE
  5
6BD8
330
5A48
100
AcDbEntity
  8
AM_5
100
AcDbLine
 10
1.000000000000056
 20
-31.5
 30
0.0
 11
37.94156120873547
 21
-31.50000000000001
 31
0.0
  0
LINE
  5
6BD9
330
5A48
100
AcDbEntity
  8
AM_5
100
AcDbLine
 10
36.94156120873548
 20
28.99999999999998
 30
0.0
 11
36.94156120873547
 21
-29.00000000000001
 31
0.0
  0
INSERT
  5
6BDA
330
5A48
100
AcDbEntity
  8
AM_5
100
AcDbBlockReference
  2
_OPEN30
 10
36.94156120873548
 20
31.49999999999999
 30
0.0
 41
2.5
 42
2.5
 43
2.5
 50
90.0
  0
INSERT
  5
6BDB
330
5A48
100
AcDbEntity
  8
AM_5
100
AcDbBlockReference
  2
_OPEN30
 10
36.94156120873547
 20
-31.50000000000001
 30
0.0
 41
2.5
 42
2.5
 43
2.5
 50
270.0
  0
MTEXT
  5
6BDC
330
5A48
100
AcDbEntity
  8
AM_5
 62
     2
100
AcDbMText
 10
33.84156120873548
 20
-0.0000000000000054
 30
0.0
 40
3.2
 41
0.0
 71
     5
 72
     1
  1
%%c63
  7
ASAMI
 11
0.0000000000000001
 21
1.0
 31
0.0
  0
POINT
  5
6BDD
330
5A48
100
AcDbEntity
  8
DEFPOINTS
 62
     0
100
AcDbPoint
 10
0.0
 20
31.5
 30
0.0
  0
POINT
  5
6BDE
330
5A48
100
AcDbEntity
  8
DEFPOINTS
 62
     0
100
AcDbPoint
 10
0.0000000000000568
 20
-31.5
 30
0.0
  0
POINT
  5
6BDF
330
5A48
100
AcDbEntity
  8
DEFPOINTS
 62
     0
100
AcDbPoint
 10
36.94156120873547
 20
-31.50000000000001
 30
0.0
  0
ENDBLK
  5
5A53
330
5A48
100
AcDbEntity
  8
0
100
AcDbBlockEnd
  0
BLOCK
  5
5C67
330
5C5D
100
AcDbEntity
  8
0
100
AcDbBlockBegin
  2
*D11
 70
     1
 10
0.0
 20
0.0
 30
0.0
  3
*D11
  1

  0
LINE
  5
6BE9
330
5C5D
100
AcDbEntity
  8
AM_5
100
AcDbLine
 10
-40.00285740119539
 20
24.99999999999997
 30
0.0
 11
-79.45711754418308
 21
24.99999999999998
 31
0.0
  0
LINE
  5
6BEA
330
5C5D
100
AcDbEntity
  8
AM_5
100
AcDbLine
 10
-39.99961845477577
 20
-25.00000000000003
 30
0.0
 11
-79.45711754418308
 21
-25.00000000000001
 31
0.0
  0
LINE
  5
6BEB
330
5C5D
100
AcDbEntity
  8
AM_5
100
AcDbLine
 10
-78.45711754418307
 20
22.49999999999998
 30
0.0
 11
-78.45711754418307
 21
-22.50000000000001
 31
0.0
  0
INSERT
  5
6BEC
330
5C5D
100
AcDbEntity
  8
AM_5
100
AcDbBlockReference
  2
_OPEN30
 10
-78.45711754418307
 20
24.99999999999998
 30
0.0
 41
2.5
 42
2.5
 43
2.5
 50
90.0
  0
INSERT
  5
6BED
330
5C5D
100
AcDbEntity
  8
AM_5
100
AcDbBlockReference
  2
_OPEN30
 10
-78.45711754418307
 20
-25.00000000000001
 30
0.0
 41
2.5
 42
2.5
 43
2.5
 50
270.0
  0
MTEXT
  5
6BEE
330
5C5D
100
AcDbEntity
  8
AM_5
 62
     2
100
AcDbMText
 10
-81.55711754418307
 20
-0.0000000000000268
 30
0.0
 40
3.2
 41
0.0
 71
     5
 72
     1
  1
%%c50
  7
ASAMI
 11
0.0000000000000001
 21
1.0
 31
0.0
  0
POINT
  5
6BEF
330
5C5D
100
AcDbEntity
  8
DEFPOINTS
 62
     0
100
AcDbPoint
 10
-39.0028574011954
 20
24.99999999999997
 30
0.0
  0
POINT
  5
6BF0
330
5C5D
100
AcDbEntity
  8
DEFPOINTS
 62
     0
100
AcDbPoint
 10
-38.99961845477577
 20
-25.00000000000003
 30
0.0
  0
POINT
  5
6BF1
330
5C5D
100
AcDbEntity
  8
DEFPOINTS
 62
     0
100
AcDbPoint
 10
-78.45711754418307
 20
-25.00000000000001
 30
0.0
  0
ENDBLK
  5
5C68
330
5C5D
100
AcDbEntity
  8
0
100
AcDbBlockEnd
  0
BLOCK
  5
5DB1
330
5DA7
100
AcDbEntity
  8
0
100
AcDbBlockBegin
  2
*D12
 70
     1
 10
0.0
 20
0.0
 30
0.0
  3
*D12
  1

  0
LINE
  5
6BF2
330
5DA7
100
AcDbEntity
  8
AM_5
100
AcDbLine
 10
-40.0
 20
-25.00001517136701
 30
0.0
 11
-40.0
 21
-76.50000100009201
 31
0.0
  0
LINE
  5
6BF3
330
5DA7
100
AcDbEntity
  8
AM_5
100
AcDbLine
 10
0.0000000000000568
 20
-32.49999999999997
 30
0.0
 11
0.0000000000000541
 21
-76.50000100009201
 31
0.0
  0
LINE
  5
6BF4
330
5DA7
100
AcDbEntity
  8
AM_5
100
AcDbLine
 10
-37.5
 20
-75.50000100009201
 30
0.0
 11
-2.499999999999945
 21
-75.50000100009201
 31
0.0
  0
INSERT
  5
6BF5
330
5DA7
100
AcDbEntity
  8
AM_5
100
AcDbBlockReference
  2
_OPEN30
 10
-40.0
 20
-75.50000100009201
 30
0.0
 41
2.5
 42
2.5
 43
2.5
 50
180.0
  0
INSERT
  5
6BF6
330
5DA7
100
AcDbEntity
  8
AM_5
100
AcDbBlockReference
  2
_OPEN30
 10
0.0000000000000541
 20
-75.50000100009201
 30
0.0
 41
2.5
 42
2.5
 43
2.5
  0
MTEXT
  5
6BF7
330
5DA7
100
AcDbEntity
  8
AM_5
 62
     2
100
AcDbMText
 10
-19.99999999999997
 20
-72.40000100009202
 30
0.0
 40
3.2
 41
0.0
 71
     5
 72
     1
  1
40
  7
ASAMI
  0
POINT
  5
6BF8
330
5DA7
100
AcDbEntity
  8
DEFPOINTS
 62
     0
100
AcDbPoint
 10
-40.0
 20
-24.00001517136701
 30
0.0
  0
POINT
  5
6BF9
330
5DA7
100
AcDbEntity
  8
DEFPOINTS
 62
     0
100
AcDbPoint
 10
0.0000000000000568
 20
-31.49999999999997
 30
0.0
  0
POINT
  5
6BFA
330
5DA7
100
AcDbEntity
  8
DEFPOINTS
 62
     0
100
AcDbPoint
 10
0.0000000000000541
 20
-75.50000100009201
 30
0.0
  0
ENDBLK
  5
5DB2
330
5DA7
100
AcDbEntity
  8
0
100
AcDbBlockEnd
  0
BLOCK
  5
60FF
330
60F3
100
AcDbEntity
  8
0
100
AcDbBlockBegin
  2
*D13
 70
     1
 10
0.0
 20
0.0
 30
0.0
  3
*D13
  1

  0
LINE
  5
6BFB
330
60F3
100
AcDbEntity
  8
AM_5
100
AcDbLine
 10
-40.0
 20
-25.00001517136704
 30
0.0
 11
-40.0
 21
-46.50000100000008
 31
0.0
  0
LINE
  5
6BFC
330
60F3
100
AcDbEntity
  8
AM_5
100
AcDbLine
 10
-33.69999999999999
 20
-6.199999999999988
 30
0.0
 11
-33.69999999999999
 21
-46.50000100000008
 31
0.0
  0
LINE
  5
6BFD
330
60F3
100
AcDbEntity
  8
AM_5
100
AcDbLine
 10
-42.5
 20
-45.50000100000008
 30
0.0
 11
-45.0
 21
-45.50000100000008
 31
0.0
  0
LINE
  5
6BFE
330
60F3
100
AcDbEntity
  8
AM_5
100
AcDbLine
 10
-31.19999999999999
 20
-45.50000100000008
 30
0.0
 11
-28.69999999999999
 21
-45.50000100000008
 31
0.0
  0
MTEXT
  5
6BFF
330
60F3
100
AcDbEntity
  8
AM_5
 62
     2
100
AcDbMText
 10
-28.79807606153031
 20
-42.70609354709731
 30
0.0
 40
3.2
 41
0.0
 71
     5
 72
     1
  1
6.3
  7
ASAMI
  0
LINE
  5
6C00
330
60F3
100
AcDbEntity
  8
AM_5
100
AcDbLine
 10
-40.0
 20
-45.50000100000008
 30
0.0
 11
-33.69999999999999
 21
-45.50000100000008
 31
0.0
  0
INSERT
  5
6C01
330
60F3
100
AcDbEntity
  8
AM_5
100
AcDbBlockReference
  2
_OPEN30
 10
-40.0
 20
-45.50000100000008
 30
0.0
 41
2.5
 42
2.5
 43
2.5
  0
INSERT
  5
6C02
330
60F3
100
AcDbEntity
  8
AM_5
100
AcDbBlockReference
  2
_OPEN30
 10
-33.69999999999999
 20
-45.50000100000008
 30
0.0
 41
2.5
 42
2.5
 43
2.5
 50
180.0
  0
POINT
  5
6C03
330
60F3
100
AcDbEntity
  8
DEFPOINTS
 62
     0
100
AcDbPoint
 10
-40.0
 20
-24.00001517136704
 30
0.0
  0
POINT
  5
6C04
330
60F3
100
AcDbEntity
  8
DEFPOINTS
 62
     0
100
AcDbPoint
 10
-33.69999999999999
 20
-5.199999999999988
 30
0.0
  0
POINT
  5
6C05
330
60F3
100
AcDbEntity
  8
DEFPOINTS
 62
     0
100
AcDbPoint
 10
-33.69999999999999
 20
-45.50000100000008
 30
0.0
  0
ENDBLK
  5
6100
330
60F3
100
AcDbEntity
  8
0
100
AcDbBlockEnd
  0
BLOCK
  5
66DD
330
66D2
100
AcDbEntity
  8
0
100
AcDbBlockBegin
  2
*D14
 70
     1
 10
0.0
 20
0.0
 30
0.0
  3
*D14
  1

  0
LINE
  5
6C06
330
66D2
100
AcDbEntity
  8
AM_5
100
AcDbLine
 10
-40.000015258789
 20
5.199992370605997
 30
0.0
 11
-59.45711754418306
 21
5.199992370606002
 31
0.0
  0
LINE
  5
6C07
330
66D2
100
AcDbEntity
  8
AM_5
100
AcDbLine
 10
-40.00000762939396
 20
-5.20000762939
 30
0.0
 11
-59.45711754418306
 21
-5.200007629389995
 31
0.0
  0
LINE
  5
6C08
330
66D2
100
AcDbEntity
  8
AM_5
100
AcDbLine
 10
-58.45711754418307
 20
2.699992370606002
 30
0.0
 11
-58.45711754418307
 21
-2.700007629389995
 31
0.0
  0
MTEXT
  5
6C09
330
66D2
100
AcDbEntity
  8
AM_5
 62
     2
100
AcDbMText
 10
-63.30711754418306
 20
-0.0000076293920058
 30
0.0
 40
3.2
 41
0.0
 71
     5
 72
     1
  1
10.4
  7
ASAMI
 11
0.0000000000000001
 21
1.0
 31
0.0
  0
INSERT
  5
6C0A
330
66D2
100
AcDbEntity
  8
AM_5
100
AcDbBlockReference
  2
_OPEN30
 10
-58.45711754418307
 20
5.199992370606002
 30
0.0
 41
2.5
 42
2.5
 43
2.5
 50
90.0
  0
INSERT
  5
6C0B
330
66D2
100
AcDbEntity
  8
AM_5
100
AcDbBlockReference
  2
_OPEN30
 10
-58.45711754418307
 20
-5.200007629389995
 30
0.0
 41
2.5
 42
2.5
 43
2.5
 50
270.0
  0
POINT
  5
6C0C
330
66D2
100
AcDbEntity
  8
DEFPOINTS
 62
     0
100
AcDbPoint
 10
-39.000015258789
 20
5.199992370605997
 30
0.0
  0
POINT
  5
6C0D
330
66D2
100
AcDbEntity
  8
DEFPOINTS
 62
     0
100
AcDbPoint
 10
-39.00000762939396
 20
-5.20000762939
 30
0.0
  0
POINT
  5
6C0E
330
66D2
100
AcDbEntity
  8
DEFPOINTS
 62
     0
100
AcDbPoint
 10
-58.45711754418307
 20
-5.200007629389995
 30
0.0
  0
ENDBLK
  5
66DE
330
66D2
100
AcDbEntity
  8
0
100
AcDbBlockEnd
  0
BLOCK
  5
6879
330
686F
100
AcDbEntity
  8
0
100
AcDbBlockBegin
  2
*D15
 70
     1
 10
0.0
 20
0.0
 30
0.0
  3
*D15
  1

  0
LINE
  5
6C0F
330
686F
100
AcDbEntity
  8
AM_5
100
AcDbLine
 10
-14.0
 20
5.5
 30
0.0
 11
17.94156120873546
 21
5.499999999999991
 31
0.0
  0
LINE
  5
6C10
330
686F
100
AcDbEntity
  8
AM_5
100
AcDbLine
 10
-13.99999999999999
 20
-5.5
 30
0.0
 11
17.94156120873546
 21
-5.500000000000008
 31
0.0
  0
LINE
  5
6C11
330
686F
100
AcDbEntity
  8
AM_5
100
AcDbLine
 10
16.94156120873546
 20
2.999999999999991
 30
0.0
 11
16.94156120873546
 21
-3.000000000000008
 31
0.0
  0
INSERT
  5
6C12
330
686F
100
AcDbEntity
  8
AM_5
100
AcDbBlockReference
  2
_OPEN30
 10
16.94156120873546
 20
5.499999999999991
 30
0.0
 41
2.5
 42
2.5
 43
2.5
 50
90.0
  0
INSERT
  5
6C13
330
686F
100
AcDbEntity
  8
AM_5
100
AcDbBlockReference
  2
_OPEN30
 10
16.94156120873546
 20
-5.500000000000008
 30
0.0
 41
2.5
 42
2.5
 43
2.5
 50
270.0
  0
MTEXT
  5
6C14
330
686F
100
AcDbEntity
  8
AM_5
 62
     2
100
AcDbMText
 10
13.84156120873546
 20
-0.000000000000006
 30
0.0
 40
3.2
 41
0.0
 71
     5
 72
     1
  1
%%c11
  7
ASAMI
 11
0.0000000000000001
 21
1.0
 31
0.0
  0
POINT
  5
6C15
330
686F
100
AcDbEntity
  8
DEFPOINTS
 62
     0
100
AcDbPoint
 10
-15.0
 20
5.5
 30
0.0
  0
POINT
  5
6C16
330
686F
100
AcDbEntity
  8
DEFPOINTS
 62
     0
100
AcDbPoint
 10
-14.99999999999999
 20
-5.5
 30
0.0
  0
POINT
  5
6C17
330
686F
100
AcDbEntity
  8
DEFPOINTS
 62
     0
100
AcDbPoint
 10
16.94156120873546
 20
-5.500000000000008
 30
0.0
  0
ENDBLK
  5
687A
330
686F
100
AcDbEntity
  8
0
100
AcDbBlockEnd
  0
BLOCK
  5
6A01
330
69F5
100
AcDbEntity
  8
0
100
AcDbBlockBegin
  2
*D16
 70
     1
 10
0.0
 20
0.0
 30
0.0
  3
*D16
  1

  0
LINE
  5
6C18
330
69F5
100
AcDbEntity
  8
AM_5
 62
     3
100
AcDbLine
 10
-20.0
 20
-11.49999237060998
 30
0.0
 11
-20.0
 21
-56.50000894727193
 31
0.0
  0
LINE
  5
6C19
330
69F5
100
AcDbEntity
  8
AM_5
 62
     3
100
AcDbLine
 10
-15.0
 20
-9.0
 30
0.0
 11
-15.0
 21
-56.50000894727193
 31
0.0
  0
LINE
  5
6C1A
330
69F5
100
AcDbEntity
  8
AM_5
 62
     3
100
AcDbLine
 10
-22.5
 20
-55.50000894727193
 30
0.0
 11
-25.0
 21
-55.50000894727193
 31
0.0
  0
LINE
  5
6C1B
330
69F5
100
AcDbEntity
  8
AM_5
 62
     3
100
AcDbLine
 10
-12.5
 20
-55.50000894727193
 30
0.0
 11
-10.0
 21
-55.50000894727193
 31
0.0
  0
MTEXT
  5
6C1C
330
69F5
100
AcDbEntity
  8
AM_5
 62
     2
100
AcDbMText
 10
-17.0478414876236
 20
-52.46002990219428
 30
0.0
 40
3.799999999999999
 41
0.0
 71
     5
 72
     1
  1
5
  0
LINE
  5
6C1D
330
69F5
100
AcDbEntity
  8
AM_5
 62
     3
100
AcDbLine
 10
-20.0
 20
-55.50000894727193
 30
0.0
 11
-15.0
 21
-55.50000894727193
 31
0.0
  0
INSERT
  5
6C1E
330
69F5
100
AcDbEntity
  8
AM_5
 62
     3
100
AcDbBlockReference
  2
_OPEN30
 10
-20.0
 20
-55.50000894727193
 30
0.0
 41
2.5
 42
2.5
 43
2.5
  0
INSERT
  5
6C1F
330
69F5
100
AcDbEntity
  8
AM_5
 62
     3
100
AcDbBlockReference
  2
_OPEN30
 10
-15.0
 20
-55.50000894727193
 30
0.0
 41
2.5
 42
2.5
 43
2.5
 50
180.0
  0
POINT
  5
6C20
330
69F5
100
AcDbEntity
  8
DEFPOINTS
 62
     0
100
AcDbPoint
 10
-20.0
 20
-11.49999237060998
 30
0.0
  0
POINT
  5
6C21
330
69F5
100
AcDbEntity
  8
DEFPOINTS
 62
     0
100
AcDbPoint
 10
-15.0
 20
-9.0
 30
0.0
  0
POINT
  5
6C22
330
69F5
100
AcDbEntity
  8
DEFPOINTS
 62
     0
100
AcDbPoint
 10
-15.0
 20
-55.50000894727193
 30
0.0
  0
ENDBLK
  5
6A02
330
69F5
100
AcDbEntity
  8
0
100
AcDbBlockEnd
  0
ENDSEC
  0
SECTION
  2
ENTITIES
  0
TEXT
  5
E5A
330
1F
100
AcDbEntity
  8
AM_6
100
AcDbText
 10
-43.09523809523804
 20
-107.9999930527272
 30
0.0
 40
5.0
  1
WRCF16063R
 72
     4
 11
-19.99999999999996
 21
-105.4999930527272
 31
0.0
100
AcDbText
  0
LINE
  5
580A
330
1F
100
AcDbEntity
  8
AM_0
  6
CONTINUOUS
 48
0.5
100
AcDbLine
 10
-32.90000152587896
 20
-11.0
 30
0.0
 11
-32.90000152587896
 21
11.0
 31
0.0
  0
LINE
  5
580D
330
1F
100
AcDbEntity
  8
AM_0
  6
CONTINUOUS
100
AcDbLine
 10
-0.9999999999999431
 20
-19.49448925279446
 30
0.0
 11
-0.9999999999999431
 21
19.49448394775401
 31
0.0
  0
LINE
  5
580E
330
1F
100
AcDbEntity
  8
AM_0
  6
CONTINUOUS
 48
0.5
100
AcDbLine
 10
-23.000171661377
 20
-11.49999237060998
 30
0.0
 11
-23.000171661377
 21
11.5
 31
0.0
  0
LINE
  5
5812
330
1F
100
AcDbEntity
  8
AM_0
  6
CONTINUOUS
 48
0.5
100
AcDbLine
 10
-40.0
 20
-11.99999237060998
 30
0.0
 11
-40.0
 21
-24.00001517136704
 31
0.0
  0
LINE
  5
5814
330
1F
100
AcDbEntity
  8
AM_0
  6
CONTINUOUS
 48
0.5
100
AcDbLine
 10
-39.00000762939396
 20
-5.20000762939
 30
0.0
 11
-39.00000762939396
 21
-11.00000762939998
 31
0.0
  0
LINE
  5
5815
330
1F
100
AcDbEntity
  8
AM_0
  6
CONTINUOUS
 48
0.5
100
AcDbLine
 10
-40.0
 20
-11.99999237060998
 30
0.0
 11
-40.0
 21
-6.199992370610004
 31
0.0
  0
ARC
  5
5816
330
1F
100
AcDbEntity
  8
AM_0
  6
CONTINUOUS
 48
0.5
100
AcDbCircle
 10
-7.799999237059978
 20
-11.0
 30
0.0
 40
2.0
100
AcDbArc
 50
0.0
 51
90.00000250447845
  0
ARC
  5
5817
330
1F
100
AcDbEntity
  8
AM_0
  6
CONTINUOUS
 48
0.5
100
AcDbCircle
 10
-39.00000594351502
 20
-11.99999644068299
 30
0.0
 40
0.9999940564940068
100
AcDbArc
 50
90.0000922686282
 51
179.999758149222
  0
LINE
  5
5818
330
1F
100
AcDbEntity
  8
AM_0
  6
CONTINUOUS
 48
0.5
100
AcDbLine
 10
-39.00000762939396
 20
-11.0
 30
0.0
 11
-23.000171661377
 21
-11.0
 31
0.0
  0
LINE
  5
5819
330
1F
100
AcDbEntity
  8
AM_0
  6
CONTINUOUS
 48
0.5
100
AcDbLine
 10
-15.0
 20
-9.0
 30
0.0
 11
-7.799999237059978
 21
-9.0
 31
0.0
  0
LINE
  5
581A
330
1F
100
AcDbEntity
  8
AM_0
  6
CONTINUOUS
 48
0.5
100
AcDbLine
 10
-23.000171661377
 20
-11.49999237060998
 30
0.0
 11
-20.0
 21
-11.49999237060998
 31
0.0
  0
LINE
  5
581C
330
1F
100
AcDbEntity
  8
AM_0
  6
CONTINUOUS
 48
0.5
100
AcDbLine
 10
-39.00000762939396
 20
-5.199999999999988
 30
0.0
 11
-40.0
 21
-6.199992370610004
 31
0.0
  0
LINE
  5
581D
330
1F
100
AcDbEntity
  8
AM_0
  6
CONTINUOUS
 48
0.5
100
AcDbLine
 10
-33.69999999999999
 20
-5.199999999999988
 30
0.0
 11
-39.000015258789
 21
-5.199999999999988
 31
0.0
  0
CIRCLE
  5
581E
330
1F
100
AcDbEntity
  8
AM_0
  6
CONTINUOUS
 48
0.5
100
AcDbCircle
 10
-7.999999999999943
 20
23.5
 30
0.0
 40
4.0
  0
LINE
  5
581F
330
1F
100
AcDbEntity
  8
AM_0
  6
CONTINUOUS
 48
0.5
100
AcDbLine
 10
0.0000000000000568
 20
21.90869903564498
 30
0.0
 11
-1.217929840087947
 21
18.96836090087901
 31
0.0
  0
LINE
  5
5820
330
1F
100
AcDbEntity
  8
AM_0
  6
CONTINUOUS
 48
0.5
100
AcDbLine
 10
-14.78207015991193
 20
18.96836090087901
 30
0.0
 11
-15.99999618530296
 21
21.90895080566397
 31
0.0
  0
LINE
  5
5821
330
1F
100
AcDbEntity
  8
AM_0
  6
CONTINUOUS
 48
0.5
100
AcDbLine
 10
-40.0
 20
14.18296813964798
 30
0.0
 11
-40.0
 21
24.00001525878897
 31
0.0
  0
ARC
  5
5822
330
1F
100
AcDbEntity
  8
AM_0
  6
CONTINUOUS
 48
0.5
100
AcDbCircle
 10
-7.799999237059978
 20
11.0
 30
0.0
 40
2.0
100
AcDbArc
 50
269.9999974955215
 51
0.0
  0
LINE
  5
5823
330
1F
100
AcDbEntity
  8
AM_0
  6
CONTINUOUS
 48
0.5
100
AcDbLine
 10
-39.00000762939396
 20
10.99999237060498
 30
0.0
 11
-39.00000762939396
 21
5.199992370605997
 31
0.0
  0
LINE
  5
5824
330
1F
100
AcDbEntity
  8
AM_0
  6
CONTINUOUS
 48
0.5
100
AcDbLine
 10
-40.0
 20
6.199984741210982
 30
0.0
 11
-40.0
 21
18.999809265137
 31
0.0
  0
LINE
  5
5825
330
1F
100
AcDbEntity
  8
AM_7
  6
AM_ISO08W050
100
AcDbLine
 10
-44.45712280273392
 20
0.0
 30
0.0
 11
2.941566467285042
 21
0.0
 31
0.0
  0
LINE
  5
5826
330
1F
100
AcDbEntity
  8
AM_7
  6
AM_ISO08W050
100
AcDbLine
 10
1.431415557861043
 20
0.0
 30
0.0
 11
-41.59320831298794
 21
0.0
 31
0.0
  0
LINE
  5
5828
330
1F
100
AcDbEntity
  8
AM_0
  6
CONTINUOUS
 48
0.5
100
AcDbLine
 10
-15.0
 20
9.0
 30
0.0
 11
-7.799999237059978
 21
9.0
 31
0.0
  0
LINE
  5
5829
330
1F
100
AcDbEntity
  8
AM_0
  6
CONTINUOUS
 48
0.5
100
AcDbLine
 10
-40.0
 20
6.199984741210982
 30
0.0
 11
-39.000015258789
 21
5.199992370605997
 31
0.0
  0
LINE
  5
582A
330
1F
100
AcDbEntity
  8
AM_0
  6
CONTINUOUS
 48
0.5
100
AcDbLine
 10
-33.69999999999999
 20
5.199999999999988
 30
0.0
 11
-39.00000762939396
 21
5.199999999999988
 31
0.0
  0
LINE
  5
582C
330
1F
100
AcDbEntity
  8
AM_0
  6
CONTINUOUS
 48
0.5
100
AcDbLine
 10
-3.468368530272925
 20
16.71792602539102
 30
0.0
 11
-6.408702850341967
 21
15.5
 31
0.0
  0
LINE
  5
582D
330
1F
100
AcDbEntity
  8
AM_0
  6
CONTINUOUS
 48
0.5
100
AcDbLine
 10
-9.591300964354957
 20
15.5
 30
0.0
 11
-12.53163909912092
 21
16.71792602539102
 31
0.0
  0
ARC
  5
582E
330
1F
100
AcDbEntity
  8
AM_0
  6
CONTINUOUS
 48
0.5
100
AcDbCircle
 10
-39.00000594351496
 20
11.99999644067796
 30
0.0
 40
0.999994056493945
100
AcDbArc
 50
180.0002418507763
 51
269.9999077313685
  0
LINE
  5
582F
330
1F
100
AcDbEntity
  8
AM_0
  6
CONTINUOUS
 48
0.5
100
AcDbLine
 10
-6.408702850341967
 20
15.5
 30
0.0
 11
-9.591300964354957
 21
15.5
 31
0.0
  0
LINE
  5
5830
330
1F
100
AcDbEntity
  8
AM_0
  6
CONTINUOUS
 48
0.5
100
AcDbLine
 10
-39.00000762939396
 20
11.0
 30
0.0
 11
-23.000171661377
 21
11.0
 31
0.0
  0
LINE
  5
5831
330
1F
100
AcDbEntity
  8
AM_0
  6
CONTINUOUS
 48
0.5
100
AcDbLine
 10
-23.000171661377
 20
11.5
 30
0.0
 11
-20.0
 21
11.5
 31
0.0
  0
LINE
  5
5832
330
1F
100
AcDbEntity
  8
AM_0
  6
CONTINUOUS
 48
0.5
100
AcDbLine
 10
-1.217929840087947
 20
18.96836090087901
 30
0.0
 11
-3.468364715575944
 21
16.71792602539102
 31
0.0
  0
LINE
  5
5833
330
1F
100
AcDbEntity
  8
AM_0
  6
CONTINUOUS
 48
0.5
100
AcDbLine
 10
-12.53163909912092
 20
16.71792602539102
 30
0.0
 11
-14.78207397460892
 21
18.96836090087901
 31
0.0
  0
LINE
  5
5834
330
1F
100
AcDbEntity
  8
AM_0
  6
CONTINUOUS
 48
0.5
100
AcDbLine
 10
-1.217929840087947
 20
28.03163146972702
 30
0.0
 11
0.0000000000000568
 21
25.09130096435601
 31
0.0
  0
LINE
  5
5835
330
1F
100
AcDbEntity
  8
AM_0
  6
CONTINUOUS
 48
0.5
100
AcDbLine
 10
-16.00000381469692
 20
25.09154510497998
 30
0.0
 11
-14.78207397460892
 21
28.031639099121
 31
0.0
  0
ARC
  5
5836
330
1F
100
AcDbEntity
  8
AM_0
  6
CONTINUOUS
 48
0.5
100
AcDbCircle
 10
-39.00000762939396
 20
24.00001525878897
 30
0.0
 40
0.9999899864197001
100
AcDbArc
 50
89.99999567428931
 51
180.0000050089585
  0
LINE
  5
5837
330
1F
100
AcDbEntity
  8
AM_0
  6
CONTINUOUS
 48
0.5
100
AcDbLine
 10
0.0000000000000568
 20
25.09130096435601
 30
0.0
 11
0.0000000000000568
 21
21.90869903564498
 31
0.0
  0
LINE
  5
5838
330
1F
100
AcDbEntity
  8
AM_0
  6
CONTINUOUS
 48
0.5
100
AcDbLine
 10
-15.99999999999994
 20
21.90895080566397
 30
0.0
 11
-15.99999999999994
 21
25.091552734375
 31
0.0
  0
LINE
  5
5839
330
1F
100
AcDbEntity
  8
AM_0
  6
CONTINUOUS
 48
0.5
100
AcDbLine
 10
-16.00038909912098
 20
25.0
 30
0.0
 11
-39.00000762939396
 21
25.0
 31
0.0
  0
LINE
  5
583A
330
1F
100
AcDbEntity
  8
AM_0
  6
CONTINUOUS
 48
0.5
100
AcDbLine
 10
-14.78207015991193
 20
28.031639099121
 30
0.0
 11
-12.53163909912092
 21
30.28207397461
 31
0.0
  0
LINE
  5
583B
330
1F
100
AcDbEntity
  8
AM_0
  6
CONTINUOUS
 48
0.5
100
AcDbLine
 10
-12.53163528442394
 20
30.28207397461
 30
0.0
 11
-9.591300964354957
 21
31.5
 31
0.0
  0
LINE
  5
583C
330
1F
100
AcDbEntity
  8
AM_0
  6
CONTINUOUS
 48
0.5
100
AcDbLine
 10
-9.591300964354957
 20
31.5
 30
0.0
 11
-6.408702850341967
 21
31.5
 31
0.0
  0
LINE
  5
583D
330
1F
100
AcDbEntity
  8
AM_0
  6
CONTINUOUS
 48
0.5
100
AcDbLine
 10
-3.468368530272925
 20
30.28207397461
 30
0.0
 11
-6.408702850341967
 21
31.5
 31
0.0
  0
LINE
  5
583E
330
1F
100
AcDbEntity
  8
AM_0
  6
CONTINUOUS
 48
0.5
100
AcDbLine
 10
-1.217929840087947
 20
28.03163146972702
 30
0.0
 11
-3.468368530272925
 21
30.28207397461
 31
0.0
  0
LINE
  5
5872
330
1F
100
AcDbEntity
  8
AM_0
  6
CONTINUOUS
 48
0.5
100
AcDbLine
 10
-16.00000381469692
 20
-25.09154510497998
 30
0.0
 11
-14.78207397460892
 21
-28.031639099121
 31
0.0
  0
LINE
  5
5873
330
1F
100
AcDbEntity
  8
AM_0
  6
CONTINUOUS
 48
0.5
100
AcDbLine
 10
-1.217929840087947
 20
-28.03163146972702
 30
0.0
 11
0.0000000000000568
 21
-25.09130096435601
 31
0.0
  0
CIRCLE
  5
5874
330
1F
100
AcDbEntity
  8
AM_0
  6
CONTINUOUS
 48
0.5
100
AcDbCircle
 10
-7.999999999999943
 20
-23.5
 30
0.0
 40
4.0
  0
LINE
  5
5875
330
1F
100
AcDbEntity
  8
AM_0
  6
CONTINUOUS
 48
0.5
100
AcDbLine
 10
-6.408702850341967
 20
-15.5
 30
0.0
 11
-9.591300964354957
 21
-15.5
 31
0.0
  0
LINE
  5
5876
330
1F
100
AcDbEntity
  8
AM_0
  6
CONTINUOUS
 48
0.5
100
AcDbLine
 10
-16.00038909912098
 20
-25.0
 30
0.0
 11
-39.00000762939396
 21
-25.0
 31
0.0
  0
ARC
  5
5877
330
1F
100
AcDbEntity
  8
AM_0
  6
CONTINUOUS
 48
0.5
100
AcDbCircle
 10
-39.00000594689515
 20
-24.00001119209727
 30
0.0
 40
0.9999940531127597
100
AcDbArc
 50
180.0002279967188
 51
269.9999079250402
  0
LINE
  5
5878
330
1F
100
AcDbEntity
  8
AM_0
  6
CONTINUOUS
 48
0.5
100
AcDbLine
 10
-12.53163909912092
 20
-16.71792602539102
 30
0.0
 11
-14.78207397460892
 21
-18.96836090087901
 31
0.0
  0
LINE
  5
5879
330
1F
100
AcDbEntity
  8
AM_0
  6
CONTINUOUS
 48
0.5
100
AcDbLine
 10
-9.591300964354957
 20
-15.5
 30
0.0
 11
-12.53163909912092
 21
-16.71792602539102
 31
0.0
  0
LINE
  5
587A
330
1F
100
AcDbEntity
  8
AM_0
  6
CONTINUOUS
 48
0.5
100
AcDbLine
 10
-14.78207015991193
 20
-18.96836090087901
 30
0.0
 11
-15.99999618530296
 21
-21.90869903564498
 31
0.0
  0
LINE
  5
587B
330
1F
100
AcDbEntity
  8
AM_0
  6
CONTINUOUS
 48
0.5
100
AcDbLine
 10
-15.99999999999994
 20
-21.90869903564498
 30
0.0
 11
-15.99999999999994
 21
-25.091552734375
 31
0.0
  0
LINE
  5
587C
330
1F
100
AcDbEntity
  8
AM_0
  6
CONTINUOUS
 48
0.5
100
AcDbLine
 10
-1.217929840087947
 20
-18.96836090087901
 30
0.0
 11
-3.468364715575944
 21
-16.71792602539102
 31
0.0
  0
LINE
  5
587D
330
1F
100
AcDbEntity
  8
AM_0
  6
CONTINUOUS
 48
0.5
100
AcDbLine
 10
-3.468368530272925
 20
-16.71792602539102
 30
0.0
 11
-6.408702850341967
 21
-15.5
 31
0.0
  0
LINE
  5
587E
330
1F
100
AcDbEntity
  8
AM_0
  6
CONTINUOUS
 48
0.5
100
AcDbLine
 10
0.0000000000000568
 20
-21.90869903564498
 30
0.0
 11
-1.217929840087947
 21
-18.96836090087901
 31
0.0
  0
LINE
  5
587F
330
1F
100
AcDbEntity
  8
AM_0
  6
CONTINUOUS
 48
0.5
100
AcDbLine
 10
0.0000000000000568
 20
-25.09130096435601
 30
0.0
 11
0.0000000000000568
 21
-21.90869903564498
 31
0.0
  0
LINE
  5
5880
330
1F
100
AcDbEntity
  8
AM_0
  6
CONTINUOUS
 48
0.5
100
AcDbLine
 10
-9.591300964354957
 20
-31.5
 30
0.0
 11
-6.408702850341967
 21
-31.5
 31
0.0
  0
LINE
  5
5881
330
1F
100
AcDbEntity
  8
AM_0
  6
CONTINUOUS
 48
0.5
100
AcDbLine
 10
-12.53163528442394
 20
-30.28207397461
 30
0.0
 11
-9.591300964354957
 21
-31.5
 31
0.0
  0
LINE
  5
5882
330
1F
100
AcDbEntity
  8
AM_0
  6
CONTINUOUS
 48
0.5
100
AcDbLine
 10
-14.78207015991193
 20
-28.031639099121
 30
0.0
 11
-12.53163909912092
 21
-30.28207397461
 31
0.0
  0
LINE
  5
5883
330
1F
100
AcDbEntity
  8
AM_0
  6
CONTINUOUS
 48
0.5
100
AcDbLine
 10
-1.217929840087947
 20
-28.03163146972702
 30
0.0
 11
-3.468368530272925
 21
-30.28207397461
 31
0.0
  0
LINE
  5
5884
330
1F
100
AcDbEntity
  8
AM_0
  6
CONTINUOUS
 48
0.5
100
AcDbLine
 10
-3.468368530272925
 20
-30.28207397461
 30
0.0
 11
-6.408702850341967
 21
-31.5
 31
0.0
  0
DIMENSION
  5
5887
330
1F
100
AcDbEntity
  8
AM_5
100
AcDbDimension
  2
*D5
 10
-68.45711754418307
 20
-11.00000762939997
 30
0.0
 11
-71.55711754418305
 21
-0.0000076293975039
 31
0.0
 70
    32
  1
%%c<>
  3
AM_JIS$0
100
AcDbAlignedDimension
 13
-38.99961853027292
 23
10.99999237060498
 33
0.0
 14
-38.99961853027292
 24
-11.00000762939998
 34
0.0
 50
270.0
100
AcDbRotatedDimension
1001
GENIUS_GENDTOL_13
1000

1000
h7
1000

1040
0.0
1001
ACAD
1000
DSTYLE
1002
{
1070
   287
1070
     5
1070
    42
1040
1.0
1070
    43
1040
12.0
1070
    48
1040
0.1
1070
    78
1070
     8
1070
   140
1040
3.2
1070
   176
1070
   256
1070
   177
1070
   256
1070
   271
1070
     3
1070
   272
1070
     3
1070
   275
1070
     0
1070
   279
1070
     2
1070
   284
1070
     0
1070
   289
1070
     3
1070
   340
1005
6B
1070
   371
1070
    -1
1070
   372
1070
    -1
1002
}
  0
DIMENSION
  5
591B
330
1F
100
AcDbEntity
  8
AM_5
100
AcDbDimension
  2
*D6
 10
-20.0
 20
-55.50000894727193
 30
0.0
 11
-30.0
 21
-52.40000894727192
 31
0.0
 70
    32
  1
<>
  3
AM_JIS$0
100
AcDbAlignedDimension
 13
-40.0
 23
-24.00001517136704
 33
0.0
 14
-20.0
 24
-11.49999237060998
 34
0.0
100
AcDbRotatedDimension
1001
GENIUS_GENDTOL_13
1000

1000
h7
1000

1040
0.0
1001
ACAD
1000
DSTYLE
1002
{
1070
   287
1070
     5
1070
    42
1040
1.0
1070
    43
1040
12.0
1070
    48
1040
0.1
1070
    78
1070
     8
1070
   140
1040
3.2
1070
   176
1070
   256
1070
   177
1070
   256
1070
   271
1070
     3
1070
   272
1070
     3
1070
   275
1070
     0
1070
   279
1070
     2
1070
   284
1070
     0
1070
   289
1070
     3
1070
   340
1005
6B
1070
   371
1070
    -1
1070
   372
1070
    -1
1002
}
  0
DIMENSION
  5
59A1
330
1F
100
AcDbEntity
  8
AM_5
100
AcDbDimension
  2
*D8
 10
-5.799999999999999
 20
-65.5000021523686
 30
0.0
 11
-22.9
 21
-62.40000215236859
 31
0.0
 70
    32
  1
<>
  3
AM_JIS$0
100
AcDbAlignedDimension
 13
-40.0
 23
-24.00001517136704
 33
0.0
 14
-5.799999999999997
 24
-15.75213290818704
 34
0.0
 50
0.0000113837598937
100
AcDbRotatedDimension
1001
GENIUS_GENDTOL_13
1000

1000
h7
1000

1040
0.0
1001
ACAD
1000
DSTYLE
1002
{
1070
   287
1070
     3
1070
    42
1040
1.0
1070
    43
1040
12.0
1070
    48
1040
0.1
1070
    78
1070
     8
1070
   140
1040
3.2
1070
   176
1070
   256
1070
   177
1070
   256
1070
   271
1070
     3
1070
   272
1070
     3
1070
   275
1070
     0
1070
   284
1070
     0
1070
   289
1070
     3
1070
   340
1005
6B
1070
   371
1070
    -1
1070
   372
1070
    -1
1002
}
  0
LINE
  5
5A38
330
1F
100
AcDbEntity
  8
AM_11
100
AcDbLine
 10
-6.408702850341967
 20
31.5
 30
0.0
 11
0.0
 21
31.5
 31
0.0
  0
LINE
  5
5A39
330
1F
100
AcDbEntity
  8
AM_11
100
AcDbLine
 10
0.0
 20
-31.49999999999997
 30
0.0
 11
0.0
 21
31.5
 31
0.0
  0
DIMENSION
  5
5A3A
330
1F
100
AcDbEntity
  8
AM_5
100
AcDbDimension
  2
*D10
 10
36.94156120873547
 20
-31.50000000000001
 30
0.0
 11
33.84156120873548
 21
-0.0000000000000054
 31
0.0
 70
    32
  1
%%c<>
  3
AM_JIS$0
100
AcDbAlignedDimension
 13
0.0
 23
31.5
 33
0.0
 14
0.0000000000000568
 24
-31.5
 34
0.0
 50
90.0
100
AcDbRotatedDimension
1001
GENIUS_GENDTOL_13
1000

1000
h7
1000

1040
0.0
1001
ACAD
1000
DSTYLE
1002
{
1070
   287
1070
     3
1070
    42
1040
1.0
1070
    43
1040
12.0
1070
    48
1040
0.1
1070
    78
1070
     8
1070
   140
1040
3.2
1070
   176
1070
   256
1070
   177
1070
   256
1070
   271
1070
     3
1070
   272
1070
     3
1070
   275
1070
     0
1070
   284
1070
     0
1070
   289
1070
     3
1070
   340
1005
6B
1070
   371
1070
    -1
1070
   372
1070
    -1
1002
}
  0
DIMENSION
  5
5A3B
330
1F
100
AcDbEntity
  8
AM_5
100
AcDbDimension
  2
*D9
 10
26.94156120873546
 20
-9.00000000000001
 30
0.0
 11
23.84156120873546
 21
-0.0000000000000057
 31
0.0
 70
    32
  1
%%c<>
  3
AM_JIS$0
100
AcDbAlignedDimension
 13
-7.799999324482769
 23
9.0
 33
0.0
 14
-7.799999324482768
 24
-9.000000000000001
 34
0.0
 50
90.0
100
AcDbRotatedDimension
1001
GENIUS_GENDTOL_13
1000

1000
h7
1000

1040
0.0
1001
ACAD
1000
DSTYLE
1002
{
1070
   287
1070
     3
1070
    42
1040
1.0
1070
    43
1040
12.0
1070
    48
1040
0.1
1070
    78
1070
     8
1070
   140
1040
3.2
1070
   176
1070
   256
1070
   177
1070
   256
1070
   271
1070
     3
1070
   272
1070
     3
1070
   275
1070
     0
1070
   284
1070
     0
1070
   289
1070
     3
1070
   340
1005
6B
1070
   371
1070
    -1
1070
   372
1070
    -1
1002
}
  0
LINE
  5
5A78
330
1F
100
AcDbEntity
  8
AM_11
100
AcDbLine
 10
-6.40870285034191
 20
-31.5
 30
0.0
 11
0.0000000000000568
 21
-31.5
 31
0.0
  0
DIMENSION
  5
5C5C
330
1F
100
AcDbEntity
  8
AM_5
100
AcDbDimension
  2
*D11
 10
-78.45711754418307
 20
-25.00000000000001
 30
0.0
 11
-81.55711754418307
 21
-0.0000000000000268
 31
0.0
 70
    32
  1
%%c<>
  3
AM_JIS$0
100
AcDbAlignedDimension
 13
-39.0028574011954
 23
24.99999999999997
 33
0.0
 14
-38.99961845477577
 24
-25.00000000000003
 34
0.0
 50
270.0
100
AcDbRotatedDimension
1001
GENIUS_GENDTOL_13
1000

1000
h7
1000

1040
0.0
1001
ACAD
1000
DSTYLE
1002
{
1070
   287
1070
     5
1070
    42
1040
1.0
1070
    43
1040
12.0
1070
    48
1040
0.1
1070
    78
1070
     8
1070
   140
1040
3.2
1070
   176
1070
   256
1070
   177
1070
   256
1070
   271
1070
     3
1070
   272
1070
     3
1070
   275
1070
     0
1070
   279
1070
     2
1070
   284
1070
     0
1070
   289
1070
     3
1070
   340
1005
6B
1070
   371
1070
    -1
1070
   372
1070
    -1
1002
}
  0
DIMENSION
  5
5DA6
330
1F
100
AcDbEntity
  8
AM_5
100
AcDbDimension
  2
*D12
 10
0.0000000000000541
 20
-75.50000100009201
 30
0.0
 11
-19.99999999999997
 21
-72.40000100009202
 31
0.0
 70
    32
  1
<>
  3
AM_JIS$0
100
AcDbAlignedDimension
 13
-40.0
 23
-24.00001517136701
 33
0.0
 14
0.0000000000000568
 24
-31.49999999999997
 34
0.0
 50
0.0000113836296182
100
AcDbRotatedDimension
1001
GENIUS_GENDTOL_13
1000

1000
h7
1000

1040
0.0
1001
ACAD
1000
DSTYLE
1002
{
1070
   287
1070
     3
1070
    42
1040
1.0
1070
    43
1040
12.0
1070
    48
1040
0.1
1070
    78
1070
     8
1070
   140
1040
3.2
1070
   176
1070
   256
1070
   177
1070
   256
1070
   271
1070
     3
1070
   272
1070
     3
1070
   275
1070
     0
1070
   284
1070
     0
1070
   289
1070
     3
1070
   340
1005
6B
1070
   371
1070
    -1
1070
   372
1070
    -1
1002
}
  0
DIMENSION
  5
60F2
330
1F
100
AcDbEntity
  8
AM_5
100
AcDbDimension
  2
*D13
 10
-33.69999999999999
 20
-45.50000100000008
 30
0.0
 11
-28.79807606153031
 21
-42.70609354709731
 31
0.0
 70
   160
  1
<>
  3
AM_JIS$0
100
AcDbAlignedDimension
 13
-40.0
 23
-24.00001517136704
 33
0.0
 14
-33.69999999999999
 24
-5.199999999999988
 34
0.0
100
AcDbRotatedDimension
1001
GENIUS_GENDTOL_13
1000

1000
h7
1000

1040
0.0
1001
ACAD
1000
DSTYLE
1002
{
1070
   287
1070
     5
1070
    42
1040
1.0
1070
    43
1040
12.0
1070
    48
1040
0.1
1070
    78
1070
     8
1070
   140
1040
3.2
1070
   176
1070
   256
1070
   177
1070
   256
1070
   271
1070
     3
1070
   272
1070
     3
1070
   275
1070
     0
1070
   279
1070
     2
1070
   284
1070
     0
1070
   289
1070
     3
1070
   340
1005
6B
1070
   371
1070
    -1
1070
   372
1070
    -1
1002
}
  0
LINE
  5
661F
330
1F
100
AcDbEntity
  8
AM_0
100
AcDbLine
 10
-33.7
 20
5.199999999999988
 30
0.0
 11
-33.7
 21
-5.199999999999988
 31
0.0
  0
LINE
  5
6649
330
1F
100
AcDbEntity
  8
AM_0
100
AcDbLine
 10
-20.0
 20
-11.49999237060998
 30
0.0
 11
-20.0
 21
11.5
 31
0.0
  0
LINE
  5
6664
330
1F
100
AcDbEntity
  8
AM_0
100
AcDbLine
 10
-15.0
 20
-9.0
 30
0.0
 11
-15.0
 21
9.0
 31
0.0
  0
LINE
  5
666C
330
1F
100
AcDbEntity
  8
AM_0
100
AcDbLine
 10
-5.799999999999997
 20
-15.75213290818704
 30
0.0
 11
-5.799999999999997
 21
15.75213290818704
 31
0.0
  0
DIMENSION
  5
66D1
330
1F
100
AcDbEntity
  8
AM_5
100
AcDbDimension
  2
*D14
 10
-58.45711754418307
 20
-5.200007629389995
 30
0.0
 11
-63.30711754418306
 21
-0.0000076293920058
 31
0.0
 70
    32
  1
<>
  3
AM_JIS$0
100
AcDbAlignedDimension
 13
-39.000015258789
 23
5.199992370605997
 33
0.0
 14
-39.00000762939396
 24
-5.20000762939
 34
0.0
 50
270.0
100
AcDbRotatedDimension
1001
GENIUS_GENDTOL_13
1000

1000
h7
1000

1040
0.0
1001
ACAD
1000
DSTYLE
1002
{
1070
   287
1070
     5
1070
    42
1040
1.0
1070
    43
1040
12.0
1070
    48
1040
0.1
1070
    78
1070
     8
1070
   140
1040
3.2
1070
   176
1070
   256
1070
   177
1070
   256
1070
   271
1070
     3
1070
   272
1070
     3
1070
   275
1070
     0
1070
   279
1070
     2
1070
   284
1070
     0
1070
   289
1070
     3
1070
   340
1005
6B
1070
   371
1070
    -1
1070
   372
1070
    -1
1002
}
  0
LINE
  5
6862
330
1F
100
AcDbEntity
  8
AM_0
  6
AM_ISO08W050
100
AcDbLine
 10
-15.0
 20
5.5
 30
0.0
 11
-20.0
 21
5.5
 31
0.0
  0
LINE
  5
6866
330
1F
100
AcDbEntity
  8
AM_0
  6
AM_ISO08W050
100
AcDbLine
 10
-15.0
 20
-5.5
 30
0.0
 11
-20.0
 21
-5.5
 31
0.0
  0
DIMENSION
  5
686E
330
1F
100
AcDbEntity
  8
AM_5
100
AcDbDimension
  2
*D15
 10
16.94156120873546
 20
-5.500000000000008
 30
0.0
 11
13.84156120873546
 21
-0.000000000000006
 31
0.0
 70
    32
  1
%%c<>
  3
AM_JIS$0
100
AcDbAlignedDimension
 13
-15.0
 23
5.5
 33
0.0
 14
-14.99999999999999
 24
-5.5
 34
0.0
 50
90.0
100
AcDbRotatedDimension
1001
GENIUS_GENDTOL_13
1000

1000
h7
1000

1040
0.0
1001
ACAD
1000
DSTYLE
1002
{
1070
   287
1070
     3
1070
    42
1040
1.0
1070
    43
1040
12.0
1070
    48
1040
0.1
1070
    78
1070
     8
1070
   140
1040
3.2
1070
   176
1070
   256
1070
   177
1070
   256
1070
   271
1070
     3
1070
   272
1070
     3
1070
   275
1070
     0
1070
   284
1070
     0
1070
   289
1070
     3
1070
   340
1005
6B
1070
   371
1070
    -1
1070
   372
1070
    -1
1002
}
  0
DIMENSION
  5
69F4
330
1F
100
AcDbEntity
  8
AM_5
100
AcDbDimension
  2
*D16
 10
-15.0
 20
-55.50000894727193
 30
0.0
 11
-17.0478414876236
 21
-52.46002990219428
 31
0.0
 70
   160
  1
<>
  3
AM_JIS$0
100
AcDbAlignedDimension
 13
-20.0
 23
-11.49999237060998
 33
0.0
 14
-15.0
 24
-9.0
 34
0.0
 50
0.0000000000001132
100
AcDbRotatedDimension
1001
GENIUS_GENDTOL_13
1000

1000
h7
1000

1040
0.0
1001
ACAD
1000
DSTYLE
1002
{
1070
   287
1070
     5
1070
   271
1070
     0
1070
   279
1070
     2
1002
}
  0
VIEWPORT
  5
110
330
101
100
AcDbEntity
 67
     1
  8
0
100
AcDbViewport
 10
420.5
 20
297.0
 30
0.0
 40
948.9782706766916
 41
628.452
 68
     1
 69
     1
1001
ACAD
1000
MVIEW
1002
{
1070
    16
1010
0.0
1020
0.0
1030
0.0
1010
0.0
1020
0.0
1030
1.0
1040
0.0
1040
628.452
1040
420.5
1040
297.0
1040
50.0
1040
0.0
1040
0.0
1070
     0
1070
   100
1070
     1
1070
     1
1070
     0
1070
     0
1070
     0
1070
     0
1040
0.0
1040
0.0
1040
0.0
1040
10.0
1040
10.0
1040
10.0
1040
10.0
1070
     0
1002
{
1002
}
1002
}
  0
ENDSEC
  0
SECTION
  2
OBJECTS
  0
DICTIONARY
  5
C
330
0
100
AcDbDictionary
  3
ACAD_GROUP
350
D
  3
ACAD_LAYOUT
350
1A
  3
ACAD_MLINESTYLE
350
17
  3
ACAD_PLOTSETTINGS
350
19
  3
ACAD_PLOTSTYLENAME
350
E
  3
ACDBVARIABLEDICTIONARY
350
34
  3
ACMDICTIONARY
350
43
  3
AMG
350
2B
  3
AMGSNAPSETTINGS
350
6E
  3
DWGPROPS
350
6B86
  3
ACDBHEADERROUNDTRIPXREC
350
6B92
  0
DICTIONARY
  5
74
330
1F
100
AcDbDictionary
280
     1
  3
ACAD_INDEX
360
6B88
  3
ACAD_LAYOUTSELFREF
360
6BB5
  0
DICTIONARY
  5
6BBA
330
101
100
AcDbDictionary
280
     1
  3
ACAD_LAYOUTSELFREF
360
6BBB
  0
DICTIONARY
  5
D
102
{ACAD_REACTORS
330
C
102
}
330
C
100
AcDbDictionary
  0
DICTIONARY
  5
1A
102
{ACAD_REACTORS
330
C
102
}
330
C
100
AcDbDictionary
  0
DICTIONARY
  5
17
102
{ACAD_REACTORS
330
C
102
}
330
C
100
AcDbDictionary
  3
STANDARD
350
18
  0
DICTIONARY
  5
19
102
{ACAD_REACTORS
330
C
102
}
330
C
100
AcDbDictionary
  0
ACDBDICTIONARYWDFLT
  5
E
102
{ACAD_REACTORS
330
C
102
}
330
C
100
AcDbDictionary
281
     1
  3
Normal
350
F
100
AcDbDictionaryWithDefault
340
F
  0
DICTIONARY
  5
34
102
{ACAD_REACTORS
330
C
102
}
330
C
100
AcDbDictionary
  3
INDEXCTL
350
35
  3
SORTENTS
350
B5E
  0
DICTIONARY
  5
43
102
{ACAD_REACTORS
330
C
102
}
330
C
100
AcDbDictionary
  3
ACMSTDDICTIONARY
350
260
  0
DICTIONARY
  5
2B
102
{ACAD_REACTORS
330
C
102
}
330
C
100
AcDbDictionary
  3
ACMGSETTINGS
350
2C
  0
DICTIONARY
  5
6E
102
{ACAD_REACTORS
330
C
102
}
330
C
100
AcDbDictionary
  0
XRECORD
  5
6B86
102
{ACAD_REACTORS
330
C
102
}
330
C
100
AcDbXrecord
  1
DWGPROPS COOKIE
  2

  3

  4

  6

  7

  8

  9

300
AmdtFileType=82
301
=
302
=
303
=
304
=
305
=
306
=
307
=
308
=
309
=
 40
0.3667694097222222
 41
2452836.771637361
 42
2453076.597405231
  1

 90
        1
  0
DICTIONARY
  5
6B92
102
{ACAD_REACTORS
330
C
102
}
330
C
100
AcDbDictionary
  3
TSTACKALIGN
350
6B93
  3
TSTACKSIZE
350
6B94
  3
HYPERLINKBASE
350
6B95
  3
STYLESHEET
350
6B96
  3
LAYOUTDICT
350
6B97
  3
PLOTSETDICT
350
6B98
  3
PLOTSTYLNAMDICT
350
6B99
  3
LWETCUNION
350
6B9A
  3
INSUNITS
350
6B9B
  3
CEPSNTYPE
350
6B9C
  3
FINGERPRINTGUID
350
6B9D
  3
VERSIONGUID
350
6B9E
  3
PSVPSCALE
350
6B9F
  3
DIMSTYLEDATA
350
6BA0
  3
PUCSORTHOREF
350
6BA1
  3
PUCSORTHOVIEW
350
6BA2
  3
PUCSBASE
350
6BA3
  3
PUCSORGTOP
350
6BA4
  3
PUCSORGBOTTOM
350
6BA5
  3
PUCSORGLEFT
350
6BA6
  3
PUCSORGRIGHT
350
6BA7
  3
PUCSORGFRONT
350
6BA8
  3
PUCSORGBACK
350
6BA9
  3
UCSORTHOREF
350
6BAA
  3
UCSORTHOVIEW
350
6BAB
  3
UCSBASE
350
6BAC
  3
UCSORGTOP
350
6BAD
  3
UCSORGBOTTOM
350
6BAE
  3
UCSORGLEFT
350
6BAF
  3
UCSORGRIGHT
350
6BB0
  3
UCSORGFRONT
350
6BB1
  3
UCSORGBACK
350
6BB2
  0
DICTIONARY
  5
6B88
102
{ACAD_REACTORS
330
74
102
}
330
74
100
AcDbDictionary
  3
*A1
350
6B89
  0
XRECORD
  5
6BB5
102
{ACAD_REACTORS
330
74
102
}
330
74
100
AcDbXrecord
340
1F
  0
XRECORD
  5
6BBB
102
{ACAD_REACTORS
330
6BBA
102
}
330
6BBA
100
AcDbXrecord
340
101
  0
MLINESTYLE
  5
18
102
{ACAD_REACTORS
330
17
102
}
330
17
100
AcDbMlineStyle
  2
STANDARD
 70
     0
  3

 62
   256
 51
90.0
 52
90.0
 71
     2
 49
0.5
 62
   256
  6
BYLAYER
 49
-0.5
 62
   256
  6
BYLAYER
  0
ACDBPLACEHOLDER
  5
F
102
{ACAD_REACTORS
330
E
102
}
330
E
100
AcDbPlaceHolder
280
     0
  0
DICTIONARYVAR
  5
35
102
{ACAD_REACTORS
330
34
102
}
330
34
100
DictionaryVariables
280
     0
  1
1
  0
DICTIONARYVAR
  5
B5E
102
{ACAD_REACTORS
330
34
102
}
330
34
100
DictionaryVariables
280
     0
  1
96
  0
DICTIONARY
  5
260
102
{ACAD_REACTORS
330
43
102
}
330
43
100
AcDbDictionary
  0
DICTIONARY
  5
2C
102
{ACAD_REACTORS
330
2B
102
}
330
2B
100
AcDbDictionary
  3
DWGSETTINGS
350
2D
  0
XRECORD
  5
6B93
102
{ACAD_REACTORS
330
6B92
102
}
330
6B92
100
AcDbXrecord
 90
        1
  0
XRECORD
  5
6B94
102
{ACAD_REACTORS
330
6B92
102
}
330
6B92
100
AcDbXrecord
 90
       70
  0
XRECORD
  5
6B95
102
{ACAD_REACTORS
330
6B92
102
}
330
6B92
100
AcDbXrecord
  1

  0
XRECORD
  5
6B96
102
{ACAD_REACTORS
330
6B92
102
}
330
6B92
100
AcDbXrecord
  1
ASAMI.ctb
  0
XRECORD
  5
6B97
102
{ACAD_REACTORS
330
6B92
102
}
330
6B92
100
AcDbXrecord
340
1A
  0
XRECORD
  5
6B98
102
{ACAD_REACTORS
330
6B92
102
}
330
6B92
100
AcDbXrecord
340
19
  0
XRECORD
  5
6B99
102
{ACAD_REACTORS
330
6B92
102
}
330
6B92
100
AcDbXrecord
340
E
  0
XRECORD
  5
6B9A
102
{ACAD_REACTORS
330
6B92
102
}
330
6B92
100
AcDbXrecord
 90
    10781
  0
XRECORD
  5
6B9B
102
{ACAD_REACTORS
330
6B92
102
}
330
6B92
100
AcDbXrecord
 90
        4
  0
XRECORD
  5
6B9C
102
{ACAD_REACTORS
330
6B92
102
}
330
6B92
100
AcDbXrecord
 90
        0
  0
XRECORD
  5
6B9D
102
{ACAD_REACTORS
330
6B92
102
}
330
6B92
100
AcDbXrecord
  1
{AFB28963-8C59-40AE-9337-C84526B81ACE}
  0
XRECORD
  5
6B9E
102
{ACAD_REACTORS
330
6B92
102
}
330
6B92
100
AcDbXrecord
  1
{39C221F6-E75A-4034-9C03-96746A38E8F0}
  0
XRECORD
  5
6B9F
102
{ACAD_REACTORS
330
6B92
102
}
330
6B92
100
AcDbXrecord
 40
0.0
  0
XRECORD
  5
6BA0
102
{ACAD_REACTORS
330
6B92
102
}
330
6B92
100
AcDbXrecord
1000
DSTYLE
1002
{
1070
    79
 70
     2
1070
   341
340
59
1070
   342
340
59
1070
   371
 70
    -1
1070
   372
 70
    -1
1002
}
  0
XRECORD
  5
6BA1
102
{ACAD_REACTORS
330
6B92
102
}
330
6B92
100
AcDbXrecord
340
0
  0
XRECORD
  5
6BA2
102
{ACAD_REACTORS
330
6B92
102
}
330
6B92
100
AcDbXrecord
 70
     0
  0
XRECORD
  5
6BA3
102
{ACAD_REACTORS
330
6B92
102
}
330
6B92
100
AcDbXrecord
340
0
  0
XRECORD
  5
6BA4
102
{ACAD_REACTORS
330
6B92
102
}
330
6B92
100
AcDbXrecord
 10
0.0
 20
0.0
 30
0.0
  0
XRECORD
  5
6BA5
102
{ACAD_REACTORS
330
6B92
102
}
330
6B92
100
AcDbXrecord
 10
0.0
 20
0.0
 30
0.0
  0
XRECORD
  5
6BA6
102
{ACAD_REACTORS
330
6B92
102
}
330
6B92
100
AcDbXrecord
 10
0.0
 20
0.0
 30
0.0
  0
XRECORD
  5
6BA7
102
{ACAD_REACTORS
330
6B92
102
}
330
6B92
100
AcDbXrecord
 10
0.0
 20
0.0
 30
0.0
  0
XRECORD
  5
6BA8
102
{ACAD_REACTORS
330
6B92
102
}
330
6B92
100
AcDbXrecord
 10
0.0
 20
0.0
 30
0.0
  0
XRECORD
  5
6BA9
102
{ACAD_REACTORS
330
6B92
102
}
330
6B92
100
AcDbXrecord
 10
0.0
 20
0.0
 30
0.0
  0
XRECORD
  5
6BAA
102
{ACAD_REACTORS
330
6B92
102
}
330
6B92
100
AcDbXrecord
340
0
  0
XRECORD
  5
6BAB
102
{ACAD_REACTORS
330
6B92
102
}
330
6B92
100
AcDbXrecord
 70
     0
  0
XRECORD
  5
6BAC
102
{ACAD_REACTORS
330
6B92
102
}
330
6B92
100
AcDbXrecord
340
0
  0
XRECORD
  5
6BAD
102
{ACAD_REACTORS
330
6B92
102
}
330
6B92
100
AcDbXrecord
 10
0.0
 20
0.0
 30
0.0
  0
XRECORD
  5
6BAE
102
{ACAD_REACTORS
330
6B92
102
}
330
6B92
100
AcDbXrecord
 10
0.0
 20
0.0
 30
0.0
  0
XRECORD
  5
6BAF
102
{ACAD_REACTORS
330
6B92
102
}
330
6B92
100
AcDbXrecord
 10
0.0
 20
0.0
 30
0.0
  0
XRECORD
  5
6BB0
102
{ACAD_REACTORS
330
6B92
102
}
330
6B92
100
AcDbXrecord
 10
0.0
 20
0.0
 30
0.0
  0
XRECORD
  5
6BB1
102
{ACAD_REACTORS
330
6B92
102
}
330
6B92
100
AcDbXrecord
 10
0.0
 20
0.0
 30
0.0
  0
XRECORD
  5
6BB2
102
{ACAD_REACTORS
330
6B92
102
}
330
6B92
100
AcDbXrecord
 10
0.0
 20
0.0
 30
0.0
  0
LAYER_INDEX
  5
6B89
102
{ACAD_REACTORS
330
6B88
102
}
330
6B88
100
AcDbIndex
 40
2453152.36274272
100
AcDbLayerIndex
  8
0
360
6B8A
 90
        0
  8
AM_11
360
6B8B
 90
        3
  8
AM_7
360
6B8C
 90
        2
  8
AM_5
360
6B8D
 90
       11
  8
Defpoints
360
6B8E
 90
        0
  8
AM_6
360
6B8F
 90
        1
  8
AM_0
360
6B90
 90
       67
  0
XRECORD
  5
2D
102
{ACAD_REACTORS
330
2C
102
}
330
2C
100
AcDbXrecord
  1
VERSION
140
15.0
  1
PRODUCT
  2
AutoCAD Mechanical 2000
  0
IDBUFFER
  5
6B8A
330
0
100
AcDbIdBuffer
  0
IDBUFFER
  5
6B8B
330
0
100
AcDbIdBuffer
330
5A38
330
5A39
330
5A78
  0
IDBUFFER
  5
6B8C
330
0
100
AcDbIdBuffer
330
5825
330
5826
  0
IDBUFFER
  5
6B8D
330
0
100
AcDbIdBuffer
330
5887
330
591B
330
59A1
330
5A3A
330
5A3B
330
5C5C
330
5DA6
330
60F2
330
66D1
330
686E
330
69F4
  0
IDBUFFER
  5
6B8E
330
0
100
AcDbIdBuffer
  0
IDBUFFER
  5
6B8F
330
0
100
AcDbIdBuffer
330
E5A
  0
IDBUFFER
  5
6B90
330
0
100
AcDbIdBuffer
330
5878
330
5879
330
587A
330
587B
330
587C
330
587D
330
587E
330
587F
330
5880
330
5881
330
5882
330
5883
330
5884
330
661F
330
6649
330
6664
330
666C
330
6862
330
6866
330
580A
330
580D
330
580E
330
5812
330
5814
330
5815
330
5816
330
5817
330
5818
330
5819
330
581A
330
581C
330
581D
330
581E
330
581F
330
5820
330
5821
330
5822
330
5823
330
5824
330
5828
330
5829
330
582A
330
582C
330
582D
330
582E
330
582F
330
5830
330
5831
330
5832
330
5833
330
5834
330
5835
330
5836
330
5837
330
5838
330
5839
330
583A
330
583B
330
583C
330
583D
330
583E
330
5872
330
5873
330
5874
330
5875
330
5876
330
5877
  0
ENDSEC
  0
EOF
