  0
SECTION
  2
HEADER
  9
$ACADVER
  1
AC1014
  9
$ACADMAINTVER
 70
     9
  9
$DWGCODEPAGE
  3
ANSI_932
  9
$INSBASE
 10
0.0
 20
0.0
 30
0.0
  9
$EXTMIN
 10
-91.25606910252898
 20
-106.5000010000006
 30
0.0
  9
$EXTMAX
 10
36.43101951146668
 20
40.0
 30
0.0
  9
$LIMMIN
 10
-97.2056772802771
 20
-124.4817953656734
  9
$LIMMAX
 10
130.7904017036853
 20
55.30780633114773
  9
$ORTHOMODE
 70
     0
  9
$REGENMODE
 70
     1
  9
$FILLMODE
 70
     1
  9
$QTEXTMODE
 70
     0
  9
$MIRRTEXT
 70
     0
  9
$DRAGMODE
 70
     2
  9
$LTSCALE
 40
1.0
  9
$OSMODE
 70
    55
  9
$ATTMODE
 70
     1
  9
$TEXTSIZE
 40
2.5
  9
$TRACEWID
 40
1.0
  9
$TEXTSTYLE
  7
STANDARD
  9
$CLAYER
  8
AM_5
  9
$CELTYPE
  6
BYLAYER
  9
$CECOLOR
 62
   256
  9
$CELTSCALE
 40
1.0
  9
$DELOBJ
 70
     1
  9
$DISPSILH
 70
     0
  9
$DIMSCALE
 40
1.0
  9
$DIMASZ
 40
2.5
  9
$DIMEXO
 40
1.0
  9
$DIMDLI
 40
12.0
  9
$DIMRND
 40
0.0
  9
$DIMDLE
 40
0.0
  9
$DIMEXE
 40
1.0
  9
$DIMTP
 40
0.1
  9
$DIMTM
 40
0.1
  9
$DIMTXT
 40
3.2
  9
$DIMCEN
 40
0.0
  9
$DIMTSZ
 40
0.0
  9
$DIMTOL
 70
     0
  9
$DIMLIM
 70
     0
  9
$DIMTIH
 70
     0
  9
$DIMTOH
 70
     0
  9
$DIMSE1
 70
     0
  9
$DIMSE2
 70
     0
  9
$DIMTAD
 70
     3
  9
$DIMZIN
 70
     8
  9
$DIMBLK
  1
OPEN30
  9
$DIMASO
 70
     1
  9
$DIMSHO
 70
     1
  9
$DIMPOST
  1

  9
$DIMAPOST
  1
"
  9
$DIMALT
 70
     0
  9
$DIMALTD
 70
     2
  9
$DIMALTF
 40
0.0393701
  9
$DIMLFAC
 40
1.0
  9
$DIMTOFL
 70
     1
  9
$DIMTVP
 40
0.0
  9
$DIMTIX
 70
     0
  9
$DIMSOXD
 70
     0
  9
$DIMSAH
 70
     0
  9
$DIMBLK1
  1

  9
$DIMBLK2
  1

  9
$DIMSTYLE
  2
AM_JIS
  9
$DIMCLRD
 70
   256
  9
$DIMCLRE
 70
   256
  9
$DIMCLRT
 70
     2
  9
$DIMTFAC
 40
0.71
  9
$DIMGAP
 40
1.5
  9
$DIMJUST
 70
     0
  9
$DIMSD1
 70
     0
  9
$DIMSD2
 70
     0
  9
$DIMTOLJ
 70
     0
  9
$DIMTZIN
 70
     0
  9
$DIMALTZ
 70
     0
  9
$DIMALTTZ
 70
     0
  9
$DIMFIT
 70
     3
  9
$DIMUPT
 70
     0
  9
$DIMUNIT
 70
     2
  9
$DIMDEC
 70
     3
  9
$DIMTDEC
 70
     3
  9
$DIMALTU
 70
     2
  9
$DIMALTTD
 70
     2
  9
$DIMTXSTY
  7
ASAMI
  9
$DIMAUNIT
 70
     0
  9
$LUNITS
 70
     2
  9
$LUPREC
 70
     2
  9
$SKETCHINC
 40
1.0
  9
$FILLETRAD
 40
2.5
  9
$AUNITS
 70
     0
  9
$AUPREC
 70
     0
  9
$MENU
  1
.
  9
$ELEVATION
 40
0.0
  9
$PELEVATION
 40
0.0
  9
$THICKNESS
 40
0.0
  9
$LIMCHECK
 70
     0
  9
$BLIPMODE
 70
     0
  9
$CHAMFERA
 40
0.5
  9
$CHAMFERB
 40
0.5
  9
$CHAMFERC
 40
20.0
  9
$CHAMFERD
 40
0.0
  9
$SKPOLY
 70
     0
  9
$TDCREATE
 40
2452836.771637361
  9
$TDUPDATE
 40
2453152.362824282
  9
$TDINDWG
 40
0.3705539468
  9
$TDUSRTIMER
 40
0.3705539468
  9
$USRTIMER
 70
     1
  9
$ANGBASE
 50
0.0
  9
$ANGDIR
 70
     0
  9
$PDMODE
 70
     0
  9
$PDSIZE
 40
0.0
  9
$PLINEWID
 40
0.0
  9
$COORDS
 70
     1
  9
$SPLFRAME
 70
     0
  9
$SPLINETYPE
 70
     6
  9
$SPLINESEGS
 70
     8
  9
$ATTDIA
 70
     1
  9
$ATTREQ
 70
     1
  9
$HANDLING
 70
 12289
  9
$HANDSEED
  5
732C
  9
$SURFTAB1
 70
     6
  9
$SURFTAB2
 70
     6
  9
$SURFTYPE
 70
     6
  9
$SURFU
 70
     6
  9
$SURFV
 70
     6
  9
$UCSNAME
  2

  9
$UCSORG
 10
0.0
 20
0.0
 30
0.0
  9
$UCSXDIR
 10
1.0
 20
0.0
 30
0.0
  9
$UCSYDIR
 10
0.0
 20
1.0
 30
0.0
  9
$PUCSNAME
  2

  9
$PUCSORG
 10
0.0
 20
0.0
 30
0.0
  9
$PUCSXDIR
 10
1.0
 20
0.0
 30
0.0
  9
$PUCSYDIR
 10
0.0
 20
1.0
 30
0.0
  9
$USERI1
 70
     0
  9
$USERI2
 70
     0
  9
$USERI3
 70
     0
  9
$USERI4
 70
     0
  9
$USERI5
 70
     0
  9
$USERR1
 40
0.0
  9
$USERR2
 40
0.0
  9
$USERR3
 40
0.0
  9
$USERR4
 40
0.0
  9
$USERR5
 40
0.0
  9
$WORLDVIEW
 70
     1
  9
$SHADEDGE
 70
     3
  9
$SHADEDIF
 70
    70
  9
$TILEMODE
 70
     1
  9
$MAXACTVP
 70
    64
  9
$PINSBASE
 10
0.0
 20
0.0
 30
0.0
  9
$PLIMCHECK
 70
     0
  9
$PEXTMIN
 10
1.000000000000000E+20
 20
1.000000000000000E+20
 30
1.000000000000000E+20
  9
$PEXTMAX
 10
-1.000000000000000E+20
 20
-1.000000000000000E+20
 30
-1.000000000000000E+20
  9
$PLIMMIN
 10
0.0
 20
0.0
  9
$PLIMMAX
 10
841.0
 20
594.0
  9
$UNITMODE
 70
     0
  9
$VISRETAIN
 70
     1
  9
$PLINEGEN
 70
     0
  9
$PSLTSCALE
 70
     0
  9
$TREEDEPTH
 70
  3020
  9
$PICKSTYLE
 70
     0
  9
$CMLSTYLE
  2
STANDARD
  9
$CMLJUST
 70
     0
  9
$CMLSCALE
 40
20.0
  9
$PROXYGRAPHICS
 70
     1
  9
$MEASUREMENT
 70
     1
  0
ENDSEC
  0
SECTION
  2
CLASSES
  0
CLASS
  1
ACDBDICTIONARYWDFLT
  2
AcDbDictionaryWithDefault
  3
AutoCAD 2000
 90
        0
280
     0
281
     0
  0
CLASS
  1
ACDBPLACEHOLDER
  2
AcDbPlaceHolder
  3
AutoCAD 2000
 90
        0
280
     0
281
     0
  0
CLASS
  1
LAYOUT
  2
AcDbLayout
  3
AutoCAD 2000
 90
        0
280
     0
281
     0
  0
CLASS
  1
AMGSETTINGSOBJ
  2
AmgSettingsObj
  3
"AcadM|Product Description: AutoCAD Mechanical 2000|Company: Autodesk"
 90
        0
280
     0
281
     0
  0
CLASS
  1
ACME_DOCUMENT
  2
AcMeDbDoc
  3
AcMeServices
 90
        0
280
     0
281
     0
  0
CLASS
  1
ACMESCOPE
  2
AcMeScope
  3
AcMeServices
 90
        0
280
     0
281
     0
  0
CLASS
  1
ACMECOMMANDHISTORY
  2
AcMeCommandHistory
  3
AcMeServices
 90
        0
280
     0
281
     0
  0
CLASS
  1
DICTIONARYVAR
  2
AcDbDictionaryVar
  3
AutoCAD 2000
 90
        0
280
     0
281
     0
  0
CLASS
  1
ACIMSYSVARMAN
  2
AcImSysVarManager
  3
AcMeServices
 90
        0
280
     0
281
     0
  0
CLASS
  1
ACIMREALSYSVAR
  2
AcImRealSysVar
  3
AcMeServices
 90
        0
280
     0
281
     0
  0
CLASS
  1
ACIMINTSYSVAR
  2
AcImIntSysVar
  3
AcMeServices
 90
        0
280
     0
281
     0
  0
CLASS
  1
ACMEDRAWINGMAN
  2
AcMeDrawingMan
  3
AcMeServices
 90
        0
280
     0
281
     0
  0
CLASS
  1
ACMEVIEW
  2
AcMeView
  3
AcMeServices
 90
        0
280
     0
281
     0
  0
CLASS
  1
ACDBENTITYCACHE
  2
AcMeEntityCache
  3
AcMeServices
 90
        0
280
     0
281
     0
  0
CLASS
  1
GSMANAGER
  2
AcMeGSManager
  3
AcMeServices
 90
        0
280
     0
281
     0
  0
CLASS
  1
AmdtInternalReactor
  2
AmdtInternalReactor
  3
AcMeServices
 90
        0
280
     0
281
     0
  0
CLASS
  1
ACMESTATEMGR
  2
AcMeStateMgr
  3
AcMeServices
 90
        0
280
     0
281
     0
  0
CLASS
  1
ACME_DATABASE
  2
AcMeDbDatabase
  3
AcMeServices
 90
        0
280
     0
281
     0
  0
CLASS
  1
ACRFINSADJUSTERMGR
  2
AcRfInsAdjusterMgr
  3
AcMeServices
 90
        0
280
     0
281
     0
  0
CLASS
  1
ACMDATADICTIONARY
  2
AcmDataDictionary
  3
"AcmSymBB|Product Description: AutoCAD Mechanical 2000|Company: Autodesk"
 90
        0
280
     0
281
     0
  0
CLASS
  1
ACMDATAENTRYBLOCK
  2
AcmDataEntryBlock
  3
"AcmSymBB|Product Description: AutoCAD Mechanical 2000|Company: Autodesk"
 90
        0
280
     0
281
     0
  0
CLASS
  1
AMGOBJPROPCFG
  2
AmgObjPropCfg
  3
"AmgLay|Product Description: AutoCAD Mechanical 2000|Company: Autodesk"
 90
        1
280
     0
281
     0
  0
CLASS
  1
ACAMGFILTERDAT
  2
AcAmgFilterDat
  3
"AcadM|Product Description: AutoCAD Mechanical 2000|Company: Autodesk"
 90
        0
280
     0
281
     0
  0
CLASS
  1
LAYER_INDEX
  2
AcDbLayerIndex
  3
AutoCAD 2000
 90
        0
280
     0
281
     0
  0
CLASS
  1
IDBUFFER
  2
AcDbIdBuffer
  3
AutoCAD 2000
 90
        0
280
     0
281
     0
  0
CLASS
  1
ACIMSTRSYSVAR
  2
AcImStrSysVar
  3
AcMeServices
 90
        0
280
     0
281
     0
  0
CLASS
  1
ACMSTANDARDJIS
  2
AcmStandardJIS
  3
"AcmSymBB|Product Description: AutoCAD Mechanical 2000|Company: Autodesk"
 90
        0
280
     0
281
     0
  0
CLASS
  1
ACMSURFSTANDARDJIS
  2
AcmSurfTextStdJIS
  3
"AcmSymBB|Product Description: AutoCAD Mechanical 2000|Company: Autodesk"
 90
        0
280
     0
281
     0
  0
CLASS
  1
ACMFCFSTANDARDJIS
  2
AcmFCFStdJIS
  3
"AcmSymBB|Product Description: AutoCAD Mechanical 2000|Company: Autodesk"
 90
        0
280
     0
281
     0
  0
CLASS
  1
ACMWELDSTANDARDJIS
  2
AcmWeldingStdJIS
  3
"AcmSymBB|Product Description: AutoCAD Mechanical 2000|Company: Autodesk"
 90
        0
280
     0
281
     0
  0
CLASS
  1
ACMIDSTANDARDJIS
  2
AcmIdStdJIS
  3
"AcmSymBB|Product Description: AutoCAD Mechanical 2000|Company: Autodesk"
 90
        0
280
     0
281
     0
  0
CLASS
  1
ACMDATUMSTANDARDJIS
  2
AcmDatumStdJIS
  3
"AcmSymBB|Product Description: AutoCAD Mechanical 2000|Company: Autodesk"
 90
        0
280
     0
281
     0
  0
CLASS
  1
ACMBOMSTANDARDJIS
  2
AcmBOMStdJIS
  3
"AcmSymBB|Product Description: AutoCAD Mechanical 2000|Company: Autodesk"
 90
        0
280
     0
281
     0
  0
CLASS
  1
ACMSTANDARDANSI
  2
AcmStandardANSI
  3
"AcmSymBB|Product Description: AutoCAD Mechanical 2000|Company: Autodesk"
 90
        0
280
     0
281
     0
  0
CLASS
  1
ACMSURFSTANDARDANSI
  2
AcmSurfTextStdANSI
  3
"AcmSymBB|Product Description: AutoCAD Mechanical 2000|Company: Autodesk"
 90
        0
280
     0
281
     0
  0
CLASS
  1
ACMFCFSTANDARDANSI
  2
AcmFCFStdANSI
  3
"AcmSymBB|Product Description: AutoCAD Mechanical 2000|Company: Autodesk"
 90
        0
280
     0
281
     0
  0
CLASS
  1
ACMWELDSTANDARDANSI
  2
AcmWeldingStdANSI
  3
"AcmSymBB|Product Description: AutoCAD Mechanical 2000|Company: Autodesk"
 90
        0
280
     0
281
     0
  0
CLASS
  1
ACMIDSTANDARDANSI
  2
AcmIdStdANSI
  3
"AcmSymBB|Product Description: AutoCAD Mechanical 2000|Company: Autodesk"
 90
        0
280
     0
281
     0
  0
CLASS
  1
ACMDATUMSTANDARDANSI
  2
AcmDatumStdANSI
  3
"AcmSymBB|Product Description: AutoCAD Mechanical 2000|Company: Autodesk"
 90
        0
280
     0
281
     0
  0
CLASS
  1
ACMBOMSTANDARDANSI
  2
AcmBOMStdANSI
  3
"AcmSymBB|Product Description: AutoCAD Mechanical 2000|Company: Autodesk"
 90
        0
280
     0
281
     0
  0
CLASS
  1
ACMSTANDARDBSI
  2
AcmStandardBSI
  3
"AcmSymBB|Product Description: AutoCAD Mechanical 2000|Company: Autodesk"
 90
        0
280
     0
281
     0
  0
CLASS
  1
ACMSURFSTANDARDBSI
  2
AcmSurfTextStdBSI
  3
"AcmSymBB|Product Description: AutoCAD Mechanical 2000|Company: Autodesk"
 90
        0
280
     0
281
     0
  0
CLASS
  1
ACMFCFSTANDARDBSI
  2
AcmFCFStdBSI
  3
"AcmSymBB|Product Description: AutoCAD Mechanical 2000|Company: Autodesk"
 90
        0
280
     0
281
     0
  0
CLASS
  1
ACMWELDSTANDARDBSI
  2
AcmWeldingStdBSI
  3
"AcmSymBB|Product Description: AutoCAD Mechanical 2000|Company: Autodesk"
 90
        0
280
     0
281
     0
  0
CLASS
  1
ACMIDSTANDARDBSI
  2
AcmIdStdBSI
  3
"AcmSymBB|Product Description: AutoCAD Mechanical 2000|Company: Autodesk"
 90
        0
280
     0
281
     0
  0
CLASS
  1
ACMDATUMSTANDARDBSI
  2
AcmDatumStdBSI
  3
"AcmSymBB|Product Description: AutoCAD Mechanical 2000|Company: Autodesk"
 90
        0
280
     0
281
     0
  0
CLASS
  1
ACMBOMSTANDARDBSI
  2
AcmBOMStdBSI
  3
"AcmSymBB|Product Description: AutoCAD Mechanical 2000|Company: Autodesk"
 90
        0
280
     0
281
     0
  0
CLASS
  1
LONG_TRANSACTION
  2
AcDbLongTransaction
  3
AutoCAD 2000
 90
        0
280
     0
281
     0
  0
CLASS
  1
LWPOLYLINE
  2
AcDbPolyline
  3
AutoCAD 2000
 90
        0
280
     0
281
     1
  0
CLASS
  1
HATCH
  2
AcDbHatch
  3
AutoCAD 2000
 90
        0
280
     0
281
     1
  0
CLASS
  1
XRECORD
  2
AcDbXrecord
  3
AutoCAD 2000
 90
        0
280
     0
281
     0
  0
ENDSEC
  0
SECTION
  2
TABLES
  0
TABLE
  2
VPORT
  5
8
330
0
100
AcDbSymbolTable
 70
     3
  0
VPORT
  5
729A
330
8
100
AcDbSymbolTableRecord
100
AcDbViewportTableRecord
  2
*ACTIVE
 70
     0
 10
0.0
 20
0.0
 11
1.0
 21
1.0
 12
-14.96014565777372
 22
-33.11993033303797
 13
0.0
 23
0.0
 14
2.5
 24
2.5
 15
10.0
 25
10.0
 16
0.0
 26
0.0
 36
1.0
 17
0.0
 27
0.0
 37
0.0
 40
151.3159604239949
 41
1.56570841889117
 42
50.0
 43
0.0
 44
0.0
 50
0.0
 51
0.0
 71
     0
 72
   100
 73
     1
 74
     3
 75
     0
 76
     0
 77
     0
 78
     0
  0
ENDTAB
  0
TABLE
  2
LTYPE
  5
5
330
0
100
AcDbSymbolTable
 70
    10
  0
LTYPE
  5
14
330
5
100
AcDbSymbolTableRecord
100
AcDbLinetypeTableRecord
  2
BYBLOCK
 70
     0
  3

 72
    65
 73
     0
 40
0.0
  0
LTYPE
  5
15
330
5
100
AcDbSymbolTableRecord
100
AcDbLinetypeTableRecord
  2
BYLAYER
 70
     0
  3

 72
    65
 73
     0
 40
0.0
  0
LTYPE
  5
16
330
5
100
AcDbSymbolTableRecord
100
AcDbLinetypeTableRecord
  2
CONTINUOUS
 70
     0
  3
Solid line
 72
    65
 73
     0
 40
0.0
  0
LTYPE
  5
4B
330
5
100
AcDbSymbolTableRecord
100
AcDbLinetypeTableRecord
  2
AM_ISO02W050
 70
     0
  3
__ __ __ __ __ __ __ __ __ __ __ __ __ __ __
 72
    65
 73
     2
 40
7.5
 49
6.0
 74
     0
 49
-1.5
 74
     0
  0
LTYPE
  5
4C
330
5
100
AcDbSymbolTableRecord
100
AcDbLinetypeTableRecord
  2
AM_ISO08W050
 70
     0
  3
____ . ____ . ____ . ____ . ____ . ____ . ____
 72
    65
 73
     4
 40
18.0
 49
12.0
 74
     0
 49
-1.5
 74
     0
 49
3.0
 74
     0
 49
-1.5
 74
     0
  0
LTYPE
  5
4D
330
5
100
AcDbSymbolTableRecord
100
AcDbLinetypeTableRecord
  2
AM_ISO09W050
 70
     0
  3
_____ . . _____ . . _____ . . ____ .. ____
 72
    65
 73
     6
 40
22.5
 49
12.0
 74
     0
 49
-1.5
 74
     0
 49
3.0
 74
     0
 49
-1.5
 74
     0
 49
3.0
 74
     0
 49
-1.5
 74
     0
  0
LTYPE
  5
4E
330
5
100
AcDbSymbolTableRecord
100
AcDbLinetypeTableRecord
  2
AMCONSTR
 70
     0
  3
_______________________
 72
    65
 73
     2
 40
9999.0
 49
9999.0
 74
     0
 49
0.0
 74
     0
  0
LTYPE
  5
4F
330
5
100
AcDbSymbolTableRecord
100
AcDbLinetypeTableRecord
  2
AM_ISO02W050X2
 70
     0
  3
 _ _ _ _ _ _ _ _ _ _ _ _
 72
    65
 73
     2
 40
3.75
 49
3.0
 74
     0
 49
-0.75
 74
     0
  0
LTYPE
  5
50
330
5
100
AcDbSymbolTableRecord
100
AcDbLinetypeTableRecord
  2
AM_ISO08W050X2
 70
     0
  3
__ . __ . __ . __ . __ . __
 72
    65
 73
     4
 40
9.0
 49
6.0
 74
     0
 49
-0.75
 74
     0
 49
1.5
 74
     0
 49
-0.75
 74
     0
  0
LTYPE
  5
53
330
5
100
AcDbSymbolTableRecord
100
AcDbLinetypeTableRecord
  2
AMZIGZAG
 70
     0
  3
/\/-/\/-/\/-/\/-/\/-/\/
 72
    65
 73
     2
 40
11.00009999999999
 49
0.0001
 74
     4
 75
   135
340
52
 46
0.04
 50
0.0
 44
0.0
 45
0.0
 49
-11.0
 74
     0
  0
LTYPE
  5
166
330
5
100
AcDbSymbolTableRecord
100
AcDbLinetypeTableRecord
  2
ACJISTGL
 70
     0
  3
_ _ _ _ _
 72
    65
 73
     2
 40
3.0
 49
2.0
 74
     0
 49
-1.0
 74
     0
  0
LTYPE
  5
26A
330
5
100
AcDbSymbolTableRecord
100
AcDbLinetypeTableRecord
  2
ACJISTGB
 70
     0
  3
__ . . __ . .
 72
    65
 73
     6
 40
9.0
 49
4.0
 74
     0
 49
-1.0
 74
     0
 49
1.0
 74
     0
 49
-1.0
 74
     0
 49
1.0
 74
     0
 49
-1.0
 74
     0
  0
ENDTAB
  0
TABLE
  2
LAYER
  5
2
330
0
100
AcDbSymbolTable
 70
     7
  0
LAYER
  5
10
330
2
100
AcDbSymbolTableRecord
100
AcDbLayerTableRecord
  2
0
 70
     0
 62
     7
  6
CONTINUOUS
  0
LAYER
  5
BD4
330
2
100
AcDbSymbolTableRecord
100
AcDbLayerTableRecord
  2
AM_11
 70
     0
 62
     3
  6
AM_ISO09W050
  0
LAYER
  5
BD5
330
2
100
AcDbSymbolTableRecord
100
AcDbLayerTableRecord
  2
AM_7
 70
     0
 62
     4
  6
AM_ISO08W050
  0
LAYER
  5
BD6
330
2
100
AcDbSymbolTableRecord
100
AcDbLayerTableRecord
  2
AM_5
 70
     0
 62
     3
  6
CONTINUOUS
  0
LAYER
  5
BD7
330
2
100
AcDbSymbolTableRecord
100
AcDbLayerTableRecord
  2
DEFPOINTS
 70
     0
 62
     7
  6
CONTINUOUS
  0
LAYER
  5
E59
330
2
100
AcDbSymbolTableRecord
100
AcDbLayerTableRecord
  2
AM_6
 70
     0
 62
     2
  6
CONTINUOUS
  0
LAYER
  5
4062
330
2
100
AcDbSymbolTableRecord
100
AcDbLayerTableRecord
  2
AM_0
 70
     0
 62
     7
  6
CONTINUOUS
  0
ENDTAB
  0
TABLE
  2
STYLE
  5
3
330
0
100
AcDbSymbolTable
 70
     5
  0
STYLE
  5
11
330
3
100
AcDbSymbolTableRecord
100
AcDbTextStyleTableRecord
  2
STANDARD
 70
     0
 40
0.0
 41
1.0
 50
0.0
 71
     0
 42
2.5
  3
simplex.shx
  4
EXTFONT.SHX
  0
STYLE
  5
52
330
3
100
AcDbSymbolTableRecord
100
AcDbTextStyleTableRecord
  2

 70
     1
 40
0.0
 41
1.0
 50
0.0
 71
     0
 42
2.5
  3
ltypeshp.shx
  4

  0
STYLE
  5
6B
330
3
100
AcDbSymbolTableRecord
100
AcDbTextStyleTableRecord
  2
ASAMI
 70
     0
 40
0.0
 41
1.0
 50
0.0
 71
     0
 42
2.5
  3
simplex.shx
  4
EXTFONT.SHX
  0
STYLE
  5
262
330
3
100
AcDbSymbolTableRecord
100
AcDbTextStyleTableRecord
  2
ACJISTS
 70
     0
 40
1.0
 41
1.0
 50
0.0
 71
     0
 42
2.5
  3
simplex.shx
  4
bigfont.shx
  0
STYLE
  5
269
330
3
100
AcDbSymbolTableRecord
100
AcDbTextStyleTableRecord
  2
ACJISGDT
 70
     0
 40
0.0
 41
1.0
 50
0.0
 71
     0
 42
2.5
  3
amgdtans.shx
  4

  0
ENDTAB
  0
TABLE
  2
VIEW
  5
6
330
0
100
AcDbSymbolTable
 70
     0
  0
ENDTAB
  0
TABLE
  2
UCS
  5
7
330
0
100
AcDbSymbolTable
 70
     0
  0
ENDTAB
  0
TABLE
  2
APPID
  5
9
330
0
100
AcDbSymbolTable
 70
    12
  0
APPID
  5
12
330
9
100
AcDbSymbolTableRecord
100
AcDbRegAppTableRecord
  2
ACAD
 70
     0
  0
APPID
  5
30
330
9
100
AcDbSymbolTableRecord
100
AcDbRegAppTableRecord
  2
MCAD_NO_VIS
 70
     0
  0
APPID
  5
31
330
9
100
AcDbSymbolTableRecord
100
AcDbRegAppTableRecord
  2
ACAD_TEMP_GRAPHIC
 70
     0
  0
APPID
  5
2C2
330
9
100
AcDbSymbolTableRecord
100
AcDbRegAppTableRecord
  2
GENIUS_GENDTOL_13
 70
     0
  0
APPID
  5
339
330
9
100
AcDbSymbolTableRecord
100
AcDbRegAppTableRecord
  2
GENIUS_GENODEF_13
 70
     0
  0
APPID
  5
33A
330
9
100
AcDbSymbolTableRecord
100
AcDbRegAppTableRecord
  2
GENIUS_GENOBJ-N-RSBK_13
 70
     0
  0
APPID
  5
33B
330
9
100
AcDbSymbolTableRecord
100
AcDbRegAppTableRecord
  2
GENIUS_GENOBJ-N-LIB_13
 70
     0
  0
APPID
  5
33C
330
9
100
AcDbSymbolTableRecord
100
AcDbRegAppTableRecord
  2
GENIUS_GENSCALE_13
 70
     0
  0
APPID
  5
378
330
9
100
AcDbSymbolTableRecord
100
AcDbRegAppTableRecord
  2
GENIUS_GENDIMSH_14
 70
     0
  0
APPID
  5
BD8
330
9
100
AcDbSymbolTableRecord
100
AcDbRegAppTableRecord
  2
GENIUS_GENOBJ-N-CEN_13
 70
     0
  0
APPID
  5
BD9
330
9
100
AcDbSymbolTableRecord
100
AcDbRegAppTableRecord
  2
GENIUS_GENFIL_13
 70
     0
  0
APPID
  5
BDA
330
9
100
AcDbSymbolTableRecord
100
AcDbRegAppTableRecord
  2
GENIUS_GENOBJ-N-CHA_13
 70
     0
  0
ENDTAB
  0
TABLE
  2
DIMSTYLE
  5
A
330
0
100
AcDbSymbolTable
 70
     9
  0
DIMSTYLE
105
58
330
A
100
AcDbSymbolTableRecord
100
AcDbDimStyleTableRecord
  2
AM_JIS
 70
     0
  3

  4
"
  5
OPEN30
  6

  7

 40
1.0
 41
2.5
 42
1.0
 43
12.0
 44
1.0
 45
0.0
 46
0.0
 47
0.1
 48
0.1
140
3.2
141
0.0
142
0.0
143
0.0393701
144
1.0
145
0.0
146
0.71
147
1.5
 71
     0
 72
     0
 73
     0
 74
     0
 75
     0
 76
     0
 77
     3
 78
     8
170
     0
171
     2
172
     1
173
     0
174
     0
175
     0
176
   256
177
   256
178
     2
270
     2
271
     3
272
     3
273
     2
274
     2
340
6B
275
     0
280
     0
281
     0
282
     0
283
     0
284
     0
285
     0
286
     0
287
     3
288
     0
  0
DIMSTYLE
105
5F
330
A
100
AcDbSymbolTableRecord
100
AcDbDimStyleTableRecord
  2
AM_JIS$3
 70
     0
  3

  4
"
  5
OPEN30
  6

  7

 40
1.0
 41
2.5
 42
1.0
 43
10.0
 44
1.0
 45
0.0
 46
0.0
 47
0.1
 48
0.1
140
3.2
141
0.0
142
0.0
143
0.0393701
144
1.0
145
0.0
146
0.71
147
1.5
 71
     0
 72
     0
 73
     0
 74
     1
 75
     0
 76
     0
 77
     3
 78
     8
170
     0
171
     2
172
     0
173
     0
174
     0
175
     0
176
   256
177
   256
178
     2
270
     2
271
     2
272
     3
273
     2
274
     2
340
6B
275
     0
280
     0
281
     0
282
     0
283
     0
284
     0
285
     0
286
     0
287
     0
288
     1
  0
DIMSTYLE
105
60
330
A
100
AcDbSymbolTableRecord
100
AcDbDimStyleTableRecord
  2
AM_JIS$4
 70
     0
  3

  4
"
  5
OPEN30
  6

  7

 40
1.0
 41
2.5
 42
1.0
 43
10.0
 44
1.0
 45
0.0
 46
0.0
 47
0.1
 48
0.1
140
3.2
141
0.0
142
0.0
143
0.0393701
144
1.0
145
0.0
146
0.71
147
1.5
 71
     0
 72
     0
 73
     0
 74
     1
 75
     0
 76
     0
 77
     3
 78
     8
170
     0
171
     2
172
     0
173
     0
174
     0
175
     0
176
   256
177
   256
178
     2
270
     2
271
     2
272
     3
273
     2
274
     2
340
6B
275
     0
280
     0
281
     0
282
     0
283
     0
284
     0
285
     0
286
     0
287
     0
288
     1
  0
DIMSTYLE
105
61
330
A
100
AcDbSymbolTableRecord
100
AcDbDimStyleTableRecord
  2
AM_JIS$6
 70
     0
  3

  4
"
  5
OPEN30
  6

  7

 40
1.0
 41
2.5
 42
1.0
 43
10.0
 44
1.0
 45
0.0
 46
0.0
 47
0.1
 48
0.1
140
3.2
141
0.0
142
0.0
143
0.0393701
144
1.0
145
0.0
146
0.71
147
1.5
 71
     0
 72
     0
 73
     0
 74
     0
 75
     0
 76
     0
 77
     0
 78
     8
170
     0
171
     2
172
     1
173
     0
174
     0
175
     0
176
   256
177
   256
178
     2
270
     2
271
     2
272
     2
273
     2
274
     2
340
6B
275
     0
280
     0
281
     0
282
     0
283
     0
284
     0
285
     0
286
     0
287
     3
288
     0
  0
DIMSTYLE
105
62
330
A
100
AcDbSymbolTableRecord
100
AcDbDimStyleTableRecord
  2
AM_JIS$7
 70
     0
  3

  4
"
  5
OPEN30
  6

  7

 40
1.0
 41
2.5
 42
1.0
 43
10.0
 44
1.0
 45
0.0
 46
0.0
 47
0.1
 48
0.1
140
3.2
141
0.0
142
0.0
143
0.0393701
144
1.0
145
0.0
146
0.71
147
1.5
 71
     0
 72
     0
 73
     0
 74
     0
 75
     0
 76
     0
 77
     3
 78
     8
170
     0
171
     2
172
     1
173
     0
174
     0
175
     0
176
   256
177
   256
178
     2
270
     2
271
     2
272
     3
273
     2
274
     2
340
6B
275
     0
280
     0
281
     0
282
     0
283
     0
284
     0
285
     0
286
     0
287
     3
288
     0
  0
DIMSTYLE
105
63
330
A
100
AcDbSymbolTableRecord
100
AcDbDimStyleTableRecord
  2
AM_JIS$SF
 70
     0
  3

  4
"
  5
OPEN30
  6

  7

 40
1.0
 41
2.5
 42
1.0
 43
10.0
 44
1.0
 45
0.0
 46
0.0
 47
0.1
 48
0.1
140
3.2
141
0.0
142
0.0
143
0.0393701
144
1.0
145
0.0
146
0.71
147
1.5
 71
     0
 72
     0
 73
     0
 74
     0
 75
     1
 76
     1
 77
     3
 78
     8
170
     0
171
     2
172
     1
173
     0
174
     0
175
     0
176
   256
177
   256
178
     2
270
     2
271
     2
272
     2
273
     2
274
     2
340
6B
275
     0
280
     0
281
     0
282
     0
283
     0
284
     0
285
     0
286
     0
287
     3
288
     0
  0
DIMSTYLE
105
68
330
A
100
AcDbSymbolTableRecord
100
AcDbDimStyleTableRecord
  2
AM_JIS$SH
 70
     0
  3

  4
"
  5

  6
GENAXEH
  7
OPEN30
 40
1.0
 41
2.5
 42
1.0
 43
10.0
 44
1.0
 45
0.0
 46
0.0
 47
0.1
 48
0.1
140
3.2
141
0.0
142
0.0
143
0.0393701
144
2.0
145
0.0
146
0.71
147
1.5
 71
     0
 72
     0
 73
     0
 74
     0
 75
     1
 76
     1
 77
     3
 78
     8
170
     0
171
     2
172
     1
173
     1
174
     0
175
     0
176
   256
177
   256
178
     2
270
     2
271
     2
272
     2
273
     2
274
     2
340
6B
275
     0
280
     0
281
     0
282
     0
283
     0
284
     0
285
     0
286
     0
287
     3
288
     0
  0
DIMSTYLE
105
B34
330
A
100
AcDbSymbolTableRecord
100
AcDbDimStyleTableRecord
  2
AM_JIS$2
 70
     0
  3

  4
"
  5
OPEN30
  6

  7

 40
1.0
 41
2.5
 42
1.0
 43
12.0
 44
1.0
 45
0.0
 46
0.0
 47
0.1
 48
0.1
140
3.2
141
0.0
142
0.0
143
0.0393701
144
1.0
145
0.0
146
0.71
147
1.5
 71
     0
 72
     0
 73
     0
 74
     0
 75
     0
 76
     0
 77
     3
 78
     8
170
     0
171
     2
172
     1
173
     0
174
     0
175
     0
176
   256
177
   256
178
     2
270
     2
271
     3
272
     3
273
     2
274
     2
340
6B
275
     0
280
     0
281
     0
282
     0
283
     0
284
     0
285
     0
286
     0
287
     3
288
     0
  0
DIMSTYLE
105
1AB6
102
{ACAD_REACTORS
330
6A06
330
6A07
330
6A05
330
6AA1
330
6AA2
330
6B12
330
6B14
330
6B13
330
6BC5
330
6F8E
330
7130
102
}
330
A
100
AcDbSymbolTableRecord
100
AcDbDimStyleTableRecord
  2
AM_JIS$0
 70
     0
  3

  4
"
  5
OPEN30
  6

  7

 40
1.0
 41
2.5
 42
0.0
 43
10.0
 44
1.0
 45
0.0
 46
0.0
 47
0.1
 48
0.1000000001
140
3.799999999999999
141
0.0
142
0.0
143
0.0393701
144
1.0
145
0.0
146
0.71
147
1.5
 71
     0
 72
     0
 73
     0
 74
     0
 75
     0
 76
     0
 77
     3
 78
     1
170
     0
171
     2
172
     1
173
     0
174
     0
175
     0
176
     3
177
     3
178
     2
270
     2
271
     2
272
     2
273
     2
274
     2
340
11
275
     1
280
     0
281
     0
282
     0
283
     0
284
     8
285
     0
286
     0
287
     0
288
     0
  0
ENDTAB
  0
TABLE
  2
BLOCK_RECORD
  5
1
330
0
100
AcDbSymbolTable
 70
    16
  0
BLOCK_RECORD
  5
1F
102
{ACAD_XDICTIONARY
360
74
102
}
330
1
100
AcDbSymbolTableRecord
100
AcDbBlockTableRecord
  2
*MODEL_SPACE
  0
BLOCK_RECORD
  5
101
102
{ACAD_XDICTIONARY
360
72C3
102
}
330
1
100
AcDbSymbolTableRecord
100
AcDbBlockTableRecord
  2
*PAPER_SPACE
  0
BLOCK_RECORD
  5
59
330
1
100
AcDbSymbolTableRecord
100
AcDbBlockTableRecord
  2
_OPEN30
  0
BLOCK_RECORD
  5
64
330
1
100
AcDbSymbolTableRecord
100
AcDbBlockTableRecord
  2
GENAXEH
  0
BLOCK_RECORD
  5
6A08
330
1
100
AcDbSymbolTableRecord
100
AcDbBlockTableRecord
  2
*D5
  0
BLOCK_RECORD
  5
6A14
330
1
100
AcDbSymbolTableRecord
100
AcDbBlockTableRecord
  2
*D6
  0
BLOCK_RECORD
  5
6A20
330
1
100
AcDbSymbolTableRecord
100
AcDbBlockTableRecord
  2
*D7
  0
BLOCK_RECORD
  5
6AA6
330
1
100
AcDbSymbolTableRecord
100
AcDbBlockTableRecord
  2
*D8
  0
BLOCK_RECORD
  5
6AB2
330
1
100
AcDbSymbolTableRecord
100
AcDbBlockTableRecord
  2
*D9
  0
BLOCK_RECORD
  5
6B23
330
1
100
AcDbSymbolTableRecord
100
AcDbBlockTableRecord
  2
*D10
  0
BLOCK_RECORD
  5
6B2F
330
1
100
AcDbSymbolTableRecord
100
AcDbBlockTableRecord
  2
*D11
  0
BLOCK_RECORD
  5
6B3B
330
1
100
AcDbSymbolTableRecord
100
AcDbBlockTableRecord
  2
*D12
  0
BLOCK_RECORD
  5
6BC6
330
1
100
AcDbSymbolTableRecord
100
AcDbBlockTableRecord
  2
*D13
  0
BLOCK_RECORD
  5
6F8F
330
1
100
AcDbSymbolTableRecord
100
AcDbBlockTableRecord
  2
*D14
  0
BLOCK_RECORD
  5
7131
330
1
100
AcDbSymbolTableRecord
100
AcDbBlockTableRecord
  2
*D15
  0
ENDTAB
  0
ENDSEC
  0
SECTION
  2
BLOCKS
  0
BLOCK
  5
20
330
1F
100
AcDbEntity
  8
0
100
AcDbBlockBegin
  2
*MODEL_SPACE
 70
     0
 10
0.0
 20
0.0
 30
0.0
  3
*MODEL_SPACE
  1

  0
ENDBLK
  5
21
330
1F
100
AcDbEntity
  8
0
100
AcDbBlockEnd
  0
BLOCK
  5
103
330
101
100
AcDbEntity
 67
     1
  8
0
100
AcDbBlockBegin
  2
*PAPER_SPACE
 70
     0
 10
0.0
 20
0.0
 30
0.0
  3
*PAPER_SPACE
  1

  0
ENDBLK
  5
104
330
101
100
AcDbEntity
 67
     1
  8
0
100
AcDbBlockEnd
  0
BLOCK
  5
5D
330
59
100
AcDbEntity
  8
0
100
AcDbBlockBegin
  2
_OPEN30
 70
     0
 10
0.0
 20
0.0
 30
0.0
  3
_OPEN30
  1

  0
LINE
  5
5A
330
59
100
AcDbEntity
  8
0
 62
     0
100
AcDbLine
 10
-1.0
 20
0.26794919
 30
0.0
 11
0.0
 21
0.0
 31
0.0
  0
LINE
  5
5B
330
59
100
AcDbEntity
  8
0
 62
     0
100
AcDbLine
 10
0.0
 20
0.0
 30
0.0
 11
-1.0
 21
-0.26794919
 31
0.0
  0
LINE
  5
5C
330
59
100
AcDbEntity
  8
0
 62
     0
100
AcDbLine
 10
0.0
 20
0.0
 30
0.0
 11
-1.0
 21
0.0
 31
0.0
  0
ENDBLK
  5
5E
330
59
100
AcDbEntity
  8
0
100
AcDbBlockEnd
  0
BLOCK
  5
66
330
64
100
AcDbEntity
  8
0
100
AcDbBlockBegin
  2
GENAXEH
 70
     0
 10
0.0
 20
0.0
 30
0.0
  3
GENAXEH
  1

  0
LINE
  5
65
330
64
100
AcDbEntity
  8
0
100
AcDbLine
 10
-1.0
 20
0.0
 30
0.0
 11
1.0
 21
0.0
 31
0.0
  0
ENDBLK
  5
67
330
64
100
AcDbEntity
  8
0
100
AcDbBlockEnd
  0
BLOCK
  5
6A12
330
6A08
100
AcDbEntity
  8
0
100
AcDbBlockBegin
  2
*D5
 70
     1
 10
0.0
 20
0.0
 30
0.0
  3
*D5
  1

  0
LINE
  5
72CE
330
6A08
100
AcDbEntity
  8
AM_5
100
AcDbLine
 10
-50.0
 20
4.75
 30
0.0
 11
-67.55606910252897
 21
4.750000000000005
 31
0.0
  0
LINE
  5
72CF
330
6A08
100
AcDbEntity
  8
AM_5
100
AcDbLine
 10
-50.0
 20
-4.75
 30
0.0
 11
-67.55606910252897
 21
-4.749999999999994
 31
0.0
  0
LINE
  5
72D0
330
6A08
100
AcDbEntity
  8
AM_5
100
AcDbLine
 10
-66.55606910252896
 20
2.250000000000004
 30
0.0
 11
-66.55606910252896
 21
-2.249999999999995
 31
0.0
  0
MTEXT
  5
72D1
330
6A08
100
AcDbEntity
  8
AM_5
 62
     2
100
AcDbMText
 10
-71.40606910252896
 20
-0.0000000000000054
 30
0.0
 40
3.2
 41
0.0
 71
     5
 72
     1
  1
9.5
  7
ASAMI
 11
0.0000000000000001
 21
1.0
 31
0.0
  0
INSERT
  5
72D2
330
6A08
100
AcDbEntity
  8
AM_5
100
AcDbBlockReference
  2
_OPEN30
 10
-66.55606910252896
 20
4.750000000000005
 30
0.0
 41
2.5
 42
2.5
 43
2.5
 50
90.0
  0
INSERT
  5
72D3
330
6A08
100
AcDbEntity
  8
AM_5
100
AcDbBlockReference
  2
_OPEN30
 10
-66.55606910252896
 20
-4.749999999999994
 30
0.0
 41
2.5
 42
2.5
 43
2.5
 50
270.0
  0
POINT
  5
72D4
330
6A08
100
AcDbEntity
  8
DEFPOINTS
 62
     0
100
AcDbPoint
 10
-49.0
 20
4.75
 30
0.0
  0
POINT
  5
72D5
330
6A08
100
AcDbEntity
  8
DEFPOINTS
 62
     0
100
AcDbPoint
 10
-49.0
 20
-4.75
 30
0.0
  0
POINT
  5
72D6
330
6A08
100
AcDbEntity
  8
DEFPOINTS
 62
     0
100
AcDbPoint
 10
-66.55606910252896
 20
-4.749999999999994
 30
0.0
  0
ENDBLK
  5
6A13
330
6A08
100
AcDbEntity
  8
0
100
AcDbBlockEnd
  0
BLOCK
  5
6A1E
330
6A14
100
AcDbEntity
  8
0
100
AcDbBlockBegin
  2
*D6
 70
     1
 10
0.0
 20
0.0
 30
0.0
  3
*D6
  1

  0
LINE
  5
72D7
330
6A14
100
AcDbEntity
  8
AM_5
100
AcDbLine
 10
-49.5
 20
12.69999999999998
 30
0.0
 11
-77.55606910252897
 21
12.69999999999999
 31
0.0
  0
LINE
  5
72D8
330
6A14
100
AcDbEntity
  8
AM_5
100
AcDbLine
 10
-49.50000176193674
 20
-12.7
 30
0.0
 11
-77.55606910252897
 21
-12.69999999999999
 31
0.0
  0
LINE
  5
72D9
330
6A14
100
AcDbEntity
  8
AM_5
100
AcDbLine
 10
-76.55606910252896
 20
10.19999999999999
 30
0.0
 11
-76.55606910252896
 21
-10.19999999999999
 31
0.0
  0
INSERT
  5
72DA
330
6A14
100
AcDbEntity
  8
AM_5
100
AcDbBlockReference
  2
_OPEN30
 10
-76.55606910252896
 20
12.69999999999999
 30
0.0
 41
2.5
 42
2.5
 43
2.5
 50
90.0
  0
INSERT
  5
72DB
330
6A14
100
AcDbEntity
  8
AM_5
100
AcDbBlockReference
  2
_OPEN30
 10
-76.55606910252896
 20
-12.69999999999999
 30
0.0
 41
2.5
 42
2.5
 43
2.5
 50
270.0
  0
MTEXT
  5
72DC
330
6A14
100
AcDbEntity
  8
AM_5
 62
     2
100
AcDbMText
 10
-79.65606910252896
 20
-0.0000000000000109
 30
0.0
 40
3.2
 41
0.0
 71
     5
 72
     1
  1
%%c25.4
  7
ASAMI
 11
0.0000000000000001
 21
1.0
 31
0.0
  0
POINT
  5
72DD
330
6A14
100
AcDbEntity
  8
DEFPOINTS
 62
     0
100
AcDbPoint
 10
-48.5
 20
12.69999999999998
 30
0.0
  0
POINT
  5
72DE
330
6A14
100
AcDbEntity
  8
DEFPOINTS
 62
     0
100
AcDbPoint
 10
-48.50000176193674
 20
-12.7
 30
0.0
  0
POINT
  5
72DF
330
6A14
100
AcDbEntity
  8
DEFPOINTS
 62
     0
100
AcDbPoint
 10
-76.55606910252896
 20
-12.69999999999999
 30
0.0
  0
ENDBLK
  5
6A1F
330
6A14
100
AcDbEntity
  8
0
100
AcDbBlockEnd
  0
BLOCK
  5
6A2A
330
6A20
100
AcDbEntity
  8
0
100
AcDbBlockBegin
  2
*D7
 70
     1
 10
0.0
 20
0.0
 30
0.0
  3
*D7
  1

  0
LINE
  5
72C5
330
6A20
100
AcDbEntity
  8
AM_5
100
AcDbLine
 10
-49.5
 20
27.5
 30
0.0
 11
-87.55606910252897
 21
27.50000000000001
 31
0.0
  0
LINE
  5
72C6
330
6A20
100
AcDbEntity
  8
AM_5
100
AcDbLine
 10
-49.50000006556712
 20
-27.5
 30
0.0
 11
-87.55606910252897
 21
-27.49999999999999
 31
0.0
  0
LINE
  5
72C7
330
6A20
100
AcDbEntity
  8
AM_5
100
AcDbLine
 10
-86.55606910252897
 20
25.00000000000001
 30
0.0
 11
-86.55606910252897
 21
-24.99999999999999
 31
0.0
  0
INSERT
  5
72C8
330
6A20
100
AcDbEntity
  8
AM_5
100
AcDbBlockReference
  2
_OPEN30
 10
-86.55606910252897
 20
27.50000000000001
 30
0.0
 41
2.5
 42
2.5
 43
2.5
 50
90.0
  0
INSERT
  5
72C9
330
6A20
100
AcDbEntity
  8
AM_5
100
AcDbBlockReference
  2
_OPEN30
 10
-86.55606910252897
 20
-27.49999999999999
 30
0.0
 41
2.5
 42
2.5
 43
2.5
 50
270.0
  0
MTEXT
  5
72CA
330
6A20
100
AcDbEntity
  8
AM_5
 62
     2
100
AcDbMText
 10
-89.65606910252896
 20
-0.0000000000000014
 30
0.0
 40
3.2
 41
0.0
 71
     5
 72
     1
  1
%%c55
  7
ASAMI
 11
0.0000000000000001
 21
1.0
 31
0.0
  0
POINT
  5
72CB
330
6A20
100
AcDbEntity
  8
DEFPOINTS
 62
     0
100
AcDbPoint
 10
-48.5
 20
27.5
 30
0.0
  0
POINT
  5
72CC
330
6A20
100
AcDbEntity
  8
DEFPOINTS
 62
     0
100
AcDbPoint
 10
-48.50000006556712
 20
-27.5
 30
0.0
  0
POINT
  5
72CD
330
6A20
100
AcDbEntity
  8
DEFPOINTS
 62
     0
100
AcDbPoint
 10
-86.55606910252897
 20
-27.49999999999999
 30
0.0
  0
ENDBLK
  5
6A2B
330
6A20
100
AcDbEntity
  8
0
100
AcDbBlockEnd
  0
BLOCK
  5
6AB0
330
6AA6
100
AcDbEntity
  8
0
100
AcDbBlockBegin
  2
*D8
 70
     1
 10
0.0
 20
0.0
 30
0.0
  3
*D8
  1

  0
LINE
  5
72E0
330
6AA6
100
AcDbEntity
  8
AM_5
100
AcDbLine
 10
1.0
 20
40.0
 30
0.0
 11
36.43101951146668
 21
39.99999999999999
 31
0.0
  0
LINE
  5
72E1
330
6AA6
100
AcDbEntity
  8
AM_5
100
AcDbLine
 10
1.000000000000056
 20
-40.0
 30
0.0
 11
36.43101951146666
 21
-40.0
 31
0.0
  0
LINE
  5
72E2
330
6AA6
100
AcDbEntity
  8
AM_5
100
AcDbLine
 10
35.43101951146668
 20
37.49999999999999
 30
0.0
 11
35.43101951146666
 21
-37.5
 31
0.0
  0
INSERT
  5
72E3
330
6AA6
100
AcDbEntity
  8
AM_5
100
AcDbBlockReference
  2
_OPEN30
 10
35.43101951146668
 20
39.99999999999999
 30
0.0
 41
2.5
 42
2.5
 43
2.5
 50
90.0
  0
INSERT
  5
72E4
330
6AA6
100
AcDbEntity
  8
AM_5
100
AcDbBlockReference
  2
_OPEN30
 10
35.43101951146666
 20
-40.0
 30
0.0
 41
2.5
 42
2.5
 43
2.5
 50
270.0
  0
MTEXT
  5
72E5
330
6AA6
100
AcDbEntity
  8
AM_5
 62
     2
100
AcDbMText
 10
32.33101951146667
 20
-0.0000000000000018
 30
0.0
 40
3.2
 41
0.0
 71
     5
 72
     1
  1
%%c80
  7
ASAMI
 11
0.0000000000000001
 21
1.0
 31
0.0
  0
POINT
  5
72E6
330
6AA6
100
AcDbEntity
  8
DEFPOINTS
 62
     0
100
AcDbPoint
 10
0.0
 20
40.0
 30
0.0
  0
POINT
  5
72E7
330
6AA6
100
AcDbEntity
  8
DEFPOINTS
 62
     0
100
AcDbPoint
 10
0.0000000000000568
 20
-40.0
 30
0.0
  0
POINT
  5
72E8
330
6AA6
100
AcDbEntity
  8
DEFPOINTS
 62
     0
100
AcDbPoint
 10
35.43101951146666
 20
-40.0
 30
0.0
  0
ENDBLK
  5
6AB1
330
6AA6
100
AcDbEntity
  8
0
100
AcDbBlockEnd
  0
BLOCK
  5
6ABC
330
6AB2
100
AcDbEntity
  8
0
100
AcDbBlockBegin
  2
*D9
 70
     1
 10
0.0
 20
0.0
 30
0.0
  3
*D9
  1

  0
LINE
  5
72E9
330
6AB2
100
AcDbEntity
  8
AM_5
100
AcDbLine
 10
-7.700000762938998
 20
10.0
 30
0.0
 11
26.43101951146667
 21
9.999999999999991
 31
0.0
  0
LINE
  5
72EA
330
6AB2
100
AcDbEntity
  8
AM_5
100
AcDbLine
 10
-7.700000894073184
 20
-9.999999999995992
 30
0.0
 11
26.43101951146666
 21
-9.999999999996001
 31
0.0
  0
LINE
  5
72EB
330
6AB2
100
AcDbEntity
  8
AM_5
100
AcDbLine
 10
25.43101951146667
 20
7.499999999999991
 30
0.0
 11
25.43101951146667
 21
-7.499999999996001
 31
0.0
  0
INSERT
  5
72EC
330
6AB2
100
AcDbEntity
  8
AM_5
100
AcDbBlockReference
  2
_OPEN30
 10
25.43101951146667
 20
9.999999999999991
 30
0.0
 41
2.5
 42
2.5
 43
2.5
 50
90.0
  0
INSERT
  5
72ED
330
6AB2
100
AcDbEntity
  8
AM_5
100
AcDbBlockReference
  2
_OPEN30
 10
25.43101951146666
 20
-9.999999999996001
 30
0.0
 41
2.5
 42
2.5
 43
2.5
 50
270.0
  0
MTEXT
  5
72EE
330
6AB2
100
AcDbEntity
  8
AM_5
 62
     2
100
AcDbMText
 10
22.33101951146666
 20
0.000000000001999
 30
0.0
 40
3.2
 41
0.0
 71
     5
 72
     1
  1
%%c20
  7
ASAMI
 11
0.0000000000000001
 21
1.0
 31
0.0
  0
POINT
  5
72EF
330
6AB2
100
AcDbEntity
  8
DEFPOINTS
 62
     0
100
AcDbPoint
 10
-8.700000762938998
 20
10.0
 30
0.0
  0
POINT
  5
72F0
330
6AB2
100
AcDbEntity
  8
DEFPOINTS
 62
     0
100
AcDbPoint
 10
-8.700000894073184
 20
-9.999999999995992
 30
0.0
  0
POINT
  5
72F1
330
6AB2
100
AcDbEntity
  8
DEFPOINTS
 62
     0
100
AcDbPoint
 10
25.43101951146666
 20
-9.999999999996001
 30
0.0
  0
ENDBLK
  5
6ABD
330
6AB2
100
AcDbEntity
  8
0
100
AcDbBlockEnd
  0
BLOCK
  5
6B2D
330
6B23
100
AcDbEntity
  8
0
100
AcDbBlockBegin
  2
*D10
 70
     1
 10
0.0
 20
0.0
 30
0.0
  3
*D10
  1

  0
LINE
  5
72F2
330
6B23
100
AcDbEntity
  8
AM_5
100
AcDbLine
 10
-25.0
 20
-14.2
 30
0.0
 11
-25.0
 21
-65.00001093408984
 31
0.0
  0
LINE
  5
72F3
330
6B23
100
AcDbEntity
  8
AM_5
100
AcDbLine
 10
-19.0
 20
-10.99999999999599
 30
0.0
 11
-19.0
 21
-65.00001093408984
 31
0.0
  0
LINE
  5
72F4
330
6B23
100
AcDbEntity
  8
AM_5
100
AcDbLine
 10
-27.5
 20
-64.00001093408985
 30
0.0
 11
-30.0
 21
-64.00001093408985
 31
0.0
  0
LINE
  5
72F5
330
6B23
100
AcDbEntity
  8
AM_5
100
AcDbLine
 10
-16.5
 20
-64.00001093408985
 30
0.0
 11
-14.0
 21
-64.00001093408985
 31
0.0
  0
LINE
  5
72F6
330
6B23
100
AcDbEntity
  8
AM_5
100
AcDbLine
 10
-25.0
 20
-64.00001093408985
 30
0.0
 11
-19.0
 21
-64.00001093408985
 31
0.0
  0
INSERT
  5
72F7
330
6B23
100
AcDbEntity
  8
AM_5
100
AcDbBlockReference
  2
_OPEN30
 10
-25.0
 20
-64.00001093408985
 30
0.0
 41
2.5
 42
2.5
 43
2.5
  0
INSERT
  5
72F8
330
6B23
100
AcDbEntity
  8
AM_5
100
AcDbBlockReference
  2
_OPEN30
 10
-19.0
 20
-64.00001093408985
 30
0.0
 41
2.5
 42
2.5
 43
2.5
 50
180.0
  0
MTEXT
  5
72F9
330
6B23
100
AcDbEntity
  8
AM_5
 62
     2
100
AcDbMText
 10
-22.0
 20
-60.90001093408984
 30
0.0
 40
3.2
 41
0.0
 71
     5
 72
     1
  1
6
  7
ASAMI
  0
POINT
  5
72FA
330
6B23
100
AcDbEntity
  8
DEFPOINTS
 62
     0
100
AcDbPoint
 10
-25.0
 20
-13.2
 30
0.0
  0
POINT
  5
72FB
330
6B23
100
AcDbEntity
  8
DEFPOINTS
 62
     0
100
AcDbPoint
 10
-19.0
 20
-9.999999999995992
 30
0.0
  0
POINT
  5
72FC
330
6B23
100
AcDbEntity
  8
DEFPOINTS
 62
     0
100
AcDbPoint
 10
-19.0
 20
-64.00001093408985
 30
0.0
  0
ENDBLK
  5
6B2E
330
6B23
100
AcDbEntity
  8
0
100
AcDbBlockEnd
  0
BLOCK
  5
6B39
330
6B2F
100
AcDbEntity
  8
0
100
AcDbBlockBegin
  2
*D11
 70
     1
 10
0.0
 20
0.0
 30
0.0
  3
*D11
  1

  0
LINE
  5
7306
330
6B2F
100
AcDbEntity
  8
AM_5
100
AcDbLine
 10
-50.0
 20
-26.99999986886577
 30
0.0
 11
-50.0
 21
-65.00001093408984
 31
0.0
  0
LINE
  5
7307
330
6B2F
100
AcDbEntity
  8
AM_5
100
AcDbLine
 10
-25.0
 20
-14.2
 30
0.0
 11
-25.0
 21
-65.00001093408984
 31
0.0
  0
LINE
  5
7308
330
6B2F
100
AcDbEntity
  8
AM_5
100
AcDbLine
 10
-47.5
 20
-64.00001093408985
 30
0.0
 11
-27.5
 21
-64.00001093408985
 31
0.0
  0
INSERT
  5
7309
330
6B2F
100
AcDbEntity
  8
AM_5
100
AcDbBlockReference
  2
_OPEN30
 10
-50.0
 20
-64.00001093408985
 30
0.0
 41
2.5
 42
2.5
 43
2.5
 50
180.0
  0
INSERT
  5
730A
330
6B2F
100
AcDbEntity
  8
AM_5
100
AcDbBlockReference
  2
_OPEN30
 10
-25.0
 20
-64.00001093408985
 30
0.0
 41
2.5
 42
2.5
 43
2.5
  0
MTEXT
  5
730B
330
6B2F
100
AcDbEntity
  8
AM_5
 62
     2
100
AcDbMText
 10
-37.5
 20
-60.90001093408984
 30
0.0
 40
3.2
 41
0.0
 71
     5
 72
     1
  1
25
  7
ASAMI
  0
POINT
  5
730C
330
6B2F
100
AcDbEntity
  8
DEFPOINTS
 62
     0
100
AcDbPoint
 10
-50.0
 20
-25.99999986886577
 30
0.0
  0
POINT
  5
730D
330
6B2F
100
AcDbEntity
  8
DEFPOINTS
 62
     0
100
AcDbPoint
 10
-25.0
 20
-13.2
 30
0.0
  0
POINT
  5
730E
330
6B2F
100
AcDbEntity
  8
DEFPOINTS
 62
     0
100
AcDbPoint
 10
-25.0
 20
-64.00001093408985
 30
0.0
  0
ENDBLK
  5
6B3A
330
6B2F
100
AcDbEntity
  8
0
100
AcDbBlockEnd
  0
BLOCK
  5
6B45
330
6B3B
100
AcDbEntity
  8
0
100
AcDbBlockBegin
  2
*D12
 70
     1
 10
0.0
 20
0.0
 30
0.0
  3
*D12
  1

  0
LINE
  5
72FD
330
6B3B
100
AcDbEntity
  8
AM_5
100
AcDbLine
 10
-50.0
 20
-26.99999986886577
 30
0.0
 11
-50.0
 21
-75.00000213238603
 31
0.0
  0
LINE
  5
72FE
330
6B3B
100
AcDbEntity
  8
AM_5
100
AcDbLine
 10
-5.700000000000017
 20
-25.29355463412133
 30
0.0
 11
-5.700000000000019
 21
-75.00000213238603
 31
0.0
  0
LINE
  5
72FF
330
6B3B
100
AcDbEntity
  8
AM_5
100
AcDbLine
 10
-47.5
 20
-74.00000213238603
 30
0.0
 11
-8.20000000000002
 21
-74.00000213238603
 31
0.0
  0
INSERT
  5
7300
330
6B3B
100
AcDbEntity
  8
AM_5
100
AcDbBlockReference
  2
_OPEN30
 10
-50.0
 20
-74.00000213238603
 30
0.0
 41
2.5
 42
2.5
 43
2.5
 50
180.0
  0
INSERT
  5
7301
330
6B3B
100
AcDbEntity
  8
AM_5
100
AcDbBlockReference
  2
_OPEN30
 10
-5.700000000000019
 20
-74.00000213238603
 30
0.0
 41
2.5
 42
2.5
 43
2.5
  0
MTEXT
  5
7302
330
6B3B
100
AcDbEntity
  8
AM_5
 62
     2
100
AcDbMText
 10
-27.85000000000001
 20
-70.90000213238603
 30
0.0
 40
3.2
 41
0.0
 71
     5
 72
     1
  1
44.3
  7
ASAMI
  0
POINT
  5
7303
330
6B3B
100
AcDbEntity
  8
DEFPOINTS
 62
     0
100
AcDbPoint
 10
-50.0
 20
-25.99999986886577
 30
0.0
  0
POINT
  5
7304
330
6B3B
100
AcDbEntity
  8
DEFPOINTS
 62
     0
100
AcDbPoint
 10
-5.700000000000017
 20
-24.29355463412133
 30
0.0
  0
POINT
  5
7305
330
6B3B
100
AcDbEntity
  8
DEFPOINTS
 62
     0
100
AcDbPoint
 10
-5.700000000000019
 20
-74.00000213238603
 30
0.0
  0
ENDBLK
  5
6B46
330
6B3B
100
AcDbEntity
  8
0
100
AcDbBlockEnd
  0
BLOCK
  5
6BD0
330
6BC6
100
AcDbEntity
  8
0
100
AcDbBlockBegin
  2
*D13
 70
     1
 10
0.0
 20
0.0
 30
0.0
  3
*D13
  1

  0
LINE
  5
730F
330
6BC6
100
AcDbEntity
  8
AM_5
100
AcDbLine
 10
-50.0
 20
-26.99999986886577
 30
0.0
 11
-50.0
 21
-85.00000100000059
 31
0.0
  0
LINE
  5
7310
330
6BC6
100
AcDbEntity
  8
AM_5
100
AcDbLine
 10
0.0000000000001136
 20
-40.99999999999996
 30
0.0
 11
0.0000000000001109
 21
-85.00000100000059
 31
0.0
  0
LINE
  5
7311
330
6BC6
100
AcDbEntity
  8
AM_5
100
AcDbLine
 10
-47.5
 20
-84.0000010000006
 30
0.0
 11
-2.499999999999888
 21
-84.0000010000006
 31
0.0
  0
INSERT
  5
7312
330
6BC6
100
AcDbEntity
  8
AM_5
100
AcDbBlockReference
  2
_OPEN30
 10
-50.0
 20
-84.0000010000006
 30
0.0
 41
2.5
 42
2.5
 43
2.5
 50
180.0
  0
INSERT
  5
7313
330
6BC6
100
AcDbEntity
  8
AM_5
100
AcDbBlockReference
  2
_OPEN30
 10
0.000000000000111
 20
-84.0000010000006
 30
0.0
 41
2.5
 42
2.5
 43
2.5
  0
MTEXT
  5
7314
330
6BC6
100
AcDbEntity
  8
AM_5
 62
     2
100
AcDbMText
 10
-24.99999999999994
 20
-80.90000100000059
 30
0.0
 40
3.2
 41
0.0
 71
     5
 72
     1
  1
50
  7
ASAMI
  0
POINT
  5
7315
330
6BC6
100
AcDbEntity
  8
DEFPOINTS
 62
     0
100
AcDbPoint
 10
-50.0
 20
-25.99999986886577
 30
0.0
  0
POINT
  5
7316
330
6BC6
100
AcDbEntity
  8
DEFPOINTS
 62
     0
100
AcDbPoint
 10
0.0000000000001137
 20
-39.99999999999997
 30
0.0
  0
POINT
  5
7317
330
6BC6
100
AcDbEntity
  8
DEFPOINTS
 62
     0
100
AcDbPoint
 10
0.000000000000111
 20
-84.0000010000006
 30
0.0
  0
ENDBLK
  5
6BD1
330
6BC6
100
AcDbEntity
  8
0
100
AcDbBlockEnd
  0
BLOCK
  5
6F99
330
6F8F
100
AcDbEntity
  8
0
100
AcDbBlockBegin
  2
*D14
 70
     1
 10
0.0
 20
0.0
 30
0.0
  3
*D14
  1

  0
LINE
  5
7318
330
6F8F
100
AcDbEntity
  8
AM_5
100
AcDbLine
 10
-18.0
 20
6.5
 30
0.0
 11
16.43101951146666
 21
6.49999999999999
 31
0.0
  0
LINE
  5
7319
330
6F8F
100
AcDbEntity
  8
AM_5
100
AcDbLine
 10
-17.99999999999998
 20
-6.499999999995993
 30
0.0
 11
16.43101951146666
 21
-6.499999999996002
 31
0.0
  0
LINE
  5
731A
330
6F8F
100
AcDbEntity
  8
AM_5
100
AcDbLine
 10
15.43101951146666
 20
3.99999999999999
 30
0.0
 11
15.43101951146666
 21
-3.999999999996002
 31
0.0
  0
INSERT
  5
731B
330
6F8F
100
AcDbEntity
  8
AM_5
100
AcDbBlockReference
  2
_OPEN30
 10
15.43101951146666
 20
6.49999999999999
 30
0.0
 41
2.5
 42
2.5
 43
2.5
 50
90.0
  0
INSERT
  5
731C
330
6F8F
100
AcDbEntity
  8
AM_5
100
AcDbBlockReference
  2
_OPEN30
 10
15.43101951146666
 20
-6.499999999996002
 30
0.0
 41
2.5
 42
2.5
 43
2.5
 50
270.0
  0
MTEXT
  5
731D
330
6F8F
100
AcDbEntity
  8
AM_5
 62
     2
100
AcDbMText
 10
12.33101951146666
 20
0.0000000000019969
 30
0.0
 40
3.2
 41
0.0
 71
     5
 72
     1
  1
%%c13
  7
ASAMI
 11
0.0000000000000001
 21
1.0
 31
0.0
  0
POINT
  5
731E
330
6F8F
100
AcDbEntity
  8
DEFPOINTS
 62
     0
100
AcDbPoint
 10
-19.0
 20
6.5
 30
0.0
  0
POINT
  5
731F
330
6F8F
100
AcDbEntity
  8
DEFPOINTS
 62
     0
100
AcDbPoint
 10
-18.99999999999998
 20
-6.499999999995992
 30
0.0
  0
POINT
  5
7320
330
6F8F
100
AcDbEntity
  8
DEFPOINTS
 62
     0
100
AcDbPoint
 10
15.43101951146666
 20
-6.499999999996002
 30
0.0
  0
ENDBLK
  5
6F9A
330
6F8F
100
AcDbEntity
  8
0
100
AcDbBlockEnd
  0
BLOCK
  5
713D
330
7131
100
AcDbEntity
  8
0
100
AcDbBlockBegin
  2
*D15
 70
     1
 10
0.0
 20
0.0
 30
0.0
  3
*D15
  1

  0
LINE
  5
7321
330
7131
100
AcDbEntity
  8
AM_5
100
AcDbLine
 10
-50.0
 20
-26.99999986886577
 30
0.0
 11
-50.0
 21
-55.00001093409004
 31
0.0
  0
LINE
  5
7322
330
7131
100
AcDbEntity
  8
AM_5
100
AcDbLine
 10
-44.0
 20
-5.75
 30
0.0
 11
-44.0
 21
-55.00001093409004
 31
0.0
  0
LINE
  5
7323
330
7131
100
AcDbEntity
  8
AM_5
100
AcDbLine
 10
-52.5
 20
-54.00001093409003
 30
0.0
 11
-55.0
 21
-54.00001093409003
 31
0.0
  0
LINE
  5
7324
330
7131
100
AcDbEntity
  8
AM_5
100
AcDbLine
 10
-41.5
 20
-54.00001093409003
 30
0.0
 11
-39.0
 21
-54.00001093409003
 31
0.0
  0
LINE
  5
7325
330
7131
100
AcDbEntity
  8
AM_5
100
AcDbLine
 10
-50.0
 20
-54.00001093409003
 30
0.0
 11
-44.0
 21
-54.00001093409003
 31
0.0
  0
INSERT
  5
7326
330
7131
100
AcDbEntity
  8
AM_5
100
AcDbBlockReference
  2
_OPEN30
 10
-50.0
 20
-54.00001093409003
 30
0.0
 41
2.5
 42
2.5
 43
2.5
  0
INSERT
  5
7327
330
7131
100
AcDbEntity
  8
AM_5
100
AcDbBlockReference
  2
_OPEN30
 10
-44.0
 20
-54.00001093409003
 30
0.0
 41
2.5
 42
2.5
 43
2.5
 50
180.0
  0
MTEXT
  5
7328
330
7131
100
AcDbEntity
  8
AM_5
 62
     2
100
AcDbMText
 10
-47.0
 20
-50.90001093409004
 30
0.0
 40
3.2
 41
0.0
 71
     5
 72
     1
  1
6
  7
ASAMI
  0
POINT
  5
7329
330
7131
100
AcDbEntity
  8
DEFPOINTS
 62
     0
100
AcDbPoint
 10
-50.0
 20
-25.99999986886577
 30
0.0
  0
POINT
  5
732A
330
7131
100
AcDbEntity
  8
DEFPOINTS
 62
     0
100
AcDbPoint
 10
-44.0
 20
-4.75
 30
0.0
  0
POINT
  5
732B
330
7131
100
AcDbEntity
  8
DEFPOINTS
 62
     0
100
AcDbPoint
 10
-44.0
 20
-54.00001093409003
 30
0.0
  0
ENDBLK
  5
713E
330
7131
100
AcDbEntity
  8
0
100
AcDbBlockEnd
  0
ENDSEC
  0
SECTION
  2
ENTITIES
  0
TEXT
  5
E5A
330
1F
100
AcDbEntity
  8
AM_6
100
AcDbText
 10
-48.09523809523802
 20
-106.5000010000005
 30
0.0
 40
5.0
  1
WRCF16080R
 72
     4
 11
-24.99999999999992
 21
-104.0000010000005
 31
0.0
100
AcDbText
  0
LINE
  5
697F
330
1F
100
AcDbEntity
  8
AM_0
  6
CONTINUOUS
 48
0.5
100
AcDbLine
 10
-42.90000152587896
 20
12.69999999999998
 30
0.0
 11
-42.9000032878157
 21
-12.7
 31
0.0
  0
LINE
  5
6980
330
1F
100
AcDbEntity
  8
AM_0
  6
CONTINUOUS
 48
0.5
100
AcDbLine
 10
-19.0
 20
10.0
 30
0.0
 11
-19.0
 21
-9.999999999995992
 31
0.0
  0
LINE
  5
6982
330
1F
100
AcDbEntity
  8
AM_0
  6
CONTINUOUS
 48
0.5
100
AcDbLine
 10
-30.0
 20
13.19999999999998
 30
0.0
 11
-30.00000176193674
 21
-13.2
 31
0.0
  0
LINE
  5
6983
330
1F
100
AcDbEntity
  8
AM_0
  6
CONTINUOUS
 48
0.5
100
AcDbLine
 10
-44.0
 20
4.749999999999971
 30
0.0
 11
-44.0
 21
-4.75
 31
0.0
  0
LINE
  5
6984
330
1F
100
AcDbEntity
  8
AM_0
  6
CONTINUOUS
 48
0.5
100
AcDbLine
 10
-24.99999823806325
 20
13.19999999999998
 30
0.0
 11
-25.0
 21
-13.2
 31
0.0
  0
LINE
  5
6985
330
1F
100
AcDbEntity
  8
AM_0
  6
CONTINUOUS
100
AcDbLine
 10
-1.0
 20
-27.99449061795739
 30
0.0
 11
-1.0
 21
27.99448394775402
 31
0.0
  0
LINE
  5
6988
330
1F
100
AcDbEntity
  8
AM_0
  6
CONTINUOUS
 48
0.5
100
AcDbLine
 10
-49.9999941325417
 20
-14.2
 30
0.0
 11
-48.50000939133071
 21
-12.7000076294
 31
0.0
  0
LINE
  5
6989
330
1F
100
AcDbEntity
  8
AM_0
  6
CONTINUOUS
 48
0.5
100
AcDbLine
 10
-50.0
 20
-5.75
 30
0.0
 11
-50.00000000000006
 21
-26.0
 31
0.0
  0
LINE
  5
698B
330
1F
100
AcDbEntity
  8
AM_0
  6
CONTINUOUS
 48
0.5
100
AcDbLine
 10
-48.5
 20
-4.75
 30
0.0
 11
-48.50000176193674
 21
-12.7
 31
0.0
  0
ARC
  5
698C
330
1F
100
AcDbEntity
  8
AM_0
  6
CONTINUOUS
 48
0.5
100
AcDbCircle
 10
-8.700000762938998
 20
-12.99999999999599
 30
0.0
 40
3.0
100
AcDbArc
 50
0.0
 51
90.00000250447845
  0
LINE
  5
698D
330
1F
100
AcDbEntity
  8
AM_0
  6
CONTINUOUS
 48
0.5
100
AcDbLine
 10
-25.0
 20
-13.2
 30
0.0
 11
-30.00000176193674
 21
-13.2
 31
0.0
  0
LINE
  5
698E
330
1F
100
AcDbEntity
  8
AM_0
  6
CONTINUOUS
 48
0.5
100
AcDbLine
 10
-8.700000762938998
 20
-9.999999999995992
 30
0.0
 11
-19.0
 21
-9.999999999995992
 31
0.0
  0
LINE
  5
698F
330
1F
100
AcDbEntity
  8
AM_0
  6
CONTINUOUS
 48
0.5
100
AcDbLine
 10
-30.00000176193674
 20
-12.7
 30
0.0
 11
-48.50000176193674
 21
-12.7
 31
0.0
  0
LINE
  5
6990
330
1F
100
AcDbEntity
  8
AM_0
  6
CONTINUOUS
 48
0.5
100
AcDbLine
 10
-50.00000762939396
 20
-5.750007629400002
 30
0.0
 11
-49.0
 21
-4.75
 31
0.0
  0
LINE
  5
6991
330
1F
100
AcDbEntity
  8
AM_0
  6
CONTINUOUS
 48
0.5
100
AcDbLine
 10
-44.0
 20
-4.75
 30
0.0
 11
-49.0
 21
-4.75
 31
0.0
  0
LINE
  5
6992
330
1F
100
AcDbEntity
  8
AM_0
  6
CONTINUOUS
 48
0.5
100
AcDbLine
 10
-19.0
 20
-6.499999999995992
 30
0.0
 11
-24.99999823806325
 21
-6.499999999995992
 31
0.0
  0
LINE
  5
6993
330
1F
100
AcDbEntity
  8
AM_11
100
AcDbLine
 10
-38.37125396728498
 20
27.5
 30
0.0
 11
-5.700000762938998
 21
18.745765686036
 31
0.0
  0
LINE
  5
6994
330
1F
100
AcDbEntity
  8
AM_0
  6
CONTINUOUS
 48
0.5
100
AcDbLine
 10
-50.0
 20
26.0
 30
0.0
 11
-50.0
 21
5.762496948243011
 31
0.0
  0
ARC
  5
6995
330
1F
100
AcDbEntity
  8
AM_0
  6
CONTINUOUS
 48
0.5
100
AcDbCircle
 10
-8.700000762938998
 20
13.0
 30
0.0
 40
3.0
100
AcDbArc
 50
269.9999974955215
 51
0.0
  0
LINE
  5
6996
330
1F
100
AcDbEntity
  8
AM_0
  6
CONTINUOUS
 48
0.5
100
AcDbLine
 10
-48.5
 20
12.69999999999998
 30
0.0
 11
-48.5
 21
4.762496948243011
 31
0.0
  0
LINE
  5
6997
330
1F
100
AcDbEntity
  8
AM_7
  6
AM_ISO08W050
100
AcDbLine
 10
1.431026458740007
 20
0.0
 30
0.0
 11
-52.55607604980395
 21
0.0
 31
0.0
  0
LINE
  5
6998
330
1F
100
AcDbEntity
  8
AM_0
  6
CONTINUOUS
 48
0.5
100
AcDbLine
 10
-50.0
 20
5.750007629393991
 30
0.0
 11
-49.0
 21
4.750007629393991
 31
0.0
  0
LINE
  5
6999
330
1F
100
AcDbEntity
  8
AM_0
  6
CONTINUOUS
 48
0.5
100
AcDbLine
 10
-44.0
 20
4.75
 30
0.0
 11
-49.0
 21
4.75
 31
0.0
  0
LINE
  5
699A
330
1F
100
AcDbEntity
  8
AM_0
  6
CONTINUOUS
 48
0.5
100
AcDbLine
 10
-19.0
 20
6.5
 30
0.0
 11
-24.99999823806325
 21
6.5
 31
0.0
  0
LINE
  5
699B
330
1F
100
AcDbEntity
  8
AM_0
  6
CONTINUOUS
 48
0.5
100
AcDbLine
 10
-50.0
 20
14.19999999999999
 30
0.0
 11
-48.5
 21
12.69999999999998
 31
0.0
  0
LINE
  5
699C
330
1F
100
AcDbEntity
  8
AM_0
  6
CONTINUOUS
 48
0.5
100
AcDbLine
 10
-24.99999823806325
 20
13.19999999999998
 30
0.0
 11
-30.0
 21
13.19999999999998
 31
0.0
  0
LINE
  5
699D
330
1F
100
AcDbEntity
  8
AM_0
  6
CONTINUOUS
 48
0.5
100
AcDbLine
 10
-8.700000762938998
 20
10.0
 30
0.0
 11
-19.0
 21
10.0
 31
0.0
  0
LINE
  5
699E
330
1F
100
AcDbEntity
  8
AM_0
  6
CONTINUOUS
 48
0.5
100
AcDbLine
 10
-30.0
 20
12.69999999999998
 30
0.0
 11
-48.5
 21
12.69999999999998
 31
0.0
  0
CIRCLE
  5
699F
330
1F
100
AcDbEntity
  8
AM_0
  6
CONTINUOUS
 48
0.5
100
AcDbCircle
 10
-8.0
 20
32.0
 30
0.0
 40
4.0
  0
LINE
  5
69A0
330
1F
100
AcDbEntity
  8
AM_0
  6
CONTINUOUS
 48
0.5
100
AcDbLine
 10
-29.12132263183599
 20
28.378677368164
 30
0.0
 11
-23.238681793213
 21
34.26131820678699
 31
0.0
  0
LINE
  5
69A1
330
1F
100
AcDbEntity
  8
AM_0
  6
CONTINUOUS
 48
0.5
100
AcDbLine
 10
0.0
 20
33.59130096435601
 30
0.0
 11
0.0
 21
30.40869903564498
 31
0.0
  0
LINE
  5
69A2
330
1F
100
AcDbEntity
  8
AM_0
  6
CONTINUOUS
 48
0.5
100
AcDbLine
 10
-16.0
 20
30.40869903564498
 30
0.0
 11
-16.0
 21
33.59130096435601
 31
0.0
  0
ARC
  5
69A3
330
1F
100
AcDbEntity
  8
AM_0
  6
CONTINUOUS
 48
0.5
100
AcDbCircle
 10
-48.5
 20
26.0
 30
0.0
 40
1.5
100
AcDbArc
 50
90.00000250447845
 51
180.0000050089585
  0
LINE
  5
69A4
330
1F
100
AcDbEntity
  8
AM_0
  6
CONTINUOUS
 48
0.5
100
AcDbLine
 10
-1.217929840087975
 20
27.46836090087902
 30
0.0
 11
-3.468364715575972
 21
25.21792602539102
 31
0.0
  0
LINE
  5
69A5
330
1F
100
AcDbEntity
  8
AM_0
  6
CONTINUOUS
 48
0.5
100
AcDbLine
 10
-12.53163909912098
 20
25.21792602539102
 30
0.0
 11
-14.78207778930595
 21
27.46836090087902
 31
0.0
  0
LINE
  5
69A6
330
1F
100
AcDbEntity
  8
AM_0
  6
CONTINUOUS
 48
0.5
100
AcDbLine
 10
-3.468372344969992
 20
25.21792602539102
 30
0.0
 11
-6.408702850341967
 21
24.0
 31
0.0
  0
LINE
  5
69A7
330
1F
100
AcDbEntity
  8
AM_0
  6
CONTINUOUS
 48
0.5
100
AcDbLine
 10
-6.408702850341967
 20
24.0
 30
0.0
 11
-9.591300964354985
 21
24.0
 31
0.0
  0
LINE
  5
69A8
330
1F
100
AcDbEntity
  8
AM_0
  6
CONTINUOUS
 48
0.5
100
AcDbLine
 10
-9.591300964354985
 20
24.0
 30
0.0
 11
-12.53163909912098
 21
25.21792602539102
 31
0.0
  0
ARC
  5
69A9
330
1F
100
AcDbEntity
  8
AM_0
  6
CONTINUOUS
 48
0.5
100
AcDbCircle
 10
-31.242637634277
 20
30.5
 30
0.0
 40
3.0
100
AcDbArc
 50
269.9999974955215
 51
314.9999987477625
  0
LINE
  5
69AA
330
1F
100
AcDbEntity
  8
AM_0
  6
CONTINUOUS
 48
0.5
100
AcDbLine
 10
-31.242637634277
 20
27.5
 30
0.0
 11
-48.5
 21
27.5
 31
0.0
  0
LINE
  5
69AB
330
1F
100
AcDbEntity
  8
AM_0
  6
CONTINUOUS
 48
0.5
100
AcDbLine
 10
0.0
 20
30.408706665039
 30
0.0
 11
-1.217929840087975
 21
27.46836090087902
 31
0.0
  0
LINE
  5
69AC
330
1F
100
AcDbEntity
  8
AM_0
  6
CONTINUOUS
 48
0.5
100
AcDbLine
 10
-14.78207397460897
 20
27.46836090087902
 30
0.0
 11
-16.0
 21
30.40869903564498
 31
0.0
  0
LINE
  5
69AD
330
1F
100
AcDbEntity
  8
AM_0
  6
CONTINUOUS
 48
0.5
100
AcDbLine
 10
-14.78207397460897
 20
36.531635284424
 30
0.0
 11
-12.53163909912098
 21
38.78207015991199
 31
0.0
  0
LINE
  5
69AE
330
1F
100
AcDbEntity
  8
AM_0
  6
CONTINUOUS
 48
0.5
100
AcDbLine
 10
-1.217933654784985
 20
36.53163146972701
 30
0.0
 11
-3.468368530272982
 21
38.78207015991199
 31
0.0
  0
ARC
  5
69AF
330
1F
100
AcDbEntity
  8
AM_0
  6
CONTINUOUS
 48
0.5
100
AcDbCircle
 10
-21.11735916137701
 20
32.139999389649
 30
0.0
 40
3.0
100
AcDbArc
 50
90.00000250447845
 51
135.0000003416233
  0
LINE
  5
69B0
330
1F
100
AcDbEntity
  8
AM_0
  6
CONTINUOUS
 48
0.5
100
AcDbLine
 10
-15.35850906371996
 20
35.139999389649
 30
0.0
 11
-21.11735916137701
 21
35.139999389649
 31
0.0
  0
LINE
  5
69B1
330
1F
100
AcDbEntity
  8
AM_0
  6
CONTINUOUS
 48
0.5
100
AcDbLine
 10
-1.217929840087975
 20
36.531635284424
 30
0.0
 11
0.0
 21
33.59130096435601
 31
0.0
  0
LINE
  5
69B2
330
1F
100
AcDbEntity
  8
AM_0
  6
CONTINUOUS
 48
0.5
100
AcDbLine
 10
-16.00000381469698
 20
33.591297149659
 30
0.0
 11
-14.78207397460897
 21
36.531639099121
 31
0.0
  0
LINE
  5
69B3
330
1F
100
AcDbEntity
  8
AM_0
  6
CONTINUOUS
 48
0.5
100
AcDbLine
 10
-12.53163909912098
 20
38.78207397461
 30
0.0
 11
-9.591304779051995
 21
40.0
 31
0.0
  0
LINE
  5
69B4
330
1F
100
AcDbEntity
  8
AM_0
  6
CONTINUOUS
 48
0.5
100
AcDbLine
 10
-9.591300964354985
 20
40.0
 30
0.0
 11
-6.408702850341967
 21
40.0
 31
0.0
  0
LINE
  5
69B5
330
1F
100
AcDbEntity
  8
AM_0
  6
CONTINUOUS
 48
0.5
100
AcDbLine
 10
-3.468364715575972
 20
38.78207397461
 30
0.0
 11
-6.408702850341967
 21
40.0
 31
0.0
  0
LINE
  5
69E9
330
1F
100
AcDbEntity
  8
AM_0
  6
CONTINUOUS
 48
0.5
100
AcDbLine
 10
-29.12132263183599
 20
-28.378677368164
 30
0.0
 11
-23.238681793213
 21
-34.26131820678699
 31
0.0
  0
LINE
  5
69EA
330
1F
100
AcDbEntity
  8
AM_11
100
AcDbLine
 10
-38.37125396728498
 20
-27.5
 30
0.0
 11
-5.700000762938998
 21
-18.745765686036
 31
0.0
  0
ARC
  5
69EB
330
1F
100
AcDbEntity
  8
AM_0
  6
CONTINUOUS
 48
0.5
100
AcDbCircle
 10
-48.5
 20
-26.0
 30
0.0
 40
1.5
100
AcDbArc
 50
179.9999949910414
 51
269.9999974955215
  0
LINE
  5
69EC
330
1F
100
AcDbEntity
  8
AM_0
  6
CONTINUOUS
 48
0.5
100
AcDbLine
 10
-31.242637634277
 20
-27.5
 30
0.0
 11
-48.5
 21
-27.5
 31
0.0
  0
ARC
  5
69ED
330
1F
100
AcDbEntity
  8
AM_0
  6
CONTINUOUS
 48
0.5
100
AcDbCircle
 10
-31.242637634277
 20
-30.5
 30
0.0
 40
3.0
100
AcDbArc
 50
45.00000125223746
 51
90.00000250447849
  0
LINE
  5
69EE
330
1F
100
AcDbEntity
  8
AM_0
  6
CONTINUOUS
 48
0.5
100
AcDbLine
 10
-16.0
 20
-30.40869903564498
 30
0.0
 11
-16.0
 21
-33.59130096435601
 31
0.0
  0
LINE
  5
69EF
330
1F
100
AcDbEntity
  8
AM_0
  6
CONTINUOUS
 48
0.5
100
AcDbLine
 10
0.0
 20
-33.59130096435601
 30
0.0
 11
0.0
 21
-30.40869903564498
 31
0.0
  0
CIRCLE
  5
69F0
330
1F
100
AcDbEntity
  8
AM_0
  6
CONTINUOUS
 48
0.5
100
AcDbCircle
 10
-8.0
 20
-32.0
 30
0.0
 40
4.0
  0
LINE
  5
69F1
330
1F
100
AcDbEntity
  8
AM_0
  6
CONTINUOUS
 48
0.5
100
AcDbLine
 10
-6.408702850341967
 20
-24.0
 30
0.0
 11
-9.591300964354985
 21
-24.0
 31
0.0
  0
LINE
  5
69F2
330
1F
100
AcDbEntity
  8
AM_0
  6
CONTINUOUS
 48
0.5
100
AcDbLine
 10
-12.53163909912098
 20
-25.21792602539102
 30
0.0
 11
-14.78207778930595
 21
-27.46836090087902
 31
0.0
  0
LINE
  5
69F3
330
1F
100
AcDbEntity
  8
AM_0
  6
CONTINUOUS
 48
0.5
100
AcDbLine
 10
-14.78207397460897
 20
-27.46836090087902
 30
0.0
 11
-16.0
 21
-30.40869903564498
 31
0.0
  0
LINE
  5
69F4
330
1F
100
AcDbEntity
  8
AM_0
  6
CONTINUOUS
 48
0.5
100
AcDbLine
 10
-9.591300964354985
 20
-24.0
 30
0.0
 11
-12.53163909912098
 21
-25.21792602539102
 31
0.0
  0
LINE
  5
69F5
330
1F
100
AcDbEntity
  8
AM_0
  6
CONTINUOUS
 48
0.5
100
AcDbLine
 10
-1.217929840087975
 20
-27.46836090087902
 30
0.0
 11
-3.468364715575972
 21
-25.21792602539102
 31
0.0
  0
LINE
  5
69F6
330
1F
100
AcDbEntity
  8
AM_0
  6
CONTINUOUS
 48
0.5
100
AcDbLine
 10
-3.468372344969992
 20
-25.21792602539102
 30
0.0
 11
-6.408702850341967
 21
-24.0
 31
0.0
  0
LINE
  5
69F7
330
1F
100
AcDbEntity
  8
AM_0
  6
CONTINUOUS
 48
0.5
100
AcDbLine
 10
0.0
 20
-30.408706665039
 30
0.0
 11
-1.217929840087975
 21
-27.46836090087902
 31
0.0
  0
LINE
  5
69F8
330
1F
100
AcDbEntity
  8
AM_0
  6
CONTINUOUS
 48
0.5
100
AcDbLine
 10
-9.591300964354985
 20
-40.0
 30
0.0
 11
-6.408702850341967
 21
-40.0
 31
0.0
  0
LINE
  5
69F9
330
1F
100
AcDbEntity
  8
AM_0
  6
CONTINUOUS
 48
0.5
100
AcDbLine
 10
-15.35850906371996
 20
-35.139999389649
 30
0.0
 11
-21.11735916137701
 21
-35.139999389649
 31
0.0
  0
ARC
  5
69FA
330
1F
100
AcDbEntity
  8
AM_0
  6
CONTINUOUS
 48
0.5
100
AcDbCircle
 10
-21.11735916137701
 20
-32.139999389649
 30
0.0
 40
3.0
100
AcDbArc
 50
224.9999996583766
 51
269.9999974955215
  0
LINE
  5
69FB
330
1F
100
AcDbEntity
  8
AM_0
  6
CONTINUOUS
 48
0.5
100
AcDbLine
 10
-14.78207397460897
 20
-36.531635284424
 30
0.0
 11
-12.53163909912098
 21
-38.78207015991199
 31
0.0
  0
LINE
  5
69FC
330
1F
100
AcDbEntity
  8
AM_0
  6
CONTINUOUS
 48
0.5
100
AcDbLine
 10
-16.00000381469698
 20
-33.591297149659
 30
0.0
 11
-14.78207397460897
 21
-36.531639099121
 31
0.0
  0
LINE
  5
69FD
330
1F
100
AcDbEntity
  8
AM_0
  6
CONTINUOUS
 48
0.5
100
AcDbLine
 10
-12.53163909912098
 20
-38.78207397461
 30
0.0
 11
-9.591304779051995
 21
-40.0
 31
0.0
  0
LINE
  5
69FE
330
1F
100
AcDbEntity
  8
AM_0
  6
CONTINUOUS
 48
0.5
100
AcDbLine
 10
-1.217933654784985
 20
-36.53163146972701
 30
0.0
 11
-3.468368530272982
 21
-38.78207015991199
 31
0.0
  0
LINE
  5
69FF
330
1F
100
AcDbEntity
  8
AM_0
  6
CONTINUOUS
 48
0.5
100
AcDbLine
 10
-3.468364715575972
 20
-38.78207397461
 30
0.0
 11
-6.408702850341967
 21
-40.0
 31
0.0
  0
LINE
  5
6A00
330
1F
100
AcDbEntity
  8
AM_0
  6
CONTINUOUS
 48
0.5
100
AcDbLine
 10
-1.217929840087975
 20
-36.531635284424
 30
0.0
 11
0.0
 21
-33.59130096435601
 31
0.0
  0
DIMENSION
  5
6A05
330
1F
100
AcDbEntity
  8
AM_5
100
AcDbDimension
  2
*D7
 10
-86.55606910252897
 20
-27.49999999999999
 30
0.0
 11
-89.65606910252896
 21
-0.0000000000000014
 31
0.0
 70
    32
  1
%%c<>
  3
AM_JIS$0
100
AcDbAlignedDimension
 13
-48.5
 23
27.5
 33
0.0
 14
-48.50000006556712
 24
-27.5
 34
0.0
 50
270.0
100
AcDbRotatedDimension
1001
GENIUS_GENDTOL_13
1000

1000
h7
1000

1040
0.0
1001
ACAD
1000
DSTYLE
1002
{
1070
   287
1070
     5
1070
    42
1040
1.0
1070
    43
1040
12.0
1070
    48
1040
0.1
1070
    78
1070
     8
1070
   140
1040
3.2
1070
   176
1070
   256
1070
   177
1070
   256
1070
   271
1070
     3
1070
   272
1070
     3
1070
   275
1070
     0
1070
   279
1070
     2
1070
   284
1070
     0
1070
   289
1070
     3
1070
   340
1005
6B
1070
   371
1070
    -1
1070
   372
1070
    -1
1002
}
  0
DIMENSION
  5
6A06
330
1F
100
AcDbEntity
  8
AM_5
100
AcDbDimension
  2
*D5
 10
-66.55606910252896
 20
-4.749999999999994
 30
0.0
 11
-71.40606910252896
 21
-0.0000000000000054
 31
0.0
 70
    32
  1
<>
  3
AM_JIS$0
100
AcDbAlignedDimension
 13
-49.0
 23
4.75
 33
0.0
 14
-49.0
 24
-4.75
 34
0.0
 50
270.0
100
AcDbRotatedDimension
1001
GENIUS_GENDTOL_13
1000

1000
h7
1000

1040
0.0
1001
ACAD
1000
DSTYLE
1002
{
1070
   287
1070
     5
1070
    42
1040
1.0
1070
    43
1040
12.0
1070
    48
1040
0.1
1070
    78
1070
     8
1070
   140
1040
3.2
1070
   176
1070
   256
1070
   177
1070
   256
1070
   271
1070
     3
1070
   272
1070
     3
1070
   275
1070
     0
1070
   279
1070
     2
1070
   284
1070
     0
1070
   289
1070
     3
1070
   340
1005
6B
1070
   371
1070
    -1
1070
   372
1070
    -1
1002
}
  0
DIMENSION
  5
6A07
330
1F
100
AcDbEntity
  8
AM_5
100
AcDbDimension
  2
*D6
 10
-76.55606910252896
 20
-12.69999999999999
 30
0.0
 11
-79.65606910252896
 21
-0.0000000000000109
 31
0.0
 70
    32
  1
%%c<>
  3
AM_JIS$0
100
AcDbAlignedDimension
 13
-48.5
 23
12.69999999999998
 33
0.0
 14
-48.50000176193674
 24
-12.7
 34
0.0
 50
270.0
100
AcDbRotatedDimension
1001
GENIUS_GENDTOL_13
1000

1000
h7
1000

1040
0.0
1001
ACAD
1000
DSTYLE
1002
{
1070
   287
1070
     5
1070
    42
1040
1.0
1070
    43
1040
12.0
1070
    48
1040
0.1
1070
    78
1070
     8
1070
   140
1040
3.2
1070
   176
1070
   256
1070
   177
1070
   256
1070
   271
1070
     3
1070
   272
1070
     3
1070
   275
1070
     0
1070
   279
1070
     2
1070
   284
1070
     0
1070
   289
1070
     3
1070
   340
1005
6B
1070
   371
1070
    -1
1070
   372
1070
    -1
1002
}
  0
DIMENSION
  5
6AA1
330
1F
100
AcDbEntity
  8
AM_5
100
AcDbDimension
  2
*D8
 10
35.43101951146666
 20
-40.0
 30
0.0
 11
32.33101951146667
 21
-0.0000000000000018
 31
0.0
 70
    32
  1
%%c<>
  3
AM_JIS$0
100
AcDbAlignedDimension
 13
0.0
 23
40.0
 33
0.0
 14
0.0000000000000568
 24
-40.0
 34
0.0
 50
90.0
100
AcDbRotatedDimension
1001
GENIUS_GENDTOL_13
1000

1000
h7
1000

1040
0.0
1001
ACAD
1000
DSTYLE
1002
{
1070
   287
1070
     3
1070
    42
1040
1.0
1070
    43
1040
12.0
1070
    48
1040
0.1
1070
    78
1070
     8
1070
   140
1040
3.2
1070
   176
1070
   256
1070
   177
1070
   256
1070
   271
1070
     3
1070
   272
1070
     3
1070
   275
1070
     0
1070
   284
1070
     0
1070
   289
1070
     3
1070
   340
1005
6B
1070
   371
1070
    -1
1070
   372
1070
    -1
1002
}
  0
DIMENSION
  5
6AA2
330
1F
100
AcDbEntity
  8
AM_5
100
AcDbDimension
  2
*D9
 10
25.43101951146666
 20
-9.999999999996001
 30
0.0
 11
22.33101951146666
 21
0.000000000001999
 31
0.0
 70
    32
  1
%%c<>
  3
AM_JIS$0
100
AcDbAlignedDimension
 13
-8.700000762938998
 23
10.0
 33
0.0
 14
-8.700000894073184
 24
-9.999999999995992
 34
0.0
 50
90.0
100
AcDbRotatedDimension
1001
GENIUS_GENDTOL_13
1000

1000
h7
1000

1040
0.0
1001
ACAD
1000
DSTYLE
1002
{
1070
   287
1070
     3
1070
    42
1040
1.0
1070
    43
1040
12.0
1070
    48
1040
0.1
1070
    78
1070
     8
1070
   140
1040
3.2
1070
   176
1070
   256
1070
   177
1070
   256
1070
   271
1070
     3
1070
   272
1070
     3
1070
   275
1070
     0
1070
   284
1070
     0
1070
   289
1070
     3
1070
   340
1005
6B
1070
   371
1070
    -1
1070
   372
1070
    -1
1002
}
  0
LINE
  5
6AA3
330
1F
100
AcDbEntity
  8
AM_11
100
AcDbLine
 10
0.0
 20
-40.0
 30
0.0
 11
0.0
 21
40.0
 31
0.0
  0
LINE
  5
6AA4
330
1F
100
AcDbEntity
  8
AM_11
100
AcDbLine
 10
-6.408702850341967
 20
40.0
 30
0.0
 11
0.0
 21
40.0
 31
0.0
  0
LINE
  5
6AE2
330
1F
100
AcDbEntity
  8
AM_11
100
AcDbLine
 10
-6.40870285034191
 20
-40.0
 30
0.0
 11
0.0000000000000568
 21
-40.0
 31
0.0
  0
DIMENSION
  5
6B12
330
1F
100
AcDbEntity
  8
AM_5
100
AcDbDimension
  2
*D10
 10
-19.0
 20
-64.00001093408985
 30
0.0
 11
-22.0
 21
-60.90001093408984
 31
0.0
 70
    32
  1
<>
  3
AM_JIS$0
100
AcDbAlignedDimension
 13
-25.0
 23
-13.2
 33
0.0
 14
-19.0
 24
-9.999999999995992
 34
0.0
100
AcDbRotatedDimension
1001
GENIUS_GENDTOL_13
1000

1000
h7
1000

1040
0.0
1001
ACAD
1000
DSTYLE
1002
{
1070
   287
1070
     5
1070
    42
1040
1.0
1070
    43
1040
12.0
1070
    48
1040
0.1
1070
    78
1070
     8
1070
   140
1040
3.2
1070
   176
1070
   256
1070
   177
1070
   256
1070
   271
1070
     3
1070
   272
1070
     3
1070
   275
1070
     0
1070
   279
1070
     2
1070
   284
1070
     0
1070
   289
1070
     3
1070
   340
1005
6B
1070
   371
1070
    -1
1070
   372
1070
    -1
1002
}
  0
DIMENSION
  5
6B13
330
1F
100
AcDbEntity
  8
AM_5
100
AcDbDimension
  2
*D12
 10
-5.700000000000019
 20
-74.00000213238603
 30
0.0
 11
-27.85000000000001
 21
-70.90000213238603
 31
0.0
 70
    32
  1
<>
  3
AM_JIS$0
100
AcDbAlignedDimension
 13
-50.0
 23
-25.99999986886577
 33
0.0
 14
-5.700000000000017
 24
-24.29355463412133
 34
0.0
 50
0.0000113837598937
100
AcDbRotatedDimension
1001
GENIUS_GENDTOL_13
1000

1000
h7
1000

1040
0.0
1001
ACAD
1000
DSTYLE
1002
{
1070
   287
1070
     3
1070
    42
1040
1.0
1070
    43
1040
12.0
1070
    48
1040
0.1
1070
    78
1070
     8
1070
   140
1040
3.2
1070
   176
1070
   256
1070
   177
1070
   256
1070
   271
1070
     3
1070
   272
1070
     3
1070
   275
1070
     0
1070
   284
1070
     0
1070
   289
1070
     3
1070
   340
1005
6B
1070
   371
1070
    -1
1070
   372
1070
    -1
1002
}
  0
DIMENSION
  5
6B14
330
1F
100
AcDbEntity
  8
AM_5
100
AcDbDimension
  2
*D11
 10
-25.0
 20
-64.00001093408985
 30
0.0
 11
-37.5
 21
-60.90001093408984
 31
0.0
 70
    32
  1
<>
  3
AM_JIS$0
100
AcDbAlignedDimension
 13
-50.0
 23
-25.99999986886577
 33
0.0
 14
-25.0
 24
-13.2
 34
0.0
100
AcDbRotatedDimension
1001
GENIUS_GENDTOL_13
1000

1000
h7
1000

1040
0.0
1001
ACAD
1000
DSTYLE
1002
{
1070
   287
1070
     5
1070
    42
1040
1.0
1070
    43
1040
12.0
1070
    48
1040
0.1
1070
    78
1070
     8
1070
   140
1040
3.2
1070
   176
1070
   256
1070
   177
1070
   256
1070
   271
1070
     3
1070
   272
1070
     3
1070
   275
1070
     0
1070
   279
1070
     2
1070
   284
1070
     0
1070
   289
1070
     3
1070
   340
1005
6B
1070
   371
1070
    -1
1070
   372
1070
    -1
1002
}
  0
DIMENSION
  5
6BC5
330
1F
100
AcDbEntity
  8
AM_5
100
AcDbDimension
  2
*D13
 10
0.000000000000111
 20
-84.0000010000006
 30
0.0
 11
-24.99999999999994
 21
-80.90000100000059
 31
0.0
 70
    32
  1
<>
  3
AM_JIS$0
100
AcDbAlignedDimension
 13
-50.0
 23
-25.99999986886577
 33
0.0
 14
0.0000000000001137
 24
-39.99999999999997
 34
0.0
 50
0.0000113836296182
100
AcDbRotatedDimension
1001
GENIUS_GENDTOL_13
1000

1000
h7
1000

1040
0.0
1001
ACAD
1000
DSTYLE
1002
{
1070
   287
1070
     3
1070
    42
1040
1.0
1070
    43
1040
12.0
1070
    48
1040
0.1
1070
    78
1070
     8
1070
   140
1040
3.2
1070
   176
1070
   256
1070
   177
1070
   256
1070
   271
1070
     3
1070
   272
1070
     3
1070
   275
1070
     0
1070
   284
1070
     0
1070
   289
1070
     3
1070
   340
1005
6B
1070
   371
1070
    -1
1070
   372
1070
    -1
1002
}
  0
LINE
  5
6EC7
330
1F
100
AcDbEntity
  8
AM_0
  6
CONTINUOUS
 48
0.5
100
AcDbLine
 10
-5.699999999999988
 20
24.29355463412136
 30
0.0
 11
-5.700000000000017
 21
-24.29355463412133
 31
0.0
  0
DIMENSION
  5
6F8E
330
1F
100
AcDbEntity
  8
AM_5
100
AcDbDimension
  2
*D14
 10
15.43101951146666
 20
-6.499999999996002
 30
0.0
 11
12.33101951146666
 21
0.0000000000019969
 31
0.0
 70
    32
  1
%%c<>
  3
AM_JIS$0
100
AcDbAlignedDimension
 13
-19.0
 23
6.5
 33
0.0
 14
-18.99999999999998
 24
-6.499999999995992
 34
0.0
 50
90.0
100
AcDbRotatedDimension
1001
GENIUS_GENDTOL_13
1000

1000
h7
1000

1040
0.0
1001
ACAD
1000
DSTYLE
1002
{
1070
   287
1070
     3
1070
    42
1040
1.0
1070
    43
1040
12.0
1070
    48
1040
0.1
1070
    78
1070
     8
1070
   140
1040
3.2
1070
   176
1070
   256
1070
   177
1070
   256
1070
   271
1070
     3
1070
   272
1070
     3
1070
   275
1070
     0
1070
   284
1070
     0
1070
   289
1070
     3
1070
   340
1005
6B
1070
   371
1070
    -1
1070
   372
1070
    -1
1002
}
  0
DIMENSION
  5
7130
330
1F
100
AcDbEntity
  8
AM_5
100
AcDbDimension
  2
*D15
 10
-44.0
 20
-54.00001093409003
 30
0.0
 11
-47.0
 21
-50.90001093409004
 31
0.0
 70
    32
  1
<>
  3
AM_JIS$0
100
AcDbAlignedDimension
 13
-50.0
 23
-25.99999986886577
 33
0.0
 14
-44.0
 24
-4.75
 34
0.0
 50
0.0000000000001132
100
AcDbRotatedDimension
1001
GENIUS_GENDTOL_13
1000

1000
h7
1000

1040
0.0
1001
ACAD
1000
DSTYLE
1002
{
1070
   287
1070
     5
1070
    42
1040
1.0
1070
    43
1040
12.0
1070
    48
1040
0.1
1070
    78
1070
     8
1070
   140
1040
3.2
1070
   176
1070
   256
1070
   177
1070
   256
1070
   271
1070
     3
1070
   272
1070
     3
1070
   275
1070
     0
1070
   279
1070
     2
1070
   284
1070
     0
1070
   289
1070
     3
1070
   340
1005
6B
1070
   371
1070
    -1
1070
   372
1070
    -1
1002
}
  0
VIEWPORT
  5
110
330
101
100
AcDbEntity
 67
     1
  8
0
100
AcDbViewport
 10
420.5
 20
297.0
 30
0.0
 40
948.9782706766916
 41
628.452
 68
     1
 69
     1
1001
ACAD
1000
MVIEW
1002
{
1070
    16
1010
0.0
1020
0.0
1030
0.0
1010
0.0
1020
0.0
1030
1.0
1040
0.0
1040
628.452
1040
420.5
1040
297.0
1040
50.0
1040
0.0
1040
0.0
1070
     0
1070
   100
1070
     1
1070
     1
1070
     0
1070
     0
1070
     0
1070
     0
1040
0.0
1040
0.0
1040
0.0
1040
10.0
1040
10.0
1040
10.0
1040
10.0
1070
     0
1002
{
1002
}
1002
}
  0
ENDSEC
  0
SECTION
  2
OBJECTS
  0
DICTIONARY
  5
C
330
0
100
AcDbDictionary
  3
ACAD_GROUP
350
D
  3
ACAD_LAYOUT
350
1A
  3
ACAD_MLINESTYLE
350
17
  3
ACAD_PLOTSETTINGS
350
19
  3
ACAD_PLOTSTYLENAME
350
E
  3
ACDBVARIABLEDICTIONARY
350
34
  3
ACMDICTIONARY
350
43
  3
AMG
350
2B
  3
AMGSNAPSETTINGS
350
6E
  3
DWGPROPS
350
728F
  3
ACDBHEADERROUNDTRIPXREC
350
729B
  0
DICTIONARY
  5
74
330
1F
100
AcDbDictionary
280
     1
  3
ACAD_INDEX
360
7291
  3
ACAD_LAYOUTSELFREF
360
72BE
  0
DICTIONARY
  5
72C3
330
101
100
AcDbDictionary
280
     1
  3
ACAD_LAYOUTSELFREF
360
72C4
  0
DICTIONARY
  5
D
102
{ACAD_REACTORS
330
C
102
}
330
C
100
AcDbDictionary
  0
DICTIONARY
  5
1A
102
{ACAD_REACTORS
330
C
102
}
330
C
100
AcDbDictionary
  0
DICTIONARY
  5
17
102
{ACAD_REACTORS
330
C
102
}
330
C
100
AcDbDictionary
  3
STANDARD
350
18
  0
DICTIONARY
  5
19
102
{ACAD_REACTORS
330
C
102
}
330
C
100
AcDbDictionary
  0
ACDBDICTIONARYWDFLT
  5
E
102
{ACAD_REACTORS
330
C
102
}
330
C
100
AcDbDictionary
281
     1
  3
Normal
350
F
100
AcDbDictionaryWithDefault
340
F
  0
DICTIONARY
  5
34
102
{ACAD_REACTORS
330
C
102
}
330
C
100
AcDbDictionary
  3
INDEXCTL
350
35
  3
SORTENTS
350
B5E
  0
DICTIONARY
  5
43
102
{ACAD_REACTORS
330
C
102
}
330
C
100
AcDbDictionary
  3
ACMSTDDICTIONARY
350
260
  0
DICTIONARY
  5
2B
102
{ACAD_REACTORS
330
C
102
}
330
C
100
AcDbDictionary
  3
ACMGSETTINGS
350
2C
  0
DICTIONARY
  5
6E
102
{ACAD_REACTORS
330
C
102
}
330
C
100
AcDbDictionary
  0
XRECORD
  5
728F
102
{ACAD_REACTORS
330
C
102
}
330
C
100
AcDbXrecord
  1
DWGPROPS COOKIE
  2

  3

  4

  6

  7

  8

  9

300
AmdtFileType=82
301
=
302
=
303
=
304
=
305
=
306
=
307
=
308
=
309
=
 40
0.3705022222222222
 41
2452836.771637361
 42
2453076.597245902
  1

 90
        1
  0
DICTIONARY
  5
729B
102
{ACAD_REACTORS
330
C
102
}
330
C
100
AcDbDictionary
  3
TSTACKALIGN
350
729C
  3
TSTACKSIZE
350
729D
  3
HYPERLINKBASE
350
729E
  3
STYLESHEET
350
729F
  3
LAYOUTDICT
350
72A0
  3
PLOTSETDICT
350
72A1
  3
PLOTSTYLNAMDICT
350
72A2
  3
LWETCUNION
350
72A3
  3
INSUNITS
350
72A4
  3
CEPSNTYPE
350
72A5
  3
FINGERPRINTGUID
350
72A6
  3
VERSIONGUID
350
72A7
  3
PSVPSCALE
350
72A8
  3
DIMSTYLEDATA
350
72A9
  3
PUCSORTHOREF
350
72AA
  3
PUCSORTHOVIEW
350
72AB
  3
PUCSBASE
350
72AC
  3
PUCSORGTOP
350
72AD
  3
PUCSORGBOTTOM
350
72AE
  3
PUCSORGLEFT
350
72AF
  3
PUCSORGRIGHT
350
72B0
  3
PUCSORGFRONT
350
72B1
  3
PUCSORGBACK
350
72B2
  3
UCSORTHOREF
350
72B3
  3
UCSORTHOVIEW
350
72B4
  3
UCSBASE
350
72B5
  3
UCSORGTOP
350
72B6
  3
UCSORGBOTTOM
350
72B7
  3
UCSORGLEFT
350
72B8
  3
UCSORGRIGHT
350
72B9
  3
UCSORGFRONT
350
72BA
  3
UCSORGBACK
350
72BB
  0
DICTIONARY
  5
7291
102
{ACAD_REACTORS
330
74
102
}
330
74
100
AcDbDictionary
  3
*A1
350
7292
  0
XRECORD
  5
72BE
102
{ACAD_REACTORS
330
74
102
}
330
74
100
AcDbXrecord
340
1F
  0
XRECORD
  5
72C4
102
{ACAD_REACTORS
330
72C3
102
}
330
72C3
100
AcDbXrecord
340
101
  0
MLINESTYLE
  5
18
102
{ACAD_REACTORS
330
17
102
}
330
17
100
AcDbMlineStyle
  2
STANDARD
 70
     0
  3

 62
   256
 51
90.0
 52
90.0
 71
     2
 49
0.5
 62
   256
  6
BYLAYER
 49
-0.5
 62
   256
  6
BYLAYER
  0
ACDBPLACEHOLDER
  5
F
102
{ACAD_REACTORS
330
E
102
}
330
E
100
AcDbPlaceHolder
280
     0
  0
DICTIONARYVAR
  5
35
102
{ACAD_REACTORS
330
34
102
}
330
34
100
DictionaryVariables
280
     0
  1
1
  0
DICTIONARYVAR
  5
B5E
102
{ACAD_REACTORS
330
34
102
}
330
34
100
DictionaryVariables
280
     0
  1
96
  0
DICTIONARY
  5
260
102
{ACAD_REACTORS
330
43
102
}
330
43
100
AcDbDictionary
  0
DICTIONARY
  5
2C
102
{ACAD_REACTORS
330
2B
102
}
330
2B
100
AcDbDictionary
  3
DWGSETTINGS
350
2D
  0
XRECORD
  5
729C
102
{ACAD_REACTORS
330
729B
102
}
330
729B
100
AcDbXrecord
 90
        1
  0
XRECORD
  5
729D
102
{ACAD_REACTORS
330
729B
102
}
330
729B
100
AcDbXrecord
 90
       70
  0
XRECORD
  5
729E
102
{ACAD_REACTORS
330
729B
102
}
330
729B
100
AcDbXrecord
  1

  0
XRECORD
  5
729F
102
{ACAD_REACTORS
330
729B
102
}
330
729B
100
AcDbXrecord
  1
ASAMI.ctb
  0
XRECORD
  5
72A0
102
{ACAD_REACTORS
330
729B
102
}
330
729B
100
AcDbXrecord
340
1A
  0
XRECORD
  5
72A1
102
{ACAD_REACTORS
330
729B
102
}
330
729B
100
AcDbXrecord
340
19
  0
XRECORD
  5
72A2
102
{ACAD_REACTORS
330
729B
102
}
330
729B
100
AcDbXrecord
340
E
  0
XRECORD
  5
72A3
102
{ACAD_REACTORS
330
729B
102
}
330
729B
100
AcDbXrecord
 90
    10781
  0
XRECORD
  5
72A4
102
{ACAD_REACTORS
330
729B
102
}
330
729B
100
AcDbXrecord
 90
        4
  0
XRECORD
  5
72A5
102
{ACAD_REACTORS
330
729B
102
}
330
729B
100
AcDbXrecord
 90
        0
  0
XRECORD
  5
72A6
102
{ACAD_REACTORS
330
729B
102
}
330
729B
100
AcDbXrecord
  1
{AFB28963-8C59-40AE-9337-C84526B81ACE}
  0
XRECORD
  5
72A7
102
{ACAD_REACTORS
330
729B
102
}
330
729B
100
AcDbXrecord
  1
{5751C79D-4273-418D-A7EF-833DBB902517}
  0
XRECORD
  5
72A8
102
{ACAD_REACTORS
330
729B
102
}
330
729B
100
AcDbXrecord
 40
0.0
  0
XRECORD
  5
72A9
102
{ACAD_REACTORS
330
729B
102
}
330
729B
100
AcDbXrecord
1000
DSTYLE
1002
{
1070
    79
 70
     2
1070
   341
340
59
1070
   342
340
59
1070
   371
 70
    -1
1070
   372
 70
    -1
1002
}
  0
XRECORD
  5
72AA
102
{ACAD_REACTORS
330
729B
102
}
330
729B
100
AcDbXrecord
340
0
  0
XRECORD
  5
72AB
102
{ACAD_REACTORS
330
729B
102
}
330
729B
100
AcDbXrecord
 70
     0
  0
XRECORD
  5
72AC
102
{ACAD_REACTORS
330
729B
102
}
330
729B
100
AcDbXrecord
340
0
  0
XRECORD
  5
72AD
102
{ACAD_REACTORS
330
729B
102
}
330
729B
100
AcDbXrecord
 10
0.0
 20
0.0
 30
0.0
  0
XRECORD
  5
72AE
102
{ACAD_REACTORS
330
729B
102
}
330
729B
100
AcDbXrecord
 10
0.0
 20
0.0
 30
0.0
  0
XRECORD
  5
72AF
102
{ACAD_REACTORS
330
729B
102
}
330
729B
100
AcDbXrecord
 10
0.0
 20
0.0
 30
0.0
  0
XRECORD
  5
72B0
102
{ACAD_REACTORS
330
729B
102
}
330
729B
100
AcDbXrecord
 10
0.0
 20
0.0
 30
0.0
  0
XRECORD
  5
72B1
102
{ACAD_REACTORS
330
729B
102
}
330
729B
100
AcDbXrecord
 10
0.0
 20
0.0
 30
0.0
  0
XRECORD
  5
72B2
102
{ACAD_REACTORS
330
729B
102
}
330
729B
100
AcDbXrecord
 10
0.0
 20
0.0
 30
0.0
  0
XRECORD
  5
72B3
102
{ACAD_REACTORS
330
729B
102
}
330
729B
100
AcDbXrecord
340
0
  0
XRECORD
  5
72B4
102
{ACAD_REACTORS
330
729B
102
}
330
729B
100
AcDbXrecord
 70
     0
  0
XRECORD
  5
72B5
102
{ACAD_REACTORS
330
729B
102
}
330
729B
100
AcDbXrecord
340
0
  0
XRECORD
  5
72B6
102
{ACAD_REACTORS
330
729B
102
}
330
729B
100
AcDbXrecord
 10
0.0
 20
0.0
 30
0.0
  0
XRECORD
  5
72B7
102
{ACAD_REACTORS
330
729B
102
}
330
729B
100
AcDbXrecord
 10
0.0
 20
0.0
 30
0.0
  0
XRECORD
  5
72B8
102
{ACAD_REACTORS
330
729B
102
}
330
729B
100
AcDbXrecord
 10
0.0
 20
0.0
 30
0.0
  0
XRECORD
  5
72B9
102
{ACAD_REACTORS
330
729B
102
}
330
729B
100
AcDbXrecord
 10
0.0
 20
0.0
 30
0.0
  0
XRECORD
  5
72BA
102
{ACAD_REACTORS
330
729B
102
}
330
729B
100
AcDbXrecord
 10
0.0
 20
0.0
 30
0.0
  0
XRECORD
  5
72BB
102
{ACAD_REACTORS
330
729B
102
}
330
729B
100
AcDbXrecord
 10
0.0
 20
0.0
 30
0.0
  0
LAYER_INDEX
  5
7292
102
{ACAD_REACTORS
330
7291
102
}
330
7291
100
AcDbIndex
 40
2453152.362824282
100
AcDbLayerIndex
  8
0
360
7293
 90
        0
  8
AM_11
360
7294
 90
        5
  8
AM_7
360
7295
 90
        1
  8
AM_5
360
7296
 90
       11
  8
Defpoints
360
7297
 90
        0
  8
AM_6
360
7298
 90
        1
  8
AM_0
360
7299
 90
       73
  0
XRECORD
  5
2D
102
{ACAD_REACTORS
330
2C
102
}
330
2C
100
AcDbXrecord
  1
VERSION
140
15.0
  1
PRODUCT
  2
AutoCAD Mechanical 2000
  0
IDBUFFER
  5
7293
330
0
100
AcDbIdBuffer
  0
IDBUFFER
  5
7294
330
0
100
AcDbIdBuffer
330
6993
330
69EA
330
6AA3
330
6AA4
330
6AE2
  0
IDBUFFER
  5
7295
330
0
100
AcDbIdBuffer
330
6997
  0
IDBUFFER
  5
7296
330
0
100
AcDbIdBuffer
330
6A05
330
6A06
330
6A07
330
6AA1
330
6AA2
330
6B12
330
6B13
330
6B14
330
6BC5
330
6F8E
330
7130
  0
IDBUFFER
  5
7297
330
0
100
AcDbIdBuffer
  0
IDBUFFER
  5
7298
330
0
100
AcDbIdBuffer
330
E5A
  0
IDBUFFER
  5
7299
330
0
100
AcDbIdBuffer
330
69B5
330
69E9
330
69EB
330
69EC
330
69ED
330
69EE
330
69EF
330
69F0
330
69F1
330
69F2
330
69F3
330
69F4
330
69F5
330
69F6
330
69F7
330
69F8
330
69F9
330
69FA
330
69FB
330
69FC
330
69FD
330
69FE
330
69FF
330
6A00
330
6EC7
330
697F
330
6980
330
6982
330
6983
330
6984
330
6985
330
6988
330
6989
330
698B
330
698C
330
698D
330
698E
330
698F
330
6990
330
6991
330
6992
330
6994
330
6995
330
6996
330
6998
330
6999
330
699A
330
699B
330
699C
330
699D
330
699E
330
699F
330
69A0
330
69A1
330
69A2
330
69A3
330
69A4
330
69A5
330
69A6
330
69A7
330
69A8
330
69A9
330
69AA
330
69AB
330
69AC
330
69AD
330
69AE
330
69AF
330
69B0
330
69B1
330
69B2
330
69B3
330
69B4
  0
ENDSEC
  0
EOF
