  0
SECTION
  2
HEADER
  9
$ACADVER
  1
AC1014
  9
$ACADMAINTVER
 70
     9
  9
$DWGCODEPAGE
  3
ANSI_932
  9
$INSBASE
 10
0.0
 20
0.0
 30
0.0
  9
$EXTMIN
 10
-168.7000000000004
 20
-74.40089290501709
 30
0.0
  9
$EXTMAX
 10
68.26328998669243
 20
97.38107661068944
 30
0.0
  9
$LIMMIN
 10
-186.5599679826273
 20
-95.74811201574794
  9
$LIMMAX
 10
80.99033203218278
 20
111.0089291172236
  9
$ORTHOMODE
 70
     0
  9
$REGENMODE
 70
     1
  9
$FILLMODE
 70
     1
  9
$QTEXTMODE
 70
     0
  9
$MIRRTEXT
 70
     0
  9
$DRAGMODE
 70
     2
  9
$LTSCALE
 40
1.0
  9
$OSMODE
 70
  2103
  9
$ATTMODE
 70
     1
  9
$TEXTSIZE
 40
2.5
  9
$TRACEWID
 40
1.0
  9
$TEXTSTYLE
  7
STANDARD
  9
$CLAYER
  8
AM_0
  9
$CELTYPE
  6
BYLAYER
  9
$CECOLOR
 62
   256
  9
$CELTSCALE
 40
1.0
  9
$DELOBJ
 70
     1
  9
$DISPSILH
 70
     0
  9
$DIMSCALE
 40
1.0
  9
$DIMASZ
 40
2.5
  9
$DIMEXO
 40
1.0
  9
$DIMDLI
 40
12.0
  9
$DIMRND
 40
0.0
  9
$DIMDLE
 40
0.0
  9
$DIMEXE
 40
1.0
  9
$DIMTP
 40
0.1
  9
$DIMTM
 40
0.1
  9
$DIMTXT
 40
3.2
  9
$DIMCEN
 40
0.0
  9
$DIMTSZ
 40
0.0
  9
$DIMTOL
 70
     0
  9
$DIMLIM
 70
     0
  9
$DIMTIH
 70
     0
  9
$DIMTOH
 70
     0
  9
$DIMSE1
 70
     0
  9
$DIMSE2
 70
     0
  9
$DIMTAD
 70
     3
  9
$DIMZIN
 70
     8
  9
$DIMBLK
  1
OPEN30
  9
$DIMASO
 70
     1
  9
$DIMSHO
 70
     1
  9
$DIMPOST
  1

  9
$DIMAPOST
  1
"
  9
$DIMALT
 70
     0
  9
$DIMALTD
 70
     2
  9
$DIMALTF
 40
0.0393701
  9
$DIMLFAC
 40
1.0
  9
$DIMTOFL
 70
     1
  9
$DIMTVP
 40
0.0
  9
$DIMTIX
 70
     0
  9
$DIMSOXD
 70
     0
  9
$DIMSAH
 70
     0
  9
$DIMBLK1
  1

  9
$DIMBLK2
  1

  9
$DIMSTYLE
  2
AM_JIS
  9
$DIMCLRD
 70
   256
  9
$DIMCLRE
 70
   256
  9
$DIMCLRT
 70
     2
  9
$DIMTFAC
 40
0.71
  9
$DIMGAP
 40
1.5
  9
$DIMJUST
 70
     0
  9
$DIMSD1
 70
     0
  9
$DIMSD2
 70
     0
  9
$DIMTOLJ
 70
     0
  9
$DIMTZIN
 70
     0
  9
$DIMALTZ
 70
     0
  9
$DIMALTTZ
 70
     0
  9
$DIMFIT
 70
     3
  9
$DIMUPT
 70
     0
  9
$DIMUNIT
 70
     2
  9
$DIMDEC
 70
     3
  9
$DIMTDEC
 70
     3
  9
$DIMALTU
 70
     2
  9
$DIMALTTD
 70
     2
  9
$DIMTXSTY
  7
ASAMI
  9
$DIMAUNIT
 70
     0
  9
$LUNITS
 70
     2
  9
$LUPREC
 70
     2
  9
$SKETCHINC
 40
1.0
  9
$FILLETRAD
 40
1.0
  9
$AUNITS
 70
     0
  9
$AUPREC
 70
     0
  9
$MENU
  1
.
  9
$ELEVATION
 40
0.0
  9
$PELEVATION
 40
0.0
  9
$THICKNESS
 40
0.0
  9
$LIMCHECK
 70
     1
  9
$BLIPMODE
 70
     0
  9
$CHAMFERA
 40
1.0
  9
$CHAMFERB
 40
1.0
  9
$CHAMFERC
 40
20.0
  9
$CHAMFERD
 40
0.0
  9
$SKPOLY
 70
     0
  9
$TDCREATE
 40
2452802.716478761
  9
$TDUPDATE
 40
2452941.597398171
  9
$TDINDWG
 40
1.0638746412
  9
$TDUSRTIMER
 40
1.0638746412
  9
$USRTIMER
 70
     1
  9
$ANGBASE
 50
0.0
  9
$ANGDIR
 70
     0
  9
$PDMODE
 70
     0
  9
$PDSIZE
 40
0.0
  9
$PLINEWID
 40
0.0
  9
$COORDS
 70
     0
  9
$SPLFRAME
 70
     0
  9
$SPLINETYPE
 70
     6
  9
$SPLINESEGS
 70
     8
  9
$ATTDIA
 70
     1
  9
$ATTREQ
 70
     1
  9
$HANDLING
 70
 12289
  9
$HANDSEED
  5
9F0A
  9
$SURFTAB1
 70
     6
  9
$SURFTAB2
 70
     6
  9
$SURFTYPE
 70
     6
  9
$SURFU
 70
     6
  9
$SURFV
 70
     6
  9
$UCSNAME
  2

  9
$UCSORG
 10
-0.0000000000002682
 20
0.000000000000161
 30
0.0
  9
$UCSXDIR
 10
1.0
 20
0.000000000000002
 30
0.0
  9
$UCSYDIR
 10
-0.000000000000002
 20
1.0
 30
0.0
  9
$PUCSNAME
  2

  9
$PUCSORG
 10
0.0
 20
0.0
 30
0.0
  9
$PUCSXDIR
 10
1.0
 20
0.0
 30
0.0
  9
$PUCSYDIR
 10
0.0
 20
1.0
 30
0.0
  9
$USERI1
 70
     0
  9
$USERI2
 70
     0
  9
$USERI3
 70
     0
  9
$USERI4
 70
     0
  9
$USERI5
 70
     0
  9
$USERR1
 40
0.0
  9
$USERR2
 40
0.0
  9
$USERR3
 40
0.0
  9
$USERR4
 40
0.0
  9
$USERR5
 40
0.0
  9
$WORLDVIEW
 70
     1
  9
$SHADEDGE
 70
     3
  9
$SHADEDIF
 70
    70
  9
$TILEMODE
 70
     1
  9
$MAXACTVP
 70
    64
  9
$PINSBASE
 10
0.0
 20
0.0
 30
0.0
  9
$PLIMCHECK
 70
     0
  9
$PEXTMIN
 10
1.000000000000000E+20
 20
1.000000000000000E+20
 30
1.000000000000000E+20
  9
$PEXTMAX
 10
-1.000000000000000E+20
 20
-1.000000000000000E+20
 30
-1.000000000000000E+20
  9
$PLIMMIN
 10
0.0
 20
0.0
  9
$PLIMMAX
 10
841.0
 20
594.0
  9
$UNITMODE
 70
     0
  9
$VISRETAIN
 70
     1
  9
$PLINEGEN
 70
     0
  9
$PSLTSCALE
 70
     0
  9
$TREEDEPTH
 70
  3020
  9
$PICKSTYLE
 70
     0
  9
$CMLSTYLE
  2
STANDARD
  9
$CMLJUST
 70
     0
  9
$CMLSCALE
 40
20.0
  9
$PROXYGRAPHICS
 70
     1
  9
$MEASUREMENT
 70
     1
  0
ENDSEC
  0
SECTION
  2
CLASSES
  0
CLASS
  1
ACDBDICTIONARYWDFLT
  2
AcDbDictionaryWithDefault
  3
AutoCAD 2000
 90
        0
280
     0
281
     0
  0
CLASS
  1
ACDBPLACEHOLDER
  2
AcDbPlaceHolder
  3
AutoCAD 2000
 90
        0
280
     0
281
     0
  0
CLASS
  1
LAYOUT
  2
AcDbLayout
  3
AutoCAD 2000
 90
        0
280
     0
281
     0
  0
CLASS
  1
AMGSETTINGSOBJ
  2
AmgSettingsObj
  3
"AcadM|Product Description: AutoCAD Mechanical 2000|Company: Autodesk"
 90
        0
280
     0
281
     0
  0
CLASS
  1
ACME_DOCUMENT
  2
AcMeDbDoc
  3
AcMeServices
 90
        0
280
     0
281
     0
  0
CLASS
  1
ACMESCOPE
  2
AcMeScope
  3
AcMeServices
 90
        0
280
     0
281
     0
  0
CLASS
  1
ACMECOMMANDHISTORY
  2
AcMeCommandHistory
  3
AcMeServices
 90
        0
280
     0
281
     0
  0
CLASS
  1
DICTIONARYVAR
  2
AcDbDictionaryVar
  3
AutoCAD 2000
 90
        0
280
     0
281
     0
  0
CLASS
  1
ACIMSYSVARMAN
  2
AcImSysVarManager
  3
AcMeServices
 90
        0
280
     0
281
     0
  0
CLASS
  1
ACIMREALSYSVAR
  2
AcImRealSysVar
  3
AcMeServices
 90
        0
280
     0
281
     0
  0
CLASS
  1
ACIMINTSYSVAR
  2
AcImIntSysVar
  3
AcMeServices
 90
        0
280
     0
281
     0
  0
CLASS
  1
ACMEDRAWINGMAN
  2
AcMeDrawingMan
  3
AcMeServices
 90
        0
280
     0
281
     0
  0
CLASS
  1
ACMEVIEW
  2
AcMeView
  3
AcMeServices
 90
        0
280
     0
281
     0
  0
CLASS
  1
ACDBENTITYCACHE
  2
AcMeEntityCache
  3
AcMeServices
 90
        0
280
     0
281
     0
  0
CLASS
  1
GSMANAGER
  2
AcMeGSManager
  3
AcMeServices
 90
        0
280
     0
281
     0
  0
CLASS
  1
AmdtInternalReactor
  2
AmdtInternalReactor
  3
AcMeServices
 90
        0
280
     0
281
     0
  0
CLASS
  1
ACMESTATEMGR
  2
AcMeStateMgr
  3
AcMeServices
 90
        0
280
     0
281
     0
  0
CLASS
  1
ACME_DATABASE
  2
AcMeDbDatabase
  3
AcMeServices
 90
        0
280
     0
281
     0
  0
CLASS
  1
ACRFINSADJUSTERMGR
  2
AcRfInsAdjusterMgr
  3
AcMeServices
 90
        0
280
     0
281
     0
  0
CLASS
  1
ACMDATADICTIONARY
  2
AcmDataDictionary
  3
"AcmSymBB|Product Description: AutoCAD Mechanical 2000|Company: Autodesk"
 90
        0
280
     0
281
     0
  0
CLASS
  1
ACMDATAENTRYBLOCK
  2
AcmDataEntryBlock
  3
"AcmSymBB|Product Description: AutoCAD Mechanical 2000|Company: Autodesk"
 90
        0
280
     0
281
     0
  0
CLASS
  1
AMGOBJPROPCFG
  2
AmgObjPropCfg
  3
"AmgLay|Product Description: AutoCAD Mechanical 2000|Company: Autodesk"
 90
        1
280
     0
281
     0
  0
CLASS
  1
ACAMGFILTERDAT
  2
AcAmgFilterDat
  3
"AcadM|Product Description: AutoCAD Mechanical 2000|Company: Autodesk"
 90
        0
280
     0
281
     0
  0
CLASS
  1
LAYER_INDEX
  2
AcDbLayerIndex
  3
AutoCAD 2000
 90
        0
280
     0
281
     0
  0
CLASS
  1
IDBUFFER
  2
AcDbIdBuffer
  3
AutoCAD 2000
 90
        0
280
     0
281
     0
  0
CLASS
  1
ACIMSTRSYSVAR
  2
AcImStrSysVar
  3
AcMeServices
 90
        0
280
     0
281
     0
  0
CLASS
  1
ACMSTANDARDJIS
  2
AcmStandardJIS
  3
"AcmSymBB|Product Description: AutoCAD Mechanical 2000|Company: Autodesk"
 90
        0
280
     0
281
     0
  0
CLASS
  1
ACMSURFSTANDARDJIS
  2
AcmSurfTextStdJIS
  3
"AcmSymBB|Product Description: AutoCAD Mechanical 2000|Company: Autodesk"
 90
        0
280
     0
281
     0
  0
CLASS
  1
ACMFCFSTANDARDJIS
  2
AcmFCFStdJIS
  3
"AcmSymBB|Product Description: AutoCAD Mechanical 2000|Company: Autodesk"
 90
        0
280
     0
281
     0
  0
CLASS
  1
ACMWELDSTANDARDJIS
  2
AcmWeldingStdJIS
  3
"AcmSymBB|Product Description: AutoCAD Mechanical 2000|Company: Autodesk"
 90
        0
280
     0
281
     0
  0
CLASS
  1
ACMIDSTANDARDJIS
  2
AcmIdStdJIS
  3
"AcmSymBB|Product Description: AutoCAD Mechanical 2000|Company: Autodesk"
 90
        0
280
     0
281
     0
  0
CLASS
  1
ACMDATUMSTANDARDJIS
  2
AcmDatumStdJIS
  3
"AcmSymBB|Product Description: AutoCAD Mechanical 2000|Company: Autodesk"
 90
        0
280
     0
281
     0
  0
CLASS
  1
ACMBOMSTANDARDJIS
  2
AcmBOMStdJIS
  3
"AcmSymBB|Product Description: AutoCAD Mechanical 2000|Company: Autodesk"
 90
        0
280
     0
281
     0
  0
CLASS
  1
ACMSTANDARDANSI
  2
AcmStandardANSI
  3
"AcmSymBB|Product Description: AutoCAD Mechanical 2000|Company: Autodesk"
 90
        0
280
     0
281
     0
  0
CLASS
  1
ACMSURFSTANDARDANSI
  2
AcmSurfTextStdANSI
  3
"AcmSymBB|Product Description: AutoCAD Mechanical 2000|Company: Autodesk"
 90
        0
280
     0
281
     0
  0
CLASS
  1
ACMFCFSTANDARDANSI
  2
AcmFCFStdANSI
  3
"AcmSymBB|Product Description: AutoCAD Mechanical 2000|Company: Autodesk"
 90
        0
280
     0
281
     0
  0
CLASS
  1
ACMWELDSTANDARDANSI
  2
AcmWeldingStdANSI
  3
"AcmSymBB|Product Description: AutoCAD Mechanical 2000|Company: Autodesk"
 90
        0
280
     0
281
     0
  0
CLASS
  1
ACMIDSTANDARDANSI
  2
AcmIdStdANSI
  3
"AcmSymBB|Product Description: AutoCAD Mechanical 2000|Company: Autodesk"
 90
        0
280
     0
281
     0
  0
CLASS
  1
ACMDATUMSTANDARDANSI
  2
AcmDatumStdANSI
  3
"AcmSymBB|Product Description: AutoCAD Mechanical 2000|Company: Autodesk"
 90
        0
280
     0
281
     0
  0
CLASS
  1
ACMBOMSTANDARDANSI
  2
AcmBOMStdANSI
  3
"AcmSymBB|Product Description: AutoCAD Mechanical 2000|Company: Autodesk"
 90
        0
280
     0
281
     0
  0
CLASS
  1
ACMSTANDARDBSI
  2
AcmStandardBSI
  3
"AcmSymBB|Product Description: AutoCAD Mechanical 2000|Company: Autodesk"
 90
        0
280
     0
281
     0
  0
CLASS
  1
ACMSURFSTANDARDBSI
  2
AcmSurfTextStdBSI
  3
"AcmSymBB|Product Description: AutoCAD Mechanical 2000|Company: Autodesk"
 90
        0
280
     0
281
     0
  0
CLASS
  1
ACMFCFSTANDARDBSI
  2
AcmFCFStdBSI
  3
"AcmSymBB|Product Description: AutoCAD Mechanical 2000|Company: Autodesk"
 90
        0
280
     0
281
     0
  0
CLASS
  1
ACMWELDSTANDARDBSI
  2
AcmWeldingStdBSI
  3
"AcmSymBB|Product Description: AutoCAD Mechanical 2000|Company: Autodesk"
 90
        0
280
     0
281
     0
  0
CLASS
  1
ACMIDSTANDARDBSI
  2
AcmIdStdBSI
  3
"AcmSymBB|Product Description: AutoCAD Mechanical 2000|Company: Autodesk"
 90
        0
280
     0
281
     0
  0
CLASS
  1
ACMDATUMSTANDARDBSI
  2
AcmDatumStdBSI
  3
"AcmSymBB|Product Description: AutoCAD Mechanical 2000|Company: Autodesk"
 90
        0
280
     0
281
     0
  0
CLASS
  1
ACMBOMSTANDARDBSI
  2
AcmBOMStdBSI
  3
"AcmSymBB|Product Description: AutoCAD Mechanical 2000|Company: Autodesk"
 90
        0
280
     0
281
     0
  0
CLASS
  1
STDPART2D
  2
AmgStdPart
  3
"AmgStdPart|Product Description: AutoCAD Mechanical 2000|Company: Autodesk"
 90
     1023
280
     0
281
     1
  0
CLASS
  1
PLOTSETTINGS
  2
AcDbPlotSettings
  3
AutoCAD 2000
 90
        0
280
     0
281
     0
  0
CLASS
  1
ACMDIMBREAKPERSREACTOR
  2
AcmDimBreakPersReactor
  3
AutoCadMServices
 90
     1023
280
     0
281
     0
  0
CLASS
  1
LONG_TRANSACTION
  2
AcDbLongTransaction
  3
AutoCAD 2000
 90
        0
280
     0
281
     0
  0
CLASS
  1
LWPOLYLINE
  2
AcDbPolyline
  3
AutoCAD 2000
 90
        0
280
     0
281
     1
  0
CLASS
  1
HATCH
  2
AcDbHatch
  3
AutoCAD 2000
 90
        0
280
     0
281
     1
  0
CLASS
  1
XRECORD
  2
AcDbXrecord
  3
AutoCAD 2000
 90
        0
280
     0
281
     0
  0
ENDSEC
  0
SECTION
  2
TABLES
  0
TABLE
  2
VPORT
  5
8
330
0
100
AcDbSymbolTable
 70
     3
  0
VPORT
  5
9EA8
330
8
100
AcDbSymbolTableRecord
100
AcDbViewportTableRecord
  2
*ACTIVE
 70
     0
 10
0.0
 20
0.0
 11
1.0
 21
1.0
 12
-46.47771313999664
 22
11.49271646085807
 13
0.0
 23
0.0
 14
2.5
 24
2.5
 15
10.0
 25
10.0
 16
0.0
 26
0.0
 36
1.0
 17
0.0
 27
0.0
 37
0.0
 40
172.8546414526164
 41
1.609042553191489
 42
50.0
 43
0.0
 44
0.0
 50
0.0
 51
0.0
 71
     0
 72
   100
 73
     1
 74
     3
 75
     0
 76
     0
 77
     0
 78
     0
  0
ENDTAB
  0
TABLE
  2
LTYPE
  5
5
330
0
100
AcDbSymbolTable
 70
    10
  0
LTYPE
  5
14
330
5
100
AcDbSymbolTableRecord
100
AcDbLinetypeTableRecord
  2
BYBLOCK
 70
     0
  3

 72
    65
 73
     0
 40
0.0
  0
LTYPE
  5
15
330
5
100
AcDbSymbolTableRecord
100
AcDbLinetypeTableRecord
  2
BYLAYER
 70
     0
  3

 72
    65
 73
     0
 40
0.0
  0
LTYPE
  5
16
330
5
100
AcDbSymbolTableRecord
100
AcDbLinetypeTableRecord
  2
CONTINUOUS
 70
     0
  3
Solid line
 72
    65
 73
     0
 40
0.0
  0
LTYPE
  5
4B
330
5
100
AcDbSymbolTableRecord
100
AcDbLinetypeTableRecord
  2
AM_ISO02W050
 70
     0
  3
__ __ __ __ __ __ __ __ __ __ __ __ __ __ __
 72
    65
 73
     2
 40
7.5
 49
6.0
 74
     0
 49
-1.5
 74
     0
  0
LTYPE
  5
4C
330
5
100
AcDbSymbolTableRecord
100
AcDbLinetypeTableRecord
  2
AM_ISO08W050
 70
     0
  3
____ . ____ . ____ . ____ . ____ . ____ . ____
 72
    65
 73
     4
 40
18.0
 49
12.0
 74
     0
 49
-1.5
 74
     0
 49
3.0
 74
     0
 49
-1.5
 74
     0
  0
LTYPE
  5
4D
330
5
100
AcDbSymbolTableRecord
100
AcDbLinetypeTableRecord
  2
AM_ISO09W050
 70
     0
  3
_____ . . _____ . . _____ . . ____ .. ____
 72
    65
 73
     6
 40
22.5
 49
12.0
 74
     0
 49
-1.5
 74
     0
 49
3.0
 74
     0
 49
-1.5
 74
     0
 49
3.0
 74
     0
 49
-1.5
 74
     0
  0
LTYPE
  5
4E
330
5
100
AcDbSymbolTableRecord
100
AcDbLinetypeTableRecord
  2
AMCONSTR
 70
     0
  3
_______________________
 72
    65
 73
     2
 40
9999.0
 49
9999.0
 74
     0
 49
0.0
 74
     0
  0
LTYPE
  5
4F
330
5
100
AcDbSymbolTableRecord
100
AcDbLinetypeTableRecord
  2
AM_ISO02W050X2
 70
     0
  3
 _ _ _ _ _ _ _ _ _ _ _ _
 72
    65
 73
     2
 40
3.75
 49
3.0
 74
     0
 49
-0.75
 74
     0
  0
LTYPE
  5
50
330
5
100
AcDbSymbolTableRecord
100
AcDbLinetypeTableRecord
  2
AM_ISO08W050X2
 70
     0
  3
__ . __ . __ . __ . __ . __
 72
    65
 73
     4
 40
9.0
 49
6.0
 74
     0
 49
-0.75
 74
     0
 49
1.5
 74
     0
 49
-0.75
 74
     0
  0
LTYPE
  5
53
330
5
100
AcDbSymbolTableRecord
100
AcDbLinetypeTableRecord
  2
AMZIGZAG
 70
     0
  3
/\/-/\/-/\/-/\/-/\/-/\/
 72
    65
 73
     2
 40
11.00009999999999
 49
0.0001
 74
     4
 75
   135
340
52
 46
0.04
 50
0.0
 44
0.0
 45
0.0
 49
-11.0
 74
     0
  0
LTYPE
  5
166
330
5
100
AcDbSymbolTableRecord
100
AcDbLinetypeTableRecord
  2
ACJISTGL
 70
     0
  3
_ _ _ _ _
 72
    65
 73
     2
 40
3.0
 49
2.0
 74
     0
 49
-1.0
 74
     0
  0
LTYPE
  5
26A
330
5
100
AcDbSymbolTableRecord
100
AcDbLinetypeTableRecord
  2
ACJISTGB
 70
     0
  3
__ . . __ . .
 72
    65
 73
     6
 40
9.0
 49
4.0
 74
     0
 49
-1.0
 74
     0
 49
1.0
 74
     0
 49
-1.0
 74
     0
 49
1.0
 74
     0
 49
-1.0
 74
     0
  0
ENDTAB
  0
TABLE
  2
LAYER
  5
2
330
0
100
AcDbSymbolTable
 70
     7
  0
LAYER
  5
10
330
2
100
AcDbSymbolTableRecord
100
AcDbLayerTableRecord
  2
0
 70
     0
 62
     7
  6
CONTINUOUS
  0
LAYER
  5
3F9
330
2
100
AcDbSymbolTableRecord
100
AcDbLayerTableRecord
  2
AM_0
 70
     0
 62
     7
  6
CONTINUOUS
  0
LAYER
  5
BA4
330
2
100
AcDbSymbolTableRecord
100
AcDbLayerTableRecord
  2
AM_5
 70
     0
 62
     3
  6
CONTINUOUS
  0
LAYER
  5
BA6
330
2
100
AcDbSymbolTableRecord
100
AcDbLayerTableRecord
  2
AM_7
 70
     0
 62
     4
  6
AM_ISO08W050
  0
LAYER
  5
E64
330
2
100
AcDbSymbolTableRecord
100
AcDbLayerTableRecord
  2
AM_6
 70
     0
 62
     2
  6
CONTINUOUS
  0
LAYER
  5
F4D
330
2
100
AcDbSymbolTableRecord
100
AcDbLayerTableRecord
  2
DEFPOINTS
 70
     0
 62
     7
  6
CONTINUOUS
  0
LAYER
  5
4E80
330
2
100
AcDbSymbolTableRecord
100
AcDbLayerTableRecord
  2
AM_11
 70
     0
 62
     3
  6
AM_ISO09W050
  0
ENDTAB
  0
TABLE
  2
STYLE
  5
3
330
0
100
AcDbSymbolTable
 70
     5
  0
STYLE
  5
11
330
3
100
AcDbSymbolTableRecord
100
AcDbTextStyleTableRecord
  2
STANDARD
 70
     0
 40
0.0
 41
1.0
 50
0.0
 71
     0
 42
2.5
  3
simplex.shx
  4
EXTFONT.SHX
  0
STYLE
  5
52
330
3
100
AcDbSymbolTableRecord
100
AcDbTextStyleTableRecord
  2

 70
     1
 40
0.0
 41
1.0
 50
0.0
 71
     0
 42
2.5
  3
ltypeshp.shx
  4

  0
STYLE
  5
6B
330
3
100
AcDbSymbolTableRecord
100
AcDbTextStyleTableRecord
  2
ASAMI
 70
     0
 40
0.0
 41
1.0
 50
0.0
 71
     0
 42
2.5
  3
simplex.shx
  4
EXTFONT.SHX
  0
STYLE
  5
262
330
3
100
AcDbSymbolTableRecord
100
AcDbTextStyleTableRecord
  2
ACJISTS
 70
     0
 40
1.0
 41
1.0
 50
0.0
 71
     0
 42
2.5
  3
simplex.shx
  4
bigfont.shx
  0
STYLE
  5
269
330
3
100
AcDbSymbolTableRecord
100
AcDbTextStyleTableRecord
  2
ACJISGDT
 70
     0
 40
0.0
 41
1.0
 50
0.0
 71
     0
 42
2.5
  3
amgdtans.shx
  4

  0
ENDTAB
  0
TABLE
  2
VIEW
  5
6
330
0
100
AcDbSymbolTable
 70
     0
  0
ENDTAB
  0
TABLE
  2
UCS
  5
7
330
0
100
AcDbSymbolTable
 70
     0
  0
ENDTAB
  0
TABLE
  2
APPID
  5
9
330
0
100
AcDbSymbolTable
 70
    24
  0
APPID
  5
12
330
9
100
AcDbSymbolTableRecord
100
AcDbRegAppTableRecord
  2
ACAD
 70
     0
  0
APPID
  5
30
330
9
100
AcDbSymbolTableRecord
100
AcDbRegAppTableRecord
  2
MCAD_NO_VIS
 70
     0
  0
APPID
  5
31
330
9
100
AcDbSymbolTableRecord
100
AcDbRegAppTableRecord
  2
ACAD_TEMP_GRAPHIC
 70
     0
  0
APPID
  5
2C2
330
9
100
AcDbSymbolTableRecord
100
AcDbRegAppTableRecord
  2
GENIUS_GENDTOL_13
 70
     0
  0
APPID
  5
339
330
9
100
AcDbSymbolTableRecord
100
AcDbRegAppTableRecord
  2
GENIUS_GENODEF_13
 70
     0
  0
APPID
  5
33A
330
9
100
AcDbSymbolTableRecord
100
AcDbRegAppTableRecord
  2
GENIUS_GENOBJ-N-RSBK_13
 70
     0
  0
APPID
  5
33B
330
9
100
AcDbSymbolTableRecord
100
AcDbRegAppTableRecord
  2
GENIUS_GENOBJ-N-LIB_13
 70
     0
  0
APPID
  5
33C
330
9
100
AcDbSymbolTableRecord
100
AcDbRegAppTableRecord
  2
GENIUS_GENSCALE_13
 70
     0
  0
APPID
  5
378
330
9
100
AcDbSymbolTableRecord
100
AcDbRegAppTableRecord
  2
GENIUS_GENDIMSH_14
 70
     0
  0
APPID
  5
BB0
330
9
100
AcDbSymbolTableRecord
100
AcDbRegAppTableRecord
  2
GENIUS_GENOBJ-N-CEN_13
 70
     0
  0
APPID
  5
BB1
330
9
100
AcDbSymbolTableRecord
100
AcDbRegAppTableRecord
  2
GENIUS_GENFIL_13
 70
     0
  0
APPID
  5
BB2
330
9
100
AcDbSymbolTableRecord
100
AcDbRegAppTableRecord
  2
GENIUS_GENOBJ-N-CHA_13
 70
     0
  0
APPID
  5
1FAF
330
9
100
AcDbSymbolTableRecord
100
AcDbRegAppTableRecord
  2
GENIUS_GENOBJ-N-CRS_13
 70
     0
  0
APPID
  5
1FB0
330
9
100
AcDbSymbolTableRecord
100
AcDbRegAppTableRecord
  2
GENIUS_GENOENT_13
 70
     0
  0
APPID
  5
1FB1
330
9
100
AcDbSymbolTableRecord
100
AcDbRegAppTableRecord
  2
GENIUS_GENOREF_13
 70
     0
  0
APPID
  5
1FB2
330
9
100
AcDbSymbolTableRecord
100
AcDbRegAppTableRecord
  2
GENIUS_GENOLIS_13
 70
     0
  0
APPID
  5
1FB7
330
9
100
AcDbSymbolTableRecord
100
AcDbRegAppTableRecord
  2
GENIUS_GENOBJ-N-FIL_13
 70
     0
  0
APPID
  5
22A8
330
9
100
AcDbSymbolTableRecord
100
AcDbRegAppTableRecord
  2
GEVID1056506048
 70
     0
  0
APPID
  5
22A9
330
9
100
AcDbSymbolTableRecord
100
AcDbRegAppTableRecord
  2
GEVDC
 70
     0
  0
APPID
  5
22AC
330
9
100
AcDbSymbolTableRecord
100
AcDbRegAppTableRecord
  2
GENIUS_GENBH_13
 70
     0
  0
APPID
  5
22B8
330
9
100
AcDbSymbolTableRecord
100
AcDbRegAppTableRecord
  2
GENIUS_GENOBJ-NBEHI-BHF_13
 70
     0
  0
APPID
  5
22BA
330
9
100
AcDbSymbolTableRecord
100
AcDbRegAppTableRecord
  2
GENIUS_GENOBJ-NBEHI-BHB_13
 70
     0
  0
APPID
  5
35C9
330
9
100
AcDbSymbolTableRecord
100
AcDbRegAppTableRecord
  2
GENIUS_GENREC_14
 70
     0
  0
APPID
  5
35CA
330
9
100
AcDbSymbolTableRecord
100
AcDbRegAppTableRecord
  2
GENIUS_GENOBJ-N-REC_13
 70
     0
  0
ENDTAB
  0
TABLE
  2
DIMSTYLE
  5
A
330
0
100
AcDbSymbolTable
 70
     9
  0
DIMSTYLE
105
58
330
A
100
AcDbSymbolTableRecord
100
AcDbDimStyleTableRecord
  2
AM_JIS
 70
     0
  3

  4
"
  5
OPEN30
  6

  7

 40
1.0
 41
2.5
 42
1.0
 43
12.0
 44
1.0
 45
0.0
 46
0.0
 47
0.1
 48
0.1
140
3.2
141
0.0
142
0.0
143
0.0393701
144
1.0
145
0.0
146
0.71
147
1.5
 71
     0
 72
     0
 73
     0
 74
     0
 75
     0
 76
     0
 77
     3
 78
     8
170
     0
171
     2
172
     1
173
     0
174
     0
175
     0
176
   256
177
   256
178
     2
270
     2
271
     3
272
     3
273
     2
274
     2
340
6B
275
     0
280
     0
281
     0
282
     0
283
     0
284
     0
285
     0
286
     0
287
     3
288
     0
  0
DIMSTYLE
105
5F
330
A
100
AcDbSymbolTableRecord
100
AcDbDimStyleTableRecord
  2
AM_JIS$3
 70
     0
  3

  4
"
  5
OPEN30
  6

  7

 40
1.0
 41
2.5
 42
1.0
 43
10.0
 44
1.0
 45
0.0
 46
0.0
 47
0.1
 48
0.1
140
3.2
141
0.0
142
0.0
143
0.0393701
144
1.0
145
0.0
146
0.71
147
1.5
 71
     0
 72
     0
 73
     0
 74
     1
 75
     0
 76
     0
 77
     3
 78
     8
170
     0
171
     2
172
     0
173
     0
174
     0
175
     0
176
   256
177
   256
178
     2
270
     2
271
     2
272
     3
273
     2
274
     2
340
6B
275
     0
280
     0
281
     0
282
     0
283
     0
284
     0
285
     0
286
     0
287
     0
288
     1
  0
DIMSTYLE
105
60
330
A
100
AcDbSymbolTableRecord
100
AcDbDimStyleTableRecord
  2
AM_JIS$4
 70
     0
  3

  4
"
  5
OPEN30
  6

  7

 40
1.0
 41
2.5
 42
1.0
 43
10.0
 44
1.0
 45
0.0
 46
0.0
 47
0.1
 48
0.1
140
3.2
141
0.0
142
0.0
143
0.0393701
144
1.0
145
0.0
146
0.71
147
1.5
 71
     0
 72
     0
 73
     0
 74
     1
 75
     0
 76
     0
 77
     3
 78
     8
170
     0
171
     2
172
     0
173
     0
174
     0
175
     0
176
   256
177
   256
178
     2
270
     2
271
     2
272
     3
273
     2
274
     2
340
6B
275
     0
280
     0
281
     0
282
     0
283
     0
284
     0
285
     0
286
     0
287
     0
288
     1
  0
DIMSTYLE
105
61
330
A
100
AcDbSymbolTableRecord
100
AcDbDimStyleTableRecord
  2
AM_JIS$6
 70
     0
  3

  4
"
  5
OPEN30
  6

  7

 40
1.0
 41
2.5
 42
1.0
 43
10.0
 44
1.0
 45
0.0
 46
0.0
 47
0.1
 48
0.1
140
3.2
141
0.0
142
0.0
143
0.0393701
144
1.0
145
0.0
146
0.71
147
1.5
 71
     0
 72
     0
 73
     0
 74
     0
 75
     0
 76
     0
 77
     0
 78
     8
170
     0
171
     2
172
     1
173
     0
174
     0
175
     0
176
   256
177
   256
178
     2
270
     2
271
     2
272
     2
273
     2
274
     2
340
6B
275
     0
280
     0
281
     0
282
     0
283
     0
284
     0
285
     0
286
     0
287
     3
288
     0
  0
DIMSTYLE
105
62
330
A
100
AcDbSymbolTableRecord
100
AcDbDimStyleTableRecord
  2
AM_JIS$7
 70
     0
  3

  4
"
  5
OPEN30
  6

  7

 40
1.0
 41
2.5
 42
1.0
 43
10.0
 44
1.0
 45
0.0
 46
0.0
 47
0.1
 48
0.1
140
3.2
141
0.0
142
0.0
143
0.0393701
144
1.0
145
0.0
146
0.71
147
1.5
 71
     0
 72
     0
 73
     0
 74
     0
 75
     0
 76
     0
 77
     3
 78
     8
170
     0
171
     2
172
     1
173
     0
174
     0
175
     0
176
   256
177
   256
178
     2
270
     2
271
     2
272
     3
273
     2
274
     2
340
6B
275
     0
280
     0
281
     0
282
     0
283
     0
284
     0
285
     0
286
     0
287
     3
288
     0
  0
DIMSTYLE
105
63
330
A
100
AcDbSymbolTableRecord
100
AcDbDimStyleTableRecord
  2
AM_JIS$SF
 70
     0
  3

  4
"
  5
OPEN30
  6

  7

 40
1.0
 41
2.5
 42
1.0
 43
10.0
 44
1.0
 45
0.0
 46
0.0
 47
0.1
 48
0.1
140
3.2
141
0.0
142
0.0
143
0.0393701
144
1.0
145
0.0
146
0.71
147
1.5
 71
     0
 72
     0
 73
     0
 74
     0
 75
     1
 76
     1
 77
     3
 78
     8
170
     0
171
     2
172
     1
173
     0
174
     0
175
     0
176
   256
177
   256
178
     2
270
     2
271
     2
272
     2
273
     2
274
     2
340
6B
275
     0
280
     0
281
     0
282
     0
283
     0
284
     0
285
     0
286
     0
287
     3
288
     0
  0
DIMSTYLE
105
68
330
A
100
AcDbSymbolTableRecord
100
AcDbDimStyleTableRecord
  2
AM_JIS$SH
 70
     0
  3

  4
"
  5

  6
GENAXEH
  7
OPEN30
 40
1.0
 41
2.5
 42
1.0
 43
10.0
 44
1.0
 45
0.0
 46
0.0
 47
0.1
 48
0.1
140
3.2
141
0.0
142
0.0
143
0.0393701
144
2.0
145
0.0
146
0.71
147
1.5
 71
     0
 72
     0
 73
     0
 74
     0
 75
     1
 76
     1
 77
     3
 78
     8
170
     0
171
     2
172
     1
173
     1
174
     0
175
     0
176
   256
177
   256
178
     2
270
     2
271
     2
272
     2
273
     2
274
     2
340
6B
275
     0
280
     0
281
     0
282
     0
283
     0
284
     0
285
     0
286
     0
287
     3
288
     0
  0
DIMSTYLE
105
B34
102
{ACAD_REACTORS
330
9004
330
957E
330
9A12
102
}
330
A
100
AcDbSymbolTableRecord
100
AcDbDimStyleTableRecord
  2
AM_JIS$2
 70
     0
  3

  4
"
  5
OPEN30
  6

  7

 40
1.0
 41
2.5
 42
1.0
 43
12.0
 44
1.0
 45
0.0
 46
0.0
 47
0.1
 48
0.1
140
3.2
141
0.0
142
0.0
143
0.0393701
144
1.0
145
0.0
146
0.71
147
1.5
 71
     0
 72
     0
 73
     0
 74
     0
 75
     0
 76
     0
 77
     3
 78
     8
170
     0
171
     2
172
     1
173
     0
174
     0
175
     0
176
   256
177
   256
178
     2
270
     2
271
     3
272
     3
273
     2
274
     2
340
6B
275
     0
280
     0
281
     0
282
     0
283
     0
284
     0
285
     0
286
     0
287
     3
288
     0
  0
DIMSTYLE
105
3B48
102
{ACAD_REACTORS
330
8E0E
330
8EB9
330
90E4
330
93E1
330
927A
330
98FE
102
}
330
A
100
AcDbSymbolTableRecord
100
AcDbDimStyleTableRecord
  2
AM_JIS$0
 70
     0
  3

  4
"
  5
OPEN30
  6

  7

 40
1.0
 41
2.5
 42
0.0
 43
10.0
 44
1.0
 45
0.0
 46
0.0
 47
0.1
 48
0.1000000001
140
3.799999999999999
141
0.0
142
0.0
143
0.0393701
144
1.0
145
0.0
146
0.71
147
1.5
 71
     0
 72
     0
 73
     0
 74
     0
 75
     0
 76
     0
 77
     3
 78
     1
170
     0
171
     2
172
     1
173
     0
174
     0
175
     0
176
     3
177
     3
178
     2
270
     2
271
     2
272
     2
273
     2
274
     2
340
11
275
     1
280
     0
281
     0
282
     0
283
     0
284
     8
285
     0
286
     0
287
     0
288
     0
  0
ENDTAB
  0
TABLE
  2
BLOCK_RECORD
  5
1
330
0
100
AcDbSymbolTable
 70
    14
  0
BLOCK_RECORD
  5
1F
102
{ACAD_XDICTIONARY
360
74
102
}
330
1
100
AcDbSymbolTableRecord
100
AcDbBlockTableRecord
  2
*MODEL_SPACE
  0
BLOCK_RECORD
  5
101
102
{ACAD_XDICTIONARY
360
9ED1
102
}
330
1
100
AcDbSymbolTableRecord
100
AcDbBlockTableRecord
  2
*PAPER_SPACE
  0
BLOCK_RECORD
  5
59
330
1
100
AcDbSymbolTableRecord
100
AcDbBlockTableRecord
  2
_OPEN30
  0
BLOCK_RECORD
  5
64
330
1
100
AcDbSymbolTableRecord
100
AcDbBlockTableRecord
  2
GENAXEH
  0
BLOCK_RECORD
  5
8E0F
330
1
100
AcDbSymbolTableRecord
100
AcDbBlockTableRecord
  2
*D5
  0
BLOCK_RECORD
  5
8EBA
330
1
100
AcDbSymbolTableRecord
100
AcDbBlockTableRecord
  2
*D6
  0
BLOCK_RECORD
  5
9005
330
1
100
AcDbSymbolTableRecord
100
AcDbBlockTableRecord
  2
*D7
  0
BLOCK_RECORD
  5
90E5
330
1
100
AcDbSymbolTableRecord
100
AcDbBlockTableRecord
  2
*D8
  0
BLOCK_RECORD
  5
927B
330
1
100
AcDbSymbolTableRecord
100
AcDbBlockTableRecord
  2
*D9
  0
BLOCK_RECORD
  5
93E2
330
1
100
AcDbSymbolTableRecord
100
AcDbBlockTableRecord
  2
*D10
  0
BLOCK_RECORD
  5
957F
330
1
100
AcDbSymbolTableRecord
100
AcDbBlockTableRecord
  2
*D11
  0
BLOCK_RECORD
  5
98FF
330
1
100
AcDbSymbolTableRecord
100
AcDbBlockTableRecord
  2
*D12
  0
BLOCK_RECORD
  5
9A13
330
1
100
AcDbSymbolTableRecord
100
AcDbBlockTableRecord
  2
*D13
  0
ENDTAB
  0
ENDSEC
  0
SECTION
  2
BLOCKS
  0
BLOCK
  5
20
330
1F
100
AcDbEntity
  8
0
100
AcDbBlockBegin
  2
*MODEL_SPACE
 70
     0
 10
0.0
 20
0.0
 30
0.0
  3
*MODEL_SPACE
  1

  0
ENDBLK
  5
21
330
1F
100
AcDbEntity
  8
0
100
AcDbBlockEnd
  0
BLOCK
  5
103
330
101
100
AcDbEntity
 67
     1
  8
0
100
AcDbBlockBegin
  2
*PAPER_SPACE
 70
     0
 10
0.0
 20
0.0
 30
0.0
  3
*PAPER_SPACE
  1

  0
ENDBLK
  5
104
330
101
100
AcDbEntity
 67
     1
  8
0
100
AcDbBlockEnd
  0
BLOCK
  5
5D
330
59
100
AcDbEntity
  8
0
100
AcDbBlockBegin
  2
_OPEN30
 70
     0
 10
0.0
 20
0.0
 30
0.0
  3
_OPEN30
  1

  0
LINE
  5
5A
330
59
100
AcDbEntity
  8
0
 62
     0
100
AcDbLine
 10
-1.0
 20
0.26794919
 30
0.0
 11
0.0
 21
0.0
 31
0.0
  0
LINE
  5
5B
330
59
100
AcDbEntity
  8
0
 62
     0
100
AcDbLine
 10
0.0
 20
0.0
 30
0.0
 11
-1.0
 21
-0.26794919
 31
0.0
  0
LINE
  5
5C
330
59
100
AcDbEntity
  8
0
 62
     0
100
AcDbLine
 10
0.0
 20
0.0
 30
0.0
 11
-1.0
 21
0.0
 31
0.0
  0
ENDBLK
  5
5E
330
59
100
AcDbEntity
  8
0
100
AcDbBlockEnd
  0
BLOCK
  5
66
330
64
100
AcDbEntity
  8
0
100
AcDbBlockBegin
  2
GENAXEH
 70
     0
 10
0.0
 20
0.0
 30
0.0
  3
GENAXEH
  1

  0
LINE
  5
65
330
64
100
AcDbEntity
  8
0
100
AcDbLine
 10
-1.0
 20
0.0
 30
0.0
 11
1.0
 21
0.0
 31
0.0
  0
ENDBLK
  5
67
330
64
100
AcDbEntity
  8
0
100
AcDbBlockEnd
  0
BLOCK
  5
8E19
330
8E0F
100
AcDbEntity
  8
0
100
AcDbBlockBegin
  2
*D5
 70
     1
 10
0.0
 20
0.0
 30
0.0
  3
*D5
  1

  0
LINE
  5
9ED3
330
8E0F
100
AcDbEntity
  8
AM_5
100
AcDbLine
 10
-151.0000000000005
 20
91.80148798145632
 30
0.0
 11
-165.0000000000004
 21
91.80148798145628
 31
0.0
  0
LINE
  5
9ED4
330
8E0F
100
AcDbEntity
  8
AM_5
100
AcDbLine
 10
-151.0000000000004
 20
66.8014879814563
 30
0.0
 11
-165.0000000000004
 21
66.80148798145627
 31
0.0
  0
LINE
  5
9ED5
330
8E0F
100
AcDbEntity
  8
AM_5
100
AcDbLine
 10
-164.0000000000004
 20
89.30148798145628
 30
0.0
 11
-164.0000000000004
 21
69.30148798145627
 31
0.0
  0
INSERT
  5
9ED6
330
8E0F
100
AcDbEntity
  8
AM_5
100
AcDbBlockReference
  2
_OPEN30
 10
-164.0000000000004
 20
91.80148798145628
 30
0.0
 41
2.5
 42
2.5
 43
2.5
 50
90.0000000000001
  0
INSERT
  5
9ED7
330
8E0F
100
AcDbEntity
  8
AM_5
100
AcDbBlockReference
  2
_OPEN30
 10
-164.0000000000004
 20
66.80148798145627
 30
0.0
 41
2.5
 42
2.5
 43
2.5
 50
270.0000000000001
  0
MTEXT
  5
9ED8
330
8E0F
100
AcDbEntity
  8
AM_5
 62
     2
100
AcDbMText
 10
-167.1000000000004
 20
79.30148798145627
 30
0.0
 40
3.2
 41
0.0
 71
     5
 72
     1
  1
25
  7
ASAMI
 11
-0.000000000000002
 21
1.0
 31
0.0
  0
POINT
  5
9ED9
330
8E0F
100
AcDbEntity
  8
DEFPOINTS
 62
     0
100
AcDbPoint
 10
-150.0000000000003
 20
91.80148798145664
 30
0.0
  0
POINT
  5
9EDA
330
8E0F
100
AcDbEntity
  8
DEFPOINTS
 62
     0
100
AcDbPoint
 10
-150.0000000000002
 20
66.80148798145663
 30
0.0
  0
POINT
  5
9EDB
330
8E0F
100
AcDbEntity
  8
DEFPOINTS
 62
     0
100
AcDbPoint
 10
-164.0000000000002
 20
66.80148798145665
 30
0.0
  0
ENDBLK
  5
8E1A
330
8E0F
100
AcDbEntity
  8
0
100
AcDbBlockEnd
  0
BLOCK
  5
8EC4
330
8EBA
100
AcDbEntity
  8
0
100
AcDbBlockBegin
  2
*D6
 70
     1
 10
0.0
 20
0.0
 30
0.0
  3
*D6
  1

  0
LINE
  5
9EDC
330
8EBA
100
AcDbEntity
  8
AM_5
100
AcDbLine
 10
-151.0000000000002
 20
12.4999999999997
 30
0.0
 11
-165.0000000000003
 21
12.49999999999967
 31
0.0
  0
LINE
  5
9EDD
330
8EBA
100
AcDbEntity
  8
AM_5
100
AcDbLine
 10
-151.0000000000002
 20
-12.5000000000003
 30
0.0
 11
-165.0000000000002
 21
-12.50000000000032
 31
0.0
  0
LINE
  5
9EDE
330
8EBA
100
AcDbEntity
  8
AM_5
100
AcDbLine
 10
-164.0000000000003
 20
9.999999999999673
 30
0.0
 11
-164.0000000000002
 21
-10.00000000000032
 31
0.0
  0
INSERT
  5
9EDF
330
8EBA
100
AcDbEntity
  8
AM_5
100
AcDbBlockReference
  2
_OPEN30
 10
-164.0000000000003
 20
12.49999999999967
 30
0.0
 41
2.5
 42
2.5
 43
2.5
 50
90.0000000000001
  0
INSERT
  5
9EE0
330
8EBA
100
AcDbEntity
  8
AM_5
100
AcDbBlockReference
  2
_OPEN30
 10
-164.0000000000002
 20
-12.50000000000032
 30
0.0
 41
2.5
 42
2.5
 43
2.5
 50
270.0000000000001
  0
MTEXT
  5
9EE1
330
8EBA
100
AcDbEntity
  8
AM_5
 62
     2
100
AcDbMText
 10
-167.1000000000003
 20
-0.0000000000003256
 30
0.0
 40
3.2
 41
0.0
 71
     5
 72
     1
  1
25
  7
ASAMI
 11
-0.000000000000002
 21
1.0
 31
0.0
  0
POINT
  5
9EE2
330
8EBA
100
AcDbEntity
  8
DEFPOINTS
 62
     0
100
AcDbPoint
 10
-150.0000000000002
 20
12.50000000000003
 30
0.0
  0
POINT
  5
9EE3
330
8EBA
100
AcDbEntity
  8
DEFPOINTS
 62
     0
100
AcDbPoint
 10
-150.0000000000002
 20
-12.49999999999996
 30
0.0
  0
POINT
  5
9EE4
330
8EBA
100
AcDbEntity
  8
DEFPOINTS
 62
     0
100
AcDbPoint
 10
-164.0000000000003
 20
-12.49999999999996
 30
0.0
  0
ENDBLK
  5
8EC5
330
8EBA
100
AcDbEntity
  8
0
100
AcDbBlockEnd
  0
BLOCK
  5
9015
330
9005
100
AcDbEntity
  8
0
100
AcDbBlockBegin
  2
*D7
 70
     1
 10
0.0
 20
0.0
 30
0.0
  3
*D7
  1

  0
LINE
  5
9D47
330
9005
100
AcDbEntity
  8
AM_5
100
AcDbLine
 10
2.814124569486493
 20
-0.3007057995042271
 30
0.0
 11
31.26651326562242
 21
-9.271709496110094
 31
0.0
  0
LINE
  5
9D48
330
9005
100
AcDbEntity
  8
AM_5
100
AcDbLine
 10
2.814124569486494
 20
0.3007057995043235
 30
0.0
 11
10.21856168030424
 21
2.635315852875764
 31
0.0
  0
ARC
  5
9D49
330
9005
100
AcDbEntity
  8
AM_5
100
AcDbCircle
 10
1.860407618738268
 20
0.0000000000000499
 30
0.0
 40
29.83315822772574
100
AcDbArc
 50
347.3027564601117
 51
12.69724353988805
  0
INSERT
  5
9D4A
330
9005
100
AcDbEntity
  8
AM_5
100
AcDbBlockReference
  2
_OPEN30
 10
30.3127963148742
 20
-8.971003696605817
 30
0.0
 41
2.5
 42
2.5
 43
2.5
 50
254.9013782300557
  0
INSERT
  5
9D4B
330
9005
100
AcDbEntity
  8
AM_5
100
AcDbBlockReference
  2
_OPEN30
 10
30.31279631487423
 20
8.971003696605817
 30
0.0
 41
2.5
 42
2.5
 43
2.5
 50
105.0986217699441
  0
MTEXT
  5
9D4C
330
9005
100
AcDbEntity
  8
AM_5
 62
     2
100
AcDbMText
 10
28.593565846464
 20
-0.000000000000009
 30
0.0
 40
3.2
 41
0.0
 71
     5
 72
     1
  1
35°
  7
ASAMI
 11
-0.000000000000002
 21
1.0
 31
0.0
1001
ACAD
1000
MTEXTBEGIN
1070
    73
1070
     1
1070
    44
1040
1.0
1070
    74
1070
     0
1000
MTEXTEND
  0
POINT
  5
9D4D
330
9005
100
AcDbEntity
  8
DEFPOINTS
 62
     0
100
AcDbPoint
 10
31.53908224403656
 20
-3.032095368914907
 30
0.0
  0
POINT
  5
9D4E
330
9005
100
AcDbEntity
  8
DEFPOINTS
 62
     0
100
AcDbPoint
 10
-13.97733148656388
 20
-4.993619958483009
 30
0.0
  0
POINT
  5
9D4F
330
9005
100
AcDbEntity
  8
DEFPOINTS
 62
     0
100
AcDbPoint
 10
-13.97733148656388
 20
4.993619958483236
 30
0.0
  0
POINT
  5
9D50
330
9005
100
AcDbEntity
  8
DEFPOINTS
 62
     0
100
AcDbPoint
 10
-0.5594353603968614
 20
0.762973560598681
 30
0.0
  0
POINT
  5
9D51
330
9005
100
AcDbEntity
  8
DEFPOINTS
 62
     0
100
AcDbPoint
 10
-0.5594353603968614
 20
-0.7629735605985673
 30
0.0
  0
LINE
  5
9D52
330
9005
100
AcDbEntity
  8
AM_5
100
AcDbLine
 10
16.39711741223001
 20
4.583406992173263
 30
0.0
 11
31.26651326562246
 21
9.271709496110091
 31
0.0
  0
ENDBLK
  5
9016
330
9005
100
AcDbEntity
  8
0
100
AcDbBlockEnd
  0
BLOCK
  5
90EF
330
90E5
100
AcDbEntity
  8
0
100
AcDbBlockBegin
  2
*D8
 70
     1
 10
0.0
 20
0.0
 30
0.0
  3
*D8
  1

  0
LINE
  5
9EE5
330
90E5
100
AcDbEntity
  8
AM_5
100
AcDbLine
 10
-37.24998605359242
 20
12.50000000000008
 30
0.0
 11
16.86040761873789
 21
12.50000000000019
 31
0.0
  0
LINE
  5
9EE6
330
90E5
100
AcDbEntity
  8
AM_5
100
AcDbLine
 10
4.026234127098547
 20
0.0000000000001792
 30
0.0
 11
16.86040761873791
 21
0.000000000000204
 31
0.0
  0
LINE
  5
9EE7
330
90E5
100
AcDbEntity
  8
AM_5
100
AcDbLine
 10
15.86040761873789
 20
10.00000000000018
 30
0.0
 11
15.86040761873791
 21
2.500000000000202
 31
0.0
  0
INSERT
  5
9EE8
330
90E5
100
AcDbEntity
  8
AM_5
100
AcDbBlockReference
  2
_OPEN30
 10
15.86040761873789
 20
12.50000000000018
 30
0.0
 41
2.5
 42
2.5
 43
2.5
 50
90.0000000000001
  0
INSERT
  5
9EE9
330
90E5
100
AcDbEntity
  8
AM_5
100
AcDbBlockReference
  2
_OPEN30
 10
15.86040761873791
 20
0.0000000000002021
 30
0.0
 41
2.5
 42
2.5
 43
2.5
 50
270.0000000000001
  0
MTEXT
  5
9EEA
330
90E5
100
AcDbEntity
  8
AM_5
 62
     2
100
AcDbMText
 10
12.7604076187379
 20
6.250000000000188
 30
0.0
 40
3.2
 41
0.0
 71
     5
 72
     1
  1
12.5
  7
ASAMI
 11
-0.000000000000002
 21
1.0
 31
0.0
  0
POINT
  5
9EEB
330
90E5
100
AcDbEntity
  8
DEFPOINTS
 62
     0
100
AcDbPoint
 10
-38.2499860535924
 20
12.50000000000016
 30
0.0
  0
POINT
  5
9EEC
330
90E5
100
AcDbEntity
  8
DEFPOINTS
 62
     0
100
AcDbPoint
 10
3.026234127098547
 20
0.0000000000001705
 30
0.0
  0
POINT
  5
9EED
330
90E5
100
AcDbEntity
  8
DEFPOINTS
 62
     0
100
AcDbPoint
 10
15.86040761873791
 20
0.0000000000001669
 30
0.0
  0
ENDBLK
  5
90F0
330
90E5
100
AcDbEntity
  8
0
100
AcDbBlockEnd
  0
BLOCK
  5
9285
330
927B
100
AcDbEntity
  8
0
100
AcDbBlockBegin
  2
*D9
 70
     1
 10
0.0
 20
0.0
 30
0.0
  3
*D9
  1

  0
LINE
  5
9EEE
330
927B
100
AcDbEntity
  8
AM_5
100
AcDbLine
 10
-0.0000000000004601
 20
65.9036881392154
 30
0.0
 11
-0.0000000000004178
 21
44.3014879814568
 31
0.0
  0
LINE
  5
9EEF
330
927B
100
AcDbEntity
  8
AM_5
100
AcDbLine
 10
-45.00000000000046
 20
58.30148798145671
 30
0.0
 11
-45.00000000000043
 21
44.30148798145671
 31
0.0
  0
LINE
  5
9EF0
330
927B
100
AcDbEntity
  8
AM_5
100
AcDbLine
 10
-2.500000000000419
 20
45.30148798145679
 30
0.0
 11
-42.50000000000043
 21
45.30148798145671
 31
0.0
  0
INSERT
  5
9EF1
330
927B
100
AcDbEntity
  8
AM_5
100
AcDbBlockReference
  2
_OPEN30
 10
-0.0000000000004197
 20
45.3014879814568
 30
0.0
 41
2.5
 42
2.5
 43
2.5
 50
0.0000000000001018
  0
INSERT
  5
9EF2
330
927B
100
AcDbEntity
  8
AM_5
100
AcDbBlockReference
  2
_OPEN30
 10
-45.00000000000043
 20
45.3014879814567
 30
0.0
 41
2.5
 42
2.5
 43
2.5
 50
180.0000000000001
  0
MTEXT
  5
9EF3
330
927B
100
AcDbEntity
  8
AM_5
 62
     2
100
AcDbMText
 10
-22.50000000000043
 20
48.40148798145676
 30
0.0
 40
3.2
 41
0.0
 71
     5
 72
     1
  1
45
  7
ASAMI
  0
POINT
  5
9EF4
330
927B
100
AcDbEntity
  8
DEFPOINTS
 62
     0
100
AcDbPoint
 10
-0.0000000000003268
 20
66.90368813921541
 30
0.0
  0
POINT
  5
9EF5
330
927B
100
AcDbEntity
  8
DEFPOINTS
 62
     0
100
AcDbPoint
 10
-45.00000000000034
 20
59.3014879814568
 30
0.0
  0
POINT
  5
9EF6
330
927B
100
AcDbEntity
  8
DEFPOINTS
 62
     0
100
AcDbPoint
 10
-45.00000000000034
 20
45.3014879814568
 30
0.0
  0
ENDBLK
  5
9286
330
927B
100
AcDbEntity
  8
0
100
AcDbBlockEnd
  0
BLOCK
  5
93EC
330
93E2
100
AcDbEntity
  8
0
100
AcDbBlockBegin
  2
*D10
 70
     1
 10
0.0
 20
0.0
 30
0.0
  3
*D10
  1

  0
LINE
  5
9EF7
330
93E2
100
AcDbEntity
  8
AM_5
100
AcDbLine
 10
-5.200961470143667
 20
91.80148798145683
 30
0.0
 11
28.94884055857547
 21
91.8014879814569
 31
0.0
  0
LINE
  5
9EF8
330
93E2
100
AcDbEntity
  8
AM_5
100
AcDbLine
 10
0.9999999999995104
 20
66.90368813921541
 30
0.0
 11
28.94884055857551
 21
66.90368813921546
 31
0.0
  0
LINE
  5
9EF9
330
93E2
100
AcDbEntity
  8
AM_5
100
AcDbLine
 10
27.94884055857547
 20
89.3014879814569
 30
0.0
 11
27.94884055857551
 21
69.40368813921546
 31
0.0
  0
INSERT
  5
9EFA
330
93E2
100
AcDbEntity
  8
AM_5
100
AcDbBlockReference
  2
_OPEN30
 10
27.94884055857546
 20
91.8014879814569
 30
0.0
 41
2.5
 42
2.5
 43
2.5
 50
90.0000000000001
  0
INSERT
  5
9EFB
330
93E2
100
AcDbEntity
  8
AM_5
100
AcDbBlockReference
  2
_OPEN30
 10
27.94884055857551
 20
66.90368813921546
 30
0.0
 41
2.5
 42
2.5
 43
2.5
 50
270.0000000000001
  0
MTEXT
  5
9EFC
330
93E2
100
AcDbEntity
  8
AM_5
 62
     2
100
AcDbMText
 10
24.84884055857549
 20
79.35258806033619
 30
0.0
 40
3.2
 41
0.0
 71
     5
 72
     1
  1
25
  7
ASAMI
 11
-0.000000000000002
 21
1.0
 31
0.0
  0
POINT
  5
9EFD
330
93E2
100
AcDbEntity
  8
DEFPOINTS
 62
     0
100
AcDbPoint
 10
-6.200961470143463
 20
91.80148798145685
 30
0.0
  0
POINT
  5
9EFE
330
93E2
100
AcDbEntity
  8
DEFPOINTS
 62
     0
100
AcDbPoint
 10
-0.0000000000003411
 20
66.90368813921541
 30
0.0
  0
POINT
  5
9EFF
330
93E2
100
AcDbEntity
  8
DEFPOINTS
 62
     0
100
AcDbPoint
 10
27.94884055857566
 20
66.90368813921541
 30
0.0
  0
ENDBLK
  5
93ED
330
93E2
100
AcDbEntity
  8
0
100
AcDbBlockEnd
  0
BLOCK
  5
958E
330
957F
100
AcDbEntity
  8
0
100
AcDbBlockBegin
  2
*D11
 70
     1
 10
0.0
 20
0.0
 30
0.0
  3
*D11
  1

  0
LINE
  5
9F00
330
957F
100
AcDbEntity
  8
AM_5
100
AcDbLine
 10
-39.2037030043404
 20
12.80070579950436
 30
0.0
 11
-67.85735835102919
 21
21.83516862727098
 31
0.0
  0
ARC
  5
9F01
330
957F
100
AcDbEntity
  8
AM_5
100
AcDbCircle
 10
-38.24998605359217
 20
12.50000000000009
 30
0.0
 40
30.04419217274986
100
AcDbArc
 50
167.2690017739035
 51
175.2309982260969
  0
INSERT
  5
9F02
330
957F
100
AcDbEntity
  8
AM_5
100
AcDbBlockReference
  2
_OPEN30
 10
-66.90364140028098
 20
21.53446282776671
 30
0.0
 41
2.5
 42
2.5
 43
2.5
 50
74.88450088695192
  0
INSERT
  5
9F03
330
957F
100
AcDbEntity
  8
AM_5
100
AcDbBlockReference
  2
_OPEN30
 10
-68.29417822634205
 20
12.5
 30
0.0
 41
2.5
 42
2.5
 43
2.5
 50
267.6154991130485
  0
MTEXT
  5
9F04
330
957F
100
AcDbEntity
  8
AM_5
 62
     2
100
AcDbMText
 10
-70.54136347035947
 20
21.22350121266593
 30
0.0
 40
3.2
 41
0.0
 71
     5
 72
     1
  1
17%%d30'
  7
ASAMI
 11
0.2608004182268528
 21
0.9653927396933843
 31
0.0
  0
POINT
  5
9F05
330
957F
100
AcDbEntity
  8
DEFPOINTS
 62
     0
100
AcDbPoint
 10
-68.13860183702917
 20
15.55354382041666
 30
0.0
  0
POINT
  5
9F06
330
957F
100
AcDbEntity
  8
DEFPOINTS
 62
     0
100
AcDbPoint
 10
-14.21006080795885
 20
4.920240685310772
 30
0.0
  0
POINT
  5
9F07
330
957F
100
AcDbEntity
  8
DEFPOINTS
 62
     0
100
AcDbPoint
 10
-38.24998605359215
 20
12.50000000000016
 30
0.0
  0
POINT
  5
9F08
330
957F
100
AcDbEntity
  8
DEFPOINTS
 62
     0
100
AcDbPoint
 10
-150.0000000000002
 20
12.50000000000003
 30
0.0
  0
POINT
  5
9F09
330
957F
100
AcDbEntity
  8
DEFPOINTS
 62
     0
100
AcDbPoint
 10
-38.24998605359215
 20
12.50000000000016
 30
0.0
  0
ENDBLK
  5
958F
330
957F
100
AcDbEntity
  8
0
100
AcDbBlockEnd
  0
BLOCK
  5
9909
330
98FF
100
AcDbEntity
  8
0
100
AcDbBlockBegin
  2
*D12
 70
     1
 10
0.0
 20
0.0
 30
0.0
  3
*D12
  1

  0
LINE
  5
99C4
330
98FF
100
AcDbEntity
  8
AM_5
 62
     3
100
AcDbLine
 10
-150.0000000000005
 20
66.80148798145636
 30
0.0
 11
-150.0000000000004
 21
34.30148798145659
 31
0.0
  0
LINE
  5
99C5
330
98FF
100
AcDbEntity
  8
AM_5
 62
     3
100
AcDbLine
 10
-0.0000000000004763
 20
66.90368813921541
 30
0.0
 11
-0.0000000000004124
 21
34.3014879814569
 31
0.0
  0
LINE
  5
99C6
330
98FF
100
AcDbEntity
  8
AM_5
 62
     3
100
AcDbLine
 10
-147.5000000000004
 20
35.3014879814566
 30
0.0
 11
-2.500000000000414
 21
35.30148798145689
 31
0.0
  0
INSERT
  5
99C7
330
98FF
100
AcDbEntity
  8
AM_5
 62
     3
100
AcDbBlockReference
  2
_OPEN30
 10
-150.0000000000004
 20
35.30148798145659
 30
0.0
 41
2.5
 42
2.5
 43
2.5
 50
180.0000000000001
  0
INSERT
  5
99C8
330
98FF
100
AcDbEntity
  8
AM_5
 62
     3
100
AcDbBlockReference
  2
_OPEN30
 10
-0.0000000000004143
 20
35.3014879814569
 30
0.0
 41
2.5
 42
2.5
 43
2.5
 50
0.0000000000001018
  0
MTEXT
  5
99C9
330
98FF
100
AcDbEntity
  8
AM_5
 62
     2
100
AcDbMText
 10
-75.00000000000044
 20
38.70148798145675
 30
0.0
 40
3.799999999999999
 41
0.0
 71
     5
 72
     1
  1
150
1001
ACAD
1000
MTEXTBEGIN
1070
    73
1070
     1
1070
    44
1040
1.0
1070
    74
1070
     0
1000
MTEXTEND
  0
POINT
  5
99CA
330
98FF
100
AcDbEntity
  8
DEFPOINTS
 62
     0
100
AcDbPoint
 10
-150.0000000000003
 20
66.80148798145665
 30
0.0
  0
POINT
  5
99CB
330
98FF
100
AcDbEntity
  8
DEFPOINTS
 62
     0
100
AcDbPoint
 10
-0.0000000000003411
 20
66.90368813921541
 30
0.0
  0
POINT
  5
99CC
330
98FF
100
AcDbEntity
  8
DEFPOINTS
 62
     0
100
AcDbPoint
 10
-0.000000000000343
 20
35.3014879814569
 30
0.0
  0
ENDBLK
  5
990A
330
98FF
100
AcDbEntity
  8
0
100
AcDbBlockEnd
  0
BLOCK
  5
9A22
330
9A13
100
AcDbEntity
  8
0
100
AcDbBlockBegin
  2
*D13
 70
     1
 10
0.0
 20
0.0
 30
0.0
  3
*D13
  1

  0
LINE
  5
9E7E
330
9A13
100
AcDbEntity
  8
AM_5
100
AcDbLine
 10
0.9999999999994759
 20
66.90368813921541
 30
0.0
 11
15.05359391652388
 21
66.90368813921537
 31
0.0
  0
LINE
  5
9E7F
330
9A13
100
AcDbEntity
  8
AM_5
100
AcDbLine
 10
0.9702957262754718
 20
67.14561003481508
 30
0.0
 11
14.60643784229744
 21
70.54548211508865
 31
0.0
  0
ARC
  5
9E80
330
9A13
100
AcDbEntity
  8
AM_5
100
AcDbCircle
 10
-0.000000000000524
 20
66.90368813921541
 30
0.0
 40
14.05359391652441
100
AcDbArc
 50
339.5061841480021
 51
359.9999999999997
  0
LINE
  5
9E81
330
9A13
100
AcDbEntity
  8
AM_5
100
AcDbLine
 10
13.16414171844219
 20
61.98343664286607
 30
0.0
 11
7.461743992492027
 21
46.72666128188492
 31
0.0
  0
ARC
  5
9E82
330
9A13
100
AcDbEntity
  8
AM_5
100
AcDbCircle
 10
-0.000000000000524
 20
66.90368813921541
 30
0.0
 40
14.05359391652441
100
AcDbArc
 50
339.5882829076013
 51
349.7941414538005
  0
ARC
  5
9E83
330
9A13
100
AcDbEntity
  8
AM_5
100
AcDbCircle
 10
-0.000000000000524
 20
66.90368813921541
 30
0.0
 40
14.05359391652441
100
AcDbArc
 50
24.20585854619928
 51
34.41171709239851
  0
ARC
  5
9E84
330
9A13
100
AcDbEntity
  8
AM_5
100
AcDbCircle
 10
-0.000000000000524
 20
66.90368813921541
 30
0.0
 40
14.05359391652441
100
AcDbArc
 50
359.9999999999997
 51
13.99999999999999
  0
INSERT
  5
9E85
330
9A13
100
AcDbEntity
  8
AM_5
100
AcDbBlockReference
  2
_OPEN30
 10
14.05359391652388
 20
66.90368813921536
 30
0.0
 41
2.5
 42
2.5
 43
2.5
 50
84.89707072690018
  0
INSERT
  5
9E86
330
9A13
100
AcDbEntity
  8
AM_5
100
AcDbBlockReference
  2
_OPEN30
 10
13.63614211602145
 20
70.30356021948896
 30
0.0
 41
2.5
 42
2.5
 43
2.5
 50
289.1029292730996
  0
MTEXT
  5
9E87
330
9A13
100
AcDbEntity
  8
AM_5
 62
     2
100
AcDbMText
 10
13.2167438027244
 20
53.26971949225693
 30
0.0
 40
3.2
 41
0.0
 71
     5
 72
     1
  1
-14°
  7
ASAMI
 11
-0.3501062806834081
 21
-0.9367099829862127
 31
0.0
1001
ACAD
1000
MTEXTBEGIN
1070
    73
1070
     1
1070
    44
1040
1.0
1070
    74
1070
     0
1000
MTEXTEND
  0
POINT
  5
9E88
330
9A13
100
AcDbEntity
  8
DEFPOINTS
 62
     0
100
AcDbPoint
 10
13.86754586475731
 20
69.18287081276634
 30
0.0
  0
POINT
  5
9E89
330
9A13
100
AcDbEntity
  8
DEFPOINTS
 62
     0
100
AcDbPoint
 10
-0.0000000000003428
 20
66.90368813921542
 30
0.0
  0
POINT
  5
9E8A
330
9A13
100
AcDbEntity
  8
DEFPOINTS
 62
     0
100
AcDbPoint
 10
-0.0000000000003428
 20
66.90368813921542
 30
0.0
  0
POINT
  5
9E8B
330
9A13
100
AcDbEntity
  8
DEFPOINTS
 62
     0
100
AcDbPoint
 10
-1.000000000000342
 20
66.90368813921542
 30
0.0
  0
POINT
  5
9E8C
330
9A13
100
AcDbEntity
  8
DEFPOINTS
 62
     0
100
AcDbPoint
 10
-30.49075944566198
 20
59.30148798145681
 30
0.0
  0
ENDBLK
  5
9A23
330
9A13
100
AcDbEntity
  8
0
100
AcDbBlockEnd
  0
ENDSEC
  0
SECTION
  2
ENTITIES
  0
TEXT
  5
388D
330
1F
100
AcDbEntity
  8
AM_6
100
AcDbText
 10
-96.54761904761933
 20
-34.99999999999981
 30
0.0
 40
5.0
  1
CVJM44-3S
 50
359.9999999999997
 51
359.9999999999998
 72
     4
 11
-75.00000000000027
 21
-32.4999999999999
 31
0.0
100
AcDbText
  0
LINE
  5
8212
330
1F
100
AcDbEntity
  8
AM_0
100
AcDbLine
 10
-30.49075944566192
 20
59.3014879814568
 30
0.0
 11
-45.00000000000034
 21
59.3014879814568
 31
0.0
  0
LINE
  5
821B
330
1F
100
AcDbEntity
  8
AM_0
100
AcDbLine
 10
-150.0000000000002
 20
-12.49999999999996
 30
0.0
 11
-150.0000000000002
 21
12.50000000000003
 31
0.0
  0
LINE
  5
823D
330
1F
100
AcDbEntity
  8
AM_0
100
AcDbLine
 10
-42.61505102405178
 20
-12.49999999999987
 30
0.0
 11
-42.61505102405179
 21
12.50000000000016
 31
0.0
  0
LINE
  5
8245
330
1F
100
AcDbEntity
  8
AM_0
100
AcDbLine
 10
-46.00000000000034
 20
66.8014879814568
 30
0.0
 11
-150.0000000000003
 21
66.80148798145665
 31
0.0
  0
LINE
  5
828B
330
1F
100
AcDbEntity
  8
AM_0
100
AcDbLine
 10
-150.0000000000002
 20
66.80148798145663
 30
0.0
 11
-150.0000000000003
 21
91.80148798145664
 31
0.0
  0
LINE
  5
828D
330
1F
100
AcDbEntity
  8
AM_0
100
AcDbLine
 10
-45.00000000000034
 20
59.3014879814568
 30
0.0
 11
-45.00000000000034
 21
65.8014879814568
 31
0.0
  0
LINE
  5
8290
330
1F
100
AcDbEntity
  8
AM_0
100
AcDbLine
 10
-0.0000000000003411
 20
66.90368813921541
 30
0.0
 11
-30.49075944566197
 21
59.3014879814568
 31
0.0
  0
LINE
  5
829A
330
1F
100
AcDbEntity
  8
AM_0
100
AcDbLine
 10
-14.21006080795885
 20
4.920240685310773
 30
0.0
 11
-38.24998605359215
 21
12.50000000000016
 31
0.0
  0
LINE
  5
829B
330
1F
100
AcDbEntity
  8
AM_0
100
AcDbLine
 10
-38.24998605359216
 20
12.50000000000016
 30
0.0
 11
-150.0000000000002
 21
12.50000000000003
 31
0.0
  0
LINE
  5
829C
330
1F
100
AcDbEntity
  8
AM_0
100
AcDbLine
 10
-38.24998605359183
 20
-12.49999999999986
 30
0.0
 11
-150.0000000000002
 21
-12.49999999999996
 31
0.0
  0
LINE
  5
82B1
330
1F
100
AcDbEntity
  8
AM_0
100
AcDbLine
 10
-30.49075944566195
 20
10.00000000000014
 30
0.0
 11
-30.49075944566189
 21
5.266939549770256
 31
0.0
  0
LINE
  5
838B
330
1F
100
AcDbEntity
  8
AM_0
100
AcDbLine
 10
-1.907225621086809
 20
74.56148798145668
 30
0.0
 11
-16.45495186996766
 21
70.93433244991385
 31
0.0
  0
LINE
  5
838D
330
1F
100
AcDbEntity
  8
AM_0
100
AcDbLine
 10
-14.25663752149483
 20
63.34910917872204
 30
0.0
 11
-15.41667250349098
 21
68.00682539431225
 31
0.0
  0
LINE
  5
846B
330
1F
100
AcDbEntity
  8
AM_0
100
AcDbLine
 10
-14.21006080795913
 20
-4.92024068531046
 30
0.0
 11
-38.24998605359183
 21
-12.49999999999986
 31
0.0
  0
LINE
  5
8477
330
1F
100
AcDbEntity
  8
AM_0
100
AcDbLine
 10
-13.97733148656388
 20
-4.993619958483009
 30
0.0
 11
-0.5516100450614943
 21
-0.7605062481506764
 31
0.0
  0
ARC
  5
8478
330
1F
100
AcDbEntity
  8
AM_0
100
AcDbCircle
 10
-0.8000000000002671
 20
0.0000000000001137
 30
0.0
 40
0.8
100
AcDbArc
 50
287.5
 51
72.49999999999992
1001
GENIUS_GENOREF_13
1005
847E
  0
LINE
  5
847A
330
1F
100
AcDbEntity
  8
AM_0
100
AcDbLine
 10
-13.97733148656388
 20
4.993619958483236
 30
0.0
 11
-20.1417064446587
 21
3.049999999999969
 31
0.0
  0
ARC
  5
847B
330
1F
100
AcDbEntity
  8
AM_0
100
AcDbCircle
 10
-13.97733148656399
 20
0.0000000000001705
 30
0.0
 40
2.549999999999999
100
AcDbArc
 50
241.7729994842522
 51
118.2270005157465
  0
LINE
  5
847C
330
1F
100
AcDbEntity
  8
AM_0
100
AcDbLine
 10
-13.97733148656388
 20
-4.993619958483009
 30
0.0
 11
-20.14170644465818
 21
-3.049999999999983
 31
0.0
  0
POINT
  5
847E
330
1F
100
AcDbEntity
  8
0
 60
     1
100
AcDbPoint
 10
333.1704356069079
 20
405.1347192334891
 30
0.0
1001
GENIUS_GENODEF_13
1002
{
1000
HIER
1070
     1
1002
}
1002
{
1000
MANEDIT
1070
     0
1002
}
1002
{
1000
NOSEL
1070
     0
1002
}
1002
{
1000
BEHIND
1070
     0
1002
}
1002
{
1000
REACTOR
1002
}
1001
GENIUS_GENOBJ-N-FIL_13
1002
{
1000
OWNER
1000
GEN
1002
}
1001
GENIUS_GENOENT_13
1002
{
1000
MYREF
1005
847E
1002
}
1002
{
1000
GRP
1005
0
1002
}
1001
GENIUS_GENOLIS_13
1002
{
1000
ENT
1005
8478
1002
}
  0
LINE
  5
8481
330
1F
100
AcDbEntity
  8
AM_0
100
AcDbLine
 10
-0.0000000000003411
 20
66.90368813921541
 30
0.0
 11
-6.200961470143454
 21
91.80148798145685
 31
0.0
  0
LINE
  5
8483
330
1F
100
AcDbEntity
  8
AM_7
100
AcDbLine
 10
-31.38531269997264
 20
49.95848552746631
 30
0.0
 11
-34.66908489527554
 21
63.1433284328493
 31
0.0
  0
LINE
  5
8485
330
1F
100
AcDbEntity
  8
AM_0
100
AcDbLine
 10
-30.49075944566197
 20
59.30148798145669
 30
0.0
 11
-38.58509906830349
 21
91.80148798145681
 31
0.0
  0
LINE
  5
87E6
330
1F
100
AcDbEntity
  8
AM_0
100
AcDbLine
 10
-15.41667250349098
 20
68.00682539431225
 30
0.0
 11
-15.70776123087722
 21
67.93424882326289
 31
0.0
  0
LINE
  5
87EE
330
1F
100
AcDbEntity
  8
AM_0
100
AcDbLine
 10
-15.70776123087722
 20
67.93424882326289
 30
0.0
 11
-16.45497039655163
 21
70.93440683695551
 31
0.0
  0
LINE
  5
87F7
330
1F
100
AcDbEntity
  8
AM_0
100
AcDbLine
 10
-1.151548223054703
 20
71.52229579628917
 30
0.0
 11
-15.40700554530764
 21
67.96801109251564
 31
0.0
  0
ARC
  5
87FC
330
1F
100
AcDbEntity
  8
AM_0
100
AcDbCircle
 10
-36.18330863873225
 20
0.0000000000001705
 30
0.0
 40
5.5
100
AcDbArc
 50
90.00000000000081
 51
270.0000000000008
  0
LINE
  5
8804
330
1F
100
AcDbEntity
  8
AM_0
100
AcDbLine
 10
-17.04942025354759
 20
-3.050000000000028
 30
0.0
 11
-27.49800765424538
 21
-3.049999999999878
 31
0.0
  0
LINE
  5
8808
330
1F
100
AcDbEntity
  8
AM_0
100
AcDbLine
 10
-17.049420253546
 20
3.049999999999915
 30
0.0
 11
-27.49800765424522
 21
3.050000000000095
 31
0.0
  0
LINE
  5
880C
330
1F
100
AcDbEntity
  8
AM_0
100
AcDbLine
 10
-30.49075944566189
 20
-5.266939549769858
 30
0.0
 11
-30.49075944566195
 21
-9.999999999999857
 31
0.0
  0
LINE
  5
8815
330
1F
100
AcDbEntity
  8
AM_0
100
AcDbLine
 10
-15.18339484976209
 20
-2.5499999999998
 30
0.0
 11
-17.0494202535468
 21
-3.049999999999857
 31
0.0
  0
LINE
  5
8819
330
1F
100
AcDbEntity
  8
AM_0
100
AcDbLine
 10
-15.18339484976204
 20
2.550000000000142
 30
0.0
 11
-17.04942025354645
 21
3.050000000000085
 31
0.0
  0
LINE
  5
8821
330
1F
100
AcDbEntity
  8
AM_0
100
AcDbLine
 10
-15.18339484976209
 20
-2.5499999999998
 30
0.0
 11
-15.18339484976204
 21
2.550000000000142
 31
0.0
  0
LINE
  5
883D
330
1F
100
AcDbEntity
  8
AM_0
100
AcDbLine
 10
-37.41181786775143
 20
51.39788175887776
 30
0.0
 11
-39.38026319111077
 21
59.3014879814568
 31
0.0
  0
LINE
  5
886B
330
1F
100
AcDbEntity
  8
AM_0
100
AcDbLine
 10
-18.97502511630063
 20
55.98968674603153
 30
0.0
 11
-37.41181786775143
 21
51.39788175887776
 31
0.0
  0
LINE
  5
8873
330
1F
100
AcDbEntity
  8
AM_0
100
AcDbLine
 10
-15.33160728359087
 20
62.04984404566435
 30
0.0
 11
-15.57342930778071
 21
63.02079611248709
 31
0.0
  0
ARC
  5
8975
330
1F
100
AcDbEntity
  8
AM_0
100
AcDbCircle
 10
-20.18339484976212
 20
60.84147431220273
 30
0.0
 40
5.0
100
AcDbArc
 50
283.9853591300494
 51
13.98535913004942
1001
GENIUS_GENOREF_13
1005
8977
  0
POINT
  5
8977
330
1F
100
AcDbEntity
  8
0
 60
     1
100
AcDbPoint
 10
0.0
 20
0.0
 30
0.0
1001
GENIUS_GENODEF_13
1002
{
1000
HIER
1070
     1
1002
}
1002
{
1000
MANEDIT
1070
     0
1002
}
1002
{
1000
NOSEL
1070
     0
1002
}
1002
{
1000
BEHIND
1070
     0
1002
}
1002
{
1000
REACTOR
1002
}
1001
GENIUS_GENOBJ-N-FIL_13
1002
{
1000
OWNER
1000
GEN
1002
}
1001
GENIUS_GENOENT_13
1002
{
1000
MYREF
1005
8977
1002
}
1002
{
1000
GRP
1005
0
1002
}
1001
GENIUS_GENOLIS_13
1002
{
1000
ENT
1005
8975
1002
}
  0
LINE
  5
8987
330
1F
100
AcDbEntity
  8
AM_0
100
AcDbLine
 10
-20.18339484976217
 20
60.84147431220285
 30
0.0
 11
-26.00553992916769
 21
59.39143063204901
 31
0.0
  0
ARC
  5
8992
330
1F
100
AcDbEntity
  8
AM_0
100
AcDbCircle
 10
-20.66674274314681
 20
62.78218933867126
 30
0.0
 40
2.0
100
AcDbArc
 50
283.9853591300493
 51
343.9780025728527
1001
GENIUS_GENOREF_13
1005
8994
  0
POINT
  5
8994
330
1F
100
AcDbEntity
  8
0
 60
     1
100
AcDbPoint
 10
0.0
 20
0.0
 30
0.0
1001
GENIUS_GENODEF_13
1002
{
1000
HIER
1070
     1
1002
}
1002
{
1000
MANEDIT
1070
     0
1002
}
1002
{
1000
NOSEL
1070
     0
1002
}
1002
{
1000
BEHIND
1070
     0
1002
}
1002
{
1000
REACTOR
1002
}
1001
GENIUS_GENOBJ-N-FIL_13
1002
{
1000
OWNER
1000
GEN
1002
}
1001
GENIUS_GENOENT_13
1002
{
1000
MYREF
1005
8994
1002
}
1002
{
1000
GRP
1005
0
1002
}
1001
GENIUS_GENOLIS_13
1002
{
1000
ENT
1005
8992
1002
}
  0
ARC
  5
8997
330
1F
100
AcDbEntity
  8
AM_0
100
AcDbCircle
 10
-26.48888782255227
 20
61.33214565851753
 30
0.0
 40
2.0
100
AcDbArc
 50
224.072739126566
 51
283.9853591300494
1001
GENIUS_GENOREF_13
1005
8999
  0
POINT
  5
8999
330
1F
100
AcDbEntity
  8
0
 60
     1
100
AcDbPoint
 10
0.0
 20
0.0
 30
0.0
1001
GENIUS_GENODEF_13
1002
{
1000
HIER
1070
     1
1002
}
1002
{
1000
MANEDIT
1070
     0
1002
}
1002
{
1000
NOSEL
1070
     0
1002
}
1002
{
1000
BEHIND
1070
     0
1002
}
1002
{
1000
REACTOR
1002
}
1001
GENIUS_GENOBJ-N-FIL_13
1002
{
1000
OWNER
1000
GEN
1002
}
1001
GENIUS_GENOENT_13
1002
{
1000
MYREF
1005
8999
1002
}
1002
{
1000
GRP
1005
0
1002
}
1001
GENIUS_GENOLIS_13
1002
{
1000
ENT
1005
8997
1002
}
  0
ARC
  5
89AF
330
1F
100
AcDbEntity
  8
AM_0
100
AcDbCircle
 10
-32.07485154496302
 20
0.0000000000002274
 30
0.0
 40
5.5
100
AcDbArc
 50
33.67941252624975
 51
326.3205874737472
  0
LINE
  5
89B0
330
1F
100
AcDbEntity
  8
AM_7
100
AcDbLine
 10
-32.07485154496296
 20
-7.294731423764318
 30
0.0
 11
-32.07485154496296
 21
7.382276462201417
 31
0.0
  0
LINE
  5
89B1
330
1F
100
AcDbEntity
  8
AM_0
100
AcDbLine
 10
-32.07485154496296
 20
-5.499999999999772
 30
0.0
 11
-36.18330863873225
 21
-5.499999999999829
 31
0.0
  0
LINE
  5
89B2
330
1F
100
AcDbEntity
  8
AM_0
100
AcDbLine
 10
-32.07485154496296
 20
5.500000000000227
 30
0.0
 11
-36.18330863873214
 21
5.50000000000017
 31
0.0
  0
LINE
  5
8AA8
330
1F
100
AcDbEntity
  8
AM_7
100
AcDbLine
 10
3.026234127098547
 20
0.0000000000001705
 30
0.0
 11
-44.97640019262576
 21
0.0000000000001285
 31
0.0
  0
LINE
  5
8C2E
330
1F
100
AcDbEntity
  8
AM_0
100
AcDbLine
 10
31.89109487919736
 20
-37.0402266924762
 30
0.0
 11
22.48162643048599
 21
-66.88324791741028
 31
0.0
  0
LINE
  5
8C3D
330
1F
100
AcDbEntity
  8
AM_0
100
AcDbLine
 10
39.79830129332476
 20
-11.96177192821664
 30
0.0
 11
25.89850381597836
 21
-27.77946641217339
 31
0.0
  0
LINE
  5
8C43
330
1F
100
AcDbEntity
  8
AM_0
100
AcDbLine
 10
44.20314570473126
 20
-13.35061403633399
 30
0.0
 11
37.28456228152488
 21
-21.86806383666916
 31
0.0
  0
LINE
  5
8C44
330
1F
100
AcDbEntity
  8
AM_0
100
AcDbLine
 10
47.15448977634693
 20
-14.28116924767954
 30
0.0
 11
39.92757102920707
 21
-23.17820985188714
 31
0.0
  0
LINE
  5
8D16
330
1F
100
AcDbEntity
  8
AM_0
100
AcDbLine
 10
28.91695010088711
 20
-15.24562895304288
 30
0.0
 11
22.65098434695205
 21
-22.9596428624144
 31
0.0
  0
LINE
  5
8D1E
330
1F
100
AcDbEntity
  8
AM_0
100
AcDbLine
 10
31.11369506544007
 20
-18.88548016908055
 30
0.0
 11
30.39894587252279
 21
-19.76540601489507
 31
0.0
  0
LINE
  5
8D33
330
1F
100
AcDbEntity
  8
AM_0
100
AcDbLine
 10
63.64122506203007
 20
-19.47941691582401
 30
0.0
 11
39.79830129332443
 21
-11.9617719282171
 31
0.0
  0
LINE
  5
8D36
330
1F
100
AcDbEntity
  8
AM_0
100
AcDbLine
 10
-13.97733148656388
 20
4.993619958483236
 30
0.0
 11
-0.5394748706665382
 21
0.7566800423612961
 31
0.0
  0
LINE
  5
8D37
330
1F
100
AcDbEntity
  8
AM_0
100
AcDbLine
 10
39.92757102920707
 20
-23.17820985188717
 30
0.0
 11
32.97178682778272
 21
-19.73021030886488
 31
0.0
  0
LINE
  5
8D3D
330
1F
100
AcDbEntity
  8
AM_0
100
AcDbLine
 10
33.95878946067443
 20
-18.5550210380988
 30
0.0
 11
33.55434882224352
 21
-18.35453880689272
 31
0.0
  0
LINE
  5
8D3E
330
1F
100
AcDbEntity
  8
AM_0
100
AcDbLine
 10
34.39250390790105
 20
-18.11346238443821
 30
0.0
 11
32.40940165191511
 21
-17.13043365979692
 31
0.0
  0
LINE
  5
8D3F
330
1F
100
AcDbEntity
  8
AM_0
100
AcDbLine
 10
37.15040575578493
 20
-14.97502465412856
 30
0.0
 11
35.01858449289579
 21
-13.91827554757322
 31
0.0
  0
ARC
  5
8D47
330
1F
100
AcDbEntity
  8
AM_0
100
AcDbCircle
 10
30.18874856121772
 20
-21.61024390698106
 30
0.0
 40
5.0
100
AcDbArc
 50
63.63227062592511
 51
140.9136158881789
1001
GENIUS_GENOREF_13
1005
8D49
  0
POINT
  5
8D49
330
1F
100
AcDbEntity
  8
0
 60
     1
100
AcDbPoint
 10
0.0
 20
0.0
 30
0.0
1001
GENIUS_GENODEF_13
1002
{
1000
HIER
1070
     1
1002
}
1002
{
1000
MANEDIT
1070
     0
1002
}
1002
{
1000
NOSEL
1070
     0
1002
}
1002
{
1000
BEHIND
1070
     0
1002
}
1002
{
1000
REACTOR
1002
}
1001
GENIUS_GENOBJ-N-FIL_13
1002
{
1000
OWNER
1000
GEN
1002
}
1001
GENIUS_GENOENT_13
1002
{
1000
MYREF
1005
8D49
1002
}
1002
{
1000
GRP
1005
0
1002
}
1001
GENIUS_GENOLIS_13
1002
{
1000
ENT
1005
8D47
1002
}
  0
ARC
  5
8D4D
330
1F
100
AcDbEntity
  8
AM_0
100
AcDbCircle
 10
32.79793140219833
 20
-18.39808579475735
 30
0.0
 40
5.0
100
AcDbArc
 50
63.63227062592521
 51
140.9136158881791
1001
GENIUS_GENOREF_13
1005
8D4F
  0
POINT
  5
8D4F
330
1F
100
AcDbEntity
  8
0
 60
     1
100
AcDbPoint
 10
0.0
 20
0.0
 30
0.0
1001
GENIUS_GENODEF_13
1002
{
1000
HIER
1070
     1
1002
}
1002
{
1000
MANEDIT
1070
     0
1002
}
1002
{
1000
NOSEL
1070
     0
1002
}
1002
{
1000
BEHIND
1070
     0
1002
}
1002
{
1000
REACTOR
1002
}
1001
GENIUS_GENOBJ-N-FIL_13
1002
{
1000
OWNER
1000
GEN
1002
}
1001
GENIUS_GENOENT_13
1002
{
1000
MYREF
1005
8D4F
1002
}
1002
{
1000
GRP
1005
0
1002
}
1001
GENIUS_GENOLIS_13
1002
{
1000
ENT
1005
8D4D
1002
}
  0
ARC
  5
8D52
330
1F
100
AcDbEntity
  8
AM_0
100
AcDbCircle
 10
32.66608758596458
 20
-20.14646290576636
 30
0.0
 40
2.0
100
AcDbArc
 50
63.63227062592511
 51
140.9136158881783
1001
GENIUS_GENOREF_13
1005
8D54
  0
POINT
  5
8D54
330
1F
100
AcDbEntity
  8
0
 60
     1
100
AcDbPoint
 10
0.0
 20
0.0
 30
0.0
1001
GENIUS_GENODEF_13
1002
{
1000
HIER
1070
     1
1002
}
1002
{
1000
MANEDIT
1070
     0
1002
}
1002
{
1000
NOSEL
1070
     0
1002
}
1002
{
1000
BEHIND
1070
     0
1002
}
1002
{
1000
REACTOR
1002
}
1001
GENIUS_GENOBJ-N-FIL_13
1002
{
1000
OWNER
1000
GEN
1002
}
1001
GENIUS_GENOENT_13
1002
{
1000
MYREF
1005
8D54
1002
}
1002
{
1000
GRP
1005
0
1002
}
1001
GENIUS_GENOLIS_13
1002
{
1000
ENT
1005
8D52
1002
}
  0
DIMENSION
  5
8E0E
330
1F
100
AcDbEntity
  8
AM_5
100
AcDbDimension
  2
*D5
 10
-164.0000000000002
 20
66.80148798145665
 30
0.0
 11
-167.1000000000003
 21
79.30148798145662
 31
0.0
 70
    32
  1
<>
 51
359.9999999999998
  3
AM_JIS$0
100
AcDbAlignedDimension
 13
-150.0000000000003
 23
91.80148798145664
 33
0.0
 14
-150.0000000000002
 24
66.80148798145663
 34
0.0
 50
270.0
100
AcDbRotatedDimension
1001
GENIUS_GENDTOL_13
1000

1000
h7
1000

1040
0.0
1001
ACAD
1000
DSTYLE
1002
{
1070
   287
1070
     3
1070
    40
1040
1.0
1070
    42
1040
1.0
1070
    43
1040
12.0
1070
    48
1040
0.1
1070
    78
1070
     8
1070
   140
1040
3.2
1070
   176
1070
   256
1070
   177
1070
   256
1070
   271
1070
     0
1070
   272
1070
     3
1070
   275
1070
     0
1070
   284
1070
     0
1070
   289
1070
     3
1070
   340
1005
6B
1070
   371
1070
    -1
1070
   372
1070
    -1
1002
}
  0
DIMENSION
  5
8EB9
330
1F
100
AcDbEntity
  8
AM_5
100
AcDbDimension
  2
*D6
 10
-164.0000000000003
 20
-12.49999999999996
 30
0.0
 11
-167.1000000000003
 21
0.0000000000000122
 31
0.0
 70
    32
  1
<>
 51
359.9999999999998
  3
AM_JIS$0
100
AcDbAlignedDimension
 13
-150.0000000000002
 23
12.50000000000003
 33
0.0
 14
-150.0000000000002
 24
-12.49999999999996
 34
0.0
 50
270.0
100
AcDbRotatedDimension
1001
GENIUS_GENDTOL_13
1000

1000
h7
1000

1040
0.0
1001
ACAD
1000
DSTYLE
1002
{
1070
   287
1070
     3
1070
    40
1040
1.0
1070
    42
1040
1.0
1070
    43
1040
12.0
1070
    48
1040
0.1
1070
    78
1070
     8
1070
   140
1040
3.2
1070
   176
1070
   256
1070
   177
1070
   256
1070
   271
1070
     0
1070
   272
1070
     3
1070
   275
1070
     0
1070
   284
1070
     0
1070
   289
1070
     3
1070
   340
1005
6B
1070
   371
1070
    -1
1070
   372
1070
    -1
1002
}
  0
DIMENSION
  5
9004
102
{ACAD_XDICTIONARY
360
9D2F
102
}
102
{ACAD_REACTORS
330
9D30
102
}
330
1F
100
AcDbEntity
  8
AM_5
100
AcDbDimension
  2
*D7
 10
-0.5594353603968614
 20
-0.7629735605985673
 30
0.0
 11
28.593565846464
 21
-0.0000000000000714
 31
0.0
 70
    34
  1
<>
 51
359.9999999999998
  3
AM_JIS$2
100
AcDb2LineAngularDimension
 13
-13.97733148656388
 23
4.993619958483236
 33
0.0
 14
-0.5594353603968614
 24
0.762973560598681
 34
0.0
 15
-13.97733148656388
 25
-4.993619958483009
 35
0.0
 16
31.53908224403656
 26
-3.032095368914907
 36
0.0
1001
ACAD
1000
DSTYLE
1002
{
1070
   179
1070
     3
1002
}
1001
GENIUS_GENDTOL_13
1000

1000
h7
1000

1040
0.0
  0
LINE
  5
90DB
330
1F
100
AcDbEntity
  8
AM_5
100
AcDbLine
 10
-0.5594353603968472
 20
0.762973560598681
 30
0.0
 11
39.79830129332463
 21
-11.9617719282168
 31
0.0
  0
LINE
  5
90DC
330
1F
100
AcDbEntity
  8
AM_11
100
AcDbLine
 10
-0.559435360396833
 20
-0.7629735605985389
 30
0.0
 11
1.86040761873869
 21
0.000000000000199
 31
0.0
  0
DIMENSION
  5
90E4
330
1F
100
AcDbEntity
  8
AM_5
100
AcDbDimension
  2
*D8
 10
15.86040761873791
 20
0.0000000000001669
 30
0.0
 11
12.76040761873791
 21
6.250000000000162
 31
0.0
 70
    32
  1
<>
 51
359.9999999999998
  3
AM_JIS$0
100
AcDbAlignedDimension
 13
-38.2499860535924
 23
12.50000000000016
 33
0.0
 14
3.026234127098547
 24
0.0000000000001705
 34
0.0
 50
90.0
100
AcDbRotatedDimension
1001
GENIUS_GENDTOL_13
1000

1000
h7
1000

1040
0.0
1001
ACAD
1000
DSTYLE
1002
{
1070
   287
1070
     3
1070
    40
1040
1.0
1070
    42
1040
1.0
1070
    43
1040
12.0
1070
    48
1040
0.1
1070
    78
1070
     8
1070
   140
1040
3.2
1070
   176
1070
   256
1070
   177
1070
   256
1070
   271
1070
     1
1070
   272
1070
     3
1070
   275
1070
     0
1070
   284
1070
     0
1070
   289
1070
     3
1070
   340
1005
6B
1070
   371
1070
    -1
1070
   372
1070
    -1
1002
}
  0
DIMENSION
  5
927A
330
1F
100
AcDbEntity
  8
AM_5
100
AcDbDimension
  2
*D9
 10
-45.00000000000034
 20
45.3014879814568
 30
0.0
 11
-22.50000000000033
 21
48.4014879814568
 31
0.0
 70
    32
  1
<>
 51
359.9999999999998
  3
AM_JIS$0
100
AcDbAlignedDimension
 13
-0.0000000000003268
 23
66.90368813921541
 33
0.0
 14
-45.00000000000034
 24
59.3014879814568
 34
0.0
100
AcDbRotatedDimension
1001
GENIUS_GENDTOL_13
1000

1000
h7
1000

1040
0.0
1001
ACAD
1000
DSTYLE
1002
{
1070
   287
1070
     3
1070
    40
1040
1.0
1070
    42
1040
1.0
1070
    43
1040
12.0
1070
    48
1040
0.1
1070
    78
1070
     8
1070
   140
1040
3.2
1070
   176
1070
   256
1070
   177
1070
   256
1070
   271
1070
     0
1070
   272
1070
     3
1070
   275
1070
     0
1070
   284
1070
     0
1070
   289
1070
     3
1070
   340
1005
6B
1070
   371
1070
    -1
1070
   372
1070
    -1
1002
}
  0
DIMENSION
  5
93E1
330
1F
100
AcDbEntity
  8
AM_5
100
AcDbDimension
  2
*D10
 10
27.94884055857566
 20
66.90368813921541
 30
0.0
 11
24.84884055857565
 21
79.35258806033613
 31
0.0
 70
    32
  1
<>
 51
359.9999999999998
  3
AM_JIS$0
100
AcDbAlignedDimension
 13
-6.200961470143463
 23
91.80148798145685
 33
0.0
 14
-0.0000000000003411
 24
66.90368813921541
 34
0.0
 50
90.0
100
AcDbRotatedDimension
1001
GENIUS_GENDTOL_13
1000

1000
h7
1000

1040
0.0
1001
ACAD
1000
DSTYLE
1002
{
1070
   287
1070
     3
1070
    40
1040
1.0
1070
    42
1040
1.0
1070
    43
1040
12.0
1070
    48
1040
0.1
1070
    78
1070
     8
1070
   140
1040
3.2
1070
   176
1070
   256
1070
   177
1070
   256
1070
   271
1070
     0
1070
   272
1070
     3
1070
   275
1070
     0
1070
   284
1070
     0
1070
   289
1070
     3
1070
   340
1005
6B
1070
   371
1070
    -1
1070
   372
1070
    -1
1002
}
  0
ARC
  5
948F
330
1F
100
AcDbEntity
  8
AM_0
100
AcDbCircle
 10
-46.00000000000034
 20
65.8014879814568
 30
0.0
 40
1.0
100
AcDbArc
 50
0.0
 51
90.0000000000001
1001
GENIUS_GENOREF_13
1005
9491
  0
POINT
  5
9491
330
1F
100
AcDbEntity
  8
0
 60
     1
100
AcDbPoint
 10
0.0
 20
0.0
 30
0.0
1001
GENIUS_GENODEF_13
1002
{
1000
HIER
1070
     1
1002
}
1002
{
1000
MANEDIT
1070
     0
1002
}
1002
{
1000
NOSEL
1070
     0
1002
}
1002
{
1000
BEHIND
1070
     0
1002
}
1002
{
1000
REACTOR
1002
}
1001
GENIUS_GENOBJ-N-FIL_13
1002
{
1000
OWNER
1000
GEN
1002
}
1001
GENIUS_GENOENT_13
1002
{
1000
MYREF
1005
9491
1002
}
1002
{
1000
GRP
1005
0
1002
}
1001
GENIUS_GENOLIS_13
1002
{
1000
ENT
1005
948F
1002
}
  0
DIMENSION
  5
957E
330
1F
100
AcDbEntity
  8
AM_5
100
AcDbDimension
  2
*D11
 10
-38.24998605359215
 20
12.50000000000016
 30
0.0
 11
-67.25443104711766
 21
20.33553788394131
 31
0.0
 70
   162
  1
17%%d30'
 51
359.9999999999998
  3
AM_JIS$2
100
AcDb2LineAngularDimension
 13
-38.24998605359216
 23
12.50000000000016
 33
0.0
 14
-150.0000000000002
 24
12.50000000000003
 34
0.0
 15
-14.21006080795885
 25
4.920240685310773
 35
0.0
 16
-68.13860183702917
 26
15.55354382041666
 36
0.0
1001
GENIUS_GENDTOL_13
1000

1000
h7
1000

1040
0.0
1001
ACAD
1000
DSTYLE
1002
{
1070
   271
1070
     1
1070
   179
1070
     1
1002
}
  0
LINE
  5
9692
330
1F
100
AcDbEntity
  8
AM_0
100
AcDbLine
 10
-6.200961470143454
 20
91.80148798145685
 30
0.0
 11
-150.0000000000003
 21
91.80148798145665
 31
0.0
  0
LINE
  5
973B
330
1F
100
AcDbEntity
  8
AM_0
100
AcDbLine
 10
46.32455019919139
 20
-74.40089290501709
 30
0.0
 11
63.64122506203007
 21
-19.47941691582401
 31
0.0
  0
DIMENSION
  5
98FE
330
1F
100
AcDbEntity
  8
AM_5
100
AcDbDimension
  2
*D12
 10
-0.000000000000343
 20
35.3014879814569
 30
0.0
 11
-75.00000000000035
 21
38.7014879814569
 31
0.0
 70
    32
  1
<>
 51
359.9999999999998
  3
AM_JIS$0
100
AcDbAlignedDimension
 13
-150.0000000000003
 23
66.80148798145665
 33
0.0
 14
-0.0000000000003411
 24
66.90368813921541
 34
0.0
 50
0.0000000000001018
100
AcDbRotatedDimension
1001
ACAD
1000
DSTYLE
1002
{
1070
   271
1070
     0
1002
}
1001
GENIUS_GENDTOL_13
1000

1000
h7
1000

1040
0.0
  0
LINE
  5
9A05
330
1F
100
AcDbEntity
  8
AM_5
100
AcDbLine
 10
-0.0000000000003411
 20
66.90368813921541
 30
0.0
 11
-1.000000000000341
 21
66.90368813921541
 31
0.0
  0
DIMENSION
  5
9A12
330
1F
100
AcDbEntity
  8
AM_5
100
AcDbDimension
  2
*D13
 10
-30.49075944566197
 20
59.3014879814568
 30
0.0
 11
13.21674380272451
 21
53.2697194922569
 31
0.0
 70
    34
  1
-<>
 51
359.9999999999998
  3
AM_JIS$2
100
AcDb2LineAngularDimension
 13
-0.0000000000003411
 23
66.90368813921541
 33
0.0
 14
-1.000000000000341
 24
66.90368813921541
 34
0.0
 15
-0.0000000000003411
 25
66.90368813921541
 35
0.0
 16
13.86754586475731
 26
69.18287081276634
 36
0.0
1001
ACAD
1000
DSTYLE
1002
{
1070
   179
1070
     3
1002
}
1001
GENIUS_GENDTOL_13
1000

1000
h7
1000

1040
0.0
  0
LINE
  5
9BAB
330
1F
100
AcDbEntity
  8
AM_0
100
AcDbLine
 10
24.08520659734155
 20
-33.53051044594158
 30
0.0
 11
25.89850381597836
 21
-27.77946641217339
 31
0.0
  0
LINE
  5
9BB0
330
1F
100
AcDbEntity
  8
AM_0
100
AcDbLine
 10
22.65098434695205
 20
-22.9596428624144
 30
0.0
 11
26.8733819718428
 21
-26.67007436141303
 31
0.0
  0
LINE
  5
9BB2
330
1F
100
AcDbEntity
  8
AM_0
100
AcDbLine
 10
24.08520659734155
 20
-33.53051044594158
 30
0.0
 11
31.23808372795341
 21
-35.7858039422237
 31
0.0
  0
ARC
  5
9BB9
330
1F
100
AcDbEntity
  8
AM_0
100
AcDbCircle
 10
30.93737792844914
 20
-36.73952089297193
 30
0.0
 40
1.0
100
AcDbArc
 50
342.5000000000002
 51
72.49999999999984
1001
GENIUS_GENODEF_13
1002
{
1000
HIER
1070
     0
1002
}
1002
{
1000
MANEDIT
1070
     0
1002
}
1002
{
1000
NOSEL
1070
     0
1002
}
1002
{
1000
BEHIND
1070
     0
1002
}
1002
{
1000
REACTOR
1002
}
1001
GENIUS_GENOBJ-N-FIL_13
1002
{
1000
OWNER
1000
GEN
1002
}
  0
LINE
  5
9BBA
330
1F
100
AcDbEntity
  8
AM_0
100
AcDbLine
 10
46.32455019919139
 20
-74.40089290501709
 30
0.0
 11
22.48162643048599
 21
-66.88324791741028
 31
0.0
  0
LINE
  5
9BC0
330
1F
100
AcDbEntity
  8
AM_0
100
AcDbLine
 10
24.47991313556822
 20
-32.27866124084308
 30
0.0
 11
56.42943098563382
 21
-42.35230552423633
 31
0.0
  0
LINE
  5
9D71
330
1F
100
AcDbEntity
  8
AM_0
100
AcDbLine
 10
-19.72179172939803
 20
94.96612933403227
 30
0.0
 11
-23.70000433701088
 21
93.9742495296906
 31
0.0
  0
LINE
  5
9D79
330
1F
100
AcDbEntity
  8
AM_0
100
AcDbLine
 10
-23.70000433701088
 20
93.9742495296906
 30
0.0
 11
-23.15886372499794
 21
91.80148798145683
 31
0.0
  0
LINE
  5
9D7D
330
1F
100
AcDbEntity
  8
AM_0
100
AcDbLine
 10
-19.72179172939803
 20
94.96612933403227
 30
0.0
 11
-18.93361690196415
 21
91.80148798145685
 31
0.0
  0
LINE
  5
9D90
330
1F
100
AcDbEntity
  8
AM_7
100
AcDbLine
 10
-22.43666372000345
 20
97.38107661068944
 30
0.0
 11
-13.24363168721615
 21
60.50983901220155
 31
0.0
1001
GENIUS_GENODEF_13
1002
{
1000
HIER
1070
     0
1002
}
1002
{
1000
MANEDIT
1070
     0
1002
}
1002
{
1000
NOSEL
1070
     0
1002
}
1002
{
1000
BEHIND
1070
     0
1002
}
1002
{
1000
REACTOR
1002
}
1001
GENIUS_GENOBJ-N-CEN_13
1002
{
1000
OWNER
1000
GEN
1002
}
  0
LINE
  5
9DAF
330
1F
100
AcDbEntity
  8
AM_7
100
AcDbLine
 10
33.67430965219998
 20
-14.53960013193664
 30
0.0
 11
68.26328998669243
 21
-31.68544378282436
 31
0.0
1001
GENIUS_GENODEF_13
1002
{
1000
HIER
1070
     0
1002
}
1002
{
1000
MANEDIT
1070
     0
1002
}
1002
{
1000
NOSEL
1070
     0
1002
}
1002
{
1000
BEHIND
1070
     0
1002
}
1002
{
1000
REACTOR
1002
}
1001
GENIUS_GENOBJ-N-CEN_13
1002
{
1000
OWNER
1000
GEN
1002
}
  0
LINE
  5
9E24
330
1F
100
AcDbEntity
  8
AM_0
100
AcDbLine
 10
64.12251361530292
 20
-31.92089396816423
 30
0.0
 11
65.94344914967482
 21
-28.24744956547325
 31
0.0
  0
LINE
  5
9E2D
330
1F
100
AcDbEntity
  8
AM_0
100
AcDbLine
 10
64.12251361530292
 20
-31.92089396816424
 30
0.0
 11
60.3137334112954
 21
-30.03287214020111
 31
0.0
  0
LINE
  5
9E31
330
1F
100
AcDbEntity
  8
AM_0
100
AcDbLine
 10
65.94344914967483
 20
-28.24744956547326
 30
0.0
 11
61.55435165913544
 21
-26.0717630140473
 31
0.0
  0
VIEWPORT
  5
110
330
101
100
AcDbEntity
 67
     1
  8
0
100
AcDbViewport
 10
420.5
 20
297.0
 30
0.0
 40
948.9782706766916
 41
628.452
 68
     1
 69
     1
1001
ACAD
1000
MVIEW
1002
{
1070
    16
1010
0.0
1020
0.0
1030
0.0
1010
0.0
1020
0.0
1030
1.0
1040
0.0
1040
628.452
1040
420.5
1040
297.0
1040
50.0
1040
0.0
1040
0.0
1070
     0
1070
   100
1070
     1
1070
     1
1070
     0
1070
     0
1070
     0
1070
     0
1040
0.0
1040
0.0
1040
0.0
1040
10.0
1040
10.0
1040
10.0
1040
10.0
1070
     0
1002
{
1002
}
1002
}
  0
ENDSEC
  0
SECTION
  2
OBJECTS
  0
DICTIONARY
  5
C
330
0
100
AcDbDictionary
  3
ACAD_GROUP
350
D
  3
ACAD_LAYOUT
350
1A
  3
ACAD_MLINESTYLE
350
17
  3
ACAD_PLOTSETTINGS
350
19
  3
ACAD_PLOTSTYLENAME
350
E
  3
ACDBVARIABLEDICTIONARY
350
34
  3
ACMDICTIONARY
350
43
  3
AMG
350
2B
  3
AMGSNAPSETTINGS
350
6E
  3
DWGPROPS
350
9E9D
  3
ACDBHEADERROUNDTRIPXREC
350
9EA9
  0
DICTIONARY
  5
74
330
1F
100
AcDbDictionary
280
     1
  3
ACAD_INDEX
360
9E9F
  3
ACAD_LAYOUTSELFREF
360
9ECC
  0
DICTIONARY
  5
9ED1
330
101
100
AcDbDictionary
280
     1
  3
ACAD_LAYOUTSELFREF
360
9ED2
  0
DICTIONARY
  5
9D2F
330
9004
100
AcDbDictionary
280
     1
  3
ACMDIMBREAKPERSREACTOR
360
9D30
  0
DICTIONARY
  5
D
102
{ACAD_REACTORS
330
C
102
}
330
C
100
AcDbDictionary
  0
DICTIONARY
  5
1A
102
{ACAD_REACTORS
330
C
102
}
330
C
100
AcDbDictionary
  0
DICTIONARY
  5
17
102
{ACAD_REACTORS
330
C
102
}
330
C
100
AcDbDictionary
  3
STANDARD
350
18
  0
DICTIONARY
  5
19
102
{ACAD_REACTORS
330
C
102
}
330
C
100
AcDbDictionary
  3
ASAMI
350
399D
  0
ACDBDICTIONARYWDFLT
  5
E
102
{ACAD_REACTORS
330
C
102
}
330
C
100
AcDbDictionary
281
     1
  3
Normal
350
F
100
AcDbDictionaryWithDefault
340
F
  0
DICTIONARY
  5
34
102
{ACAD_REACTORS
330
C
102
}
330
C
100
AcDbDictionary
  3
INDEXCTL
350
35
  3
SORTENTS
350
B5E
  0
DICTIONARY
  5
43
102
{ACAD_REACTORS
330
C
102
}
330
C
100
AcDbDictionary
  3
ACMSTDDICTIONARY
350
260
  0
DICTIONARY
  5
2B
102
{ACAD_REACTORS
330
C
102
}
330
C
100
AcDbDictionary
  3
ACMGSETTINGS
350
2C
  0
DICTIONARY
  5
6E
102
{ACAD_REACTORS
330
C
102
}
330
C
100
AcDbDictionary
  0
XRECORD
  5
9E9D
102
{ACAD_REACTORS
330
C
102
}
330
C
100
AcDbXrecord
  1
DWGPROPS COOKIE
  2

  3

  4

  6

  7

  8

  9

300
AmdtFileType=82
301
=
302
=
303
=
304
=
305
=
306
=
307
=
308
=
309
=
 40
1.063827986111111
 41
2452802.716478761
 42
2452914.589653587
  1

 90
        1
  0
DICTIONARY
  5
9EA9
102
{ACAD_REACTORS
330
C
102
}
330
C
100
AcDbDictionary
  3
TSTACKALIGN
350
9EAA
  3
TSTACKSIZE
350
9EAB
  3
HYPERLINKBASE
350
9EAC
  3
STYLESHEET
350
9EAD
  3
LAYOUTDICT
350
9EAE
  3
PLOTSETDICT
350
9EAF
  3
PLOTSTYLNAMDICT
350
9EB0
  3
LWETCUNION
350
9EB1
  3
INSUNITS
350
9EB2
  3
CEPSNTYPE
350
9EB3
  3
FINGERPRINTGUID
350
9EB4
  3
VERSIONGUID
350
9EB5
  3
PSVPSCALE
350
9EB6
  3
DIMSTYLEDATA
350
9EB7
  3
PUCSORTHOREF
350
9EB8
  3
PUCSORTHOVIEW
350
9EB9
  3
PUCSBASE
350
9EBA
  3
PUCSORGTOP
350
9EBB
  3
PUCSORGBOTTOM
350
9EBC
  3
PUCSORGLEFT
350
9EBD
  3
PUCSORGRIGHT
350
9EBE
  3
PUCSORGFRONT
350
9EBF
  3
PUCSORGBACK
350
9EC0
  3
UCSORTHOREF
350
9EC1
  3
UCSORTHOVIEW
350
9EC2
  3
UCSBASE
350
9EC3
  3
UCSORGTOP
350
9EC4
  3
UCSORGBOTTOM
350
9EC5
  3
UCSORGLEFT
350
9EC6
  3
UCSORGRIGHT
350
9EC7
  3
UCSORGFRONT
350
9EC8
  3
UCSORGBACK
350
9EC9
  0
DICTIONARY
  5
9E9F
102
{ACAD_REACTORS
330
74
102
}
330
74
100
AcDbDictionary
  3
*A1
350
9EA0
  0
XRECORD
  5
9ECC
102
{ACAD_REACTORS
330
74
102
}
330
74
100
AcDbXrecord
340
1F
  0
XRECORD
  5
9ED2
102
{ACAD_REACTORS
330
9ED1
102
}
330
9ED1
100
AcDbXrecord
340
101
  0
MLINESTYLE
  5
18
102
{ACAD_REACTORS
330
17
102
}
330
17
100
AcDbMlineStyle
  2
STANDARD
 70
     0
  3

 62
   256
 51
90.0
 52
90.0
 71
     2
 49
0.5
 62
   256
  6
BYLAYER
 49
-0.5
 62
   256
  6
BYLAYER
  0
PLOTSETTINGS
  5
399D
102
{ACAD_REACTORS
330
19
102
}
330
19
100
AcDbPlotSettings
  1
asami
  2
RICOH imagio MF1540
  4
A4
  6

 40
5.831416606903076
 41
7.651742935180664
 42
4.90008544921875
 43
5.789077758789062
 44
296.9683227539062
 45
209.9733276367187
 46
0.0
 47
0.0
 48
-156.6707931774246
 49
-74.57609991074048
140
58.59973180214831
141
60.61068161925596
142
1.0
143
1.095343097833084
 70
  1712
 72
     1
 73
     1
 74
     4
  7
asami.ctb
 75
     0
147
0.9129559514076438
148
156.6707931774246
149
74.57609991074048
  0
ACDBPLACEHOLDER
  5
F
102
{ACAD_REACTORS
330
E
102
}
330
E
100
AcDbPlaceHolder
280
     0
  0
DICTIONARYVAR
  5
35
102
{ACAD_REACTORS
330
34
102
}
330
34
100
DictionaryVariables
280
     0
  1
1
  0
DICTIONARYVAR
  5
B5E
102
{ACAD_REACTORS
330
34
102
}
330
34
100
DictionaryVariables
280
     0
  1
96
  0
DICTIONARY
  5
260
102
{ACAD_REACTORS
330
43
102
}
330
43
100
AcDbDictionary
  0
DICTIONARY
  5
2C
102
{ACAD_REACTORS
330
2B
102
}
330
2B
100
AcDbDictionary
  3
DWGSETTINGS
350
2D
  0
XRECORD
  5
9EAA
102
{ACAD_REACTORS
330
9EA9
102
}
330
9EA9
100
AcDbXrecord
 90
        1
  0
XRECORD
  5
9EAB
102
{ACAD_REACTORS
330
9EA9
102
}
330
9EA9
100
AcDbXrecord
 90
       70
  0
XRECORD
  5
9EAC
102
{ACAD_REACTORS
330
9EA9
102
}
330
9EA9
100
AcDbXrecord
  1

  0
XRECORD
  5
9EAD
102
{ACAD_REACTORS
330
9EA9
102
}
330
9EA9
100
AcDbXrecord
  1
ASAMI.ctb
  0
XRECORD
  5
9EAE
102
{ACAD_REACTORS
330
9EA9
102
}
330
9EA9
100
AcDbXrecord
340
1A
  0
XRECORD
  5
9EAF
102
{ACAD_REACTORS
330
9EA9
102
}
330
9EA9
100
AcDbXrecord
340
19
  0
XRECORD
  5
9EB0
102
{ACAD_REACTORS
330
9EA9
102
}
330
9EA9
100
AcDbXrecord
340
E
  0
XRECORD
  5
9EB1
102
{ACAD_REACTORS
330
9EA9
102
}
330
9EA9
100
AcDbXrecord
 90
    10781
  0
XRECORD
  5
9EB2
102
{ACAD_REACTORS
330
9EA9
102
}
330
9EA9
100
AcDbXrecord
 90
        4
  0
XRECORD
  5
9EB3
102
{ACAD_REACTORS
330
9EA9
102
}
330
9EA9
100
AcDbXrecord
 90
        0
  0
XRECORD
  5
9EB4
102
{ACAD_REACTORS
330
9EA9
102
}
330
9EA9
100
AcDbXrecord
  1
{AFB28963-8C59-40AE-9337-C84526B81ACE}
  0
XRECORD
  5
9EB5
102
{ACAD_REACTORS
330
9EA9
102
}
330
9EA9
100
AcDbXrecord
  1
{F59C03E0-8A9E-4F54-AE02-3DB8E126C553}
  0
XRECORD
  5
9EB6
102
{ACAD_REACTORS
330
9EA9
102
}
330
9EA9
100
AcDbXrecord
 40
0.0
  0
XRECORD
  5
9EB7
102
{ACAD_REACTORS
330
9EA9
102
}
330
9EA9
100
AcDbXrecord
1000
DSTYLE
1002
{
1070
    79
 70
     2
1070
   341
340
59
1070
   342
340
59
1070
   371
 70
    -1
1070
   372
 70
    -1
1002
}
  0
XRECORD
  5
9EB8
102
{ACAD_REACTORS
330
9EA9
102
}
330
9EA9
100
AcDbXrecord
340
0
  0
XRECORD
  5
9EB9
102
{ACAD_REACTORS
330
9EA9
102
}
330
9EA9
100
AcDbXrecord
 70
     0
  0
XRECORD
  5
9EBA
102
{ACAD_REACTORS
330
9EA9
102
}
330
9EA9
100
AcDbXrecord
340
0
  0
XRECORD
  5
9EBB
102
{ACAD_REACTORS
330
9EA9
102
}
330
9EA9
100
AcDbXrecord
 10
0.0
 20
0.0
 30
0.0
  0
XRECORD
  5
9EBC
102
{ACAD_REACTORS
330
9EA9
102
}
330
9EA9
100
AcDbXrecord
 10
0.0
 20
0.0
 30
0.0
  0
XRECORD
  5
9EBD
102
{ACAD_REACTORS
330
9EA9
102
}
330
9EA9
100
AcDbXrecord
 10
0.0
 20
0.0
 30
0.0
  0
XRECORD
  5
9EBE
102
{ACAD_REACTORS
330
9EA9
102
}
330
9EA9
100
AcDbXrecord
 10
0.0
 20
0.0
 30
0.0
  0
XRECORD
  5
9EBF
102
{ACAD_REACTORS
330
9EA9
102
}
330
9EA9
100
AcDbXrecord
 10
0.0
 20
0.0
 30
0.0
  0
XRECORD
  5
9EC0
102
{ACAD_REACTORS
330
9EA9
102
}
330
9EA9
100
AcDbXrecord
 10
0.0
 20
0.0
 30
0.0
  0
XRECORD
  5
9EC1
102
{ACAD_REACTORS
330
9EA9
102
}
330
9EA9
100
AcDbXrecord
340
0
  0
XRECORD
  5
9EC2
102
{ACAD_REACTORS
330
9EA9
102
}
330
9EA9
100
AcDbXrecord
 70
     0
  0
XRECORD
  5
9EC3
102
{ACAD_REACTORS
330
9EA9
102
}
330
9EA9
100
AcDbXrecord
340
0
  0
XRECORD
  5
9EC4
102
{ACAD_REACTORS
330
9EA9
102
}
330
9EA9
100
AcDbXrecord
 10
0.0
 20
0.0
 30
0.0
  0
XRECORD
  5
9EC5
102
{ACAD_REACTORS
330
9EA9
102
}
330
9EA9
100
AcDbXrecord
 10
0.0
 20
0.0
 30
0.0
  0
XRECORD
  5
9EC6
102
{ACAD_REACTORS
330
9EA9
102
}
330
9EA9
100
AcDbXrecord
 10
0.0
 20
0.0
 30
0.0
  0
XRECORD
  5
9EC7
102
{ACAD_REACTORS
330
9EA9
102
}
330
9EA9
100
AcDbXrecord
 10
0.0
 20
0.0
 30
0.0
  0
XRECORD
  5
9EC8
102
{ACAD_REACTORS
330
9EA9
102
}
330
9EA9
100
AcDbXrecord
 10
0.0
 20
0.0
 30
0.0
  0
XRECORD
  5
9EC9
102
{ACAD_REACTORS
330
9EA9
102
}
330
9EA9
100
AcDbXrecord
 10
0.0
 20
0.0
 30
0.0
  0
LAYER_INDEX
  5
9EA0
102
{ACAD_REACTORS
330
9E9F
102
}
330
9E9F
100
AcDbIndex
 40
2452941.597398171
100
AcDbLayerIndex
  8
0
360
9EA1
 90
        8
  8
AM_0
360
9EA2
 90
       71
  8
AM_5
360
9EA3
 90
       11
  8
AM_7
360
9EA4
 90
        5
  8
AM_6
360
9EA5
 90
        1
  8
Defpoints
360
9EA6
 90
        0
  8
AM_11
360
9EA7
 90
        1
  0
XRECORD
  5
2D
102
{ACAD_REACTORS
330
2C
102
}
330
2C
100
AcDbXrecord
  1
VERSION
140
15.0
  1
PRODUCT
  2
AutoCAD Mechanical 2000
  0
IDBUFFER
  5
9EA1
330
0
100
AcDbIdBuffer
330
847E
330
8977
330
8994
330
8999
330
8D49
330
8D4F
330
8D54
330
9491
  0
IDBUFFER
  5
9EA2
330
0
100
AcDbIdBuffer
330
8D36
330
8D37
330
8D3D
330
8D3E
330
8D3F
330
8D47
330
8D4D
330
8D52
330
948F
330
9692
330
973B
330
9BAB
330
9BB0
330
9BB2
330
9BB9
330
9BBA
330
9BC0
330
9D71
330
9D79
330
9D7D
330
9E24
330
9E2D
330
9E31
330
8212
330
821B
330
823D
330
8245
330
828B
330
828D
330
8290
330
829A
330
829B
330
829C
330
82B1
330
838B
330
838D
330
846B
330
8477
330
8478
330
847A
330
847B
330
847C
330
8481
330
8485
330
87E6
330
87EE
330
87F7
330
87FC
330
8804
330
8808
330
880C
330
8815
330
8819
330
8821
330
883D
330
886B
330
8873
330
8975
330
8987
330
8992
330
8997
330
89AF
330
89B1
330
89B2
330
8C2E
330
8C3D
330
8C43
330
8C44
330
8D16
330
8D1E
330
8D33
  0
IDBUFFER
  5
9EA3
330
0
100
AcDbIdBuffer
330
8E0E
330
8EB9
330
9004
330
90DB
330
90E4
330
927A
330
93E1
330
957E
330
98FE
330
9A05
330
9A12
  0
IDBUFFER
  5
9EA4
330
0
100
AcDbIdBuffer
330
8483
330
89B0
330
8AA8
330
9D90
330
9DAF
  0
IDBUFFER
  5
9EA5
330
0
100
AcDbIdBuffer
330
388D
  0
IDBUFFER
  5
9EA6
330
0
100
AcDbIdBuffer
  0
IDBUFFER
  5
9EA7
330
0
100
AcDbIdBuffer
330
90DC
  0
ENDSEC
  0
EOF
