  0
SECTION
  2
HEADER
  9
$ACADVER
  1
AC1014
  9
$ACADMAINTVER
 70
     9
  9
$DWGCODEPAGE
  3
ANSI_932
  9
$INSBASE
 10
0.0
 20
0.0
 30
0.0
  9
$EXTMIN
 10
-118.8912411586574
 20
-48.90888093750447
 30
0.0
  9
$EXTMAX
 10
48.22204032346728
 20
54.56808554372261
 30
0.0
  9
$LIMMIN
 10
-131.8685463963393
 20
-61.59803394375984
  9
$LIMMAX
 10
61.82633519365413
 20
61.59155768280971
  9
$ORTHOMODE
 70
     0
  9
$REGENMODE
 70
     1
  9
$FILLMODE
 70
     1
  9
$QTEXTMODE
 70
     0
  9
$MIRRTEXT
 70
     0
  9
$DRAGMODE
 70
     2
  9
$LTSCALE
 40
0.5
  9
$OSMODE
 70
  2103
  9
$ATTMODE
 70
     1
  9
$TEXTSIZE
 40
2.5
  9
$TRACEWID
 40
1.0
  9
$TEXTSTYLE
  7
STANDARD
  9
$CLAYER
  8
AM_0
  9
$CELTYPE
  6
BYLAYER
  9
$CECOLOR
 62
   256
  9
$CELTSCALE
 40
1.0
  9
$DELOBJ
 70
     1
  9
$DISPSILH
 70
     0
  9
$DIMSCALE
 40
1.0
  9
$DIMASZ
 40
2.5
  9
$DIMEXO
 40
1.0
  9
$DIMDLI
 40
12.0
  9
$DIMRND
 40
0.0
  9
$DIMDLE
 40
0.0
  9
$DIMEXE
 40
1.0
  9
$DIMTP
 40
0.1
  9
$DIMTM
 40
0.1
  9
$DIMTXT
 40
3.2
  9
$DIMCEN
 40
0.0
  9
$DIMTSZ
 40
0.0
  9
$DIMTOL
 70
     0
  9
$DIMLIM
 70
     0
  9
$DIMTIH
 70
     0
  9
$DIMTOH
 70
     0
  9
$DIMSE1
 70
     0
  9
$DIMSE2
 70
     0
  9
$DIMTAD
 70
     3
  9
$DIMZIN
 70
     8
  9
$DIMBLK
  1
OPEN30
  9
$DIMASO
 70
     1
  9
$DIMSHO
 70
     1
  9
$DIMPOST
  1

  9
$DIMAPOST
  1
"
  9
$DIMALT
 70
     0
  9
$DIMALTD
 70
     2
  9
$DIMALTF
 40
0.0393701
  9
$DIMLFAC
 40
1.0
  9
$DIMTOFL
 70
     1
  9
$DIMTVP
 40
0.0
  9
$DIMTIX
 70
     0
  9
$DIMSOXD
 70
     0
  9
$DIMSAH
 70
     0
  9
$DIMBLK1
  1

  9
$DIMBLK2
  1

  9
$DIMSTYLE
  2
AM_JIS
  9
$DIMCLRD
 70
     3
  9
$DIMCLRE
 70
     3
  9
$DIMCLRT
 70
     2
  9
$DIMTFAC
 40
0.71
  9
$DIMGAP
 40
1.5
  9
$DIMJUST
 70
     0
  9
$DIMSD1
 70
     0
  9
$DIMSD2
 70
     0
  9
$DIMTOLJ
 70
     0
  9
$DIMTZIN
 70
     0
  9
$DIMALTZ
 70
     0
  9
$DIMALTTZ
 70
     0
  9
$DIMFIT
 70
     3
  9
$DIMUPT
 70
     0
  9
$DIMUNIT
 70
     2
  9
$DIMDEC
 70
     3
  9
$DIMTDEC
 70
     3
  9
$DIMALTU
 70
     2
  9
$DIMALTTD
 70
     2
  9
$DIMTXSTY
  7
ASAMI
  9
$DIMAUNIT
 70
     0
  9
$LUNITS
 70
     2
  9
$LUPREC
 70
     2
  9
$SKETCHINC
 40
1.0
  9
$FILLETRAD
 40
0.8
  9
$AUNITS
 70
     0
  9
$AUPREC
 70
     0
  9
$MENU
  1
.
  9
$ELEVATION
 40
0.0
  9
$PELEVATION
 40
0.0
  9
$THICKNESS
 40
0.0
  9
$LIMCHECK
 70
     0
  9
$BLIPMODE
 70
     0
  9
$CHAMFERA
 40
0.0
  9
$CHAMFERB
 40
0.0
  9
$CHAMFERC
 40
20.0
  9
$CHAMFERD
 40
0.0
  9
$SKPOLY
 70
     0
  9
$TDCREATE
 40
2452838.620506898
  9
$TDUPDATE
 40
2452941.590813252
  9
$TDINDWG
 40
1.9765931713
  9
$TDUSRTIMER
 40
1.9765931713
  9
$USRTIMER
 70
     1
  9
$ANGBASE
 50
0.0
  9
$ANGDIR
 70
     0
  9
$PDMODE
 70
     0
  9
$PDSIZE
 40
0.0
  9
$PLINEWID
 40
0.0
  9
$COORDS
 70
     0
  9
$SPLFRAME
 70
     0
  9
$SPLINETYPE
 70
     6
  9
$SPLINESEGS
 70
     8
  9
$ATTDIA
 70
     1
  9
$ATTREQ
 70
     1
  9
$HANDLING
 70
 12289
  9
$HANDSEED
  5
9A95
  9
$SURFTAB1
 70
     6
  9
$SURFTAB2
 70
     6
  9
$SURFTYPE
 70
     6
  9
$SURFU
 70
     6
  9
$SURFV
 70
     6
  9
$UCSNAME
  2

  9
$UCSORG
 10
0.0
 20
0.0
 30
0.0
  9
$UCSXDIR
 10
1.0
 20
0.0
 30
0.0
  9
$UCSYDIR
 10
0.0
 20
1.0
 30
0.0
  9
$PUCSNAME
  2

  9
$PUCSORG
 10
0.0
 20
0.0
 30
0.0
  9
$PUCSXDIR
 10
1.0
 20
0.0
 30
0.0
  9
$PUCSYDIR
 10
0.0
 20
1.0
 30
0.0
  9
$USERI1
 70
     0
  9
$USERI2
 70
     0
  9
$USERI3
 70
     0
  9
$USERI4
 70
     0
  9
$USERI5
 70
     0
  9
$USERR1
 40
0.0
  9
$USERR2
 40
0.0
  9
$USERR3
 40
0.0
  9
$USERR4
 40
0.0
  9
$USERR5
 40
0.0
  9
$WORLDVIEW
 70
     1
  9
$SHADEDGE
 70
     3
  9
$SHADEDIF
 70
    70
  9
$TILEMODE
 70
     1
  9
$MAXACTVP
 70
    64
  9
$PINSBASE
 10
0.0
 20
0.0
 30
0.0
  9
$PLIMCHECK
 70
     0
  9
$PEXTMIN
 10
1.000000000000000E+20
 20
1.000000000000000E+20
 30
1.000000000000000E+20
  9
$PEXTMAX
 10
-1.000000000000000E+20
 20
-1.000000000000000E+20
 30
-1.000000000000000E+20
  9
$PLIMMIN
 10
0.0
 20
0.0
  9
$PLIMMAX
 10
841.0
 20
594.0
  9
$UNITMODE
 70
     0
  9
$VISRETAIN
 70
     1
  9
$PLINEGEN
 70
     0
  9
$PSLTSCALE
 70
     0
  9
$TREEDEPTH
 70
  3020
  9
$PICKSTYLE
 70
     0
  9
$CMLSTYLE
  2
STANDARD
  9
$CMLJUST
 70
     0
  9
$CMLSCALE
 40
20.0
  9
$PROXYGRAPHICS
 70
     1
  9
$MEASUREMENT
 70
     1
  0
ENDSEC
  0
SECTION
  2
CLASSES
  0
CLASS
  1
ACDBDICTIONARYWDFLT
  2
AcDbDictionaryWithDefault
  3
AutoCAD 2000
 90
        0
280
     0
281
     0
  0
CLASS
  1
ACDBPLACEHOLDER
  2
AcDbPlaceHolder
  3
AutoCAD 2000
 90
        0
280
     0
281
     0
  0
CLASS
  1
LAYOUT
  2
AcDbLayout
  3
AutoCAD 2000
 90
        0
280
     0
281
     0
  0
CLASS
  1
AMGSETTINGSOBJ
  2
AmgSettingsObj
  3
"AcadM|Product Description: AutoCAD Mechanical 2000|Company: Autodesk"
 90
        0
280
     0
281
     0
  0
CLASS
  1
ACME_DOCUMENT
  2
AcMeDbDoc
  3
AcMeServices
 90
        0
280
     0
281
     0
  0
CLASS
  1
ACMESCOPE
  2
AcMeScope
  3
AcMeServices
 90
        0
280
     0
281
     0
  0
CLASS
  1
ACMECOMMANDHISTORY
  2
AcMeCommandHistory
  3
AcMeServices
 90
        0
280
     0
281
     0
  0
CLASS
  1
DICTIONARYVAR
  2
AcDbDictionaryVar
  3
AutoCAD 2000
 90
        0
280
     0
281
     0
  0
CLASS
  1
ACIMSYSVARMAN
  2
AcImSysVarManager
  3
AcMeServices
 90
        0
280
     0
281
     0
  0
CLASS
  1
ACIMREALSYSVAR
  2
AcImRealSysVar
  3
AcMeServices
 90
        0
280
     0
281
     0
  0
CLASS
  1
ACIMINTSYSVAR
  2
AcImIntSysVar
  3
AcMeServices
 90
        0
280
     0
281
     0
  0
CLASS
  1
ACMEDRAWINGMAN
  2
AcMeDrawingMan
  3
AcMeServices
 90
        0
280
     0
281
     0
  0
CLASS
  1
ACMEVIEW
  2
AcMeView
  3
AcMeServices
 90
        0
280
     0
281
     0
  0
CLASS
  1
ACDBENTITYCACHE
  2
AcMeEntityCache
  3
AcMeServices
 90
        0
280
     0
281
     0
  0
CLASS
  1
GSMANAGER
  2
AcMeGSManager
  3
AcMeServices
 90
        0
280
     0
281
     0
  0
CLASS
  1
AmdtInternalReactor
  2
AmdtInternalReactor
  3
AcMeServices
 90
        0
280
     0
281
     0
  0
CLASS
  1
ACMESTATEMGR
  2
AcMeStateMgr
  3
AcMeServices
 90
        0
280
     0
281
     0
  0
CLASS
  1
ACME_DATABASE
  2
AcMeDbDatabase
  3
AcMeServices
 90
        0
280
     0
281
     0
  0
CLASS
  1
ACRFINSADJUSTERMGR
  2
AcRfInsAdjusterMgr
  3
AcMeServices
 90
        0
280
     0
281
     0
  0
CLASS
  1
ACMDATADICTIONARY
  2
AcmDataDictionary
  3
"AcmSymBB|Product Description: AutoCAD Mechanical 2000|Company: Autodesk"
 90
        0
280
     0
281
     0
  0
CLASS
  1
ACMDATAENTRYBLOCK
  2
AcmDataEntryBlock
  3
"AcmSymBB|Product Description: AutoCAD Mechanical 2000|Company: Autodesk"
 90
        0
280
     0
281
     0
  0
CLASS
  1
AMGOBJPROPCFG
  2
AmgObjPropCfg
  3
"AmgLay|Product Description: AutoCAD Mechanical 2000|Company: Autodesk"
 90
        1
280
     0
281
     0
  0
CLASS
  1
ACAMGFILTERDAT
  2
AcAmgFilterDat
  3
"AcadM|Product Description: AutoCAD Mechanical 2000|Company: Autodesk"
 90
        0
280
     0
281
     0
  0
CLASS
  1
LAYER_INDEX
  2
AcDbLayerIndex
  3
AutoCAD 2000
 90
        0
280
     0
281
     0
  0
CLASS
  1
IDBUFFER
  2
AcDbIdBuffer
  3
AutoCAD 2000
 90
        0
280
     0
281
     0
  0
CLASS
  1
ACIMSTRSYSVAR
  2
AcImStrSysVar
  3
AcMeServices
 90
        0
280
     0
281
     0
  0
CLASS
  1
ACMSTANDARDJIS
  2
AcmStandardJIS
  3
"AcmSymBB|Product Description: AutoCAD Mechanical 2000|Company: Autodesk"
 90
        0
280
     0
281
     0
  0
CLASS
  1
ACMSURFSTANDARDJIS
  2
AcmSurfTextStdJIS
  3
"AcmSymBB|Product Description: AutoCAD Mechanical 2000|Company: Autodesk"
 90
        0
280
     0
281
     0
  0
CLASS
  1
ACMFCFSTANDARDJIS
  2
AcmFCFStdJIS
  3
"AcmSymBB|Product Description: AutoCAD Mechanical 2000|Company: Autodesk"
 90
        0
280
     0
281
     0
  0
CLASS
  1
ACMWELDSTANDARDJIS
  2
AcmWeldingStdJIS
  3
"AcmSymBB|Product Description: AutoCAD Mechanical 2000|Company: Autodesk"
 90
        0
280
     0
281
     0
  0
CLASS
  1
ACMIDSTANDARDJIS
  2
AcmIdStdJIS
  3
"AcmSymBB|Product Description: AutoCAD Mechanical 2000|Company: Autodesk"
 90
        0
280
     0
281
     0
  0
CLASS
  1
ACMDATUMSTANDARDJIS
  2
AcmDatumStdJIS
  3
"AcmSymBB|Product Description: AutoCAD Mechanical 2000|Company: Autodesk"
 90
        0
280
     0
281
     0
  0
CLASS
  1
ACMBOMSTANDARDJIS
  2
AcmBOMStdJIS
  3
"AcmSymBB|Product Description: AutoCAD Mechanical 2000|Company: Autodesk"
 90
        0
280
     0
281
     0
  0
CLASS
  1
ACMSTANDARDANSI
  2
AcmStandardANSI
  3
"AcmSymBB|Product Description: AutoCAD Mechanical 2000|Company: Autodesk"
 90
        0
280
     0
281
     0
  0
CLASS
  1
ACMSURFSTANDARDANSI
  2
AcmSurfTextStdANSI
  3
"AcmSymBB|Product Description: AutoCAD Mechanical 2000|Company: Autodesk"
 90
        0
280
     0
281
     0
  0
CLASS
  1
ACMFCFSTANDARDANSI
  2
AcmFCFStdANSI
  3
"AcmSymBB|Product Description: AutoCAD Mechanical 2000|Company: Autodesk"
 90
        0
280
     0
281
     0
  0
CLASS
  1
ACMWELDSTANDARDANSI
  2
AcmWeldingStdANSI
  3
"AcmSymBB|Product Description: AutoCAD Mechanical 2000|Company: Autodesk"
 90
        0
280
     0
281
     0
  0
CLASS
  1
ACMIDSTANDARDANSI
  2
AcmIdStdANSI
  3
"AcmSymBB|Product Description: AutoCAD Mechanical 2000|Company: Autodesk"
 90
        0
280
     0
281
     0
  0
CLASS
  1
ACMDATUMSTANDARDANSI
  2
AcmDatumStdANSI
  3
"AcmSymBB|Product Description: AutoCAD Mechanical 2000|Company: Autodesk"
 90
        0
280
     0
281
     0
  0
CLASS
  1
ACMBOMSTANDARDANSI
  2
AcmBOMStdANSI
  3
"AcmSymBB|Product Description: AutoCAD Mechanical 2000|Company: Autodesk"
 90
        0
280
     0
281
     0
  0
CLASS
  1
ACMSTANDARDBSI
  2
AcmStandardBSI
  3
"AcmSymBB|Product Description: AutoCAD Mechanical 2000|Company: Autodesk"
 90
        0
280
     0
281
     0
  0
CLASS
  1
ACMSURFSTANDARDBSI
  2
AcmSurfTextStdBSI
  3
"AcmSymBB|Product Description: AutoCAD Mechanical 2000|Company: Autodesk"
 90
        0
280
     0
281
     0
  0
CLASS
  1
ACMFCFSTANDARDBSI
  2
AcmFCFStdBSI
  3
"AcmSymBB|Product Description: AutoCAD Mechanical 2000|Company: Autodesk"
 90
        0
280
     0
281
     0
  0
CLASS
  1
ACMWELDSTANDARDBSI
  2
AcmWeldingStdBSI
  3
"AcmSymBB|Product Description: AutoCAD Mechanical 2000|Company: Autodesk"
 90
        0
280
     0
281
     0
  0
CLASS
  1
ACMIDSTANDARDBSI
  2
AcmIdStdBSI
  3
"AcmSymBB|Product Description: AutoCAD Mechanical 2000|Company: Autodesk"
 90
        0
280
     0
281
     0
  0
CLASS
  1
ACMDATUMSTANDARDBSI
  2
AcmDatumStdBSI
  3
"AcmSymBB|Product Description: AutoCAD Mechanical 2000|Company: Autodesk"
 90
        0
280
     0
281
     0
  0
CLASS
  1
ACMBOMSTANDARDBSI
  2
AcmBOMStdBSI
  3
"AcmSymBB|Product Description: AutoCAD Mechanical 2000|Company: Autodesk"
 90
        0
280
     0
281
     0
  0
CLASS
  1
STDPART2D
  2
AmgStdPart
  3
"AmgStdPart|Product Description: AutoCAD Mechanical 2000|Company: Autodesk"
 90
     1023
280
     0
281
     1
  0
CLASS
  1
ACMDATAENTRYPART
  2
AcmDataEntryPart
  3
"AcmSymBB|Product Description: AutoCAD Mechanical 2000|Company: Autodesk"
 90
        0
280
     0
281
     0
  0
CLASS
  1
ACMPARTREF
  2
AcmPartRef
  3
"AcmSymBB|Product Description: AutoCAD Mechanical 2000|Company: Autodesk"
 90
     1023
280
     0
281
     1
  0
CLASS
  1
LONG_TRANSACTION
  2
AcDbLongTransaction
  3
AutoCAD 2000
 90
        0
280
     0
281
     0
  0
CLASS
  1
LWPOLYLINE
  2
AcDbPolyline
  3
AutoCAD 2000
 90
        0
280
     0
281
     1
  0
CLASS
  1
HATCH
  2
AcDbHatch
  3
AutoCAD 2000
 90
        0
280
     0
281
     1
  0
CLASS
  1
XRECORD
  2
AcDbXrecord
  3
AutoCAD 2000
 90
        0
280
     0
281
     0
  0
ENDSEC
  0
SECTION
  2
TABLES
  0
TABLE
  2
VPORT
  5
8
330
0
100
AcDbSymbolTable
 70
     3
  0
VPORT
  5
9A61
330
8
100
AcDbSymbolTableRecord
100
AcDbViewportTableRecord
  2
*ACTIVE
 70
     0
 10
0.0
 20
0.0
 11
1.0
 21
1.0
 12
-35.338226419975
 22
2.826282234750834
 13
0.0
 23
0.0
 14
2.5
 24
2.5
 15
10.0
 25
10.0
 16
0.0
 26
0.0
 36
1.0
 17
0.0
 27
0.0
 37
0.0
 40
107.1670477430754
 41
1.56570841889117
 42
50.0
 43
0.0
 44
0.0
 50
0.0
 51
0.0
 71
     0
 72
   100
 73
     1
 74
     3
 75
     0
 76
     0
 77
     0
 78
     0
  0
ENDTAB
  0
TABLE
  2
LTYPE
  5
5
330
0
100
AcDbSymbolTable
 70
    10
  0
LTYPE
  5
14
330
5
100
AcDbSymbolTableRecord
100
AcDbLinetypeTableRecord
  2
BYBLOCK
 70
     0
  3

 72
    65
 73
     0
 40
0.0
  0
LTYPE
  5
15
330
5
100
AcDbSymbolTableRecord
100
AcDbLinetypeTableRecord
  2
BYLAYER
 70
     0
  3

 72
    65
 73
     0
 40
0.0
  0
LTYPE
  5
16
330
5
100
AcDbSymbolTableRecord
100
AcDbLinetypeTableRecord
  2
CONTINUOUS
 70
     0
  3
Solid line
 72
    65
 73
     0
 40
0.0
  0
LTYPE
  5
4B
330
5
100
AcDbSymbolTableRecord
100
AcDbLinetypeTableRecord
  2
AM_ISO02W050
 70
     0
  3
__ __ __ __ __ __ __ __ __ __ __ __ __ __ __
 72
    65
 73
     2
 40
7.5
 49
6.0
 74
     0
 49
-1.5
 74
     0
  0
LTYPE
  5
4C
330
5
100
AcDbSymbolTableRecord
100
AcDbLinetypeTableRecord
  2
AM_ISO08W050
 70
     0
  3
____ . ____ . ____ . ____ . ____ . ____ . ____
 72
    65
 73
     4
 40
18.0
 49
12.0
 74
     0
 49
-1.5
 74
     0
 49
3.0
 74
     0
 49
-1.5
 74
     0
  0
LTYPE
  5
4D
330
5
100
AcDbSymbolTableRecord
100
AcDbLinetypeTableRecord
  2
AM_ISO09W050
 70
     0
  3
_____ . . _____ . . _____ . . ____ .. ____
 72
    65
 73
     6
 40
22.5
 49
12.0
 74
     0
 49
-1.5
 74
     0
 49
3.0
 74
     0
 49
-1.5
 74
     0
 49
3.0
 74
     0
 49
-1.5
 74
     0
  0
LTYPE
  5
4E
330
5
100
AcDbSymbolTableRecord
100
AcDbLinetypeTableRecord
  2
AMCONSTR
 70
     0
  3
_______________________
 72
    65
 73
     2
 40
9999.0
 49
9999.0
 74
     0
 49
0.0
 74
     0
  0
LTYPE
  5
4F
330
5
100
AcDbSymbolTableRecord
100
AcDbLinetypeTableRecord
  2
AM_ISO02W050X2
 70
     0
  3
 _ _ _ _ _ _ _ _ _ _ _ _
 72
    65
 73
     2
 40
3.75
 49
3.0
 74
     0
 49
-0.75
 74
     0
  0
LTYPE
  5
50
330
5
100
AcDbSymbolTableRecord
100
AcDbLinetypeTableRecord
  2
AM_ISO08W050X2
 70
     0
  3
__ . __ . __ . __ . __ . __
 72
    65
 73
     4
 40
9.0
 49
6.0
 74
     0
 49
-0.75
 74
     0
 49
1.5
 74
     0
 49
-0.75
 74
     0
  0
LTYPE
  5
53
330
5
100
AcDbSymbolTableRecord
100
AcDbLinetypeTableRecord
  2
AMZIGZAG
 70
     0
  3
/\/-/\/-/\/-/\/-/\/-/\/
 72
    65
 73
     2
 40
11.00009999999999
 49
0.0001
 74
     4
 75
   135
340
52
 46
0.04
 50
0.0
 44
0.0
 45
0.0
 49
-11.0
 74
     0
  0
LTYPE
  5
166
330
5
100
AcDbSymbolTableRecord
100
AcDbLinetypeTableRecord
  2
ACJISTGL
 70
     0
  3
_ _ _ _ _
 72
    65
 73
     2
 40
3.0
 49
2.0
 74
     0
 49
-1.0
 74
     0
  0
LTYPE
  5
26A
330
5
100
AcDbSymbolTableRecord
100
AcDbLinetypeTableRecord
  2
ACJISTGB
 70
     0
  3
__ . . __ . .
 72
    65
 73
     6
 40
9.0
 49
4.0
 74
     0
 49
-1.0
 74
     0
 49
1.0
 74
     0
 49
-1.0
 74
     0
 49
1.0
 74
     0
 49
-1.0
 74
     0
  0
ENDTAB
  0
TABLE
  2
LAYER
  5
2
330
0
100
AcDbSymbolTable
 70
     7
  0
LAYER
  5
10
330
2
100
AcDbSymbolTableRecord
100
AcDbLayerTableRecord
  2
0
 70
     0
 62
     7
  6
CONTINUOUS
  0
LAYER
  5
3F9
330
2
100
AcDbSymbolTableRecord
100
AcDbLayerTableRecord
  2
AM_0
 70
     0
 62
     7
  6
CONTINUOUS
  0
LAYER
  5
BD6
330
2
100
AcDbSymbolTableRecord
100
AcDbLayerTableRecord
  2
AM_11
 70
     0
 62
     3
  6
AM_ISO09W050
  0
LAYER
  5
BD7
330
2
100
AcDbSymbolTableRecord
100
AcDbLayerTableRecord
  2
AM_7
 70
     0
 62
     4
  6
AM_ISO08W050
  0
LAYER
  5
BD8
330
2
100
AcDbSymbolTableRecord
100
AcDbLayerTableRecord
  2
AM_5
 70
     0
 62
     3
  6
CONTINUOUS
  0
LAYER
  5
BD9
330
2
100
AcDbSymbolTableRecord
100
AcDbLayerTableRecord
  2
DEFPOINTS
 70
     0
 62
     7
  6
CONTINUOUS
  0
LAYER
  5
BDA
330
2
100
AcDbSymbolTableRecord
100
AcDbLayerTableRecord
  2
AM_6
 70
     0
 62
     2
  6
CONTINUOUS
  0
ENDTAB
  0
TABLE
  2
STYLE
  5
3
330
0
100
AcDbSymbolTable
 70
     5
  0
STYLE
  5
11
330
3
100
AcDbSymbolTableRecord
100
AcDbTextStyleTableRecord
  2
STANDARD
 70
     0
 40
0.0
 41
1.0
 50
0.0
 71
     0
 42
2.5
  3
simplex.shx
  4
EXTFONT.SHX
  0
STYLE
  5
52
330
3
100
AcDbSymbolTableRecord
100
AcDbTextStyleTableRecord
  2

 70
     1
 40
0.0
 41
1.0
 50
0.0
 71
     0
 42
2.5
  3
ltypeshp.shx
  4

  0
STYLE
  5
6B
330
3
100
AcDbSymbolTableRecord
100
AcDbTextStyleTableRecord
  2
ASAMI
 70
     0
 40
0.0
 41
1.0
 50
0.0
 71
     0
 42
2.5
  3
simplex.shx
  4
EXTFONT.SHX
  0
STYLE
  5
262
330
3
100
AcDbSymbolTableRecord
100
AcDbTextStyleTableRecord
  2
ACJISTS
 70
     0
 40
1.0
 41
1.0
 50
0.0
 71
     0
 42
2.5
  3
simplex.shx
  4
bigfont.shx
  0
STYLE
  5
269
330
3
100
AcDbSymbolTableRecord
100
AcDbTextStyleTableRecord
  2
ACJISGDT
 70
     0
 40
0.0
 41
1.0
 50
0.0
 71
     0
 42
2.5
  3
amgdtans.shx
  4

  0
ENDTAB
  0
TABLE
  2
VIEW
  5
6
330
0
100
AcDbSymbolTable
 70
     0
  0
ENDTAB
  0
TABLE
  2
UCS
  5
7
330
0
100
AcDbSymbolTable
 70
     0
  0
ENDTAB
  0
TABLE
  2
APPID
  5
9
330
0
100
AcDbSymbolTable
 70
    21
  0
APPID
  5
12
330
9
100
AcDbSymbolTableRecord
100
AcDbRegAppTableRecord
  2
ACAD
 70
     0
  0
APPID
  5
30
330
9
100
AcDbSymbolTableRecord
100
AcDbRegAppTableRecord
  2
MCAD_NO_VIS
 70
     0
  0
APPID
  5
31
330
9
100
AcDbSymbolTableRecord
100
AcDbRegAppTableRecord
  2
ACAD_TEMP_GRAPHIC
 70
     0
  0
APPID
  5
2C2
330
9
100
AcDbSymbolTableRecord
100
AcDbRegAppTableRecord
  2
GENIUS_GENDTOL_13
 70
     0
  0
APPID
  5
339
330
9
100
AcDbSymbolTableRecord
100
AcDbRegAppTableRecord
  2
GENIUS_GENODEF_13
 70
     0
  0
APPID
  5
33A
330
9
100
AcDbSymbolTableRecord
100
AcDbRegAppTableRecord
  2
GENIUS_GENOBJ-N-RSBK_13
 70
     0
  0
APPID
  5
33B
330
9
100
AcDbSymbolTableRecord
100
AcDbRegAppTableRecord
  2
GENIUS_GENOBJ-N-LIB_13
 70
     0
  0
APPID
  5
33C
330
9
100
AcDbSymbolTableRecord
100
AcDbRegAppTableRecord
  2
GENIUS_GENSCALE_13
 70
     0
  0
APPID
  5
378
330
9
100
AcDbSymbolTableRecord
100
AcDbRegAppTableRecord
  2
GENIUS_GENDIMSH_14
 70
     0
  0
APPID
  5
BDB
330
9
100
AcDbSymbolTableRecord
100
AcDbRegAppTableRecord
  2
GENIUS_GENOBJ-N-CEN_13
 70
     0
  0
APPID
  5
BDC
330
9
100
AcDbSymbolTableRecord
100
AcDbRegAppTableRecord
  2
GENIUS_GENFIL_13
 70
     0
  0
APPID
  5
BDD
330
9
100
AcDbSymbolTableRecord
100
AcDbRegAppTableRecord
  2
GENIUS_GENOBJ-N-FIL_13
 70
     0
  0
APPID
  5
12AD
330
9
100
AcDbSymbolTableRecord
100
AcDbRegAppTableRecord
  2
GENIUS_GENOREF_13
 70
     0
  0
APPID
  5
68E9
330
9
100
AcDbSymbolTableRecord
100
AcDbRegAppTableRecord
  2
GEVID1060695448
 70
     0
  0
APPID
  5
68EA
330
9
100
AcDbSymbolTableRecord
100
AcDbRegAppTableRecord
  2
GEVDC
 70
     0
  0
APPID
  5
68ED
330
9
100
AcDbSymbolTableRecord
100
AcDbRegAppTableRecord
  2
GENIUS_GENBH_13
 70
     0
  0
APPID
  5
68EF
330
9
100
AcDbSymbolTableRecord
100
AcDbRegAppTableRecord
  2
GENIUS_GENOBJ-NBEHI-BHF_13
 70
     0
  0
APPID
  5
68F0
330
9
100
AcDbSymbolTableRecord
100
AcDbRegAppTableRecord
  2
GENIUS_GENOENT_13
 70
     0
  0
APPID
  5
68F1
330
9
100
AcDbSymbolTableRecord
100
AcDbRegAppTableRecord
  2
GENIUS_GENOLIS_13
 70
     0
  0
APPID
  5
68F3
330
9
100
AcDbSymbolTableRecord
100
AcDbRegAppTableRecord
  2
GENIUS_GENOBJ-NBEHI-BHB_13
 70
     0
  0
APPID
  5
6B27
330
9
100
AcDbSymbolTableRecord
100
AcDbRegAppTableRecord
  2
GENIUS_GENOBJ-N-CHA_13
 70
     0
  0
ENDTAB
  0
TABLE
  2
DIMSTYLE
  5
A
330
0
100
AcDbSymbolTable
 70
     8
  0
DIMSTYLE
105
58
102
{ACAD_REACTORS
330
8E9B
330
8EA8
330
904E
330
91A6
330
95F3
102
}
330
A
100
AcDbSymbolTableRecord
100
AcDbDimStyleTableRecord
  2
AM_JIS
 70
     0
  3

  4
"
  5
OPEN30
  6

  7

 40
1.0
 41
2.5
 42
1.0
 43
12.0
 44
1.0
 45
0.0
 46
0.0
 47
0.1
 48
0.1
140
3.2
141
0.0
142
0.0
143
0.0393701
144
1.0
145
0.0
146
0.71
147
1.5
 71
     0
 72
     0
 73
     0
 74
     0
 75
     0
 76
     0
 77
     3
 78
     8
170
     0
171
     2
172
     1
173
     0
174
     0
175
     0
176
     3
177
     3
178
     2
270
     2
271
     3
272
     3
273
     2
274
     2
340
6B
275
     0
280
     0
281
     0
282
     0
283
     0
284
     0
285
     0
286
     0
287
     3
288
     0
  0
DIMSTYLE
105
5F
330
A
100
AcDbSymbolTableRecord
100
AcDbDimStyleTableRecord
  2
AM_JIS$3
 70
     0
  3

  4
"
  5
OPEN30
  6

  7

 40
1.0
 41
2.5
 42
1.0
 43
10.0
 44
1.0
 45
0.0
 46
0.0
 47
0.1
 48
0.1
140
3.2
141
0.0
142
0.0
143
0.0393701
144
1.0
145
0.0
146
0.71
147
1.5
 71
     0
 72
     0
 73
     0
 74
     1
 75
     0
 76
     0
 77
     3
 78
     8
170
     0
171
     2
172
     0
173
     0
174
     0
175
     0
176
     3
177
     3
178
     2
270
     2
271
     2
272
     3
273
     2
274
     2
340
6B
275
     0
280
     0
281
     0
282
     0
283
     0
284
     0
285
     0
286
     0
287
     0
288
     1
  0
DIMSTYLE
105
60
330
A
100
AcDbSymbolTableRecord
100
AcDbDimStyleTableRecord
  2
AM_JIS$4
 70
     0
  3

  4
"
  5
OPEN30
  6

  7

 40
1.0
 41
2.5
 42
1.0
 43
10.0
 44
1.0
 45
0.0
 46
0.0
 47
0.1
 48
0.1
140
3.2
141
0.0
142
0.0
143
0.0393701
144
1.0
145
0.0
146
0.71
147
1.5
 71
     0
 72
     0
 73
     0
 74
     1
 75
     0
 76
     0
 77
     3
 78
     8
170
     0
171
     2
172
     0
173
     0
174
     0
175
     0
176
     3
177
     3
178
     2
270
     2
271
     2
272
     3
273
     2
274
     2
340
6B
275
     0
280
     0
281
     0
282
     0
283
     0
284
     0
285
     0
286
     0
287
     0
288
     1
  0
DIMSTYLE
105
61
330
A
100
AcDbSymbolTableRecord
100
AcDbDimStyleTableRecord
  2
AM_JIS$6
 70
     0
  3

  4
"
  5
OPEN30
  6

  7

 40
1.0
 41
2.5
 42
1.0
 43
10.0
 44
1.0
 45
0.0
 46
0.0
 47
0.1
 48
0.1
140
3.2
141
0.0
142
0.0
143
0.0393701
144
1.0
145
0.0
146
0.71
147
1.5
 71
     0
 72
     0
 73
     0
 74
     0
 75
     0
 76
     0
 77
     0
 78
     8
170
     0
171
     2
172
     1
173
     0
174
     0
175
     0
176
     3
177
     3
178
     2
270
     2
271
     2
272
     2
273
     2
274
     2
340
6B
275
     0
280
     0
281
     0
282
     0
283
     0
284
     0
285
     0
286
     0
287
     3
288
     0
  0
DIMSTYLE
105
62
330
A
100
AcDbSymbolTableRecord
100
AcDbDimStyleTableRecord
  2
AM_JIS$7
 70
     0
  3

  4
"
  5
OPEN30
  6

  7

 40
1.0
 41
2.5
 42
1.0
 43
10.0
 44
1.0
 45
0.0
 46
0.0
 47
0.1
 48
0.1
140
3.2
141
0.0
142
0.0
143
0.0393701
144
1.0
145
0.0
146
0.71
147
1.5
 71
     0
 72
     0
 73
     0
 74
     0
 75
     0
 76
     0
 77
     3
 78
     8
170
     0
171
     2
172
     1
173
     0
174
     0
175
     0
176
     3
177
     3
178
     2
270
     2
271
     2
272
     3
273
     2
274
     2
340
6B
275
     0
280
     0
281
     0
282
     0
283
     0
284
     0
285
     0
286
     0
287
     3
288
     0
  0
DIMSTYLE
105
63
330
A
100
AcDbSymbolTableRecord
100
AcDbDimStyleTableRecord
  2
AM_JIS$SF
 70
     0
  3

  4
"
  5
OPEN30
  6

  7

 40
1.0
 41
2.5
 42
1.0
 43
10.0
 44
1.0
 45
0.0
 46
0.0
 47
0.1
 48
0.1
140
3.2
141
0.0
142
0.0
143
0.0393701
144
1.0
145
0.0
146
0.71
147
1.5
 71
     0
 72
     0
 73
     0
 74
     0
 75
     1
 76
     1
 77
     3
 78
     8
170
     0
171
     2
172
     1
173
     0
174
     0
175
     0
176
   256
177
   256
178
     2
270
     2
271
     2
272
     2
273
     2
274
     2
340
6B
275
     0
280
     0
281
     0
282
     0
283
     0
284
     0
285
     0
286
     0
287
     3
288
     0
  0
DIMSTYLE
105
68
330
A
100
AcDbSymbolTableRecord
100
AcDbDimStyleTableRecord
  2
AM_JIS$SH
 70
     0
  3

  4
"
  5

  6
GENAXEH
  7
OPEN30
 40
1.0
 41
2.5
 42
1.0
 43
10.0
 44
1.0
 45
0.0
 46
0.0
 47
0.1
 48
0.1
140
3.2
141
0.0
142
0.0
143
0.0393701
144
2.0
145
0.0
146
0.71
147
1.5
 71
     0
 72
     0
 73
     0
 74
     0
 75
     1
 76
     1
 77
     3
 78
     8
170
     0
171
     2
172
     1
173
     1
174
     0
175
     0
176
   256
177
   256
178
     2
270
     2
271
     2
272
     2
273
     2
274
     2
340
6B
275
     0
280
     0
281
     0
282
     0
283
     0
284
     0
285
     0
286
     0
287
     3
288
     0
  0
DIMSTYLE
105
B34
102
{ACAD_REACTORS
330
9683
330
9796
330
9942
102
}
330
A
100
AcDbSymbolTableRecord
100
AcDbDimStyleTableRecord
  2
AM_JIS$2
 70
     0
  3

  4
"
  5
OPEN30
  6

  7

 40
1.0
 41
2.5
 42
1.0
 43
12.0
 44
1.0
 45
0.0
 46
0.0
 47
0.1
 48
0.1
140
3.2
141
0.0
142
0.0
143
0.0393701
144
1.0
145
0.0
146
0.71
147
1.5
 71
     0
 72
     0
 73
     0
 74
     0
 75
     0
 76
     0
 77
     3
 78
     8
170
     0
171
     2
172
     1
173
     0
174
     0
175
     0
176
     3
177
     3
178
     2
270
     2
271
     3
272
     3
273
     2
274
     2
340
6B
275
     0
280
     0
281
     0
282
     0
283
     0
284
     0
285
     0
286
     0
287
     3
288
     0
  0
ENDTAB
  0
TABLE
  2
BLOCK_RECORD
  5
1
330
0
100
AcDbSymbolTable
 70
    13
  0
BLOCK_RECORD
  5
1F
102
{ACAD_XDICTIONARY
360
74
102
}
330
1
100
AcDbSymbolTableRecord
100
AcDbBlockTableRecord
  2
*MODEL_SPACE
  0
BLOCK_RECORD
  5
101
102
{ACAD_XDICTIONARY
360
9A8A
102
}
330
1
100
AcDbSymbolTableRecord
100
AcDbBlockTableRecord
  2
*PAPER_SPACE
  0
BLOCK_RECORD
  5
59
330
1
100
AcDbSymbolTableRecord
100
AcDbBlockTableRecord
  2
_OPEN30
  0
BLOCK_RECORD
  5
64
330
1
100
AcDbSymbolTableRecord
100
AcDbBlockTableRecord
  2
GENAXEH
  0
BLOCK_RECORD
  5
8E9C
330
1
100
AcDbSymbolTableRecord
100
AcDbBlockTableRecord
  2
*D5
  0
BLOCK_RECORD
  5
8EA9
330
1
100
AcDbSymbolTableRecord
100
AcDbBlockTableRecord
  2
*D6
  0
BLOCK_RECORD
  5
904F
330
1
100
AcDbSymbolTableRecord
100
AcDbBlockTableRecord
  2
*D7
  0
BLOCK_RECORD
  5
91A7
330
1
100
AcDbSymbolTableRecord
100
AcDbBlockTableRecord
  2
*D8
  0
BLOCK_RECORD
  5
95F4
330
1
100
AcDbSymbolTableRecord
100
AcDbBlockTableRecord
  2
*D9
  0
BLOCK_RECORD
  5
9684
330
1
100
AcDbSymbolTableRecord
100
AcDbBlockTableRecord
  2
*D10
  0
BLOCK_RECORD
  5
9797
330
1
100
AcDbSymbolTableRecord
100
AcDbBlockTableRecord
  2
*D11
  0
BLOCK_RECORD
  5
9943
330
1
100
AcDbSymbolTableRecord
100
AcDbBlockTableRecord
  2
*D12
  0
ENDTAB
  0
ENDSEC
  0
SECTION
  2
BLOCKS
  0
BLOCK
  5
20
330
1F
100
AcDbEntity
  8
0
100
AcDbBlockBegin
  2
*MODEL_SPACE
 70
     0
 10
0.0
 20
0.0
 30
0.0
  3
*MODEL_SPACE
  1

  0
ENDBLK
  5
21
330
1F
100
AcDbEntity
  8
0
100
AcDbBlockEnd
  0
BLOCK
  5
103
330
101
100
AcDbEntity
 67
     1
  8
0
100
AcDbBlockBegin
  2
*PAPER_SPACE
 70
     0
 10
0.0
 20
0.0
 30
0.0
  3
*PAPER_SPACE
  1

  0
ENDBLK
  5
104
330
101
100
AcDbEntity
 67
     1
  8
0
100
AcDbBlockEnd
  0
BLOCK
  5
5D
330
59
100
AcDbEntity
  8
0
100
AcDbBlockBegin
  2
_OPEN30
 70
     0
 10
0.0
 20
0.0
 30
0.0
  3
_OPEN30
  1

  0
LINE
  5
5A
330
59
100
AcDbEntity
  8
0
 62
     0
100
AcDbLine
 10
-1.0
 20
0.26794919
 30
0.0
 11
0.0
 21
0.0
 31
0.0
  0
LINE
  5
5B
330
59
100
AcDbEntity
  8
0
 62
     0
100
AcDbLine
 10
0.0
 20
0.0
 30
0.0
 11
-1.0
 21
-0.26794919
 31
0.0
  0
LINE
  5
5C
330
59
100
AcDbEntity
  8
0
 62
     0
100
AcDbLine
 10
0.0
 20
0.0
 30
0.0
 11
-1.0
 21
0.0
 31
0.0
  0
ENDBLK
  5
5E
330
59
100
AcDbEntity
  8
0
100
AcDbBlockEnd
  0
BLOCK
  5
66
330
64
100
AcDbEntity
  8
0
100
AcDbBlockBegin
  2
GENAXEH
 70
     0
 10
0.0
 20
0.0
 30
0.0
  3
GENAXEH
  1

  0
LINE
  5
65
330
64
100
AcDbEntity
  8
0
100
AcDbLine
 10
-1.0
 20
0.0
 30
0.0
 11
1.0
 21
0.0
 31
0.0
  0
ENDBLK
  5
67
330
64
100
AcDbEntity
  8
0
100
AcDbBlockEnd
  0
BLOCK
  5
8EA6
330
8E9C
100
AcDbEntity
  8
0
100
AcDbBlockBegin
  2
*D5
 70
     1
 10
0.0
 20
0.0
 30
0.0
  3
*D5
  1

  0
LINE
  5
94EA
330
8E9C
100
AcDbEntity
  8
AM_5
 62
     3
100
AcDbLine
 10
-0.0000000000000041
 20
-1.032474792076479
 30
0.0
 11
-0.0000000000000054
 21
-22.99999999909528
 31
0.0
  0
LINE
  5
94EB
330
8E9C
100
AcDbEntity
  8
AM_5
 62
     3
100
AcDbLine
 10
-100.0
 20
-8.999999999095322
 30
0.0
 11
-100.0
 21
-22.99999999909529
 31
0.0
  0
LINE
  5
94EC
330
8E9C
100
AcDbEntity
  8
AM_5
 62
     3
100
AcDbLine
 10
-2.500000000000005
 20
-21.99999999909528
 30
0.0
 11
-97.5
 21
-21.99999999909528
 31
0.0
  0
INSERT
  5
94ED
330
8E9C
100
AcDbEntity
  8
AM_5
 62
     3
100
AcDbBlockReference
  2
_OPEN30
 10
-0.0000000000000054
 20
-21.99999999909528
 30
0.0
 41
2.5
 42
2.5
 43
2.5
  0
INSERT
  5
94EE
330
8E9C
100
AcDbEntity
  8
AM_5
 62
     3
100
AcDbBlockReference
  2
_OPEN30
 10
-100.0
 20
-21.99999999909528
 30
0.0
 41
2.5
 42
2.5
 43
2.5
 50
180.0
  0
MTEXT
  5
94EF
330
8E9C
100
AcDbEntity
  8
AM_5
 62
     2
100
AcDbMText
 10
-50.0
 20
-18.89999999909528
 30
0.0
 40
3.2
 41
0.0
 71
     5
 72
     1
  1
100
  7
ASAMI
1001
ACAD
1000
MTEXTBEGIN
1070
    73
1070
     1
1070
    44
1040
1.0
1070
    74
1070
     0
1000
MTEXTEND
  0
POINT
  5
94F0
330
8E9C
100
AcDbEntity
  8
DEFPOINTS
 62
     0
100
AcDbPoint
 10
-0.000000000000004
 20
-0.0324747920764796
 30
0.0
  0
POINT
  5
94F1
330
8E9C
100
AcDbEntity
  8
DEFPOINTS
 62
     0
100
AcDbPoint
 10
-100.0
 20
-7.999999999095322
 30
0.0
  0
POINT
  5
94F2
330
8E9C
100
AcDbEntity
  8
DEFPOINTS
 62
     0
100
AcDbPoint
 10
-100.0
 20
-21.99999999909528
 30
0.0
  0
ENDBLK
  5
8EA7
330
8E9C
100
AcDbEntity
  8
0
100
AcDbBlockEnd
  0
BLOCK
  5
8EB5
330
8EA9
100
AcDbEntity
  8
0
100
AcDbBlockBegin
  2
*D6
 70
     1
 10
0.0
 20
0.0
 30
0.0
  3
*D6
  1

  0
LINE
  5
94C8
330
8EA9
100
AcDbEntity
  8
AM_5
 62
     3
100
AcDbLine
 10
0.9293053223057757
 20
0.0000000009047036
 30
0.0
 11
11.08835680995578
 21
0.0000000009047007
 31
0.0
  0
LINE
  5
94C9
330
8EA9
100
AcDbEntity
  8
AM_5
 62
     3
100
AcDbLine
 10
-6.668629150101498
 20
-7.999999999095294
 30
0.0
 11
11.08835680995577
 21
-7.999999999095299
 31
0.0
  0
LINE
  5
94CA
330
8EA9
100
AcDbEntity
  8
AM_5
 62
     3
100
AcDbLine
 10
10.08835680995578
 20
2.500000000904701
 30
0.0
 11
10.08835680995578
 21
5.0000000009047
 31
0.0
  0
LINE
  5
94CB
330
8EA9
100
AcDbEntity
  8
AM_5
 62
     3
100
AcDbLine
 10
10.08835680995578
 20
-10.49999999909529
 30
0.0
 11
10.08835680995577
 21
-12.99999999909529
 31
0.0
  0
LINE
  5
94CC
330
8EA9
100
AcDbEntity
  8
AM_5
 62
     3
100
AcDbLine
 10
10.08835680995578
 20
0.000000000904701
 30
0.0
 11
10.08835680995578
 21
-7.999999999095299
 31
0.0
  0
INSERT
  5
94CD
330
8EA9
100
AcDbEntity
  8
AM_5
 62
     3
100
AcDbBlockReference
  2
_OPEN30
 10
10.08835680995578
 20
0.000000000904701
 30
0.0
 41
2.5
 42
2.5
 43
2.5
 50
270.0
  0
INSERT
  5
94CE
330
8EA9
100
AcDbEntity
  8
AM_5
 62
     3
100
AcDbBlockReference
  2
_OPEN30
 10
10.08835680995578
 20
-7.999999999095299
 30
0.0
 41
2.5
 42
2.5
 43
2.5
 50
90.0
  0
MTEXT
  5
94CF
330
8EA9
100
AcDbEntity
  8
AM_5
 62
     2
100
AcDbMText
 10
6.988356809955782
 20
-3.999999999095297
 30
0.0
 40
3.2
 41
0.0
 71
     5
 72
     1
  1
8
  7
ASAMI
 11
0.0000000000000001
 21
1.0
 31
0.0
1001
ACAD
1000
MTEXTBEGIN
1070
    73
1070
     1
1070
    44
1040
1.0
1070
    74
1070
     0
1000
MTEXTEND
  0
POINT
  5
94D0
330
8EA9
100
AcDbEntity
  8
DEFPOINTS
 62
     0
100
AcDbPoint
 10
-0.0706946776942244
 20
0.0000000009047039
 30
0.0
  0
POINT
  5
94D1
330
8EA9
100
AcDbEntity
  8
DEFPOINTS
 62
     0
100
AcDbPoint
 10
-7.668629150101498
 20
-7.999999999095294
 30
0.0
  0
POINT
  5
94D2
330
8EA9
100
AcDbEntity
  8
DEFPOINTS
 62
     0
100
AcDbPoint
 10
10.08835680995578
 20
-7.999999999095299
 30
0.0
  0
ENDBLK
  5
8EB6
330
8EA9
100
AcDbEntity
  8
0
100
AcDbBlockEnd
  0
BLOCK
  5
9059
330
904F
100
AcDbEntity
  8
0
100
AcDbBlockBegin
  2
*D7
 70
     1
 10
0.0
 20
0.0
 30
0.0
  3
*D7
  1

  0
LINE
  5
94A0
330
904F
100
AcDbEntity
  8
AM_5
 62
     3
100
AcDbLine
 10
-101.0
 20
8.000000000904707
 30
0.0
 11
-115.1912411586573
 21
8.00000000090471
 31
0.0
  0
LINE
  5
94A1
330
904F
100
AcDbEntity
  8
AM_5
 62
     3
100
AcDbLine
 10
-101.0
 20
-7.999999999095294
 30
0.0
 11
-115.1912411586573
 21
-7.999999999095289
 31
0.0
  0
LINE
  5
94A2
330
904F
100
AcDbEntity
  8
AM_5
 62
     3
100
AcDbLine
 10
-114.1912411586573
 20
5.50000000090471
 30
0.0
 11
-114.1912411586573
 21
-5.499999999095289
 31
0.0
  0
INSERT
  5
94A3
330
904F
100
AcDbEntity
  8
AM_5
 62
     3
100
AcDbBlockReference
  2
_OPEN30
 10
-114.1912411586573
 20
8.000000000904709
 30
0.0
 41
2.5
 42
2.5
 43
2.5
 50
90.0
  0
INSERT
  5
94A4
330
904F
100
AcDbEntity
  8
AM_5
 62
     3
100
AcDbBlockReference
  2
_OPEN30
 10
-114.1912411586573
 20
-7.999999999095289
 30
0.0
 41
2.5
 42
2.5
 43
2.5
 50
270.0
  0
MTEXT
  5
94A5
330
904F
100
AcDbEntity
  8
AM_5
 62
     2
100
AcDbMText
 10
-117.2912411586574
 20
0.0000000009046917
 30
0.0
 40
3.2
 41
0.0
 71
     5
 72
     1
  1
16
  7
ASAMI
 11
0.0000000000000001
 21
1.0
 31
0.0
1001
ACAD
1000
MTEXTBEGIN
1070
    73
1070
     1
1070
    44
1040
1.0
1070
    74
1070
     0
1000
MTEXTEND
  0
POINT
  5
94A6
330
904F
100
AcDbEntity
  8
DEFPOINTS
 62
     0
100
AcDbPoint
 10
-100.0
 20
8.000000000904705
 30
0.0
  0
POINT
  5
94A7
330
904F
100
AcDbEntity
  8
DEFPOINTS
 62
     0
100
AcDbPoint
 10
-100.0
 20
-7.999999999095294
 30
0.0
  0
POINT
  5
94A8
330
904F
100
AcDbEntity
  8
DEFPOINTS
 62
     0
100
AcDbPoint
 10
-114.1912411586573
 20
-7.999999999095289
 30
0.0
  0
ENDBLK
  5
905A
330
904F
100
AcDbEntity
  8
0
100
AcDbBlockEnd
  0
BLOCK
  5
91B2
330
91A7
100
AcDbEntity
  8
0
100
AcDbBlockBegin
  2
*D8
 70
     1
 10
0.0
 20
0.0
 30
0.0
  3
*D8
  1

  0
LINE
  5
9A8C
330
91A7
100
AcDbEntity
  8
AM_5
 62
     3
100
AcDbLine
 10
33.64189126497441
 20
33.81408549854727
 30
0.0
 11
48.22204032346728
 21
19.23393644005443
 31
0.0
  0
LINE
  5
9A8D
330
91A7
100
AcDbEntity
  8
AM_5
 62
     3
100
AcDbLine
 10
23.64062547905288
 20
21.89504106768581
 30
0.0
 11
37.26188521507579
 21
8.273781331662927
 31
0.0
  0
LINE
  5
9A8E
330
91A7
100
AcDbEntity
  8
AM_5
 62
     3
100
AcDbLine
 10
45.74716658931436
 20
18.1732762682746
 30
0.0
 11
38.32254538685561
 21
10.74865506581584
 31
0.0
  0
MTEXT
  5
9A8F
330
91A7
100
AcDbEntity
  8
AM_5
 62
     2
100
AcDbMText
 10
40.33391077881652
 20
17.17375655344875
 30
0.0
 40
3.2
 41
0.0
 71
     5
 72
     1
  1
15.5
  7
ASAMI
 11
0.707106781186547
 21
0.7071067811865481
 31
0.0
  0
INSERT
  5
9A90
330
91A7
100
AcDbEntity
  8
AM_5
 62
     3
100
AcDbBlockReference
  2
_OPEN30
 10
47.51493354228073
 20
19.94104322124098
 30
0.0
 41
2.5
 42
2.5
 43
2.5
 50
45.00000000000008
  0
INSERT
  5
9A91
330
91A7
100
AcDbEntity
  8
AM_5
 62
     3
100
AcDbBlockReference
  2
_OPEN30
 10
36.55477843388924
 20
8.980888112849475
 30
0.0
 41
2.5
 42
2.5
 43
2.5
 50
225.0
  0
POINT
  5
9A92
330
91A7
100
AcDbEntity
  8
DEFPOINTS
 62
     0
100
AcDbPoint
 10
32.93478448378787
 20
34.52119227973381
 30
0.0
  0
POINT
  5
9A93
330
91A7
100
AcDbEntity
  8
DEFPOINTS
 62
     0
100
AcDbPoint
 10
22.93351869786634
 20
22.60214784887235
 30
0.0
  0
POINT
  5
9A94
330
91A7
100
AcDbEntity
  8
DEFPOINTS
 62
     0
100
AcDbPoint
 10
36.55477843388924
 20
8.980888112849466
 30
0.0
  0
ENDBLK
  5
91B3
330
91A7
100
AcDbEntity
  8
0
100
AcDbBlockEnd
  0
BLOCK
  5
95FE
330
95F4
100
AcDbEntity
  8
0
100
AcDbBlockBegin
  2
*D9
 70
     1
 10
0.0
 20
0.0
 30
0.0
  3
*D9
  1

  0
LINE
  5
966C
330
95F4
100
AcDbEntity
  8
AM_5
 62
     3
100
AcDbLine
 10
4.772540847252383
 20
40.05601891829978
 30
0.0
 11
1.574182720814306
 21
43.25437704473786
 31
0.0
  0
LINE
  5
966D
330
95F4
100
AcDbEntity
  8
AM_5
 62
     3
100
AcDbLine
 10
15.52964224157995
 20
51.92633452194172
 30
0.0
 11
12.88789121979907
 21
54.56808554372261
 31
0.0
  0
LINE
  5
966E
330
95F4
100
AcDbEntity
  8
AM_5
 62
     3
100
AcDbLine
 10
4.049056454967224
 20
44.31503721651767
 30
0.0
 11
11.82723104801925
 21
52.09321180956969
 31
0.0
  0
INSERT
  5
966F
330
95F4
100
AcDbEntity
  8
AM_5
 62
     3
100
AcDbBlockReference
  2
_OPEN30
 10
2.281289502000856
 20
42.54727026355131
 30
0.0
 41
2.5
 42
2.5
 43
2.5
 50
224.9999999999999
  0
INSERT
  5
9670
330
95F4
100
AcDbEntity
  8
AM_5
 62
     3
100
AcDbBlockReference
  2
_OPEN30
 10
13.59499800098562
 20
53.86097876253606
 30
0.0
 41
2.5
 42
2.5
 43
2.5
 50
44.99999999999995
  0
MTEXT
  5
9671
330
95F4
100
AcDbEntity
  8
AM_5
 62
     2
100
AcDbMText
 10
5.746112729814942
 20
50.39615553472199
 30
0.0
 40
3.2
 41
0.0
 71
     5
 72
     1
  1
16
  7
ASAMI
 11
0.7071067811865481
 21
0.707106781186547
 31
0.0
1001
ACAD
1000
MTEXTBEGIN
1070
    73
1070
     1
1070
    44
1040
1.0
1070
    74
1070
     0
1000
MTEXTEND
  0
POINT
  5
9672
330
95F4
100
AcDbEntity
  8
DEFPOINTS
 62
     0
100
AcDbPoint
 10
5.479647628438932
 20
39.34891213711323
 30
0.0
  0
POINT
  5
9673
330
95F4
100
AcDbEntity
  8
DEFPOINTS
 62
     0
100
AcDbPoint
 10
16.2367490227665
 20
51.21922774075517
 30
0.0
  0
POINT
  5
9674
330
95F4
100
AcDbEntity
  8
DEFPOINTS
 62
     0
100
AcDbPoint
 10
13.59499800098562
 20
53.86097876253606
 30
0.0
  0
ENDBLK
  5
95FF
330
95F4
100
AcDbEntity
  8
0
100
AcDbBlockEnd
  0
BLOCK
  5
9694
330
9684
100
AcDbEntity
  8
0
100
AcDbBlockBegin
  2
*D10
 70
     1
 10
0.0
 20
0.0
 30
0.0
  3
*D10
  1

  0
LINE
  5
98DB
330
9684
100
AcDbEntity
  8
AM_5
 62
     3
100
AcDbLine
 10
24.34773226023827
 20
21.1879342864981
 30
0.0
 11
32.18337459654476
 21
13.35229195016579
 31
0.0
  0
LINE
  5
98DC
330
9684
100
AcDbEntity
  8
AM_5
 62
     3
100
AcDbLine
 10
23.69956314099982
 20
21.95936023917364
 30
0.0
 11
32.95435416341585
 21
14.19366850564152
 31
0.0
  0
ARC
  5
98DD
330
9684
100
AcDbEntity
  8
AM_5
 62
     3
100
AcDbCircle
 10
22.93351869788085
 20
22.60214784886018
 30
0.0
 40
12.08127166190883
100
AcDbArc
 50
291.1147767084583
 51
314.9999999999056
  0
LINE
  5
98DE
330
9684
100
AcDbEntity
  8
AM_5
 62
     3
100
AcDbLine
 10
27.28564467376402
 20
11.33200479480428
 30
0.0
 11
14.36596875454667
 21
6.342888250468779
 31
0.0
  0
ARC
  5
98DF
330
9684
100
AcDbEntity
  8
AM_5
 62
     3
100
AcDbCircle
 10
22.93351869788085
 20
22.60214784886018
 30
0.0
 40
12.08127166190883
100
AcDbArc
 50
291.2448424887806
 51
303.1224212443431
  0
ARC
  5
98E0
330
9684
100
AcDbEntity
  8
AM_5
 62
     3
100
AcDbCircle
 10
22.93351869788085
 20
22.60214784886018
 30
0.0
 40
12.08127166190883
100
AcDbArc
 50
331.8775787555624
 51
343.7551575111249
  0
ARC
  5
98E1
330
9684
100
AcDbEntity
  8
AM_5
 62
     3
100
AcDbCircle
 10
22.93351869788085
 20
22.60214784886018
 30
0.0
 40
12.08127166190883
100
AcDbArc
 50
314.9999999999056
 51
319.9999999999999
  0
INSERT
  5
98E2
330
9684
100
AcDbEntity
  8
AM_5
 62
     3
100
AcDbBlockReference
  2
_OPEN30
 10
31.47626781535938
 20
14.05939873135351
 30
0.0
 41
2.5
 42
2.5
 43
2.5
 50
39.0612106221244
  0
INSERT
  5
98E3
330
9684
100
AcDbEntity
  8
AM_5
 62
     3
100
AcDbBlockReference
  2
_OPEN30
 10
32.18830972029688
 20
14.83645611532807
 30
0.0
 41
2.5
 42
2.5
 43
2.5
 50
235.9387893777812
  0
MTEXT
  5
98E4
330
9684
100
AcDbEntity
  8
AM_5
 62
     2
100
AcDbMText
 10
19.70907075267742
 20
11.72931456809468
 30
0.0
 40
3.2
 41
0.0
 71
     5
 72
     1
  1
-5°
  7
ASAMI
 11
0.9328606598252115
 21
0.3602374069283631
 31
0.0
1001
ACAD
1000
MTEXTBEGIN
1070
    73
1070
     1
1070
    44
1040
1.0
1070
    74
1070
     0
1000
MTEXTEND
  0
POINT
  5
98E5
330
9684
100
AcDbEntity
  8
DEFPOINTS
 62
     0
100
AcDbPoint
 10
31.9585315217957
 20
14.5705683966594
 30
0.0
  0
POINT
  5
98E6
330
9684
100
AcDbEntity
  8
DEFPOINTS
 62
     0
100
AcDbPoint
 10
15.63694537715794
 20
28.72469983113676
 30
0.0
  0
POINT
  5
98E7
330
9684
100
AcDbEntity
  8
DEFPOINTS
 62
     0
100
AcDbPoint
 10
23.64062547905288
 20
21.89504106768581
 30
0.0
  0
POINT
  5
98E8
330
9684
100
AcDbEntity
  8
DEFPOINTS
 62
     0
100
AcDbPoint
 10
22.9335186978674
 20
22.60214784887363
 30
0.0
  0
POINT
  5
98E9
330
9684
100
AcDbEntity
  8
DEFPOINTS
 62
     0
100
AcDbPoint
 10
22.93351869786634
 20
22.60214784887235
 30
0.0
  0
ENDBLK
  5
9695
330
9684
100
AcDbEntity
  8
0
100
AcDbBlockEnd
  0
BLOCK
  5
97A7
330
9797
100
AcDbEntity
  8
0
100
AcDbBlockBegin
  2
*D11
 70
     1
 10
0.0
 20
0.0
 30
0.0
  3
*D11
  1

  0
LINE
  5
9927
330
9797
100
AcDbEntity
  8
AM_5
 62
     3
100
AcDbLine
 10
22.15990630557878
 20
-20.42206910226853
 30
0.0
 11
31.82206074594899
 21
-12.59781071019222
 31
0.0
  0
LINE
  5
9928
330
9797
100
AcDbEntity
  8
AM_5
 62
     3
100
AcDbLine
 10
22.30235772760083
 20
-20.13179210983934
 30
0.0
 11
30.88123356675348
 21
-11.55291627068628
 31
0.0
  0
ARC
  5
9929
330
9797
100
AcDbEntity
  8
AM_5
 62
     3
100
AcDbCircle
 10
21.38276034412182
 20
-21.05138949331839
 30
0.0
 40
12.43286965328368
100
AcDbArc
 50
15.79977026757421
 51
39.00000000000097
  0
LINE
  5
992A
330
9797
100
AcDbEntity
  8
AM_5
 62
     3
100
AcDbLine
 10
33.34590480897363
 20
-17.66621263994309
 30
0.0
 11
37.11680314038882
 21
-30.99248877113207
 31
0.0
  0
ARC
  5
992B
330
9797
100
AcDbEntity
  8
AM_5
 62
     3
100
AcDbCircle
 10
21.38276034412182
 20
-21.05138949331839
 30
0.0
 40
12.43286965328368
100
AcDbArc
 50
15.91894558034418
 51
27.45947279017257
  0
ARC
  5
992C
330
9797
100
AcDbEntity
  8
AM_5
 62
     3
100
AcDbCircle
 10
21.38276034412182
 20
-21.05138949331839
 30
0.0
 40
12.43286965328368
100
AcDbArc
 50
56.54052720982973
 51
68.08105441965811
  0
ARC
  5
992D
330
9797
100
AcDbEntity
  8
AM_5
 62
     3
100
AcDbCircle
 10
21.38276034412182
 20
-21.05138949331839
 30
0.0
 40
12.43286965328368
100
AcDbArc
 50
39.00000000000097
 51
45.00000000000134
  0
INSERT
  5
992E
330
9797
100
AcDbEntity
  8
AM_5
 62
     3
100
AcDbBlockReference
  2
_OPEN30
 10
31.04491478449203
 20
-13.22713110124207
 30
0.0
 41
2.5
 42
2.5
 43
2.5
 50
123.2297363950867
  0
INSERT
  5
992F
330
9797
100
AcDbEntity
  8
AM_5
 62
     3
100
AcDbBlockReference
  2
_OPEN30
 10
30.17412678556695
 20
-12.26002305187284
 30
0.0
 41
2.5
 42
2.5
 43
2.5
 50
320.7702636049155
  0
MTEXT
  5
9930
330
9797
100
AcDbEntity
  8
AM_5
 62
     2
100
AcDbMText
 10
38.21423313896538
 20
-23.48529389981922
 30
0.0
 40
3.2
 41
0.0
 71
     5
 72
     1
  1
-6°
  7
ASAMI
 11
0.2722763889414039
 21
-0.9622190852529527
 31
0.0
1001
ACAD
1000
MTEXTBEGIN
1070
    73
1070
     1
1070
    44
1040
1.0
1070
    74
1070
     0
1000
MTEXTEND
  0
POINT
  5
9931
330
9797
100
AcDbEntity
  8
DEFPOINTS
 62
     0
100
AcDbPoint
 10
30.47558558679932
 20
-12.57219277890791
 30
0.0
  0
POINT
  5
9932
330
9797
100
AcDbEntity
  8
DEFPOINTS
 62
     0
100
AcDbPoint
 10
21.38276034412169
 20
-21.05138949331851
 30
0.0
  0
POINT
  5
9933
330
9797
100
AcDbEntity
  8
DEFPOINTS
 62
     0
100
AcDbPoint
 10
13.98044506124452
 20
-27.04566621806801
 30
0.0
  0
POINT
  5
9934
330
9797
100
AcDbEntity
  8
DEFPOINTS
 62
     0
100
AcDbPoint
 10
21.38276034412155
 20
-21.0513894933186
 30
0.0
  0
POINT
  5
9935
330
9797
100
AcDbEntity
  8
DEFPOINTS
 62
     0
100
AcDbPoint
 10
21.59525094641429
 20
-20.8388988910259
 30
0.0
  0
ENDBLK
  5
97A8
330
9797
100
AcDbEntity
  8
0
100
AcDbBlockEnd
  0
BLOCK
  5
9952
330
9943
100
AcDbEntity
  8
0
100
AcDbBlockBegin
  2
*D12
 70
     1
 10
0.0
 20
0.0
 30
0.0
  3
*D12
  1

  0
LINE
  5
9A1B
330
9943
100
AcDbEntity
  8
AM_5
 62
     3
100
AcDbLine
 10
-0.0000000000000034
 20
1.331370850803182
 30
0.0
 11
-0.0000000000000009
 21
20.22173758349396
 31
0.0
  0
LINE
  5
9A1C
330
9943
100
AcDbEntity
  8
AM_5
 62
     3
100
AcDbLine
 10
-6.545242597140699
 20
6.87661344794388
 30
0.0
 11
-14.06461319697296
 21
14.39598404777615
 31
0.0
  0
ARC
  5
9A1D
330
9943
100
AcDbEntity
  8
AM_5
 62
     3
100
AcDbCircle
 10
-0.0000000000000035
 20
0.3313708508031825
 30
0.0
 40
18.89036673269078
100
AcDbArc
 50
74.82356751983127
 51
82.41178375991564
  0
ARC
  5
9A1E
330
9943
100
AcDbEntity
  8
AM_5
 62
     3
100
AcDbCircle
 10
-0.0000000000000035
 20
0.3313708508031825
 30
0.0
 40
18.89036673269078
100
AcDbArc
 50
142.5882162400843
 51
150.1764324801686
  0
ARC
  5
9A1F
330
9943
100
AcDbEntity
  8
AM_5
 62
     3
100
AcDbCircle
 10
-0.0000000000000035
 20
0.3313708508031825
 30
0.0
 40
18.89036673269078
100
AcDbArc
 50
90.0
 51
134.9999999999999
  0
INSERT
  5
9A20
330
9943
100
AcDbEntity
  8
AM_5
 62
     3
100
AcDbBlockReference
  2
_OPEN30
 10
-0.0000000000000009
 20
19.22173758349396
 30
0.0
 41
2.5
 42
2.5
 43
2.5
 50
176.2058918799578
  0
INSERT
  5
9A21
330
9943
100
AcDbEntity
  8
AM_5
 62
     3
100
AcDbBlockReference
  2
_OPEN30
 10
-13.35750641578641
 20
13.6888772665896
 30
0.0
 41
2.5
 42
2.5
 43
2.5
 50
48.79410812004215
  0
MTEXT
  5
9A22
330
9943
100
AcDbEntity
  8
AM_5
 62
     2
100
AcDbMText
 10
-8.415349020233191
 20
20.6478205875533
 30
0.0
 40
3.2
 41
0.0
 71
     5
 72
     1
  1
45°
  7
ASAMI
 11
0.9238795325112867
 21
0.3826834323650898
 31
0.0
1001
ACAD
1000
MTEXTBEGIN
1070
    73
1070
     1
1070
    44
1040
1.0
1070
    74
1070
     0
1000
MTEXTEND
  0
POINT
  5
9A23
330
9943
100
AcDbEntity
  8
DEFPOINTS
 62
     0
100
AcDbPoint
 10
-4.889186679391449
 20
18.57806394598105
 30
0.0
  0
POINT
  5
9A24
330
9943
100
AcDbEntity
  8
DEFPOINTS
 62
     0
100
AcDbPoint
 10
-0.0000000000000036
 20
-0.3313708489937852
 30
0.0
  0
POINT
  5
9A25
330
9943
100
AcDbEntity
  8
DEFPOINTS
 62
     0
100
AcDbPoint
 10
21.38276034412168
 20
-21.05138949331851
 30
0.0
  0
POINT
  5
9A26
330
9943
100
AcDbEntity
  8
DEFPOINTS
 62
     0
100
AcDbPoint
 10
-5.838135815954153
 20
6.169506666757332
 30
0.0
  0
POINT
  5
9A27
330
9943
100
AcDbEntity
  8
DEFPOINTS
 62
     0
100
AcDbPoint
 10
-0.0000000000000035
 20
0.3313708508031823
 30
0.0
  0
ENDBLK
  5
9953
330
9943
100
AcDbEntity
  8
0
100
AcDbBlockEnd
  0
ENDSEC
  0
SECTION
  2
ENTITIES
  0
TEXT
  5
C58
330
1F
100
AcDbEntity
  8
AM_6
100
AcDbText
 10
-77.49999999999999
 20
-44.49999999909539
 30
0.0
 40
5.0
  1
ESDNR1616H32
 50
0.0000000000002036
 72
     4
 11
-50.0
 21
-41.99999999909529
 31
0.0
100
AcDbText
  0
POINT
  5
68EE
330
1F
100
AcDbEntity
  8
0
 60
     1
100
AcDbPoint
 10
0.0
 20
0.0
 30
0.0
1001
GENIUS_GENOBJ-NBEHI-BHF_13
1002
{
1000
OWNER
1000
GENBEHI
1002
}
1001
GENIUS_GENOENT_13
1002
{
1000
MYREF
1005
68EE
1002
}
1002
{
1000
GRP
1005
0
1002
}
1001
GENIUS_GENOLIS_13
1002
{
1000
ENT
1005
68EB
1002
}
1001
GENIUS_GENBH_13
1002
{
1000
OIUMAP
1000
OIU
1002
}
1002
{
1000
FLAGS
1070
    32
1002
}
1002
{
1000
BGO
1005
68F2
1002
}
1001
GENIUS_GENODEF_13
1002
{
1000
HIER
1070
     1
1002
}
1002
{
1000
MANEDIT
1070
     1
1002
}
1002
{
1000
NOSEL
1070
     1
1002
}
1002
{
1000
BEHIND
1070
     0
1002
}
1002
{
1000
REACTOR
1002
}
  0
POINT
  5
68F2
330
1F
100
AcDbEntity
  8
0
 60
     1
100
AcDbPoint
 10
0.0
 20
0.0
 30
0.0
1001
GENIUS_GENOBJ-NBEHI-BHB_13
1002
{
1000
OWNER
1000
GENBEHI
1002
}
1001
GENIUS_GENOENT_13
1002
{
1000
MYREF
1005
68F2
1002
}
1002
{
1000
GRP
1005
0
1002
}
1001
GENIUS_GENOLIS_13
1002
{
1000
ENT
1002
}
1001
GENIUS_GENODEF_13
1002
{
1000
HIER
1070
     1
1002
}
1002
{
1000
MANEDIT
1070
     0
1002
}
1002
{
1000
NOSEL
1070
     1
1002
}
1002
{
1000
BEHIND
1070
     0
1002
}
1002
{
1000
REACTOR
1002
}
1002
{
1000
OTHER
1070
     1
1002
}
1001
GENIUS_GENBH_13
1002
{
1000
FGO
1005
68EE
1002
}
  0
LINE
  5
8E7A
330
1F
100
AcDbEntity
  8
AM_0
100
AcDbLine
 10
-100.0
 20
8.000000000904705
 30
0.0
 11
-100.0
 21
-7.999999999095294
 31
0.0
  0
DIMENSION
  5
8E9B
330
1F
100
AcDbEntity
  8
AM_5
100
AcDbDimension
  2
*D5
 10
-100.0
 20
-21.99999999909528
 30
0.0
 11
-50.0
 21
-18.89999999909528
 31
0.0
 70
    32
  3
AM_JIS
100
AcDbAlignedDimension
 13
-0.000000000000004
 23
-0.0324747920764796
 33
0.0
 14
-100.0
 24
-7.999999999095322
 34
0.0
 50
180.0
100
AcDbRotatedDimension
  0
DIMENSION
  5
8EA8
330
1F
100
AcDbEntity
  8
AM_5
100
AcDbDimension
  2
*D6
 10
10.08835680995578
 20
-7.999999999095299
 30
0.0
 11
6.988356809955782
 21
-3.999999999095297
 31
0.0
 70
    32
  3
AM_JIS
100
AcDbAlignedDimension
 13
-0.0706946776942244
 23
0.0000000009047039
 33
0.0
 14
-7.668629150101498
 24
-7.999999999095294
 34
0.0
 50
270.0
100
AcDbRotatedDimension
  0
DIMENSION
  5
904E
330
1F
100
AcDbEntity
  8
AM_5
100
AcDbDimension
  2
*D7
 10
-114.1912411586573
 20
-7.999999999095289
 30
0.0
 11
-117.2912411586574
 21
0.0000000009046917
 31
0.0
 70
    32
  3
AM_JIS
100
AcDbAlignedDimension
 13
-100.0
 23
8.000000000904705
 33
0.0
 14
-100.0
 24
-7.999999999095294
 34
0.0
 50
270.0
100
AcDbRotatedDimension
  0
POLYLINE
  5
90D0
330
1F
100
AcDbEntity
  8
AM_0
100
AcDb2dPolyline
 66
     1
 10
0.0
 20
0.0
 30
0.0
 70
     1
  0
VERTEX
  5
90D1
330
90D0
100
AcDbEntity
  8
AM_0
100
AcDbVertex
100
AcDb2dVertex
 10
-0.2343145750507643
 20
0.565685425853939
 30
0.0
  0
VERTEX
  5
90D2
330
90D0
100
AcDbEntity
  8
AM_0
100
AcDbVertex
100
AcDb2dVertex
 10
-5.83813581595415
 20
6.169506666757325
 30
0.0
 42
0.4142135623730951
  0
VERTEX
  5
90D3
330
90D0
100
AcDbEntity
  8
AM_0
100
AcDbVertex
100
AcDb2dVertex
 10
-6.969506665852624
 20
6.169506666757325
 30
0.0
  0
VERTEX
  5
90D4
330
90D0
100
AcDbEntity
  8
AM_0
100
AcDbVertex
100
AcDb2dVertex
 10
-12.57332790675603
 20
0.5656854258539177
 30
0.0
 42
0.4142135623730951
  0
VERTEX
  5
90D5
330
90D0
100
AcDbEntity
  8
AM_0
100
AcDbVertex
100
AcDb2dVertex
 10
-12.57332790675603
 20
-0.5656854240445562
 30
0.0
  0
VERTEX
  5
90D6
330
90D0
100
AcDbEntity
  8
AM_0
100
AcDbVertex
100
AcDb2dVertex
 10
-6.969506665852635
 20
-6.169506664947956
 30
0.0
 42
0.4142135623730946
  0
VERTEX
  5
90D7
330
90D0
100
AcDbEntity
  8
AM_0
100
AcDbVertex
100
AcDb2dVertex
 10
-5.838135815954161
 20
-6.169506664947956
 30
0.0
  0
VERTEX
  5
90D8
330
90D0
100
AcDbEntity
  8
AM_0
100
AcDbVertex
100
AcDb2dVertex
 10
-0.2343145750507643
 20
-0.5656854240445349
 30
0.0
 42
0.4142135623730951
  0
SEQEND
  5
90D9
330
90D0
100
AcDbEntity
  8
AM_0
  0
LINE
  5
90DD
330
1F
100
AcDbEntity
  8
AM_0
100
AcDbLine
 10
-21.13901333170528
 20
8.000000000904702
 30
0.0
 11
-6.403821240903396
 21
-6.735192089897194
 31
0.0
  0
LINE
  5
90F3
330
1F
100
AcDbEntity
  8
AM_0
100
AcDbLine
 10
5.479647628438931
 20
39.34891213711323
 30
0.0
 11
15.84477321647108
 21
28.98378654908107
 31
0.0
  0
LINE
  5
90F4
330
1F
100
AcDbEntity
  8
AM_0
100
AcDbLine
 10
32.93478448378786
 20
34.5211922797338
 30
0.0
 11
22.93351869786634
 21
22.60214784887236
 31
0.0
  0
LINE
  5
90F8
330
1F
100
AcDbEntity
  8
AM_0
100
AcDbLine
 10
31.19095673145251
 20
-33.16350332277069
 30
0.0
 11
21.38276034412168
 21
-21.05138949331851
 31
0.0
  0
LINE
  5
90FB
330
1F
100
AcDbEntity
  8
AM_0
100
AcDbLine
 10
21.0129641061843
 20
-20.71407895006934
 30
0.0
 11
17.68005895162174
 21
-24.046984104632
 31
0.0
  0
LINE
  5
90FC
330
1F
100
AcDbEntity
  8
AM_0
100
AcDbLine
 10
15.63694537715794
 20
28.72469983113676
 30
0.0
 11
22.93351869786634
 21
22.60214784887236
 31
0.0
  0
LINE
  5
90FE
330
1F
100
AcDbEntity
  8
AM_0
100
AcDbLine
 10
17.68100997596115
 20
31.16072116025511
 30
0.0
 11
15.63694537715794
 21
28.72469983113676
 31
0.0
  0
LINE
  5
90FF
330
1F
100
AcDbEntity
  8
AM_0
100
AcDbLine
 10
16.23019569635162
 20
32.37809888718227
 30
0.0
 11
24.97758329666957
 21
25.03816917799068
 31
0.0
  0
LINE
  5
9101
330
1F
100
AcDbEntity
  8
AM_0
100
AcDbLine
 10
16.23019569635162
 20
32.37809888718227
 30
0.0
 11
24.82955752410063
 21
42.62641923942104
 31
0.0
  0
LINE
  5
9107
330
1F
100
AcDbEntity
  8
AM_0
100
AcDbLine
 10
16.23019569635162
 20
32.37809888718227
 30
0.0
 11
8.331214786305755
 21
38.39473223634482
 31
0.0
  0
LINE
  5
9108
330
1F
100
AcDbEntity
  8
AM_0
100
AcDbLine
 10
8.33101807038175
 20
38.3945828879895
 30
0.0
 11
17.40009355694931
 21
30.78472499209175
 31
0.0
  0
LINE
  5
9109
330
1F
100
AcDbEntity
  8
AM_0
100
AcDbLine
 10
7.850788089047134
 20
37.88375858567504
 30
0.0
 11
16.95014223016874
 21
30.24849388190847
 31
0.0
  0
LINE
  5
910D
330
1F
100
AcDbEntity
  8
AM_0
100
AcDbLine
 10
13.98044506124452
 20
-27.04566621806801
 30
0.0
 11
21.38276034412155
 21
-21.0513894933186
 31
0.0
  0
LINE
  5
9110
330
1F
100
AcDbEntity
  8
AM_0
100
AcDbLine
 10
15.981683904783
 20
-29.51699037550118
 30
0.0
 11
13.98044506124452
 21
-27.04566621806801
 31
0.0
  0
LINE
  5
9111
330
1F
100
AcDbEntity
  8
AM_0
100
AcDbLine
 10
15.43768173176313
 20
-29.95751464923607
 30
0.0
 11
23.38399918766007
 21
-23.52271365075174
 31
0.0
  0
LINE
  5
9112
330
1F
100
AcDbEntity
  8
AM_0
100
AcDbLine
 10
22.94236275926342
 20
-41.41209729496003
 30
0.0
 11
12.81777294008315
 21
-28.90927011617073
 31
0.0
  0
CIRCLE
  5
9114
330
1F
100
AcDbEntity
  8
AM_0
100
AcDbCircle
 10
-6.403821240903391
 20
0.0000000009047008
 30
0.0
 40
1.5
  0
LINE
  5
9117
330
1F
100
AcDbEntity
  8
AM_0
100
AcDbLine
 10
15.43768173176312
 20
-29.95751464923607
 30
0.0
 11
14.99715745802824
 21
-29.41351247621619
 31
0.0
  0
LINE
  5
9118
330
1F
100
AcDbEntity
  8
AM_0
100
AcDbLine
 10
14.99715745802824
 20
-29.4135124762162
 30
0.0
 11
15.54115963104812
 21
-28.9729882024813
 31
0.0
  0
DIMENSION
  5
91A6
330
1F
100
AcDbEntity
  8
AM_5
100
AcDbDimension
  2
*D8
 10
36.55477843388924
 20
8.980888112849466
 30
0.0
 11
42.52594180049482
 21
14.98172553177045
 31
0.0
 70
   160
 51
44.99999999999995
  3
AM_JIS
100
AcDbAlignedDimension
 13
32.93478448378787
 23
34.52119227973381
 33
0.0
 14
22.93351869786634
 24
22.60214784887235
 34
0.0
 50
225.0000000000001
100
AcDbRotatedDimension
1001
ACAD
1000
DSTYLE
1002
{
1070
   287
1070
     4
1070
   279
1070
     1
1002
}
  0
LINE
  5
927D
330
1F
100
AcDbEntity
  8
AM_7
100
AcDbLine
 10
17.87669741279892
 20
24.01299163521871
 30
0.0
 11
33.23015809563365
 21
42.31053356274108
 31
0.0
  0
LINE
  5
927E
330
1F
100
AcDbEntity
  8
AM_7
100
AcDbLine
 10
16.22853906260553
 20
-22.29560028174796
 30
0.0
 11
31.45101095171059
 21
-41.09378753303865
 31
0.0
  0
LINE
  5
927F
330
1F
100
AcDbEntity
  8
AM_0
100
AcDbLine
 10
30.59633282758185
 20
36.83807709698429
 30
0.0
 11
33.91895567341723
 21
40.79782481034423
 31
0.0
  0
LINE
  5
9280
330
1F
100
AcDbEntity
  8
AM_0
100
AcDbLine
 10
28.46690938493241
 20
38.96750053963371
 30
0.0
 11
31.62082234406029
 21
42.72618763940384
 31
0.0
  0
LINE
  5
9282
330
1F
100
AcDbEntity
  8
AM_0
100
AcDbLine
 10
26.71975878057356
 20
-37.63470127364977
 30
0.0
 11
29.71133664372566
 21
-41.32899227040947
 31
0.0
  0
LINE
  5
9284
330
1F
100
AcDbEntity
  8
AM_0
100
AcDbLine
 10
28.85276394962929
 20
-35.50169610459398
 30
0.0
 11
32.04277452809654
 21
-39.44103109725992
 31
0.0
  0
LINE
  5
9287
330
1F
100
AcDbEntity
  8
AM_0
100
AcDbLine
 10
-100.0
 20
-7.999999999095294
 30
0.0
 11
-7.668629150101499
 21
-7.999999999095294
 31
0.0
  0
LINE
  5
9288
330
1F
100
AcDbEntity
  8
AM_0
100
AcDbLine
 10
-100.0
 20
8.000000000904703
 30
0.0
 11
-8.138714463996368
 21
8.000000000904703
 31
0.0
  0
LINE
  5
92A3
330
1F
100
AcDbEntity
  8
AM_0
100
AcDbLine
 10
-6.599799606060852
 20
-6.539213724739741
 30
0.0
 11
-6.462269164663263
 21
-6.401683283342152
 31
0.0
  0
LINE
  5
92A6
330
1F
100
AcDbEntity
  8
AM_0
100
AcDbLine
 10
-6.532172329034851
 20
6.393457865943183
 30
0.0
 11
-8.13871446399637
 21
8.000000000904703
 31
0.0
  0
LINE
  5
92B2
330
1F
100
AcDbEntity
  8
AM_0
100
AcDbLine
 10
16.2367490227665
 20
51.21922774075517
 30
0.0
 11
32.93666418487443
 21
34.51931257864724
 31
0.0
  0
LINE
  5
92E9
330
1F
100
AcDbEntity
  8
AM_0
100
AcDbLine
 10
15.44557911671924
 20
-48.90888093750447
 30
0.0
 11
31.1909567314525
 21
-33.16350332277069
 31
0.0
  0
LINE
  5
9319
330
1F
100
AcDbEntity
  8
AM_0
100
AcDbLine
 10
-6.403821240903395
 20
-6.735192089897191
 30
0.0
 11
-7.668629150101498
 21
-7.999999999095294
 31
0.0
  0
LINE
  5
93C7
330
1F
100
AcDbEntity
  8
AM_5
100
AcDbLine
 10
21.38276034412168
 20
-21.05138949331851
 30
0.0
 11
-5.838135815954153
 21
6.169506666757332
 31
0.0
  0
LINE
  5
93C8
330
1F
100
AcDbEntity
  8
AM_5
100
AcDbLine
 10
22.93351869786624
 20
22.60214784887246
 30
0.0
 11
-5.838135815954171
 21
-6.169506664947952
 31
0.0
  0
LINE
  5
93C9
330
1F
100
AcDbEntity
  8
AM_0
100
AcDbLine
 10
14.29407550052076
 20
-27.43296755573308
 30
0.0
 11
4.601360442680335
 21
-37.12568261357381
 31
0.0
  0
LINE
  5
93CA
330
1F
100
AcDbEntity
  8
AM_0
100
AcDbLine
 10
31.62082234406029
 20
42.72618763940383
 30
0.0
 11
33.91895567341723
 21
40.79782481034422
 31
0.0
  0
LINE
  5
93CC
330
1F
100
AcDbEntity
  8
AM_0
100
AcDbLine
 10
29.71133664372566
 20
-41.32899227040947
 30
0.0
 11
32.04277452809655
 21
-39.44103109725992
 31
0.0
  0
LINE
  5
94F3
330
1F
100
AcDbEntity
  8
AM_0
100
AcDbLine
 10
7.83729073808712
 20
37.89661883106822
 30
0.0
 11
8.322559615126225
 21
38.40592826826244
 31
0.0
  0
LINE
  5
94F4
330
1F
100
AcDbEntity
  8
AM_0
100
AcDbLine
 10
7.844773216471046
 20
36.98378654908113
 30
0.0
 11
8.344350288038398
 21
37.48336362064849
 31
0.0
  0
LINE
  5
94F6
330
1F
100
AcDbEntity
  8
AM_11
100
AcDbLine
 10
-0.0000000000000036
 20
-0.3313708489937852
 30
0.0
 11
-0.0000000000000036
 21
0.3313708508031823
 31
0.0
  0
DIMENSION
  5
95F3
330
1F
100
AcDbEntity
  8
AM_5
100
AcDbDimension
  2
*D9
 10
13.59499800098562
 20
53.86097876253606
 30
0.0
 11
5.746112729814942
 21
50.39615553472199
 31
0.0
 70
    32
  1
<>
  3
AM_JIS
100
AcDbAlignedDimension
 13
5.479647628438932
 23
39.34891213711323
 33
0.0
 14
16.2367490227665
 24
51.21922774075517
 34
0.0
 50
224.9999999999999
100
AcDbRotatedDimension
1001
GENIUS_GENDTOL_13
1000

1000
h7
1000

1040
0.0
  0
DIMENSION
  5
9683
330
1F
100
AcDbEntity
  8
AM_5
100
AcDbDimension
  2
*D10
 10
22.93351869786634
 20
22.60214784887236
 30
0.0
 11
19.70907075267742
 21
11.72931456809468
 31
0.0
 70
    34
  1
-<>
  3
AM_JIS$2
100
AcDb2LineAngularDimension
 13
23.64062547905288
 23
21.89504106768581
 33
0.0
 14
22.9335186978674
 24
22.60214784887363
 34
0.0
 15
15.63694537715794
 25
28.72469983113676
 35
0.0
 16
31.9585315217957
 26
14.5705683966594
 36
0.0
1001
ACAD
1000
DSTYLE
1002
{
1070
   179
1070
     3
1002
}
1001
GENIUS_GENDTOL_13
1000

1000
h7
1000

1040
0.0
  0
DIMENSION
  5
9796
330
1F
100
AcDbEntity
  8
AM_5
100
AcDbDimension
  2
*D11
 10
21.59525094641429
 20
-20.8388988910259
 30
0.0
 11
38.21423313896538
 21
-23.48529389981923
 31
0.0
 70
    34
  1
-<>
  3
AM_JIS$2
100
AcDb2LineAngularDimension
 13
13.98044506124452
 23
-27.04566621806801
 33
0.0
 14
21.38276034412155
 24
-21.0513894933186
 34
0.0
 15
21.38276034412168
 25
-21.05138949331851
 35
0.0
 16
30.47558558679932
 26
-12.57219277890791
 36
0.0
1001
ACAD
1000
DSTYLE
1002
{
1070
   179
1070
     3
1002
}
1001
GENIUS_GENDTOL_13
1000

1000
h7
1000

1040
0.0
  0
DIMENSION
  5
9942
330
1F
100
AcDbEntity
  8
AM_5
100
AcDbDimension
  2
*D12
 10
-0.0000000000000036
 20
0.3313708508031823
 30
0.0
 11
-8.41534902023319
 21
20.6478205875533
 31
0.0
 70
    34
  1
<>
  3
AM_JIS$2
100
AcDb2LineAngularDimension
 13
21.38276034412168
 23
-21.05138949331851
 33
0.0
 14
-5.838135815954153
 24
6.169506666757332
 34
0.0
 15
-0.0000000000000036
 25
-0.3313708489937852
 35
0.0
 16
-4.889186679391449
 26
18.57806394598105
 36
0.0
1001
ACAD
1000
DSTYLE
1002
{
1070
   179
1070
     3
1002
}
1001
GENIUS_GENDTOL_13
1000

1000
h7
1000

1040
0.0
  0
VIEWPORT
  5
110
330
101
100
AcDbEntity
 67
     1
  8
0
100
AcDbViewport
 10
420.5
 20
297.0
 30
0.0
 40
948.9782706766916
 41
628.452
 68
     1
 69
     1
1001
ACAD
1000
MVIEW
1002
{
1070
    16
1010
0.0
1020
0.0
1030
0.0
1010
0.0
1020
0.0
1030
1.0
1040
0.0
1040
628.452
1040
420.5
1040
297.0
1040
50.0
1040
0.0
1040
0.0
1070
     0
1070
   100
1070
     1
1070
     1
1070
     0
1070
     0
1070
     0
1070
     0
1040
0.0
1040
0.0
1040
0.0
1040
10.0
1040
10.0
1040
10.0
1040
10.0
1070
     0
1002
{
1002
}
1002
}
  0
ENDSEC
  0
SECTION
  2
OBJECTS
  0
DICTIONARY
  5
C
330
0
100
AcDbDictionary
  3
ACAD_GROUP
350
D
  3
ACAD_LAYOUT
350
1A
  3
ACAD_MLINESTYLE
350
17
  3
ACAD_PLOTSETTINGS
350
19
  3
ACAD_PLOTSTYLENAME
350
E
  3
ACDBVARIABLEDICTIONARY
350
34
  3
ACMDICTIONARY
350
43
  3
AMG
350
2B
  3
AMGSNAPSETTINGS
350
6E
  3
DWGPROPS
350
9A56
  3
ACDBHEADERROUNDTRIPXREC
350
9A62
  0
DICTIONARY
  5
74
330
1F
100
AcDbDictionary
280
     1
  3
ACAD_INDEX
360
9A58
  3
ACAD_LAYOUTSELFREF
360
9A85
  0
DICTIONARY
  5
9A8A
330
101
100
AcDbDictionary
280
     1
  3
ACAD_LAYOUTSELFREF
360
9A8B
  0
DICTIONARY
  5
D
102
{ACAD_REACTORS
330
C
102
}
330
C
100
AcDbDictionary
  3
*A1
350
8AC5
  3
*A2
350
8B73
  3
*A3
350
8D58
  0
DICTIONARY
  5
1A
102
{ACAD_REACTORS
330
C
102
}
330
C
100
AcDbDictionary
  0
DICTIONARY
  5
17
102
{ACAD_REACTORS
330
C
102
}
330
C
100
AcDbDictionary
  3
STANDARD
350
18
  0
DICTIONARY
  5
19
102
{ACAD_REACTORS
330
C
102
}
330
C
100
AcDbDictionary
  0
ACDBDICTIONARYWDFLT
  5
E
102
{ACAD_REACTORS
330
C
102
}
330
C
100
AcDbDictionary
281
     1
  3
Normal
350
F
100
AcDbDictionaryWithDefault
340
F
  0
DICTIONARY
  5
34
102
{ACAD_REACTORS
330
C
102
}
330
C
100
AcDbDictionary
  3
INDEXCTL
350
35
  3
SORTENTS
350
B5E
  0
DICTIONARY
  5
43
102
{ACAD_REACTORS
330
C
102
}
330
C
100
AcDbDictionary
  3
ACMSTDDICTIONARY
350
260
  0
DICTIONARY
  5
2B
102
{ACAD_REACTORS
330
C
102
}
330
C
100
AcDbDictionary
  3
ACMGSETTINGS
350
2C
  0
DICTIONARY
  5
6E
102
{ACAD_REACTORS
330
C
102
}
330
C
100
AcDbDictionary
  0
XRECORD
  5
9A56
102
{ACAD_REACTORS
330
C
102
}
330
C
100
AcDbXrecord
  1
DWGPROPS COOKIE
  2

  3

  4

  6

  7

  8

  9

300
AmdtFileType=82
301
=
302
=
303
=
304
=
305
=
306
=
307
=
308
=
309
=
 40
1.97654886574074
 41
2452838.620506898
 42
2452909.483019189
  1

 90
        1
  0
DICTIONARY
  5
9A62
102
{ACAD_REACTORS
330
C
102
}
330
C
100
AcDbDictionary
  3
TSTACKALIGN
350
9A63
  3
TSTACKSIZE
350
9A64
  3
HYPERLINKBASE
350
9A65
  3
STYLESHEET
350
9A66
  3
LAYOUTDICT
350
9A67
  3
PLOTSETDICT
350
9A68
  3
PLOTSTYLNAMDICT
350
9A69
  3
LWETCUNION
350
9A6A
  3
INSUNITS
350
9A6B
  3
CEPSNTYPE
350
9A6C
  3
FINGERPRINTGUID
350
9A6D
  3
VERSIONGUID
350
9A6E
  3
PSVPSCALE
350
9A6F
  3
DIMSTYLEDATA
350
9A70
  3
PUCSORTHOREF
350
9A71
  3
PUCSORTHOVIEW
350
9A72
  3
PUCSBASE
350
9A73
  3
PUCSORGTOP
350
9A74
  3
PUCSORGBOTTOM
350
9A75
  3
PUCSORGLEFT
350
9A76
  3
PUCSORGRIGHT
350
9A77
  3
PUCSORGFRONT
350
9A78
  3
PUCSORGBACK
350
9A79
  3
UCSORTHOREF
350
9A7A
  3
UCSORTHOVIEW
350
9A7B
  3
UCSBASE
350
9A7C
  3
UCSORGTOP
350
9A7D
  3
UCSORGBOTTOM
350
9A7E
  3
UCSORGLEFT
350
9A7F
  3
UCSORGRIGHT
350
9A80
  3
UCSORGFRONT
350
9A81
  3
UCSORGBACK
350
9A82
  0
DICTIONARY
  5
9A58
102
{ACAD_REACTORS
330
74
102
}
330
74
100
AcDbDictionary
  3
*A1
350
9A59
  0
XRECORD
  5
9A85
102
{ACAD_REACTORS
330
74
102
}
330
74
100
AcDbXrecord
340
1F
  0
XRECORD
  5
9A8B
102
{ACAD_REACTORS
330
9A8A
102
}
330
9A8A
100
AcDbXrecord
340
101
  0
GROUP
  5
8AC5
102
{ACAD_REACTORS
330
D
102
}
330
D
100
AcDbGroup
300

 70
     1
 71
     1
  0
GROUP
  5
8B73
102
{ACAD_REACTORS
330
D
102
}
330
D
100
AcDbGroup
300

 70
     1
 71
     1
  0
GROUP
  5
8D58
102
{ACAD_REACTORS
330
D
102
}
330
D
100
AcDbGroup
300

 70
     1
 71
     1
  0
MLINESTYLE
  5
18
102
{ACAD_REACTORS
330
17
102
}
330
17
100
AcDbMlineStyle
  2
STANDARD
 70
     0
  3

 62
   256
 51
90.0
 52
90.0
 71
     2
 49
0.5
 62
   256
  6
BYLAYER
 49
-0.5
 62
   256
  6
BYLAYER
  0
ACDBPLACEHOLDER
  5
F
102
{ACAD_REACTORS
330
E
102
}
330
E
100
AcDbPlaceHolder
280
     0
  0
DICTIONARYVAR
  5
35
102
{ACAD_REACTORS
330
34
102
}
330
34
100
DictionaryVariables
280
     0
  1
1
  0
DICTIONARYVAR
  5
B5E
102
{ACAD_REACTORS
330
34
102
}
330
34
100
DictionaryVariables
280
     0
  1
96
  0
DICTIONARY
  5
260
102
{ACAD_REACTORS
330
43
102
}
330
43
100
AcDbDictionary
  0
DICTIONARY
  5
2C
102
{ACAD_REACTORS
330
2B
102
}
330
2B
100
AcDbDictionary
  3
DWGSETTINGS
350
2D
  0
XRECORD
  5
9A63
102
{ACAD_REACTORS
330
9A62
102
}
330
9A62
100
AcDbXrecord
 90
        1
  0
XRECORD
  5
9A64
102
{ACAD_REACTORS
330
9A62
102
}
330
9A62
100
AcDbXrecord
 90
       70
  0
XRECORD
  5
9A65
102
{ACAD_REACTORS
330
9A62
102
}
330
9A62
100
AcDbXrecord
  1

  0
XRECORD
  5
9A66
102
{ACAD_REACTORS
330
9A62
102
}
330
9A62
100
AcDbXrecord
  1
ASAMI.ctb
  0
XRECORD
  5
9A67
102
{ACAD_REACTORS
330
9A62
102
}
330
9A62
100
AcDbXrecord
340
1A
  0
XRECORD
  5
9A68
102
{ACAD_REACTORS
330
9A62
102
}
330
9A62
100
AcDbXrecord
340
19
  0
XRECORD
  5
9A69
102
{ACAD_REACTORS
330
9A62
102
}
330
9A62
100
AcDbXrecord
340
E
  0
XRECORD
  5
9A6A
102
{ACAD_REACTORS
330
9A62
102
}
330
9A62
100
AcDbXrecord
 90
    10781
  0
XRECORD
  5
9A6B
102
{ACAD_REACTORS
330
9A62
102
}
330
9A62
100
AcDbXrecord
 90
        4
  0
XRECORD
  5
9A6C
102
{ACAD_REACTORS
330
9A62
102
}
330
9A62
100
AcDbXrecord
 90
        0
  0
XRECORD
  5
9A6D
102
{ACAD_REACTORS
330
9A62
102
}
330
9A62
100
AcDbXrecord
  1
{AFB28963-8C59-40AE-9337-C84526B81ACE}
  0
XRECORD
  5
9A6E
102
{ACAD_REACTORS
330
9A62
102
}
330
9A62
100
AcDbXrecord
  1
{3DAF87EC-C31A-4C19-9E64-66C28B0152C1}
  0
XRECORD
  5
9A6F
102
{ACAD_REACTORS
330
9A62
102
}
330
9A62
100
AcDbXrecord
 40
0.0
  0
XRECORD
  5
9A70
102
{ACAD_REACTORS
330
9A62
102
}
330
9A62
100
AcDbXrecord
1000
DSTYLE
1002
{
1070
    79
 70
     2
1070
   341
340
59
1070
   342
340
59
1070
   371
 70
    -1
1070
   372
 70
    -1
1002
}
  0
XRECORD
  5
9A71
102
{ACAD_REACTORS
330
9A62
102
}
330
9A62
100
AcDbXrecord
340
0
  0
XRECORD
  5
9A72
102
{ACAD_REACTORS
330
9A62
102
}
330
9A62
100
AcDbXrecord
 70
     0
  0
XRECORD
  5
9A73
102
{ACAD_REACTORS
330
9A62
102
}
330
9A62
100
AcDbXrecord
340
0
  0
XRECORD
  5
9A74
102
{ACAD_REACTORS
330
9A62
102
}
330
9A62
100
AcDbXrecord
 10
0.0
 20
0.0
 30
0.0
  0
XRECORD
  5
9A75
102
{ACAD_REACTORS
330
9A62
102
}
330
9A62
100
AcDbXrecord
 10
0.0
 20
0.0
 30
0.0
  0
XRECORD
  5
9A76
102
{ACAD_REACTORS
330
9A62
102
}
330
9A62
100
AcDbXrecord
 10
0.0
 20
0.0
 30
0.0
  0
XRECORD
  5
9A77
102
{ACAD_REACTORS
330
9A62
102
}
330
9A62
100
AcDbXrecord
 10
0.0
 20
0.0
 30
0.0
  0
XRECORD
  5
9A78
102
{ACAD_REACTORS
330
9A62
102
}
330
9A62
100
AcDbXrecord
 10
0.0
 20
0.0
 30
0.0
  0
XRECORD
  5
9A79
102
{ACAD_REACTORS
330
9A62
102
}
330
9A62
100
AcDbXrecord
 10
0.0
 20
0.0
 30
0.0
  0
XRECORD
  5
9A7A
102
{ACAD_REACTORS
330
9A62
102
}
330
9A62
100
AcDbXrecord
340
0
  0
XRECORD
  5
9A7B
102
{ACAD_REACTORS
330
9A62
102
}
330
9A62
100
AcDbXrecord
 70
     0
  0
XRECORD
  5
9A7C
102
{ACAD_REACTORS
330
9A62
102
}
330
9A62
100
AcDbXrecord
340
0
  0
XRECORD
  5
9A7D
102
{ACAD_REACTORS
330
9A62
102
}
330
9A62
100
AcDbXrecord
 10
0.0
 20
0.0
 30
0.0
  0
XRECORD
  5
9A7E
102
{ACAD_REACTORS
330
9A62
102
}
330
9A62
100
AcDbXrecord
 10
0.0
 20
0.0
 30
0.0
  0
XRECORD
  5
9A7F
102
{ACAD_REACTORS
330
9A62
102
}
330
9A62
100
AcDbXrecord
 10
0.0
 20
0.0
 30
0.0
  0
XRECORD
  5
9A80
102
{ACAD_REACTORS
330
9A62
102
}
330
9A62
100
AcDbXrecord
 10
0.0
 20
0.0
 30
0.0
  0
XRECORD
  5
9A81
102
{ACAD_REACTORS
330
9A62
102
}
330
9A62
100
AcDbXrecord
 10
0.0
 20
0.0
 30
0.0
  0
XRECORD
  5
9A82
102
{ACAD_REACTORS
330
9A62
102
}
330
9A62
100
AcDbXrecord
 10
0.0
 20
0.0
 30
0.0
  0
LAYER_INDEX
  5
9A59
102
{ACAD_REACTORS
330
9A58
102
}
330
9A58
100
AcDbIndex
 40
2452941.590813252
100
AcDbLayerIndex
  8
0
360
9A5A
 90
        2
  8
AM_0
360
9A5B
 90
       37
  8
AM_11
360
9A5C
 90
        1
  8
AM_7
360
9A5D
 90
        2
  8
AM_5
360
9A5E
 90
       10
  8
Defpoints
360
9A5F
 90
        0
  8
AM_6
360
9A60
 90
        1
  0
XRECORD
  5
2D
102
{ACAD_REACTORS
330
2C
102
}
330
2C
100
AcDbXrecord
  1
VERSION
140
15.0
  1
PRODUCT
  2
AutoCAD Mechanical 2000
  0
IDBUFFER
  5
9A5A
330
0
100
AcDbIdBuffer
330
68EE
330
68F2
  0
IDBUFFER
  5
9A5B
330
0
100
AcDbIdBuffer
330
9111
330
9112
330
9114
330
9117
330
9118
330
927F
330
9280
330
9282
330
9284
330
9287
330
9288
330
92A3
330
92A6
330
92B2
330
92E9
330
9319
330
93C9
330
93CA
330
93CC
330
94F3
330
94F4
330
8E7A
330
90D0
330
90DD
330
90F3
330
90F4
330
90F8
330
90FB
330
90FC
330
90FE
330
90FF
330
9101
330
9107
330
9108
330
9109
330
910D
330
9110
  0
IDBUFFER
  5
9A5C
330
0
100
AcDbIdBuffer
330
94F6
  0
IDBUFFER
  5
9A5D
330
0
100
AcDbIdBuffer
330
927D
330
927E
  0
IDBUFFER
  5
9A5E
330
0
100
AcDbIdBuffer
330
8E9B
330
8EA8
330
904E
330
91A6
330
93C7
330
93C8
330
95F3
330
9683
330
9796
330
9942
  0
IDBUFFER
  5
9A5F
330
0
100
AcDbIdBuffer
  0
IDBUFFER
  5
9A60
330
0
100
AcDbIdBuffer
330
C58
  0
ENDSEC
  0
EOF
