  0
SECTION
  2
HEADER
  9
$ACADVER
  1
AC1014
  9
$ACADMAINTVER
 70
     9
  9
$DWGCODEPAGE
  3
ANSI_932
  9
$INSBASE
 10
0.0
 20
0.0
 30
0.0
  9
$EXTMIN
 10
-98.7
 20
-38.50000000000006
 30
0.0
  9
$EXTMAX
 10
59.08059249616613
 20
56.6321918782879
 30
0.0
  9
$LIMMIN
 10
-116.0127379093837
 20
-54.05111133341893
  9
$LIMMAX
 10
76.64529820623624
 20
61.03399680929396
  9
$ORTHOMODE
 70
     0
  9
$REGENMODE
 70
     1
  9
$FILLMODE
 70
     1
  9
$QTEXTMODE
 70
     0
  9
$MIRRTEXT
 70
     0
  9
$DRAGMODE
 70
     2
  9
$LTSCALE
 40
1.0
  9
$OSMODE
 70
  2103
  9
$ATTMODE
 70
     1
  9
$TEXTSIZE
 40
2.5
  9
$TRACEWID
 40
1.0
  9
$TEXTSTYLE
  7
STANDARD
  9
$CLAYER
  8
AM_0
  9
$CELTYPE
  6
BYLAYER
  9
$CECOLOR
 62
   256
  9
$CELTSCALE
 40
1.0
  9
$DELOBJ
 70
     1
  9
$DISPSILH
 70
     0
  9
$DIMSCALE
 40
1.0
  9
$DIMASZ
 40
2.5
  9
$DIMEXO
 40
1.0
  9
$DIMDLI
 40
12.0
  9
$DIMRND
 40
0.0
  9
$DIMDLE
 40
0.0
  9
$DIMEXE
 40
1.0
  9
$DIMTP
 40
0.1
  9
$DIMTM
 40
0.1
  9
$DIMTXT
 40
3.2
  9
$DIMCEN
 40
0.0
  9
$DIMTSZ
 40
0.0
  9
$DIMTOL
 70
     0
  9
$DIMLIM
 70
     0
  9
$DIMTIH
 70
     0
  9
$DIMTOH
 70
     0
  9
$DIMSE1
 70
     0
  9
$DIMSE2
 70
     0
  9
$DIMTAD
 70
     3
  9
$DIMZIN
 70
     8
  9
$DIMBLK
  1
OPEN30
  9
$DIMASO
 70
     1
  9
$DIMSHO
 70
     1
  9
$DIMPOST
  1

  9
$DIMAPOST
  1
"
  9
$DIMALT
 70
     0
  9
$DIMALTD
 70
     2
  9
$DIMALTF
 40
0.0393701
  9
$DIMLFAC
 40
1.0
  9
$DIMTOFL
 70
     1
  9
$DIMTVP
 40
0.0
  9
$DIMTIX
 70
     0
  9
$DIMSOXD
 70
     0
  9
$DIMSAH
 70
     0
  9
$DIMBLK1
  1

  9
$DIMBLK2
  1

  9
$DIMSTYLE
  2
AM_JIS
  9
$DIMCLRD
 70
     3
  9
$DIMCLRE
 70
     3
  9
$DIMCLRT
 70
     2
  9
$DIMTFAC
 40
0.71
  9
$DIMGAP
 40
1.5
  9
$DIMJUST
 70
     0
  9
$DIMSD1
 70
     0
  9
$DIMSD2
 70
     0
  9
$DIMTOLJ
 70
     0
  9
$DIMTZIN
 70
     0
  9
$DIMALTZ
 70
     0
  9
$DIMALTTZ
 70
     0
  9
$DIMFIT
 70
     3
  9
$DIMUPT
 70
     0
  9
$DIMUNIT
 70
     2
  9
$DIMDEC
 70
     3
  9
$DIMTDEC
 70
     3
  9
$DIMALTU
 70
     2
  9
$DIMALTTD
 70
     2
  9
$DIMTXSTY
  7
ASAMI
  9
$DIMAUNIT
 70
     0
  9
$LUNITS
 70
     2
  9
$LUPREC
 70
     2
  9
$SKETCHINC
 40
1.0
  9
$FILLETRAD
 40
0.8
  9
$AUNITS
 70
     0
  9
$AUPREC
 70
     0
  9
$MENU
  1
.
  9
$ELEVATION
 40
0.0
  9
$PELEVATION
 40
0.0
  9
$THICKNESS
 40
0.0
  9
$LIMCHECK
 70
     0
  9
$BLIPMODE
 70
     0
  9
$CHAMFERA
 40
2.5
  9
$CHAMFERB
 40
2.5
  9
$CHAMFERC
 40
20.0
  9
$CHAMFERD
 40
0.0
  9
$SKPOLY
 70
     0
  9
$TDCREATE
 40
2452838.620506898
  9
$TDUPDATE
 40
2452941.591245289
  9
$TDINDWG
 40
1.1788172454
  9
$TDUSRTIMER
 40
1.1788172454
  9
$USRTIMER
 70
     1
  9
$ANGBASE
 50
0.0
  9
$ANGDIR
 70
     0
  9
$PDMODE
 70
     0
  9
$PDSIZE
 40
0.0
  9
$PLINEWID
 40
0.0
  9
$COORDS
 70
     0
  9
$SPLFRAME
 70
     0
  9
$SPLINETYPE
 70
     6
  9
$SPLINESEGS
 70
     8
  9
$ATTDIA
 70
     1
  9
$ATTREQ
 70
     1
  9
$HANDLING
 70
 12289
  9
$HANDSEED
  5
8CE3
  9
$SURFTAB1
 70
     6
  9
$SURFTAB2
 70
     6
  9
$SURFTYPE
 70
     6
  9
$SURFU
 70
     6
  9
$SURFV
 70
     6
  9
$UCSNAME
  2

  9
$UCSORG
 10
0.0
 20
0.0
 30
0.0
  9
$UCSXDIR
 10
1.0
 20
0.0
 30
0.0
  9
$UCSYDIR
 10
0.0
 20
1.0
 30
0.0
  9
$PUCSNAME
  2

  9
$PUCSORG
 10
0.0
 20
0.0
 30
0.0
  9
$PUCSXDIR
 10
1.0
 20
0.0
 30
0.0
  9
$PUCSYDIR
 10
0.0
 20
1.0
 30
0.0
  9
$USERI1
 70
     0
  9
$USERI2
 70
     0
  9
$USERI3
 70
     0
  9
$USERI4
 70
     0
  9
$USERI5
 70
     0
  9
$USERR1
 40
0.0
  9
$USERR2
 40
0.0
  9
$USERR3
 40
0.0
  9
$USERR4
 40
0.0
  9
$USERR5
 40
0.0
  9
$WORLDVIEW
 70
     1
  9
$SHADEDGE
 70
     3
  9
$SHADEDIF
 70
    70
  9
$TILEMODE
 70
     1
  9
$MAXACTVP
 70
    64
  9
$PINSBASE
 10
0.0
 20
0.0
 30
0.0
  9
$PLIMCHECK
 70
     0
  9
$PEXTMIN
 10
1.000000000000000E+20
 20
1.000000000000000E+20
 30
1.000000000000000E+20
  9
$PEXTMAX
 10
-1.000000000000000E+20
 20
-1.000000000000000E+20
 30
-1.000000000000000E+20
  9
$PLIMMIN
 10
0.0
 20
0.0
  9
$PLIMMAX
 10
841.0
 20
594.0
  9
$UNITMODE
 70
     0
  9
$VISRETAIN
 70
     1
  9
$PLINEGEN
 70
     0
  9
$PSLTSCALE
 70
     0
  9
$TREEDEPTH
 70
  3020
  9
$PICKSTYLE
 70
     0
  9
$CMLSTYLE
  2
STANDARD
  9
$CMLJUST
 70
     0
  9
$CMLSCALE
 40
20.0
  9
$PROXYGRAPHICS
 70
     1
  9
$MEASUREMENT
 70
     1
  0
ENDSEC
  0
SECTION
  2
CLASSES
  0
CLASS
  1
ACDBDICTIONARYWDFLT
  2
AcDbDictionaryWithDefault
  3
AutoCAD 2000
 90
        0
280
     0
281
     0
  0
CLASS
  1
ACDBPLACEHOLDER
  2
AcDbPlaceHolder
  3
AutoCAD 2000
 90
        0
280
     0
281
     0
  0
CLASS
  1
LAYOUT
  2
AcDbLayout
  3
AutoCAD 2000
 90
        0
280
     0
281
     0
  0
CLASS
  1
AMGSETTINGSOBJ
  2
AmgSettingsObj
  3
"AcadM|Product Description: AutoCAD Mechanical 2000|Company: Autodesk"
 90
        0
280
     0
281
     0
  0
CLASS
  1
ACME_DOCUMENT
  2
AcMeDbDoc
  3
AcMeServices
 90
        0
280
     0
281
     0
  0
CLASS
  1
ACMESCOPE
  2
AcMeScope
  3
AcMeServices
 90
        0
280
     0
281
     0
  0
CLASS
  1
ACMECOMMANDHISTORY
  2
AcMeCommandHistory
  3
AcMeServices
 90
        0
280
     0
281
     0
  0
CLASS
  1
DICTIONARYVAR
  2
AcDbDictionaryVar
  3
AutoCAD 2000
 90
        0
280
     0
281
     0
  0
CLASS
  1
ACIMSYSVARMAN
  2
AcImSysVarManager
  3
AcMeServices
 90
        0
280
     0
281
     0
  0
CLASS
  1
ACIMREALSYSVAR
  2
AcImRealSysVar
  3
AcMeServices
 90
        0
280
     0
281
     0
  0
CLASS
  1
ACIMINTSYSVAR
  2
AcImIntSysVar
  3
AcMeServices
 90
        0
280
     0
281
     0
  0
CLASS
  1
ACMEDRAWINGMAN
  2
AcMeDrawingMan
  3
AcMeServices
 90
        0
280
     0
281
     0
  0
CLASS
  1
ACMEVIEW
  2
AcMeView
  3
AcMeServices
 90
        0
280
     0
281
     0
  0
CLASS
  1
ACDBENTITYCACHE
  2
AcMeEntityCache
  3
AcMeServices
 90
        0
280
     0
281
     0
  0
CLASS
  1
GSMANAGER
  2
AcMeGSManager
  3
AcMeServices
 90
        0
280
     0
281
     0
  0
CLASS
  1
AmdtInternalReactor
  2
AmdtInternalReactor
  3
AcMeServices
 90
        0
280
     0
281
     0
  0
CLASS
  1
ACMESTATEMGR
  2
AcMeStateMgr
  3
AcMeServices
 90
        0
280
     0
281
     0
  0
CLASS
  1
ACME_DATABASE
  2
AcMeDbDatabase
  3
AcMeServices
 90
        0
280
     0
281
     0
  0
CLASS
  1
ACRFINSADJUSTERMGR
  2
AcRfInsAdjusterMgr
  3
AcMeServices
 90
        0
280
     0
281
     0
  0
CLASS
  1
ACMDATADICTIONARY
  2
AcmDataDictionary
  3
"AcmSymBB|Product Description: AutoCAD Mechanical 2000|Company: Autodesk"
 90
        0
280
     0
281
     0
  0
CLASS
  1
ACMDATAENTRYBLOCK
  2
AcmDataEntryBlock
  3
"AcmSymBB|Product Description: AutoCAD Mechanical 2000|Company: Autodesk"
 90
        0
280
     0
281
     0
  0
CLASS
  1
AMGOBJPROPCFG
  2
AmgObjPropCfg
  3
"AmgLay|Product Description: AutoCAD Mechanical 2000|Company: Autodesk"
 90
        1
280
     0
281
     0
  0
CLASS
  1
ACAMGFILTERDAT
  2
AcAmgFilterDat
  3
"AcadM|Product Description: AutoCAD Mechanical 2000|Company: Autodesk"
 90
        0
280
     0
281
     0
  0
CLASS
  1
LAYER_INDEX
  2
AcDbLayerIndex
  3
AutoCAD 2000
 90
        0
280
     0
281
     0
  0
CLASS
  1
IDBUFFER
  2
AcDbIdBuffer
  3
AutoCAD 2000
 90
        0
280
     0
281
     0
  0
CLASS
  1
ACIMSTRSYSVAR
  2
AcImStrSysVar
  3
AcMeServices
 90
        0
280
     0
281
     0
  0
CLASS
  1
ACMSTANDARDJIS
  2
AcmStandardJIS
  3
"AcmSymBB|Product Description: AutoCAD Mechanical 2000|Company: Autodesk"
 90
        0
280
     0
281
     0
  0
CLASS
  1
ACMSURFSTANDARDJIS
  2
AcmSurfTextStdJIS
  3
"AcmSymBB|Product Description: AutoCAD Mechanical 2000|Company: Autodesk"
 90
        0
280
     0
281
     0
  0
CLASS
  1
ACMFCFSTANDARDJIS
  2
AcmFCFStdJIS
  3
"AcmSymBB|Product Description: AutoCAD Mechanical 2000|Company: Autodesk"
 90
        0
280
     0
281
     0
  0
CLASS
  1
ACMWELDSTANDARDJIS
  2
AcmWeldingStdJIS
  3
"AcmSymBB|Product Description: AutoCAD Mechanical 2000|Company: Autodesk"
 90
        0
280
     0
281
     0
  0
CLASS
  1
ACMIDSTANDARDJIS
  2
AcmIdStdJIS
  3
"AcmSymBB|Product Description: AutoCAD Mechanical 2000|Company: Autodesk"
 90
        0
280
     0
281
     0
  0
CLASS
  1
ACMDATUMSTANDARDJIS
  2
AcmDatumStdJIS
  3
"AcmSymBB|Product Description: AutoCAD Mechanical 2000|Company: Autodesk"
 90
        0
280
     0
281
     0
  0
CLASS
  1
ACMBOMSTANDARDJIS
  2
AcmBOMStdJIS
  3
"AcmSymBB|Product Description: AutoCAD Mechanical 2000|Company: Autodesk"
 90
        0
280
     0
281
     0
  0
CLASS
  1
ACMSTANDARDANSI
  2
AcmStandardANSI
  3
"AcmSymBB|Product Description: AutoCAD Mechanical 2000|Company: Autodesk"
 90
        0
280
     0
281
     0
  0
CLASS
  1
ACMSURFSTANDARDANSI
  2
AcmSurfTextStdANSI
  3
"AcmSymBB|Product Description: AutoCAD Mechanical 2000|Company: Autodesk"
 90
        0
280
     0
281
     0
  0
CLASS
  1
ACMFCFSTANDARDANSI
  2
AcmFCFStdANSI
  3
"AcmSymBB|Product Description: AutoCAD Mechanical 2000|Company: Autodesk"
 90
        0
280
     0
281
     0
  0
CLASS
  1
ACMWELDSTANDARDANSI
  2
AcmWeldingStdANSI
  3
"AcmSymBB|Product Description: AutoCAD Mechanical 2000|Company: Autodesk"
 90
        0
280
     0
281
     0
  0
CLASS
  1
ACMIDSTANDARDANSI
  2
AcmIdStdANSI
  3
"AcmSymBB|Product Description: AutoCAD Mechanical 2000|Company: Autodesk"
 90
        0
280
     0
281
     0
  0
CLASS
  1
ACMDATUMSTANDARDANSI
  2
AcmDatumStdANSI
  3
"AcmSymBB|Product Description: AutoCAD Mechanical 2000|Company: Autodesk"
 90
        0
280
     0
281
     0
  0
CLASS
  1
ACMBOMSTANDARDANSI
  2
AcmBOMStdANSI
  3
"AcmSymBB|Product Description: AutoCAD Mechanical 2000|Company: Autodesk"
 90
        0
280
     0
281
     0
  0
CLASS
  1
ACMSTANDARDBSI
  2
AcmStandardBSI
  3
"AcmSymBB|Product Description: AutoCAD Mechanical 2000|Company: Autodesk"
 90
        0
280
     0
281
     0
  0
CLASS
  1
ACMSURFSTANDARDBSI
  2
AcmSurfTextStdBSI
  3
"AcmSymBB|Product Description: AutoCAD Mechanical 2000|Company: Autodesk"
 90
        0
280
     0
281
     0
  0
CLASS
  1
ACMFCFSTANDARDBSI
  2
AcmFCFStdBSI
  3
"AcmSymBB|Product Description: AutoCAD Mechanical 2000|Company: Autodesk"
 90
        0
280
     0
281
     0
  0
CLASS
  1
ACMWELDSTANDARDBSI
  2
AcmWeldingStdBSI
  3
"AcmSymBB|Product Description: AutoCAD Mechanical 2000|Company: Autodesk"
 90
        0
280
     0
281
     0
  0
CLASS
  1
ACMIDSTANDARDBSI
  2
AcmIdStdBSI
  3
"AcmSymBB|Product Description: AutoCAD Mechanical 2000|Company: Autodesk"
 90
        0
280
     0
281
     0
  0
CLASS
  1
ACMDATUMSTANDARDBSI
  2
AcmDatumStdBSI
  3
"AcmSymBB|Product Description: AutoCAD Mechanical 2000|Company: Autodesk"
 90
        0
280
     0
281
     0
  0
CLASS
  1
ACMBOMSTANDARDBSI
  2
AcmBOMStdBSI
  3
"AcmSymBB|Product Description: AutoCAD Mechanical 2000|Company: Autodesk"
 90
        0
280
     0
281
     0
  0
CLASS
  1
LONG_TRANSACTION
  2
AcDbLongTransaction
  3
AutoCAD 2000
 90
        0
280
     0
281
     0
  0
CLASS
  1
LWPOLYLINE
  2
AcDbPolyline
  3
AutoCAD 2000
 90
        0
280
     0
281
     1
  0
CLASS
  1
HATCH
  2
AcDbHatch
  3
AutoCAD 2000
 90
        0
280
     0
281
     1
  0
CLASS
  1
XRECORD
  2
AcDbXrecord
  3
AutoCAD 2000
 90
        0
280
     0
281
     0
  0
ENDSEC
  0
SECTION
  2
TABLES
  0
TABLE
  2
VPORT
  5
8
330
0
100
AcDbSymbolTable
 70
     3
  0
VPORT
  5
8CB8
330
8
100
AcDbSymbolTableRecord
100
AcDbViewportTableRecord
  2
*ACTIVE
 70
     0
 10
0.0
 20
0.0
 11
1.0
 21
1.0
 12
-19.80752844642432
 22
9.073050209346433
 13
0.0
 23
0.0
 14
2.5
 24
2.5
 15
10.0
 25
10.0
 16
0.0
 26
0.0
 36
1.0
 17
0.0
 27
0.0
 37
0.0
 40
101.1906355363155
 41
1.56570841889117
 42
50.0
 43
0.0
 44
0.0
 50
0.0
 51
0.0
 71
     0
 72
   100
 73
     1
 74
     3
 75
     0
 76
     0
 77
     0
 78
     0
  0
ENDTAB
  0
TABLE
  2
LTYPE
  5
5
330
0
100
AcDbSymbolTable
 70
    10
  0
LTYPE
  5
14
330
5
100
AcDbSymbolTableRecord
100
AcDbLinetypeTableRecord
  2
BYBLOCK
 70
     0
  3

 72
    65
 73
     0
 40
0.0
  0
LTYPE
  5
15
330
5
100
AcDbSymbolTableRecord
100
AcDbLinetypeTableRecord
  2
BYLAYER
 70
     0
  3

 72
    65
 73
     0
 40
0.0
  0
LTYPE
  5
16
330
5
100
AcDbSymbolTableRecord
100
AcDbLinetypeTableRecord
  2
CONTINUOUS
 70
     0
  3
Solid line
 72
    65
 73
     0
 40
0.0
  0
LTYPE
  5
4B
330
5
100
AcDbSymbolTableRecord
100
AcDbLinetypeTableRecord
  2
AM_ISO02W050
 70
     0
  3
__ __ __ __ __ __ __ __ __ __ __ __ __ __ __
 72
    65
 73
     2
 40
7.5
 49
6.0
 74
     0
 49
-1.5
 74
     0
  0
LTYPE
  5
4C
330
5
100
AcDbSymbolTableRecord
100
AcDbLinetypeTableRecord
  2
AM_ISO08W050
 70
     0
  3
____ . ____ . ____ . ____ . ____ . ____ . ____
 72
    65
 73
     4
 40
18.0
 49
12.0
 74
     0
 49
-1.5
 74
     0
 49
3.0
 74
     0
 49
-1.5
 74
     0
  0
LTYPE
  5
4D
330
5
100
AcDbSymbolTableRecord
100
AcDbLinetypeTableRecord
  2
AM_ISO09W050
 70
     0
  3
_____ . . _____ . . _____ . . ____ .. ____
 72
    65
 73
     6
 40
22.5
 49
12.0
 74
     0
 49
-1.5
 74
     0
 49
3.0
 74
     0
 49
-1.5
 74
     0
 49
3.0
 74
     0
 49
-1.5
 74
     0
  0
LTYPE
  5
4E
330
5
100
AcDbSymbolTableRecord
100
AcDbLinetypeTableRecord
  2
AMCONSTR
 70
     0
  3
_______________________
 72
    65
 73
     2
 40
9999.0
 49
9999.0
 74
     0
 49
0.0
 74
     0
  0
LTYPE
  5
4F
330
5
100
AcDbSymbolTableRecord
100
AcDbLinetypeTableRecord
  2
AM_ISO02W050X2
 70
     0
  3
 _ _ _ _ _ _ _ _ _ _ _ _
 72
    65
 73
     2
 40
3.75
 49
3.0
 74
     0
 49
-0.75
 74
     0
  0
LTYPE
  5
50
330
5
100
AcDbSymbolTableRecord
100
AcDbLinetypeTableRecord
  2
AM_ISO08W050X2
 70
     0
  3
__ . __ . __ . __ . __ . __
 72
    65
 73
     4
 40
9.0
 49
6.0
 74
     0
 49
-0.75
 74
     0
 49
1.5
 74
     0
 49
-0.75
 74
     0
  0
LTYPE
  5
53
330
5
100
AcDbSymbolTableRecord
100
AcDbLinetypeTableRecord
  2
AMZIGZAG
 70
     0
  3
/\/-/\/-/\/-/\/-/\/-/\/
 72
    65
 73
     2
 40
11.00009999999999
 49
0.0001
 74
     4
 75
   135
340
52
 46
0.04
 50
0.0
 44
0.0
 45
0.0
 49
-11.0
 74
     0
  0
LTYPE
  5
166
330
5
100
AcDbSymbolTableRecord
100
AcDbLinetypeTableRecord
  2
ACJISTGL
 70
     0
  3
_ _ _ _ _
 72
    65
 73
     2
 40
3.0
 49
2.0
 74
     0
 49
-1.0
 74
     0
  0
LTYPE
  5
26A
330
5
100
AcDbSymbolTableRecord
100
AcDbLinetypeTableRecord
  2
ACJISTGB
 70
     0
  3
__ . . __ . .
 72
    65
 73
     6
 40
9.0
 49
4.0
 74
     0
 49
-1.0
 74
     0
 49
1.0
 74
     0
 49
-1.0
 74
     0
 49
1.0
 74
     0
 49
-1.0
 74
     0
  0
ENDTAB
  0
TABLE
  2
LAYER
  5
2
330
0
100
AcDbSymbolTable
 70
     8
  0
LAYER
  5
10
330
2
100
AcDbSymbolTableRecord
100
AcDbLayerTableRecord
  2
0
 70
     0
 62
     7
  6
CONTINUOUS
  0
LAYER
  5
3F9
330
2
100
AcDbSymbolTableRecord
100
AcDbLayerTableRecord
  2
AM_0
 70
     0
 62
     7
  6
CONTINUOUS
  0
LAYER
  5
BD6
330
2
100
AcDbSymbolTableRecord
100
AcDbLayerTableRecord
  2
AM_11
 70
     0
 62
     3
  6
AM_ISO09W050
  0
LAYER
  5
BD7
330
2
100
AcDbSymbolTableRecord
100
AcDbLayerTableRecord
  2
AM_7
 70
     0
 62
     4
  6
AM_ISO08W050
  0
LAYER
  5
BD8
330
2
100
AcDbSymbolTableRecord
100
AcDbLayerTableRecord
  2
AM_5
 70
     0
 62
     3
  6
CONTINUOUS
  0
LAYER
  5
BD9
330
2
100
AcDbSymbolTableRecord
100
AcDbLayerTableRecord
  2
DEFPOINTS
 70
     0
 62
     7
  6
CONTINUOUS
  0
LAYER
  5
BDA
330
2
100
AcDbSymbolTableRecord
100
AcDbLayerTableRecord
  2
AM_6
 70
     0
 62
     2
  6
CONTINUOUS
  0
LAYER
  5
1E2E
330
2
100
AcDbSymbolTableRecord
100
AcDbLayerTableRecord
  2
AM_CL
 70
     0
 62
     1
  6
AMCONSTR
  0
ENDTAB
  0
TABLE
  2
STYLE
  5
3
330
0
100
AcDbSymbolTable
 70
     5
  0
STYLE
  5
11
330
3
100
AcDbSymbolTableRecord
100
AcDbTextStyleTableRecord
  2
STANDARD
 70
     0
 40
0.0
 41
1.0
 50
0.0
 71
     0
 42
2.5
  3
simplex.shx
  4
EXTFONT.SHX
  0
STYLE
  5
52
330
3
100
AcDbSymbolTableRecord
100
AcDbTextStyleTableRecord
  2

 70
     1
 40
0.0
 41
1.0
 50
0.0
 71
     0
 42
2.5
  3
ltypeshp.shx
  4

  0
STYLE
  5
6B
330
3
100
AcDbSymbolTableRecord
100
AcDbTextStyleTableRecord
  2
ASAMI
 70
     0
 40
0.0
 41
1.0
 50
0.0
 71
     0
 42
2.5
  3
simplex.shx
  4
EXTFONT.SHX
  0
STYLE
  5
262
330
3
100
AcDbSymbolTableRecord
100
AcDbTextStyleTableRecord
  2
ACJISTS
 70
     0
 40
1.0
 41
1.0
 50
0.0
 71
     0
 42
2.5
  3
simplex.shx
  4
bigfont.shx
  0
STYLE
  5
269
330
3
100
AcDbSymbolTableRecord
100
AcDbTextStyleTableRecord
  2
ACJISGDT
 70
     0
 40
0.0
 41
1.0
 50
0.0
 71
     0
 42
2.5
  3
amgdtans.shx
  4

  0
ENDTAB
  0
TABLE
  2
VIEW
  5
6
330
0
100
AcDbSymbolTable
 70
     0
  0
ENDTAB
  0
TABLE
  2
UCS
  5
7
330
0
100
AcDbSymbolTable
 70
     0
  0
ENDTAB
  0
TABLE
  2
APPID
  5
9
330
0
100
AcDbSymbolTable
 70
    13
  0
APPID
  5
12
330
9
100
AcDbSymbolTableRecord
100
AcDbRegAppTableRecord
  2
ACAD
 70
     0
  0
APPID
  5
30
330
9
100
AcDbSymbolTableRecord
100
AcDbRegAppTableRecord
  2
MCAD_NO_VIS
 70
     0
  0
APPID
  5
31
330
9
100
AcDbSymbolTableRecord
100
AcDbRegAppTableRecord
  2
ACAD_TEMP_GRAPHIC
 70
     0
  0
APPID
  5
2C2
330
9
100
AcDbSymbolTableRecord
100
AcDbRegAppTableRecord
  2
GENIUS_GENDTOL_13
 70
     0
  0
APPID
  5
339
330
9
100
AcDbSymbolTableRecord
100
AcDbRegAppTableRecord
  2
GENIUS_GENODEF_13
 70
     0
  0
APPID
  5
33A
330
9
100
AcDbSymbolTableRecord
100
AcDbRegAppTableRecord
  2
GENIUS_GENOBJ-N-RSBK_13
 70
     0
  0
APPID
  5
33B
330
9
100
AcDbSymbolTableRecord
100
AcDbRegAppTableRecord
  2
GENIUS_GENOBJ-N-LIB_13
 70
     0
  0
APPID
  5
33C
330
9
100
AcDbSymbolTableRecord
100
AcDbRegAppTableRecord
  2
GENIUS_GENSCALE_13
 70
     0
  0
APPID
  5
378
330
9
100
AcDbSymbolTableRecord
100
AcDbRegAppTableRecord
  2
GENIUS_GENDIMSH_14
 70
     0
  0
APPID
  5
BDB
330
9
100
AcDbSymbolTableRecord
100
AcDbRegAppTableRecord
  2
GENIUS_GENOBJ-N-CEN_13
 70
     0
  0
APPID
  5
BDC
330
9
100
AcDbSymbolTableRecord
100
AcDbRegAppTableRecord
  2
GENIUS_GENFIL_13
 70
     0
  0
APPID
  5
BDD
330
9
100
AcDbSymbolTableRecord
100
AcDbRegAppTableRecord
  2
GENIUS_GENOBJ-N-FIL_13
 70
     0
  0
APPID
  5
12AD
330
9
100
AcDbSymbolTableRecord
100
AcDbRegAppTableRecord
  2
GENIUS_GENOREF_13
 70
     0
  0
ENDTAB
  0
TABLE
  2
DIMSTYLE
  5
A
330
0
100
AcDbSymbolTable
 70
     8
  0
DIMSTYLE
105
58
102
{ACAD_REACTORS
330
80CC
330
8154
330
81DF
330
84F8
330
8628
330
8843
102
}
330
A
100
AcDbSymbolTableRecord
100
AcDbDimStyleTableRecord
  2
AM_JIS
 70
     0
  3

  4
"
  5
OPEN30
  6

  7

 40
1.0
 41
2.5
 42
1.0
 43
12.0
 44
1.0
 45
0.0
 46
0.0
 47
0.1
 48
0.1
140
3.2
141
0.0
142
0.0
143
0.0393701
144
1.0
145
0.0
146
0.71
147
1.5
 71
     0
 72
     0
 73
     0
 74
     0
 75
     0
 76
     0
 77
     3
 78
     8
170
     0
171
     2
172
     1
173
     0
174
     0
175
     0
176
     3
177
     3
178
     2
270
     2
271
     3
272
     3
273
     2
274
     2
340
6B
275
     0
280
     0
281
     0
282
     0
283
     0
284
     0
285
     0
286
     0
287
     3
288
     0
  0
DIMSTYLE
105
5F
330
A
100
AcDbSymbolTableRecord
100
AcDbDimStyleTableRecord
  2
AM_JIS$3
 70
     0
  3

  4
"
  5
OPEN30
  6

  7

 40
1.0
 41
2.5
 42
1.0
 43
10.0
 44
1.0
 45
0.0
 46
0.0
 47
0.1
 48
0.1
140
3.2
141
0.0
142
0.0
143
0.0393701
144
1.0
145
0.0
146
0.71
147
1.5
 71
     0
 72
     0
 73
     0
 74
     1
 75
     0
 76
     0
 77
     3
 78
     8
170
     0
171
     2
172
     0
173
     0
174
     0
175
     0
176
     3
177
     3
178
     2
270
     2
271
     2
272
     3
273
     2
274
     2
340
6B
275
     0
280
     0
281
     0
282
     0
283
     0
284
     0
285
     0
286
     0
287
     0
288
     1
  0
DIMSTYLE
105
60
330
A
100
AcDbSymbolTableRecord
100
AcDbDimStyleTableRecord
  2
AM_JIS$4
 70
     0
  3

  4
"
  5
OPEN30
  6

  7

 40
1.0
 41
2.5
 42
1.0
 43
10.0
 44
1.0
 45
0.0
 46
0.0
 47
0.1
 48
0.1
140
3.2
141
0.0
142
0.0
143
0.0393701
144
1.0
145
0.0
146
0.71
147
1.5
 71
     0
 72
     0
 73
     0
 74
     1
 75
     0
 76
     0
 77
     3
 78
     8
170
     0
171
     2
172
     0
173
     0
174
     0
175
     0
176
     3
177
     3
178
     2
270
     2
271
     2
272
     3
273
     2
274
     2
340
6B
275
     0
280
     0
281
     0
282
     0
283
     0
284
     0
285
     0
286
     0
287
     0
288
     1
  0
DIMSTYLE
105
61
330
A
100
AcDbSymbolTableRecord
100
AcDbDimStyleTableRecord
  2
AM_JIS$6
 70
     0
  3

  4
"
  5
OPEN30
  6

  7

 40
1.0
 41
2.5
 42
1.0
 43
10.0
 44
1.0
 45
0.0
 46
0.0
 47
0.1
 48
0.1
140
3.2
141
0.0
142
0.0
143
0.0393701
144
1.0
145
0.0
146
0.71
147
1.5
 71
     0
 72
     0
 73
     0
 74
     0
 75
     0
 76
     0
 77
     0
 78
     8
170
     0
171
     2
172
     1
173
     0
174
     0
175
     0
176
     3
177
     3
178
     2
270
     2
271
     2
272
     2
273
     2
274
     2
340
6B
275
     0
280
     0
281
     0
282
     0
283
     0
284
     0
285
     0
286
     0
287
     3
288
     0
  0
DIMSTYLE
105
62
330
A
100
AcDbSymbolTableRecord
100
AcDbDimStyleTableRecord
  2
AM_JIS$7
 70
     0
  3

  4
"
  5
OPEN30
  6

  7

 40
1.0
 41
2.5
 42
1.0
 43
10.0
 44
1.0
 45
0.0
 46
0.0
 47
0.1
 48
0.1
140
3.2
141
0.0
142
0.0
143
0.0393701
144
1.0
145
0.0
146
0.71
147
1.5
 71
     0
 72
     0
 73
     0
 74
     0
 75
     0
 76
     0
 77
     3
 78
     8
170
     0
171
     2
172
     1
173
     0
174
     0
175
     0
176
     3
177
     3
178
     2
270
     2
271
     2
272
     3
273
     2
274
     2
340
6B
275
     0
280
     0
281
     0
282
     0
283
     0
284
     0
285
     0
286
     0
287
     3
288
     0
  0
DIMSTYLE
105
63
330
A
100
AcDbSymbolTableRecord
100
AcDbDimStyleTableRecord
  2
AM_JIS$SF
 70
     0
  3

  4
"
  5
OPEN30
  6

  7

 40
1.0
 41
2.5
 42
1.0
 43
10.0
 44
1.0
 45
0.0
 46
0.0
 47
0.1
 48
0.1
140
3.2
141
0.0
142
0.0
143
0.0393701
144
1.0
145
0.0
146
0.71
147
1.5
 71
     0
 72
     0
 73
     0
 74
     0
 75
     1
 76
     1
 77
     3
 78
     8
170
     0
171
     2
172
     1
173
     0
174
     0
175
     0
176
   256
177
   256
178
     2
270
     2
271
     2
272
     2
273
     2
274
     2
340
6B
275
     0
280
     0
281
     0
282
     0
283
     0
284
     0
285
     0
286
     0
287
     3
288
     0
  0
DIMSTYLE
105
68
330
A
100
AcDbSymbolTableRecord
100
AcDbDimStyleTableRecord
  2
AM_JIS$SH
 70
     0
  3

  4
"
  5

  6
GENAXEH
  7
OPEN30
 40
1.0
 41
2.5
 42
1.0
 43
10.0
 44
1.0
 45
0.0
 46
0.0
 47
0.1
 48
0.1
140
3.2
141
0.0
142
0.0
143
0.0393701
144
2.0
145
0.0
146
0.71
147
1.5
 71
     0
 72
     0
 73
     0
 74
     0
 75
     1
 76
     1
 77
     3
 78
     8
170
     0
171
     2
172
     1
173
     1
174
     0
175
     0
176
   256
177
   256
178
     2
270
     2
271
     2
272
     2
273
     2
274
     2
340
6B
275
     0
280
     0
281
     0
282
     0
283
     0
284
     0
285
     0
286
     0
287
     3
288
     0
  0
DIMSTYLE
105
B34
102
{ACAD_REACTORS
330
82A0
330
86DB
330
88DC
102
}
330
A
100
AcDbSymbolTableRecord
100
AcDbDimStyleTableRecord
  2
AM_JIS$2
 70
     0
  3

  4
"
  5
OPEN30
  6

  7

 40
1.0
 41
2.5
 42
1.0
 43
12.0
 44
1.0
 45
0.0
 46
0.0
 47
0.1
 48
0.1
140
3.2
141
0.0
142
0.0
143
0.0393701
144
1.0
145
0.0
146
0.71
147
1.5
 71
     0
 72
     0
 73
     0
 74
     0
 75
     0
 76
     0
 77
     3
 78
     8
170
     0
171
     2
172
     1
173
     0
174
     0
175
     0
176
     3
177
     3
178
     2
270
     2
271
     3
272
     3
273
     2
274
     2
340
6B
275
     0
280
     0
281
     0
282
     0
283
     0
284
     0
285
     0
286
     0
287
     3
288
     0
  0
ENDTAB
  0
TABLE
  2
BLOCK_RECORD
  5
1
330
0
100
AcDbSymbolTable
 70
    14
  0
BLOCK_RECORD
  5
1F
102
{ACAD_XDICTIONARY
360
74
102
}
330
1
100
AcDbSymbolTableRecord
100
AcDbBlockTableRecord
  2
*MODEL_SPACE
  0
BLOCK_RECORD
  5
101
102
{ACAD_XDICTIONARY
360
8CE1
102
}
330
1
100
AcDbSymbolTableRecord
100
AcDbBlockTableRecord
  2
*PAPER_SPACE
  0
BLOCK_RECORD
  5
59
330
1
100
AcDbSymbolTableRecord
100
AcDbBlockTableRecord
  2
_OPEN30
  0
BLOCK_RECORD
  5
64
330
1
100
AcDbSymbolTableRecord
100
AcDbBlockTableRecord
  2
GENAXEH
  0
BLOCK_RECORD
  5
80CD
330
1
100
AcDbSymbolTableRecord
100
AcDbBlockTableRecord
  2
*D5
  0
BLOCK_RECORD
  5
8155
330
1
100
AcDbSymbolTableRecord
100
AcDbBlockTableRecord
  2
*D6
  0
BLOCK_RECORD
  5
81E0
330
1
100
AcDbSymbolTableRecord
100
AcDbBlockTableRecord
  2
*D7
  0
BLOCK_RECORD
  5
82A1
330
1
100
AcDbSymbolTableRecord
100
AcDbBlockTableRecord
  2
*D8
  0
BLOCK_RECORD
  5
84F9
330
1
100
AcDbSymbolTableRecord
100
AcDbBlockTableRecord
  2
*D9
  0
BLOCK_RECORD
  5
8629
330
1
100
AcDbSymbolTableRecord
100
AcDbBlockTableRecord
  2
*D10
  0
BLOCK_RECORD
  5
86DC
330
1
100
AcDbSymbolTableRecord
100
AcDbBlockTableRecord
  2
*D11
  0
BLOCK_RECORD
  5
8844
330
1
100
AcDbSymbolTableRecord
100
AcDbBlockTableRecord
  2
*D12
  0
BLOCK_RECORD
  5
88DD
330
1
100
AcDbSymbolTableRecord
100
AcDbBlockTableRecord
  2
*D13
  0
ENDTAB
  0
ENDSEC
  0
SECTION
  2
BLOCKS
  0
BLOCK
  5
20
330
1F
100
AcDbEntity
  8
0
100
AcDbBlockBegin
  2
*MODEL_SPACE
 70
     0
 10
0.0
 20
0.0
 30
0.0
  3
*MODEL_SPACE
  1

  0
ENDBLK
  5
21
330
1F
100
AcDbEntity
  8
0
100
AcDbBlockEnd
  0
BLOCK
  5
103
330
101
100
AcDbEntity
 67
     1
  8
0
100
AcDbBlockBegin
  2
*PAPER_SPACE
 70
     0
 10
0.0
 20
0.0
 30
0.0
  3
*PAPER_SPACE
  1

  0
ENDBLK
  5
104
330
101
100
AcDbEntity
 67
     1
  8
0
100
AcDbBlockEnd
  0
BLOCK
  5
5D
330
59
100
AcDbEntity
  8
0
100
AcDbBlockBegin
  2
_OPEN30
 70
     0
 10
0.0
 20
0.0
 30
0.0
  3
_OPEN30
  1

  0
LINE
  5
5A
330
59
100
AcDbEntity
  8
0
 62
     0
100
AcDbLine
 10
-1.0
 20
0.26794919
 30
0.0
 11
0.0
 21
0.0
 31
0.0
  0
LINE
  5
5B
330
59
100
AcDbEntity
  8
0
 62
     0
100
AcDbLine
 10
0.0
 20
0.0
 30
0.0
 11
-1.0
 21
-0.26794919
 31
0.0
  0
LINE
  5
5C
330
59
100
AcDbEntity
  8
0
 62
     0
100
AcDbLine
 10
0.0
 20
0.0
 30
0.0
 11
-1.0
 21
0.0
 31
0.0
  0
ENDBLK
  5
5E
330
59
100
AcDbEntity
  8
0
100
AcDbBlockEnd
  0
BLOCK
  5
66
330
64
100
AcDbEntity
  8
0
100
AcDbBlockBegin
  2
GENAXEH
 70
     0
 10
0.0
 20
0.0
 30
0.0
  3
GENAXEH
  1

  0
LINE
  5
65
330
64
100
AcDbEntity
  8
0
100
AcDbLine
 10
-1.0
 20
0.0
 30
0.0
 11
1.0
 21
0.0
 31
0.0
  0
ENDBLK
  5
67
330
64
100
AcDbEntity
  8
0
100
AcDbBlockEnd
  0
BLOCK
  5
80D7
330
80CD
100
AcDbEntity
  8
0
100
AcDbBlockBegin
  2
*D5
 70
     1
 10
0.0
 20
0.0
 30
0.0
  3
*D5
  1

  0
LINE
  5
8BD5
330
80CD
100
AcDbEntity
  8
AM_5
 62
     3
100
AcDbLine
 10
0.0000000000000001
 20
1.0
 30
0.0
 11
0.0000000000000009
 21
15.00000100999993
 31
0.0
  0
LINE
  5
8BD6
330
80CD
100
AcDbEntity
  8
AM_5
 62
     3
100
AcDbLine
 10
-80.00000000000001
 20
-2.99999999999999
 30
0.0
 11
-80.00000000000001
 21
15.00000100999993
 31
0.0
  0
LINE
  5
8BD7
330
80CD
100
AcDbEntity
  8
AM_5
 62
     3
100
AcDbLine
 10
-2.499999999999999
 20
14.00000100999993
 30
0.0
 11
-77.50000000000001
 21
14.00000100999993
 31
0.0
  0
INSERT
  5
8BD8
330
80CD
100
AcDbEntity
  8
AM_5
 62
     3
100
AcDbBlockReference
  2
_OPEN30
 10
0.0000000000000009
 20
14.00000100999993
 30
0.0
 41
2.5
 42
2.5
 43
2.5
  0
INSERT
  5
8BD9
330
80CD
100
AcDbEntity
  8
AM_5
 62
     3
100
AcDbBlockReference
  2
_OPEN30
 10
-80.00000000000001
 20
14.00000100999993
 30
0.0
 41
2.5
 42
2.5
 43
2.5
 50
180.0
  0
MTEXT
  5
8BDA
330
80CD
100
AcDbEntity
  8
AM_5
 62
     2
100
AcDbMText
 10
-40.0
 20
17.10000100999993
 30
0.0
 40
3.2
 41
0.0
 71
     5
 72
     1
  1
80
  7
ASAMI
1001
ACAD
1000
MTEXTBEGIN
1070
    73
1070
     1
1070
    44
1040
1.0
1070
    74
1070
     0
1000
MTEXTEND
  0
POINT
  5
8BDB
330
80CD
100
AcDbEntity
  8
DEFPOINTS
 62
     0
100
AcDbPoint
 10
0.0
 20
0.0
 30
0.0
  0
POINT
  5
8BDC
330
80CD
100
AcDbEntity
  8
DEFPOINTS
 62
     0
100
AcDbPoint
 10
-80.00000000000001
 20
-3.99999999999999
 30
0.0
  0
POINT
  5
8BDD
330
80CD
100
AcDbEntity
  8
DEFPOINTS
 62
     0
100
AcDbPoint
 10
-80.00000000000001
 20
14.00000100999993
 30
0.0
  0
ENDBLK
  5
80D8
330
80CD
100
AcDbEntity
  8
0
100
AcDbBlockEnd
  0
BLOCK
  5
815F
330
8155
100
AcDbEntity
  8
0
100
AcDbBlockBegin
  2
*D6
 70
     1
 10
0.0
 20
0.0
 30
0.0
  3
*D6
  1

  0
LINE
  5
8B93
330
8155
100
AcDbEntity
  8
AM_5
 62
     3
100
AcDbLine
 10
-81.0
 20
-3.99999999999999
 30
0.0
 11
-95.0
 21
-3.999999999999985
 31
0.0
  0
LINE
  5
8B94
330
8155
100
AcDbEntity
  8
AM_5
 62
     3
100
AcDbLine
 10
-81.0
 20
-15.99999999999998
 30
0.0
 11
-95.0
 21
-15.99999999999998
 31
0.0
  0
LINE
  5
8B95
330
8155
100
AcDbEntity
  8
AM_5
 62
     3
100
AcDbLine
 10
-94.0
 20
-6.499999999999985
 30
0.0
 11
-94.0
 21
-13.49999999999998
 31
0.0
  0
INSERT
  5
8B96
330
8155
100
AcDbEntity
  8
AM_5
 62
     3
100
AcDbBlockReference
  2
_OPEN30
 10
-94.0
 20
-3.999999999999986
 30
0.0
 41
2.5
 42
2.5
 43
2.5
 50
90.0
  0
INSERT
  5
8B97
330
8155
100
AcDbEntity
  8
AM_5
 62
     3
100
AcDbBlockReference
  2
_OPEN30
 10
-94.0
 20
-15.99999999999998
 30
0.0
 41
2.5
 42
2.5
 43
2.5
 50
270.0
  0
MTEXT
  5
8B98
330
8155
100
AcDbEntity
  8
AM_5
 62
     2
100
AcDbMText
 10
-97.1
 20
-10.0
 30
0.0
 40
3.2
 41
0.0
 71
     5
 72
     1
  1
12
  7
ASAMI
 11
0.0000000000000001
 21
1.0
 31
0.0
1001
ACAD
1000
MTEXTBEGIN
1070
    73
1070
     1
1070
    44
1040
1.0
1070
    74
1070
     0
1000
MTEXTEND
  0
POINT
  5
8B99
330
8155
100
AcDbEntity
  8
DEFPOINTS
 62
     0
100
AcDbPoint
 10
-80.0
 20
-3.99999999999999
 30
0.0
  0
POINT
  5
8B9A
330
8155
100
AcDbEntity
  8
DEFPOINTS
 62
     0
100
AcDbPoint
 10
-80.0
 20
-15.99999999999998
 30
0.0
  0
POINT
  5
8B9B
330
8155
100
AcDbEntity
  8
DEFPOINTS
 62
     0
100
AcDbPoint
 10
-94.0
 20
-15.99999999999998
 30
0.0
  0
ENDBLK
  5
8160
330
8155
100
AcDbEntity
  8
0
100
AcDbBlockEnd
  0
BLOCK
  5
81EA
330
81E0
100
AcDbEntity
  8
0
100
AcDbBlockBegin
  2
*D7
 70
     1
 10
0.0
 20
0.0
 30
0.0
  3
*D7
  1

  0
LINE
  5
8BDE
330
81E0
100
AcDbEntity
  8
AM_5
 62
     3
100
AcDbLine
 10
1.0
 20
-0.0000000000000003
 30
0.0
 11
24.78651815765259
 21
-0.000000000000007
 31
0.0
  0
LINE
  5
8BDF
330
81E0
100
AcDbEntity
  8
AM_5
 62
     3
100
AcDbLine
 10
1.702183559742985
 20
-16.0
 30
0.0
 11
24.78651815765259
 21
-16.0
 31
0.0
  0
LINE
  5
8BE0
330
81E0
100
AcDbEntity
  8
AM_5
 62
     3
100
AcDbLine
 10
23.78651815765258
 20
-2.500000000000006
 30
0.0
 11
23.78651815765258
 21
-13.5
 31
0.0
  0
INSERT
  5
8BE1
330
81E0
100
AcDbEntity
  8
AM_5
 62
     3
100
AcDbBlockReference
  2
_OPEN30
 10
23.78651815765258
 20
-0.0000000000000067
 30
0.0
 41
2.5
 42
2.5
 43
2.5
 50
90.0
  0
INSERT
  5
8BE2
330
81E0
100
AcDbEntity
  8
AM_5
 62
     3
100
AcDbBlockReference
  2
_OPEN30
 10
23.78651815765258
 20
-16.0
 30
0.0
 41
2.5
 42
2.5
 43
2.5
 50
270.0
  0
MTEXT
  5
8BE3
330
81E0
100
AcDbEntity
  8
AM_5
 62
     2
100
AcDbMText
 10
20.68651815765258
 20
-8.000000000000001
 30
0.0
 40
3.2
 41
0.0
 71
     5
 72
     1
  1
16
  7
ASAMI
 11
0.0000000000000001
 21
1.0
 31
0.0
1001
ACAD
1000
MTEXTBEGIN
1070
    73
1070
     1
1070
    44
1040
1.0
1070
    74
1070
     0
1000
MTEXTEND
  0
POINT
  5
8BE4
330
81E0
100
AcDbEntity
  8
DEFPOINTS
 62
     0
100
AcDbPoint
 10
0.0
 20
0.0
 30
0.0
  0
POINT
  5
8BE5
330
81E0
100
AcDbEntity
  8
DEFPOINTS
 62
     0
100
AcDbPoint
 10
0.7021835597429858
 20
-16.0
 30
0.0
  0
POINT
  5
8BE6
330
81E0
100
AcDbEntity
  8
DEFPOINTS
 62
     0
100
AcDbPoint
 10
23.78651815765258
 20
-16.0
 30
0.0
  0
ENDBLK
  5
81EB
330
81E0
100
AcDbEntity
  8
0
100
AcDbBlockEnd
  0
BLOCK
  5
82B0
330
82A1
100
AcDbEntity
  8
0
100
AcDbBlockBegin
  2
*D8
 70
     1
 10
0.0
 20
0.0
 30
0.0
  3
*D8
  1

  0
LINE
  5
8BE7
330
82A1
100
AcDbEntity
  8
AM_5
 62
     3
100
AcDbLine
 10
2.468839048188074
 20
-9.213832763547941
 30
0.0
 11
3.935907056875493
 21
-14.68900511012824
 31
0.0
  0
LINE
  5
8BE8
330
82A1
100
AcDbEntity
  8
AM_5
 62
     3
100
AcDbLine
 10
10.85109177987151
 20
-0.0000000000000062
 30
0.0
 11
15.20717710443776
 21
-0.000000000000024
 31
0.0
  0
ARC
  5
8BE9
330
82A1
100
AcDbEntity
  8
AM_5
 62
     3
100
AcDbCircle
 10
-0.0000000000000364
 20
0.0000000000000358
 30
0.0
 40
14.2071771044378
100
AcDbArc
 50
295.0952427341318
 51
349.904757265868
  0
INSERT
  5
8BEA
330
82A1
100
AcDbEntity
  8
AM_5
 62
     3
100
AcDbBlockReference
  2
_OPEN30
 10
3.67708801177297
 20
-13.72307928383917
 30
0.0
 41
2.5
 42
2.5
 43
2.5
 50
200.047621367066
  0
INSERT
  5
8BEB
330
82A1
100
AcDbEntity
  8
AM_5
 62
     3
100
AcDbBlockReference
  2
_OPEN30
 10
14.20717710443776
 20
-0.0000000000000187
 30
0.0
 41
2.5
 42
2.5
 43
2.5
 50
84.95237863293391
  0
MTEXT
  5
8BEC
330
82A1
100
AcDbEntity
  8
AM_5
 62
     2
100
AcDbMText
 10
8.811916057012018
 20
-6.761621006350475
 30
0.0
 40
3.2
 41
0.0
 71
     5
 72
     1
  1
75°
  7
ASAMI
 11
0.6087614290087222
 21
0.793353340291234
 31
0.0
1001
ACAD
1000
MTEXTBEGIN
1070
    73
1070
     1
1070
    44
1040
1.0
1070
    74
1070
     0
1000
MTEXTEND
  0
POINT
  5
8BED
330
82A1
100
AcDbEntity
  8
DEFPOINTS
 62
     0
100
AcDbPoint
 10
9.132197411354866
 20
-10.88332907326171
 30
0.0
  0
POINT
  5
8BEE
330
82A1
100
AcDbEntity
  8
DEFPOINTS
 62
     0
100
AcDbPoint
 10
9.851091779871513
 20
-0.0000000000000018
 30
0.0
  0
POINT
  5
8BEF
330
82A1
100
AcDbEntity
  8
DEFPOINTS
 62
     0
100
AcDbPoint
 10
2.210020003085551
 20
-8.247906937258875
 30
0.0
  0
POINT
  5
8BF0
330
82A1
100
AcDbEntity
  8
DEFPOINTS
 62
     0
100
AcDbPoint
 10
0.1588790706480622
 20
-0.5929447639179842
 30
0.0
  0
POINT
  5
8BF1
330
82A1
100
AcDbEntity
  8
DEFPOINTS
 62
     0
100
AcDbPoint
 10
0.0
 20
0.0000000000000355
 30
0.0
  0
ENDBLK
  5
82B1
330
82A1
100
AcDbEntity
  8
0
100
AcDbBlockEnd
  0
BLOCK
  5
8504
330
84F9
100
AcDbEntity
  8
0
100
AcDbBlockBegin
  2
*D9
 70
     1
 10
0.0
 20
0.0
 30
0.0
  3
*D9
  1

  0
LINE
  5
8BA9
330
84F9
100
AcDbEntity
  8
AM_5
 62
     3
100
AcDbLine
 10
50.19234234859593
 20
13.87437810752212
 30
0.0
 11
44.3363515895199
 21
35.72923314904842
 31
0.0
  0
LINE
  5
8BAA
330
84F9
100
AcDbEntity
  8
AM_5
 62
     3
100
AcDbLine
 10
38.88354526298169
 20
11.64679539422419
 30
0.0
 11
33.22820458719559
 21
32.75281413036951
 31
0.0
  0
LINE
  5
8BAB
330
84F9
100
AcDbEntity
  8
AM_5
 62
     3
100
AcDbLine
 10
42.18035606889974
 20
34.11625971000306
 30
0.0
 11
35.90183819802078
 21
32.43393591683673
 31
0.0
  0
INSERT
  5
8BAC
330
84F9
100
AcDbEntity
  8
AM_5
 62
     3
100
AcDbBlockReference
  2
_OPEN30
 10
44.59517063462242
 20
34.76330732275934
 30
0.0
 41
2.5
 42
2.5
 43
2.5
 50
14.99999999999954
  0
INSERT
  5
8BAD
330
84F9
100
AcDbEntity
  8
AM_5
 62
     3
100
AcDbBlockReference
  2
_OPEN30
 10
33.4870236322981
 20
31.78688830408045
 30
0.0
 41
2.5
 42
2.5
 43
2.5
 50
194.9999999999994
  0
MTEXT
  5
8BAE
330
84F9
100
AcDbEntity
  8
AM_5
 62
     2
100
AcDbMText
 10
38.23875809364247
 20
36.26946787491601
 30
0.0
 40
3.2
 41
0.0
 71
     5
 72
     1
  1
11.5
  7
ASAMI
 11
0.9659258262890705
 21
0.2588190451025128
 31
0.0
1001
ACAD
1000
MTEXTBEGIN
1070
    73
1070
     1
1070
    44
1040
1.0
1070
    74
1070
     0
1000
MTEXTEND
  0
POINT
  5
8BAF
330
84F9
100
AcDbEntity
  8
DEFPOINTS
 62
     0
100
AcDbPoint
 10
50.45116139369845
 20
12.90845228123304
 30
0.0
  0
POINT
  5
8BB0
330
84F9
100
AcDbEntity
  8
DEFPOINTS
 62
     0
100
AcDbPoint
 10
39.1423643080842
 20
10.68086956793512
 30
0.0
  0
POINT
  5
8BB1
330
84F9
100
AcDbEntity
  8
DEFPOINTS
 62
     0
100
AcDbPoint
 10
33.4870236322981
 20
31.78688830408045
 30
0.0
  0
ENDBLK
  5
8505
330
84F9
100
AcDbEntity
  8
0
100
AcDbBlockEnd
  0
BLOCK
  5
8634
330
8629
100
AcDbEntity
  8
0
100
AcDbBlockBegin
  2
*D10
 70
     1
 10
0.0
 20
0.0
 30
0.0
  3
*D10
  1

  0
LINE
  5
8BCA
330
8629
100
AcDbEntity
  8
AM_5
 62
     3
100
AcDbLine
 10
-12.84444647911188
 20
47.12985475769147
 30
0.0
 11
5.560262971626245
 21
52.06138179194494
 31
0.0
  0
LINE
  5
8BCB
330
8629
100
AcDbEntity
  8
AM_5
 62
     3
100
AcDbLine
 10
-8.700583182833549
 20
36.3347217989687
 30
0.0
 11
8.536632417251894
 21
40.95341979877156
 31
0.0
  0
LINE
  5
8BCC
330
8629
100
AcDbEntity
  8
AM_5
 62
     3
100
AcDbLine
 10
3.947289532581015
 20
54.21737731256519
 30
0.0
 11
3.300241919824868
 21
56.6321918782879
 31
0.0
  0
LINE
  5
8BCD
330
8629
100
AcDbEntity
  8
AM_5
 62
     3
100
AcDbLine
 10
8.217754203718957
 20
38.27978618794639
 30
0.0
 11
8.864801816475104
 21
35.86497162222368
 31
0.0
  0
LINE
  5
8BCE
330
8629
100
AcDbEntity
  8
AM_5
 62
     3
100
AcDbLine
 10
4.594337145337162
 20
51.80256274684248
 30
0.0
 11
7.57070659096281
 21
40.6946007536691
 31
0.0
  0
INSERT
  5
8BCF
330
8629
100
AcDbEntity
  8
AM_5
 62
     3
100
AcDbBlockReference
  2
_OPEN30
 10
4.594337145337162
 20
51.80256274684248
 30
0.0
 41
2.5
 42
2.5
 43
2.5
 50
284.9999999999963
  0
INSERT
  5
8BD0
330
8629
100
AcDbEntity
  8
AM_5
 62
     3
100
AcDbBlockReference
  2
_OPEN30
 10
7.57070659096281
 20
40.6946007536691
 30
0.0
 41
2.5
 42
2.5
 43
2.5
 50
104.9999999999963
  0
MTEXT
  5
8BD1
330
8629
100
AcDbEntity
  8
AM_5
 62
     2
100
AcDbMText
 10
3.158341500654087
 20
45.18429120626139
 30
0.0
 40
3.2
 41
0.0
 71
     5
 72
     1
  1
11.5
  7
ASAMI
 11
-0.2588190451024589
 21
0.9659258262890848
 31
0.0
1001
ACAD
1000
MTEXTBEGIN
1070
    73
1070
     1
1070
    44
1040
1.0
1070
    74
1070
     0
1000
MTEXTEND
  0
POINT
  5
8BD2
330
8629
100
AcDbEntity
  8
DEFPOINTS
 62
     0
100
AcDbPoint
 10
-13.81037230540096
 20
46.87103571258901
 30
0.0
  0
POINT
  5
8BD3
330
8629
100
AcDbEntity
  8
DEFPOINTS
 62
     0
100
AcDbPoint
 10
-9.666509009122631
 20
36.07590275386624
 30
0.0
  0
POINT
  5
8BD4
330
8629
100
AcDbEntity
  8
DEFPOINTS
 62
     0
100
AcDbPoint
 10
7.570706590962814
 20
40.69460075366911
 30
0.0
  0
ENDBLK
  5
8635
330
8629
100
AcDbEntity
  8
0
100
AcDbBlockEnd
  0
BLOCK
  5
86EA
330
86DC
100
AcDbEntity
  8
0
100
AcDbBlockBegin
  2
*D11
 70
     1
 10
0.0
 20
0.0
 30
0.0
  3
*D11
  1

  0
LINE
  5
8C42
330
86DC
100
AcDbEntity
  8
AM_5
 62
     3
100
AcDbLine
 10
-0.9731765725208489
 20
38.40527415978828
 30
0.0
 11
-0.1931546335867065
 21
38.61428040840416
 31
0.0
  0
LINE
  5
8C43
330
86DC
100
AcDbEntity
  8
AM_5
 62
     3
100
AcDbLine
 10
-8.732928582624664
 20
36.4342707034118
 30
0.0
 11
-0.5103833754911627
 21
39.59061008488258
 31
0.0
  0
ARC
  5
8C44
330
86DC
100
AcDbEntity
  8
AM_5
 62
     3
100
AcDbCircle
 10
-9.666509009121888
 20
36.07590275386657
 30
0.0
 40
8.807538133574979
100
AcDbArc
 50
342.020027653569
 51
14.99999999999489
  0
LINE
  5
8C45
330
86DC
100
AcDbEntity
  8
AM_5
 62
     3
100
AcDbLine
 10
-1.289091627634107
 20
33.35715193948069
 30
0.0
 11
-5.564225446522929
 21
20.18397690150447
 31
0.0
  0
ARC
  5
8C46
330
86DC
100
AcDbEntity
  8
AM_5
 62
     3
100
AcDbCircle
 10
-9.666509009121888
 20
36.07590275386657
 30
0.0
 40
8.807538133574979
100
AcDbArc
 50
342.3632467387442
 51
358.6816233693695
  0
ARC
  5
8C47
330
86DC
100
AcDbEntity
  8
AM_5
 62
     3
100
AcDbCircle
 10
-9.666509009121888
 20
36.07590275386657
 30
0.0
 40
8.807538133574979
100
AcDbArc
 50
37.31837663062166
 51
53.63675326124702
  0
ARC
  5
8C48
330
86DC
100
AcDbEntity
  8
AM_5
 62
     3
100
AcDbCircle
 10
-9.666509009121888
 20
36.07590275386657
 30
0.0
 40
8.807538133574979
100
AcDbArc
 50
14.99999999999489
 51
20.9999999999963
  0
INSERT
  5
8C49
330
86DC
100
AcDbEntity
  8
AM_5
 62
     3
100
AcDbBlockReference
  2
_OPEN30
 10
-1.159080459875795
 20
38.35546136330173
 30
0.0
 41
2.5
 42
2.5
 43
2.5
 50
96.84081168468225
  0
INSERT
  5
8C4A
330
86DC
100
AcDbEntity
  8
AM_5
 62
     3
100
AcDbBlockReference
  2
_OPEN30
 10
-1.443963801988386
 20
39.23224213533734
 30
0.0
 41
2.5
 42
2.5
 43
2.5
 50
299.1591883153088
  0
MTEXT
  5
8C4B
330
86DC
100
AcDbEntity
  8
AM_5
 62
     2
100
AcDbMText
 10
-0.4780486657669636
 20
25.81364236159537
 30
0.0
 40
3.2
 41
0.0
 71
     5
 72
     1
  1
-6°
  7
ASAMI
 11
-0.3086845351281298
 21
-0.9511644746166304
 31
0.0
1001
ACAD
1000
MTEXTBEGIN
1070
    73
1070
     1
1070
    44
1040
1.0
1070
    74
1070
     0
1000
MTEXTEND
  0
POINT
  5
8C4C
330
86DC
100
AcDbEntity
  8
DEFPOINTS
 62
     0
100
AcDbPoint
 10
-1.3388180985272
 20
38.943356689325
 30
0.0
  0
POINT
  5
8C4D
330
86DC
100
AcDbEntity
  8
DEFPOINTS
 62
     0
100
AcDbPoint
 10
-9.66650900912195
 20
36.07590275386655
 30
0.0
  0
POINT
  5
8C4E
330
86DC
100
AcDbEntity
  8
DEFPOINTS
 62
     0
100
AcDbPoint
 10
-1.93910239880994
 20
38.14645511468584
 30
0.0
  0
POINT
  5
8C4F
330
86DC
100
AcDbEntity
  8
DEFPOINTS
 62
     0
100
AcDbPoint
 10
-9.666509009121961
 20
36.07590275386655
 30
0.0
  0
POINT
  5
8C50
330
86DC
100
AcDbEntity
  8
DEFPOINTS
 62
     0
100
AcDbPoint
 10
-18.61253775514963
 20
32.64184406187419
 30
0.0
  0
ENDBLK
  5
86EB
330
86DC
100
AcDbEntity
  8
0
100
AcDbBlockEnd
  0
BLOCK
  5
884E
330
8844
100
AcDbEntity
  8
0
100
AcDbBlockBegin
  2
*D12
 70
     1
 10
0.0
 20
0.0
 30
0.0
  3
*D12
  1

  0
LINE
  5
8BC1
330
8844
100
AcDbEntity
  8
AM_5
 62
     3
100
AcDbLine
 10
-34.00745968408121
 20
29.0359282950913
 30
0.0
 11
-41.26882538757718
 21
27.090251218893
 31
0.0
  0
LINE
  5
8BC2
330
8844
100
AcDbEntity
  8
AM_5
 62
     3
100
AcDbLine
 10
-37.11328822531071
 20
40.62703821056035
 30
0.0
 11
-44.37465392880669
 21
38.68136113436206
 31
0.0
  0
LINE
  5
8BC3
330
8844
100
AcDbEntity
  8
AM_5
 62
     3
100
AcDbLine
 10
-40.94994717404424
 20
29.76388482971818
 30
0.0
 11
-42.76168048976145
 21
36.52536561374181
 31
0.0
  0
INSERT
  5
8BC4
330
8844
100
AcDbEntity
  8
AM_5
 62
     3
100
AcDbBlockReference
  2
_OPEN30
 10
-40.3028995612881
 20
27.34907026399547
 30
0.0
 41
2.5
 42
2.5
 43
2.5
 50
284.9999999999963
  0
INSERT
  5
8BC5
330
8844
100
AcDbEntity
  8
AM_5
 62
     3
100
AcDbBlockReference
  2
_OPEN30
 10
-43.40872810251761
 20
38.94018017946452
 30
0.0
 41
2.5
 42
2.5
 43
2.5
 50
104.9999999999963
  0
MTEXT
  5
8BC6
330
8844
100
AcDbEntity
  8
AM_5
 62
     2
100
AcDbMText
 10
-44.85018389339901
 20
32.34228618191235
 30
0.0
 40
3.2
 41
0.0
 71
     5
 72
     1
  1
12
  7
ASAMI
 11
-0.2588190451024589
 21
0.9659258262890848
 31
0.0
1001
ACAD
1000
MTEXTBEGIN
1070
    73
1070
     1
1070
    44
1040
1.0
1070
    74
1070
     0
1000
MTEXTEND
  0
POINT
  5
8BC7
330
8844
100
AcDbEntity
  8
DEFPOINTS
 62
     0
100
AcDbPoint
 10
-33.04153385779212
 20
29.29474734019376
 30
0.0
  0
POINT
  5
8BC8
330
8844
100
AcDbEntity
  8
DEFPOINTS
 62
     0
100
AcDbPoint
 10
-36.14736239902163
 20
40.88585725566282
 30
0.0
  0
POINT
  5
8BC9
330
8844
100
AcDbEntity
  8
DEFPOINTS
 62
     0
100
AcDbPoint
 10
-43.4087281025176
 20
38.94018017946452
 30
0.0
  0
ENDBLK
  5
884F
330
8844
100
AcDbEntity
  8
0
100
AcDbBlockEnd
  0
BLOCK
  5
88EC
330
88DD
100
AcDbEntity
  8
0
100
AcDbBlockBegin
  2
*D13
 70
     1
 10
0.0
 20
0.0
 30
0.0
  3
*D13
  1

  0
LINE
  5
8C86
330
88DD
100
AcDbEntity
  8
AM_5
 62
     3
100
AcDbLine
 10
38.96871613041724
 20
11.66567732094741
 30
0.0
 11
36.87184602616046
 21
23.55761862131873
 31
0.0
  0
LINE
  5
8C87
330
88DD
100
AcDbEntity
  8
AM_5
 62
     3
100
AcDbLine
 10
35.79705587998601
 20
23.16573058858571
 30
0.0
 11
35.7582034057885
 21
23.31072999629056
 31
0.0
  0
ARC
  5
8C88
330
88DD
100
AcDbEntity
  8
AM_5
 62
     3
100
AcDbCircle
 10
39.14236430808418
 20
10.6808695679352
 30
0.0
 40
12.0753936633802
100
AcDbArc
 50
76.23323745420208
 51
88.11661872710109
  0
ARC
  5
8C89
330
88DD
100
AcDbEntity
  8
AM_5
 62
     3
100
AcDbCircle
 10
39.14236430808418
 20
10.6808695679352
 30
0.0
 40
12.0753936633802
100
AcDbArc
 50
116.8833812728992
 51
128.7667625457982
  0
ARC
  5
8C8A
330
88DD
100
AcDbEntity
  8
AM_5
 62
     3
100
AcDbCircle
 10
39.14236430808418
 20
10.6808695679352
 30
0.0
 40
12.0753936633802
100
AcDbArc
 50
100.0
 51
105.0000000000002
  0
INSERT
  5
8C8B
330
88DD
100
AcDbEntity
  8
AM_5
 62
     3
100
AcDbBlockReference
  2
_OPEN30
 10
37.04549420382739
 20
22.57281086830652
 30
0.0
 41
2.5
 42
2.5
 43
2.5
 50
184.0583093635505
  0
INSERT
  5
8C8C
330
88DD
100
AcDbEntity
  8
AM_5
 62
     3
100
AcDbBlockReference
  2
_OPEN30
 10
36.01702245089103
 20
22.3448041700015
 30
0.0
 41
2.5
 42
2.5
 43
2.5
 50
20.94169063644974
  0
MTEXT
  5
8C8D
330
88DD
100
AcDbEntity
  8
AM_5
 62
     2
100
AcDbMText
 10
27.38857570263116
 20
20.27988130127957
 30
0.0
 40
3.2
 41
0.0
 71
     5
 72
     1
  1
-5°
  7
ASAMI
 11
0.632537906183466
 21
0.7745294037291527
 31
0.0
1001
ACAD
1000
MTEXTBEGIN
1070
    73
1070
     1
1070
    44
1040
1.0
1070
    74
1070
     0
1000
MTEXTEND
  0
POINT
  5
8C8E
330
88DD
100
AcDbEntity
  8
DEFPOINTS
 62
     0
100
AcDbPoint
 10
36.70050751652174
 20
22.50679310629377
 30
0.0
  0
POINT
  5
8C8F
330
88DD
100
AcDbEntity
  8
DEFPOINTS
 62
     0
100
AcDbPoint
 10
40.79636320036314
 20
1.30057572048579
 30
0.0
  0
POINT
  5
8C90
330
88DD
100
AcDbEntity
  8
DEFPOINTS
 62
     0
100
AcDbPoint
 10
36.05587492508855
 20
22.19980476229664
 30
0.0
  0
POINT
  5
8C91
330
88DD
100
AcDbEntity
  8
DEFPOINTS
 62
     0
100
AcDbPoint
 10
39.14236430808421
 20
10.68086956793512
 30
0.0
  0
POINT
  5
8C92
330
88DD
100
AcDbEntity
  8
DEFPOINTS
 62
     0
100
AcDbPoint
 10
39.14236430808419
 20
10.68086956793515
 30
0.0
  0
ENDBLK
  5
88ED
330
88DD
100
AcDbEntity
  8
0
100
AcDbBlockEnd
  0
ENDSEC
  0
SECTION
  2
ENTITIES
  0
TEXT
  5
C58
330
1F
100
AcDbEntity
  8
AM_6
100
AcDbText
 10
-60.11904761904761
 20
-38.50000000000006
 30
0.0
 40
5.0
  1
ESKNR1212
 50
0.0000000000002036
 72
     4
 11
-40.0
 21
-35.99999999999999
 31
0.0
100
AcDbText
  0
LINE
  5
7CCA
330
1F
100
AcDbEntity
  8
AM_0
100
AcDbLine
 10
-9.679038928350248
 20
36.10854430942967
 30
0.0
 11
-13.81037230540095
 21
46.87103571258899
 31
0.0
  0
LINE
  5
7CDA
330
1F
100
AcDbEntity
  8
AM_0
100
AcDbLine
 10
0.7021835597429858
 20
-16.0
 30
0.0
 11
-80.0
 21
-15.99999999999998
 31
0.0
  0
LINE
  5
7CE2
330
1F
100
AcDbEntity
  8
AM_0
100
AcDbLine
 10
-12.75889524228425
 20
-3.999999999999998
 30
0.0
 11
-80.00000000000001
 21
-3.99999999999999
 31
0.0
  0
LINE
  5
7CEC
330
1F
100
AcDbEntity
  8
AM_0
100
AcDbLine
 10
2.320596682026968
 20
-9.960000000000007
 30
0.0
 11
0.7021835597429858
 21
-16.0
 31
0.0
  0
LINE
  5
7D17
330
1F
100
AcDbEntity
  8
DEFPOINTS
100
AcDbLine
 10
-5.927172194997138
 20
-16.0
 30
0.0
 11
-9.647313759545173
 21
-2.11624266975795
 31
0.0
  0
LINE
  5
7D34
330
1F
100
AcDbEntity
  8
AM_0
100
AcDbLine
 10
-19.75214783470349
 20
35.61062981813538
 30
0.0
 11
-18.61253775514961
 21
32.64184406187419
 31
0.0
  0
LINE
  5
7D4D
330
1F
100
AcDbEntity
  8
AM_0
100
AcDbLine
 10
-18.79323187933195
 20
33.11256834883605
 30
0.0
 11
-33.00097506817428
 21
29.30561503511794
 31
0.0
  0
LINE
  5
7D4E
330
1F
100
AcDbEntity
  8
DEFPOINTS
100
AcDbLine
 10
-10.81953420009753
 20
39.07963607019349
 30
0.0
 11
-19.76556294612518
 21
35.64557737820115
 31
0.0
  0
LINE
  5
7D4F
330
1F
100
AcDbEntity
  8
AM_0
100
AcDbLine
 10
-13.81037230540095
 20
46.87103571258899
 30
0.0
 11
-36.14736239902165
 21
40.88585725566288
 31
0.0
  0
LINE
  5
7D50
330
1F
100
AcDbEntity
  8
AM_0
100
AcDbLine
 10
2.320596682026965
 20
-9.960000000000007
 30
0.0
 11
2.053894516766059
 21
-8.964653968757668
 31
0.0
  0
LINE
  5
7D5B
330
1F
100
AcDbEntity
  8
AM_0
100
AcDbLine
 10
-11.35889524228425
 20
-2.599999999999992
 30
0.0
 11
-11.35889524228425
 21
-2.574859545837937
 31
0.0
  0
LINE
  5
7D6A
330
1F
100
AcDbEntity
  8
AM_0
100
AcDbLine
 10
50.42136604506118
 20
12.89761880842823
 30
0.0
 11
38.60367300891466
 21
10.81384067642519
 31
0.0
  0
LINE
  5
7D6F
330
1F
100
AcDbEntity
  8
AM_0
100
AcDbLine
 10
44.65987661044252
 20
-4.221571645930685
 30
0.0
 11
54.34572485528639
 21
-1.626256430714455
 31
0.0
  0
LINE
  5
7D74
330
1F
100
AcDbEntity
  8
AM_0
100
AcDbLine
 10
52.94413797756916
 20
3.604537008148007
 30
0.0
 11
44.03995916054969
 21
1.21866948486487
 31
0.0
  0
LINE
  5
7D79
330
1F
100
AcDbEntity
  8
AM_0
100
AcDbLine
 10
42.31053230961229
 20
-3.074746033259662
 30
0.0
 11
43.71529546717354
 21
-2.698340879634121
 31
0.0
  0
LINE
  5
7D83
330
1F
100
AcDbEntity
  8
AM_0
100
AcDbLine
 10
42.31053230961227
 20
-3.074746033259662
 30
0.0
 11
41.12274779323686
 21
1.358126130296989
 31
0.0
  0
LINE
  5
7D8F
330
1F
100
AcDbEntity
  8
AM_0
100
AcDbLine
 10
54.34572485528639
 20
-1.626256430714455
 30
0.0
 11
50.45116139369844
 21
12.90845228123304
 31
0.0
  0
LINE
  5
7D97
330
1F
100
AcDbEntity
  8
DEFPOINTS
100
AcDbLine
 10
44.05206698411115
 20
1.221913766410233
 30
0.0
 11
42.24746169505986
 21
11.45633893379268
 31
0.0
  0
LINE
  5
7E49
330
1F
100
AcDbEntity
  8
AM_0
100
AcDbLine
 10
44.03995916054969
 20
1.21866948486487
 30
0.0
 11
44.65937492831715
 21
-4.219699342749612
 31
0.0
  0
LINE
  5
7EEC
330
1F
100
AcDbEntity
  8
AM_0
100
AcDbLine
 10
43.71522692102431
 20
-2.69845295201461
 30
0.0
 11
42.94352793978629
 21
1.678069450498009
 31
0.0
  0
LINE
  5
7EED
330
1F
100
AcDbEntity
  8
AM_0
100
AcDbLine
 10
44.65937492831717
 20
-4.21969934274964
 30
0.0
 11
43.71521114364592
 21
-2.698363474055247
 31
0.0
  0
LINE
  5
7EF8
330
1F
100
AcDbEntity
  8
AM_0
100
AcDbLine
 10
-11.35889524228426
 20
-2.574859545837937
 30
0.0
 11
-9.317630310713866
 21
-2.027904255885685
 31
0.0
  0
ARC
  5
7FAF
330
1F
100
AcDbEntity
  8
AM_0
100
AcDbCircle
 10
-12.75889524228423
 20
-2.600000000000049
 30
0.0
 40
1.399999999999999
100
AcDbArc
 50
269.9999999999993
 51
0.0000000000023181
1001
GENIUS_GENODEF_13
1002
{
1000
HIER
1070
     0
1002
}
1002
{
1000
MANEDIT
1070
     0
1002
}
1002
{
1000
NOSEL
1070
     0
1002
}
1002
{
1000
BEHIND
1070
     0
1002
}
1002
{
1000
REACTOR
1002
}
1001
GENIUS_GENOBJ-N-FIL_13
1002
{
1000
OWNER
1000
GEN
1002
}
  0
LINE
  5
7FC2
330
1F
100
AcDbEntity
  8
AM_0
100
AcDbLine
 10
43.03641528527824
 20
-2.879860201463463
 30
0.0
 11
42.25416251267775
 21
1.556515726131204
 31
0.0
  0
LINE
  5
7FD7
330
1F
100
AcDbEntity
  8
AM_0
100
AcDbLine
 10
-20.77875834049252
 20
32.58054813701758
 30
0.0
 11
-24.98518433892674
 21
43.87675385263693
 31
0.0
  0
POLYLINE
  5
7FE6
330
1F
100
AcDbEntity
  8
AM_0
100
AcDb2dPolyline
 66
     1
 10
0.0
 20
0.0
 30
0.0
 70
     1
  0
VERTEX
  5
7FE7
330
7FE6
100
AcDbEntity
  8
AM_0
100
AcDbVertex
100
AcDb2dVertex
 10
-0.8209168264652078
 20
-0.0272593389687471
 30
0.0
  0
VERTEX
  5
7FE8
330
7FE6
100
AcDbEntity
  8
AM_0
100
AcDbVertex
100
AcDb2dVertex
 10
-8.47587899980607
 20
-2.078400271406223
 30
0.0
 42
0.4142135623730951
  0
VERTEX
  5
7FE9
330
7FE6
100
AcDbEntity
  8
AM_0
100
AcDbVertex
100
AcDb2dVertex
 10
-9.041564424755307
 20
-3.058196168519486
 30
0.0
  0
VERTEX
  5
7FEA
330
7FE6
100
AcDbEntity
  8
AM_0
100
AcDbVertex
100
AcDb2dVertex
 10
-6.990423492317831
 20
-10.71315834186037
 30
0.0
 42
0.4142135623730951
  0
VERTEX
  5
7FEB
330
7FE6
100
AcDbEntity
  8
AM_0
100
AcDbVertex
100
AcDb2dVertex
 10
-6.010627595204569
 20
-11.27884376680961
 30
0.0
  0
VERTEX
  5
7FEC
330
7FE6
100
AcDbEntity
  8
AM_0
100
AcDbVertex
100
AcDb2dVertex
 10
1.644334578136315
 20
-9.227702834372138
 30
0.0
 42
0.4142135623730946
  0
VERTEX
  5
7FED
330
7FE6
100
AcDbEntity
  8
AM_0
100
AcDbVertex
100
AcDb2dVertex
 10
2.210020003085552
 20
-8.247906937258875
 30
0.0
  0
VERTEX
  5
7FEE
330
7FE6
100
AcDbEntity
  8
AM_0
100
AcDbVertex
100
AcDb2dVertex
 10
0.1588790706480622
 20
-0.5929447639179842
 30
0.0
 42
0.4142135623730951
  0
SEQEND
  5
7FEF
330
7FE6
100
AcDbEntity
  8
AM_0
  0
LINE
  5
7FF8
330
1F
100
AcDbEntity
  8
AM_0
100
AcDbLine
 10
-9.666509009121952
 20
36.07590275386655
 30
0.0
 11
-18.61253775514962
 21
32.64184406187419
 31
0.0
  0
LINE
  5
800F
330
1F
100
AcDbEntity
  8
AM_11
100
AcDbLine
 10
0.1588790706480764
 20
-0.5929447639179842
 30
0.0
 11
0.0
 21
0.0
 31
0.0
  0
LINE
  5
8011
330
1F
100
AcDbEntity
  8
AM_11
100
AcDbLine
 10
-0.6138615903831913
 20
0.0000000000000001
 30
0.0
 11
0.0
 21
0.0
 31
0.0
  0
LINE
  5
8026
330
1F
100
AcDbEntity
  8
AM_0
100
AcDbLine
 10
-5.575404142697751
 20
-15.9940824483356
 30
0.0
 11
-9.317630310713852
 21
-2.027904255885714
 31
0.0
  0
LINE
  5
803D
330
1F
100
AcDbEntity
  8
AM_0
100
AcDbLine
 10
-10.80611908867582
 20
39.04468851012774
 30
0.0
 11
-19.75214783470349
 21
35.61062981813538
 31
0.0
  0
LINE
  5
807A
330
1F
100
AcDbEntity
  8
AM_0
100
AcDbLine
 10
40.79636320036314
 20
1.300575720485819
 30
0.0
 11
43.92805185494203
 21
1.852776925466452
 31
0.0
  0
LINE
  5
8084
330
1F
100
AcDbEntity
  8
AM_0
100
AcDbLine
 10
42.27405296266304
 20
11.2330707729161
 30
0.0
 11
39.14236430808421
 21
10.68086956793512
 31
0.0
  0
LINE
  5
8090
330
1F
100
AcDbEntity
  8
AM_0
100
AcDbLine
 10
40.79636320036314
 20
1.30057572048579
 30
0.0
 11
39.14236430808421
 21
10.68086956793512
 31
0.0
  0
LINE
  5
8091
330
1F
100
AcDbEntity
  8
AM_0
100
AcDbLine
 10
40.61227144396025
 20
10.94005385512601
 30
0.0
 11
40.57328851493912
 21
11.16113703175889
 31
0.0
  0
LINE
  5
8092
330
1F
100
AcDbEntity
  8
AM_0
100
AcDbLine
 10
41.30163687106876
 20
11.06160757949288
 30
0.0
 11
41.26265394204766
 21
11.28269075612575
 31
0.0
  0
LINE
  5
8093
330
1F
100
AcDbEntity
  8
AM_0
100
AcDbLine
 10
40.13855900617594
 20
5.031168687847889
 30
0.0
 11
38.59039074506431
 21
10.80901129698207
 31
0.0
  0
LINE
  5
809B
330
1F
100
AcDbEntity
  8
AM_0
100
AcDbLine
 10
44.03967532269319
 20
1.219728782166408
 30
0.0
 11
42.2350700336419
 21
11.45415394954897
 31
0.0
  0
LINE
  5
80A4
330
1F
100
AcDbEntity
  8
AM_7
100
AcDbLine
 10
-21.15615453228973
 20
52.32181500960415
 30
0.0
 11
-13.77775462719683
 21
33.10042610190541
 31
0.0
  0
LINE
  5
80AC
330
1F
100
AcDbEntity
  8
AM_7
100
AcDbLine
 10
59.08059249616613
 20
9.022404488590186
 30
0.0
 11
38.33688028911323
 21
5.364728346435465
 31
0.0
  0
LINE
  5
80C4
330
1F
100
AcDbEntity
  8
AM_0
100
AcDbLine
 10
-80.0
 20
-15.99999999999998
 30
0.0
 11
-80.0
 21
-3.99999999999999
 31
0.0
  0
DIMENSION
  5
80CC
330
1F
100
AcDbEntity
  8
AM_5
100
AcDbDimension
  2
*D5
 10
-80.00000000000001
 20
14.00000100999993
 30
0.0
 11
-40.0
 21
17.10000100999993
 31
0.0
 70
    32
  1
<>
  3
AM_JIS
100
AcDbAlignedDimension
 13
0.0
 23
0.0
 33
0.0
 14
-80.00000000000001
 24
-3.99999999999999
 34
0.0
 50
180.0
100
AcDbRotatedDimension
1001
GENIUS_GENDTOL_13
1000

1000
h7
1000

1040
0.0
  0
DIMENSION
  5
8154
330
1F
100
AcDbEntity
  8
AM_5
100
AcDbDimension
  2
*D6
 10
-94.0
 20
-15.99999999999998
 30
0.0
 11
-97.1
 21
-10.0
 31
0.0
 70
    32
  1
<>
  3
AM_JIS
100
AcDbAlignedDimension
 13
-80.0
 23
-3.99999999999999
 33
0.0
 14
-80.0
 24
-15.99999999999998
 34
0.0
 50
270.0
100
AcDbRotatedDimension
1001
GENIUS_GENDTOL_13
1000

1000
h7
1000

1040
0.0
  0
DIMENSION
  5
81DF
330
1F
100
AcDbEntity
  8
AM_5
100
AcDbDimension
  2
*D7
 10
23.78651815765258
 20
-16.0
 30
0.0
 11
20.68651815765258
 21
-8.000000000000001
 31
0.0
 70
    32
  1
<>
  3
AM_JIS
100
AcDbAlignedDimension
 13
0.0
 23
0.0
 33
0.0
 14
0.7021835597429858
 24
-16.0
 34
0.0
 50
89.99999999999998
100
AcDbRotatedDimension
1001
GENIUS_GENDTOL_13
1000

1000
h7
1000

1040
0.0
  0
DIMENSION
  5
82A0
330
1F
100
AcDbEntity
  8
AM_5
100
AcDbDimension
  2
*D8
 10
0.0
 20
0.0000000000000355
 30
0.0
 11
8.811916057012018
 21
-6.761621006350474
 31
0.0
 70
    34
  1
<>
  3
AM_JIS$2
100
AcDb2LineAngularDimension
 13
2.210020003085552
 23
-8.247906937258875
 33
0.0
 14
0.1588790706480622
 24
-0.5929447639179842
 34
0.0
 15
9.851091779871513
 25
-0.0000000000000012
 35
0.0
 16
9.132197411354866
 26
-10.88332907326171
 36
0.0
1001
ACAD
1000
DSTYLE
1002
{
1070
   179
1070
     3
1002
}
1001
GENIUS_GENDTOL_13
1000

1000
h7
1000

1040
0.0
  0
DIMENSION
  5
84F8
330
1F
100
AcDbEntity
  8
AM_5
100
AcDbDimension
  2
*D9
 10
33.4870236322981
 20
31.78688830408045
 30
0.0
 11
39.04109713346026
 21
33.2750978134199
 31
0.0
 70
   160
  1
<>
  3
AM_JIS
100
AcDbAlignedDimension
 13
50.45116139369844
 23
12.90845228123304
 33
0.0
 14
39.14236430808421
 24
10.68086956793512
 34
0.0
 50
194.9999999999995
100
AcDbRotatedDimension
1001
GENIUS_GENDTOL_13
1000

1000
h7
1000

1040
0.0
  0
DIMENSION
  5
8628
330
1F
100
AcDbEntity
  8
AM_5
100
AcDbDimension
  2
*D10
 10
7.570706590962814
 20
40.69460075366911
 30
0.0
 11
6.152711562150253
 21
45.98663024607901
 31
0.0
 70
   160
  1
<>
 51
345.0000000000037
  3
AM_JIS
100
AcDbAlignedDimension
 13
-13.81037230540096
 23
46.87103571258901
 33
0.0
 14
-9.666509009122629
 24
36.07590275386624
 34
0.0
 50
104.9999999999959
100
AcDbRotatedDimension
1001
GENIUS_GENDTOL_13
1000

1000
h7
1000

1040
0.0
  0
DIMENSION
  5
86DB
330
1F
100
AcDbEntity
  8
AM_5
100
AcDbDimension
  2
*D11
 10
-18.61253775514963
 20
32.64184406187419
 30
0.0
 11
-0.4780486657669654
 21
25.81364236159537
 31
0.0
 70
    34
  1
-<>
 51
345.0000000000037
  3
AM_JIS$2
100
AcDb2LineAngularDimension
 13
-1.939102398809938
 23
38.14645511468583
 33
0.0
 14
-9.666509009121963
 24
36.07590275386655
 34
0.0
 15
-9.666509009121952
 25
36.07590275386655
 35
0.0
 16
-1.3388180985272
 26
38.943356689325
 36
0.0
1001
ACAD
1000
DSTYLE
1002
{
1070
   179
1070
     3
1070
    76
1070
     0
1070
    75
1070
     0
1002
}
1001
GENIUS_GENDTOL_13
1000

1000
h7
1000

1040
0.0
  0
DIMENSION
  5
8843
330
1F
100
AcDbEntity
  8
AM_5
100
AcDbDimension
  2
*D12
 10
-43.4087281025176
 20
38.94018017946452
 30
0.0
 11
-44.85018389339901
 21
32.34228618191235
 31
0.0
 70
    32
  1
<>
 51
345.0000000000037
  3
AM_JIS
100
AcDbAlignedDimension
 13
-33.04153385779212
 23
29.29474734019377
 33
0.0
 14
-36.14736239902163
 24
40.88585725566281
 34
0.0
 50
284.999999999996
100
AcDbRotatedDimension
1001
GENIUS_GENDTOL_13
1000

1000
h7
1000

1040
0.0
  0
DIMENSION
  5
88DC
330
1F
100
AcDbEntity
  8
AM_5
100
AcDbDimension
  2
*D13
 10
39.14236430808419
 20
10.68086956793515
 30
0.0
 11
29.78961685419154
 21
18.31901379211083
 31
0.0
 70
   162
  1
-<>
 51
345.0000000000037
  3
AM_JIS$2
100
AcDb2LineAngularDimension
 13
36.05587492508854
 23
22.19980476229664
 33
0.0
 14
39.14236430808421
 24
10.68086956793512
 34
0.0
 15
40.79636320036314
 25
1.30057572048579
 35
0.0
 16
36.70050751652174
 26
22.50679310629377
 36
0.0
1001
ACAD
1000
DSTYLE
1002
{
1070
   179
1070
     3
1070
    76
1070
     0
1070
    75
1070
     0
1002
}
1001
GENIUS_GENDTOL_13
1000

1000
h7
1000

1040
0.0
  0
LINE
  5
8AA8
330
1F
100
AcDbEntity
  8
AM_0
100
AcDbLine
 10
-8.742357603393569
 20
-2.20634196943595
 30
0.0
 11
-9.23448491798776
 21
-2.338207085954762
 31
0.0
  0
CIRCLE
  5
8AFE
330
1F
100
AcDbEntity
  8
AM_0
100
AcDbCircle
 10
-3.578199120684812
 20
-5.696573712212553
 30
0.0
 40
2.0
  0
LINE
  5
8B63
330
1F
100
AcDbEntity
  8
AM_0
100
AcDbLine
 10
-19.06210586543985
 20
51.74988091850103
 30
0.0
 11
-22.32963735818014
 21
50.49559309509268
 31
0.0
  0
LINE
  5
8B6B
330
1F
100
AcDbEntity
  8
AM_0
100
AcDbLine
 10
-22.32963735818014
 20
50.49559309509268
 30
0.0
 11
-20.27352565870955
 21
45.13923899101189
 31
0.0
  0
LINE
  5
8B6F
330
1F
100
AcDbEntity
  8
AM_0
100
AcDbLine
 10
-19.06210586543985
 20
51.74988091850103
 30
0.0
 11
-16.87416320348687
 21
46.05009541566926
 31
0.0
  0
LINE
  5
8B79
330
1F
100
AcDbEntity
  8
AM_0
100
AcDbLine
 10
58.05761354938804
 20
7.065029128776442
 30
0.0
 11
57.44984492755378
 21
10.51185626431917
 31
0.0
  0
LINE
  5
8B81
330
1F
100
AcDbEntity
  8
AM_0
100
AcDbLine
 10
57.44984492755378
 20
10.51185626431917
 30
0.0
 11
51.38010249152737
 21
9.441596906896657
 31
0.0
  0
LINE
  5
8B85
330
1F
100
AcDbEntity
  8
AM_0
100
AcDbLine
 10
58.05761354938804
 20
7.065029128776442
 30
0.0
 11
52.28942941285517
 21
6.047942635811203
 31
0.0
  0
VIEWPORT
  5
110
330
101
100
AcDbEntity
 67
     1
  8
0
100
AcDbViewport
 10
420.5
 20
297.0
 30
0.0
 40
948.9782706766916
 41
628.452
 68
     1
 69
     1
1001
ACAD
1000
MVIEW
1002
{
1070
    16
1010
0.0
1020
0.0
1030
0.0
1010
0.0
1020
0.0
1030
1.0
1040
0.0
1040
628.452
1040
420.5
1040
297.0
1040
50.0
1040
0.0
1040
0.0
1070
     0
1070
   100
1070
     1
1070
     1
1070
     0
1070
     0
1070
     0
1070
     0
1040
0.0
1040
0.0
1040
0.0
1040
10.0
1040
10.0
1040
10.0
1040
10.0
1070
     0
1002
{
1002
}
1002
}
  0
ENDSEC
  0
SECTION
  2
OBJECTS
  0
DICTIONARY
  5
C
330
0
100
AcDbDictionary
  3
ACAD_GROUP
350
D
  3
ACAD_LAYOUT
350
1A
  3
ACAD_MLINESTYLE
350
17
  3
ACAD_PLOTSETTINGS
350
19
  3
ACAD_PLOTSTYLENAME
350
E
  3
ACDBVARIABLEDICTIONARY
350
34
  3
ACMDICTIONARY
350
43
  3
AMG
350
2B
  3
AMGSNAPSETTINGS
350
6E
  3
DWGPROPS
350
8CAC
  3
ACDBHEADERROUNDTRIPXREC
350
8CB9
  0
DICTIONARY
  5
74
330
1F
100
AcDbDictionary
280
     1
  3
ACAD_INDEX
360
8CAE
  3
ACAD_LAYOUTSELFREF
360
8CDC
  0
DICTIONARY
  5
8CE1
330
101
100
AcDbDictionary
280
     1
  3
ACAD_LAYOUTSELFREF
360
8CE2
  0
DICTIONARY
  5
D
102
{ACAD_REACTORS
330
C
102
}
330
C
100
AcDbDictionary
  0
DICTIONARY
  5
1A
102
{ACAD_REACTORS
330
C
102
}
330
C
100
AcDbDictionary
  0
DICTIONARY
  5
17
102
{ACAD_REACTORS
330
C
102
}
330
C
100
AcDbDictionary
  3
STANDARD
350
18
  0
DICTIONARY
  5
19
102
{ACAD_REACTORS
330
C
102
}
330
C
100
AcDbDictionary
  0
ACDBDICTIONARYWDFLT
  5
E
102
{ACAD_REACTORS
330
C
102
}
330
C
100
AcDbDictionary
281
     1
  3
Normal
350
F
100
AcDbDictionaryWithDefault
340
F
  0
DICTIONARY
  5
34
102
{ACAD_REACTORS
330
C
102
}
330
C
100
AcDbDictionary
  3
INDEXCTL
350
35
  3
SORTENTS
350
B5E
  0
DICTIONARY
  5
43
102
{ACAD_REACTORS
330
C
102
}
330
C
100
AcDbDictionary
  3
ACMSTDDICTIONARY
350
260
  0
DICTIONARY
  5
2B
102
{ACAD_REACTORS
330
C
102
}
330
C
100
AcDbDictionary
  3
ACMGSETTINGS
350
2C
  0
DICTIONARY
  5
6E
102
{ACAD_REACTORS
330
C
102
}
330
C
100
AcDbDictionary
  0
XRECORD
  5
8CAC
102
{ACAD_REACTORS
330
C
102
}
330
C
100
AcDbXrecord
  1
DWGPROPS COOKIE
  2

  3

  4

  6

  7

  8

  9

300
AmdtFileType=82
301
=
302
=
303
=
304
=
305
=
306
=
307
=
308
=
309
=
 40
1.178770949074074
 41
2452838.620506898
 42
2452909.483623576
  1

 90
        1
  0
DICTIONARY
  5
8CB9
102
{ACAD_REACTORS
330
C
102
}
330
C
100
AcDbDictionary
  3
TSTACKALIGN
350
8CBA
  3
TSTACKSIZE
350
8CBB
  3
HYPERLINKBASE
350
8CBC
  3
STYLESHEET
350
8CBD
  3
LAYOUTDICT
350
8CBE
  3
PLOTSETDICT
350
8CBF
  3
PLOTSTYLNAMDICT
350
8CC0
  3
LWETCUNION
350
8CC1
  3
INSUNITS
350
8CC2
  3
CEPSNTYPE
350
8CC3
  3
FINGERPRINTGUID
350
8CC4
  3
VERSIONGUID
350
8CC5
  3
PSVPSCALE
350
8CC6
  3
DIMSTYLEDATA
350
8CC7
  3
PUCSORTHOREF
350
8CC8
  3
PUCSORTHOVIEW
350
8CC9
  3
PUCSBASE
350
8CCA
  3
PUCSORGTOP
350
8CCB
  3
PUCSORGBOTTOM
350
8CCC
  3
PUCSORGLEFT
350
8CCD
  3
PUCSORGRIGHT
350
8CCE
  3
PUCSORGFRONT
350
8CCF
  3
PUCSORGBACK
350
8CD0
  3
UCSORTHOREF
350
8CD1
  3
UCSORTHOVIEW
350
8CD2
  3
UCSBASE
350
8CD3
  3
UCSORGTOP
350
8CD4
  3
UCSORGBOTTOM
350
8CD5
  3
UCSORGLEFT
350
8CD6
  3
UCSORGRIGHT
350
8CD7
  3
UCSORGFRONT
350
8CD8
  3
UCSORGBACK
350
8CD9
  0
DICTIONARY
  5
8CAE
102
{ACAD_REACTORS
330
74
102
}
330
74
100
AcDbDictionary
  3
*A1
350
8CAF
  0
XRECORD
  5
8CDC
102
{ACAD_REACTORS
330
74
102
}
330
74
100
AcDbXrecord
340
1F
  0
XRECORD
  5
8CE2
102
{ACAD_REACTORS
330
8CE1
102
}
330
8CE1
100
AcDbXrecord
340
101
  0
MLINESTYLE
  5
18
102
{ACAD_REACTORS
330
17
102
}
330
17
100
AcDbMlineStyle
  2
STANDARD
 70
     0
  3

 62
   256
 51
90.0
 52
90.0
 71
     2
 49
0.5
 62
   256
  6
BYLAYER
 49
-0.5
 62
   256
  6
BYLAYER
  0
ACDBPLACEHOLDER
  5
F
102
{ACAD_REACTORS
330
E
102
}
330
E
100
AcDbPlaceHolder
280
     0
  0
DICTIONARYVAR
  5
35
102
{ACAD_REACTORS
330
34
102
}
330
34
100
DictionaryVariables
280
     0
  1
1
  0
DICTIONARYVAR
  5
B5E
102
{ACAD_REACTORS
330
34
102
}
330
34
100
DictionaryVariables
280
     0
  1
96
  0
DICTIONARY
  5
260
102
{ACAD_REACTORS
330
43
102
}
330
43
100
AcDbDictionary
  0
DICTIONARY
  5
2C
102
{ACAD_REACTORS
330
2B
102
}
330
2B
100
AcDbDictionary
  3
DWGSETTINGS
350
2D
  0
XRECORD
  5
8CBA
102
{ACAD_REACTORS
330
8CB9
102
}
330
8CB9
100
AcDbXrecord
 90
        1
  0
XRECORD
  5
8CBB
102
{ACAD_REACTORS
330
8CB9
102
}
330
8CB9
100
AcDbXrecord
 90
       70
  0
XRECORD
  5
8CBC
102
{ACAD_REACTORS
330
8CB9
102
}
330
8CB9
100
AcDbXrecord
  1

  0
XRECORD
  5
8CBD
102
{ACAD_REACTORS
330
8CB9
102
}
330
8CB9
100
AcDbXrecord
  1
ASAMI.ctb
  0
XRECORD
  5
8CBE
102
{ACAD_REACTORS
330
8CB9
102
}
330
8CB9
100
AcDbXrecord
340
1A
  0
XRECORD
  5
8CBF
102
{ACAD_REACTORS
330
8CB9
102
}
330
8CB9
100
AcDbXrecord
340
19
  0
XRECORD
  5
8CC0
102
{ACAD_REACTORS
330
8CB9
102
}
330
8CB9
100
AcDbXrecord
340
E
  0
XRECORD
  5
8CC1
102
{ACAD_REACTORS
330
8CB9
102
}
330
8CB9
100
AcDbXrecord
 90
    10781
  0
XRECORD
  5
8CC2
102
{ACAD_REACTORS
330
8CB9
102
}
330
8CB9
100
AcDbXrecord
 90
        4
  0
XRECORD
  5
8CC3
102
{ACAD_REACTORS
330
8CB9
102
}
330
8CB9
100
AcDbXrecord
 90
        0
  0
XRECORD
  5
8CC4
102
{ACAD_REACTORS
330
8CB9
102
}
330
8CB9
100
AcDbXrecord
  1
{AFB28963-8C59-40AE-9337-C84526B81ACE}
  0
XRECORD
  5
8CC5
102
{ACAD_REACTORS
330
8CB9
102
}
330
8CB9
100
AcDbXrecord
  1
{D015D37B-B308-4641-B01D-CD66595EB84C}
  0
XRECORD
  5
8CC6
102
{ACAD_REACTORS
330
8CB9
102
}
330
8CB9
100
AcDbXrecord
 40
0.0
  0
XRECORD
  5
8CC7
102
{ACAD_REACTORS
330
8CB9
102
}
330
8CB9
100
AcDbXrecord
1000
DSTYLE
1002
{
1070
    79
 70
     2
1070
   341
340
59
1070
   342
340
59
1070
   371
 70
    -1
1070
   372
 70
    -1
1002
}
  0
XRECORD
  5
8CC8
102
{ACAD_REACTORS
330
8CB9
102
}
330
8CB9
100
AcDbXrecord
340
0
  0
XRECORD
  5
8CC9
102
{ACAD_REACTORS
330
8CB9
102
}
330
8CB9
100
AcDbXrecord
 70
     0
  0
XRECORD
  5
8CCA
102
{ACAD_REACTORS
330
8CB9
102
}
330
8CB9
100
AcDbXrecord
340
0
  0
XRECORD
  5
8CCB
102
{ACAD_REACTORS
330
8CB9
102
}
330
8CB9
100
AcDbXrecord
 10
0.0
 20
0.0
 30
0.0
  0
XRECORD
  5
8CCC
102
{ACAD_REACTORS
330
8CB9
102
}
330
8CB9
100
AcDbXrecord
 10
0.0
 20
0.0
 30
0.0
  0
XRECORD
  5
8CCD
102
{ACAD_REACTORS
330
8CB9
102
}
330
8CB9
100
AcDbXrecord
 10
0.0
 20
0.0
 30
0.0
  0
XRECORD
  5
8CCE
102
{ACAD_REACTORS
330
8CB9
102
}
330
8CB9
100
AcDbXrecord
 10
0.0
 20
0.0
 30
0.0
  0
XRECORD
  5
8CCF
102
{ACAD_REACTORS
330
8CB9
102
}
330
8CB9
100
AcDbXrecord
 10
0.0
 20
0.0
 30
0.0
  0
XRECORD
  5
8CD0
102
{ACAD_REACTORS
330
8CB9
102
}
330
8CB9
100
AcDbXrecord
 10
0.0
 20
0.0
 30
0.0
  0
XRECORD
  5
8CD1
102
{ACAD_REACTORS
330
8CB9
102
}
330
8CB9
100
AcDbXrecord
340
0
  0
XRECORD
  5
8CD2
102
{ACAD_REACTORS
330
8CB9
102
}
330
8CB9
100
AcDbXrecord
 70
     0
  0
XRECORD
  5
8CD3
102
{ACAD_REACTORS
330
8CB9
102
}
330
8CB9
100
AcDbXrecord
340
0
  0
XRECORD
  5
8CD4
102
{ACAD_REACTORS
330
8CB9
102
}
330
8CB9
100
AcDbXrecord
 10
0.0
 20
0.0
 30
0.0
  0
XRECORD
  5
8CD5
102
{ACAD_REACTORS
330
8CB9
102
}
330
8CB9
100
AcDbXrecord
 10
0.0
 20
0.0
 30
0.0
  0
XRECORD
  5
8CD6
102
{ACAD_REACTORS
330
8CB9
102
}
330
8CB9
100
AcDbXrecord
 10
0.0
 20
0.0
 30
0.0
  0
XRECORD
  5
8CD7
102
{ACAD_REACTORS
330
8CB9
102
}
330
8CB9
100
AcDbXrecord
 10
0.0
 20
0.0
 30
0.0
  0
XRECORD
  5
8CD8
102
{ACAD_REACTORS
330
8CB9
102
}
330
8CB9
100
AcDbXrecord
 10
0.0
 20
0.0
 30
0.0
  0
XRECORD
  5
8CD9
102
{ACAD_REACTORS
330
8CB9
102
}
330
8CB9
100
AcDbXrecord
 10
0.0
 20
0.0
 30
0.0
  0
LAYER_INDEX
  5
8CAF
102
{ACAD_REACTORS
330
8CAE
102
}
330
8CAE
100
AcDbIndex
 40
2452941.591245289
100
AcDbLayerIndex
  8
0
360
8CB0
 90
        0
  8
AM_0
360
8CB1
 90
       42
  8
AM_11
360
8CB2
 90
        2
  8
AM_7
360
8CB3
 90
        2
  8
AM_5
360
8CB4
 90
        9
  8
Defpoints
360
8CB5
 90
        3
  8
AM_6
360
8CB6
 90
        1
  8
AM_CL
360
8CB7
 90
        0
  0
XRECORD
  5
2D
102
{ACAD_REACTORS
330
2C
102
}
330
2C
100
AcDbXrecord
  1
VERSION
140
15.0
  1
PRODUCT
  2
AutoCAD Mechanical 2000
  0
IDBUFFER
  5
8CB0
330
0
100
AcDbIdBuffer
  0
IDBUFFER
  5
8CB1
330
0
100
AcDbIdBuffer
330
7EEC
330
7EED
330
7EF8
330
7FAF
330
7FC2
330
7FD7
330
7FE6
330
7FF8
330
8026
330
803D
330
807A
330
8084
330
8090
330
8091
330
8092
330
8093
330
809B
330
80C4
330
8AA8
330
8AFE
330
8B63
330
8B6B
330
8B6F
330
8B79
330
8B81
330
8B85
330
7CCA
330
7CDA
330
7CE2
330
7CEC
330
7D34
330
7D4D
330
7D4F
330
7D50
330
7D5B
330
7D6A
330
7D6F
330
7D74
330
7D79
330
7D83
330
7D8F
330
7E49
  0
IDBUFFER
  5
8CB2
330
0
100
AcDbIdBuffer
330
800F
330
8011
  0
IDBUFFER
  5
8CB3
330
0
100
AcDbIdBuffer
330
80A4
330
80AC
  0
IDBUFFER
  5
8CB4
330
0
100
AcDbIdBuffer
330
80CC
330
8154
330
81DF
330
82A0
330
84F8
330
8628
330
86DB
330
8843
330
88DC
  0
IDBUFFER
  5
8CB5
330
0
100
AcDbIdBuffer
330
7D17
330
7D4E
330
7D97
  0
IDBUFFER
  5
8CB6
330
0
100
AcDbIdBuffer
330
C58
  0
IDBUFFER
  5
8CB7
330
0
100
AcDbIdBuffer
  0
ENDSEC
  0
EOF
