  0
SECTION
  2
HEADER
  9
$ACADVER
  1
AC1014
  9
$ACADMAINTVER
 70
     9
  9
$DWGCODEPAGE
  3
ANSI_932
  9
$INSBASE
 10
0.0
 20
0.0
 30
0.0
  9
$EXTMIN
 10
-143.6999999999999
 20
-47.50000000000007
 30
0.0
  9
$EXTMAX
 10
83.63372796098017
 20
82.37296123074875
 30
0.0
  9
$LIMMIN
 10
-158.0754489668804
 20
-69.91136875436041
  9
$LIMMAX
 10
112.9659631725935
 20
102.3810563327456
  9
$ORTHOMODE
 70
     0
  9
$REGENMODE
 70
     1
  9
$FILLMODE
 70
     1
  9
$QTEXTMODE
 70
     0
  9
$MIRRTEXT
 70
     0
  9
$DRAGMODE
 70
     2
  9
$LTSCALE
 40
1.0
  9
$OSMODE
 70
  2103
  9
$ATTMODE
 70
     1
  9
$TEXTSIZE
 40
2.5
  9
$TRACEWID
 40
1.0
  9
$TEXTSTYLE
  7
STANDARD
  9
$CLAYER
  8
AM_0
  9
$CELTYPE
  6
BYLAYER
  9
$CECOLOR
 62
   256
  9
$CELTSCALE
 40
1.0
  9
$DELOBJ
 70
     1
  9
$DISPSILH
 70
     0
  9
$DIMSCALE
 40
1.0
  9
$DIMASZ
 40
2.5
  9
$DIMEXO
 40
1.0
  9
$DIMDLI
 40
12.0
  9
$DIMRND
 40
0.0
  9
$DIMDLE
 40
0.0
  9
$DIMEXE
 40
1.0
  9
$DIMTP
 40
0.1
  9
$DIMTM
 40
0.1
  9
$DIMTXT
 40
3.2
  9
$DIMCEN
 40
0.0
  9
$DIMTSZ
 40
0.0
  9
$DIMTOL
 70
     0
  9
$DIMLIM
 70
     0
  9
$DIMTIH
 70
     0
  9
$DIMTOH
 70
     0
  9
$DIMSE1
 70
     0
  9
$DIMSE2
 70
     0
  9
$DIMTAD
 70
     3
  9
$DIMZIN
 70
     8
  9
$DIMBLK
  1
OPEN30
  9
$DIMASO
 70
     1
  9
$DIMSHO
 70
     1
  9
$DIMPOST
  1

  9
$DIMAPOST
  1
"
  9
$DIMALT
 70
     0
  9
$DIMALTD
 70
     2
  9
$DIMALTF
 40
0.0393701
  9
$DIMLFAC
 40
1.0
  9
$DIMTOFL
 70
     1
  9
$DIMTVP
 40
0.0
  9
$DIMTIX
 70
     0
  9
$DIMSOXD
 70
     0
  9
$DIMSAH
 70
     0
  9
$DIMBLK1
  1

  9
$DIMBLK2
  1

  9
$DIMSTYLE
  2
AM_JIS
  9
$DIMCLRD
 70
     3
  9
$DIMCLRE
 70
     3
  9
$DIMCLRT
 70
     2
  9
$DIMTFAC
 40
0.71
  9
$DIMGAP
 40
1.5
  9
$DIMJUST
 70
     0
  9
$DIMSD1
 70
     0
  9
$DIMSD2
 70
     0
  9
$DIMTOLJ
 70
     0
  9
$DIMTZIN
 70
     0
  9
$DIMALTZ
 70
     0
  9
$DIMALTTZ
 70
     0
  9
$DIMFIT
 70
     3
  9
$DIMUPT
 70
     0
  9
$DIMUNIT
 70
     2
  9
$DIMDEC
 70
     3
  9
$DIMTDEC
 70
     3
  9
$DIMALTU
 70
     2
  9
$DIMALTTD
 70
     2
  9
$DIMTXSTY
  7
ASAMI
  9
$DIMAUNIT
 70
     0
  9
$LUNITS
 70
     2
  9
$LUPREC
 70
     2
  9
$SKETCHINC
 40
1.0
  9
$FILLETRAD
 40
0.8
  9
$AUNITS
 70
     0
  9
$AUPREC
 70
     0
  9
$MENU
  1
.
  9
$ELEVATION
 40
0.0
  9
$PELEVATION
 40
0.0
  9
$THICKNESS
 40
0.0
  9
$LIMCHECK
 70
     0
  9
$BLIPMODE
 70
     0
  9
$CHAMFERA
 40
2.5
  9
$CHAMFERB
 40
2.5
  9
$CHAMFERC
 40
20.0
  9
$CHAMFERD
 40
0.0
  9
$SKPOLY
 70
     0
  9
$TDCREATE
 40
2452838.620506898
  9
$TDUPDATE
 40
2452941.591328484
  9
$TDINDWG
 40
1.0723424537
  9
$TDUSRTIMER
 40
1.0723424537
  9
$USRTIMER
 70
     1
  9
$ANGBASE
 50
0.0
  9
$ANGDIR
 70
     0
  9
$PDMODE
 70
     0
  9
$PDSIZE
 40
0.0
  9
$PLINEWID
 40
0.0
  9
$COORDS
 70
     0
  9
$SPLFRAME
 70
     0
  9
$SPLINETYPE
 70
     6
  9
$SPLINESEGS
 70
     8
  9
$ATTDIA
 70
     1
  9
$ATTREQ
 70
     1
  9
$HANDLING
 70
 12289
  9
$HANDSEED
  5
7F1F
  9
$SURFTAB1
 70
     6
  9
$SURFTAB2
 70
     6
  9
$SURFTYPE
 70
     6
  9
$SURFU
 70
     6
  9
$SURFV
 70
     6
  9
$UCSNAME
  2

  9
$UCSORG
 10
0.0
 20
0.0
 30
0.0
  9
$UCSXDIR
 10
1.0
 20
0.0
 30
0.0
  9
$UCSYDIR
 10
0.0
 20
1.0
 30
0.0
  9
$PUCSNAME
  2

  9
$PUCSORG
 10
0.0
 20
0.0
 30
0.0
  9
$PUCSXDIR
 10
1.0
 20
0.0
 30
0.0
  9
$PUCSYDIR
 10
0.0
 20
1.0
 30
0.0
  9
$USERI1
 70
     0
  9
$USERI2
 70
     0
  9
$USERI3
 70
     0
  9
$USERI4
 70
     0
  9
$USERI5
 70
     0
  9
$USERR1
 40
0.0
  9
$USERR2
 40
0.0
  9
$USERR3
 40
0.0
  9
$USERR4
 40
0.0
  9
$USERR5
 40
0.0
  9
$WORLDVIEW
 70
     1
  9
$SHADEDGE
 70
     3
  9
$SHADEDIF
 70
    70
  9
$TILEMODE
 70
     1
  9
$MAXACTVP
 70
    64
  9
$PINSBASE
 10
0.0
 20
0.0
 30
0.0
  9
$PLIMCHECK
 70
     0
  9
$PEXTMIN
 10
1.000000000000000E+20
 20
1.000000000000000E+20
 30
1.000000000000000E+20
  9
$PEXTMAX
 10
-1.000000000000000E+20
 20
-1.000000000000000E+20
 30
-1.000000000000000E+20
  9
$PLIMMIN
 10
0.0
 20
0.0
  9
$PLIMMAX
 10
841.0
 20
594.0
  9
$UNITMODE
 70
     0
  9
$VISRETAIN
 70
     1
  9
$PLINEGEN
 70
     0
  9
$PSLTSCALE
 70
     0
  9
$TREEDEPTH
 70
  3020
  9
$PICKSTYLE
 70
     0
  9
$CMLSTYLE
  2
STANDARD
  9
$CMLJUST
 70
     0
  9
$CMLSCALE
 40
20.0
  9
$PROXYGRAPHICS
 70
     1
  9
$MEASUREMENT
 70
     1
  0
ENDSEC
  0
SECTION
  2
CLASSES
  0
CLASS
  1
ACDBDICTIONARYWDFLT
  2
AcDbDictionaryWithDefault
  3
AutoCAD 2000
 90
        0
280
     0
281
     0
  0
CLASS
  1
ACDBPLACEHOLDER
  2
AcDbPlaceHolder
  3
AutoCAD 2000
 90
        0
280
     0
281
     0
  0
CLASS
  1
LAYOUT
  2
AcDbLayout
  3
AutoCAD 2000
 90
        0
280
     0
281
     0
  0
CLASS
  1
AMGSETTINGSOBJ
  2
AmgSettingsObj
  3
"AcadM|Product Description: AutoCAD Mechanical 2000|Company: Autodesk"
 90
        0
280
     0
281
     0
  0
CLASS
  1
ACME_DOCUMENT
  2
AcMeDbDoc
  3
AcMeServices
 90
        0
280
     0
281
     0
  0
CLASS
  1
ACMESCOPE
  2
AcMeScope
  3
AcMeServices
 90
        0
280
     0
281
     0
  0
CLASS
  1
ACMECOMMANDHISTORY
  2
AcMeCommandHistory
  3
AcMeServices
 90
        0
280
     0
281
     0
  0
CLASS
  1
DICTIONARYVAR
  2
AcDbDictionaryVar
  3
AutoCAD 2000
 90
        0
280
     0
281
     0
  0
CLASS
  1
ACIMSYSVARMAN
  2
AcImSysVarManager
  3
AcMeServices
 90
        0
280
     0
281
     0
  0
CLASS
  1
ACIMREALSYSVAR
  2
AcImRealSysVar
  3
AcMeServices
 90
        0
280
     0
281
     0
  0
CLASS
  1
ACIMINTSYSVAR
  2
AcImIntSysVar
  3
AcMeServices
 90
        0
280
     0
281
     0
  0
CLASS
  1
ACMEDRAWINGMAN
  2
AcMeDrawingMan
  3
AcMeServices
 90
        0
280
     0
281
     0
  0
CLASS
  1
ACMEVIEW
  2
AcMeView
  3
AcMeServices
 90
        0
280
     0
281
     0
  0
CLASS
  1
ACDBENTITYCACHE
  2
AcMeEntityCache
  3
AcMeServices
 90
        0
280
     0
281
     0
  0
CLASS
  1
GSMANAGER
  2
AcMeGSManager
  3
AcMeServices
 90
        0
280
     0
281
     0
  0
CLASS
  1
AmdtInternalReactor
  2
AmdtInternalReactor
  3
AcMeServices
 90
        0
280
     0
281
     0
  0
CLASS
  1
ACMESTATEMGR
  2
AcMeStateMgr
  3
AcMeServices
 90
        0
280
     0
281
     0
  0
CLASS
  1
ACME_DATABASE
  2
AcMeDbDatabase
  3
AcMeServices
 90
        0
280
     0
281
     0
  0
CLASS
  1
ACRFINSADJUSTERMGR
  2
AcRfInsAdjusterMgr
  3
AcMeServices
 90
        0
280
     0
281
     0
  0
CLASS
  1
ACMDATADICTIONARY
  2
AcmDataDictionary
  3
"AcmSymBB|Product Description: AutoCAD Mechanical 2000|Company: Autodesk"
 90
        0
280
     0
281
     0
  0
CLASS
  1
ACMDATAENTRYBLOCK
  2
AcmDataEntryBlock
  3
"AcmSymBB|Product Description: AutoCAD Mechanical 2000|Company: Autodesk"
 90
        0
280
     0
281
     0
  0
CLASS
  1
AMGOBJPROPCFG
  2
AmgObjPropCfg
  3
"AmgLay|Product Description: AutoCAD Mechanical 2000|Company: Autodesk"
 90
        1
280
     0
281
     0
  0
CLASS
  1
ACAMGFILTERDAT
  2
AcAmgFilterDat
  3
"AcadM|Product Description: AutoCAD Mechanical 2000|Company: Autodesk"
 90
        0
280
     0
281
     0
  0
CLASS
  1
LAYER_INDEX
  2
AcDbLayerIndex
  3
AutoCAD 2000
 90
        0
280
     0
281
     0
  0
CLASS
  1
IDBUFFER
  2
AcDbIdBuffer
  3
AutoCAD 2000
 90
        0
280
     0
281
     0
  0
CLASS
  1
ACIMSTRSYSVAR
  2
AcImStrSysVar
  3
AcMeServices
 90
        0
280
     0
281
     0
  0
CLASS
  1
ACMSTANDARDJIS
  2
AcmStandardJIS
  3
"AcmSymBB|Product Description: AutoCAD Mechanical 2000|Company: Autodesk"
 90
        0
280
     0
281
     0
  0
CLASS
  1
ACMSURFSTANDARDJIS
  2
AcmSurfTextStdJIS
  3
"AcmSymBB|Product Description: AutoCAD Mechanical 2000|Company: Autodesk"
 90
        0
280
     0
281
     0
  0
CLASS
  1
ACMFCFSTANDARDJIS
  2
AcmFCFStdJIS
  3
"AcmSymBB|Product Description: AutoCAD Mechanical 2000|Company: Autodesk"
 90
        0
280
     0
281
     0
  0
CLASS
  1
ACMWELDSTANDARDJIS
  2
AcmWeldingStdJIS
  3
"AcmSymBB|Product Description: AutoCAD Mechanical 2000|Company: Autodesk"
 90
        0
280
     0
281
     0
  0
CLASS
  1
ACMIDSTANDARDJIS
  2
AcmIdStdJIS
  3
"AcmSymBB|Product Description: AutoCAD Mechanical 2000|Company: Autodesk"
 90
        0
280
     0
281
     0
  0
CLASS
  1
ACMDATUMSTANDARDJIS
  2
AcmDatumStdJIS
  3
"AcmSymBB|Product Description: AutoCAD Mechanical 2000|Company: Autodesk"
 90
        0
280
     0
281
     0
  0
CLASS
  1
ACMBOMSTANDARDJIS
  2
AcmBOMStdJIS
  3
"AcmSymBB|Product Description: AutoCAD Mechanical 2000|Company: Autodesk"
 90
        0
280
     0
281
     0
  0
CLASS
  1
ACMSTANDARDANSI
  2
AcmStandardANSI
  3
"AcmSymBB|Product Description: AutoCAD Mechanical 2000|Company: Autodesk"
 90
        0
280
     0
281
     0
  0
CLASS
  1
ACMSURFSTANDARDANSI
  2
AcmSurfTextStdANSI
  3
"AcmSymBB|Product Description: AutoCAD Mechanical 2000|Company: Autodesk"
 90
        0
280
     0
281
     0
  0
CLASS
  1
ACMFCFSTANDARDANSI
  2
AcmFCFStdANSI
  3
"AcmSymBB|Product Description: AutoCAD Mechanical 2000|Company: Autodesk"
 90
        0
280
     0
281
     0
  0
CLASS
  1
ACMWELDSTANDARDANSI
  2
AcmWeldingStdANSI
  3
"AcmSymBB|Product Description: AutoCAD Mechanical 2000|Company: Autodesk"
 90
        0
280
     0
281
     0
  0
CLASS
  1
ACMIDSTANDARDANSI
  2
AcmIdStdANSI
  3
"AcmSymBB|Product Description: AutoCAD Mechanical 2000|Company: Autodesk"
 90
        0
280
     0
281
     0
  0
CLASS
  1
ACMDATUMSTANDARDANSI
  2
AcmDatumStdANSI
  3
"AcmSymBB|Product Description: AutoCAD Mechanical 2000|Company: Autodesk"
 90
        0
280
     0
281
     0
  0
CLASS
  1
ACMBOMSTANDARDANSI
  2
AcmBOMStdANSI
  3
"AcmSymBB|Product Description: AutoCAD Mechanical 2000|Company: Autodesk"
 90
        0
280
     0
281
     0
  0
CLASS
  1
ACMSTANDARDBSI
  2
AcmStandardBSI
  3
"AcmSymBB|Product Description: AutoCAD Mechanical 2000|Company: Autodesk"
 90
        0
280
     0
281
     0
  0
CLASS
  1
ACMSURFSTANDARDBSI
  2
AcmSurfTextStdBSI
  3
"AcmSymBB|Product Description: AutoCAD Mechanical 2000|Company: Autodesk"
 90
        0
280
     0
281
     0
  0
CLASS
  1
ACMFCFSTANDARDBSI
  2
AcmFCFStdBSI
  3
"AcmSymBB|Product Description: AutoCAD Mechanical 2000|Company: Autodesk"
 90
        0
280
     0
281
     0
  0
CLASS
  1
ACMWELDSTANDARDBSI
  2
AcmWeldingStdBSI
  3
"AcmSymBB|Product Description: AutoCAD Mechanical 2000|Company: Autodesk"
 90
        0
280
     0
281
     0
  0
CLASS
  1
ACMIDSTANDARDBSI
  2
AcmIdStdBSI
  3
"AcmSymBB|Product Description: AutoCAD Mechanical 2000|Company: Autodesk"
 90
        0
280
     0
281
     0
  0
CLASS
  1
ACMDATUMSTANDARDBSI
  2
AcmDatumStdBSI
  3
"AcmSymBB|Product Description: AutoCAD Mechanical 2000|Company: Autodesk"
 90
        0
280
     0
281
     0
  0
CLASS
  1
ACMBOMSTANDARDBSI
  2
AcmBOMStdBSI
  3
"AcmSymBB|Product Description: AutoCAD Mechanical 2000|Company: Autodesk"
 90
        0
280
     0
281
     0
  0
CLASS
  1
LONG_TRANSACTION
  2
AcDbLongTransaction
  3
AutoCAD 2000
 90
        0
280
     0
281
     0
  0
CLASS
  1
LWPOLYLINE
  2
AcDbPolyline
  3
AutoCAD 2000
 90
        0
280
     0
281
     1
  0
CLASS
  1
HATCH
  2
AcDbHatch
  3
AutoCAD 2000
 90
        0
280
     0
281
     1
  0
CLASS
  1
XRECORD
  2
AcDbXrecord
  3
AutoCAD 2000
 90
        0
280
     0
281
     0
  0
ENDSEC
  0
SECTION
  2
TABLES
  0
TABLE
  2
VPORT
  5
8
330
0
100
AcDbSymbolTable
 70
     3
  0
VPORT
  5
7EF4
330
8
100
AcDbSymbolTableRecord
100
AcDbViewportTableRecord
  2
*ACTIVE
 70
     0
 10
0.0
 20
0.0
 11
1.0
 21
1.0
 12
-30.03013522586037
 22
17.43759969219023
 13
0.0
 23
0.0
 14
2.5
 24
2.5
 15
10.0
 25
10.0
 16
0.0
 26
0.0
 36
1.0
 17
0.0
 27
0.0
 37
0.0
 40
145.8056594251472
 41
1.56570841889117
 42
50.0
 43
0.0
 44
0.0
 50
0.0
 51
0.0
 71
     0
 72
   100
 73
     1
 74
     3
 75
     0
 76
     0
 77
     0
 78
     0
  0
ENDTAB
  0
TABLE
  2
LTYPE
  5
5
330
0
100
AcDbSymbolTable
 70
    10
  0
LTYPE
  5
14
330
5
100
AcDbSymbolTableRecord
100
AcDbLinetypeTableRecord
  2
BYBLOCK
 70
     0
  3

 72
    65
 73
     0
 40
0.0
  0
LTYPE
  5
15
330
5
100
AcDbSymbolTableRecord
100
AcDbLinetypeTableRecord
  2
BYLAYER
 70
     0
  3

 72
    65
 73
     0
 40
0.0
  0
LTYPE
  5
16
330
5
100
AcDbSymbolTableRecord
100
AcDbLinetypeTableRecord
  2
CONTINUOUS
 70
     0
  3
Solid line
 72
    65
 73
     0
 40
0.0
  0
LTYPE
  5
4B
330
5
100
AcDbSymbolTableRecord
100
AcDbLinetypeTableRecord
  2
AM_ISO02W050
 70
     0
  3
__ __ __ __ __ __ __ __ __ __ __ __ __ __ __
 72
    65
 73
     2
 40
7.5
 49
6.0
 74
     0
 49
-1.5
 74
     0
  0
LTYPE
  5
4C
330
5
100
AcDbSymbolTableRecord
100
AcDbLinetypeTableRecord
  2
AM_ISO08W050
 70
     0
  3
____ . ____ . ____ . ____ . ____ . ____ . ____
 72
    65
 73
     4
 40
18.0
 49
12.0
 74
     0
 49
-1.5
 74
     0
 49
3.0
 74
     0
 49
-1.5
 74
     0
  0
LTYPE
  5
4D
330
5
100
AcDbSymbolTableRecord
100
AcDbLinetypeTableRecord
  2
AM_ISO09W050
 70
     0
  3
_____ . . _____ . . _____ . . ____ .. ____
 72
    65
 73
     6
 40
22.5
 49
12.0
 74
     0
 49
-1.5
 74
     0
 49
3.0
 74
     0
 49
-1.5
 74
     0
 49
3.0
 74
     0
 49
-1.5
 74
     0
  0
LTYPE
  5
4E
330
5
100
AcDbSymbolTableRecord
100
AcDbLinetypeTableRecord
  2
AMCONSTR
 70
     0
  3
_______________________
 72
    65
 73
     2
 40
9999.0
 49
9999.0
 74
     0
 49
0.0
 74
     0
  0
LTYPE
  5
4F
330
5
100
AcDbSymbolTableRecord
100
AcDbLinetypeTableRecord
  2
AM_ISO02W050X2
 70
     0
  3
 _ _ _ _ _ _ _ _ _ _ _ _
 72
    65
 73
     2
 40
3.75
 49
3.0
 74
     0
 49
-0.75
 74
     0
  0
LTYPE
  5
50
330
5
100
AcDbSymbolTableRecord
100
AcDbLinetypeTableRecord
  2
AM_ISO08W050X2
 70
     0
  3
__ . __ . __ . __ . __ . __
 72
    65
 73
     4
 40
9.0
 49
6.0
 74
     0
 49
-0.75
 74
     0
 49
1.5
 74
     0
 49
-0.75
 74
     0
  0
LTYPE
  5
53
330
5
100
AcDbSymbolTableRecord
100
AcDbLinetypeTableRecord
  2
AMZIGZAG
 70
     0
  3
/\/-/\/-/\/-/\/-/\/-/\/
 72
    65
 73
     2
 40
11.00009999999999
 49
0.0001
 74
     4
 75
   135
340
52
 46
0.04
 50
0.0
 44
0.0
 45
0.0
 49
-11.0
 74
     0
  0
LTYPE
  5
166
330
5
100
AcDbSymbolTableRecord
100
AcDbLinetypeTableRecord
  2
ACJISTGL
 70
     0
  3
_ _ _ _ _
 72
    65
 73
     2
 40
3.0
 49
2.0
 74
     0
 49
-1.0
 74
     0
  0
LTYPE
  5
26A
330
5
100
AcDbSymbolTableRecord
100
AcDbLinetypeTableRecord
  2
ACJISTGB
 70
     0
  3
__ . . __ . .
 72
    65
 73
     6
 40
9.0
 49
4.0
 74
     0
 49
-1.0
 74
     0
 49
1.0
 74
     0
 49
-1.0
 74
     0
 49
1.0
 74
     0
 49
-1.0
 74
     0
  0
ENDTAB
  0
TABLE
  2
LAYER
  5
2
330
0
100
AcDbSymbolTable
 70
     8
  0
LAYER
  5
10
330
2
100
AcDbSymbolTableRecord
100
AcDbLayerTableRecord
  2
0
 70
     0
 62
     7
  6
CONTINUOUS
  0
LAYER
  5
3F9
330
2
100
AcDbSymbolTableRecord
100
AcDbLayerTableRecord
  2
AM_0
 70
     0
 62
     7
  6
CONTINUOUS
  0
LAYER
  5
BD6
330
2
100
AcDbSymbolTableRecord
100
AcDbLayerTableRecord
  2
AM_11
 70
     0
 62
     3
  6
AM_ISO09W050
  0
LAYER
  5
BD7
330
2
100
AcDbSymbolTableRecord
100
AcDbLayerTableRecord
  2
AM_7
 70
     0
 62
     4
  6
AM_ISO08W050
  0
LAYER
  5
BD8
330
2
100
AcDbSymbolTableRecord
100
AcDbLayerTableRecord
  2
AM_5
 70
     0
 62
     3
  6
CONTINUOUS
  0
LAYER
  5
BD9
330
2
100
AcDbSymbolTableRecord
100
AcDbLayerTableRecord
  2
DEFPOINTS
 70
     0
 62
     7
  6
CONTINUOUS
  0
LAYER
  5
BDA
330
2
100
AcDbSymbolTableRecord
100
AcDbLayerTableRecord
  2
AM_6
 70
     0
 62
     2
  6
CONTINUOUS
  0
LAYER
  5
1E2E
330
2
100
AcDbSymbolTableRecord
100
AcDbLayerTableRecord
  2
AM_CL
 70
     0
 62
     1
  6
AMCONSTR
  0
ENDTAB
  0
TABLE
  2
STYLE
  5
3
330
0
100
AcDbSymbolTable
 70
     5
  0
STYLE
  5
11
330
3
100
AcDbSymbolTableRecord
100
AcDbTextStyleTableRecord
  2
STANDARD
 70
     0
 40
0.0
 41
1.0
 50
0.0
 71
     0
 42
2.5
  3
simplex.shx
  4
EXTFONT.SHX
  0
STYLE
  5
52
330
3
100
AcDbSymbolTableRecord
100
AcDbTextStyleTableRecord
  2

 70
     1
 40
0.0
 41
1.0
 50
0.0
 71
     0
 42
2.5
  3
ltypeshp.shx
  4

  0
STYLE
  5
6B
330
3
100
AcDbSymbolTableRecord
100
AcDbTextStyleTableRecord
  2
ASAMI
 70
     0
 40
0.0
 41
1.0
 50
0.0
 71
     0
 42
2.5
  3
simplex.shx
  4
EXTFONT.SHX
  0
STYLE
  5
262
330
3
100
AcDbSymbolTableRecord
100
AcDbTextStyleTableRecord
  2
ACJISTS
 70
     0
 40
1.0
 41
1.0
 50
0.0
 71
     0
 42
2.5
  3
simplex.shx
  4
bigfont.shx
  0
STYLE
  5
269
330
3
100
AcDbSymbolTableRecord
100
AcDbTextStyleTableRecord
  2
ACJISGDT
 70
     0
 40
0.0
 41
1.0
 50
0.0
 71
     0
 42
2.5
  3
amgdtans.shx
  4

  0
ENDTAB
  0
TABLE
  2
VIEW
  5
6
330
0
100
AcDbSymbolTable
 70
     0
  0
ENDTAB
  0
TABLE
  2
UCS
  5
7
330
0
100
AcDbSymbolTable
 70
     0
  0
ENDTAB
  0
TABLE
  2
APPID
  5
9
330
0
100
AcDbSymbolTable
 70
    13
  0
APPID
  5
12
330
9
100
AcDbSymbolTableRecord
100
AcDbRegAppTableRecord
  2
ACAD
 70
     0
  0
APPID
  5
30
330
9
100
AcDbSymbolTableRecord
100
AcDbRegAppTableRecord
  2
MCAD_NO_VIS
 70
     0
  0
APPID
  5
31
330
9
100
AcDbSymbolTableRecord
100
AcDbRegAppTableRecord
  2
ACAD_TEMP_GRAPHIC
 70
     0
  0
APPID
  5
2C2
330
9
100
AcDbSymbolTableRecord
100
AcDbRegAppTableRecord
  2
GENIUS_GENDTOL_13
 70
     0
  0
APPID
  5
339
330
9
100
AcDbSymbolTableRecord
100
AcDbRegAppTableRecord
  2
GENIUS_GENODEF_13
 70
     0
  0
APPID
  5
33A
330
9
100
AcDbSymbolTableRecord
100
AcDbRegAppTableRecord
  2
GENIUS_GENOBJ-N-RSBK_13
 70
     0
  0
APPID
  5
33B
330
9
100
AcDbSymbolTableRecord
100
AcDbRegAppTableRecord
  2
GENIUS_GENOBJ-N-LIB_13
 70
     0
  0
APPID
  5
33C
330
9
100
AcDbSymbolTableRecord
100
AcDbRegAppTableRecord
  2
GENIUS_GENSCALE_13
 70
     0
  0
APPID
  5
378
330
9
100
AcDbSymbolTableRecord
100
AcDbRegAppTableRecord
  2
GENIUS_GENDIMSH_14
 70
     0
  0
APPID
  5
BDB
330
9
100
AcDbSymbolTableRecord
100
AcDbRegAppTableRecord
  2
GENIUS_GENOBJ-N-CEN_13
 70
     0
  0
APPID
  5
BDC
330
9
100
AcDbSymbolTableRecord
100
AcDbRegAppTableRecord
  2
GENIUS_GENFIL_13
 70
     0
  0
APPID
  5
BDD
330
9
100
AcDbSymbolTableRecord
100
AcDbRegAppTableRecord
  2
GENIUS_GENOBJ-N-FIL_13
 70
     0
  0
APPID
  5
12AD
330
9
100
AcDbSymbolTableRecord
100
AcDbRegAppTableRecord
  2
GENIUS_GENOREF_13
 70
     0
  0
ENDTAB
  0
TABLE
  2
DIMSTYLE
  5
A
330
0
100
AcDbSymbolTable
 70
     8
  0
DIMSTYLE
105
58
102
{ACAD_REACTORS
330
6EEF
330
6F77
330
7061
330
76C1
330
774D
102
}
330
A
100
AcDbSymbolTableRecord
100
AcDbDimStyleTableRecord
  2
AM_JIS
 70
     0
  3

  4
"
  5
OPEN30
  6

  7

 40
1.0
 41
2.5
 42
1.0
 43
12.0
 44
1.0
 45
0.0
 46
0.0
 47
0.1
 48
0.1
140
3.2
141
0.0
142
0.0
143
0.0393701
144
1.0
145
0.0
146
0.71
147
1.5
 71
     0
 72
     0
 73
     0
 74
     0
 75
     0
 76
     0
 77
     3
 78
     8
170
     0
171
     2
172
     1
173
     0
174
     0
175
     0
176
     3
177
     3
178
     2
270
     2
271
     3
272
     3
273
     2
274
     2
340
6B
275
     0
280
     0
281
     0
282
     0
283
     0
284
     0
285
     0
286
     0
287
     3
288
     0
  0
DIMSTYLE
105
5F
330
A
100
AcDbSymbolTableRecord
100
AcDbDimStyleTableRecord
  2
AM_JIS$3
 70
     0
  3

  4
"
  5
OPEN30
  6

  7

 40
1.0
 41
2.5
 42
1.0
 43
10.0
 44
1.0
 45
0.0
 46
0.0
 47
0.1
 48
0.1
140
3.2
141
0.0
142
0.0
143
0.0393701
144
1.0
145
0.0
146
0.71
147
1.5
 71
     0
 72
     0
 73
     0
 74
     1
 75
     0
 76
     0
 77
     3
 78
     8
170
     0
171
     2
172
     0
173
     0
174
     0
175
     0
176
     3
177
     3
178
     2
270
     2
271
     2
272
     3
273
     2
274
     2
340
6B
275
     0
280
     0
281
     0
282
     0
283
     0
284
     0
285
     0
286
     0
287
     0
288
     1
  0
DIMSTYLE
105
60
330
A
100
AcDbSymbolTableRecord
100
AcDbDimStyleTableRecord
  2
AM_JIS$4
 70
     0
  3

  4
"
  5
OPEN30
  6

  7

 40
1.0
 41
2.5
 42
1.0
 43
10.0
 44
1.0
 45
0.0
 46
0.0
 47
0.1
 48
0.1
140
3.2
141
0.0
142
0.0
143
0.0393701
144
1.0
145
0.0
146
0.71
147
1.5
 71
     0
 72
     0
 73
     0
 74
     1
 75
     0
 76
     0
 77
     3
 78
     8
170
     0
171
     2
172
     0
173
     0
174
     0
175
     0
176
     3
177
     3
178
     2
270
     2
271
     2
272
     3
273
     2
274
     2
340
6B
275
     0
280
     0
281
     0
282
     0
283
     0
284
     0
285
     0
286
     0
287
     0
288
     1
  0
DIMSTYLE
105
61
330
A
100
AcDbSymbolTableRecord
100
AcDbDimStyleTableRecord
  2
AM_JIS$6
 70
     0
  3

  4
"
  5
OPEN30
  6

  7

 40
1.0
 41
2.5
 42
1.0
 43
10.0
 44
1.0
 45
0.0
 46
0.0
 47
0.1
 48
0.1
140
3.2
141
0.0
142
0.0
143
0.0393701
144
1.0
145
0.0
146
0.71
147
1.5
 71
     0
 72
     0
 73
     0
 74
     0
 75
     0
 76
     0
 77
     0
 78
     8
170
     0
171
     2
172
     1
173
     0
174
     0
175
     0
176
     3
177
     3
178
     2
270
     2
271
     2
272
     2
273
     2
274
     2
340
6B
275
     0
280
     0
281
     0
282
     0
283
     0
284
     0
285
     0
286
     0
287
     3
288
     0
  0
DIMSTYLE
105
62
330
A
100
AcDbSymbolTableRecord
100
AcDbDimStyleTableRecord
  2
AM_JIS$7
 70
     0
  3

  4
"
  5
OPEN30
  6

  7

 40
1.0
 41
2.5
 42
1.0
 43
10.0
 44
1.0
 45
0.0
 46
0.0
 47
0.1
 48
0.1
140
3.2
141
0.0
142
0.0
143
0.0393701
144
1.0
145
0.0
146
0.71
147
1.5
 71
     0
 72
     0
 73
     0
 74
     0
 75
     0
 76
     0
 77
     3
 78
     8
170
     0
171
     2
172
     1
173
     0
174
     0
175
     0
176
     3
177
     3
178
     2
270
     2
271
     2
272
     3
273
     2
274
     2
340
6B
275
     0
280
     0
281
     0
282
     0
283
     0
284
     0
285
     0
286
     0
287
     3
288
     0
  0
DIMSTYLE
105
63
330
A
100
AcDbSymbolTableRecord
100
AcDbDimStyleTableRecord
  2
AM_JIS$SF
 70
     0
  3

  4
"
  5
OPEN30
  6

  7

 40
1.0
 41
2.5
 42
1.0
 43
10.0
 44
1.0
 45
0.0
 46
0.0
 47
0.1
 48
0.1
140
3.2
141
0.0
142
0.0
143
0.0393701
144
1.0
145
0.0
146
0.71
147
1.5
 71
     0
 72
     0
 73
     0
 74
     0
 75
     1
 76
     1
 77
     3
 78
     8
170
     0
171
     2
172
     1
173
     0
174
     0
175
     0
176
   256
177
   256
178
     2
270
     2
271
     2
272
     2
273
     2
274
     2
340
6B
275
     0
280
     0
281
     0
282
     0
283
     0
284
     0
285
     0
286
     0
287
     3
288
     0
  0
DIMSTYLE
105
68
330
A
100
AcDbSymbolTableRecord
100
AcDbDimStyleTableRecord
  2
AM_JIS$SH
 70
     0
  3

  4
"
  5

  6
GENAXEH
  7
OPEN30
 40
1.0
 41
2.5
 42
1.0
 43
10.0
 44
1.0
 45
0.0
 46
0.0
 47
0.1
 48
0.1
140
3.2
141
0.0
142
0.0
143
0.0393701
144
2.0
145
0.0
146
0.71
147
1.5
 71
     0
 72
     0
 73
     0
 74
     0
 75
     1
 76
     1
 77
     3
 78
     8
170
     0
171
     2
172
     1
173
     1
174
     0
175
     0
176
   256
177
   256
178
     2
270
     2
271
     2
272
     2
273
     2
274
     2
340
6B
275
     0
280
     0
281
     0
282
     0
283
     0
284
     0
285
     0
286
     0
287
     3
288
     0
  0
DIMSTYLE
105
B34
102
{ACAD_REACTORS
330
7142
330
7554
330
79C8
102
}
330
A
100
AcDbSymbolTableRecord
100
AcDbDimStyleTableRecord
  2
AM_JIS$2
 70
     0
  3

  4
"
  5
OPEN30
  6

  7

 40
1.0
 41
2.5
 42
1.0
 43
12.0
 44
1.0
 45
0.0
 46
0.0
 47
0.1
 48
0.1
140
3.2
141
0.0
142
0.0
143
0.0393701
144
1.0
145
0.0
146
0.71
147
1.5
 71
     0
 72
     0
 73
     0
 74
     0
 75
     0
 76
     0
 77
     3
 78
     8
170
     0
171
     2
172
     1
173
     0
174
     0
175
     0
176
     3
177
     3
178
     2
270
     2
271
     3
272
     3
273
     2
274
     2
340
6B
275
     0
280
     0
281
     0
282
     0
283
     0
284
     0
285
     0
286
     0
287
     3
288
     0
  0
ENDTAB
  0
TABLE
  2
BLOCK_RECORD
  5
1
330
0
100
AcDbSymbolTable
 70
    13
  0
BLOCK_RECORD
  5
1F
102
{ACAD_XDICTIONARY
360
74
102
}
330
1
100
AcDbSymbolTableRecord
100
AcDbBlockTableRecord
  2
*MODEL_SPACE
  0
BLOCK_RECORD
  5
101
102
{ACAD_XDICTIONARY
360
7F1D
102
}
330
1
100
AcDbSymbolTableRecord
100
AcDbBlockTableRecord
  2
*PAPER_SPACE
  0
BLOCK_RECORD
  5
59
330
1
100
AcDbSymbolTableRecord
100
AcDbBlockTableRecord
  2
_OPEN30
  0
BLOCK_RECORD
  5
64
330
1
100
AcDbSymbolTableRecord
100
AcDbBlockTableRecord
  2
GENAXEH
  0
BLOCK_RECORD
  5
6EF0
330
1
100
AcDbSymbolTableRecord
100
AcDbBlockTableRecord
  2
*D5
  0
BLOCK_RECORD
  5
6F78
330
1
100
AcDbSymbolTableRecord
100
AcDbBlockTableRecord
  2
*D6
  0
BLOCK_RECORD
  5
7062
330
1
100
AcDbSymbolTableRecord
100
AcDbBlockTableRecord
  2
*D7
  0
BLOCK_RECORD
  5
7143
330
1
100
AcDbSymbolTableRecord
100
AcDbBlockTableRecord
  2
*D8
  0
BLOCK_RECORD
  5
7555
330
1
100
AcDbSymbolTableRecord
100
AcDbBlockTableRecord
  2
*D9
  0
BLOCK_RECORD
  5
76C2
330
1
100
AcDbSymbolTableRecord
100
AcDbBlockTableRecord
  2
*D10
  0
BLOCK_RECORD
  5
774E
330
1
100
AcDbSymbolTableRecord
100
AcDbBlockTableRecord
  2
*D11
  0
BLOCK_RECORD
  5
79C9
330
1
100
AcDbSymbolTableRecord
100
AcDbBlockTableRecord
  2
*D12
  0
ENDTAB
  0
ENDSEC
  0
SECTION
  2
BLOCKS
  0
BLOCK
  5
20
330
1F
100
AcDbEntity
  8
0
100
AcDbBlockBegin
  2
*MODEL_SPACE
 70
     0
 10
0.0
 20
0.0
 30
0.0
  3
*MODEL_SPACE
  1

  0
ENDBLK
  5
21
330
1F
100
AcDbEntity
  8
0
100
AcDbBlockEnd
  0
BLOCK
  5
103
330
101
100
AcDbEntity
 67
     1
  8
0
100
AcDbBlockBegin
  2
*PAPER_SPACE
 70
     0
 10
0.0
 20
0.0
 30
0.0
  3
*PAPER_SPACE
  1

  0
ENDBLK
  5
104
330
101
100
AcDbEntity
 67
     1
  8
0
100
AcDbBlockEnd
  0
BLOCK
  5
5D
330
59
100
AcDbEntity
  8
0
100
AcDbBlockBegin
  2
_OPEN30
 70
     0
 10
0.0
 20
0.0
 30
0.0
  3
_OPEN30
  1

  0
LINE
  5
5A
330
59
100
AcDbEntity
  8
0
 62
     0
100
AcDbLine
 10
-1.0
 20
0.26794919
 30
0.0
 11
0.0
 21
0.0
 31
0.0
  0
LINE
  5
5B
330
59
100
AcDbEntity
  8
0
 62
     0
100
AcDbLine
 10
0.0
 20
0.0
 30
0.0
 11
-1.0
 21
-0.26794919
 31
0.0
  0
LINE
  5
5C
330
59
100
AcDbEntity
  8
0
 62
     0
100
AcDbLine
 10
0.0
 20
0.0
 30
0.0
 11
-1.0
 21
0.0
 31
0.0
  0
ENDBLK
  5
5E
330
59
100
AcDbEntity
  8
0
100
AcDbBlockEnd
  0
BLOCK
  5
66
330
64
100
AcDbEntity
  8
0
100
AcDbBlockBegin
  2
GENAXEH
 70
     0
 10
0.0
 20
0.0
 30
0.0
  3
GENAXEH
  1

  0
LINE
  5
65
330
64
100
AcDbEntity
  8
0
100
AcDbLine
 10
-1.0
 20
0.0
 30
0.0
 11
1.0
 21
0.0
 31
0.0
  0
ENDBLK
  5
67
330
64
100
AcDbEntity
  8
0
100
AcDbBlockEnd
  0
BLOCK
  5
6EFA
330
6EF0
100
AcDbEntity
  8
0
100
AcDbBlockBegin
  2
*D5
 70
     1
 10
0.0
 20
0.0
 30
0.0
  3
*D5
  1

  0
LINE
  5
7C63
330
6EF0
100
AcDbEntity
  8
AM_5
 62
     3
100
AcDbLine
 10
0.0000000000000001
 20
1.0
 30
0.0
 11
0.0000000000000014
 21
23.34661936152837
 31
0.0
  0
LINE
  5
7C64
330
6EF0
100
AcDbEntity
  8
AM_5
 62
     3
100
AcDbLine
 10
-125.0
 20
-3.999999999999984
 30
0.0
 11
-125.0
 21
23.34661936152837
 31
0.0
  0
LINE
  5
7C65
330
6EF0
100
AcDbEntity
  8
AM_5
 62
     3
100
AcDbLine
 10
-2.499999999999998
 20
22.34661936152837
 30
0.0
 11
-122.5
 21
22.34661936152837
 31
0.0
  0
INSERT
  5
7C66
330
6EF0
100
AcDbEntity
  8
AM_5
 62
     3
100
AcDbBlockReference
  2
_OPEN30
 10
0.0000000000000014
 20
22.34661936152837
 30
0.0
 41
2.5
 42
2.5
 43
2.5
  0
INSERT
  5
7C67
330
6EF0
100
AcDbEntity
  8
AM_5
 62
     3
100
AcDbBlockReference
  2
_OPEN30
 10
-125.0
 20
22.34661936152837
 30
0.0
 41
2.5
 42
2.5
 43
2.5
 50
180.0
  0
MTEXT
  5
7C68
330
6EF0
100
AcDbEntity
  8
AM_5
 62
     2
100
AcDbMText
 10
-62.5
 20
25.44661936152837
 30
0.0
 40
3.2
 41
0.0
 71
     5
 72
     1
  1
125
  7
ASAMI
1001
ACAD
1000
MTEXTBEGIN
1070
    73
1070
     1
1070
    44
1040
1.0
1070
    74
1070
     0
1000
MTEXTEND
  0
POINT
  5
7C69
330
6EF0
100
AcDbEntity
  8
DEFPOINTS
 62
     0
100
AcDbPoint
 10
0.0
 20
0.0
 30
0.0
  0
POINT
  5
7C6A
330
6EF0
100
AcDbEntity
  8
DEFPOINTS
 62
     0
100
AcDbPoint
 10
-125.0
 20
-4.999999999999984
 30
0.0
  0
POINT
  5
7C6B
330
6EF0
100
AcDbEntity
  8
DEFPOINTS
 62
     0
100
AcDbPoint
 10
-125.0
 20
22.34661936152837
 30
0.0
  0
ENDBLK
  5
6EFB
330
6EF0
100
AcDbEntity
  8
0
100
AcDbBlockEnd
  0
BLOCK
  5
6F82
330
6F78
100
AcDbEntity
  8
0
100
AcDbBlockBegin
  2
*D6
 70
     1
 10
0.0
 20
0.0
 30
0.0
  3
*D6
  1

  0
LINE
  5
7C51
330
6F78
100
AcDbEntity
  8
AM_5
 62
     3
100
AcDbLine
 10
-126.0
 20
-4.999999999999984
 30
0.0
 11
-140.0
 21
-4.99999999999998
 31
0.0
  0
LINE
  5
7C52
330
6F78
100
AcDbEntity
  8
AM_5
 62
     3
100
AcDbLine
 10
-126.0
 20
-24.99999999999998
 30
0.0
 11
-140.0
 21
-24.99999999999998
 31
0.0
  0
LINE
  5
7C53
330
6F78
100
AcDbEntity
  8
AM_5
 62
     3
100
AcDbLine
 10
-139.0
 20
-7.49999999999998
 30
0.0
 11
-139.0
 21
-22.49999999999998
 31
0.0
  0
INSERT
  5
7C54
330
6F78
100
AcDbEntity
  8
AM_5
 62
     3
100
AcDbBlockReference
  2
_OPEN30
 10
-139.0
 20
-4.99999999999998
 30
0.0
 41
2.5
 42
2.5
 43
2.5
 50
90.0
  0
INSERT
  5
7C55
330
6F78
100
AcDbEntity
  8
AM_5
 62
     3
100
AcDbBlockReference
  2
_OPEN30
 10
-139.0
 20
-24.99999999999998
 30
0.0
 41
2.5
 42
2.5
 43
2.5
 50
270.0
  0
MTEXT
  5
7C56
330
6F78
100
AcDbEntity
  8
AM_5
 62
     2
100
AcDbMText
 10
-142.1
 20
-15.0
 30
0.0
 40
3.2
 41
0.0
 71
     5
 72
     1
  1
20
  7
ASAMI
 11
0.0000000000000001
 21
1.0
 31
0.0
1001
ACAD
1000
MTEXTBEGIN
1070
    73
1070
     1
1070
    44
1040
1.0
1070
    74
1070
     0
1000
MTEXTEND
  0
POINT
  5
7C57
330
6F78
100
AcDbEntity
  8
DEFPOINTS
 62
     0
100
AcDbPoint
 10
-125.0
 20
-4.999999999999984
 30
0.0
  0
POINT
  5
7C58
330
6F78
100
AcDbEntity
  8
DEFPOINTS
 62
     0
100
AcDbPoint
 10
-125.0
 20
-24.99999999999998
 30
0.0
  0
POINT
  5
7C59
330
6F78
100
AcDbEntity
  8
DEFPOINTS
 62
     0
100
AcDbPoint
 10
-139.0
 20
-24.99999999999998
 30
0.0
  0
ENDBLK
  5
6F83
330
6F78
100
AcDbEntity
  8
0
100
AcDbBlockEnd
  0
BLOCK
  5
706C
330
7062
100
AcDbEntity
  8
0
100
AcDbBlockBegin
  2
*D7
 70
     1
 10
0.0
 20
0.0
 30
0.0
  3
*D7
  1

  0
LINE
  5
7C86
330
7062
100
AcDbEntity
  8
AM_5
 62
     3
100
AcDbLine
 10
0.6728909106734347
 20
-25.0
 30
0.0
 11
28.45319359554297
 21
-25.0
 31
0.0
  0
LINE
  5
7C87
330
7062
100
AcDbEntity
  8
AM_5
 62
     3
100
AcDbLine
 10
1.0
 20
-0.0000000000000003
 30
0.0
 11
28.45319359554298
 21
-0.0000000000000081
 31
0.0
  0
LINE
  5
7C88
330
7062
100
AcDbEntity
  8
AM_5
 62
     3
100
AcDbLine
 10
27.45319359554298
 20
-22.5
 30
0.0
 11
27.45319359554298
 21
-2.500000000000007
 31
0.0
  0
INSERT
  5
7C89
330
7062
100
AcDbEntity
  8
AM_5
 62
     3
100
AcDbBlockReference
  2
_OPEN30
 10
27.45319359554297
 20
-25.0
 30
0.0
 41
2.5
 42
2.5
 43
2.5
 50
270.0
  0
INSERT
  5
7C8A
330
7062
100
AcDbEntity
  8
AM_5
 62
     3
100
AcDbBlockReference
  2
_OPEN30
 10
27.45319359554298
 20
-0.0000000000000078
 30
0.0
 41
2.5
 42
2.5
 43
2.5
 50
90.0
  0
MTEXT
  5
7C8B
330
7062
100
AcDbEntity
  8
AM_5
 62
     2
100
AcDbMText
 10
24.35319359554298
 20
-12.5
 30
0.0
 40
3.2
 41
0.0
 71
     5
 72
     1
  1
25
  7
ASAMI
 11
0.0000000000000001
 21
1.0
 31
0.0
1001
ACAD
1000
MTEXTBEGIN
1070
    73
1070
     1
1070
    44
1040
1.0
1070
    74
1070
     0
1000
MTEXTEND
  0
POINT
  5
7C8C
330
7062
100
AcDbEntity
  8
DEFPOINTS
 62
     0
100
AcDbPoint
 10
-0.3271090893265653
 20
-25.0
 30
0.0
  0
POINT
  5
7C8D
330
7062
100
AcDbEntity
  8
DEFPOINTS
 62
     0
100
AcDbPoint
 10
0.0
 20
0.0
 30
0.0
  0
POINT
  5
7C8E
330
7062
100
AcDbEntity
  8
DEFPOINTS
 62
     0
100
AcDbPoint
 10
27.45319359554298
 20
-0.0000000000000078
 30
0.0
  0
ENDBLK
  5
706D
330
7062
100
AcDbEntity
  8
0
100
AcDbBlockEnd
  0
BLOCK
  5
7152
330
7143
100
AcDbEntity
  8
0
100
AcDbBlockBegin
  2
*D8
 70
     1
 10
0.0
 20
0.0
 30
0.0
  3
*D8
  1

  0
LINE
  5
7C7B
330
7143
100
AcDbEntity
  8
AM_5
 62
     3
100
AcDbLine
 10
3.290589516388584
 20
-12.28064726201572
 30
0.0
 11
4.954717785177857
 21
-18.4912585114489
 31
0.0
  0
LINE
  5
7C7C
330
7143
100
AcDbEntity
  8
AM_5
 62
     3
100
AcDbLine
 10
2.980440369380957
 20
-0.0000000000000004
 30
0.0
 11
19.14355948270823
 21
-0.0000000000000053
 31
0.0
  0
ARC
  5
7C7D
330
7143
100
AcDbEntity
  8
AM_5
 62
     3
100
AcDbCircle
 10
-0.0000000000000247
 20
-0.0000000000000001
 30
0.0
 40
18.14355948270826
100
AcDbArc
 50
292.9010409387628
 51
352.0989590612372
  0
INSERT
  5
7C7E
330
7143
100
AcDbEntity
  8
AM_5
 62
     3
100
AcDbBlockReference
  2
_OPEN30
 10
4.695898740075335
 20
-17.52533268515983
 30
0.0
 41
2.5
 42
2.5
 43
2.5
 50
198.9505204693815
  0
INSERT
  5
7C7F
330
7143
100
AcDbEntity
  8
AM_5
 62
     3
100
AcDbBlockReference
  2
_OPEN30
 10
18.14355948270823
 20
-0.0000000000000036
 30
0.0
 41
2.5
 42
2.5
 43
2.5
 50
86.04947953061858
  0
MTEXT
  5
7C80
330
7143
100
AcDbEntity
  8
AM_5
 62
     2
100
AcDbMText
 10
11.93485816547646
 20
-9.157938768071165
 30
0.0
 40
3.2
 41
0.0
 71
     5
 72
     1
  1
75°
  7
ASAMI
 11
0.6087614290087201
 21
0.7933533402912357
 31
0.0
1001
ACAD
1000
MTEXTBEGIN
1070
    73
1070
     1
1070
    44
1040
1.0
1070
    74
1070
     0
1000
MTEXTEND
  0
POINT
  5
7C81
330
7143
100
AcDbEntity
  8
DEFPOINTS
 62
     0
100
AcDbPoint
 10
11.66245523109557
 20
-13.89877292012729
 30
0.0
  0
POINT
  5
7C82
330
7143
100
AcDbEntity
  8
DEFPOINTS
 62
     0
100
AcDbPoint
 10
3.031770471286063
 20
-11.31472143572665
 30
0.0
  0
POINT
  5
7C83
330
7143
100
AcDbEntity
  8
DEFPOINTS
 62
     0
100
AcDbPoint
 10
-3.20816355014734
 20
0.0000000000000004
 30
0.0
  0
POINT
  5
7C84
330
7143
100
AcDbEntity
  8
DEFPOINTS
 62
     0
100
AcDbPoint
 10
1.980440369380957
 20
-0.0000000000000003
 30
0.0
  0
POINT
  5
7C85
330
7143
100
AcDbEntity
  8
DEFPOINTS
 62
     0
100
AcDbPoint
 10
0.1588790706480622
 20
-0.5929447639179842
 30
0.0
  0
ENDBLK
  5
7153
330
7143
100
AcDbEntity
  8
0
100
AcDbBlockEnd
  0
BLOCK
  5
7564
330
7555
100
AcDbEntity
  8
0
100
AcDbBlockBegin
  2
*D9
 70
     1
 10
0.0
 20
0.0
 30
0.0
  3
*D9
  1

  0
LINE
  5
7CFE
330
7555
100
AcDbEntity
  8
AM_5
 62
     3
100
AcDbLine
 10
-1.216181189257181
 20
60.85571409496036
 30
0.0
 11
-0.3335059108891478
 21
61.09222622297797
 31
0.0
  0
LINE
  5
7CFF
330
7555
100
AcDbEntity
  8
AM_5
 62
     3
100
AcDbLine
 10
-14.36172132464294
 20
57.44159305980901
 30
0.0
 11
-0.8345229195309045
 21
62.63419802231961
 31
0.0
  0
ARC
  5
7D00
330
7555
100
AcDbEntity
  8
AM_5
 62
     3
100
AcDbCircle
 10
-15.29530175114015
 20
57.08322511026374
 30
0.0
 40
14.48959084957043
100
AcDbArc
 50
355.1292070614525
 51
14.99999999999873
  0
LINE
  5
7D01
330
7555
100
AcDbEntity
  8
AM_5
 62
     3
100
AcDbLine
 10
-0.8580370332798104
 20
55.8529282134213
 30
0.0
 11
-2.033986467773864
 21
42.05341906714802
 31
0.0
  0
ARC
  5
7D02
330
7555
100
AcDbEntity
  8
AM_5
 62
     3
100
AcDbCircle
 10
-15.29530175114015
 20
57.08322511026374
 30
0.0
 40
14.48959084957043
100
AcDbArc
 50
355.2040347410798
 51
5.102017370539263
  0
ARC
  5
7D03
330
7555
100
AcDbEntity
  8
AM_5
 62
     3
100
AcDbCircle
 10
-15.29530175114015
 20
57.08322511026374
 30
0.0
 40
14.48959084957043
100
AcDbArc
 50
30.89798262945816
 51
40.79596525891764
  0
ARC
  5
7D04
330
7555
100
AcDbEntity
  8
AM_5
 62
     3
100
AcDbCircle
 10
-15.29530175114015
 20
57.08322511026374
 30
0.0
 40
14.48959084957043
100
AcDbArc
 50
14.99999999999873
 51
20.99999999999869
  0
INSERT
  5
7D05
330
7555
100
AcDbEntity
  8
AM_5
 62
     3
100
AcDbBlockReference
  2
_OPEN30
 10
-1.299431737178224
 20
60.83340717787546
 30
0.0
 41
2.5
 42
2.5
 43
2.5
 50
100.051008685269
  0
INSERT
  5
7D06
330
7555
100
AcDbEntity
  8
AM_5
 62
     3
100
AcDbBlockReference
  2
_OPEN30
 10
-1.768103346028116
 20
62.27583007277433
 30
0.0
 41
2.5
 42
2.5
 43
2.5
 50
295.9489913147283
  0
MTEXT
  5
7D07
330
7555
100
AcDbEntity
  8
AM_5
 62
     2
100
AcDbMText
 10
1.64279324679949
 20
48.68995569163399
 30
0.0
 40
3.2
 41
0.0
 71
     5
 72
     1
  1
-6°
  7
ASAMI
 11
-0.0849090156937661
 21
-0.9963887088149464
 31
0.0
1001
ACAD
1000
MTEXTBEGIN
1070
    73
1070
     1
1070
    44
1040
1.0
1070
    74
1070
     0
1000
MTEXTEND
  0
POINT
  5
7D08
330
7555
100
AcDbEntity
  8
DEFPOINTS
 62
     0
100
AcDbPoint
 10
-1.595124450037314
 20
61.80057446199737
 30
0.0
  0
POINT
  5
7D09
330
7555
100
AcDbEntity
  8
DEFPOINTS
 62
     0
100
AcDbPoint
 10
-15.29530175114026
 20
57.0832251102637
 30
0.0
  0
POINT
  5
7D0A
330
7555
100
AcDbEntity
  8
DEFPOINTS
 62
     0
100
AcDbPoint
 10
-2.18210701554625
 20
60.59689504985785
 30
0.0
  0
POINT
  5
7D0B
330
7555
100
AcDbEntity
  8
DEFPOINTS
 62
     0
100
AcDbPoint
 10
-15.29530175114029
 20
57.0832251102637
 30
0.0
  0
POINT
  5
7D0C
330
7555
100
AcDbEntity
  8
DEFPOINTS
 62
     0
100
AcDbPoint
 10
-27.21708192685376
 20
52.50688246720939
 30
0.0
  0
ENDBLK
  5
7565
330
7555
100
AcDbEntity
  8
0
100
AcDbBlockEnd
  0
BLOCK
  5
76CC
330
76C2
100
AcDbEntity
  8
0
100
AcDbBlockBegin
  2
*D10
 70
     1
 10
0.0
 20
0.0
 30
0.0
  3
*D10
  1

  0
LINE
  5
7C5A
330
76C2
100
AcDbEntity
  8
AM_5
 62
     3
100
AcDbLine
 10
-14.32937592485071
 20
57.34204415536638
 30
0.0
 11
8.79205396122648
 21
63.53741262119303
 31
0.0
  0
LINE
  5
7C5B
330
76C2
100
AcDbEntity
  8
AM_5
 62
     3
100
AcDbLine
 10
-21.35604189619566
 20
75.64713483857165
 30
0.0
 11
3.745083922299333
 21
82.37296123074875
 31
0.0
  0
LINE
  5
7C5C
330
76C2
100
AcDbEntity
  8
AM_5
 62
     3
100
AcDbLine
 10
7.179080522181161
 20
65.6934081418132
 30
0.0
 11
3.426205708766506
 21
79.69932761992358
 31
0.0
  0
INSERT
  5
7C5D
330
76C2
100
AcDbEntity
  8
AM_5
 62
     3
100
AcDbBlockReference
  2
_OPEN30
 10
7.826128134937407
 20
63.27859357609053
 30
0.0
 41
2.5
 42
2.5
 43
2.5
 50
284.9999999999986
  0
INSERT
  5
7C5E
330
76C2
100
AcDbEntity
  8
AM_5
 62
     3
100
AcDbBlockReference
  2
_OPEN30
 10
2.779158096010259
 20
82.11414218564625
 30
0.0
 41
2.5
 42
2.5
 43
2.5
 50
104.9999999999986
  0
MTEXT
  5
7C5F
330
76C2
100
AcDbEntity
  8
AM_5
 62
     2
100
AcDbMText
 10
2.308273053977696
 20
71.89402884105065
 30
0.0
 40
3.2
 41
0.0
 71
     5
 72
     1
  1
19.5
  7
ASAMI
 11
-0.2588190451024983
 21
0.9659258262890743
 31
0.0
1001
ACAD
1000
MTEXTBEGIN
1070
    73
1070
     1
1070
    44
1040
1.0
1070
    74
1070
     0
1000
MTEXTEND
  0
POINT
  5
7C60
330
76C2
100
AcDbEntity
  8
DEFPOINTS
 62
     0
100
AcDbPoint
 10
-15.29530175113977
 20
57.08322511026389
 30
0.0
  0
POINT
  5
7C61
330
76C2
100
AcDbEntity
  8
DEFPOINTS
 62
     0
100
AcDbPoint
 10
-22.32196772248472
 20
75.38831579346915
 30
0.0
  0
POINT
  5
7C62
330
76C2
100
AcDbEntity
  8
DEFPOINTS
 62
     0
100
AcDbPoint
 10
2.779158096010274
 20
82.11414218564627
 30
0.0
  0
ENDBLK
  5
76CD
330
76C2
100
AcDbEntity
  8
0
100
AcDbBlockEnd
  0
BLOCK
  5
7758
330
774E
100
AcDbEntity
  8
0
100
AcDbBlockBegin
  2
*D11
 70
     1
 10
0.0
 20
0.0
 30
0.0
  3
*D11
  1

  0
LINE
  5
7DD7
330
774E
100
AcDbEntity
  8
AM_5
 62
     3
100
AcDbLine
 10
-50.40088446556663
 20
47.1590691196188
 30
0.0
 11
-63.92384603361367
 21
43.53560248818383
 31
0.0
  0
LINE
  5
7DD8
330
774E
100
AcDbEntity
  8
AM_5
 62
     3
100
AcDbLine
 10
-55.57726536761659
 20
66.47758564540028
 30
0.0
 11
-69.10022693566364
 21
62.8541190139653
 31
0.0
  0
LINE
  5
7DD9
330
774E
100
AcDbEntity
  8
AM_5
 62
     3
100
AcDbLine
 10
-63.60496782008084
 20
46.20923609900901
 30
0.0
 11
-67.48725349661831
 21
60.69812349334512
 31
0.0
  0
INSERT
  5
7DDA
330
774E
100
AcDbEntity
  8
AM_5
 62
     3
100
AcDbBlockReference
  2
_OPEN30
 10
-62.95792020732459
 20
43.79442153328633
 30
0.0
 41
2.5
 42
2.5
 43
2.5
 50
284.9999999999986
  0
INSERT
  5
7DDB
330
774E
100
AcDbEntity
  8
AM_5
 62
     3
100
AcDbBlockReference
  2
_OPEN30
 10
-68.13430110937456
 20
63.1129380590678
 30
0.0
 41
2.5
 42
2.5
 43
2.5
 50
104.9999999999986
  0
MTEXT
  5
7DDC
330
774E
100
AcDbEntity
  8
AM_5
 62
     2
100
AcDbMText
 10
-68.54048071984571
 20
52.65134075635932
 30
0.0
 40
3.2
 41
0.0
 71
     5
 72
     1
  1
20
  7
ASAMI
 11
-0.2588190451024983
 21
0.9659258262890743
 31
0.0
1001
ACAD
1000
MTEXTBEGIN
1070
    73
1070
     1
1070
    44
1040
1.0
1070
    74
1070
     0
1000
MTEXTEND
  0
POINT
  5
7DDD
330
774E
100
AcDbEntity
  8
DEFPOINTS
 62
     0
100
AcDbPoint
 10
-49.43495863927755
 20
47.41788816472132
 30
0.0
  0
POINT
  5
7DDE
330
774E
100
AcDbEntity
  8
DEFPOINTS
 62
     0
100
AcDbPoint
 10
-54.61133954132751
 20
66.7364046905028
 30
0.0
  0
POINT
  5
7DDF
330
774E
100
AcDbEntity
  8
DEFPOINTS
 62
     0
100
AcDbPoint
 10
-68.13430110937455
 20
63.11293805906782
 30
0.0
  0
ENDBLK
  5
7759
330
774E
100
AcDbEntity
  8
0
100
AcDbBlockEnd
  0
BLOCK
  5
79D8
330
79C9
100
AcDbEntity
  8
0
100
AcDbBlockBegin
  2
*D12
 70
     1
 10
0.0
 20
0.0
 30
0.0
  3
*D12
  1

  0
LINE
  5
7D61
330
79C9
100
AcDbEntity
  8
AM_5
 62
     3
100
AcDbLine
 10
53.85091750481169
 20
15.65335116081111
 30
0.0
 11
50.41671368368904
 21
35.12968885641069
 31
0.0
  0
LINE
  5
7D62
330
79C9
100
AcDbEntity
  8
AM_5
 62
     3
100
AcDbLine
 10
53.7657466373761
 20
15.63446923408797
 30
0.0
 11
48.64713632074312
 21
34.73738299991189
 31
0.0
  0
ARC
  5
7D63
330
79C9
100
AcDbEntity
  8
AM_5
 62
     3
100
AcDbCircle
 10
54.02456568247858
 20
14.66854340779889
 30
0.0
 40
19.77679159818515
100
AcDbArc
 50
85.47553027889161
 51
99.99999999999749
  0
LINE
  5
7D64
330
79C9
100
AcDbEntity
  8
AM_5
 62
     3
100
AcDbLine
 10
55.58465490582676
 20
34.38370527711256
 30
0.0
 11
69.39101992525348
 21
33.29118767958046
 31
0.0
  0
ARC
  5
7D65
330
79C9
100
AcDbEntity
  8
AM_5
 62
     3
100
AcDbCircle
 10
54.02456568247858
 20
14.66854340779889
 30
0.0
 40
19.77679159818515
100
AcDbArc
 50
85.50472742970981
 51
92.75236371485366
  0
ARC
  5
7D66
330
79C9
100
AcDbEntity
  8
AM_5
 62
     3
100
AcDbCircle
 10
54.02456568247858
 20
14.66854340779889
 30
0.0
 40
19.77679159818515
100
AcDbArc
 50
112.2476362851413
 51
119.4952725702851
  0
ARC
  5
7D67
330
79C9
100
AcDbEntity
  8
AM_5
 62
     3
100
AcDbCircle
 10
54.02456568247858
 20
14.66854340779889
 30
0.0
 40
19.77679159818515
100
AcDbArc
 50
99.99999999999749
 51
104.9999999999974
  0
INSERT
  5
7D68
330
79C9
100
AcDbEntity
  8
AM_5
 62
     3
100
AcDbBlockReference
  2
_OPEN30
 10
50.59036186135593
 20
34.14488110339847
 30
0.0
 41
2.5
 42
2.5
 43
2.5
 50
186.3761818574256
  0
INSERT
  5
7D69
330
79C9
100
AcDbEntity
  8
AM_5
 62
     3
100
AcDbBlockReference
  2
_OPEN30
 10
48.90595536584559
 20
33.7714571736228
 30
0.0
 41
2.5
 42
2.5
 43
2.5
 50
18.6238181425694
  0
MTEXT
  5
7D6A
330
79C9
100
AcDbEntity
  8
AM_5
 62
     2
100
AcDbMText
 10
62.73238044813309
 20
36.92778605599979
 30
0.0
 40
3.2
 41
0.0
 71
     5
 72
     1
  1
-5°
  7
ASAMI
 11
0.9968837347268637
 21
-0.0788848492235381
 31
0.0
1001
ACAD
1000
MTEXTBEGIN
1070
    73
1070
     1
1070
    44
1040
1.0
1070
    74
1070
     0
1000
MTEXTEND
  0
POINT
  5
7D6B
330
79C9
100
AcDbEntity
  8
DEFPOINTS
 62
     0
100
AcDbPoint
 10
49.46372366757219
 20
33.91224902893931
 30
0.0
  0
POINT
  5
7D6C
330
79C9
100
AcDbEntity
  8
DEFPOINTS
 62
     0
100
AcDbPoint
 10
56.22150558532669
 20
2.209078077980555
 30
0.0
  0
POINT
  5
7D6D
330
79C9
100
AcDbEntity
  8
DEFPOINTS
 62
     0
100
AcDbPoint
 10
55.76500853489484
 20
8.173122254910184
 30
0.0
  0
POINT
  5
7D6E
330
79C9
100
AcDbEntity
  8
DEFPOINTS
 62
     0
100
AcDbPoint
 10
54.0245656824786
 20
14.66854340779883
 30
0.0
  0
POINT
  5
7D6F
330
79C9
100
AcDbEntity
  8
DEFPOINTS
 62
     0
100
AcDbPoint
 10
54.0245656824786
 20
14.6685434077988
 30
0.0
  0
ENDBLK
  5
79D9
330
79C9
100
AcDbEntity
  8
0
100
AcDbBlockEnd
  0
ENDSEC
  0
SECTION
  2
ENTITIES
  0
TEXT
  5
C58
330
1F
100
AcDbEntity
  8
AM_6
100
AcDbText
 10
-86.83022121132992
 20
-47.50000000000007
 30
0.0
 40
5.0
  1
ESKNR2020W
 50
0.0000000000002036
 72
     4
 11
-62.66355454466327
 21
-44.99999999999999
 31
0.0
100
AcDbText
  0
LINE
  5
6B4A
330
1F
100
AcDbEntity
  8
AM_0
100
AcDbLine
 10
-0.3271090893265653
 20
-25.0
 30
0.0
 11
-125.0
 21
-24.99999999999998
 31
0.0
  0
LINE
  5
6B60
330
1F
100
AcDbEntity
  8
AM_0
100
AcDbLine
 10
-17.8
 20
-4.999999999999998
 30
0.0
 11
-125.0
 21
-4.999999999999984
 31
0.0
  0
LINE
  5
6B71
330
1F
100
AcDbEntity
  8
AM_0
100
AcDbLine
 10
2.754966633311614
 20
-13.49753681033973
 30
0.0
 11
2.434860366952131
 21
-12.30288396046496
 31
0.0
  0
LINE
  5
6C22
330
1F
100
AcDbEntity
  8
AM_0
100
AcDbLine
 10
2.754966633311616
 20
-13.49753681033973
 30
0.0
 11
-0.3271090893265653
 21
-25.0
 31
0.0
  0
LINE
  5
6C34
330
1F
100
AcDbEntity
  8
DEFPOINTS
100
AcDbLine
 10
-7.31096513525826
 20
-25.0
 30
0.0
 11
-13.18294607581831
 21
-3.085468788753722
 31
0.0
  0
LINE
  5
6C3A
330
1F
100
AcDbEntity
  8
AM_0
100
AcDbLine
 10
-22.32196772248471
 20
75.38831579346916
 30
0.0
 11
-15.29564058952749
 21
57.08410781444093
 31
0.0
  0
LINE
  5
6C3F
330
1F
100
AcDbEntity
  8
AM_0
100
AcDbLine
 10
-30.06252344624344
 20
59.91951105359718
 30
0.0
 11
-27.21708192685376
 21
52.50688246720939
 31
0.0
  0
LINE
  5
6C49
330
1F
100
AcDbEntity
  8
AM_0
100
AcDbLine
 10
-27.51790208405016
 20
53.29054576916118
 30
0.0
 11
-49.43495863927755
 21
47.41788816472133
 31
0.0
  0
LINE
  5
6C56
330
1F
100
AcDbEntity
  8
AM_0
100
AcDbLine
 10
-22.32196772248471
 20
75.38831579346916
 30
0.0
 11
-54.61133954132751
 21
66.73640469050281
 31
0.0
  0
LINE
  5
6C66
330
1F
100
AcDbEntity
  8
DEFPOINTS
100
AcDbLine
 10
-18.14920805267614
 20
64.51790520805473
 30
0.0
 11
-30.07098822838937
 21
59.94156256500055
 31
0.0
  0
LINE
  5
6C73
330
1F
100
AcDbEntity
  8
AM_0
100
AcDbLine
 10
-32.95366762508219
 20
51.83403678219688
 30
0.0
 11
-38.13004852713287
 21
71.15255330797817
 31
0.0
  0
LINE
  5
6C82
330
1F
100
AcDbEntity
  8
AM_0
100
AcDbLine
 10
73.2494418549033
 20
18.26254321363665
 30
0.0
 11
53.47805068210029
 21
14.77631350373106
 31
0.0
  0
LINE
  5
6C87
330
1F
100
AcDbEntity
  8
AM_0
100
AcDbLine
 10
64.3385219992477
 20
-5.801577784211198
 30
0.0
 11
59.35003713379761
 21
-7.138238275363057
 31
0.0
  0
LINE
  5
6C8C
330
1F
100
AcDbEntity
  8
AM_0
100
AcDbLine
 10
79.13638330646964
 20
-3.707821384796015
 30
0.0
 11
65.33985083519339
 21
-7.404591118823312
 31
0.0
  0
LINE
  5
6C91
330
1F
100
AcDbEntity
  8
AM_0
100
AcDbLine
 10
76.47034323169316
 20
6.241975629286192
 30
0.0
 11
64.05818730775213
 21
2.916148473137886
 31
0.0
  0
LINE
  5
6C9B
330
1F
100
AcDbEntity
  8
AM_0
100
AcDbLine
 10
59.35003713379763
 20
-7.138238275363114
 30
0.0
 11
56.81728277596002
 21
2.314129671179891
 31
0.0
  0
LINE
  5
6CA7
330
1F
100
AcDbEntity
  8
AM_0
100
AcDbLine
 10
79.13638330646967
 20
-3.707821384796015
 30
0.0
 11
73.2494418549033
 21
18.26254321363665
 31
0.0
  0
LINE
  5
6CB0
330
1F
100
AcDbEntity
  8
DEFPOINTS
100
AcDbLine
 10
64.14764257956271
 20
2.940117940970302
 30
0.0
 11
61.80180636585032
 21
16.24401621160137
 31
0.0
  0
LINE
  5
6D66
330
1F
100
AcDbEntity
  8
AM_0
100
AcDbLine
 10
65.3390505961099
 20
-7.401604585905496
 30
0.0
 11
64.05778707820309
 21
2.916077901869917
 31
0.0
  0
LINE
  5
6E08
330
1F
100
AcDbEntity
  8
AM_0
100
AcDbLine
 10
64.34102175461679
 20
-5.815754601389593
 30
0.0
 11
62.72386117270766
 21
3.355618806196211
 31
0.0
  0
LINE
  5
6E0A
330
1F
100
AcDbEntity
  8
AM_0
100
AcDbLine
 10
64.33852199924769
 20
-5.801577784211198
 30
0.0
 11
65.33905059610993
 21
-7.401604585905524
 31
0.0
  0
LINE
  5
6E12
330
1F
100
AcDbEntity
  8
AM_0
100
AcDbLine
 10
60.9444828089677
 20
-6.708721720309206
 30
0.0
 11
59.27703403716492
 21
2.747850184361986
 31
0.0
  0
POLYLINE
  5
6E22
330
1F
100
AcDbEntity
  8
AM_0
100
AcDb2dPolyline
 66
     1
 10
0.0
 20
0.0
 30
0.0
 70
     1
  0
VERTEX
  5
6E23
330
6E22
100
AcDbEntity
  8
AM_0
100
AcDbVertex
100
AcDb2dVertex
 10
-0.8209168264652078
 20
-0.0272593389687471
 30
0.0
  0
VERTEX
  5
6E24
330
6E22
100
AcDbEntity
  8
AM_0
100
AcDbVertex
100
AcDb2dVertex
 10
-11.54269349827385
 20
-2.900150739606714
 30
0.0
 42
0.4142135623730951
  0
VERTEX
  5
6E25
330
6E22
100
AcDbEntity
  8
AM_0
100
AcDbVertex
100
AcDb2dVertex
 10
-12.1083789232231
 20
-3.879946636720005
 30
0.0
  0
VERTEX
  5
6E26
330
6E22
100
AcDbEntity
  8
AM_0
100
AcDbVertex
100
AcDb2dVertex
 10
-9.235487522585076
 20
-14.60172330852867
 30
0.0
 42
0.4142135623730946
  0
VERTEX
  5
6E27
330
6E22
100
AcDbEntity
  8
AM_0
100
AcDbVertex
100
AcDb2dVertex
 10
-8.255691625471795
 20
-15.16740873347788
 30
0.0
  0
VERTEX
  5
6E28
330
6E22
100
AcDbEntity
  8
AM_0
100
AcDbVertex
100
AcDb2dVertex
 10
2.466085046336834
 20
-12.29451733283991
 30
0.0
 42
0.4142135623730948
  0
VERTEX
  5
6E29
330
6E22
100
AcDbEntity
  8
AM_0
100
AcDbVertex
100
AcDb2dVertex
 10
3.031770471286064
 20
-11.31472143572665
 30
0.0
  0
VERTEX
  5
6E2A
330
6E22
100
AcDbEntity
  8
AM_0
100
AcDbVertex
100
AcDb2dVertex
 10
0.1588790706480622
 20
-0.5929447639179842
 30
0.0
 42
0.4142135623730947
  0
SEQEND
  5
6E2B
330
6E22
100
AcDbEntity
  8
AM_0
  0
CIRCLE
  5
6E2C
330
1F
100
AcDbEntity
  8
AM_0
100
AcDbCircle
 10
-4.538304225968524
 20
-7.597334036223286
 30
0.0
 40
2.5125
  0
LINE
  5
6E2D
330
1F
100
AcDbEntity
  8
AM_11
100
AcDbLine
 10
0.1588790706480835
 20
-0.5929447639180126
 30
0.0
 11
0.0
 21
0.0
 31
0.0
  0
LINE
  5
6E38
330
1F
100
AcDbEntity
  8
AM_0
100
AcDbLine
 10
-15.29530175114026
 20
57.0832251102637
 30
0.0
 11
-27.21708192685376
 21
52.50688246720939
 31
0.0
  0
LINE
  5
6E66
330
1F
100
AcDbEntity
  8
AM_11
100
AcDbLine
 10
-0.6138615903831917
 20
0.0000000000000001
 30
0.0
 11
0.0
 21
0.0
 31
0.0
  0
LINE
  5
6E6C
330
1F
100
AcDbEntity
  8
AM_0
100
AcDbLine
 10
63.94239836894243
 20
3.570479790889229
 30
0.0
 11
56.2215055853267
 21
2.209078077980556
 31
0.0
  0
LINE
  5
6E79
330
1F
100
AcDbEntity
  8
AM_0
100
AcDbLine
 10
56.2215055853267
 20
2.209078077980556
 30
0.0
 11
54.0245656824786
 21
14.6685434077988
 31
0.0
  0
LINE
  5
6E7F
330
1F
100
AcDbEntity
  8
AM_0
100
AcDbLine
 10
61.74545846609433
 20
16.02994512070747
 30
0.0
 11
54.0245656824786
 21
14.6685434077988
 31
0.0
  0
LINE
  5
6E84
330
1F
100
AcDbEntity
  8
AM_0
100
AcDbLine
 10
55.02076038057009
 20
9.018842527711505
 30
0.0
 11
53.47805068210029
 21
14.77631350373106
 31
0.0
  0
LINE
  5
6E8C
330
1F
100
AcDbEntity
  8
AM_0
100
AcDbLine
 10
63.35621400160457
 20
-5.98940277905647
 30
0.0
 11
61.73905341969543
 21
3.181970628529334
 31
0.0
  0
LINE
  5
6E94
330
1F
100
AcDbEntity
  8
AM_7
100
AcDbLine
 10
83.63372796098017
 20
13.08712940752206
 30
0.0
 11
53.23068377198568
 21
7.726252421331815
 31
0.0
  0
LINE
  5
6E96
330
1F
100
AcDbEntity
  8
AM_0
100
AcDbLine
 10
-12.37898073540235
 20
-2.870046925046688
 30
0.0
 11
-6.453144328915551
 21
-24.98556947139691
 31
0.0
  0
LINE
  5
6EAE
330
1F
100
AcDbEntity
  8
AM_0
100
AcDbLine
 10
-17.00113319097579
 20
61.5270679403904
 30
0.0
 11
-28.9229133666893
 21
56.95072529733611
 31
0.0
  0
LINE
  5
6EB6
330
1F
100
AcDbEntity
  8
AM_0
100
AcDbLine
 10
-18.14074327052978
 20
64.49585369665154
 30
0.0
 11
-30.99610387274065
 21
59.5611431040519
 31
0.0
  0
LINE
  5
6EBE
330
1F
100
AcDbEntity
  8
AM_0
100
AcDbLine
 10
60.90919048966481
 20
3.035643403675087
 30
0.0
 11
58.71225058681673
 21
15.49510873349318
 31
0.0
  0
LINE
  5
6EC6
330
1F
100
AcDbEntity
  8
AM_0
100
AcDbLine
 10
64.05778707820307
 20
2.916077901869917
 30
0.0
 11
61.71054925057887
 21
16.22792511999733
 31
0.0
  0
LINE
  5
6EDE
330
1F
100
AcDbEntity
  8
AM_0
100
AcDbLine
 10
-125.0
 20
-24.99999999999998
 30
0.0
 11
-125.0
 21
-4.999999999999984
 31
0.0
  0
LINE
  5
6EE6
330
1F
100
AcDbEntity
  8
AM_7
100
AcDbLine
 10
-31.06079087404976
 20
79.99653786399903
 30
0.0
 11
-20.09937701873215
 21
51.44107849592784
 31
0.0
  0
DIMENSION
  5
6EEF
330
1F
100
AcDbEntity
  8
AM_5
100
AcDbDimension
  2
*D5
 10
-125.0
 20
22.34661936152837
 30
0.0
 11
-62.5
 21
25.44661936152837
 31
0.0
 70
    32
  1
<>
  3
AM_JIS
100
AcDbAlignedDimension
 13
0.0
 23
0.0
 33
0.0
 14
-125.0
 24
-4.999999999999984
 34
0.0
 50
180.0
100
AcDbRotatedDimension
1001
GENIUS_GENDTOL_13
1000

1000
h7
1000

1040
0.0
  0
DIMENSION
  5
6F77
330
1F
100
AcDbEntity
  8
AM_5
100
AcDbDimension
  2
*D6
 10
-139.0
 20
-24.99999999999998
 30
0.0
 11
-142.1
 21
-15.0
 31
0.0
 70
    32
  1
<>
  3
AM_JIS
100
AcDbAlignedDimension
 13
-125.0
 23
-4.999999999999984
 33
0.0
 14
-125.0
 24
-24.99999999999998
 34
0.0
 50
270.0
100
AcDbRotatedDimension
1001
GENIUS_GENDTOL_13
1000

1000
h7
1000

1040
0.0
  0
DIMENSION
  5
7061
330
1F
100
AcDbEntity
  8
AM_5
100
AcDbDimension
  2
*D7
 10
27.45319359554298
 20
-0.0000000000000078
 30
0.0
 11
24.35319359554298
 21
-12.5
 31
0.0
 70
    32
  1
<>
  3
AM_JIS
100
AcDbAlignedDimension
 13
-0.3271090893265653
 23
-25.0
 33
0.0
 14
0.0
 24
0.0
 34
0.0
 50
90.00000000000003
100
AcDbRotatedDimension
1001
GENIUS_GENDTOL_13
1000

1000
h7
1000

1040
0.0
  0
DIMENSION
  5
7142
330
1F
100
AcDbEntity
  8
AM_5
100
AcDbDimension
  2
*D8
 10
0.1588790706480622
 20
-0.5929447639179842
 30
0.0
 11
11.93485816547646
 21
-9.157938768071165
 31
0.0
 70
    34
  1
<>
  3
AM_JIS$2
100
AcDb2LineAngularDimension
 13
-3.20816355014734
 23
0.0000000000000004
 33
0.0
 14
1.980440369380957
 24
-0.0000000000000002
 34
0.0
 15
3.031770471286064
 25
-11.31472143572665
 35
0.0
 16
11.66245523109557
 26
-13.89877292012729
 36
0.0
1001
ACAD
1000
DSTYLE
1002
{
1070
   179
1070
     3
1002
}
1001
GENIUS_GENDTOL_13
1000

1000
h7
1000

1040
0.0
  0
DIMENSION
  5
7554
330
1F
100
AcDbEntity
  8
AM_5
100
AcDbDimension
  2
*D9
 10
-27.21708192685376
 20
52.50688246720939
 30
0.0
 11
1.642793246799495
 21
48.68995569163399
 31
0.0
 70
    34
  1
-<>
  3
AM_JIS$2
100
AcDb2LineAngularDimension
 13
-2.182107015546253
 23
60.59689504985787
 33
0.0
 14
-15.29530175114029
 24
57.0832251102637
 34
0.0
 15
-15.29530175114026
 25
57.0832251102637
 35
0.0
 16
-1.595124450037314
 26
61.80057446199737
 36
0.0
1001
ACAD
1000
DSTYLE
1002
{
1070
   179
1070
     3
1070
    76
1070
     0
1070
    75
1070
     0
1002
}
1001
GENIUS_GENDTOL_13
1000

1000
h7
1000

1040
0.0
  0
DIMENSION
  5
76C1
330
1F
100
AcDbEntity
  8
AM_5
100
AcDbDimension
  2
*D10
 10
2.779158096010274
 20
82.11414218564627
 30
0.0
 11
2.3082730539777
 21
71.89402884105065
 31
0.0
 70
    32
  1
<>
 51
345.0000000000013
  3
AM_JIS
100
AcDbAlignedDimension
 13
-15.29530175113977
 23
57.08322511026389
 33
0.0
 14
-22.32196772248472
 24
75.38831579346916
 34
0.0
 50
104.9999999999987
100
AcDbRotatedDimension
1001
GENIUS_GENDTOL_13
1000

1000
h7
1000

1040
0.0
  0
DIMENSION
  5
774D
330
1F
100
AcDbEntity
  8
AM_5
100
AcDbDimension
  2
*D11
 10
-68.13430110937455
 20
63.11293805906782
 30
0.0
 11
-68.5404807198457
 21
52.65134075635932
 31
0.0
 70
    32
  1
<>
 51
345.0000000000013
  3
AM_JIS
100
AcDbAlignedDimension
 13
-49.43495863927755
 23
47.41788816472131
 33
0.0
 14
-54.61133954132751
 24
66.73640469050281
 34
0.0
 50
284.9999999999988
100
AcDbRotatedDimension
1001
GENIUS_GENDTOL_13
1000

1000
h7
1000

1040
0.0
  0
DIMENSION
  5
79C8
330
1F
100
AcDbEntity
  8
AM_5
100
AcDbDimension
  2
*D12
 10
54.0245656824786
 20
14.6685434077988
 30
0.0
 11
62.73238044813309
 21
36.92778605599979
 31
0.0
 70
    34
  1
-<>
  3
AM_JIS$2
100
AcDb2LineAngularDimension
 13
55.76500853489484
 23
8.173122254910182
 33
0.0
 14
54.0245656824786
 24
14.66854340779883
 34
0.0
 15
56.2215055853267
 25
2.209078077980556
 35
0.0
 16
49.46372366757219
 26
33.91224902893931
 36
0.0
1001
ACAD
1000
DSTYLE
1002
{
1070
   179
1070
     3
1070
    76
1070
     0
1070
    75
1070
     0
1002
}
1001
GENIUS_GENDTOL_13
1000

1000
h7
1000

1040
0.0
  0
LINE
  5
7B8F
330
1F
100
AcDbEntity
  8
AM_0
100
AcDbLine
 10
-26.70336701204867
 20
78.4115589945528
 30
0.0
 11
-25.24246213477052
 21
74.60577167419764
 31
0.0
  0
LINE
  5
7B93
330
1F
100
AcDbEntity
  8
AM_0
100
AcDbLine
 10
-33.23842999752914
 20
75.90298334773587
 30
0.0
 11
-32.04118704521581
 21
72.78405882488264
 31
0.0
  0
LINE
  5
7B94
330
1F
100
AcDbEntity
  8
AM_0
100
AcDbLine
 10
78.21544634332368
 20
15.68573331085281
 30
0.0
 11
74.13783057535741
 21
14.96673963399825
 31
0.0
  0
LINE
  5
7B95
330
1F
100
AcDbEntity
  8
AM_0
100
AcDbLine
 10
79.4309835869919
 20
8.792079039767306
 30
0.0
 11
75.94639928139816
 21
8.177652810137985
 31
0.0
  0
LINE
  5
7BAC
330
1F
100
AcDbEntity
  8
AM_0
100
AcDbLine
 10
-17.0
 20
-4.108245305204091
 30
0.0
 11
-12.37898073540235
 21
-2.870046925046687
 31
0.0
  0
LINE
  5
7BC2
330
1F
100
AcDbEntity
  8
AM_0
100
AcDbLine
 10
-17.0
 20
-4.199999999999998
 30
0.0
 11
-17.0
 21
-4.108245305204089
 31
0.0
  0
ARC
  5
7BC8
330
1F
100
AcDbEntity
  8
AM_0
100
AcDbCircle
 10
-17.79999999999999
 20
-4.200000000000001
 30
0.0
 40
0.8
100
AcDbArc
 50
269.9999999999997
 51
0.0000000000002398
1001
GENIUS_GENODEF_13
1002
{
1000
HIER
1070
     0
1002
}
1002
{
1000
MANEDIT
1070
     0
1002
}
1002
{
1000
NOSEL
1070
     0
1002
}
1002
{
1000
BEHIND
1070
     0
1002
}
1002
{
1000
REACTOR
1002
}
1001
GENIUS_GENOBJ-N-FIL_13
1002
{
1000
OWNER
1000
GEN
1002
}
  0
LINE
  5
7BD1
330
1F
100
AcDbEntity
  8
AM_0
100
AcDbLine
 10
-29.9842296246473
 20
58.8784202422364
 30
0.0
 11
-29.08830975078405
 21
56.54446917599339
 31
0.0
  0
LINE
  5
7BD9
330
1F
100
AcDbEntity
  8
AM_0
100
AcDbLine
 10
-28.80823562283489
 20
56.65197956085696
 30
0.0
 11
-29.08830975078412
 21
56.54446917599337
 31
0.0
  0
LINE
  5
7BE1
330
1F
100
AcDbEntity
  8
AM_0
100
AcDbLine
 10
-30.99610387274065
 20
59.56114310405189
 30
0.0
 11
-30.63773592319535
 21
58.6275626775547
 31
0.0
  0
LINE
  5
7BE9
330
1F
100
AcDbEntity
  8
AM_0
100
AcDbLine
 10
-29.9842296246473
 20
58.8784202422364
 30
0.0
 11
-30.63773592319536
 21
58.62756267755469
 31
0.0
  0
LINE
  5
7CB5
330
1F
100
AcDbEntity
  8
AM_5
100
AcDbLine
 10
0.0
 20
0.0
 30
0.0
 11
-15.29530175114026
 21
57.0832251102637
 31
0.0
  0
LINE
  5
7E43
330
1F
100
AcDbEntity
  8
AM_0
100
AcDbLine
 10
79.4309835869919
 20
8.792079039767306
 30
0.0
 11
78.21544634332369
 21
15.68573331085282
 31
0.0
  0
LINE
  5
7EBA
330
1F
100
AcDbEntity
  8
AM_0
100
AcDbLine
 10
-26.70336701204868
 20
78.41155899455282
 30
0.0
 11
-33.23842999752915
 21
75.90298334773587
 31
0.0
  0
VIEWPORT
  5
110
330
101
100
AcDbEntity
 67
     1
  8
0
100
AcDbViewport
 10
420.5
 20
297.0
 30
0.0
 40
948.9782706766916
 41
628.452
 68
     1
 69
     1
1001
ACAD
1000
MVIEW
1002
{
1070
    16
1010
0.0
1020
0.0
1030
0.0
1010
0.0
1020
0.0
1030
1.0
1040
0.0
1040
628.452
1040
420.5
1040
297.0
1040
50.0
1040
0.0
1040
0.0
1070
     0
1070
   100
1070
     1
1070
     1
1070
     0
1070
     0
1070
     0
1070
     0
1040
0.0
1040
0.0
1040
0.0
1040
10.0
1040
10.0
1040
10.0
1040
10.0
1070
     0
1002
{
1002
}
1002
}
  0
ENDSEC
  0
SECTION
  2
OBJECTS
  0
DICTIONARY
  5
C
330
0
100
AcDbDictionary
  3
ACAD_GROUP
350
D
  3
ACAD_LAYOUT
350
1A
  3
ACAD_MLINESTYLE
350
17
  3
ACAD_PLOTSETTINGS
350
19
  3
ACAD_PLOTSTYLENAME
350
E
  3
ACDBVARIABLEDICTIONARY
350
34
  3
ACMDICTIONARY
350
43
  3
AMG
350
2B
  3
AMGSNAPSETTINGS
350
6E
  3
DWGPROPS
350
7EE8
  3
ACDBHEADERROUNDTRIPXREC
350
7EF5
  0
DICTIONARY
  5
74
330
1F
100
AcDbDictionary
280
     1
  3
ACAD_INDEX
360
7EEA
  3
ACAD_LAYOUTSELFREF
360
7F18
  0
DICTIONARY
  5
7F1D
330
101
100
AcDbDictionary
280
     1
  3
ACAD_LAYOUTSELFREF
360
7F1E
  0
DICTIONARY
  5
D
102
{ACAD_REACTORS
330
C
102
}
330
C
100
AcDbDictionary
  0
DICTIONARY
  5
1A
102
{ACAD_REACTORS
330
C
102
}
330
C
100
AcDbDictionary
  0
DICTIONARY
  5
17
102
{ACAD_REACTORS
330
C
102
}
330
C
100
AcDbDictionary
  3
STANDARD
350
18
  0
DICTIONARY
  5
19
102
{ACAD_REACTORS
330
C
102
}
330
C
100
AcDbDictionary
  0
ACDBDICTIONARYWDFLT
  5
E
102
{ACAD_REACTORS
330
C
102
}
330
C
100
AcDbDictionary
281
     1
  3
Normal
350
F
100
AcDbDictionaryWithDefault
340
F
  0
DICTIONARY
  5
34
102
{ACAD_REACTORS
330
C
102
}
330
C
100
AcDbDictionary
  3
INDEXCTL
350
35
  3
SORTENTS
350
B5E
  0
DICTIONARY
  5
43
102
{ACAD_REACTORS
330
C
102
}
330
C
100
AcDbDictionary
  3
ACMSTDDICTIONARY
350
260
  0
DICTIONARY
  5
2B
102
{ACAD_REACTORS
330
C
102
}
330
C
100
AcDbDictionary
  3
ACMGSETTINGS
350
2C
  0
DICTIONARY
  5
6E
102
{ACAD_REACTORS
330
C
102
}
330
C
100
AcDbDictionary
  0
XRECORD
  5
7EE8
102
{ACAD_REACTORS
330
C
102
}
330
C
100
AcDbXrecord
  1
DWGPROPS COOKIE
  2

  3

  4

  6

  7

  8

  9

300
AmdtFileType=82
301
=
302
=
303
=
304
=
305
=
306
=
307
=
308
=
309
=
 40
1.072295069444444
 41
2452838.620506898
 42
2452909.483338206
  1

 90
        1
  0
DICTIONARY
  5
7EF5
102
{ACAD_REACTORS
330
C
102
}
330
C
100
AcDbDictionary
  3
TSTACKALIGN
350
7EF6
  3
TSTACKSIZE
350
7EF7
  3
HYPERLINKBASE
350
7EF8
  3
STYLESHEET
350
7EF9
  3
LAYOUTDICT
350
7EFA
  3
PLOTSETDICT
350
7EFB
  3
PLOTSTYLNAMDICT
350
7EFC
  3
LWETCUNION
350
7EFD
  3
INSUNITS
350
7EFE
  3
CEPSNTYPE
350
7EFF
  3
FINGERPRINTGUID
350
7F00
  3
VERSIONGUID
350
7F01
  3
PSVPSCALE
350
7F02
  3
DIMSTYLEDATA
350
7F03
  3
PUCSORTHOREF
350
7F04
  3
PUCSORTHOVIEW
350
7F05
  3
PUCSBASE
350
7F06
  3
PUCSORGTOP
350
7F07
  3
PUCSORGBOTTOM
350
7F08
  3
PUCSORGLEFT
350
7F09
  3
PUCSORGRIGHT
350
7F0A
  3
PUCSORGFRONT
350
7F0B
  3
PUCSORGBACK
350
7F0C
  3
UCSORTHOREF
350
7F0D
  3
UCSORTHOVIEW
350
7F0E
  3
UCSBASE
350
7F0F
  3
UCSORGTOP
350
7F10
  3
UCSORGBOTTOM
350
7F11
  3
UCSORGLEFT
350
7F12
  3
UCSORGRIGHT
350
7F13
  3
UCSORGFRONT
350
7F14
  3
UCSORGBACK
350
7F15
  0
DICTIONARY
  5
7EEA
102
{ACAD_REACTORS
330
74
102
}
330
74
100
AcDbDictionary
  3
*A1
350
7EEB
  0
XRECORD
  5
7F18
102
{ACAD_REACTORS
330
74
102
}
330
74
100
AcDbXrecord
340
1F
  0
XRECORD
  5
7F1E
102
{ACAD_REACTORS
330
7F1D
102
}
330
7F1D
100
AcDbXrecord
340
101
  0
MLINESTYLE
  5
18
102
{ACAD_REACTORS
330
17
102
}
330
17
100
AcDbMlineStyle
  2
STANDARD
 70
     0
  3

 62
   256
 51
90.0
 52
90.0
 71
     2
 49
0.5
 62
   256
  6
BYLAYER
 49
-0.5
 62
   256
  6
BYLAYER
  0
ACDBPLACEHOLDER
  5
F
102
{ACAD_REACTORS
330
E
102
}
330
E
100
AcDbPlaceHolder
280
     0
  0
DICTIONARYVAR
  5
35
102
{ACAD_REACTORS
330
34
102
}
330
34
100
DictionaryVariables
280
     0
  1
1
  0
DICTIONARYVAR
  5
B5E
102
{ACAD_REACTORS
330
34
102
}
330
34
100
DictionaryVariables
280
     0
  1
96
  0
DICTIONARY
  5
260
102
{ACAD_REACTORS
330
43
102
}
330
43
100
AcDbDictionary
  0
DICTIONARY
  5
2C
102
{ACAD_REACTORS
330
2B
102
}
330
2B
100
AcDbDictionary
  3
DWGSETTINGS
350
2D
  0
XRECORD
  5
7EF6
102
{ACAD_REACTORS
330
7EF5
102
}
330
7EF5
100
AcDbXrecord
 90
        1
  0
XRECORD
  5
7EF7
102
{ACAD_REACTORS
330
7EF5
102
}
330
7EF5
100
AcDbXrecord
 90
       70
  0
XRECORD
  5
7EF8
102
{ACAD_REACTORS
330
7EF5
102
}
330
7EF5
100
AcDbXrecord
  1

  0
XRECORD
  5
7EF9
102
{ACAD_REACTORS
330
7EF5
102
}
330
7EF5
100
AcDbXrecord
  1
ASAMI.ctb
  0
XRECORD
  5
7EFA
102
{ACAD_REACTORS
330
7EF5
102
}
330
7EF5
100
AcDbXrecord
340
1A
  0
XRECORD
  5
7EFB
102
{ACAD_REACTORS
330
7EF5
102
}
330
7EF5
100
AcDbXrecord
340
19
  0
XRECORD
  5
7EFC
102
{ACAD_REACTORS
330
7EF5
102
}
330
7EF5
100
AcDbXrecord
340
E
  0
XRECORD
  5
7EFD
102
{ACAD_REACTORS
330
7EF5
102
}
330
7EF5
100
AcDbXrecord
 90
    10781
  0
XRECORD
  5
7EFE
102
{ACAD_REACTORS
330
7EF5
102
}
330
7EF5
100
AcDbXrecord
 90
        4
  0
XRECORD
  5
7EFF
102
{ACAD_REACTORS
330
7EF5
102
}
330
7EF5
100
AcDbXrecord
 90
        0
  0
XRECORD
  5
7F00
102
{ACAD_REACTORS
330
7EF5
102
}
330
7EF5
100
AcDbXrecord
  1
{AFB28963-8C59-40AE-9337-C84526B81ACE}
  0
XRECORD
  5
7F01
102
{ACAD_REACTORS
330
7EF5
102
}
330
7EF5
100
AcDbXrecord
  1
{847E342F-B626-4E90-AAC5-F0FA9324344D}
  0
XRECORD
  5
7F02
102
{ACAD_REACTORS
330
7EF5
102
}
330
7EF5
100
AcDbXrecord
 40
0.0
  0
XRECORD
  5
7F03
102
{ACAD_REACTORS
330
7EF5
102
}
330
7EF5
100
AcDbXrecord
1000
DSTYLE
1002
{
1070
    79
 70
     2
1070
   341
340
59
1070
   342
340
59
1070
   371
 70
    -1
1070
   372
 70
    -1
1002
}
  0
XRECORD
  5
7F04
102
{ACAD_REACTORS
330
7EF5
102
}
330
7EF5
100
AcDbXrecord
340
0
  0
XRECORD
  5
7F05
102
{ACAD_REACTORS
330
7EF5
102
}
330
7EF5
100
AcDbXrecord
 70
     0
  0
XRECORD
  5
7F06
102
{ACAD_REACTORS
330
7EF5
102
}
330
7EF5
100
AcDbXrecord
340
0
  0
XRECORD
  5
7F07
102
{ACAD_REACTORS
330
7EF5
102
}
330
7EF5
100
AcDbXrecord
 10
0.0
 20
0.0
 30
0.0
  0
XRECORD
  5
7F08
102
{ACAD_REACTORS
330
7EF5
102
}
330
7EF5
100
AcDbXrecord
 10
0.0
 20
0.0
 30
0.0
  0
XRECORD
  5
7F09
102
{ACAD_REACTORS
330
7EF5
102
}
330
7EF5
100
AcDbXrecord
 10
0.0
 20
0.0
 30
0.0
  0
XRECORD
  5
7F0A
102
{ACAD_REACTORS
330
7EF5
102
}
330
7EF5
100
AcDbXrecord
 10
0.0
 20
0.0
 30
0.0
  0
XRECORD
  5
7F0B
102
{ACAD_REACTORS
330
7EF5
102
}
330
7EF5
100
AcDbXrecord
 10
0.0
 20
0.0
 30
0.0
  0
XRECORD
  5
7F0C
102
{ACAD_REACTORS
330
7EF5
102
}
330
7EF5
100
AcDbXrecord
 10
0.0
 20
0.0
 30
0.0
  0
XRECORD
  5
7F0D
102
{ACAD_REACTORS
330
7EF5
102
}
330
7EF5
100
AcDbXrecord
340
0
  0
XRECORD
  5
7F0E
102
{ACAD_REACTORS
330
7EF5
102
}
330
7EF5
100
AcDbXrecord
 70
     0
  0
XRECORD
  5
7F0F
102
{ACAD_REACTORS
330
7EF5
102
}
330
7EF5
100
AcDbXrecord
340
0
  0
XRECORD
  5
7F10
102
{ACAD_REACTORS
330
7EF5
102
}
330
7EF5
100
AcDbXrecord
 10
0.0
 20
0.0
 30
0.0
  0
XRECORD
  5
7F11
102
{ACAD_REACTORS
330
7EF5
102
}
330
7EF5
100
AcDbXrecord
 10
0.0
 20
0.0
 30
0.0
  0
XRECORD
  5
7F12
102
{ACAD_REACTORS
330
7EF5
102
}
330
7EF5
100
AcDbXrecord
 10
0.0
 20
0.0
 30
0.0
  0
XRECORD
  5
7F13
102
{ACAD_REACTORS
330
7EF5
102
}
330
7EF5
100
AcDbXrecord
 10
0.0
 20
0.0
 30
0.0
  0
XRECORD
  5
7F14
102
{ACAD_REACTORS
330
7EF5
102
}
330
7EF5
100
AcDbXrecord
 10
0.0
 20
0.0
 30
0.0
  0
XRECORD
  5
7F15
102
{ACAD_REACTORS
330
7EF5
102
}
330
7EF5
100
AcDbXrecord
 10
0.0
 20
0.0
 30
0.0
  0
LAYER_INDEX
  5
7EEB
102
{ACAD_REACTORS
330
7EEA
102
}
330
7EEA
100
AcDbIndex
 40
2452941.591328484
100
AcDbLayerIndex
  8
0
360
7EEC
 90
        0
  8
AM_0
360
7EED
 90
       46
  8
AM_11
360
7EEE
 90
        2
  8
AM_7
360
7EEF
 90
        2
  8
AM_5
360
7EF0
 90
        9
  8
Defpoints
360
7EF1
 90
        3
  8
AM_6
360
7EF2
 90
        1
  8
AM_CL
360
7EF3
 90
        0
  0
XRECORD
  5
2D
102
{ACAD_REACTORS
330
2C
102
}
330
2C
100
AcDbXrecord
  1
VERSION
140
15.0
  1
PRODUCT
  2
AutoCAD Mechanical 2000
  0
IDBUFFER
  5
7EEC
330
0
100
AcDbIdBuffer
  0
IDBUFFER
  5
7EED
330
0
100
AcDbIdBuffer
330
6E08
330
6E0A
330
6E12
330
6E22
330
6E2C
330
6E38
330
6E6C
330
6E79
330
6E7F
330
6E84
330
6E8C
330
6E96
330
6EAE
330
6EB6
330
6EBE
330
6EC6
330
6EDE
330
7B8F
330
7B93
330
7B94
330
7B95
330
7BAC
330
7BC2
330
7BC8
330
7BD1
330
7BD9
330
7BE1
330
7BE9
330
7E43
330
7EBA
330
6B4A
330
6B60
330
6B71
330
6C22
330
6C3A
330
6C3F
330
6C49
330
6C56
330
6C73
330
6C82
330
6C87
330
6C8C
330
6C91
330
6C9B
330
6CA7
330
6D66
  0
IDBUFFER
  5
7EEE
330
0
100
AcDbIdBuffer
330
6E2D
330
6E66
  0
IDBUFFER
  5
7EEF
330
0
100
AcDbIdBuffer
330
6E94
330
6EE6
  0
IDBUFFER
  5
7EF0
330
0
100
AcDbIdBuffer
330
6EEF
330
6F77
330
7061
330
7142
330
7554
330
76C1
330
774D
330
79C8
330
7CB5
  0
IDBUFFER
  5
7EF1
330
0
100
AcDbIdBuffer
330
6C34
330
6C66
330
6CB0
  0
IDBUFFER
  5
7EF2
330
0
100
AcDbIdBuffer
330
C58
  0
IDBUFFER
  5
7EF3
330
0
100
AcDbIdBuffer
  0
ENDSEC
  0
EOF
