  0
SECTION
  2
HEADER
  9
$ACADVER
  1
AC1014
  9
$ACADMAINTVER
 70
     9
  9
$DWGCODEPAGE
  3
ANSI_932
  9
$INSBASE
 10
0.0
 20
0.0
 30
0.0
  9
$EXTMIN
 10
-98.70000000000002
 20
-34.50000000000008
 30
0.0
  9
$EXTMAX
 10
57.17678942070259
 20
51.95524548874578
 30
0.0
  9
$LIMMIN
 10
-110.5390211998073
 20
-46.74316414569108
  9
$LIMMAX
 10
71.15975190393647
 20
56.65953322776449
  9
$ORTHOMODE
 70
     0
  9
$REGENMODE
 70
     1
  9
$FILLMODE
 70
     1
  9
$QTEXTMODE
 70
     0
  9
$MIRRTEXT
 70
     0
  9
$DRAGMODE
 70
     2
  9
$LTSCALE
 40
0.5
  9
$OSMODE
 70
  2103
  9
$ATTMODE
 70
     1
  9
$TEXTSIZE
 40
2.5
  9
$TRACEWID
 40
1.0
  9
$TEXTSTYLE
  7
STANDARD
  9
$CLAYER
  8
AM_0
  9
$CELTYPE
  6
BYLAYER
  9
$CECOLOR
 62
   256
  9
$CELTSCALE
 40
1.0
  9
$DELOBJ
 70
     1
  9
$DISPSILH
 70
     0
  9
$DIMSCALE
 40
1.0
  9
$DIMASZ
 40
2.5
  9
$DIMEXO
 40
1.0
  9
$DIMDLI
 40
12.0
  9
$DIMRND
 40
0.0
  9
$DIMDLE
 40
0.0
  9
$DIMEXE
 40
1.0
  9
$DIMTP
 40
0.1
  9
$DIMTM
 40
0.1
  9
$DIMTXT
 40
3.2
  9
$DIMCEN
 40
0.0
  9
$DIMTSZ
 40
0.0
  9
$DIMTOL
 70
     0
  9
$DIMLIM
 70
     0
  9
$DIMTIH
 70
     0
  9
$DIMTOH
 70
     0
  9
$DIMSE1
 70
     0
  9
$DIMSE2
 70
     0
  9
$DIMTAD
 70
     3
  9
$DIMZIN
 70
     8
  9
$DIMBLK
  1
OPEN30
  9
$DIMASO
 70
     1
  9
$DIMSHO
 70
     1
  9
$DIMPOST
  1

  9
$DIMAPOST
  1
"
  9
$DIMALT
 70
     0
  9
$DIMALTD
 70
     2
  9
$DIMALTF
 40
0.0393701
  9
$DIMLFAC
 40
1.0
  9
$DIMTOFL
 70
     1
  9
$DIMTVP
 40
0.0
  9
$DIMTIX
 70
     0
  9
$DIMSOXD
 70
     0
  9
$DIMSAH
 70
     0
  9
$DIMBLK1
  1

  9
$DIMBLK2
  1

  9
$DIMSTYLE
  2
AM_JIS
  9
$DIMCLRD
 70
     3
  9
$DIMCLRE
 70
     3
  9
$DIMCLRT
 70
     2
  9
$DIMTFAC
 40
0.71
  9
$DIMGAP
 40
1.5
  9
$DIMJUST
 70
     0
  9
$DIMSD1
 70
     0
  9
$DIMSD2
 70
     0
  9
$DIMTOLJ
 70
     0
  9
$DIMTZIN
 70
     0
  9
$DIMALTZ
 70
     0
  9
$DIMALTTZ
 70
     0
  9
$DIMFIT
 70
     3
  9
$DIMUPT
 70
     0
  9
$DIMUNIT
 70
     2
  9
$DIMDEC
 70
     3
  9
$DIMTDEC
 70
     3
  9
$DIMALTU
 70
     2
  9
$DIMALTTD
 70
     2
  9
$DIMTXSTY
  7
ASAMI
  9
$DIMAUNIT
 70
     0
  9
$LUNITS
 70
     2
  9
$LUPREC
 70
     2
  9
$SKETCHINC
 40
1.0
  9
$FILLETRAD
 40
0.8
  9
$AUNITS
 70
     0
  9
$AUPREC
 70
     0
  9
$MENU
  1
.
  9
$ELEVATION
 40
0.0
  9
$PELEVATION
 40
0.0
  9
$THICKNESS
 40
0.0
  9
$LIMCHECK
 70
     0
  9
$BLIPMODE
 70
     0
  9
$CHAMFERA
 40
1.5
  9
$CHAMFERB
 40
1.5
  9
$CHAMFERC
 40
20.0
  9
$CHAMFERD
 40
0.0
  9
$SKPOLY
 70
     0
  9
$TDCREATE
 40
2452838.620506898
  9
$TDUPDATE
 40
2452941.592059271
  9
$TDINDWG
 40
1.7687389815
  9
$TDUSRTIMER
 40
1.7687389815
  9
$USRTIMER
 70
     1
  9
$ANGBASE
 50
0.0
  9
$ANGDIR
 70
     0
  9
$PDMODE
 70
     0
  9
$PDSIZE
 40
0.0
  9
$PLINEWID
 40
0.0
  9
$COORDS
 70
     0
  9
$SPLFRAME
 70
     0
  9
$SPLINETYPE
 70
     6
  9
$SPLINESEGS
 70
     8
  9
$ATTDIA
 70
     1
  9
$ATTREQ
 70
     1
  9
$HANDLING
 70
 12289
  9
$HANDSEED
  5
8FBA
  9
$SURFTAB1
 70
     6
  9
$SURFTAB2
 70
     6
  9
$SURFTYPE
 70
     6
  9
$SURFU
 70
     6
  9
$SURFV
 70
     6
  9
$UCSNAME
  2

  9
$UCSORG
 10
0.0
 20
0.0
 30
0.0
  9
$UCSXDIR
 10
1.0
 20
0.0
 30
0.0
  9
$UCSYDIR
 10
0.0
 20
1.0
 30
0.0
  9
$PUCSNAME
  2

  9
$PUCSORG
 10
0.0
 20
0.0
 30
0.0
  9
$PUCSXDIR
 10
1.0
 20
0.0
 30
0.0
  9
$PUCSYDIR
 10
0.0
 20
1.0
 30
0.0
  9
$USERI1
 70
     0
  9
$USERI2
 70
     0
  9
$USERI3
 70
     0
  9
$USERI4
 70
     0
  9
$USERI5
 70
     0
  9
$USERR1
 40
0.0
  9
$USERR2
 40
0.0
  9
$USERR3
 40
0.0
  9
$USERR4
 40
0.0
  9
$USERR5
 40
0.0
  9
$WORLDVIEW
 70
     1
  9
$SHADEDGE
 70
     3
  9
$SHADEDIF
 70
    70
  9
$TILEMODE
 70
     1
  9
$MAXACTVP
 70
    64
  9
$PINSBASE
 10
0.0
 20
0.0
 30
0.0
  9
$PLIMCHECK
 70
     0
  9
$PEXTMIN
 10
1.000000000000000E+20
 20
1.000000000000000E+20
 30
1.000000000000000E+20
  9
$PEXTMAX
 10
-1.000000000000000E+20
 20
-1.000000000000000E+20
 30
-1.000000000000000E+20
  9
$PLIMMIN
 10
0.0
 20
0.0
  9
$PLIMMAX
 10
841.0
 20
594.0
  9
$UNITMODE
 70
     0
  9
$VISRETAIN
 70
     1
  9
$PLINEGEN
 70
     0
  9
$PSLTSCALE
 70
     0
  9
$TREEDEPTH
 70
  3020
  9
$PICKSTYLE
 70
     0
  9
$CMLSTYLE
  2
STANDARD
  9
$CMLJUST
 70
     0
  9
$CMLSCALE
 40
20.0
  9
$PROXYGRAPHICS
 70
     1
  9
$MEASUREMENT
 70
     1
  0
ENDSEC
  0
SECTION
  2
CLASSES
  0
CLASS
  1
ACDBDICTIONARYWDFLT
  2
AcDbDictionaryWithDefault
  3
AutoCAD 2000
 90
        0
280
     0
281
     0
  0
CLASS
  1
ACDBPLACEHOLDER
  2
AcDbPlaceHolder
  3
AutoCAD 2000
 90
        0
280
     0
281
     0
  0
CLASS
  1
LAYOUT
  2
AcDbLayout
  3
AutoCAD 2000
 90
        0
280
     0
281
     0
  0
CLASS
  1
AMGSETTINGSOBJ
  2
AmgSettingsObj
  3
"AcadM|Product Description: AutoCAD Mechanical 2000|Company: Autodesk"
 90
        0
280
     0
281
     0
  0
CLASS
  1
ACME_DOCUMENT
  2
AcMeDbDoc
  3
AcMeServices
 90
        0
280
     0
281
     0
  0
CLASS
  1
ACMESCOPE
  2
AcMeScope
  3
AcMeServices
 90
        0
280
     0
281
     0
  0
CLASS
  1
ACMECOMMANDHISTORY
  2
AcMeCommandHistory
  3
AcMeServices
 90
        0
280
     0
281
     0
  0
CLASS
  1
DICTIONARYVAR
  2
AcDbDictionaryVar
  3
AutoCAD 2000
 90
        0
280
     0
281
     0
  0
CLASS
  1
ACIMSYSVARMAN
  2
AcImSysVarManager
  3
AcMeServices
 90
        0
280
     0
281
     0
  0
CLASS
  1
ACIMREALSYSVAR
  2
AcImRealSysVar
  3
AcMeServices
 90
        0
280
     0
281
     0
  0
CLASS
  1
ACIMINTSYSVAR
  2
AcImIntSysVar
  3
AcMeServices
 90
        0
280
     0
281
     0
  0
CLASS
  1
ACMEDRAWINGMAN
  2
AcMeDrawingMan
  3
AcMeServices
 90
        0
280
     0
281
     0
  0
CLASS
  1
ACMEVIEW
  2
AcMeView
  3
AcMeServices
 90
        0
280
     0
281
     0
  0
CLASS
  1
ACDBENTITYCACHE
  2
AcMeEntityCache
  3
AcMeServices
 90
        0
280
     0
281
     0
  0
CLASS
  1
GSMANAGER
  2
AcMeGSManager
  3
AcMeServices
 90
        0
280
     0
281
     0
  0
CLASS
  1
AmdtInternalReactor
  2
AmdtInternalReactor
  3
AcMeServices
 90
        0
280
     0
281
     0
  0
CLASS
  1
ACMESTATEMGR
  2
AcMeStateMgr
  3
AcMeServices
 90
        0
280
     0
281
     0
  0
CLASS
  1
ACME_DATABASE
  2
AcMeDbDatabase
  3
AcMeServices
 90
        0
280
     0
281
     0
  0
CLASS
  1
ACRFINSADJUSTERMGR
  2
AcRfInsAdjusterMgr
  3
AcMeServices
 90
        0
280
     0
281
     0
  0
CLASS
  1
ACMDATADICTIONARY
  2
AcmDataDictionary
  3
"AcmSymBB|Product Description: AutoCAD Mechanical 2000|Company: Autodesk"
 90
        0
280
     0
281
     0
  0
CLASS
  1
ACMDATAENTRYBLOCK
  2
AcmDataEntryBlock
  3
"AcmSymBB|Product Description: AutoCAD Mechanical 2000|Company: Autodesk"
 90
        0
280
     0
281
     0
  0
CLASS
  1
AMGOBJPROPCFG
  2
AmgObjPropCfg
  3
"AmgLay|Product Description: AutoCAD Mechanical 2000|Company: Autodesk"
 90
        1
280
     0
281
     0
  0
CLASS
  1
ACAMGFILTERDAT
  2
AcAmgFilterDat
  3
"AcadM|Product Description: AutoCAD Mechanical 2000|Company: Autodesk"
 90
        0
280
     0
281
     0
  0
CLASS
  1
LAYER_INDEX
  2
AcDbLayerIndex
  3
AutoCAD 2000
 90
        0
280
     0
281
     0
  0
CLASS
  1
IDBUFFER
  2
AcDbIdBuffer
  3
AutoCAD 2000
 90
        0
280
     0
281
     0
  0
CLASS
  1
ACIMSTRSYSVAR
  2
AcImStrSysVar
  3
AcMeServices
 90
        0
280
     0
281
     0
  0
CLASS
  1
ACMSTANDARDJIS
  2
AcmStandardJIS
  3
"AcmSymBB|Product Description: AutoCAD Mechanical 2000|Company: Autodesk"
 90
        0
280
     0
281
     0
  0
CLASS
  1
ACMSURFSTANDARDJIS
  2
AcmSurfTextStdJIS
  3
"AcmSymBB|Product Description: AutoCAD Mechanical 2000|Company: Autodesk"
 90
        0
280
     0
281
     0
  0
CLASS
  1
ACMFCFSTANDARDJIS
  2
AcmFCFStdJIS
  3
"AcmSymBB|Product Description: AutoCAD Mechanical 2000|Company: Autodesk"
 90
        0
280
     0
281
     0
  0
CLASS
  1
ACMWELDSTANDARDJIS
  2
AcmWeldingStdJIS
  3
"AcmSymBB|Product Description: AutoCAD Mechanical 2000|Company: Autodesk"
 90
        0
280
     0
281
     0
  0
CLASS
  1
ACMIDSTANDARDJIS
  2
AcmIdStdJIS
  3
"AcmSymBB|Product Description: AutoCAD Mechanical 2000|Company: Autodesk"
 90
        0
280
     0
281
     0
  0
CLASS
  1
ACMDATUMSTANDARDJIS
  2
AcmDatumStdJIS
  3
"AcmSymBB|Product Description: AutoCAD Mechanical 2000|Company: Autodesk"
 90
        0
280
     0
281
     0
  0
CLASS
  1
ACMBOMSTANDARDJIS
  2
AcmBOMStdJIS
  3
"AcmSymBB|Product Description: AutoCAD Mechanical 2000|Company: Autodesk"
 90
        0
280
     0
281
     0
  0
CLASS
  1
ACMSTANDARDANSI
  2
AcmStandardANSI
  3
"AcmSymBB|Product Description: AutoCAD Mechanical 2000|Company: Autodesk"
 90
        0
280
     0
281
     0
  0
CLASS
  1
ACMSURFSTANDARDANSI
  2
AcmSurfTextStdANSI
  3
"AcmSymBB|Product Description: AutoCAD Mechanical 2000|Company: Autodesk"
 90
        0
280
     0
281
     0
  0
CLASS
  1
ACMFCFSTANDARDANSI
  2
AcmFCFStdANSI
  3
"AcmSymBB|Product Description: AutoCAD Mechanical 2000|Company: Autodesk"
 90
        0
280
     0
281
     0
  0
CLASS
  1
ACMWELDSTANDARDANSI
  2
AcmWeldingStdANSI
  3
"AcmSymBB|Product Description: AutoCAD Mechanical 2000|Company: Autodesk"
 90
        0
280
     0
281
     0
  0
CLASS
  1
ACMIDSTANDARDANSI
  2
AcmIdStdANSI
  3
"AcmSymBB|Product Description: AutoCAD Mechanical 2000|Company: Autodesk"
 90
        0
280
     0
281
     0
  0
CLASS
  1
ACMDATUMSTANDARDANSI
  2
AcmDatumStdANSI
  3
"AcmSymBB|Product Description: AutoCAD Mechanical 2000|Company: Autodesk"
 90
        0
280
     0
281
     0
  0
CLASS
  1
ACMBOMSTANDARDANSI
  2
AcmBOMStdANSI
  3
"AcmSymBB|Product Description: AutoCAD Mechanical 2000|Company: Autodesk"
 90
        0
280
     0
281
     0
  0
CLASS
  1
ACMSTANDARDBSI
  2
AcmStandardBSI
  3
"AcmSymBB|Product Description: AutoCAD Mechanical 2000|Company: Autodesk"
 90
        0
280
     0
281
     0
  0
CLASS
  1
ACMSURFSTANDARDBSI
  2
AcmSurfTextStdBSI
  3
"AcmSymBB|Product Description: AutoCAD Mechanical 2000|Company: Autodesk"
 90
        0
280
     0
281
     0
  0
CLASS
  1
ACMFCFSTANDARDBSI
  2
AcmFCFStdBSI
  3
"AcmSymBB|Product Description: AutoCAD Mechanical 2000|Company: Autodesk"
 90
        0
280
     0
281
     0
  0
CLASS
  1
ACMWELDSTANDARDBSI
  2
AcmWeldingStdBSI
  3
"AcmSymBB|Product Description: AutoCAD Mechanical 2000|Company: Autodesk"
 90
        0
280
     0
281
     0
  0
CLASS
  1
ACMIDSTANDARDBSI
  2
AcmIdStdBSI
  3
"AcmSymBB|Product Description: AutoCAD Mechanical 2000|Company: Autodesk"
 90
        0
280
     0
281
     0
  0
CLASS
  1
ACMDATUMSTANDARDBSI
  2
AcmDatumStdBSI
  3
"AcmSymBB|Product Description: AutoCAD Mechanical 2000|Company: Autodesk"
 90
        0
280
     0
281
     0
  0
CLASS
  1
ACMBOMSTANDARDBSI
  2
AcmBOMStdBSI
  3
"AcmSymBB|Product Description: AutoCAD Mechanical 2000|Company: Autodesk"
 90
        0
280
     0
281
     0
  0
CLASS
  1
STDPART2D
  2
AmgStdPart
  3
"AmgStdPart|Product Description: AutoCAD Mechanical 2000|Company: Autodesk"
 90
     1023
280
     0
281
     1
  0
CLASS
  1
ACMDATAENTRYPART
  2
AcmDataEntryPart
  3
"AcmSymBB|Product Description: AutoCAD Mechanical 2000|Company: Autodesk"
 90
        0
280
     0
281
     0
  0
CLASS
  1
ACMPARTREF
  2
AcmPartRef
  3
"AcmSymBB|Product Description: AutoCAD Mechanical 2000|Company: Autodesk"
 90
     1023
280
     0
281
     1
  0
CLASS
  1
LONG_TRANSACTION
  2
AcDbLongTransaction
  3
AutoCAD 2000
 90
        0
280
     0
281
     0
  0
CLASS
  1
LWPOLYLINE
  2
AcDbPolyline
  3
AutoCAD 2000
 90
        0
280
     0
281
     1
  0
CLASS
  1
HATCH
  2
AcDbHatch
  3
AutoCAD 2000
 90
        0
280
     0
281
     1
  0
CLASS
  1
XRECORD
  2
AcDbXrecord
  3
AutoCAD 2000
 90
        0
280
     0
281
     0
  0
ENDSEC
  0
SECTION
  2
TABLES
  0
TABLE
  2
VPORT
  5
8
330
0
100
AcDbSymbolTable
 70
     3
  0
VPORT
  5
8F85
330
8
100
AcDbSymbolTableRecord
100
AcDbViewportTableRecord
  2
*ACTIVE
 70
     0
 10
0.0
 20
0.0
 11
1.0
 21
1.0
 12
-20.75875866596834
 22
8.729961692040632
 13
0.0
 23
0.0
 14
2.5
 24
2.5
 15
10.0
 25
10.0
 16
0.0
 26
0.0
 36
1.0
 17
0.0
 27
0.0
 37
0.0
 40
99.95444254285384
 41
1.56570841889117
 42
50.0
 43
0.0
 44
0.0
 50
0.0
 51
0.0
 71
     0
 72
   100
 73
     1
 74
     3
 75
     0
 76
     0
 77
     0
 78
     0
  0
ENDTAB
  0
TABLE
  2
LTYPE
  5
5
330
0
100
AcDbSymbolTable
 70
    10
  0
LTYPE
  5
14
330
5
100
AcDbSymbolTableRecord
100
AcDbLinetypeTableRecord
  2
BYBLOCK
 70
     0
  3

 72
    65
 73
     0
 40
0.0
  0
LTYPE
  5
15
330
5
100
AcDbSymbolTableRecord
100
AcDbLinetypeTableRecord
  2
BYLAYER
 70
     0
  3

 72
    65
 73
     0
 40
0.0
  0
LTYPE
  5
16
330
5
100
AcDbSymbolTableRecord
100
AcDbLinetypeTableRecord
  2
CONTINUOUS
 70
     0
  3
Solid line
 72
    65
 73
     0
 40
0.0
  0
LTYPE
  5
4B
330
5
100
AcDbSymbolTableRecord
100
AcDbLinetypeTableRecord
  2
AM_ISO02W050
 70
     0
  3
__ __ __ __ __ __ __ __ __ __ __ __ __ __ __
 72
    65
 73
     2
 40
7.5
 49
6.0
 74
     0
 49
-1.5
 74
     0
  0
LTYPE
  5
4C
330
5
100
AcDbSymbolTableRecord
100
AcDbLinetypeTableRecord
  2
AM_ISO08W050
 70
     0
  3
____ . ____ . ____ . ____ . ____ . ____ . ____
 72
    65
 73
     4
 40
18.0
 49
12.0
 74
     0
 49
-1.5
 74
     0
 49
3.0
 74
     0
 49
-1.5
 74
     0
  0
LTYPE
  5
4D
330
5
100
AcDbSymbolTableRecord
100
AcDbLinetypeTableRecord
  2
AM_ISO09W050
 70
     0
  3
_____ . . _____ . . _____ . . ____ .. ____
 72
    65
 73
     6
 40
22.5
 49
12.0
 74
     0
 49
-1.5
 74
     0
 49
3.0
 74
     0
 49
-1.5
 74
     0
 49
3.0
 74
     0
 49
-1.5
 74
     0
  0
LTYPE
  5
4E
330
5
100
AcDbSymbolTableRecord
100
AcDbLinetypeTableRecord
  2
AMCONSTR
 70
     0
  3
_______________________
 72
    65
 73
     2
 40
9999.0
 49
9999.0
 74
     0
 49
0.0
 74
     0
  0
LTYPE
  5
4F
330
5
100
AcDbSymbolTableRecord
100
AcDbLinetypeTableRecord
  2
AM_ISO02W050X2
 70
     0
  3
 _ _ _ _ _ _ _ _ _ _ _ _
 72
    65
 73
     2
 40
3.75
 49
3.0
 74
     0
 49
-0.75
 74
     0
  0
LTYPE
  5
50
330
5
100
AcDbSymbolTableRecord
100
AcDbLinetypeTableRecord
  2
AM_ISO08W050X2
 70
     0
  3
__ . __ . __ . __ . __ . __
 72
    65
 73
     4
 40
9.0
 49
6.0
 74
     0
 49
-0.75
 74
     0
 49
1.5
 74
     0
 49
-0.75
 74
     0
  0
LTYPE
  5
53
330
5
100
AcDbSymbolTableRecord
100
AcDbLinetypeTableRecord
  2
AMZIGZAG
 70
     0
  3
/\/-/\/-/\/-/\/-/\/-/\/
 72
    65
 73
     2
 40
11.00009999999999
 49
0.0001
 74
     4
 75
   135
340
52
 46
0.04
 50
0.0
 44
0.0
 45
0.0
 49
-11.0
 74
     0
  0
LTYPE
  5
166
330
5
100
AcDbSymbolTableRecord
100
AcDbLinetypeTableRecord
  2
ACJISTGL
 70
     0
  3
_ _ _ _ _
 72
    65
 73
     2
 40
3.0
 49
2.0
 74
     0
 49
-1.0
 74
     0
  0
LTYPE
  5
26A
330
5
100
AcDbSymbolTableRecord
100
AcDbLinetypeTableRecord
  2
ACJISTGB
 70
     0
  3
__ . . __ . .
 72
    65
 73
     6
 40
9.0
 49
4.0
 74
     0
 49
-1.0
 74
     0
 49
1.0
 74
     0
 49
-1.0
 74
     0
 49
1.0
 74
     0
 49
-1.0
 74
     0
  0
ENDTAB
  0
TABLE
  2
LAYER
  5
2
330
0
100
AcDbSymbolTable
 70
     7
  0
LAYER
  5
10
330
2
100
AcDbSymbolTableRecord
100
AcDbLayerTableRecord
  2
0
 70
     0
 62
     7
  6
CONTINUOUS
  0
LAYER
  5
3F9
330
2
100
AcDbSymbolTableRecord
100
AcDbLayerTableRecord
  2
AM_0
 70
     0
 62
     7
  6
CONTINUOUS
  0
LAYER
  5
BD6
330
2
100
AcDbSymbolTableRecord
100
AcDbLayerTableRecord
  2
AM_11
 70
     0
 62
     3
  6
AM_ISO09W050
  0
LAYER
  5
BD7
330
2
100
AcDbSymbolTableRecord
100
AcDbLayerTableRecord
  2
AM_7
 70
     0
 62
     4
  6
AM_ISO08W050
  0
LAYER
  5
BD8
330
2
100
AcDbSymbolTableRecord
100
AcDbLayerTableRecord
  2
AM_5
 70
     0
 62
     3
  6
CONTINUOUS
  0
LAYER
  5
BD9
330
2
100
AcDbSymbolTableRecord
100
AcDbLayerTableRecord
  2
DEFPOINTS
 70
     0
 62
     7
  6
CONTINUOUS
  0
LAYER
  5
BDA
330
2
100
AcDbSymbolTableRecord
100
AcDbLayerTableRecord
  2
AM_6
 70
     0
 62
     2
  6
CONTINUOUS
  0
ENDTAB
  0
TABLE
  2
STYLE
  5
3
330
0
100
AcDbSymbolTable
 70
     5
  0
STYLE
  5
11
330
3
100
AcDbSymbolTableRecord
100
AcDbTextStyleTableRecord
  2
STANDARD
 70
     0
 40
0.0
 41
1.0
 50
0.0
 71
     0
 42
2.5
  3
simplex.shx
  4
EXTFONT.SHX
  0
STYLE
  5
52
330
3
100
AcDbSymbolTableRecord
100
AcDbTextStyleTableRecord
  2

 70
     1
 40
0.0
 41
1.0
 50
0.0
 71
     0
 42
2.5
  3
ltypeshp.shx
  4

  0
STYLE
  5
6B
330
3
100
AcDbSymbolTableRecord
100
AcDbTextStyleTableRecord
  2
ASAMI
 70
     0
 40
0.0
 41
1.0
 50
0.0
 71
     0
 42
2.5
  3
simplex.shx
  4
EXTFONT.SHX
  0
STYLE
  5
262
330
3
100
AcDbSymbolTableRecord
100
AcDbTextStyleTableRecord
  2
ACJISTS
 70
     0
 40
1.0
 41
1.0
 50
0.0
 71
     0
 42
2.5
  3
simplex.shx
  4
bigfont.shx
  0
STYLE
  5
269
330
3
100
AcDbSymbolTableRecord
100
AcDbTextStyleTableRecord
  2
ACJISGDT
 70
     0
 40
0.0
 41
1.0
 50
0.0
 71
     0
 42
2.5
  3
amgdtans.shx
  4

  0
ENDTAB
  0
TABLE
  2
VIEW
  5
6
330
0
100
AcDbSymbolTable
 70
     0
  0
ENDTAB
  0
TABLE
  2
UCS
  5
7
330
0
100
AcDbSymbolTable
 70
     0
  0
ENDTAB
  0
TABLE
  2
APPID
  5
9
330
0
100
AcDbSymbolTable
 70
    21
  0
APPID
  5
12
330
9
100
AcDbSymbolTableRecord
100
AcDbRegAppTableRecord
  2
ACAD
 70
     0
  0
APPID
  5
30
330
9
100
AcDbSymbolTableRecord
100
AcDbRegAppTableRecord
  2
MCAD_NO_VIS
 70
     0
  0
APPID
  5
31
330
9
100
AcDbSymbolTableRecord
100
AcDbRegAppTableRecord
  2
ACAD_TEMP_GRAPHIC
 70
     0
  0
APPID
  5
2C2
330
9
100
AcDbSymbolTableRecord
100
AcDbRegAppTableRecord
  2
GENIUS_GENDTOL_13
 70
     0
  0
APPID
  5
339
330
9
100
AcDbSymbolTableRecord
100
AcDbRegAppTableRecord
  2
GENIUS_GENODEF_13
 70
     0
  0
APPID
  5
33A
330
9
100
AcDbSymbolTableRecord
100
AcDbRegAppTableRecord
  2
GENIUS_GENOBJ-N-RSBK_13
 70
     0
  0
APPID
  5
33B
330
9
100
AcDbSymbolTableRecord
100
AcDbRegAppTableRecord
  2
GENIUS_GENOBJ-N-LIB_13
 70
     0
  0
APPID
  5
33C
330
9
100
AcDbSymbolTableRecord
100
AcDbRegAppTableRecord
  2
GENIUS_GENSCALE_13
 70
     0
  0
APPID
  5
378
330
9
100
AcDbSymbolTableRecord
100
AcDbRegAppTableRecord
  2
GENIUS_GENDIMSH_14
 70
     0
  0
APPID
  5
BDB
330
9
100
AcDbSymbolTableRecord
100
AcDbRegAppTableRecord
  2
GENIUS_GENOBJ-N-CEN_13
 70
     0
  0
APPID
  5
BDC
330
9
100
AcDbSymbolTableRecord
100
AcDbRegAppTableRecord
  2
GENIUS_GENFIL_13
 70
     0
  0
APPID
  5
BDD
330
9
100
AcDbSymbolTableRecord
100
AcDbRegAppTableRecord
  2
GENIUS_GENOBJ-N-FIL_13
 70
     0
  0
APPID
  5
12AD
330
9
100
AcDbSymbolTableRecord
100
AcDbRegAppTableRecord
  2
GENIUS_GENOREF_13
 70
     0
  0
APPID
  5
68E9
330
9
100
AcDbSymbolTableRecord
100
AcDbRegAppTableRecord
  2
GEVID1060695448
 70
     0
  0
APPID
  5
68EA
330
9
100
AcDbSymbolTableRecord
100
AcDbRegAppTableRecord
  2
GEVDC
 70
     0
  0
APPID
  5
68ED
330
9
100
AcDbSymbolTableRecord
100
AcDbRegAppTableRecord
  2
GENIUS_GENBH_13
 70
     0
  0
APPID
  5
68EF
330
9
100
AcDbSymbolTableRecord
100
AcDbRegAppTableRecord
  2
GENIUS_GENOBJ-NBEHI-BHF_13
 70
     0
  0
APPID
  5
68F0
330
9
100
AcDbSymbolTableRecord
100
AcDbRegAppTableRecord
  2
GENIUS_GENOENT_13
 70
     0
  0
APPID
  5
68F1
330
9
100
AcDbSymbolTableRecord
100
AcDbRegAppTableRecord
  2
GENIUS_GENOLIS_13
 70
     0
  0
APPID
  5
68F3
330
9
100
AcDbSymbolTableRecord
100
AcDbRegAppTableRecord
  2
GENIUS_GENOBJ-NBEHI-BHB_13
 70
     0
  0
APPID
  5
6B27
330
9
100
AcDbSymbolTableRecord
100
AcDbRegAppTableRecord
  2
GENIUS_GENOBJ-N-CHA_13
 70
     0
  0
ENDTAB
  0
TABLE
  2
DIMSTYLE
  5
A
330
0
100
AcDbSymbolTable
 70
     8
  0
DIMSTYLE
105
58
102
{ACAD_REACTORS
330
8BAD
330
8BBA
330
8BC7
330
8BD4
330
8BEB
102
}
330
A
100
AcDbSymbolTableRecord
100
AcDbDimStyleTableRecord
  2
AM_JIS
 70
     0
  3

  4
"
  5
OPEN30
  6

  7

 40
1.0
 41
2.5
 42
1.0
 43
12.0
 44
1.0
 45
0.0
 46
0.0
 47
0.1
 48
0.1
140
3.2
141
0.0
142
0.0
143
0.0393701
144
1.0
145
0.0
146
0.71
147
1.5
 71
     0
 72
     0
 73
     0
 74
     0
 75
     0
 76
     0
 77
     3
 78
     8
170
     0
171
     2
172
     1
173
     0
174
     0
175
     0
176
     3
177
     3
178
     2
270
     2
271
     3
272
     3
273
     2
274
     2
340
6B
275
     0
280
     0
281
     0
282
     0
283
     0
284
     0
285
     0
286
     0
287
     3
288
     0
  0
DIMSTYLE
105
5F
330
A
100
AcDbSymbolTableRecord
100
AcDbDimStyleTableRecord
  2
AM_JIS$3
 70
     0
  3

  4
"
  5
OPEN30
  6

  7

 40
1.0
 41
2.5
 42
1.0
 43
10.0
 44
1.0
 45
0.0
 46
0.0
 47
0.1
 48
0.1
140
3.2
141
0.0
142
0.0
143
0.0393701
144
1.0
145
0.0
146
0.71
147
1.5
 71
     0
 72
     0
 73
     0
 74
     1
 75
     0
 76
     0
 77
     3
 78
     8
170
     0
171
     2
172
     0
173
     0
174
     0
175
     0
176
     3
177
     3
178
     2
270
     2
271
     2
272
     3
273
     2
274
     2
340
6B
275
     0
280
     0
281
     0
282
     0
283
     0
284
     0
285
     0
286
     0
287
     0
288
     1
  0
DIMSTYLE
105
60
330
A
100
AcDbSymbolTableRecord
100
AcDbDimStyleTableRecord
  2
AM_JIS$4
 70
     0
  3

  4
"
  5
OPEN30
  6

  7

 40
1.0
 41
2.5
 42
1.0
 43
10.0
 44
1.0
 45
0.0
 46
0.0
 47
0.1
 48
0.1
140
3.2
141
0.0
142
0.0
143
0.0393701
144
1.0
145
0.0
146
0.71
147
1.5
 71
     0
 72
     0
 73
     0
 74
     1
 75
     0
 76
     0
 77
     3
 78
     8
170
     0
171
     2
172
     0
173
     0
174
     0
175
     0
176
     3
177
     3
178
     2
270
     2
271
     2
272
     3
273
     2
274
     2
340
6B
275
     0
280
     0
281
     0
282
     0
283
     0
284
     0
285
     0
286
     0
287
     0
288
     1
  0
DIMSTYLE
105
61
330
A
100
AcDbSymbolTableRecord
100
AcDbDimStyleTableRecord
  2
AM_JIS$6
 70
     0
  3

  4
"
  5
OPEN30
  6

  7

 40
1.0
 41
2.5
 42
1.0
 43
10.0
 44
1.0
 45
0.0
 46
0.0
 47
0.1
 48
0.1
140
3.2
141
0.0
142
0.0
143
0.0393701
144
1.0
145
0.0
146
0.71
147
1.5
 71
     0
 72
     0
 73
     0
 74
     0
 75
     0
 76
     0
 77
     0
 78
     8
170
     0
171
     2
172
     1
173
     0
174
     0
175
     0
176
     3
177
     3
178
     2
270
     2
271
     2
272
     2
273
     2
274
     2
340
6B
275
     0
280
     0
281
     0
282
     0
283
     0
284
     0
285
     0
286
     0
287
     3
288
     0
  0
DIMSTYLE
105
62
330
A
100
AcDbSymbolTableRecord
100
AcDbDimStyleTableRecord
  2
AM_JIS$7
 70
     0
  3

  4
"
  5
OPEN30
  6

  7

 40
1.0
 41
2.5
 42
1.0
 43
10.0
 44
1.0
 45
0.0
 46
0.0
 47
0.1
 48
0.1
140
3.2
141
0.0
142
0.0
143
0.0393701
144
1.0
145
0.0
146
0.71
147
1.5
 71
     0
 72
     0
 73
     0
 74
     0
 75
     0
 76
     0
 77
     3
 78
     8
170
     0
171
     2
172
     1
173
     0
174
     0
175
     0
176
     3
177
     3
178
     2
270
     2
271
     2
272
     3
273
     2
274
     2
340
6B
275
     0
280
     0
281
     0
282
     0
283
     0
284
     0
285
     0
286
     0
287
     3
288
     0
  0
DIMSTYLE
105
63
330
A
100
AcDbSymbolTableRecord
100
AcDbDimStyleTableRecord
  2
AM_JIS$SF
 70
     0
  3

  4
"
  5
OPEN30
  6

  7

 40
1.0
 41
2.5
 42
1.0
 43
10.0
 44
1.0
 45
0.0
 46
0.0
 47
0.1
 48
0.1
140
3.2
141
0.0
142
0.0
143
0.0393701
144
1.0
145
0.0
146
0.71
147
1.5
 71
     0
 72
     0
 73
     0
 74
     0
 75
     1
 76
     1
 77
     3
 78
     8
170
     0
171
     2
172
     1
173
     0
174
     0
175
     0
176
   256
177
   256
178
     2
270
     2
271
     2
272
     2
273
     2
274
     2
340
6B
275
     0
280
     0
281
     0
282
     0
283
     0
284
     0
285
     0
286
     0
287
     3
288
     0
  0
DIMSTYLE
105
68
330
A
100
AcDbSymbolTableRecord
100
AcDbDimStyleTableRecord
  2
AM_JIS$SH
 70
     0
  3

  4
"
  5

  6
GENAXEH
  7
OPEN30
 40
1.0
 41
2.5
 42
1.0
 43
10.0
 44
1.0
 45
0.0
 46
0.0
 47
0.1
 48
0.1
140
3.2
141
0.0
142
0.0
143
0.0393701
144
2.0
145
0.0
146
0.71
147
1.5
 71
     0
 72
     0
 73
     0
 74
     0
 75
     1
 76
     1
 77
     3
 78
     8
170
     0
171
     2
172
     1
173
     1
174
     0
175
     0
176
   256
177
   256
178
     2
270
     2
271
     2
272
     2
273
     2
274
     2
340
6B
275
     0
280
     0
281
     0
282
     0
283
     0
284
     0
285
     0
286
     0
287
     3
288
     0
  0
DIMSTYLE
105
B34
102
{ACAD_REACTORS
330
8BFA
330
8EDB
330
8EDC
102
}
330
A
100
AcDbSymbolTableRecord
100
AcDbDimStyleTableRecord
  2
AM_JIS$2
 70
     0
  3

  4
"
  5
OPEN30
  6

  7

 40
1.0
 41
2.5
 42
1.0
 43
12.0
 44
1.0
 45
0.0
 46
0.0
 47
0.1
 48
0.1
140
3.2
141
0.0
142
0.0
143
0.0393701
144
1.0
145
0.0
146
0.71
147
1.5
 71
     0
 72
     0
 73
     0
 74
     0
 75
     0
 76
     0
 77
     3
 78
     8
170
     0
171
     2
172
     1
173
     0
174
     0
175
     0
176
     3
177
     3
178
     2
270
     2
271
     3
272
     3
273
     2
274
     2
340
6B
275
     0
280
     0
281
     0
282
     0
283
     0
284
     0
285
     0
286
     0
287
     3
288
     0
  0
ENDTAB
  0
TABLE
  2
BLOCK_RECORD
  5
1
330
0
100
AcDbSymbolTable
 70
    13
  0
BLOCK_RECORD
  5
1F
102
{ACAD_XDICTIONARY
360
74
102
}
330
1
100
AcDbSymbolTableRecord
100
AcDbBlockTableRecord
  2
*MODEL_SPACE
  0
BLOCK_RECORD
  5
101
102
{ACAD_XDICTIONARY
360
8FAE
102
}
330
1
100
AcDbSymbolTableRecord
100
AcDbBlockTableRecord
  2
*PAPER_SPACE
  0
BLOCK_RECORD
  5
59
330
1
100
AcDbSymbolTableRecord
100
AcDbBlockTableRecord
  2
_OPEN30
  0
BLOCK_RECORD
  5
64
330
1
100
AcDbSymbolTableRecord
100
AcDbBlockTableRecord
  2
GENAXEH
  0
BLOCK_RECORD
  5
8BAE
330
1
100
AcDbSymbolTableRecord
100
AcDbBlockTableRecord
  2
*D5
  0
BLOCK_RECORD
  5
8BBB
330
1
100
AcDbSymbolTableRecord
100
AcDbBlockTableRecord
  2
*D6
  0
BLOCK_RECORD
  5
8BC8
330
1
100
AcDbSymbolTableRecord
100
AcDbBlockTableRecord
  2
*D7
  0
BLOCK_RECORD
  5
8BD5
330
1
100
AcDbSymbolTableRecord
100
AcDbBlockTableRecord
  2
*D8
  0
BLOCK_RECORD
  5
8BEC
330
1
100
AcDbSymbolTableRecord
100
AcDbBlockTableRecord
  2
*D9
  0
BLOCK_RECORD
  5
8BFB
330
1
100
AcDbSymbolTableRecord
100
AcDbBlockTableRecord
  2
*D10
  0
BLOCK_RECORD
  5
8EDD
330
1
100
AcDbSymbolTableRecord
100
AcDbBlockTableRecord
  2
*D11
  0
BLOCK_RECORD
  5
8EEF
330
1
100
AcDbSymbolTableRecord
100
AcDbBlockTableRecord
  2
*D12
  0
ENDTAB
  0
ENDSEC
  0
SECTION
  2
BLOCKS
  0
BLOCK
  5
20
330
1F
100
AcDbEntity
  8
0
100
AcDbBlockBegin
  2
*MODEL_SPACE
 70
     0
 10
0.0
 20
0.0
 30
0.0
  3
*MODEL_SPACE
  1

  0
ENDBLK
  5
21
330
1F
100
AcDbEntity
  8
0
100
AcDbBlockEnd
  0
BLOCK
  5
103
330
101
100
AcDbEntity
 67
     1
  8
0
100
AcDbBlockBegin
  2
*PAPER_SPACE
 70
     0
 10
0.0
 20
0.0
 30
0.0
  3
*PAPER_SPACE
  1

  0
ENDBLK
  5
104
330
101
100
AcDbEntity
 67
     1
  8
0
100
AcDbBlockEnd
  0
BLOCK
  5
5D
330
59
100
AcDbEntity
  8
0
100
AcDbBlockBegin
  2
_OPEN30
 70
     0
 10
0.0
 20
0.0
 30
0.0
  3
_OPEN30
  1

  0
LINE
  5
5A
330
59
100
AcDbEntity
  8
0
 62
     0
100
AcDbLine
 10
-1.0
 20
0.26794919
 30
0.0
 11
0.0
 21
0.0
 31
0.0
  0
LINE
  5
5B
330
59
100
AcDbEntity
  8
0
 62
     0
100
AcDbLine
 10
0.0
 20
0.0
 30
0.0
 11
-1.0
 21
-0.26794919
 31
0.0
  0
LINE
  5
5C
330
59
100
AcDbEntity
  8
0
 62
     0
100
AcDbLine
 10
0.0
 20
0.0
 30
0.0
 11
-1.0
 21
0.0
 31
0.0
  0
ENDBLK
  5
5E
330
59
100
AcDbEntity
  8
0
100
AcDbBlockEnd
  0
BLOCK
  5
66
330
64
100
AcDbEntity
  8
0
100
AcDbBlockBegin
  2
GENAXEH
 70
     0
 10
0.0
 20
0.0
 30
0.0
  3
GENAXEH
  1

  0
LINE
  5
65
330
64
100
AcDbEntity
  8
0
100
AcDbLine
 10
-1.0
 20
0.0
 30
0.0
 11
1.0
 21
0.0
 31
0.0
  0
ENDBLK
  5
67
330
64
100
AcDbEntity
  8
0
100
AcDbBlockEnd
  0
BLOCK
  5
8BB8
330
8BAE
100
AcDbEntity
  8
0
100
AcDbBlockBegin
  2
*D5
 70
     1
 10
0.0
 20
0.0
 30
0.0
  3
*D5
  1

  0
LINE
  5
8E9D
330
8BAE
100
AcDbEntity
  8
AM_5
 62
     3
100
AcDbLine
 10
0.6000000000000063
 20
-0.0000000000000048
 30
0.0
 11
14.6866348306966
 21
-0.0000000000000088
 31
0.0
  0
LINE
  5
8E9E
330
8BAE
100
AcDbEntity
  8
AM_5
 62
     3
100
AcDbLine
 10
-5.502592345190821
 20
-12.00000000000001
 30
0.0
 11
14.6866348306966
 21
-12.00000000000002
 31
0.0
  0
LINE
  5
8E9F
330
8BAE
100
AcDbEntity
  8
AM_5
 62
     3
100
AcDbLine
 10
13.6866348306966
 20
-2.500000000000008
 30
0.0
 11
13.6866348306966
 21
-9.500000000000026
 31
0.0
  0
INSERT
  5
8EA0
330
8BAE
100
AcDbEntity
  8
AM_5
 62
     3
100
AcDbBlockReference
  2
_OPEN30
 10
13.6866348306966
 20
-0.0000000000000085
 30
0.0
 41
2.5
 42
2.5
 43
2.5
 50
90.0
  0
INSERT
  5
8EA1
330
8BAE
100
AcDbEntity
  8
AM_5
 62
     3
100
AcDbBlockReference
  2
_OPEN30
 10
13.6866348306966
 20
-12.00000000000002
 30
0.0
 41
2.5
 42
2.5
 43
2.5
 50
270.0
  0
MTEXT
  5
8EA2
330
8BAE
100
AcDbEntity
  8
AM_5
 62
     2
100
AcDbMText
 10
10.5866348306966
 20
-6.000000000000015
 30
0.0
 40
3.2
 41
0.0
 71
     5
 72
     1
  1
12
  7
ASAMI
 11
0.0000000000000001
 21
1.0
 31
0.0
1001
ACAD
1000
MTEXTBEGIN
1070
    73
1070
     1
1070
    44
1040
1.0
1070
    74
1070
     0
1000
MTEXTEND
  0
POINT
  5
8EA3
330
8BAE
100
AcDbEntity
  8
DEFPOINTS
 62
     0
100
AcDbPoint
 10
-0.3999999999999936
 20
-0.0000000000000046
 30
0.0
  0
POINT
  5
8EA4
330
8BAE
100
AcDbEntity
  8
DEFPOINTS
 62
     0
100
AcDbPoint
 10
-6.502592345190821
 20
-12.00000000000001
 30
0.0
  0
POINT
  5
8EA5
330
8BAE
100
AcDbEntity
  8
DEFPOINTS
 62
     0
100
AcDbPoint
 10
13.6866348306966
 20
-12.00000000000002
 30
0.0
  0
ENDBLK
  5
8BB9
330
8BAE
100
AcDbEntity
  8
0
100
AcDbBlockEnd
  0
BLOCK
  5
8BC5
330
8BBB
100
AcDbEntity
  8
0
100
AcDbBlockBegin
  2
*D6
 70
     1
 10
0.0
 20
0.0
 30
0.0
  3
*D6
  1

  0
LINE
  5
8F62
330
8BBB
100
AcDbEntity
  8
AM_5
 62
     3
100
AcDbLine
 10
-81.00000000000001
 20
-0.0000000000000043
 30
0.0
 11
-95.00000000000001
 21
-0.0000000000000003
 31
0.0
  0
LINE
  5
8F63
330
8BBB
100
AcDbEntity
  8
AM_5
 62
     3
100
AcDbLine
 10
-81.00000000000001
 20
-12.0
 30
0.0
 11
-95.00000000000001
 21
-12.0
 31
0.0
  0
LINE
  5
8F64
330
8BBB
100
AcDbEntity
  8
AM_5
 62
     3
100
AcDbLine
 10
-94.00000000000002
 20
-2.5
 30
0.0
 11
-94.00000000000002
 21
-9.500000000000001
 31
0.0
  0
INSERT
  5
8F65
330
8BBB
100
AcDbEntity
  8
AM_5
 62
     3
100
AcDbBlockReference
  2
_OPEN30
 10
-94.00000000000002
 20
-0.0000000000000006
 30
0.0
 41
2.5
 42
2.5
 43
2.5
 50
90.0
  0
INSERT
  5
8F66
330
8BBB
100
AcDbEntity
  8
AM_5
 62
     3
100
AcDbBlockReference
  2
_OPEN30
 10
-94.00000000000002
 20
-12.0
 30
0.0
 41
2.5
 42
2.5
 43
2.5
 50
270.0
  0
MTEXT
  5
8F67
330
8BBB
100
AcDbEntity
  8
AM_5
 62
     2
100
AcDbMText
 10
-97.1
 20
-6.000000000000015
 30
0.0
 40
3.2
 41
0.0
 71
     5
 72
     1
  1
12
  7
ASAMI
 11
0.0000000000000001
 21
1.0
 31
0.0
1001
ACAD
1000
MTEXTBEGIN
1070
    73
1070
     1
1070
    44
1040
1.0
1070
    74
1070
     0
1000
MTEXTEND
  0
POINT
  5
8F68
330
8BBB
100
AcDbEntity
  8
DEFPOINTS
 62
     0
100
AcDbPoint
 10
-80.00000000000001
 20
-0.0000000000000046
 30
0.0
  0
POINT
  5
8F69
330
8BBB
100
AcDbEntity
  8
DEFPOINTS
 62
     0
100
AcDbPoint
 10
-80.00000000000001
 20
-12.0
 30
0.0
  0
POINT
  5
8F6A
330
8BBB
100
AcDbEntity
  8
DEFPOINTS
 62
     0
100
AcDbPoint
 10
-94.00000000000002
 20
-12.0
 30
0.0
  0
ENDBLK
  5
8BC6
330
8BBB
100
AcDbEntity
  8
0
100
AcDbBlockEnd
  0
BLOCK
  5
8BD2
330
8BC8
100
AcDbEntity
  8
0
100
AcDbBlockBegin
  2
*D7
 70
     1
 10
0.0
 20
0.0
 30
0.0
  3
*D7
  1

  0
LINE
  5
8F59
330
8BC8
100
AcDbEntity
  8
AM_5
 62
     3
100
AcDbLine
 10
-81.00000000000001
 20
32.05651960116465
 30
0.0
 11
-95.0
 21
32.05651960116465
 31
0.0
  0
LINE
  5
8F5A
330
8BC8
100
AcDbEntity
  8
AM_5
 62
     3
100
AcDbLine
 10
-81.00000000000001
 20
44.05651960116466
 30
0.0
 11
-95.0
 21
44.05651960116466
 31
0.0
  0
LINE
  5
8F5B
330
8BC8
100
AcDbEntity
  8
AM_5
 62
     3
100
AcDbLine
 10
-94.0
 20
34.55651960116465
 30
0.0
 11
-94.0
 21
41.55651960116466
 31
0.0
  0
INSERT
  5
8F5C
330
8BC8
100
AcDbEntity
  8
AM_5
 62
     3
100
AcDbBlockReference
  2
_OPEN30
 10
-94.0
 20
32.05651960116465
 30
0.0
 41
2.5
 42
2.5
 43
2.5
 50
270.0
  0
INSERT
  5
8F5D
330
8BC8
100
AcDbEntity
  8
AM_5
 62
     3
100
AcDbBlockReference
  2
_OPEN30
 10
-94.0
 20
44.05651960116466
 30
0.0
 41
2.5
 42
2.5
 43
2.5
 50
90.0
  0
MTEXT
  5
8F5E
330
8BC8
100
AcDbEntity
  8
AM_5
 62
     2
100
AcDbMText
 10
-97.1
 20
38.05651960116464
 30
0.0
 40
3.2
 41
0.0
 71
     5
 72
     1
  1
12
  7
ASAMI
 11
0.0000000000000001
 21
1.0
 31
0.0
1001
ACAD
1000
MTEXTBEGIN
1070
    73
1070
     1
1070
    44
1040
1.0
1070
    74
1070
     0
1000
MTEXTEND
  0
POINT
  5
8F5F
330
8BC8
100
AcDbEntity
  8
DEFPOINTS
 62
     0
100
AcDbPoint
 10
-80.00000000000001
 20
32.05651960116465
 30
0.0
  0
POINT
  5
8F60
330
8BC8
100
AcDbEntity
  8
DEFPOINTS
 62
     0
100
AcDbPoint
 10
-80.00000000000001
 20
44.05651960116466
 30
0.0
  0
POINT
  5
8F61
330
8BC8
100
AcDbEntity
  8
DEFPOINTS
 62
     0
100
AcDbPoint
 10
-94.0
 20
44.05651960116466
 30
0.0
  0
ENDBLK
  5
8BD3
330
8BC8
100
AcDbEntity
  8
0
100
AcDbBlockEnd
  0
BLOCK
  5
8BE0
330
8BD5
100
AcDbEntity
  8
0
100
AcDbBlockBegin
  2
*D8
 70
     1
 10
0.0
 20
0.0
 30
0.0
  3
*D8
  1

  0
LINE
  5
8F40
330
8BD5
100
AcDbEntity
  8
AM_5
 62
     3
100
AcDbLine
 10
-0.06117637193586
 20
44.05651960116466
 30
0.0
 11
33.89890959880666
 21
44.05651960116465
 31
0.0
  0
LINE
  5
8F41
330
8BD5
100
AcDbEntity
  8
AM_5
 62
     3
100
AcDbLine
 10
0.9999999999999978
 20
32.55651960116466
 30
0.0
 11
33.89890959880666
 21
32.55651960116465
 31
0.0
  0
LINE
  5
8F42
330
8BD5
100
AcDbEntity
  8
AM_5
 62
     3
100
AcDbLine
 10
32.89890959880666
 20
41.55651960116465
 30
0.0
 11
32.89890959880666
 21
35.05651960116465
 31
0.0
  0
INSERT
  5
8F43
330
8BD5
100
AcDbEntity
  8
AM_5
 62
     3
100
AcDbBlockReference
  2
_OPEN30
 10
32.89890959880666
 20
44.05651960116465
 30
0.0
 41
2.5
 42
2.5
 43
2.5
 50
90.0
  0
INSERT
  5
8F44
330
8BD5
100
AcDbEntity
  8
AM_5
 62
     3
100
AcDbBlockReference
  2
_OPEN30
 10
32.89890959880666
 20
32.55651960116465
 30
0.0
 41
2.5
 42
2.5
 43
2.5
 50
270.0
  0
MTEXT
  5
8F45
330
8BD5
100
AcDbEntity
  8
AM_5
 62
     2
100
AcDbMText
 10
29.79890959880665
 20
38.30651960116465
 30
0.0
 40
3.2
 41
0.0
 71
     5
 72
     1
  1
11.5
  7
ASAMI
 11
0.0000000000000001
 21
1.0
 31
0.0
1001
ACAD
1000
MTEXTBEGIN
1070
    73
1070
     1
1070
    44
1040
1.0
1070
    74
1070
     0
1000
MTEXTEND
  0
POINT
  5
8F46
330
8BD5
100
AcDbEntity
  8
DEFPOINTS
 62
     0
100
AcDbPoint
 10
-1.06117637193586
 20
44.05651960116466
 30
0.0
  0
POINT
  5
8F47
330
8BD5
100
AcDbEntity
  8
DEFPOINTS
 62
     0
100
AcDbPoint
 10
-0.0000000000000021
 20
32.55651960116466
 30
0.0
  0
POINT
  5
8F48
330
8BD5
100
AcDbEntity
  8
DEFPOINTS
 62
     0
100
AcDbPoint
 10
32.89890959880666
 20
32.55651960116465
 30
0.0
  0
ENDBLK
  5
8BE1
330
8BD5
100
AcDbEntity
  8
0
100
AcDbBlockEnd
  0
BLOCK
  5
8BF6
330
8BEC
100
AcDbEntity
  8
0
100
AcDbBlockBegin
  2
*D9
 70
     1
 10
0.0
 20
0.0
 30
0.0
  3
*D9
  1

  0
LINE
  5
8E60
330
8BEC
100
AcDbEntity
  8
AM_5
 62
     3
100
AcDbLine
 10
-0.0000000000000021
 20
0.5999999999999898
 30
0.0
 11
-0.0000000000000011
 21
17.0711856552532
 31
0.0
  0
LINE
  5
8E61
330
8BEC
100
AcDbEntity
  8
AM_5
 62
     3
100
AcDbLine
 10
-80.00000000000001
 20
0.9999999999999953
 30
0.0
 11
-80.00000000000001
 21
17.0711856552532
 31
0.0
  0
LINE
  5
8E62
330
8BEC
100
AcDbEntity
  8
AM_5
 62
     3
100
AcDbLine
 10
-2.500000000000001
 20
16.07118565525319
 30
0.0
 11
-77.50000000000001
 21
16.07118565525319
 31
0.0
  0
INSERT
  5
8E63
330
8BEC
100
AcDbEntity
  8
AM_5
 62
     3
100
AcDbBlockReference
  2
_OPEN30
 10
-0.0000000000000011
 20
16.07118565525319
 30
0.0
 41
2.5
 42
2.5
 43
2.5
  0
INSERT
  5
8E64
330
8BEC
100
AcDbEntity
  8
AM_5
 62
     3
100
AcDbBlockReference
  2
_OPEN30
 10
-80.00000000000001
 20
16.07118565525319
 30
0.0
 41
2.5
 42
2.5
 43
2.5
 50
180.0
  0
MTEXT
  5
8E65
330
8BEC
100
AcDbEntity
  8
AM_5
 62
     2
100
AcDbMText
 10
-40.0
 20
19.1711856552532
 30
0.0
 40
3.2
 41
0.0
 71
     5
 72
     1
  1
80
  7
ASAMI
1001
ACAD
1000
MTEXTBEGIN
1070
    73
1070
     1
1070
    44
1040
1.0
1070
    74
1070
     0
1000
MTEXTEND
  0
POINT
  5
8E66
330
8BEC
100
AcDbEntity
  8
DEFPOINTS
 62
     0
100
AcDbPoint
 10
-0.0000000000000021
 20
-0.4000000000000103
 30
0.0
  0
POINT
  5
8E67
330
8BEC
100
AcDbEntity
  8
DEFPOINTS
 62
     0
100
AcDbPoint
 10
-80.00000000000001
 20
-0.0000000000000046
 30
0.0
  0
POINT
  5
8E68
330
8BEC
100
AcDbEntity
  8
DEFPOINTS
 62
     0
100
AcDbPoint
 10
-80.00000000000001
 20
16.07118565525319
 30
0.0
  0
ENDBLK
  5
8BF7
330
8BEC
100
AcDbEntity
  8
0
100
AcDbBlockEnd
  0
BLOCK
  5
8C08
330
8BFB
100
AcDbEntity
  8
0
100
AcDbBlockBegin
  2
*D10
 70
     1
 10
0.0
 20
0.0
 30
0.0
  3
*D10
  1

  0
LINE
  5
8FB0
330
8BFB
100
AcDbEntity
  8
AM_5
 62
     3
100
AcDbLine
 10
-0.0000000000000022
 20
0.9999999999999953
 30
0.0
 11
-0.0000000000000027
 21
10.02683632395237
 31
0.0
  0
ARC
  5
8FB1
330
8BFB
100
AcDbEntity
  8
AM_5
 62
     3
100
AcDbCircle
 10
-0.0000000000000022
 20
-0.0000000000000046
 30
0.0
 40
9.026836323952377
100
AcDbArc
 50
105.9193346581031
 51
164.0806653418968
  0
INSERT
  5
8FB2
330
8BFB
100
AcDbEntity
  8
AM_5
 62
     3
100
AcDbBlockReference
  2
_OPEN30
 10
-0.0000000000000027
 20
9.026836323952373
 30
0.0
 41
2.5
 42
2.5
 43
2.5
 50
7.959667329051556
  0
INSERT
  5
8FB3
330
8BFB
100
AcDbEntity
  8
AM_5
 62
     3
100
AcDbBlockReference
  2
_OPEN30
 10
-9.026836323952379
 20
-0.0000000000000067
 30
0.0
 41
2.5
 42
2.5
 43
2.5
 50
262.0403326709484
  0
MTEXT
  5
8FB4
330
8BFB
100
AcDbEntity
  8
AM_5
 62
     2
100
AcDbMText
 10
-6.063418161976193
 20
10.50214832407864
 30
0.0
 40
3.2
 41
0.0
 71
     5
 72
     1
  1
90°
  7
ASAMI
 11
0.8660254037844383
 21
0.5000000000000009
 31
0.0
  0
POINT
  5
8FB5
330
8BFB
100
AcDbEntity
  8
DEFPOINTS
 62
     0
100
AcDbPoint
 10
-7.817469572346899
 20
4.513418161976181
 30
0.0
  0
POINT
  5
8FB6
330
8BFB
100
AcDbEntity
  8
DEFPOINTS
 62
     0
100
AcDbPoint
 10
-0.0000000000000021
 20
-0.4000000000000103
 30
0.0
  0
POINT
  5
8FB7
330
8BFB
100
AcDbEntity
  8
DEFPOINTS
 62
     0
100
AcDbPoint
 10
-0.3999999999999936
 20
-0.0000000000000046
 30
0.0
  0
POINT
  5
8FB8
330
8BFB
100
AcDbEntity
  8
DEFPOINTS
 62
     0
100
AcDbPoint
 10
-10.0128819819093
 20
-0.0000000000000044
 30
0.0
  0
POINT
  5
8FB9
330
8BFB
100
AcDbEntity
  8
DEFPOINTS
 62
     0
100
AcDbPoint
 10
-0.0000000000000022
 20
-4.80900233742705
 30
0.0
  0
ENDBLK
  5
8C09
330
8BFB
100
AcDbEntity
  8
0
100
AcDbBlockEnd
  0
BLOCK
  5
8EED
330
8EDD
100
AcDbEntity
  8
0
100
AcDbBlockBegin
  2
*D11
 70
     1
 10
0.0
 20
0.0
 30
0.0
  3
*D11
  1

  0
LINE
  5
8F49
330
8EDD
100
AcDbEntity
  8
AM_5
 62
     3
100
AcDbLine
 10
1.999999999999984
 20
32.55651960116466
 30
0.0
 11
21.73438984677324
 21
32.55651960116474
 31
0.0
  0
LINE
  5
8F4A
330
8EDD
100
AcDbEntity
  8
AM_5
 62
     3
100
AcDbLine
 10
0.9961946980917295
 20
32.64367534391232
 30
0.0
 11
21.65168393161456
 21
34.45079649142734
 31
0.0
  0
ARC
  5
8F4B
330
8EDD
100
AcDbEntity
  8
AM_5
 62
     3
100
AcDbCircle
 10
-0.0000000000000158
 20
32.55651960116466
 30
0.0
 40
20.73438984677325
100
AcDbArc
 50
346.1496958790528
 51
0.0000000000002417
  0
LINE
  5
8F4C
330
8EDD
100
AcDbEntity
  8
AM_5
 62
     3
100
AcDbLine
 10
20.13152667634119
 20
27.59299706190528
 30
0.0
 11
16.81614464221403
 21
14.1461553614035
 31
0.0
  0
ARC
  5
8F4D
330
8EDD
100
AcDbEntity
  8
AM_5
 62
     3
100
AcDbCircle
 10
-0.0000000000000158
 20
32.55651960116466
 30
0.0
 40
20.73438984677325
100
AcDbArc
 50
346.1750108954948
 51
353.0875054477475
  0
ARC
  5
8F4E
330
8EDD
100
AcDbEntity
  8
AM_5
 62
     3
100
AcDbCircle
 10
-0.0000000000000158
 20
32.55651960116466
 30
0.0
 40
20.73438984677325
100
AcDbArc
 50
11.91249455225268
 51
18.82498910450537
  0
ARC
  5
8F4F
330
8EDD
100
AcDbEntity
  8
AM_5
 62
     3
100
AcDbCircle
 10
-0.0000000000000158
 20
32.55651960116466
 30
0.0
 40
20.73438984677325
100
AcDbArc
 50
0.0000000000002417
 51
4.999999999999994
  0
INSERT
  5
8F50
330
8EDD
100
AcDbEntity
  8
AM_5
 62
     3
100
AcDbBlockReference
  2
_OPEN30
 10
20.73438984677324
 20
32.55651960116474
 30
0.0
 41
2.5
 42
2.5
 43
2.5
 50
86.5437527238739
  0
INSERT
  5
8F51
330
8EDD
100
AcDbEntity
  8
AM_5
 62
     3
100
AcDbBlockReference
  2
_OPEN30
 10
20.65548923352282
 20
34.36364074867968
 30
0.0
 41
2.5
 42
2.5
 43
2.5
 50
278.4562472761263
  0
MTEXT
  5
8F52
330
8EDD
100
AcDbEntity
  8
AM_5
 62
     2
100
AcDbMText
 10
21.48370154671629
 20
20.12747962789123
 30
0.0
 40
3.2
 41
0.0
 71
     5
 72
     1
  1
-5°
  7
ASAMI
 11
-0.2393859947623134
 21
-0.9709244798189288
 31
0.0
1001
ACAD
1000
MTEXTBEGIN
1070
    73
1070
     1
1070
    44
1040
1.0
1070
    74
1070
     0
1000
MTEXTEND
  0
POINT
  5
8F53
330
8EDD
100
AcDbEntity
  8
DEFPOINTS
 62
     0
100
AcDbPoint
 10
20.69931054081067
 20
33.76211715136842
 30
0.0
  0
POINT
  5
8F54
330
8EDD
100
AcDbEntity
  8
DEFPOINTS
 62
     0
100
AcDbPoint
 10
-0.0000000000000158
 20
32.55651960116466
 30
0.0
  0
POINT
  5
8F55
330
8EDD
100
AcDbEntity
  8
DEFPOINTS
 62
     0
100
AcDbPoint
 10
0.999999999999984
 20
32.55651960116466
 30
0.0
  0
POINT
  5
8F56
330
8EDD
100
AcDbEntity
  8
DEFPOINTS
 62
     0
100
AcDbPoint
 10
-0.0000000000000158
 20
32.55651960116466
 30
0.0
  0
POINT
  5
8F57
330
8EDD
100
AcDbEntity
  8
DEFPOINTS
 62
     0
100
AcDbPoint
 10
-20.82576396401454
 20
30.73450134504668
 30
0.0
  0
ENDBLK
  5
8EEE
330
8EDD
100
AcDbEntity
  8
0
100
AcDbBlockEnd
  0
BLOCK
  5
8EFF
330
8EEF
100
AcDbEntity
  8
0
100
AcDbBlockBegin
  2
*D12
 70
     1
 10
0.0
 20
0.0
 30
0.0
  3
*D12
  1

  0
LINE
  5
8F10
330
8EEF
100
AcDbEntity
  8
AM_5
 62
     3
100
AcDbLine
 10
38.69538240685908
 20
0.9961946980920499
 30
0.0
 11
39.91650095049062
 21
14.95364351967251
 31
0.0
  0
LINE
  5
8F11
330
8EEF
100
AcDbEntity
  8
AM_5
 62
     3
100
AcDbLine
 10
38.60822666411143
 20
1.598523043400505
 30
0.0
 11
38.6082266641115
 21
15.01076400859878
 31
0.0
  0
ARC
  5
8F12
330
8EEF
100
AcDbEntity
  8
AM_5
 62
     3
100
AcDbCircle
 10
38.60822666411142
 20
0.0000000000003042
 30
0.0
 40
14.01076400859848
100
AcDbArc
 50
64.44285626390689
 51
85.00000000000008
  0
LINE
  5
8F13
330
8EEF
100
AcDbEntity
  8
AM_5
 62
     3
100
AcDbLine
 10
44.65262539406943
 20
12.63988734514388
 30
0.0
 11
57.14704901214134
 21
6.665049422427158
 31
0.0
  0
ARC
  5
8F14
330
8EEF
100
AcDbEntity
  8
AM_5
 62
     3
100
AcDbCircle
 10
38.60822666411142
 20
0.0000000000003042
 30
0.0
 40
14.01076400859848
100
AcDbArc
 50
64.5257194710546
 51
74.76285973552734
  0
ARC
  5
8F15
330
8EEF
100
AcDbEntity
  8
AM_5
 62
     3
100
AcDbCircle
 10
38.60822666411142
 20
0.0000000000003042
 30
0.0
 40
14.01076400859848
100
AcDbArc
 50
100.2371402644724
 51
110.4742805289452
  0
ARC
  5
8F16
330
8EEF
100
AcDbEntity
  8
AM_5
 62
     3
100
AcDbCircle
 10
38.60822666411142
 20
0.0000000000003042
 30
0.0
 40
14.01076400859848
100
AcDbArc
 50
85.00000000000008
 51
89.99999999999971
  0
INSERT
  5
8F17
330
8EEF
100
AcDbEntity
  8
AM_5
 62
     3
100
AcDbBlockReference
  2
_OPEN30
 10
39.82934520774296
 20
13.95744882158077
 30
0.0
 41
2.5
 42
2.5
 43
2.5
 50
169.8814298677637
  0
INSERT
  5
8F18
330
8EEF
100
AcDbEntity
  8
AM_5
 62
     3
100
AcDbBlockReference
  2
_OPEN30
 10
38.6082266641115
 20
14.01076400859879
 30
0.0
 41
2.5
 42
2.5
 43
2.5
 50
5.118570132236096
  0
MTEXT
  5
8F19
330
8EEF
100
AcDbEntity
  8
AM_5
 62
     2
100
AcDbMText
 10
52.2372115284006
 20
12.44915033102964
 30
0.0
 40
3.2
 41
0.0
 71
     5
 72
     1
  1
-5°
  7
ASAMI
 11
0.9021554668529439
 21
-0.4314110726758724
 31
0.0
1001
ACAD
1000
MTEXTBEGIN
1070
    73
1070
     1
1070
    44
1040
1.0
1070
    74
1070
     0
1000
MTEXTEND
  0
POINT
  5
8F1A
330
8EEF
100
AcDbEntity
  8
DEFPOINTS
 62
     0
100
AcDbPoint
 10
39.01572579467766
 20
14.00483675603664
 30
0.0
  0
POINT
  5
8F1B
330
8EEF
100
AcDbEntity
  8
DEFPOINTS
 62
     0
100
AcDbPoint
 10
37.01472359173614
 20
-18.21382346186033
 30
0.0
  0
POINT
  5
8F1C
330
8EEF
100
AcDbEntity
  8
DEFPOINTS
 62
     0
100
AcDbPoint
 10
38.60822666411142
 20
-0.0000000000000182
 30
0.0
  0
POINT
  5
8F1D
330
8EEF
100
AcDbEntity
  8
DEFPOINTS
 62
     0
100
AcDbPoint
 10
38.60822666411142
 20
0.5985230434005058
 30
0.0
  0
POINT
  5
8F1E
330
8EEF
100
AcDbEntity
  8
DEFPOINTS
 62
     0
100
AcDbPoint
 10
38.6082266641114
 20
-0.00000000000002
 30
0.0
  0
ENDBLK
  5
8F00
330
8EEF
100
AcDbEntity
  8
0
100
AcDbBlockEnd
  0
ENDSEC
  0
SECTION
  2
ENTITIES
  0
TEXT
  5
C58
330
1F
100
AcDbEntity
  8
AM_6
100
AcDbText
 10
-59.99999999999996
 20
-34.50000000000008
 30
0.0
 40
5.0
  1
ETANR1212
 50
0.0000000000002036
 72
     4
 11
-39.99999999999997
 21
-32.00000000000001
 31
0.0
100
AcDbText
  0
POINT
  5
68EE
330
1F
100
AcDbEntity
  8
0
 60
     1
100
AcDbPoint
 10
0.0
 20
0.0
 30
0.0
1001
GENIUS_GENOBJ-NBEHI-BHF_13
1002
{
1000
OWNER
1000
GENBEHI
1002
}
1001
GENIUS_GENOENT_13
1002
{
1000
MYREF
1005
68EE
1002
}
1002
{
1000
GRP
1005
0
1002
}
1001
GENIUS_GENOLIS_13
1002
{
1000
ENT
1005
68EB
1002
}
1001
GENIUS_GENBH_13
1002
{
1000
OIUMAP
1000
OIU
1002
}
1002
{
1000
FLAGS
1070
    32
1002
}
1002
{
1000
BGO
1005
68F2
1002
}
1001
GENIUS_GENODEF_13
1002
{
1000
HIER
1070
     1
1002
}
1002
{
1000
MANEDIT
1070
     1
1002
}
1002
{
1000
NOSEL
1070
     1
1002
}
1002
{
1000
BEHIND
1070
     0
1002
}
1002
{
1000
REACTOR
1002
}
  0
POINT
  5
68F2
330
1F
100
AcDbEntity
  8
0
 60
     1
100
AcDbPoint
 10
0.0
 20
0.0
 30
0.0
1001
GENIUS_GENOBJ-NBEHI-BHB_13
1002
{
1000
OWNER
1000
GENBEHI
1002
}
1001
GENIUS_GENOENT_13
1002
{
1000
MYREF
1005
68F2
1002
}
1002
{
1000
GRP
1005
0
1002
}
1001
GENIUS_GENOLIS_13
1002
{
1000
ENT
1002
}
1001
GENIUS_GENODEF_13
1002
{
1000
HIER
1070
     1
1002
}
1002
{
1000
MANEDIT
1070
     0
1002
}
1002
{
1000
NOSEL
1070
     1
1002
}
1002
{
1000
BEHIND
1070
     0
1002
}
1002
{
1000
REACTOR
1002
}
1002
{
1000
OTHER
1070
     1
1002
}
1001
GENIUS_GENBH_13
1002
{
1000
FGO
1005
68EE
1002
}
  0
LINE
  5
8B1A
330
1F
100
AcDbEntity
  8
AM_0
100
AcDbLine
 10
50.10822666411143
 20
-0.0000000000000046
 30
0.0
 11
38.10822666411143
 21
-0.0000000000000188
 31
0.0
  0
LINE
  5
8B1D
330
1F
100
AcDbEntity
  8
AM_0
100
AcDbLine
 10
50.10822666411143
 20
-12.0
 30
0.0
 11
38.10822666411143
 21
-12.0
 31
0.0
  0
LINE
  5
8B1E
330
1F
100
AcDbEntity
  8
AM_0
100
AcDbLine
 10
-80.00000000000001
 20
44.05651960116466
 30
0.0
 11
-80.00000000000001
 21
32.05651960116465
 31
0.0
  0
LINE
  5
8B1F
330
1F
100
AcDbEntity
  8
AM_0
100
AcDbLine
 10
-10.44884062121939
 20
32.05651960116465
 30
0.0
 11
-80.00000000000001
 21
32.05651960116465
 31
0.0
  0
LINE
  5
8B20
330
1F
100
AcDbEntity
  8
AM_0
100
AcDbLine
 10
-1.061176371935857
 20
44.05651960116466
 30
0.0
 11
-80.00000000000001
 21
44.05651960116466
 31
0.0
  0
LINE
  5
8B21
330
1F
100
AcDbEntity
  8
AM_0
100
AcDbLine
 10
38.10822666411143
 20
-12.0
 30
0.0
 11
38.10822666411143
 21
-9.151100847724753
 31
0.0
  0
LINE
  5
8B22
330
1F
100
AcDbEntity
  8
AM_0
100
AcDbLine
 10
50.10822666411143
 20
-12.0
 30
0.0
 11
50.10822666411143
 21
-0.0000000000000046
 31
0.0
  0
LINE
  5
8B24
330
1F
100
AcDbEntity
  8
AM_0
100
AcDbLine
 10
-80.00000000000001
 20
-0.0000000000000046
 30
0.0
 11
-80.00000000000001
 21
-12.0
 31
0.0
  0
LINE
  5
8B25
330
1F
100
AcDbEntity
  8
AM_0
100
AcDbLine
 10
-10.70570230489703
 20
-0.0000000000000046
 30
0.0
 11
-80.00000000000001
 21
-0.0000000000000046
 31
0.0
  0
LINE
  5
8B26
330
1F
100
AcDbEntity
  8
AM_0
100
AcDbLine
 10
-6.502592345190821
 20
-12.00000000000001
 30
0.0
 11
-80.00000000000001
 21
-12.0
 31
0.0
  0
LINE
  5
8B31
330
1F
100
AcDbEntity
  8
AM_0
100
AcDbLine
 10
-10.22359505696637
 20
-0.0600000000000211
 30
0.0
 11
-10.67106128874564
 21
-0.0600000000000211
 31
0.0
  0
LINE
  5
8B32
330
1F
100
AcDbEntity
  8
AM_0
100
AcDbLine
 10
-10.70570230489703
 20
-0.0000000000000046
 30
0.0
 11
-5.140045709906248
 21
-9.640000000004851
 31
0.0
  0
LINE
  5
8B40
330
1F
100
AcDbEntity
  8
AM_0
100
AcDbLine
 10
41.77232774229621
 20
-0.3205673063542821
 30
0.0
 11
50.10822666411143
 21
-1.049863962311112
 31
0.0
  0
LINE
  5
8B43
330
1F
100
AcDbEntity
  8
AM_0
100
AcDbLine
 10
38.10822666411143
 20
-9.255896467803642
 30
0.0
 11
40.27135667647804
 21
-9.445145821618416
 31
0.0
  0
LINE
  5
8B47
330
1F
100
AcDbEntity
  8
AM_7
100
AcDbLine
 10
37.05289919760424
 20
-3.102274701632323
 30
0.0
 11
57.17678942070259
 21
-4.862886962193599
 31
0.0
  0
LINE
  5
8B50
330
1F
100
AcDbEntity
  8
AM_7
100
AcDbLine
 10
-6.943461078501385
 20
51.95524548874578
 30
0.0
 11
-4.837389256965337
 21
27.88273441521671
 31
0.0
  0
LINE
  5
8B55
330
1F
100
AcDbEntity
  8
AM_0
100
AcDbLine
 10
-15.65889409338349
 20
44.05651960116466
 30
0.0
 11
-14.6090301310724
 21
32.05651960116465
 31
0.0
  0
LINE
  5
8B57
330
1F
100
AcDbEntity
  8
AM_0
100
AcDbLine
 10
-10.67106128874566
 20
32.05651960116465
 30
0.0
 11
-10.85258968229793
 21
34.13139863390328
 31
0.0
  0
LINE
  5
8B5C
330
1F
100
AcDbEntity
  8
AM_0
100
AcDbLine
 10
-10.91359870222129
 20
34.8287349225675
 30
0.0
 11
-10.51486815445999
 21
34.8287349225675
 31
0.0
  0
LINE
  5
8B60
330
1F
100
AcDbEntity
  8
AM_0
100
AcDbLine
 10
-11.54992597096214
 20
34.07038961397992
 30
0.0
 11
-11.61093499088551
 21
34.76772590264414
 31
0.0
  0
LINE
  5
8B62
330
1F
100
AcDbEntity
  8
AM_0
100
AcDbLine
 10
-10.85258968229793
 20
34.13139863390329
 30
0.0
 11
-11.54992597096214
 21
34.07038961397992
 31
0.0
  0
LINE
  5
8B63
330
1F
100
AcDbEntity
  8
AM_0
100
AcDbLine
 10
-10.85258968229791
 20
34.13139863390328
 30
0.0
 11
-10.63036901477167
 21
34.13139863390327
 31
0.0
  0
LWPOLYLINE
  5
8B65
102
{ACAD_REACTORS
330
8B73
102
}
330
1F
100
AcDbEntity
  8
AM_0
100
AcDbPolyline
 90
        6
 70
     1
 43
0.0
 10
-4.860030826331199
 20
-8.924999999906395
 10
-0.0535898384302861
 20
-0.5999999999031235
 42
0.5773502690963957
 10
-0.3999999999999936
 20
-0.0000000000000046
 10
-10.0128819819093
 20
-0.0000000000000046
 42
0.5773502692800181
 10
-10.35929214336882
 20
-0.6000000000939468
 10
-5.552851149360451
 20
-8.925000000084798
 42
0.5773502691924636
  0
CIRCLE
  5
8B72
102
{ACAD_REACTORS
330
8B73
102
}
330
1F
100
AcDbEntity
  8
AM_0
100
AcDbCircle
 10
-5.208607213367274
 20
-3.213749330003882
 30
0.0
 40
1.5
  0
LINE
  5
8B7E
330
1F
100
AcDbEntity
  8
AM_0
100
AcDbLine
 10
-0.2771552619375512
 20
35.72441874109641
 30
0.0
 11
-0.0000000000000142
 21
32.55651960116466
 31
0.0
  0
LINE
  5
8B80
330
1F
100
AcDbEntity
  8
AM_0
100
AcDbLine
 10
-0.0000000000000142
 20
32.55651960116466
 30
0.0
 11
-10.4128819819093
 21
31.64551047311425
 31
0.0
  0
LINE
  5
8B85
330
1F
100
AcDbEntity
  8
AM_0
100
AcDbLine
 10
-5.140045709906248
 20
-9.640000000004823
 30
0.0
 11
-6.502592345190807
 21
-12.00000000000001
 31
0.0
  0
LINE
  5
8B87
330
1F
100
AcDbEntity
  8
AM_0
100
AcDbLine
 10
-5.208607214105557
 20
-9.52124799128831
 30
0.0
 11
-4.890609321139466
 21
-8.970459483971415
 31
0.0
  0
LINE
  5
8B8F
330
1F
100
AcDbEntity
  8
AM_0
100
AcDbLine
 10
-0.331793785518542
 20
35.71963848969128
 30
0.0
 11
-1.061176371935857
 21
44.05651960116466
 31
0.0
  0
LINE
  5
8B91
330
1F
100
AcDbEntity
  8
AM_0
100
AcDbLine
 10
-0.2771552619375512
 20
35.72441874109641
 30
0.0
 11
-10.69003724384685
 21
34.81340961304599
 31
0.0
  0
LINE
  5
8B92
330
1F
100
AcDbEntity
  8
AM_0
100
AcDbLine
 10
-10.69003724384685
 20
34.81340961304598
 30
0.0
 11
-10.4128819819093
 21
31.64551047311425
 31
0.0
  0
LINE
  5
8B93
330
1F
100
AcDbEntity
  8
AM_0
100
AcDbLine
 10
-10.91359870222129
 20
34.82873492256751
 30
0.0
 11
-11.61093499088551
 21
34.76772590264414
 31
0.0
  0
LINE
  5
8B94
330
1F
100
AcDbEntity
  8
AM_0
100
AcDbLine
 10
-11.61093499088551
 20
34.76772590264414
 30
0.0
 11
-10.6860404370789
 21
34.76772590264414
 31
0.0
  0
LINE
  5
8B96
330
1F
100
AcDbEntity
  8
AM_0
100
AcDbLine
 10
41.77612580404317
 20
-0.27715526193757
 30
0.0
 11
38.60822666411142
 21
-0.0000000000000188
 31
0.0
  0
LINE
  5
8B97
330
1F
100
AcDbEntity
  8
AM_0
100
AcDbLine
 10
37.80989260943762
 20
-9.124999999997077
 30
0.0
 11
38.60822666411142
 21
-0.0000000000000188
 31
0.0
  0
LINE
  5
8B9A
330
1F
100
AcDbEntity
  8
AM_0
100
AcDbLine
 10
40.92102440125873
 20
-10.0510090199282
 30
0.0
 11
41.77612580404316
 21
-0.27715526193757
 31
0.0
  0
LINE
  5
8B9D
330
1F
100
AcDbEntity
  8
AM_0
100
AcDbLine
 10
37.80989260943762
 20
-9.124999999997077
 30
0.0
 11
40.97779174936936
 21
-9.402155261934629
 31
0.0
  0
LINE
  5
8BA0
330
1F
100
AcDbEntity
  8
AM_0
100
AcDbLine
 10
38.10822666411143
 20
-5.715026151380588
 30
0.0
 11
38.10822666411143
 21
-0.0000000000000046
 31
0.0
  0
LINE
  5
8BA1
330
1F
100
AcDbEntity
  8
AM_0
100
AcDbLine
 10
40.2236881125945
 20
-9.990000000004846
 30
0.0
 11
40.92102440125872
 21
-10.0510090199282
 31
0.0
  0
LINE
  5
8BA2
330
1F
100
AcDbEntity
  8
AM_0
100
AcDbLine
 10
40.2236881125945
 20
-9.99000000000486
 30
0.0
 11
40.28045546070514
 21
-9.341146242011282
 31
0.0
  0
LINE
  5
8BA3
330
1F
100
AcDbEntity
  8
AM_0
100
AcDbLine
 10
40.92102440125872
 20
-10.0510090199282
 30
0.0
 11
40.92102440125872
 21
-9.396021623846769
 31
0.0
  0
LINE
  5
8BA8
330
1F
100
AcDbEntity
  8
AM_0
100
AcDbLine
 10
-5.28095231327488
 20
50.16325321691237
 30
0.0
 11
-4.74345504506023
 21
44.01963132862738
 31
0.0
  0
LINE
  5
8BA9
330
1F
100
AcDbEntity
  8
AM_0
100
AcDbLine
 10
-8.269536407550106
 20
49.9017859886694
 30
0.0
 11
-7.754914557690256
 21
44.01963132862738
 31
0.0
  0
DIMENSION
  5
8BAD
330
1F
100
AcDbEntity
  8
AM_5
100
AcDbDimension
  2
*D5
 10
13.6866348306966
 20
-12.00000000000002
 30
0.0
 11
10.5866348306966
 21
-6.000000000000015
 31
0.0
 70
    32
  3
AM_JIS
100
AcDbAlignedDimension
 13
-0.3999999999999936
 23
-0.0000000000000046
 33
0.0
 14
-6.502592345190821
 24
-12.00000000000001
 34
0.0
 50
270.0
100
AcDbRotatedDimension
  0
DIMENSION
  5
8BBA
330
1F
100
AcDbEntity
  8
AM_5
100
AcDbDimension
  2
*D6
 10
-94.00000000000002
 20
-12.0
 30
0.0
 11
-97.1
 21
-6.000000000000015
 31
0.0
 70
    32
  3
AM_JIS
100
AcDbAlignedDimension
 13
-80.00000000000001
 23
-0.0000000000000046
 33
0.0
 14
-80.00000000000001
 24
-12.0
 34
0.0
 50
270.0
100
AcDbRotatedDimension
  0
DIMENSION
  5
8BC7
330
1F
100
AcDbEntity
  8
AM_5
100
AcDbDimension
  2
*D7
 10
-94.0
 20
44.05651960116466
 30
0.0
 11
-97.1
 21
38.05651960116464
 31
0.0
 70
    32
  3
AM_JIS
100
AcDbAlignedDimension
 13
-80.00000000000001
 23
32.05651960116465
 33
0.0
 14
-80.00000000000001
 24
44.05651960116466
 34
0.0
 50
270.0
100
AcDbRotatedDimension
  0
DIMENSION
  5
8BD4
330
1F
100
AcDbEntity
  8
AM_5
100
AcDbDimension
  2
*D8
 10
32.89890959880666
 20
32.55651960116465
 30
0.0
 11
32.89890959880665
 21
38.30651960116465
 31
0.0
 70
   160
  3
AM_JIS
100
AcDbAlignedDimension
 13
-1.06117637193586
 23
44.05651960116466
 33
0.0
 14
-0.0000000000000021
 24
32.55651960116466
 34
0.0
 50
270.0
100
AcDbRotatedDimension
  0
DIMENSION
  5
8BEB
330
1F
100
AcDbEntity
  8
AM_5
100
AcDbDimension
  2
*D9
 10
-80.00000000000001
 20
16.07118565525319
 30
0.0
 11
-40.0
 21
19.1711856552532
 31
0.0
 70
    32
  3
AM_JIS
100
AcDbAlignedDimension
 13
-0.0000000000000021
 23
-0.4000000000000103
 33
0.0
 14
-80.00000000000001
 24
-0.0000000000000046
 34
0.0
 50
180.0
100
AcDbRotatedDimension
  0
DIMENSION
  5
8BFA
330
1F
100
AcDbEntity
  8
AM_5
100
AcDbDimension
  2
*D10
 10
-0.0000000000000021
 20
-4.80900233742705
 30
0.0
 11
-4.513418161976192
 21
7.817469572346889
 31
0.0
 70
   162
  3
AM_JIS$2
100
AcDb2LineAngularDimension
 13
-0.3999999999999936
 23
-0.0000000000000046
 33
0.0
 14
-10.0128819819093
 24
-0.0000000000000046
 34
0.0
 15
-0.0000000000000021
 25
-0.4000000000000103
 35
0.0
 16
-7.817469572346899
 26
4.513418161976181
 36
0.0
1001
ACAD
1000
DSTYLE
1002
{
1070
   271
1070
     0
1002
}
  0
LINE
  5
8CD8
330
1F
100
AcDbEntity
  8
AM_11
100
AcDbLine
 10
-0.0000000000000021
 20
-0.0000000000000046
 30
0.0
 11
-0.3999999999999936
 21
-0.0000000000000046
 31
0.0
  0
LINE
  5
8CD9
330
1F
100
AcDbEntity
  8
AM_11
100
AcDbLine
 10
-0.0000000000000021
 20
-0.4000000000000103
 30
0.0
 11
-0.0000000000000021
 21
-0.0000000000000046
 31
0.0
  0
LINE
  5
8D38
330
1F
100
AcDbEntity
  8
AM_0
100
AcDbLine
 10
56.11843664196252
 20
-6.384222542886033
 30
0.0
 11
50.10468788242757
 21
-5.752353207246892
 31
0.0
  0
LINE
  5
8D39
330
1F
100
AcDbEntity
  8
AM_0
100
AcDbLine
 10
56.37994354814455
 20
-3.395184927692117
 30
0.0
 11
50.11096120580845
 21
-2.736497997762629
 31
0.0
  0
LINE
  5
8E3B
330
1F
100
AcDbEntity
  8
AM_0
100
AcDbLine
 10
56.11843664196253
 20
-6.384222542886031
 30
0.0
 11
56.37994354814455
 21
-3.395184927692117
 31
0.0
  0
LINE
  5
8E3C
330
1F
100
AcDbEntity
  8
AM_0
100
AcDbLine
 10
-5.28095231327488
 20
50.16325321691237
 30
0.0
 11
-8.269536407550106
 21
49.9017859886694
 31
0.0
  0
DIMENSION
  5
8EDB
330
1F
100
AcDbEntity
  8
AM_5
100
AcDbDimension
  2
*D11
 10
-20.82576396401454
 20
30.73450134504668
 30
0.0
 11
21.4837015467163
 21
20.12747962789123
 31
0.0
 70
    34
  1
-<>
  3
AM_JIS$2
100
AcDb2LineAngularDimension
 13
0.999999999999984
 23
32.55651960116466
 33
0.0
 14
-0.000000000000016
 24
32.55651960116466
 34
0.0
 15
-0.000000000000016
 25
32.55651960116466
 35
0.0
 16
20.69931054081067
 26
33.76211715136842
 36
0.0
1001
ACAD
1000
DSTYLE
1002
{
1070
   179
1070
     3
1002
}
1001
GENIUS_GENDTOL_13
1000

1000
h7
1000

1040
0.0
  0
DIMENSION
  5
8EDC
330
1F
100
AcDbEntity
  8
AM_5
100
AcDbDimension
  2
*D12
 10
38.6082266641114
 20
-0.0000000000000198
 30
0.0
 11
52.2372115284006
 21
12.44915033102964
 31
0.0
 70
    34
  1
-<>
  3
AM_JIS$2
100
AcDb2LineAngularDimension
 13
38.60822666411142
 23
-0.0000000000000182
 33
0.0
 14
38.60822666411142
 24
0.5985230434005061
 34
0.0
 15
37.01472359173615
 25
-18.21382346186033
 35
0.0
 16
39.01572579467766
 26
14.00483675603664
 36
0.0
1001
ACAD
1000
DSTYLE
1002
{
1070
   179
1070
     3
1002
}
1001
GENIUS_GENDTOL_13
1000

1000
h7
1000

1040
0.0
  0
VIEWPORT
  5
110
330
101
100
AcDbEntity
 67
     1
  8
0
100
AcDbViewport
 10
420.5
 20
297.0
 30
0.0
 40
948.9782706766916
 41
628.452
 68
     1
 69
     1
1001
ACAD
1000
MVIEW
1002
{
1070
    16
1010
0.0
1020
0.0
1030
0.0
1010
0.0
1020
0.0
1030
1.0
1040
0.0
1040
628.452
1040
420.5
1040
297.0
1040
50.0
1040
0.0
1040
0.0
1070
     0
1070
   100
1070
     1
1070
     1
1070
     0
1070
     0
1070
     0
1070
     0
1040
0.0
1040
0.0
1040
0.0
1040
10.0
1040
10.0
1040
10.0
1040
10.0
1070
     0
1002
{
1002
}
1002
}
  0
ENDSEC
  0
SECTION
  2
OBJECTS
  0
DICTIONARY
  5
C
330
0
100
AcDbDictionary
  3
ACAD_GROUP
350
D
  3
ACAD_LAYOUT
350
1A
  3
ACAD_MLINESTYLE
350
17
  3
ACAD_PLOTSETTINGS
350
19
  3
ACAD_PLOTSTYLENAME
350
E
  3
ACDBVARIABLEDICTIONARY
350
34
  3
ACMDICTIONARY
350
43
  3
AMG
350
2B
  3
AMGSNAPSETTINGS
350
6E
  3
DWGPROPS
350
8F7A
  3
ACDBHEADERROUNDTRIPXREC
350
8F86
  0
DICTIONARY
  5
74
330
1F
100
AcDbDictionary
280
     1
  3
ACAD_INDEX
360
8F7C
  3
ACAD_LAYOUTSELFREF
360
8FA9
  0
DICTIONARY
  5
8FAE
330
101
100
AcDbDictionary
280
     1
  3
ACAD_LAYOUTSELFREF
360
8FAF
  0
DICTIONARY
  5
D
102
{ACAD_REACTORS
330
C
102
}
330
C
100
AcDbDictionary
  3
*A1
350
8AC5
  3
*A2
350
8B73
  0
DICTIONARY
  5
1A
102
{ACAD_REACTORS
330
C
102
}
330
C
100
AcDbDictionary
  0
DICTIONARY
  5
17
102
{ACAD_REACTORS
330
C
102
}
330
C
100
AcDbDictionary
  3
STANDARD
350
18
  0
DICTIONARY
  5
19
102
{ACAD_REACTORS
330
C
102
}
330
C
100
AcDbDictionary
  0
ACDBDICTIONARYWDFLT
  5
E
102
{ACAD_REACTORS
330
C
102
}
330
C
100
AcDbDictionary
281
     1
  3
Normal
350
F
100
AcDbDictionaryWithDefault
340
F
  0
DICTIONARY
  5
34
102
{ACAD_REACTORS
330
C
102
}
330
C
100
AcDbDictionary
  3
INDEXCTL
350
35
  3
SORTENTS
350
B5E
  0
DICTIONARY
  5
43
102
{ACAD_REACTORS
330
C
102
}
330
C
100
AcDbDictionary
  3
ACMSTDDICTIONARY
350
260
  0
DICTIONARY
  5
2B
102
{ACAD_REACTORS
330
C
102
}
330
C
100
AcDbDictionary
  3
ACMGSETTINGS
350
2C
  0
DICTIONARY
  5
6E
102
{ACAD_REACTORS
330
C
102
}
330
C
100
AcDbDictionary
  0
XRECORD
  5
8F7A
102
{ACAD_REACTORS
330
C
102
}
330
C
100
AcDbXrecord
  1
DWGPROPS COOKIE
  2

  3

  4

  6

  7

  8

  9

300
AmdtFileType=82
301
=
302
=
303
=
304
=
305
=
306
=
307
=
308
=
309
=
 40
1.768689791666666
 41
2452838.620506898
 42
2452909.50271302
  1

 90
        1
  0
DICTIONARY
  5
8F86
102
{ACAD_REACTORS
330
C
102
}
330
C
100
AcDbDictionary
  3
TSTACKALIGN
350
8F87
  3
TSTACKSIZE
350
8F88
  3
HYPERLINKBASE
350
8F89
  3
STYLESHEET
350
8F8A
  3
LAYOUTDICT
350
8F8B
  3
PLOTSETDICT
350
8F8C
  3
PLOTSTYLNAMDICT
350
8F8D
  3
LWETCUNION
350
8F8E
  3
INSUNITS
350
8F8F
  3
CEPSNTYPE
350
8F90
  3
FINGERPRINTGUID
350
8F91
  3
VERSIONGUID
350
8F92
  3
PSVPSCALE
350
8F93
  3
DIMSTYLEDATA
350
8F94
  3
PUCSORTHOREF
350
8F95
  3
PUCSORTHOVIEW
350
8F96
  3
PUCSBASE
350
8F97
  3
PUCSORGTOP
350
8F98
  3
PUCSORGBOTTOM
350
8F99
  3
PUCSORGLEFT
350
8F9A
  3
PUCSORGRIGHT
350
8F9B
  3
PUCSORGFRONT
350
8F9C
  3
PUCSORGBACK
350
8F9D
  3
UCSORTHOREF
350
8F9E
  3
UCSORTHOVIEW
350
8F9F
  3
UCSBASE
350
8FA0
  3
UCSORGTOP
350
8FA1
  3
UCSORGBOTTOM
350
8FA2
  3
UCSORGLEFT
350
8FA3
  3
UCSORGRIGHT
350
8FA4
  3
UCSORGFRONT
350
8FA5
  3
UCSORGBACK
350
8FA6
  0
DICTIONARY
  5
8F7C
102
{ACAD_REACTORS
330
74
102
}
330
74
100
AcDbDictionary
  3
*A1
350
8F7D
  0
XRECORD
  5
8FA9
102
{ACAD_REACTORS
330
74
102
}
330
74
100
AcDbXrecord
340
1F
  0
XRECORD
  5
8FAF
102
{ACAD_REACTORS
330
8FAE
102
}
330
8FAE
100
AcDbXrecord
340
101
  0
GROUP
  5
8AC5
102
{ACAD_REACTORS
330
D
102
}
330
D
100
AcDbGroup
300

 70
     1
 71
     1
  0
GROUP
  5
8B73
102
{ACAD_REACTORS
330
D
102
}
330
D
100
AcDbGroup
300

 70
     1
 71
     1
340
8B65
340
8B72
  0
MLINESTYLE
  5
18
102
{ACAD_REACTORS
330
17
102
}
330
17
100
AcDbMlineStyle
  2
STANDARD
 70
     0
  3

 62
   256
 51
90.0
 52
90.0
 71
     2
 49
0.5
 62
   256
  6
BYLAYER
 49
-0.5
 62
   256
  6
BYLAYER
  0
ACDBPLACEHOLDER
  5
F
102
{ACAD_REACTORS
330
E
102
}
330
E
100
AcDbPlaceHolder
280
     0
  0
DICTIONARYVAR
  5
35
102
{ACAD_REACTORS
330
34
102
}
330
34
100
DictionaryVariables
280
     0
  1
1
  0
DICTIONARYVAR
  5
B5E
102
{ACAD_REACTORS
330
34
102
}
330
34
100
DictionaryVariables
280
     0
  1
96
  0
DICTIONARY
  5
260
102
{ACAD_REACTORS
330
43
102
}
330
43
100
AcDbDictionary
  0
DICTIONARY
  5
2C
102
{ACAD_REACTORS
330
2B
102
}
330
2B
100
AcDbDictionary
  3
DWGSETTINGS
350
2D
  0
XRECORD
  5
8F87
102
{ACAD_REACTORS
330
8F86
102
}
330
8F86
100
AcDbXrecord
 90
        1
  0
XRECORD
  5
8F88
102
{ACAD_REACTORS
330
8F86
102
}
330
8F86
100
AcDbXrecord
 90
       70
  0
XRECORD
  5
8F89
102
{ACAD_REACTORS
330
8F86
102
}
330
8F86
100
AcDbXrecord
  1

  0
XRECORD
  5
8F8A
102
{ACAD_REACTORS
330
8F86
102
}
330
8F86
100
AcDbXrecord
  1
ASAMI.ctb
  0
XRECORD
  5
8F8B
102
{ACAD_REACTORS
330
8F86
102
}
330
8F86
100
AcDbXrecord
340
1A
  0
XRECORD
  5
8F8C
102
{ACAD_REACTORS
330
8F86
102
}
330
8F86
100
AcDbXrecord
340
19
  0
XRECORD
  5
8F8D
102
{ACAD_REACTORS
330
8F86
102
}
330
8F86
100
AcDbXrecord
340
E
  0
XRECORD
  5
8F8E
102
{ACAD_REACTORS
330
8F86
102
}
330
8F86
100
AcDbXrecord
 90
    10781
  0
XRECORD
  5
8F8F
102
{ACAD_REACTORS
330
8F86
102
}
330
8F86
100
AcDbXrecord
 90
        4
  0
XRECORD
  5
8F90
102
{ACAD_REACTORS
330
8F86
102
}
330
8F86
100
AcDbXrecord
 90
        0
  0
XRECORD
  5
8F91
102
{ACAD_REACTORS
330
8F86
102
}
330
8F86
100
AcDbXrecord
  1
{AFB28963-8C59-40AE-9337-C84526B81ACE}
  0
XRECORD
  5
8F92
102
{ACAD_REACTORS
330
8F86
102
}
330
8F86
100
AcDbXrecord
  1
{2A75F888-D51E-476C-B3ED-522DCBB6D46A}
  0
XRECORD
  5
8F93
102
{ACAD_REACTORS
330
8F86
102
}
330
8F86
100
AcDbXrecord
 40
0.0
  0
XRECORD
  5
8F94
102
{ACAD_REACTORS
330
8F86
102
}
330
8F86
100
AcDbXrecord
1000
DSTYLE
1002
{
1070
    79
 70
     2
1070
   341
340
59
1070
   342
340
59
1070
   371
 70
    -1
1070
   372
 70
    -1
1002
}
  0
XRECORD
  5
8F95
102
{ACAD_REACTORS
330
8F86
102
}
330
8F86
100
AcDbXrecord
340
0
  0
XRECORD
  5
8F96
102
{ACAD_REACTORS
330
8F86
102
}
330
8F86
100
AcDbXrecord
 70
     0
  0
XRECORD
  5
8F97
102
{ACAD_REACTORS
330
8F86
102
}
330
8F86
100
AcDbXrecord
340
0
  0
XRECORD
  5
8F98
102
{ACAD_REACTORS
330
8F86
102
}
330
8F86
100
AcDbXrecord
 10
0.0
 20
0.0
 30
0.0
  0
XRECORD
  5
8F99
102
{ACAD_REACTORS
330
8F86
102
}
330
8F86
100
AcDbXrecord
 10
0.0
 20
0.0
 30
0.0
  0
XRECORD
  5
8F9A
102
{ACAD_REACTORS
330
8F86
102
}
330
8F86
100
AcDbXrecord
 10
0.0
 20
0.0
 30
0.0
  0
XRECORD
  5
8F9B
102
{ACAD_REACTORS
330
8F86
102
}
330
8F86
100
AcDbXrecord
 10
0.0
 20
0.0
 30
0.0
  0
XRECORD
  5
8F9C
102
{ACAD_REACTORS
330
8F86
102
}
330
8F86
100
AcDbXrecord
 10
0.0
 20
0.0
 30
0.0
  0
XRECORD
  5
8F9D
102
{ACAD_REACTORS
330
8F86
102
}
330
8F86
100
AcDbXrecord
 10
0.0
 20
0.0
 30
0.0
  0
XRECORD
  5
8F9E
102
{ACAD_REACTORS
330
8F86
102
}
330
8F86
100
AcDbXrecord
340
0
  0
XRECORD
  5
8F9F
102
{ACAD_REACTORS
330
8F86
102
}
330
8F86
100
AcDbXrecord
 70
     0
  0
XRECORD
  5
8FA0
102
{ACAD_REACTORS
330
8F86
102
}
330
8F86
100
AcDbXrecord
340
0
  0
XRECORD
  5
8FA1
102
{ACAD_REACTORS
330
8F86
102
}
330
8F86
100
AcDbXrecord
 10
0.0
 20
0.0
 30
0.0
  0
XRECORD
  5
8FA2
102
{ACAD_REACTORS
330
8F86
102
}
330
8F86
100
AcDbXrecord
 10
0.0
 20
0.0
 30
0.0
  0
XRECORD
  5
8FA3
102
{ACAD_REACTORS
330
8F86
102
}
330
8F86
100
AcDbXrecord
 10
0.0
 20
0.0
 30
0.0
  0
XRECORD
  5
8FA4
102
{ACAD_REACTORS
330
8F86
102
}
330
8F86
100
AcDbXrecord
 10
0.0
 20
0.0
 30
0.0
  0
XRECORD
  5
8FA5
102
{ACAD_REACTORS
330
8F86
102
}
330
8F86
100
AcDbXrecord
 10
0.0
 20
0.0
 30
0.0
  0
XRECORD
  5
8FA6
102
{ACAD_REACTORS
330
8F86
102
}
330
8F86
100
AcDbXrecord
 10
0.0
 20
0.0
 30
0.0
  0
LAYER_INDEX
  5
8F7D
102
{ACAD_REACTORS
330
8F7C
102
}
330
8F7C
100
AcDbIndex
 40
2452941.592059271
100
AcDbLayerIndex
  8
0
360
8F7E
 90
        2
  8
AM_0
360
8F7F
 90
       45
  8
AM_11
360
8F80
 90
        2
  8
AM_7
360
8F81
 90
        2
  8
AM_5
360
8F82
 90
        8
  8
Defpoints
360
8F83
 90
        0
  8
AM_6
360
8F84
 90
        1
  0
XRECORD
  5
2D
102
{ACAD_REACTORS
330
2C
102
}
330
2C
100
AcDbXrecord
  1
VERSION
140
15.0
  1
PRODUCT
  2
AutoCAD Mechanical 2000
  0
IDBUFFER
  5
8F7E
330
0
100
AcDbIdBuffer
330
68EE
330
68F2
  0
IDBUFFER
  5
8F7F
330
0
100
AcDbIdBuffer
330
8B5C
330
8B60
330
8B62
330
8B63
330
8B65
330
8B72
330
8B7E
330
8B80
330
8B85
330
8B87
330
8B8F
330
8B91
330
8B92
330
8B93
330
8B94
330
8B96
330
8B97
330
8B9A
330
8B9D
330
8BA0
330
8BA1
330
8BA2
330
8BA3
330
8BA8
330
8BA9
330
8D38
330
8D39
330
8E3B
330
8E3C
330
8B1A
330
8B1D
330
8B1E
330
8B1F
330
8B20
330
8B21
330
8B22
330
8B24
330
8B25
330
8B26
330
8B31
330
8B32
330
8B40
330
8B43
330
8B55
330
8B57
  0
IDBUFFER
  5
8F80
330
0
100
AcDbIdBuffer
330
8CD8
330
8CD9
  0
IDBUFFER
  5
8F81
330
0
100
AcDbIdBuffer
330
8B47
330
8B50
  0
IDBUFFER
  5
8F82
330
0
100
AcDbIdBuffer
330
8BAD
330
8BBA
330
8BC7
330
8BD4
330
8BEB
330
8BFA
330
8EDB
330
8EDC
  0
IDBUFFER
  5
8F83
330
0
100
AcDbIdBuffer
  0
IDBUFFER
  5
8F84
330
0
100
AcDbIdBuffer
330
C58
  0
ENDSEC
  0
EOF
