  0
SECTION
  2
HEADER
  9
$ACADVER
  1
AC1014
  9
$ACADMAINTVER
 70
     9
  9
$DWGCODEPAGE
  3
ANSI_932
  9
$INSBASE
 10
0.0
 20
0.0
 30
0.0
  9
$EXTMIN
 10
-118.7
 20
-30.49999999909541
 30
0.0
  9
$EXTMAX
 10
33.55031931485388
 20
64.03342484196873
 30
0.0
  9
$LIMMIN
 10
-134.7175492872803
 20
-39.46096909575919
  9
$LIMMAX
 10
43.39004311379198
 20
67.88415942702795
  9
$ORTHOMODE
 70
     0
  9
$REGENMODE
 70
     1
  9
$FILLMODE
 70
     1
  9
$QTEXTMODE
 70
     0
  9
$MIRRTEXT
 70
     0
  9
$DRAGMODE
 70
     2
  9
$LTSCALE
 40
0.5
  9
$OSMODE
 70
  2103
  9
$ATTMODE
 70
     1
  9
$TEXTSIZE
 40
2.5
  9
$TRACEWID
 40
1.0
  9
$TEXTSTYLE
  7
STANDARD
  9
$CLAYER
  8
AM_0
  9
$CELTYPE
  6
BYLAYER
  9
$CECOLOR
 62
   256
  9
$CELTSCALE
 40
1.0
  9
$DELOBJ
 70
     1
  9
$DISPSILH
 70
     0
  9
$DIMSCALE
 40
1.0
  9
$DIMASZ
 40
2.5
  9
$DIMEXO
 40
1.0
  9
$DIMDLI
 40
12.0
  9
$DIMRND
 40
0.0
  9
$DIMDLE
 40
0.0
  9
$DIMEXE
 40
1.0
  9
$DIMTP
 40
0.1
  9
$DIMTM
 40
0.1
  9
$DIMTXT
 40
3.2
  9
$DIMCEN
 40
0.0
  9
$DIMTSZ
 40
0.0
  9
$DIMTOL
 70
     0
  9
$DIMLIM
 70
     0
  9
$DIMTIH
 70
     0
  9
$DIMTOH
 70
     0
  9
$DIMSE1
 70
     0
  9
$DIMSE2
 70
     0
  9
$DIMTAD
 70
     3
  9
$DIMZIN
 70
     8
  9
$DIMBLK
  1
OPEN30
  9
$DIMASO
 70
     1
  9
$DIMSHO
 70
     1
  9
$DIMPOST
  1

  9
$DIMAPOST
  1
"
  9
$DIMALT
 70
     0
  9
$DIMALTD
 70
     2
  9
$DIMALTF
 40
0.0393701
  9
$DIMLFAC
 40
1.0
  9
$DIMTOFL
 70
     1
  9
$DIMTVP
 40
0.0
  9
$DIMTIX
 70
     0
  9
$DIMSOXD
 70
     0
  9
$DIMSAH
 70
     0
  9
$DIMBLK1
  1

  9
$DIMBLK2
  1

  9
$DIMSTYLE
  2
AM_JIS
  9
$DIMCLRD
 70
     3
  9
$DIMCLRE
 70
     3
  9
$DIMCLRT
 70
     2
  9
$DIMTFAC
 40
0.71
  9
$DIMGAP
 40
1.5
  9
$DIMJUST
 70
     0
  9
$DIMSD1
 70
     0
  9
$DIMSD2
 70
     0
  9
$DIMTOLJ
 70
     0
  9
$DIMTZIN
 70
     0
  9
$DIMALTZ
 70
     0
  9
$DIMALTTZ
 70
     0
  9
$DIMFIT
 70
     3
  9
$DIMUPT
 70
     0
  9
$DIMUNIT
 70
     2
  9
$DIMDEC
 70
     3
  9
$DIMTDEC
 70
     3
  9
$DIMALTU
 70
     2
  9
$DIMALTTD
 70
     2
  9
$DIMTXSTY
  7
ASAMI
  9
$DIMAUNIT
 70
     0
  9
$LUNITS
 70
     2
  9
$LUPREC
 70
     2
  9
$SKETCHINC
 40
1.0
  9
$FILLETRAD
 40
0.8
  9
$AUNITS
 70
     0
  9
$AUPREC
 70
     0
  9
$MENU
  1
.
  9
$ELEVATION
 40
0.0
  9
$PELEVATION
 40
0.0
  9
$THICKNESS
 40
0.0
  9
$LIMCHECK
 70
     0
  9
$BLIPMODE
 70
     0
  9
$CHAMFERA
 40
1.5
  9
$CHAMFERB
 40
1.5
  9
$CHAMFERC
 40
20.0
  9
$CHAMFERD
 40
0.0
  9
$SKPOLY
 70
     0
  9
$TDCREATE
 40
2452838.620506898
  9
$TDUPDATE
 40
2452941.592388229
  9
$TDINDWG
 40
1.8290552083
  9
$TDUSRTIMER
 40
1.8290552083
  9
$USRTIMER
 70
     1
  9
$ANGBASE
 50
0.0
  9
$ANGDIR
 70
     0
  9
$PDMODE
 70
     0
  9
$PDSIZE
 40
0.0
  9
$PLINEWID
 40
0.0
  9
$COORDS
 70
     0
  9
$SPLFRAME
 70
     0
  9
$SPLINETYPE
 70
     6
  9
$SPLINESEGS
 70
     8
  9
$ATTDIA
 70
     1
  9
$ATTREQ
 70
     1
  9
$HANDLING
 70
 12289
  9
$HANDSEED
  5
93D6
  9
$SURFTAB1
 70
     6
  9
$SURFTAB2
 70
     6
  9
$SURFTYPE
 70
     6
  9
$SURFU
 70
     6
  9
$SURFV
 70
     6
  9
$UCSNAME
  2

  9
$UCSORG
 10
0.0
 20
0.0
 30
0.0
  9
$UCSXDIR
 10
1.0
 20
0.0
 30
0.0
  9
$UCSYDIR
 10
0.0
 20
1.0
 30
0.0
  9
$PUCSNAME
  2

  9
$PUCSORG
 10
0.0
 20
0.0
 30
0.0
  9
$PUCSXDIR
 10
1.0
 20
0.0
 30
0.0
  9
$PUCSYDIR
 10
0.0
 20
1.0
 30
0.0
  9
$USERI1
 70
     0
  9
$USERI2
 70
     0
  9
$USERI3
 70
     0
  9
$USERI4
 70
     0
  9
$USERI5
 70
     0
  9
$USERR1
 40
0.0
  9
$USERR2
 40
0.0
  9
$USERR3
 40
0.0
  9
$USERR4
 40
0.0
  9
$USERR5
 40
0.0
  9
$WORLDVIEW
 70
     1
  9
$SHADEDGE
 70
     3
  9
$SHADEDIF
 70
    70
  9
$TILEMODE
 70
     1
  9
$MAXACTVP
 70
    64
  9
$PINSBASE
 10
0.0
 20
0.0
 30
0.0
  9
$PLIMCHECK
 70
     0
  9
$PEXTMIN
 10
1.000000000000000E+20
 20
1.000000000000000E+20
 30
1.000000000000000E+20
  9
$PEXTMAX
 10
-1.000000000000000E+20
 20
-1.000000000000000E+20
 30
-1.000000000000000E+20
  9
$PLIMMIN
 10
0.0
 20
0.0
  9
$PLIMMAX
 10
841.0
 20
594.0
  9
$UNITMODE
 70
     0
  9
$VISRETAIN
 70
     1
  9
$PLINEGEN
 70
     0
  9
$PSLTSCALE
 70
     0
  9
$TREEDEPTH
 70
  3020
  9
$PICKSTYLE
 70
     0
  9
$CMLSTYLE
  2
STANDARD
  9
$CMLJUST
 70
     0
  9
$CMLSCALE
 40
20.0
  9
$PROXYGRAPHICS
 70
     1
  9
$MEASUREMENT
 70
     1
  0
ENDSEC
  0
SECTION
  2
CLASSES
  0
CLASS
  1
ACDBDICTIONARYWDFLT
  2
AcDbDictionaryWithDefault
  3
AutoCAD 2000
 90
        0
280
     0
281
     0
  0
CLASS
  1
ACDBPLACEHOLDER
  2
AcDbPlaceHolder
  3
AutoCAD 2000
 90
        0
280
     0
281
     0
  0
CLASS
  1
LAYOUT
  2
AcDbLayout
  3
AutoCAD 2000
 90
        0
280
     0
281
     0
  0
CLASS
  1
AMGSETTINGSOBJ
  2
AmgSettingsObj
  3
"AcadM|Product Description: AutoCAD Mechanical 2000|Company: Autodesk"
 90
        0
280
     0
281
     0
  0
CLASS
  1
ACME_DOCUMENT
  2
AcMeDbDoc
  3
AcMeServices
 90
        0
280
     0
281
     0
  0
CLASS
  1
ACMESCOPE
  2
AcMeScope
  3
AcMeServices
 90
        0
280
     0
281
     0
  0
CLASS
  1
ACMECOMMANDHISTORY
  2
AcMeCommandHistory
  3
AcMeServices
 90
        0
280
     0
281
     0
  0
CLASS
  1
DICTIONARYVAR
  2
AcDbDictionaryVar
  3
AutoCAD 2000
 90
        0
280
     0
281
     0
  0
CLASS
  1
ACIMSYSVARMAN
  2
AcImSysVarManager
  3
AcMeServices
 90
        0
280
     0
281
     0
  0
CLASS
  1
ACIMREALSYSVAR
  2
AcImRealSysVar
  3
AcMeServices
 90
        0
280
     0
281
     0
  0
CLASS
  1
ACIMINTSYSVAR
  2
AcImIntSysVar
  3
AcMeServices
 90
        0
280
     0
281
     0
  0
CLASS
  1
ACMEDRAWINGMAN
  2
AcMeDrawingMan
  3
AcMeServices
 90
        0
280
     0
281
     0
  0
CLASS
  1
ACMEVIEW
  2
AcMeView
  3
AcMeServices
 90
        0
280
     0
281
     0
  0
CLASS
  1
ACDBENTITYCACHE
  2
AcMeEntityCache
  3
AcMeServices
 90
        0
280
     0
281
     0
  0
CLASS
  1
GSMANAGER
  2
AcMeGSManager
  3
AcMeServices
 90
        0
280
     0
281
     0
  0
CLASS
  1
AmdtInternalReactor
  2
AmdtInternalReactor
  3
AcMeServices
 90
        0
280
     0
281
     0
  0
CLASS
  1
ACMESTATEMGR
  2
AcMeStateMgr
  3
AcMeServices
 90
        0
280
     0
281
     0
  0
CLASS
  1
ACME_DATABASE
  2
AcMeDbDatabase
  3
AcMeServices
 90
        0
280
     0
281
     0
  0
CLASS
  1
ACRFINSADJUSTERMGR
  2
AcRfInsAdjusterMgr
  3
AcMeServices
 90
        0
280
     0
281
     0
  0
CLASS
  1
ACMDATADICTIONARY
  2
AcmDataDictionary
  3
"AcmSymBB|Product Description: AutoCAD Mechanical 2000|Company: Autodesk"
 90
        0
280
     0
281
     0
  0
CLASS
  1
ACMDATAENTRYBLOCK
  2
AcmDataEntryBlock
  3
"AcmSymBB|Product Description: AutoCAD Mechanical 2000|Company: Autodesk"
 90
        0
280
     0
281
     0
  0
CLASS
  1
AMGOBJPROPCFG
  2
AmgObjPropCfg
  3
"AmgLay|Product Description: AutoCAD Mechanical 2000|Company: Autodesk"
 90
        1
280
     0
281
     0
  0
CLASS
  1
ACAMGFILTERDAT
  2
AcAmgFilterDat
  3
"AcadM|Product Description: AutoCAD Mechanical 2000|Company: Autodesk"
 90
        0
280
     0
281
     0
  0
CLASS
  1
LAYER_INDEX
  2
AcDbLayerIndex
  3
AutoCAD 2000
 90
        0
280
     0
281
     0
  0
CLASS
  1
IDBUFFER
  2
AcDbIdBuffer
  3
AutoCAD 2000
 90
        0
280
     0
281
     0
  0
CLASS
  1
ACIMSTRSYSVAR
  2
AcImStrSysVar
  3
AcMeServices
 90
        0
280
     0
281
     0
  0
CLASS
  1
ACMSTANDARDJIS
  2
AcmStandardJIS
  3
"AcmSymBB|Product Description: AutoCAD Mechanical 2000|Company: Autodesk"
 90
        0
280
     0
281
     0
  0
CLASS
  1
ACMSURFSTANDARDJIS
  2
AcmSurfTextStdJIS
  3
"AcmSymBB|Product Description: AutoCAD Mechanical 2000|Company: Autodesk"
 90
        0
280
     0
281
     0
  0
CLASS
  1
ACMFCFSTANDARDJIS
  2
AcmFCFStdJIS
  3
"AcmSymBB|Product Description: AutoCAD Mechanical 2000|Company: Autodesk"
 90
        0
280
     0
281
     0
  0
CLASS
  1
ACMWELDSTANDARDJIS
  2
AcmWeldingStdJIS
  3
"AcmSymBB|Product Description: AutoCAD Mechanical 2000|Company: Autodesk"
 90
        0
280
     0
281
     0
  0
CLASS
  1
ACMIDSTANDARDJIS
  2
AcmIdStdJIS
  3
"AcmSymBB|Product Description: AutoCAD Mechanical 2000|Company: Autodesk"
 90
        0
280
     0
281
     0
  0
CLASS
  1
ACMDATUMSTANDARDJIS
  2
AcmDatumStdJIS
  3
"AcmSymBB|Product Description: AutoCAD Mechanical 2000|Company: Autodesk"
 90
        0
280
     0
281
     0
  0
CLASS
  1
ACMBOMSTANDARDJIS
  2
AcmBOMStdJIS
  3
"AcmSymBB|Product Description: AutoCAD Mechanical 2000|Company: Autodesk"
 90
        0
280
     0
281
     0
  0
CLASS
  1
ACMSTANDARDANSI
  2
AcmStandardANSI
  3
"AcmSymBB|Product Description: AutoCAD Mechanical 2000|Company: Autodesk"
 90
        0
280
     0
281
     0
  0
CLASS
  1
ACMSURFSTANDARDANSI
  2
AcmSurfTextStdANSI
  3
"AcmSymBB|Product Description: AutoCAD Mechanical 2000|Company: Autodesk"
 90
        0
280
     0
281
     0
  0
CLASS
  1
ACMFCFSTANDARDANSI
  2
AcmFCFStdANSI
  3
"AcmSymBB|Product Description: AutoCAD Mechanical 2000|Company: Autodesk"
 90
        0
280
     0
281
     0
  0
CLASS
  1
ACMWELDSTANDARDANSI
  2
AcmWeldingStdANSI
  3
"AcmSymBB|Product Description: AutoCAD Mechanical 2000|Company: Autodesk"
 90
        0
280
     0
281
     0
  0
CLASS
  1
ACMIDSTANDARDANSI
  2
AcmIdStdANSI
  3
"AcmSymBB|Product Description: AutoCAD Mechanical 2000|Company: Autodesk"
 90
        0
280
     0
281
     0
  0
CLASS
  1
ACMDATUMSTANDARDANSI
  2
AcmDatumStdANSI
  3
"AcmSymBB|Product Description: AutoCAD Mechanical 2000|Company: Autodesk"
 90
        0
280
     0
281
     0
  0
CLASS
  1
ACMBOMSTANDARDANSI
  2
AcmBOMStdANSI
  3
"AcmSymBB|Product Description: AutoCAD Mechanical 2000|Company: Autodesk"
 90
        0
280
     0
281
     0
  0
CLASS
  1
ACMSTANDARDBSI
  2
AcmStandardBSI
  3
"AcmSymBB|Product Description: AutoCAD Mechanical 2000|Company: Autodesk"
 90
        0
280
     0
281
     0
  0
CLASS
  1
ACMSURFSTANDARDBSI
  2
AcmSurfTextStdBSI
  3
"AcmSymBB|Product Description: AutoCAD Mechanical 2000|Company: Autodesk"
 90
        0
280
     0
281
     0
  0
CLASS
  1
ACMFCFSTANDARDBSI
  2
AcmFCFStdBSI
  3
"AcmSymBB|Product Description: AutoCAD Mechanical 2000|Company: Autodesk"
 90
        0
280
     0
281
     0
  0
CLASS
  1
ACMWELDSTANDARDBSI
  2
AcmWeldingStdBSI
  3
"AcmSymBB|Product Description: AutoCAD Mechanical 2000|Company: Autodesk"
 90
        0
280
     0
281
     0
  0
CLASS
  1
ACMIDSTANDARDBSI
  2
AcmIdStdBSI
  3
"AcmSymBB|Product Description: AutoCAD Mechanical 2000|Company: Autodesk"
 90
        0
280
     0
281
     0
  0
CLASS
  1
ACMDATUMSTANDARDBSI
  2
AcmDatumStdBSI
  3
"AcmSymBB|Product Description: AutoCAD Mechanical 2000|Company: Autodesk"
 90
        0
280
     0
281
     0
  0
CLASS
  1
ACMBOMSTANDARDBSI
  2
AcmBOMStdBSI
  3
"AcmSymBB|Product Description: AutoCAD Mechanical 2000|Company: Autodesk"
 90
        0
280
     0
281
     0
  0
CLASS
  1
STDPART2D
  2
AmgStdPart
  3
"AmgStdPart|Product Description: AutoCAD Mechanical 2000|Company: Autodesk"
 90
     1023
280
     0
281
     1
  0
CLASS
  1
ACMDATAENTRYPART
  2
AcmDataEntryPart
  3
"AcmSymBB|Product Description: AutoCAD Mechanical 2000|Company: Autodesk"
 90
        0
280
     0
281
     0
  0
CLASS
  1
ACMPARTREF
  2
AcmPartRef
  3
"AcmSymBB|Product Description: AutoCAD Mechanical 2000|Company: Autodesk"
 90
     1023
280
     0
281
     1
  0
CLASS
  1
LONG_TRANSACTION
  2
AcDbLongTransaction
  3
AutoCAD 2000
 90
        0
280
     0
281
     0
  0
CLASS
  1
LWPOLYLINE
  2
AcDbPolyline
  3
AutoCAD 2000
 90
        0
280
     0
281
     1
  0
CLASS
  1
HATCH
  2
AcDbHatch
  3
AutoCAD 2000
 90
        0
280
     0
281
     1
  0
CLASS
  1
XRECORD
  2
AcDbXrecord
  3
AutoCAD 2000
 90
        0
280
     0
281
     0
  0
ENDSEC
  0
SECTION
  2
TABLES
  0
TABLE
  2
VPORT
  5
8
330
0
100
AcDbSymbolTable
 70
     3
  0
VPORT
  5
9397
330
8
100
AcDbSymbolTableRecord
100
AcDbViewportTableRecord
  2
*ACTIVE
 70
     0
 10
0.0
 20
0.0
 11
1.0
 21
1.0
 12
-29.97728364794042
 22
25.54450164121155
 13
0.0
 23
0.0
 14
2.5
 24
2.5
 15
10.0
 25
10.0
 16
0.0
 26
0.0
 36
1.0
 17
0.0
 27
0.0
 37
0.0
 40
113.711503695552
 41
1.56570841889117
 42
50.0
 43
0.0
 44
0.0
 50
0.0
 51
0.0
 71
     0
 72
   100
 73
     1
 74
     2
 75
     0
 76
     0
 77
     0
 78
     0
  0
ENDTAB
  0
TABLE
  2
LTYPE
  5
5
330
0
100
AcDbSymbolTable
 70
    10
  0
LTYPE
  5
14
330
5
100
AcDbSymbolTableRecord
100
AcDbLinetypeTableRecord
  2
BYBLOCK
 70
     0
  3

 72
    65
 73
     0
 40
0.0
  0
LTYPE
  5
15
330
5
100
AcDbSymbolTableRecord
100
AcDbLinetypeTableRecord
  2
BYLAYER
 70
     0
  3

 72
    65
 73
     0
 40
0.0
  0
LTYPE
  5
16
330
5
100
AcDbSymbolTableRecord
100
AcDbLinetypeTableRecord
  2
CONTINUOUS
 70
     0
  3
Solid line
 72
    65
 73
     0
 40
0.0
  0
LTYPE
  5
4B
330
5
100
AcDbSymbolTableRecord
100
AcDbLinetypeTableRecord
  2
AM_ISO02W050
 70
     0
  3
__ __ __ __ __ __ __ __ __ __ __ __ __ __ __
 72
    65
 73
     2
 40
7.5
 49
6.0
 74
     0
 49
-1.5
 74
     0
  0
LTYPE
  5
4C
330
5
100
AcDbSymbolTableRecord
100
AcDbLinetypeTableRecord
  2
AM_ISO08W050
 70
     0
  3
____ . ____ . ____ . ____ . ____ . ____ . ____
 72
    65
 73
     4
 40
18.0
 49
12.0
 74
     0
 49
-1.5
 74
     0
 49
3.0
 74
     0
 49
-1.5
 74
     0
  0
LTYPE
  5
4D
330
5
100
AcDbSymbolTableRecord
100
AcDbLinetypeTableRecord
  2
AM_ISO09W050
 70
     0
  3
_____ . . _____ . . _____ . . ____ .. ____
 72
    65
 73
     6
 40
22.5
 49
12.0
 74
     0
 49
-1.5
 74
     0
 49
3.0
 74
     0
 49
-1.5
 74
     0
 49
3.0
 74
     0
 49
-1.5
 74
     0
  0
LTYPE
  5
4E
330
5
100
AcDbSymbolTableRecord
100
AcDbLinetypeTableRecord
  2
AMCONSTR
 70
     0
  3
_______________________
 72
    65
 73
     2
 40
9999.0
 49
9999.0
 74
     0
 49
0.0
 74
     0
  0
LTYPE
  5
4F
330
5
100
AcDbSymbolTableRecord
100
AcDbLinetypeTableRecord
  2
AM_ISO02W050X2
 70
     0
  3
 _ _ _ _ _ _ _ _ _ _ _ _
 72
    65
 73
     2
 40
3.75
 49
3.0
 74
     0
 49
-0.75
 74
     0
  0
LTYPE
  5
50
330
5
100
AcDbSymbolTableRecord
100
AcDbLinetypeTableRecord
  2
AM_ISO08W050X2
 70
     0
  3
__ . __ . __ . __ . __ . __
 72
    65
 73
     4
 40
9.0
 49
6.0
 74
     0
 49
-0.75
 74
     0
 49
1.5
 74
     0
 49
-0.75
 74
     0
  0
LTYPE
  5
53
330
5
100
AcDbSymbolTableRecord
100
AcDbLinetypeTableRecord
  2
AMZIGZAG
 70
     0
  3
/\/-/\/-/\/-/\/-/\/-/\/
 72
    65
 73
     2
 40
11.00009999999999
 49
0.0001
 74
     4
 75
   135
340
52
 46
0.04
 50
0.0
 44
0.0
 45
0.0
 49
-11.0
 74
     0
  0
LTYPE
  5
166
330
5
100
AcDbSymbolTableRecord
100
AcDbLinetypeTableRecord
  2
ACJISTGL
 70
     0
  3
_ _ _ _ _
 72
    65
 73
     2
 40
3.0
 49
2.0
 74
     0
 49
-1.0
 74
     0
  0
LTYPE
  5
26A
330
5
100
AcDbSymbolTableRecord
100
AcDbLinetypeTableRecord
  2
ACJISTGB
 70
     0
  3
__ . . __ . .
 72
    65
 73
     6
 40
9.0
 49
4.0
 74
     0
 49
-1.0
 74
     0
 49
1.0
 74
     0
 49
-1.0
 74
     0
 49
1.0
 74
     0
 49
-1.0
 74
     0
  0
ENDTAB
  0
TABLE
  2
LAYER
  5
2
330
0
100
AcDbSymbolTable
 70
     7
  0
LAYER
  5
10
330
2
100
AcDbSymbolTableRecord
100
AcDbLayerTableRecord
  2
0
 70
     0
 62
     7
  6
CONTINUOUS
  0
LAYER
  5
3F9
330
2
100
AcDbSymbolTableRecord
100
AcDbLayerTableRecord
  2
AM_0
 70
     0
 62
     7
  6
CONTINUOUS
  0
LAYER
  5
BD7
330
2
100
AcDbSymbolTableRecord
100
AcDbLayerTableRecord
  2
AM_7
 70
     0
 62
     4
  6
AM_ISO08W050
  0
LAYER
  5
BD8
330
2
100
AcDbSymbolTableRecord
100
AcDbLayerTableRecord
  2
AM_5
 70
     0
 62
     3
  6
CONTINUOUS
  0
LAYER
  5
BD9
330
2
100
AcDbSymbolTableRecord
100
AcDbLayerTableRecord
  2
DEFPOINTS
 70
     0
 62
     7
  6
CONTINUOUS
  0
LAYER
  5
BDA
330
2
100
AcDbSymbolTableRecord
100
AcDbLayerTableRecord
  2
AM_6
 70
     0
 62
     2
  6
CONTINUOUS
  0
LAYER
  5
933A
330
2
100
AcDbSymbolTableRecord
100
AcDbLayerTableRecord
  2
AM_11
 70
     0
 62
     3
  6
AM_ISO09W050
  0
ENDTAB
  0
TABLE
  2
STYLE
  5
3
330
0
100
AcDbSymbolTable
 70
     5
  0
STYLE
  5
11
330
3
100
AcDbSymbolTableRecord
100
AcDbTextStyleTableRecord
  2
STANDARD
 70
     0
 40
0.0
 41
1.0
 50
0.0
 71
     0
 42
2.5
  3
simplex.shx
  4
EXTFONT.SHX
  0
STYLE
  5
52
330
3
100
AcDbSymbolTableRecord
100
AcDbTextStyleTableRecord
  2

 70
     1
 40
0.0
 41
1.0
 50
0.0
 71
     0
 42
2.5
  3
ltypeshp.shx
  4

  0
STYLE
  5
6B
330
3
100
AcDbSymbolTableRecord
100
AcDbTextStyleTableRecord
  2
ASAMI
 70
     0
 40
0.0
 41
1.0
 50
0.0
 71
     0
 42
2.5
  3
simplex.shx
  4
EXTFONT.SHX
  0
STYLE
  5
262
330
3
100
AcDbSymbolTableRecord
100
AcDbTextStyleTableRecord
  2
ACJISTS
 70
     0
 40
1.0
 41
1.0
 50
0.0
 71
     0
 42
2.5
  3
simplex.shx
  4
bigfont.shx
  0
STYLE
  5
269
330
3
100
AcDbSymbolTableRecord
100
AcDbTextStyleTableRecord
  2
ACJISGDT
 70
     0
 40
0.0
 41
1.0
 50
0.0
 71
     0
 42
2.5
  3
amgdtans.shx
  4

  0
ENDTAB
  0
TABLE
  2
VIEW
  5
6
330
0
100
AcDbSymbolTable
 70
     0
  0
ENDTAB
  0
TABLE
  2
UCS
  5
7
330
0
100
AcDbSymbolTable
 70
     0
  0
ENDTAB
  0
TABLE
  2
APPID
  5
9
330
0
100
AcDbSymbolTable
 70
    21
  0
APPID
  5
12
330
9
100
AcDbSymbolTableRecord
100
AcDbRegAppTableRecord
  2
ACAD
 70
     0
  0
APPID
  5
30
330
9
100
AcDbSymbolTableRecord
100
AcDbRegAppTableRecord
  2
MCAD_NO_VIS
 70
     0
  0
APPID
  5
31
330
9
100
AcDbSymbolTableRecord
100
AcDbRegAppTableRecord
  2
ACAD_TEMP_GRAPHIC
 70
     0
  0
APPID
  5
2C2
330
9
100
AcDbSymbolTableRecord
100
AcDbRegAppTableRecord
  2
GENIUS_GENDTOL_13
 70
     0
  0
APPID
  5
339
330
9
100
AcDbSymbolTableRecord
100
AcDbRegAppTableRecord
  2
GENIUS_GENODEF_13
 70
     0
  0
APPID
  5
33A
330
9
100
AcDbSymbolTableRecord
100
AcDbRegAppTableRecord
  2
GENIUS_GENOBJ-N-RSBK_13
 70
     0
  0
APPID
  5
33B
330
9
100
AcDbSymbolTableRecord
100
AcDbRegAppTableRecord
  2
GENIUS_GENOBJ-N-LIB_13
 70
     0
  0
APPID
  5
33C
330
9
100
AcDbSymbolTableRecord
100
AcDbRegAppTableRecord
  2
GENIUS_GENSCALE_13
 70
     0
  0
APPID
  5
378
330
9
100
AcDbSymbolTableRecord
100
AcDbRegAppTableRecord
  2
GENIUS_GENDIMSH_14
 70
     0
  0
APPID
  5
BDB
330
9
100
AcDbSymbolTableRecord
100
AcDbRegAppTableRecord
  2
GENIUS_GENOBJ-N-CEN_13
 70
     0
  0
APPID
  5
BDC
330
9
100
AcDbSymbolTableRecord
100
AcDbRegAppTableRecord
  2
GENIUS_GENFIL_13
 70
     0
  0
APPID
  5
BDD
330
9
100
AcDbSymbolTableRecord
100
AcDbRegAppTableRecord
  2
GENIUS_GENOBJ-N-FIL_13
 70
     0
  0
APPID
  5
12AD
330
9
100
AcDbSymbolTableRecord
100
AcDbRegAppTableRecord
  2
GENIUS_GENOREF_13
 70
     0
  0
APPID
  5
68E9
330
9
100
AcDbSymbolTableRecord
100
AcDbRegAppTableRecord
  2
GEVID1060695448
 70
     0
  0
APPID
  5
68EA
330
9
100
AcDbSymbolTableRecord
100
AcDbRegAppTableRecord
  2
GEVDC
 70
     0
  0
APPID
  5
68ED
330
9
100
AcDbSymbolTableRecord
100
AcDbRegAppTableRecord
  2
GENIUS_GENBH_13
 70
     0
  0
APPID
  5
68EF
330
9
100
AcDbSymbolTableRecord
100
AcDbRegAppTableRecord
  2
GENIUS_GENOBJ-NBEHI-BHF_13
 70
     0
  0
APPID
  5
68F0
330
9
100
AcDbSymbolTableRecord
100
AcDbRegAppTableRecord
  2
GENIUS_GENOENT_13
 70
     0
  0
APPID
  5
68F1
330
9
100
AcDbSymbolTableRecord
100
AcDbRegAppTableRecord
  2
GENIUS_GENOLIS_13
 70
     0
  0
APPID
  5
68F3
330
9
100
AcDbSymbolTableRecord
100
AcDbRegAppTableRecord
  2
GENIUS_GENOBJ-NBEHI-BHB_13
 70
     0
  0
APPID
  5
6B27
330
9
100
AcDbSymbolTableRecord
100
AcDbRegAppTableRecord
  2
GENIUS_GENOBJ-N-CHA_13
 70
     0
  0
ENDTAB
  0
TABLE
  2
DIMSTYLE
  5
A
330
0
100
AcDbSymbolTable
 70
     8
  0
DIMSTYLE
105
58
102
{ACAD_REACTORS
330
8E9B
330
8EA8
330
8FCF
330
904E
330
905B
102
}
330
A
100
AcDbSymbolTableRecord
100
AcDbDimStyleTableRecord
  2
AM_JIS
 70
     0
  3

  4
"
  5
OPEN30
  6

  7

 40
1.0
 41
2.5
 42
1.0
 43
12.0
 44
1.0
 45
0.0
 46
0.0
 47
0.1
 48
0.1
140
3.2
141
0.0
142
0.0
143
0.0393701
144
1.0
145
0.0
146
0.71
147
1.5
 71
     0
 72
     0
 73
     0
 74
     0
 75
     0
 76
     0
 77
     3
 78
     8
170
     0
171
     2
172
     1
173
     0
174
     0
175
     0
176
     3
177
     3
178
     2
270
     2
271
     3
272
     3
273
     2
274
     2
340
6B
275
     0
280
     0
281
     0
282
     0
283
     0
284
     0
285
     0
286
     0
287
     3
288
     0
  0
DIMSTYLE
105
5F
330
A
100
AcDbSymbolTableRecord
100
AcDbDimStyleTableRecord
  2
AM_JIS$3
 70
     0
  3

  4
"
  5
OPEN30
  6

  7

 40
1.0
 41
2.5
 42
1.0
 43
10.0
 44
1.0
 45
0.0
 46
0.0
 47
0.1
 48
0.1
140
3.2
141
0.0
142
0.0
143
0.0393701
144
1.0
145
0.0
146
0.71
147
1.5
 71
     0
 72
     0
 73
     0
 74
     1
 75
     0
 76
     0
 77
     3
 78
     8
170
     0
171
     2
172
     0
173
     0
174
     0
175
     0
176
     3
177
     3
178
     2
270
     2
271
     2
272
     3
273
     2
274
     2
340
6B
275
     0
280
     0
281
     0
282
     0
283
     0
284
     0
285
     0
286
     0
287
     0
288
     1
  0
DIMSTYLE
105
60
330
A
100
AcDbSymbolTableRecord
100
AcDbDimStyleTableRecord
  2
AM_JIS$4
 70
     0
  3

  4
"
  5
OPEN30
  6

  7

 40
1.0
 41
2.5
 42
1.0
 43
10.0
 44
1.0
 45
0.0
 46
0.0
 47
0.1
 48
0.1
140
3.2
141
0.0
142
0.0
143
0.0393701
144
1.0
145
0.0
146
0.71
147
1.5
 71
     0
 72
     0
 73
     0
 74
     1
 75
     0
 76
     0
 77
     3
 78
     8
170
     0
171
     2
172
     0
173
     0
174
     0
175
     0
176
     3
177
     3
178
     2
270
     2
271
     2
272
     3
273
     2
274
     2
340
6B
275
     0
280
     0
281
     0
282
     0
283
     0
284
     0
285
     0
286
     0
287
     0
288
     1
  0
DIMSTYLE
105
61
330
A
100
AcDbSymbolTableRecord
100
AcDbDimStyleTableRecord
  2
AM_JIS$6
 70
     0
  3

  4
"
  5
OPEN30
  6

  7

 40
1.0
 41
2.5
 42
1.0
 43
10.0
 44
1.0
 45
0.0
 46
0.0
 47
0.1
 48
0.1
140
3.2
141
0.0
142
0.0
143
0.0393701
144
1.0
145
0.0
146
0.71
147
1.5
 71
     0
 72
     0
 73
     0
 74
     0
 75
     0
 76
     0
 77
     0
 78
     8
170
     0
171
     2
172
     1
173
     0
174
     0
175
     0
176
     3
177
     3
178
     2
270
     2
271
     2
272
     2
273
     2
274
     2
340
6B
275
     0
280
     0
281
     0
282
     0
283
     0
284
     0
285
     0
286
     0
287
     3
288
     0
  0
DIMSTYLE
105
62
330
A
100
AcDbSymbolTableRecord
100
AcDbDimStyleTableRecord
  2
AM_JIS$7
 70
     0
  3

  4
"
  5
OPEN30
  6

  7

 40
1.0
 41
2.5
 42
1.0
 43
10.0
 44
1.0
 45
0.0
 46
0.0
 47
0.1
 48
0.1
140
3.2
141
0.0
142
0.0
143
0.0393701
144
1.0
145
0.0
146
0.71
147
1.5
 71
     0
 72
     0
 73
     0
 74
     0
 75
     0
 76
     0
 77
     3
 78
     8
170
     0
171
     2
172
     1
173
     0
174
     0
175
     0
176
     3
177
     3
178
     2
270
     2
271
     2
272
     3
273
     2
274
     2
340
6B
275
     0
280
     0
281
     0
282
     0
283
     0
284
     0
285
     0
286
     0
287
     3
288
     0
  0
DIMSTYLE
105
63
330
A
100
AcDbSymbolTableRecord
100
AcDbDimStyleTableRecord
  2
AM_JIS$SF
 70
     0
  3

  4
"
  5
OPEN30
  6

  7

 40
1.0
 41
2.5
 42
1.0
 43
10.0
 44
1.0
 45
0.0
 46
0.0
 47
0.1
 48
0.1
140
3.2
141
0.0
142
0.0
143
0.0393701
144
1.0
145
0.0
146
0.71
147
1.5
 71
     0
 72
     0
 73
     0
 74
     0
 75
     1
 76
     1
 77
     3
 78
     8
170
     0
171
     2
172
     1
173
     0
174
     0
175
     0
176
   256
177
   256
178
     2
270
     2
271
     2
272
     2
273
     2
274
     2
340
6B
275
     0
280
     0
281
     0
282
     0
283
     0
284
     0
285
     0
286
     0
287
     3
288
     0
  0
DIMSTYLE
105
68
330
A
100
AcDbSymbolTableRecord
100
AcDbDimStyleTableRecord
  2
AM_JIS$SH
 70
     0
  3

  4
"
  5

  6
GENAXEH
  7
OPEN30
 40
1.0
 41
2.5
 42
1.0
 43
10.0
 44
1.0
 45
0.0
 46
0.0
 47
0.1
 48
0.1
140
3.2
141
0.0
142
0.0
143
0.0393701
144
2.0
145
0.0
146
0.71
147
1.5
 71
     0
 72
     0
 73
     0
 74
     0
 75
     1
 76
     1
 77
     3
 78
     8
170
     0
171
     2
172
     1
173
     1
174
     0
175
     0
176
   256
177
   256
178
     2
270
     2
271
     2
272
     2
273
     2
274
     2
340
6B
275
     0
280
     0
281
     0
282
     0
283
     0
284
     0
285
     0
286
     0
287
     3
288
     0
  0
DIMSTYLE
105
B34
102
{ACAD_REACTORS
330
8EE8
330
92B2
102
}
330
A
100
AcDbSymbolTableRecord
100
AcDbDimStyleTableRecord
  2
AM_JIS$2
 70
     0
  3

  4
"
  5
OPEN30
  6

  7

 40
1.0
 41
2.5
 42
1.0
 43
12.0
 44
1.0
 45
0.0
 46
0.0
 47
0.1
 48
0.1
140
3.2
141
0.0
142
0.0
143
0.0393701
144
1.0
145
0.0
146
0.71
147
1.5
 71
     0
 72
     0
 73
     0
 74
     0
 75
     0
 76
     0
 77
     3
 78
     8
170
     0
171
     2
172
     1
173
     0
174
     0
175
     0
176
     3
177
     3
178
     2
270
     2
271
     3
272
     3
273
     2
274
     2
340
6B
275
     0
280
     0
281
     0
282
     0
283
     0
284
     0
285
     0
286
     0
287
     3
288
     0
  0
ENDTAB
  0
TABLE
  2
BLOCK_RECORD
  5
1
330
0
100
AcDbSymbolTable
 70
    12
  0
BLOCK_RECORD
  5
1F
102
{ACAD_XDICTIONARY
360
74
102
}
330
1
100
AcDbSymbolTableRecord
100
AcDbBlockTableRecord
  2
*MODEL_SPACE
  0
BLOCK_RECORD
  5
101
102
{ACAD_XDICTIONARY
360
93C0
102
}
330
1
100
AcDbSymbolTableRecord
100
AcDbBlockTableRecord
  2
*PAPER_SPACE
  0
BLOCK_RECORD
  5
59
330
1
100
AcDbSymbolTableRecord
100
AcDbBlockTableRecord
  2
_OPEN30
  0
BLOCK_RECORD
  5
64
330
1
100
AcDbSymbolTableRecord
100
AcDbBlockTableRecord
  2
GENAXEH
  0
BLOCK_RECORD
  5
8E9C
330
1
100
AcDbSymbolTableRecord
100
AcDbBlockTableRecord
  2
*D5
  0
BLOCK_RECORD
  5
8EA9
330
1
100
AcDbSymbolTableRecord
100
AcDbBlockTableRecord
  2
*D6
  0
BLOCK_RECORD
  5
8EE9
330
1
100
AcDbSymbolTableRecord
100
AcDbBlockTableRecord
  2
*D7
  0
BLOCK_RECORD
  5
8FD0
330
1
100
AcDbSymbolTableRecord
100
AcDbBlockTableRecord
  2
*D8
  0
BLOCK_RECORD
  5
904F
330
1
100
AcDbSymbolTableRecord
100
AcDbBlockTableRecord
  2
*D9
  0
BLOCK_RECORD
  5
905C
330
1
100
AcDbSymbolTableRecord
100
AcDbBlockTableRecord
  2
*D10
  0
BLOCK_RECORD
  5
92B3
330
1
100
AcDbSymbolTableRecord
100
AcDbBlockTableRecord
  2
*D11
  0
ENDTAB
  0
ENDSEC
  0
SECTION
  2
BLOCKS
  0
BLOCK
  5
20
330
1F
100
AcDbEntity
  8
0
100
AcDbBlockBegin
  2
*MODEL_SPACE
 70
     0
 10
0.0
 20
0.0
 30
0.0
  3
*MODEL_SPACE
  1

  0
ENDBLK
  5
21
330
1F
100
AcDbEntity
  8
0
100
AcDbBlockEnd
  0
BLOCK
  5
103
330
101
100
AcDbEntity
 67
     1
  8
0
100
AcDbBlockBegin
  2
*PAPER_SPACE
 70
     0
 10
0.0
 20
0.0
 30
0.0
  3
*PAPER_SPACE
  1

  0
ENDBLK
  5
104
330
101
100
AcDbEntity
 67
     1
  8
0
100
AcDbBlockEnd
  0
BLOCK
  5
5D
330
59
100
AcDbEntity
  8
0
100
AcDbBlockBegin
  2
_OPEN30
 70
     0
 10
0.0
 20
0.0
 30
0.0
  3
_OPEN30
  1

  0
LINE
  5
5A
330
59
100
AcDbEntity
  8
0
 62
     0
100
AcDbLine
 10
-1.0
 20
0.26794919
 30
0.0
 11
0.0
 21
0.0
 31
0.0
  0
LINE
  5
5B
330
59
100
AcDbEntity
  8
0
 62
     0
100
AcDbLine
 10
0.0
 20
0.0
 30
0.0
 11
-1.0
 21
-0.26794919
 31
0.0
  0
LINE
  5
5C
330
59
100
AcDbEntity
  8
0
 62
     0
100
AcDbLine
 10
0.0
 20
0.0
 30
0.0
 11
-1.0
 21
0.0
 31
0.0
  0
ENDBLK
  5
5E
330
59
100
AcDbEntity
  8
0
100
AcDbBlockEnd
  0
BLOCK
  5
66
330
64
100
AcDbEntity
  8
0
100
AcDbBlockBegin
  2
GENAXEH
 70
     0
 10
0.0
 20
0.0
 30
0.0
  3
GENAXEH
  1

  0
LINE
  5
65
330
64
100
AcDbEntity
  8
0
100
AcDbLine
 10
-1.0
 20
0.0
 30
0.0
 11
1.0
 21
0.0
 31
0.0
  0
ENDBLK
  5
67
330
64
100
AcDbEntity
  8
0
100
AcDbBlockEnd
  0
BLOCK
  5
8EA6
330
8E9C
100
AcDbEntity
  8
0
100
AcDbBlockBegin
  2
*D5
 70
     1
 10
0.0
 20
0.0
 30
0.0
  3
*D5
  1

  0
LINE
  5
9232
330
8E9C
100
AcDbEntity
  8
AM_5
 62
     3
100
AcDbLine
 10
-0.0000000000000034
 20
1.032474793885834
 30
0.0
 11
-0.0000000000000017
 21
28.49228116728996
 31
0.0
  0
LINE
  5
9233
330
8E9C
100
AcDbEntity
  8
AM_5
 62
     3
100
AcDbLine
 10
-100.0
 20
9.000000000904675
 30
0.0
 11
-100.0
 21
28.49228116728996
 31
0.0
  0
LINE
  5
9234
330
8E9C
100
AcDbEntity
  8
AM_5
 62
     3
100
AcDbLine
 10
-2.500000000000001
 20
27.49228116728996
 30
0.0
 11
-97.5
 21
27.49228116728996
 31
0.0
  0
INSERT
  5
9235
330
8E9C
100
AcDbEntity
  8
AM_5
 62
     3
100
AcDbBlockReference
  2
_OPEN30
 10
-0.0000000000000018
 20
27.49228116728996
 30
0.0
 41
2.5
 42
2.5
 43
2.5
  0
INSERT
  5
9236
330
8E9C
100
AcDbEntity
  8
AM_5
 62
     3
100
AcDbBlockReference
  2
_OPEN30
 10
-100.0
 20
27.49228116728996
 30
0.0
 41
2.5
 42
2.5
 43
2.5
 50
180.0
  0
MTEXT
  5
9237
330
8E9C
100
AcDbEntity
  8
AM_5
 62
     2
100
AcDbMText
 10
-50.0
 20
30.59228116728996
 30
0.0
 40
3.2
 41
0.0
 71
     5
 72
     1
  1
100
  7
ASAMI
1001
ACAD
1000
MTEXTBEGIN
1070
    73
1070
     1
1070
    44
1040
1.0
1070
    74
1070
     0
1000
MTEXTEND
  0
POINT
  5
9238
330
8E9C
100
AcDbEntity
  8
DEFPOINTS
 62
     0
100
AcDbPoint
 10
-0.0000000000000035
 20
0.0324747938858342
 30
0.0
  0
POINT
  5
9239
330
8E9C
100
AcDbEntity
  8
DEFPOINTS
 62
     0
100
AcDbPoint
 10
-100.0
 20
8.000000000904675
 30
0.0
  0
POINT
  5
923A
330
8E9C
100
AcDbEntity
  8
DEFPOINTS
 62
     0
100
AcDbPoint
 10
-100.0
 20
27.49228116728996
 30
0.0
  0
ENDBLK
  5
8EA7
330
8E9C
100
AcDbEntity
  8
0
100
AcDbBlockEnd
  0
BLOCK
  5
8EB5
330
8EA9
100
AcDbEntity
  8
0
100
AcDbBlockBegin
  2
*D6
 70
     1
 10
0.0
 20
0.0
 30
0.0
  3
*D6
  1

  0
LINE
  5
9262
330
8EA9
100
AcDbEntity
  8
AM_5
 62
     3
100
AcDbLine
 10
0.9293053223057762
 20
0.0000000009046753
 30
0.0
 11
11.08835680995578
 21
0.0000000009046724
 31
0.0
  0
LINE
  5
9263
330
8EA9
100
AcDbEntity
  8
AM_5
 62
     3
100
AcDbLine
 10
-12.50015846914237
 20
-7.999999999095324
 30
0.0
 11
11.08835680995577
 21
-7.999999999095331
 31
0.0
  0
LINE
  5
9264
330
8EA9
100
AcDbEntity
  8
AM_5
 62
     3
100
AcDbLine
 10
10.08835680995578
 20
-2.499999999095327
 30
0.0
 11
10.08835680995578
 21
-5.499999999095331
 31
0.0
  0
INSERT
  5
9265
330
8EA9
100
AcDbEntity
  8
AM_5
 62
     3
100
AcDbBlockReference
  2
_OPEN30
 10
10.08835680995578
 20
0.0000000009046727
 30
0.0
 41
2.5
 42
2.5
 43
2.5
 50
90.0
  0
INSERT
  5
9266
330
8EA9
100
AcDbEntity
  8
AM_5
 62
     3
100
AcDbBlockReference
  2
_OPEN30
 10
10.08835680995578
 20
-7.999999999095331
 30
0.0
 41
2.5
 42
2.5
 43
2.5
 50
270.0
  0
MTEXT
  5
9267
330
8EA9
100
AcDbEntity
  8
AM_5
 62
     2
100
AcDbMText
 10
6.988356809955782
 20
-3.999999999095327
 30
0.0
 40
3.2
 41
0.0
 71
     5
 72
     1
  1
8
  7
ASAMI
 11
0.0000000000000001
 21
1.0
 31
0.0
1001
ACAD
1000
MTEXTBEGIN
1070
    73
1070
     1
1070
    44
1040
1.0
1070
    74
1070
     0
1000
MTEXTEND
  0
POINT
  5
9268
330
8EA9
100
AcDbEntity
  8
DEFPOINTS
 62
     0
100
AcDbPoint
 10
-0.0706946776942238
 20
0.0000000009046756
 30
0.0
  0
POINT
  5
9269
330
8EA9
100
AcDbEntity
  8
DEFPOINTS
 62
     0
100
AcDbPoint
 10
-13.50015846914237
 20
-7.999999999095324
 30
0.0
  0
POINT
  5
926A
330
8EA9
100
AcDbEntity
  8
DEFPOINTS
 62
     0
100
AcDbPoint
 10
10.08835680995578
 20
-7.999999999095331
 30
0.0
  0
ENDBLK
  5
8EB6
330
8EA9
100
AcDbEntity
  8
0
100
AcDbBlockEnd
  0
BLOCK
  5
8EF7
330
8EE9
100
AcDbEntity
  8
0
100
AcDbBlockBegin
  2
*D7
 70
     1
 10
0.0
 20
0.0
 30
0.0
  3
*D7
  1

  0
LINE
  5
93C2
330
8EE9
100
AcDbEntity
  8
AM_5
 62
     3
100
AcDbLine
 10
-0.0000000000000044
 20
15.33877800063233
 30
0.0
 11
-0.0000000000000044
 21
20.89225008937041
 31
0.0
  0
LINE
  5
93C3
330
8EE9
100
AcDbEntity
  8
AM_5
 62
     3
100
AcDbLine
 10
-9.291025404091335
 20
5.826056234356169
 30
0.0
 11
-17.693219318829
 21
10.67706515281341
 31
0.0
  0
ARC
  5
93C4
330
8EE9
100
AcDbEntity
  8
AM_5
 62
     3
100
AcDbCircle
 10
-0.0000000000000046
 20
0.4618802162563715
 30
0.0
 40
19.43036987311403
100
AcDbArc
 50
97.37703075078457
 51
142.6229692492153
  0
INSERT
  5
93C5
330
8EE9
100
AcDbEntity
  8
AM_5
 62
     3
100
AcDbBlockReference
  2
_OPEN30
 10
-0.0000000000000044
 20
19.8922500893704
 30
0.0
 41
2.5
 42
2.5
 43
2.5
 50
3.688515375392274
  0
INSERT
  5
93C6
330
8EE9
100
AcDbEntity
  8
AM_5
 62
     3
100
AcDbBlockReference
  2
_OPEN30
 10
-16.82719391504456
 20
10.1770651528134
 30
0.0
 41
2.5
 42
2.5
 43
2.5
 50
236.3114846246076
  0
MTEXT
  5
93C7
330
8EE9
100
AcDbEntity
  8
AM_5
 62
     2
100
AcDbMText
 10
-8.581263623032263
 20
21.29405440070836
 30
0.0
 40
3.2
 41
0.0
 71
     5
 72
     1
  1
60°
  7
ASAMI
 11
0.9246263732807806
 21
0.3808753993547371
 31
0.0
  0
POINT
  5
93C8
330
8EE9
100
AcDbEntity
  8
DEFPOINTS
 62
     0
100
AcDbPoint
 10
-12.48960100606431
 20
15.34640708530179
 30
0.0
  0
POINT
  5
93C9
330
8EE9
100
AcDbEntity
  8
DEFPOINTS
 62
     0
100
AcDbPoint
 10
-0.4000000000000021
 20
0.6928203239322209
 30
0.0
  0
POINT
  5
93CA
330
8EE9
100
AcDbEntity
  8
DEFPOINTS
 62
     0
100
AcDbPoint
 10
-0.0000000000000036
 20
14.33877800063233
 30
0.0
  0
POINT
  5
93CB
330
8EE9
100
AcDbEntity
  8
DEFPOINTS
 62
     0
100
AcDbPoint
 10
-0.0000000000000035
 20
1.032474793885832
 30
0.0
  0
POINT
  5
93CC
330
8EE9
100
AcDbEntity
  8
DEFPOINTS
 62
     0
100
AcDbPoint
 10
-8.425000000306896
 20
5.326056234356167
 30
0.0
  0
ENDBLK
  5
8EF8
330
8EE9
100
AcDbEntity
  8
0
100
AcDbBlockEnd
  0
BLOCK
  5
8FDB
330
8FD0
100
AcDbEntity
  8
0
100
AcDbBlockBegin
  2
*D8
 70
     1
 10
0.0
 20
0.0
 30
0.0
  3
*D8
  1

  0
LINE
  5
93CD
330
8FD0
100
AcDbEntity
  8
AM_5
 62
     3
100
AcDbLine
 10
-0.9164733068878156
 20
56.92739666694042
 30
0.0
 11
31.2584408142643
 21
56.92739666694041
 31
0.0
  0
LINE
  5
93CE
330
8FD0
100
AcDbEntity
  8
AM_5
 62
     3
100
AcDbLine
 10
0.9999999999999966
 20
41.42739666694042
 30
0.0
 11
31.2584408142643
 21
41.42739666694041
 31
0.0
  0
LINE
  5
93CF
330
8FD0
100
AcDbEntity
  8
AM_5
 62
     3
100
AcDbLine
 10
30.2584408142643
 20
54.42739666694041
 30
0.0
 11
30.2584408142643
 21
43.92739666694041
 31
0.0
  0
MTEXT
  5
93D0
330
8FD0
100
AcDbEntity
  8
AM_5
 62
     2
100
AcDbMText
 10
27.1584408142643
 20
49.17739666694043
 30
0.0
 40
3.2
 41
0.0
 71
     5
 72
     1
  1
15.5
  7
ASAMI
 11
0.0000000000000001
 21
1.0
 31
0.0
  0
INSERT
  5
93D1
330
8FD0
100
AcDbEntity
  8
AM_5
 62
     3
100
AcDbBlockReference
  2
_OPEN30
 10
30.25844081426431
 20
56.92739666694041
 30
0.0
 41
2.5
 42
2.5
 43
2.5
 50
90.0
  0
INSERT
  5
93D2
330
8FD0
100
AcDbEntity
  8
AM_5
 62
     3
100
AcDbBlockReference
  2
_OPEN30
 10
30.2584408142643
 20
41.42739666694041
 30
0.0
 41
2.5
 42
2.5
 43
2.5
 50
270.0
  0
POINT
  5
93D3
330
8FD0
100
AcDbEntity
  8
DEFPOINTS
 62
     0
100
AcDbPoint
 10
-1.916473306887815
 20
56.92739666694042
 30
0.0
  0
POINT
  5
93D4
330
8FD0
100
AcDbEntity
  8
DEFPOINTS
 62
     0
100
AcDbPoint
 10
-0.0000000000000035
 20
41.42739666694042
 30
0.0
  0
POINT
  5
93D5
330
8FD0
100
AcDbEntity
  8
DEFPOINTS
 62
     0
100
AcDbPoint
 10
30.2584408142643
 20
41.42739666694041
 30
0.0
  0
ENDBLK
  5
8FDC
330
8FD0
100
AcDbEntity
  8
0
100
AcDbBlockEnd
  0
BLOCK
  5
9059
330
904F
100
AcDbEntity
  8
0
100
AcDbBlockBegin
  2
*D9
 70
     1
 10
0.0
 20
0.0
 30
0.0
  3
*D9
  1

  0
LINE
  5
9280
330
904F
100
AcDbEntity
  8
AM_5
 62
     3
100
AcDbLine
 10
-101.0
 20
8.000000000904675
 30
0.0
 11
-115.0
 21
8.000000000904678
 31
0.0
  0
LINE
  5
9281
330
904F
100
AcDbEntity
  8
AM_5
 62
     3
100
AcDbLine
 10
-101.0
 20
-7.999999999095322
 30
0.0
 11
-115.0
 21
-7.999999999095318
 31
0.0
  0
LINE
  5
9282
330
904F
100
AcDbEntity
  8
AM_5
 62
     3
100
AcDbLine
 10
-114.0
 20
5.500000000904678
 30
0.0
 11
-114.0
 21
-5.499999999095318
 31
0.0
  0
INSERT
  5
9283
330
904F
100
AcDbEntity
  8
AM_5
 62
     3
100
AcDbBlockReference
  2
_OPEN30
 10
-114.0
 20
8.000000000904677
 30
0.0
 41
2.5
 42
2.5
 43
2.5
 50
90.0
  0
INSERT
  5
9284
330
904F
100
AcDbEntity
  8
AM_5
 62
     3
100
AcDbBlockReference
  2
_OPEN30
 10
-114.0
 20
-7.999999999095318
 30
0.0
 41
2.5
 42
2.5
 43
2.5
 50
270.0
  0
MTEXT
  5
9285
330
904F
100
AcDbEntity
  8
AM_5
 62
     2
100
AcDbMText
 10
-117.1
 20
0.0000000009046615
 30
0.0
 40
3.2
 41
0.0
 71
     5
 72
     1
  1
16
  7
ASAMI
 11
0.0000000000000001
 21
1.0
 31
0.0
1001
ACAD
1000
MTEXTBEGIN
1070
    73
1070
     1
1070
    44
1040
1.0
1070
    74
1070
     0
1000
MTEXTEND
  0
POINT
  5
9286
330
904F
100
AcDbEntity
  8
DEFPOINTS
 62
     0
100
AcDbPoint
 10
-100.0
 20
8.000000000904673
 30
0.0
  0
POINT
  5
9287
330
904F
100
AcDbEntity
  8
DEFPOINTS
 62
     0
100
AcDbPoint
 10
-100.0
 20
-7.999999999095322
 30
0.0
  0
POINT
  5
9288
330
904F
100
AcDbEntity
  8
DEFPOINTS
 62
     0
100
AcDbPoint
 10
-114.0
 20
-7.999999999095318
 30
0.0
  0
ENDBLK
  5
905A
330
904F
100
AcDbEntity
  8
0
100
AcDbBlockEnd
  0
BLOCK
  5
9066
330
905C
100
AcDbEntity
  8
0
100
AcDbBlockBegin
  2
*D10
 70
     1
 10
0.0
 20
0.0
 30
0.0
  3
*D10
  1

  0
LINE
  5
9277
330
905C
100
AcDbEntity
  8
AM_5
 62
     3
100
AcDbLine
 10
-101.0
 20
56.92739666694042
 30
0.0
 11
-115.0
 21
56.92739666694043
 31
0.0
  0
LINE
  5
9278
330
905C
100
AcDbEntity
  8
AM_5
 62
     3
100
AcDbLine
 10
-101.0
 20
40.92739666694042
 30
0.0
 11
-115.0
 21
40.92739666694042
 31
0.0
  0
LINE
  5
9279
330
905C
100
AcDbEntity
  8
AM_5
 62
     3
100
AcDbLine
 10
-114.0
 20
54.42739666694043
 30
0.0
 11
-114.0
 21
43.42739666694042
 31
0.0
  0
INSERT
  5
927A
330
905C
100
AcDbEntity
  8
AM_5
 62
     3
100
AcDbBlockReference
  2
_OPEN30
 10
-114.0
 20
56.92739666694043
 30
0.0
 41
2.5
 42
2.5
 43
2.5
 50
90.0
  0
INSERT
  5
927B
330
905C
100
AcDbEntity
  8
AM_5
 62
     3
100
AcDbBlockReference
  2
_OPEN30
 10
-114.0
 20
40.92739666694042
 30
0.0
 41
2.5
 42
2.5
 43
2.5
 50
270.0
  0
MTEXT
  5
927C
330
905C
100
AcDbEntity
  8
AM_5
 62
     2
100
AcDbMText
 10
-117.1
 20
48.92739666694041
 30
0.0
 40
3.2
 41
0.0
 71
     5
 72
     1
  1
16
  7
ASAMI
 11
0.0000000000000001
 21
1.0
 31
0.0
1001
ACAD
1000
MTEXTBEGIN
1070
    73
1070
     1
1070
    44
1040
1.0
1070
    74
1070
     0
1000
MTEXTEND
  0
POINT
  5
927D
330
905C
100
AcDbEntity
  8
DEFPOINTS
 62
     0
100
AcDbPoint
 10
-100.0
 20
56.92739666694042
 30
0.0
  0
POINT
  5
927E
330
905C
100
AcDbEntity
  8
DEFPOINTS
 62
     0
100
AcDbPoint
 10
-100.0
 20
40.92739666694042
 30
0.0
  0
POINT
  5
927F
330
905C
100
AcDbEntity
  8
DEFPOINTS
 62
     0
100
AcDbPoint
 10
-114.0
 20
40.92739666694042
 30
0.0
  0
ENDBLK
  5
9067
330
905C
100
AcDbEntity
  8
0
100
AcDbBlockEnd
  0
BLOCK
  5
92C3
330
92B3
100
AcDbEntity
  8
0
100
AcDbBlockBegin
  2
*D11
 70
     1
 10
0.0
 20
0.0
 30
0.0
  3
*D11
  1

  0
LINE
  5
9311
330
92B3
100
AcDbEntity
  8
AM_5
 62
     3
100
AcDbLine
 10
1.513653289334345
 20
41.42739666694042
 30
0.0
 11
19.477177610876
 21
41.42739666694035
 31
0.0
  0
LINE
  5
9312
330
92B3
100
AcDbEntity
  8
AM_5
 62
     3
100
AcDbLine
 10
0.9925461516413193
 20
41.54926601034557
 30
0.0
 11
19.33199768250949
 21
43.80106751376334
 31
0.0
  0
ARC
  5
9313
330
92B3
100
AcDbEntity
  8
AM_5
 62
     3
100
AcDbCircle
 10
-0.0000000000000031
 20
41.42739666694042
 30
0.0
 40
18.47717761087601
100
AcDbArc
 50
344.4478273894883
 51
359.9999999999997
  0
LINE
  5
9314
330
92B3
100
AcDbEntity
  8
AM_5
 62
     3
100
AcDbLine
 10
17.80066736330212
 20
36.47337467618097
 30
0.0
 11
14.08739215651177
 21
23.13092748725783
 31
0.0
  0
ARC
  5
9315
330
92B3
100
AcDbEntity
  8
AM_5
 62
     3
100
AcDbCircle
 10
-0.0000000000000031
 20
41.42739666694042
 30
0.0
 40
18.47717761087601
100
AcDbArc
 50
344.483676330507
 51
352.2418381652534
  0
ARC
  5
9316
330
92B3
100
AcDbEntity
  8
AM_5
 62
     3
100
AcDbCircle
 10
-0.0000000000000031
 20
41.42739666694042
 30
0.0
 40
18.47717761087601
100
AcDbArc
 50
14.75816183474637
 51
22.51632366949271
  0
ARC
  5
9317
330
92B3
100
AcDbEntity
  8
AM_5
 62
     3
100
AcDbCircle
 10
-0.0000000000000031
 20
41.42739666694042
 30
0.0
 40
18.47717761087601
100
AcDbArc
 50
359.9999999999997
 51
7.000000000000022
  0
INSERT
  5
9318
330
92B3
100
AcDbEntity
  8
AM_5
 62
     3
100
AcDbBlockReference
  2
_OPEN30
 10
18.47717761087601
 20
41.42739666694036
 30
0.0
 41
2.5
 42
2.5
 43
2.5
 50
86.12091908262661
  0
INSERT
  5
9319
330
92B3
100
AcDbEntity
  8
AM_5
 62
     3
100
AcDbBlockReference
  2
_OPEN30
 10
18.33945153086817
 20
43.67919817035819
 30
0.0
 41
2.5
 42
2.5
 43
2.5
 50
280.8790809173732
  0
MTEXT
  5
931A
330
92B3
100
AcDbEntity
  8
AM_5
 62
     2
100
AcDbMText
 10
18.93052856336897
 20
28.97099231414255
 30
0.0
 40
3.2
 41
0.0
 71
     5
 72
     1
  1
-7°
  7
ASAMI
 11
-0.2681157314764014
 21
-0.9633867107942034
 31
0.0
1001
ACAD
1000
MTEXTBEGIN
1070
    73
1070
     1
1070
    44
1040
1.0
1070
    74
1070
     0
1000
MTEXTEND
  0
POINT
  5
931B
330
92B3
100
AcDbEntity
  8
DEFPOINTS
 62
     0
100
AcDbPoint
 10
18.4159236984744
 20
42.9306753489639
 30
0.0
  0
POINT
  5
931C
330
92B3
100
AcDbEntity
  8
DEFPOINTS
 62
     0
100
AcDbPoint
 10
-18.24999999999997
 20
39.18657843046242
 30
0.0
  0
POINT
  5
931D
330
92B3
100
AcDbEntity
  8
DEFPOINTS
 62
     0
100
AcDbPoint
 10
-0.0000000000000018
 20
41.42739666694042
 30
0.0
  0
POINT
  5
931E
330
92B3
100
AcDbEntity
  8
DEFPOINTS
 62
     0
100
AcDbPoint
 10
0.5136532893343447
 20
41.42739666694042
 30
0.0
  0
POINT
  5
931F
330
92B3
100
AcDbEntity
  8
DEFPOINTS
 62
     0
100
AcDbPoint
 10
-0.0000000000000022
 20
41.42739666694042
 30
0.0
  0
ENDBLK
  5
92C4
330
92B3
100
AcDbEntity
  8
0
100
AcDbBlockEnd
  0
ENDSEC
  0
SECTION
  2
ENTITIES
  0
TEXT
  5
C58
330
1F
100
AcDbEntity
  8
AM_6
100
AcDbText
 10
-77.14285714285708
 20
-30.49999999909541
 30
0.0
 40
5.0
  1
ETENN1616H33
 50
0.0000000000002036
 72
     4
 11
-49.99999999999996
 21
-27.99999999909532
 31
0.0
100
AcDbText
  0
POINT
  5
68EE
330
1F
100
AcDbEntity
  8
0
 60
     1
100
AcDbPoint
 10
0.0
 20
0.0
 30
0.0
1001
GENIUS_GENOBJ-NBEHI-BHF_13
1002
{
1000
OWNER
1000
GENBEHI
1002
}
1001
GENIUS_GENOENT_13
1002
{
1000
MYREF
1005
68EE
1002
}
1002
{
1000
GRP
1005
0
1002
}
1001
GENIUS_GENOLIS_13
1002
{
1000
ENT
1005
68EB
1002
}
1001
GENIUS_GENBH_13
1002
{
1000
OIUMAP
1000
OIU
1002
}
1002
{
1000
FLAGS
1070
    32
1002
}
1002
{
1000
BGO
1005
68F2
1002
}
1001
GENIUS_GENODEF_13
1002
{
1000
HIER
1070
     1
1002
}
1002
{
1000
MANEDIT
1070
     1
1002
}
1002
{
1000
NOSEL
1070
     1
1002
}
1002
{
1000
BEHIND
1070
     0
1002
}
1002
{
1000
REACTOR
1002
}
  0
POINT
  5
68F2
330
1F
100
AcDbEntity
  8
0
 60
     1
100
AcDbPoint
 10
0.0
 20
0.0
 30
0.0
1001
GENIUS_GENOBJ-NBEHI-BHB_13
1002
{
1000
OWNER
1000
GENBEHI
1002
}
1001
GENIUS_GENOENT_13
1002
{
1000
MYREF
1005
68F2
1002
}
1002
{
1000
GRP
1005
0
1002
}
1001
GENIUS_GENOLIS_13
1002
{
1000
ENT
1002
}
1001
GENIUS_GENODEF_13
1002
{
1000
HIER
1070
     1
1002
}
1002
{
1000
MANEDIT
1070
     0
1002
}
1002
{
1000
NOSEL
1070
     1
1002
}
1002
{
1000
BEHIND
1070
     0
1002
}
1002
{
1000
REACTOR
1002
}
1002
{
1000
OTHER
1070
     1
1002
}
1001
GENIUS_GENBH_13
1002
{
1000
FGO
1005
68EE
1002
}
  0
LINE
  5
8E6F
330
1F
100
AcDbEntity
  8
AM_0
100
AcDbLine
 10
-100.0
 20
56.92739666694042
 30
0.0
 11
-100.0
 21
40.92739666694042
 31
0.0
  0
LINE
  5
8E77
330
1F
100
AcDbEntity
  8
AM_0
100
AcDbLine
 10
-100.0
 20
40.92739666694042
 30
0.0
 11
-13.62944591167219
 21
40.92739666694042
 31
0.0
  0
LINE
  5
8E78
330
1F
100
AcDbEntity
  8
AM_0
100
AcDbLine
 10
-100.0
 20
56.92739666694042
 30
0.0
 11
-1.916473306887812
 21
56.92739666694042
 31
0.0
  0
LINE
  5
8E79
330
1F
100
AcDbEntity
  8
AM_0
100
AcDbLine
 10
-0.0000000000000035
 20
41.42739666694042
 30
0.0
 11
-0.5800980746085071
 21
46.15191634875311
 31
0.0
  0
LINE
  5
8E7A
330
1F
100
AcDbEntity
  8
AM_0
100
AcDbLine
 10
-100.0
 20
8.000000000904675
 30
0.0
 11
-100.0
 21
-7.999999999095322
 31
0.0
  0
LINE
  5
8E80
330
1F
100
AcDbEntity
  8
AM_0
100
AcDbLine
 10
-13.48749998953872
 20
39.77133990304698
 30
0.0
 11
-0.0000000000000035
 21
41.42739666694042
 31
0.0
  0
LINE
  5
8E82
330
1F
100
AcDbEntity
  8
AM_0
100
AcDbLine
 10
-0.593212966752621
 20
46.15030604247991
 30
0.0
 11
-1.916473306887815
 21
56.92739666694042
 31
0.0
  0
LINE
  5
8E84
330
1F
100
AcDbEntity
  8
AM_0
100
AcDbLine
 10
-14.06759806414721
 20
44.49585958485967
 30
0.0
 11
-13.4874999895387
 21
39.77133990304698
 31
0.0
  0
LINE
  5
8E89
330
1F
100
AcDbEntity
  8
AM_0
100
AcDbLine
 10
-13.48749998953872
 20
-6.863251330126813
 30
0.0
 11
-13.48749998953872
 21
-7.993148396026545
 31
0.0
  0
LINE
  5
8E8F
330
1F
100
AcDbEntity
  8
AM_7
100
AcDbLine
 10
-8.276312492033607
 20
36.70183491616536
 30
0.0
 11
-11.63220975985162
 21
64.03342484196873
 31
0.0
  0
DIMENSION
  5
8E9B
330
1F
100
AcDbEntity
  8
AM_5
100
AcDbDimension
  2
*D5
 10
-100.0
 20
27.49228116728996
 30
0.0
 11
-50.0
 21
30.59228116728996
 31
0.0
 70
    32
  3
AM_JIS
100
AcDbAlignedDimension
 13
-0.0000000000000035
 23
0.0324747938858342
 33
0.0
 14
-100.0
 24
8.000000000904675
 34
0.0
 50
180.0
100
AcDbRotatedDimension
  0
DIMENSION
  5
8EA8
330
1F
100
AcDbEntity
  8
AM_5
100
AcDbDimension
  2
*D6
 10
10.08835680995578
 20
-7.999999999095331
 30
0.0
 11
6.988356809955782
 21
-3.999999999095327
 31
0.0
 70
    32
  3
AM_JIS
100
AcDbAlignedDimension
 13
-0.0706946776942238
 23
0.0000000009046756
 33
0.0
 14
-13.50015846914237
 24
-7.999999999095324
 34
0.0
 50
270.0
100
AcDbRotatedDimension
  0
DIMENSION
  5
8EE8
330
1F
100
AcDbEntity
  8
AM_5
100
AcDbDimension
  2
*D7
 10
-8.425000000306896
 20
5.326056234356167
 30
0.0
 11
-7.400549885032578
 21
18.42771264353794
 31
0.0
 70
   162
  3
AM_JIS$2
100
AcDb2LineAngularDimension
 13
-0.0000000000000035
 23
14.33877800063233
 33
0.0
 14
-0.0000000000000035
 24
1.032474793885832
 34
0.0
 15
-0.4000000000000021
 25
0.6928203239322209
 35
0.0
 16
-12.48960100606431
 26
15.34640708530179
 36
0.0
1001
ACAD
1000
DSTYLE
1002
{
1070
   271
1070
     0
1002
}
  0
DIMENSION
  5
8FCF
330
1F
100
AcDbEntity
  8
AM_5
100
AcDbDimension
  2
*D8
 10
30.2584408142643
 20
41.42739666694041
 30
0.0
 11
30.2584408142643
 21
49.17739666694043
 31
0.0
 70
   160
  3
AM_JIS
100
AcDbAlignedDimension
 13
-1.916473306887815
 23
56.92739666694042
 33
0.0
 14
-0.0000000000000035
 24
41.42739666694042
 34
0.0
 50
270.0
100
AcDbRotatedDimension
1001
ACAD
1000
DSTYLE
1002
{
1070
   287
1070
     4
1070
   279
1070
     1
1002
}
  0
DIMENSION
  5
904E
330
1F
100
AcDbEntity
  8
AM_5
100
AcDbDimension
  2
*D9
 10
-114.0
 20
-7.999999999095318
 30
0.0
 11
-117.1
 21
0.0000000009046615
 31
0.0
 70
    32
  3
AM_JIS
100
AcDbAlignedDimension
 13
-100.0
 23
8.000000000904675
 33
0.0
 14
-100.0
 24
-7.999999999095322
 34
0.0
 50
270.0
100
AcDbRotatedDimension
  0
DIMENSION
  5
905B
330
1F
100
AcDbEntity
  8
AM_5
100
AcDbDimension
  2
*D10
 10
-114.0
 20
40.92739666694042
 30
0.0
 11
-117.1
 21
48.92739666694041
 31
0.0
 70
    32
  3
AM_JIS
100
AcDbAlignedDimension
 13
-100.0
 23
56.92739666694042
 33
0.0
 14
-100.0
 24
40.92739666694042
 34
0.0
 50
270.0
100
AcDbRotatedDimension
  0
LINE
  5
90B0
330
1F
100
AcDbEntity
  8
AM_0
100
AcDbLine
 10
-100.0
 20
-7.999999999095322
 30
0.0
 11
-13.50015846914236
 21
-7.999999999095322
 31
0.0
  0
LINE
  5
90B1
330
1F
100
AcDbEntity
  8
AM_0
100
AcDbLine
 10
-100.0
 20
8.000000000904675
 30
0.0
 11
-13.50015846914236
 21
8.000000000904675
 31
0.0
  0
CIRCLE
  5
90BA
330
1F
100
AcDbEntity
  8
AM_0
100
AcDbCircle
 10
-8.724999994449623
 20
-0.0000000021152252
 30
0.0
 40
2.0
  0
LINE
  5
90D3
330
1F
100
AcDbEntity
  8
AM_0
100
AcDbLine
 10
-13.48749998953872
 20
6.863251331936172
 30
0.0
 11
-13.48749998953872
 21
7.992691624297976
 31
0.0
  0
LINE
  5
9104
330
1F
100
AcDbEntity
  8
AM_0
100
AcDbLine
 10
-15.06014421578853
 20
44.37399024145452
 30
0.0
 11
-0.5800980746085069
 21
46.15191634875311
 31
0.0
  0
LINE
  5
9105
330
1F
100
AcDbEntity
  8
AM_0
100
AcDbLine
 10
-15.02095943499746
 20
56.92739666694045
 30
0.0
 11
-13.50306947338138
 21
44.56517497999398
 31
0.0
  0
LINE
  5
9106
330
1F
100
AcDbEntity
  8
AM_0
100
AcDbLine
 10
-15.06014421578853
 20
44.37399024145452
 30
0.0
 11
-14.93827487238338
 21
43.3814440898132
 31
0.0
  0
LINE
  5
9107
330
1F
100
AcDbEntity
  8
AM_0
100
AcDbLine
 10
-14.93827487238339
 20
43.3814440898132
 30
0.0
 11
-13.94572872074206
 21
43.50331343321835
 31
0.0
  0
LINE
  5
9112
330
1F
100
AcDbEntity
  8
AM_0
100
AcDbLine
 10
-9.299163902675084
 20
61.44330924502214
 30
0.0
 11
-8.748335094532832
 21
56.95716860900314
 31
0.0
  0
LINE
  5
9113
330
1F
100
AcDbEntity
  8
AM_0
100
AcDbLine
 10
-13.26934850924036
 20
60.95583187140156
 30
0.0
 11
-12.77796049497846
 21
56.95379765269802
 31
0.0
  0
LINE
  5
9138
330
1F
100
AcDbEntity
  8
AM_0
100
AcDbLine
 10
-13.50015846914237
 20
8.000000000904675
 30
0.0
 11
-12.87732158223225
 21
7.640404956585891
 31
0.0
  0
LINE
  5
913A
330
1F
100
AcDbEntity
  8
AM_0
100
AcDbLine
 10
-13.50015846914237
 20
-7.999999999095324
 30
0.0
 11
-12.87732158223225
 21
-7.640404954776541
 31
0.0
  0
LINE
  5
920E
330
1F
100
AcDbEntity
  8
AM_0
100
AcDbLine
 10
-13.26934850924036
 20
60.95583187140155
 30
0.0
 11
-9.299163902675084
 21
61.44330924502214
 31
0.0
  0
DIMENSION
  5
92B2
330
1F
100
AcDbEntity
  8
AM_5
100
AcDbDimension
  2
*D11
 10
-0.0000000000000021
 20
41.42739666694042
 30
0.0
 11
18.93052856336897
 21
28.97099231414255
 31
0.0
 70
    34
  1
-<>
  3
AM_JIS$2
100
AcDb2LineAngularDimension
 13
-0.000000000000002
 23
41.42739666694042
 33
0.0
 14
0.5136532893343445
 24
41.42739666694042
 34
0.0
 15
-18.24999999999997
 25
39.18657843046241
 35
0.0
 16
18.4159236984744
 26
42.9306753489639
 36
0.0
1001
ACAD
1000
DSTYLE
1002
{
1070
   179
1070
     3
1002
}
1001
GENIUS_GENDTOL_13
1000

1000
h7
1000

1040
0.0
  0
LINE
  5
9320
330
1F
100
AcDbEntity
  8
AM_0
100
AcDbLine
 10
-12.28749998953873
 20
-7.556071653154365
 30
0.0
 11
-0.3999999994719883
 21
-0.6928203218180248
 31
0.0
  0
ARC
  5
9321
330
1F
100
AcDbEntity
  8
AM_0
100
AcDbCircle
 10
-0.7999999999999998
 20
0.0000000009046738
 30
0.0
 40
0.7999999999999956
100
AcDbArc
 50
299.9999999999999
 51
300.0000000436664
  0
LINE
  5
9322
330
1F
100
AcDbEntity
  8
AM_11
100
AcDbLine
 10
0.7999999989439625
 20
0.0000000015143702
 30
0.0
 11
-0.4000000000000012
 21
0.6928203239322204
 31
0.0
  0
ARC
  5
9323
330
1F
100
AcDbEntity
  8
AM_0
100
AcDbCircle
 10
-12.68749999904079
 20
6.863251325342567
 30
0.0
 40
0.7999999999999994
100
AcDbArc
 50
59.99999999999979
 51
180.0000000396623
  0
LINE
  5
9324
330
1F
100
AcDbEntity
  8
AM_0
100
AcDbLine
 10
-13.48749999904079
 20
6.863251324788775
 30
0.0
 11
-13.48749998953872
 21
-6.863251330126811
 31
0.0
  0
ARC
  5
9325
330
1F
100
AcDbEntity
  8
AM_0
100
AcDbCircle
 10
-12.68749998953872
 20
-6.863251330126813
 30
0.0
 40
0.799999999999999
100
AcDbArc
 50
179.9999999999998
 51
299.9999999999997
  0
LINE
  5
932B
330
1F
100
AcDbEntity
  8
AM_0
100
AcDbLine
 10
-0.4000000000000012
 20
0.6928203239322204
 30
0.0
 11
-12.28749999904078
 21
7.556071648370116
 31
0.0
  0
ARC
  5
932C
330
1F
100
AcDbEntity
  8
AM_0
100
AcDbCircle
 10
-0.7999999999999998
 20
0.0000000009046738
 30
0.0
 40
0.7999999999999956
100
AcDbArc
 50
59.99999999999992
 51
60.00000000000003
  0
LINE
  5
9330
330
1F
100
AcDbEntity
  8
AM_11
100
AcDbLine
 10
-0.3999999994719883
 20
-0.6928203218180248
 30
0.0
 11
0.7999999989439625
 21
0.0000000015143702
 31
0.0
  0
ARC
  5
9331
330
1F
100
AcDbEntity
  8
AM_0
100
AcDbCircle
 10
-0.7999999999999998
 20
0.0000000009046738
 30
0.0
 40
0.7999999999999956
100
AcDbArc
 50
300.0000000436664
 51
59.99999999999992
  0
LEADER
  5
935E
330
1F
100
AcDbEntity
  8
AM_5
  6
CONTINUOUS
 48
0.5
100
AcDbLeader
  3
AM_JIS$7
 76
     2
 10
29.60472368033626
 20
-0.1394325793615962
 30
0.0
 10
29.60472368033618
 20
9.860567420638403
 30
0.0
211
-1.0
221
-0.0000000000000078
231
0.0
1001
ACAD
1000
DSTYLE
1002
{
1070
     6
1000
OPEN30
1070
   173
1070
     1
1070
   176
1070
     0
1070
   341
1005
59
1002
}
  0
MTEXT
  5
935F
330
1F
100
AcDbEntity
  8
AM_6
100
AcDbMText
 10
16.60472368033618
 20
9.860567420638322
 30
0.0
 40
4.0
 41
0.0
 71
     5
 72
     5
  1
\T1.4;\W0.59;-7°
  7
ASAMI
1001
ACAD
1000
MTEXTBEGIN
1070
    73
1070
     1
1070
    44
1040
1.0
1070
    74
1070
     0
1000
MTEXTEND
  0
MTEXT
  5
9360
330
1F
100
AcDbEntity
  8
AM_6
100
AcDbMText
 10
32.15230026723483
 20
-4.139432579361582
 30
0.0
 40
4.0
 41
0.0
 71
     5
 72
     5
  1
\T1.40;\W0.59;０°
  7
ASAMI
1001
ACAD
1000
MTEXTBEGIN
1070
    73
1070
     1
1070
    44
1040
1.0
1070
    74
1070
     0
1000
MTEXTEND
  0
LEADER
  5
9361
330
1F
100
AcDbEntity
  8
AM_5
  6
CONTINUOUS
 48
0.5
100
AcDbLeader
  3
AM_JIS$7
 76
     2
 10
19.60472368033618
 20
9.860567420638325
 30
0.0
 10
29.60472368033618
 20
9.860567420638403
 30
0.0
211
-1.0
221
-0.0000000000000078
231
0.0
1001
ACAD
1000
DSTYLE
1002
{
1070
     6
1000
OPEN30
1070
   173
1070
     1
1070
   176
1070
     0
1070
   341
1005
59
1002
}
  0
VIEWPORT
  5
110
330
101
100
AcDbEntity
 67
     1
  8
0
100
AcDbViewport
 10
420.5
 20
297.0
 30
0.0
 40
948.9782706766916
 41
628.452
 68
     1
 69
     1
1001
ACAD
1000
MVIEW
1002
{
1070
    16
1010
0.0
1020
0.0
1030
0.0
1010
0.0
1020
0.0
1030
1.0
1040
0.0
1040
628.452
1040
420.5
1040
297.0
1040
50.0
1040
0.0
1040
0.0
1070
     0
1070
   100
1070
     1
1070
     1
1070
     0
1070
     0
1070
     0
1070
     0
1040
0.0
1040
0.0
1040
0.0
1040
10.0
1040
10.0
1040
10.0
1040
10.0
1070
     0
1002
{
1002
}
1002
}
  0
ENDSEC
  0
SECTION
  2
OBJECTS
  0
DICTIONARY
  5
C
330
0
100
AcDbDictionary
  3
ACAD_GROUP
350
D
  3
ACAD_LAYOUT
350
1A
  3
ACAD_MLINESTYLE
350
17
  3
ACAD_PLOTSETTINGS
350
19
  3
ACAD_PLOTSTYLENAME
350
E
  3
ACDBVARIABLEDICTIONARY
350
34
  3
ACMDICTIONARY
350
43
  3
AMG
350
2B
  3
AMGSNAPSETTINGS
350
6E
  3
DWGPROPS
350
938C
  3
ACDBHEADERROUNDTRIPXREC
350
9398
  0
DICTIONARY
  5
74
330
1F
100
AcDbDictionary
280
     1
  3
ACAD_INDEX
360
938E
  3
ACAD_LAYOUTSELFREF
360
93BB
  0
DICTIONARY
  5
93C0
330
101
100
AcDbDictionary
280
     1
  3
ACAD_LAYOUTSELFREF
360
93C1
  0
DICTIONARY
  5
D
102
{ACAD_REACTORS
330
C
102
}
330
C
100
AcDbDictionary
  3
*A1
350
8AC5
  3
*A2
350
8B73
  3
*A3
350
8D58
  0
DICTIONARY
  5
1A
102
{ACAD_REACTORS
330
C
102
}
330
C
100
AcDbDictionary
  0
DICTIONARY
  5
17
102
{ACAD_REACTORS
330
C
102
}
330
C
100
AcDbDictionary
  3
STANDARD
350
18
  0
DICTIONARY
  5
19
102
{ACAD_REACTORS
330
C
102
}
330
C
100
AcDbDictionary
  0
ACDBDICTIONARYWDFLT
  5
E
102
{ACAD_REACTORS
330
C
102
}
330
C
100
AcDbDictionary
281
     1
  3
Normal
350
F
100
AcDbDictionaryWithDefault
340
F
  0
DICTIONARY
  5
34
102
{ACAD_REACTORS
330
C
102
}
330
C
100
AcDbDictionary
  3
INDEXCTL
350
35
  3
SORTENTS
350
B5E
  0
DICTIONARY
  5
43
102
{ACAD_REACTORS
330
C
102
}
330
C
100
AcDbDictionary
  3
ACMSTDDICTIONARY
350
260
  0
DICTIONARY
  5
2B
102
{ACAD_REACTORS
330
C
102
}
330
C
100
AcDbDictionary
  3
ACMGSETTINGS
350
2C
  0
DICTIONARY
  5
6E
102
{ACAD_REACTORS
330
C
102
}
330
C
100
AcDbDictionary
  0
XRECORD
  5
938C
102
{ACAD_REACTORS
330
C
102
}
330
C
100
AcDbXrecord
  1
DWGPROPS COOKIE
  2

  3

  4

  6

  7

  8

  9

300
AmdtFileType=82
301
=
302
=
303
=
304
=
305
=
306
=
307
=
308
=
309
=
 40
1.82900511574074
 41
2452838.620506898
 42
2452938.902993333
  1

 90
        1
  0
DICTIONARY
  5
9398
102
{ACAD_REACTORS
330
C
102
}
330
C
100
AcDbDictionary
  3
TSTACKALIGN
350
9399
  3
TSTACKSIZE
350
939A
  3
HYPERLINKBASE
350
939B
  3
STYLESHEET
350
939C
  3
LAYOUTDICT
350
939D
  3
PLOTSETDICT
350
939E
  3
PLOTSTYLNAMDICT
350
939F
  3
LWETCUNION
350
93A0
  3
INSUNITS
350
93A1
  3
CEPSNTYPE
350
93A2
  3
FINGERPRINTGUID
350
93A3
  3
VERSIONGUID
350
93A4
  3
PSVPSCALE
350
93A5
  3
DIMSTYLEDATA
350
93A6
  3
PUCSORTHOREF
350
93A7
  3
PUCSORTHOVIEW
350
93A8
  3
PUCSBASE
350
93A9
  3
PUCSORGTOP
350
93AA
  3
PUCSORGBOTTOM
350
93AB
  3
PUCSORGLEFT
350
93AC
  3
PUCSORGRIGHT
350
93AD
  3
PUCSORGFRONT
350
93AE
  3
PUCSORGBACK
350
93AF
  3
UCSORTHOREF
350
93B0
  3
UCSORTHOVIEW
350
93B1
  3
UCSBASE
350
93B2
  3
UCSORGTOP
350
93B3
  3
UCSORGBOTTOM
350
93B4
  3
UCSORGLEFT
350
93B5
  3
UCSORGRIGHT
350
93B6
  3
UCSORGFRONT
350
93B7
  3
UCSORGBACK
350
93B8
  0
DICTIONARY
  5
938E
102
{ACAD_REACTORS
330
74
102
}
330
74
100
AcDbDictionary
  3
*A1
350
938F
  0
XRECORD
  5
93BB
102
{ACAD_REACTORS
330
74
102
}
330
74
100
AcDbXrecord
340
1F
  0
XRECORD
  5
93C1
102
{ACAD_REACTORS
330
93C0
102
}
330
93C0
100
AcDbXrecord
340
101
  0
GROUP
  5
8AC5
102
{ACAD_REACTORS
330
D
102
}
330
D
100
AcDbGroup
300

 70
     1
 71
     1
  0
GROUP
  5
8B73
102
{ACAD_REACTORS
330
D
102
}
330
D
100
AcDbGroup
300

 70
     1
 71
     1
  0
GROUP
  5
8D58
102
{ACAD_REACTORS
330
D
102
}
330
D
100
AcDbGroup
300

 70
     1
 71
     1
  0
MLINESTYLE
  5
18
102
{ACAD_REACTORS
330
17
102
}
330
17
100
AcDbMlineStyle
  2
STANDARD
 70
     0
  3

 62
   256
 51
90.0
 52
90.0
 71
     2
 49
0.5
 62
   256
  6
BYLAYER
 49
-0.5
 62
   256
  6
BYLAYER
  0
ACDBPLACEHOLDER
  5
F
102
{ACAD_REACTORS
330
E
102
}
330
E
100
AcDbPlaceHolder
280
     0
  0
DICTIONARYVAR
  5
35
102
{ACAD_REACTORS
330
34
102
}
330
34
100
DictionaryVariables
280
     0
  1
1
  0
DICTIONARYVAR
  5
B5E
102
{ACAD_REACTORS
330
34
102
}
330
34
100
DictionaryVariables
280
     0
  1
96
  0
DICTIONARY
  5
260
102
{ACAD_REACTORS
330
43
102
}
330
43
100
AcDbDictionary
  0
DICTIONARY
  5
2C
102
{ACAD_REACTORS
330
2B
102
}
330
2B
100
AcDbDictionary
  3
DWGSETTINGS
350
2D
  0
XRECORD
  5
9399
102
{ACAD_REACTORS
330
9398
102
}
330
9398
100
AcDbXrecord
 90
        1
  0
XRECORD
  5
939A
102
{ACAD_REACTORS
330
9398
102
}
330
9398
100
AcDbXrecord
 90
       70
  0
XRECORD
  5
939B
102
{ACAD_REACTORS
330
9398
102
}
330
9398
100
AcDbXrecord
  1

  0
XRECORD
  5
939C
102
{ACAD_REACTORS
330
9398
102
}
330
9398
100
AcDbXrecord
  1
ASAMI.ctb
  0
XRECORD
  5
939D
102
{ACAD_REACTORS
330
9398
102
}
330
9398
100
AcDbXrecord
340
1A
  0
XRECORD
  5
939E
102
{ACAD_REACTORS
330
9398
102
}
330
9398
100
AcDbXrecord
340
19
  0
XRECORD
  5
939F
102
{ACAD_REACTORS
330
9398
102
}
330
9398
100
AcDbXrecord
340
E
  0
XRECORD
  5
93A0
102
{ACAD_REACTORS
330
9398
102
}
330
9398
100
AcDbXrecord
 90
    10781
  0
XRECORD
  5
93A1
102
{ACAD_REACTORS
330
9398
102
}
330
9398
100
AcDbXrecord
 90
        4
  0
XRECORD
  5
93A2
102
{ACAD_REACTORS
330
9398
102
}
330
9398
100
AcDbXrecord
 90
        0
  0
XRECORD
  5
93A3
102
{ACAD_REACTORS
330
9398
102
}
330
9398
100
AcDbXrecord
  1
{AFB28963-8C59-40AE-9337-C84526B81ACE}
  0
XRECORD
  5
93A4
102
{ACAD_REACTORS
330
9398
102
}
330
9398
100
AcDbXrecord
  1
{8AE9A2A1-B2B0-49B7-B948-6D8A5A0B7CAC}
  0
XRECORD
  5
93A5
102
{ACAD_REACTORS
330
9398
102
}
330
9398
100
AcDbXrecord
 40
0.0
  0
XRECORD
  5
93A6
102
{ACAD_REACTORS
330
9398
102
}
330
9398
100
AcDbXrecord
1000
DSTYLE
1002
{
1070
    79
 70
     2
1070
   341
340
59
1070
   342
340
59
1070
   371
 70
    -1
1070
   372
 70
    -1
1002
}
  0
XRECORD
  5
93A7
102
{ACAD_REACTORS
330
9398
102
}
330
9398
100
AcDbXrecord
340
0
  0
XRECORD
  5
93A8
102
{ACAD_REACTORS
330
9398
102
}
330
9398
100
AcDbXrecord
 70
     0
  0
XRECORD
  5
93A9
102
{ACAD_REACTORS
330
9398
102
}
330
9398
100
AcDbXrecord
340
0
  0
XRECORD
  5
93AA
102
{ACAD_REACTORS
330
9398
102
}
330
9398
100
AcDbXrecord
 10
0.0
 20
0.0
 30
0.0
  0
XRECORD
  5
93AB
102
{ACAD_REACTORS
330
9398
102
}
330
9398
100
AcDbXrecord
 10
0.0
 20
0.0
 30
0.0
  0
XRECORD
  5
93AC
102
{ACAD_REACTORS
330
9398
102
}
330
9398
100
AcDbXrecord
 10
0.0
 20
0.0
 30
0.0
  0
XRECORD
  5
93AD
102
{ACAD_REACTORS
330
9398
102
}
330
9398
100
AcDbXrecord
 10
0.0
 20
0.0
 30
0.0
  0
XRECORD
  5
93AE
102
{ACAD_REACTORS
330
9398
102
}
330
9398
100
AcDbXrecord
 10
0.0
 20
0.0
 30
0.0
  0
XRECORD
  5
93AF
102
{ACAD_REACTORS
330
9398
102
}
330
9398
100
AcDbXrecord
 10
0.0
 20
0.0
 30
0.0
  0
XRECORD
  5
93B0
102
{ACAD_REACTORS
330
9398
102
}
330
9398
100
AcDbXrecord
340
0
  0
XRECORD
  5
93B1
102
{ACAD_REACTORS
330
9398
102
}
330
9398
100
AcDbXrecord
 70
     0
  0
XRECORD
  5
93B2
102
{ACAD_REACTORS
330
9398
102
}
330
9398
100
AcDbXrecord
340
0
  0
XRECORD
  5
93B3
102
{ACAD_REACTORS
330
9398
102
}
330
9398
100
AcDbXrecord
 10
0.0
 20
0.0
 30
0.0
  0
XRECORD
  5
93B4
102
{ACAD_REACTORS
330
9398
102
}
330
9398
100
AcDbXrecord
 10
0.0
 20
0.0
 30
0.0
  0
XRECORD
  5
93B5
102
{ACAD_REACTORS
330
9398
102
}
330
9398
100
AcDbXrecord
 10
0.0
 20
0.0
 30
0.0
  0
XRECORD
  5
93B6
102
{ACAD_REACTORS
330
9398
102
}
330
9398
100
AcDbXrecord
 10
0.0
 20
0.0
 30
0.0
  0
XRECORD
  5
93B7
102
{ACAD_REACTORS
330
9398
102
}
330
9398
100
AcDbXrecord
 10
0.0
 20
0.0
 30
0.0
  0
XRECORD
  5
93B8
102
{ACAD_REACTORS
330
9398
102
}
330
9398
100
AcDbXrecord
 10
0.0
 20
0.0
 30
0.0
  0
LAYER_INDEX
  5
938F
102
{ACAD_REACTORS
330
938E
102
}
330
938E
100
AcDbIndex
 40
2452941.592388229
100
AcDbLayerIndex
  8
0
360
9390
 90
        2
  8
AM_0
360
9391
 90
       30
  8
AM_7
360
9392
 90
        1
  8
AM_5
360
9393
 90
        9
  8
Defpoints
360
9394
 90
        0
  8
AM_6
360
9395
 90
        3
  8
AM_11
360
9396
 90
        2
  0
XRECORD
  5
2D
102
{ACAD_REACTORS
330
2C
102
}
330
2C
100
AcDbXrecord
  1
VERSION
140
15.0
  1
PRODUCT
  2
AutoCAD Mechanical 2000
  0
IDBUFFER
  5
9390
330
0
100
AcDbIdBuffer
330
68EE
330
68F2
  0
IDBUFFER
  5
9391
330
0
100
AcDbIdBuffer
330
9107
330
9112
330
9113
330
9138
330
913A
330
920E
330
9320
330
9321
330
9323
330
9324
330
9325
330
932B
330
932C
330
9331
330
8E6F
330
8E77
330
8E78
330
8E79
330
8E7A
330
8E80
330
8E82
330
8E84
330
8E89
330
90B0
330
90B1
330
90BA
330
90D3
330
9104
330
9105
330
9106
  0
IDBUFFER
  5
9392
330
0
100
AcDbIdBuffer
330
8E8F
  0
IDBUFFER
  5
9393
330
0
100
AcDbIdBuffer
330
8E9B
330
8EA8
330
8EE8
330
8FCF
330
904E
330
905B
330
92B2
330
935E
330
9361
  0
IDBUFFER
  5
9394
330
0
100
AcDbIdBuffer
  0
IDBUFFER
  5
9395
330
0
100
AcDbIdBuffer
330
C58
330
935F
330
9360
  0
IDBUFFER
  5
9396
330
0
100
AcDbIdBuffer
330
9322
330
9330
  0
ENDSEC
  0
EOF
