  0
SECTION
  2
HEADER
  9
$ACADVER
  1
AC1014
  9
$ACADMAINTVER
 70
     9
  9
$DWGCODEPAGE
  3
ANSI_932
  9
$INSBASE
 10
0.0
 20
0.0
 30
0.0
  9
$EXTMIN
 10
-169.6914627361151
 20
-35.0000000000001
 30
0.0
  9
$EXTMAX
 10
32.00634459872976
 20
83.36643640759126
 30
0.0
  9
$LIMMIN
 10
-188.7374981424468
 20
-48.3298251629642
  9
$LIMMAX
 10
47.22675547515473
 20
89.6236744992027
  9
$ORTHOMODE
 70
     0
  9
$REGENMODE
 70
     1
  9
$FILLMODE
 70
     1
  9
$QTEXTMODE
 70
     0
  9
$MIRRTEXT
 70
     0
  9
$DRAGMODE
 70
     2
  9
$LTSCALE
 40
0.5
  9
$OSMODE
 70
  2103
  9
$ATTMODE
 70
     1
  9
$TEXTSIZE
 40
2.5
  9
$TRACEWID
 40
1.0
  9
$TEXTSTYLE
  7
STANDARD
  9
$CLAYER
  8
AM_0
  9
$CELTYPE
  6
BYLAYER
  9
$CECOLOR
 62
   256
  9
$CELTSCALE
 40
1.0
  9
$DELOBJ
 70
     1
  9
$DISPSILH
 70
     0
  9
$DIMSCALE
 40
1.0
  9
$DIMASZ
 40
2.5
  9
$DIMEXO
 40
1.0
  9
$DIMDLI
 40
12.0
  9
$DIMRND
 40
0.0
  9
$DIMDLE
 40
0.0
  9
$DIMEXE
 40
1.0
  9
$DIMTP
 40
0.1
  9
$DIMTM
 40
0.1
  9
$DIMTXT
 40
3.2
  9
$DIMCEN
 40
0.0
  9
$DIMTSZ
 40
0.0
  9
$DIMTOL
 70
     0
  9
$DIMLIM
 70
     0
  9
$DIMTIH
 70
     0
  9
$DIMTOH
 70
     0
  9
$DIMSE1
 70
     0
  9
$DIMSE2
 70
     0
  9
$DIMTAD
 70
     3
  9
$DIMZIN
 70
     8
  9
$DIMBLK
  1
OPEN30
  9
$DIMASO
 70
     1
  9
$DIMSHO
 70
     1
  9
$DIMPOST
  1

  9
$DIMAPOST
  1
"
  9
$DIMALT
 70
     0
  9
$DIMALTD
 70
     2
  9
$DIMALTF
 40
0.0393701
  9
$DIMLFAC
 40
1.0
  9
$DIMTOFL
 70
     1
  9
$DIMTVP
 40
0.0
  9
$DIMTIX
 70
     0
  9
$DIMSOXD
 70
     0
  9
$DIMSAH
 70
     0
  9
$DIMBLK1
  1

  9
$DIMBLK2
  1

  9
$DIMSTYLE
  2
AM_JIS
  9
$DIMCLRD
 70
     3
  9
$DIMCLRE
 70
     3
  9
$DIMCLRT
 70
     2
  9
$DIMTFAC
 40
0.71
  9
$DIMGAP
 40
1.5
  9
$DIMJUST
 70
     0
  9
$DIMSD1
 70
     0
  9
$DIMSD2
 70
     0
  9
$DIMTOLJ
 70
     0
  9
$DIMTZIN
 70
     0
  9
$DIMALTZ
 70
     0
  9
$DIMALTTZ
 70
     0
  9
$DIMFIT
 70
     3
  9
$DIMUPT
 70
     0
  9
$DIMUNIT
 70
     2
  9
$DIMDEC
 70
     3
  9
$DIMTDEC
 70
     3
  9
$DIMALTU
 70
     2
  9
$DIMALTTD
 70
     2
  9
$DIMTXSTY
  7
ASAMI
  9
$DIMAUNIT
 70
     0
  9
$LUNITS
 70
     2
  9
$LUPREC
 70
     2
  9
$SKETCHINC
 40
1.0
  9
$FILLETRAD
 40
0.8
  9
$AUNITS
 70
     0
  9
$AUPREC
 70
     0
  9
$MENU
  1
.
  9
$ELEVATION
 40
0.0
  9
$PELEVATION
 40
0.0
  9
$THICKNESS
 40
0.0
  9
$LIMCHECK
 70
     0
  9
$BLIPMODE
 70
     0
  9
$CHAMFERA
 40
1.0
  9
$CHAMFERB
 40
1.0
  9
$CHAMFERC
 40
20.0
  9
$CHAMFERD
 40
0.0
  9
$SKPOLY
 70
     0
  9
$TDCREATE
 40
2452838.620506898
  9
$TDUPDATE
 40
2452941.592807071
  9
$TDINDWG
 40
1.8388421644
  9
$TDUSRTIMER
 40
1.8388421644
  9
$USRTIMER
 70
     1
  9
$ANGBASE
 50
0.0
  9
$ANGDIR
 70
     0
  9
$PDMODE
 70
     0
  9
$PDSIZE
 40
0.0
  9
$PLINEWID
 40
0.0
  9
$COORDS
 70
     0
  9
$SPLFRAME
 70
     0
  9
$SPLINETYPE
 70
     6
  9
$SPLINESEGS
 70
     8
  9
$ATTDIA
 70
     1
  9
$ATTREQ
 70
     1
  9
$HANDLING
 70
 12289
  9
$HANDSEED
  5
9619
  9
$SURFTAB1
 70
     6
  9
$SURFTAB2
 70
     6
  9
$SURFTYPE
 70
     6
  9
$SURFU
 70
     6
  9
$SURFV
 70
     6
  9
$UCSNAME
  2

  9
$UCSORG
 10
0.0
 20
0.0
 30
0.0
  9
$UCSXDIR
 10
1.0
 20
0.0
 30
0.0
  9
$UCSYDIR
 10
0.0
 20
1.0
 30
0.0
  9
$PUCSNAME
  2

  9
$PUCSORG
 10
0.0
 20
0.0
 30
0.0
  9
$PUCSXDIR
 10
1.0
 20
0.0
 30
0.0
  9
$PUCSYDIR
 10
0.0
 20
1.0
 30
0.0
  9
$USERI1
 70
     0
  9
$USERI2
 70
     0
  9
$USERI3
 70
     0
  9
$USERI4
 70
     0
  9
$USERI5
 70
     0
  9
$USERR1
 40
0.0
  9
$USERR2
 40
0.0
  9
$USERR3
 40
0.0
  9
$USERR4
 40
0.0
  9
$USERR5
 40
0.0
  9
$WORLDVIEW
 70
     1
  9
$SHADEDGE
 70
     3
  9
$SHADEDIF
 70
    70
  9
$TILEMODE
 70
     1
  9
$MAXACTVP
 70
    64
  9
$PINSBASE
 10
0.0
 20
0.0
 30
0.0
  9
$PLIMCHECK
 70
     0
  9
$PEXTMIN
 10
1.000000000000000E+20
 20
1.000000000000000E+20
 30
1.000000000000000E+20
  9
$PEXTMAX
 10
-1.000000000000000E+20
 20
-1.000000000000000E+20
 30
-1.000000000000000E+20
  9
$PLIMMIN
 10
0.0
 20
0.0
  9
$PLIMMAX
 10
841.0
 20
594.0
  9
$UNITMODE
 70
     0
  9
$VISRETAIN
 70
     1
  9
$PLINEGEN
 70
     0
  9
$PSLTSCALE
 70
     0
  9
$TREEDEPTH
 70
  3020
  9
$PICKSTYLE
 70
     0
  9
$CMLSTYLE
  2
STANDARD
  9
$CMLJUST
 70
     0
  9
$CMLSCALE
 40
20.0
  9
$PROXYGRAPHICS
 70
     1
  9
$MEASUREMENT
 70
     1
  0
ENDSEC
  0
SECTION
  2
CLASSES
  0
CLASS
  1
ACDBDICTIONARYWDFLT
  2
AcDbDictionaryWithDefault
  3
AutoCAD 2000
 90
        0
280
     0
281
     0
  0
CLASS
  1
ACDBPLACEHOLDER
  2
AcDbPlaceHolder
  3
AutoCAD 2000
 90
        0
280
     0
281
     0
  0
CLASS
  1
LAYOUT
  2
AcDbLayout
  3
AutoCAD 2000
 90
        0
280
     0
281
     0
  0
CLASS
  1
AMGSETTINGSOBJ
  2
AmgSettingsObj
  3
"AcadM|Product Description: AutoCAD Mechanical 2000|Company: Autodesk"
 90
        0
280
     0
281
     0
  0
CLASS
  1
ACME_DOCUMENT
  2
AcMeDbDoc
  3
AcMeServices
 90
        0
280
     0
281
     0
  0
CLASS
  1
ACMESCOPE
  2
AcMeScope
  3
AcMeServices
 90
        0
280
     0
281
     0
  0
CLASS
  1
ACMECOMMANDHISTORY
  2
AcMeCommandHistory
  3
AcMeServices
 90
        0
280
     0
281
     0
  0
CLASS
  1
DICTIONARYVAR
  2
AcDbDictionaryVar
  3
AutoCAD 2000
 90
        0
280
     0
281
     0
  0
CLASS
  1
ACIMSYSVARMAN
  2
AcImSysVarManager
  3
AcMeServices
 90
        0
280
     0
281
     0
  0
CLASS
  1
ACIMREALSYSVAR
  2
AcImRealSysVar
  3
AcMeServices
 90
        0
280
     0
281
     0
  0
CLASS
  1
ACIMINTSYSVAR
  2
AcImIntSysVar
  3
AcMeServices
 90
        0
280
     0
281
     0
  0
CLASS
  1
ACMEDRAWINGMAN
  2
AcMeDrawingMan
  3
AcMeServices
 90
        0
280
     0
281
     0
  0
CLASS
  1
ACMEVIEW
  2
AcMeView
  3
AcMeServices
 90
        0
280
     0
281
     0
  0
CLASS
  1
ACDBENTITYCACHE
  2
AcMeEntityCache
  3
AcMeServices
 90
        0
280
     0
281
     0
  0
CLASS
  1
GSMANAGER
  2
AcMeGSManager
  3
AcMeServices
 90
        0
280
     0
281
     0
  0
CLASS
  1
AmdtInternalReactor
  2
AmdtInternalReactor
  3
AcMeServices
 90
        0
280
     0
281
     0
  0
CLASS
  1
ACMESTATEMGR
  2
AcMeStateMgr
  3
AcMeServices
 90
        0
280
     0
281
     0
  0
CLASS
  1
ACME_DATABASE
  2
AcMeDbDatabase
  3
AcMeServices
 90
        0
280
     0
281
     0
  0
CLASS
  1
ACRFINSADJUSTERMGR
  2
AcRfInsAdjusterMgr
  3
AcMeServices
 90
        0
280
     0
281
     0
  0
CLASS
  1
ACMDATADICTIONARY
  2
AcmDataDictionary
  3
"AcmSymBB|Product Description: AutoCAD Mechanical 2000|Company: Autodesk"
 90
        0
280
     0
281
     0
  0
CLASS
  1
ACMDATAENTRYBLOCK
  2
AcmDataEntryBlock
  3
"AcmSymBB|Product Description: AutoCAD Mechanical 2000|Company: Autodesk"
 90
        0
280
     0
281
     0
  0
CLASS
  1
AMGOBJPROPCFG
  2
AmgObjPropCfg
  3
"AmgLay|Product Description: AutoCAD Mechanical 2000|Company: Autodesk"
 90
        1
280
     0
281
     0
  0
CLASS
  1
ACAMGFILTERDAT
  2
AcAmgFilterDat
  3
"AcadM|Product Description: AutoCAD Mechanical 2000|Company: Autodesk"
 90
        0
280
     0
281
     0
  0
CLASS
  1
LAYER_INDEX
  2
AcDbLayerIndex
  3
AutoCAD 2000
 90
        0
280
     0
281
     0
  0
CLASS
  1
IDBUFFER
  2
AcDbIdBuffer
  3
AutoCAD 2000
 90
        0
280
     0
281
     0
  0
CLASS
  1
ACIMSTRSYSVAR
  2
AcImStrSysVar
  3
AcMeServices
 90
        0
280
     0
281
     0
  0
CLASS
  1
ACMSTANDARDJIS
  2
AcmStandardJIS
  3
"AcmSymBB|Product Description: AutoCAD Mechanical 2000|Company: Autodesk"
 90
        0
280
     0
281
     0
  0
CLASS
  1
ACMSURFSTANDARDJIS
  2
AcmSurfTextStdJIS
  3
"AcmSymBB|Product Description: AutoCAD Mechanical 2000|Company: Autodesk"
 90
        0
280
     0
281
     0
  0
CLASS
  1
ACMFCFSTANDARDJIS
  2
AcmFCFStdJIS
  3
"AcmSymBB|Product Description: AutoCAD Mechanical 2000|Company: Autodesk"
 90
        0
280
     0
281
     0
  0
CLASS
  1
ACMWELDSTANDARDJIS
  2
AcmWeldingStdJIS
  3
"AcmSymBB|Product Description: AutoCAD Mechanical 2000|Company: Autodesk"
 90
        0
280
     0
281
     0
  0
CLASS
  1
ACMIDSTANDARDJIS
  2
AcmIdStdJIS
  3
"AcmSymBB|Product Description: AutoCAD Mechanical 2000|Company: Autodesk"
 90
        0
280
     0
281
     0
  0
CLASS
  1
ACMDATUMSTANDARDJIS
  2
AcmDatumStdJIS
  3
"AcmSymBB|Product Description: AutoCAD Mechanical 2000|Company: Autodesk"
 90
        0
280
     0
281
     0
  0
CLASS
  1
ACMBOMSTANDARDJIS
  2
AcmBOMStdJIS
  3
"AcmSymBB|Product Description: AutoCAD Mechanical 2000|Company: Autodesk"
 90
        0
280
     0
281
     0
  0
CLASS
  1
ACMSTANDARDANSI
  2
AcmStandardANSI
  3
"AcmSymBB|Product Description: AutoCAD Mechanical 2000|Company: Autodesk"
 90
        0
280
     0
281
     0
  0
CLASS
  1
ACMSURFSTANDARDANSI
  2
AcmSurfTextStdANSI
  3
"AcmSymBB|Product Description: AutoCAD Mechanical 2000|Company: Autodesk"
 90
        0
280
     0
281
     0
  0
CLASS
  1
ACMFCFSTANDARDANSI
  2
AcmFCFStdANSI
  3
"AcmSymBB|Product Description: AutoCAD Mechanical 2000|Company: Autodesk"
 90
        0
280
     0
281
     0
  0
CLASS
  1
ACMWELDSTANDARDANSI
  2
AcmWeldingStdANSI
  3
"AcmSymBB|Product Description: AutoCAD Mechanical 2000|Company: Autodesk"
 90
        0
280
     0
281
     0
  0
CLASS
  1
ACMIDSTANDARDANSI
  2
AcmIdStdANSI
  3
"AcmSymBB|Product Description: AutoCAD Mechanical 2000|Company: Autodesk"
 90
        0
280
     0
281
     0
  0
CLASS
  1
ACMDATUMSTANDARDANSI
  2
AcmDatumStdANSI
  3
"AcmSymBB|Product Description: AutoCAD Mechanical 2000|Company: Autodesk"
 90
        0
280
     0
281
     0
  0
CLASS
  1
ACMBOMSTANDARDANSI
  2
AcmBOMStdANSI
  3
"AcmSymBB|Product Description: AutoCAD Mechanical 2000|Company: Autodesk"
 90
        0
280
     0
281
     0
  0
CLASS
  1
ACMSTANDARDBSI
  2
AcmStandardBSI
  3
"AcmSymBB|Product Description: AutoCAD Mechanical 2000|Company: Autodesk"
 90
        0
280
     0
281
     0
  0
CLASS
  1
ACMSURFSTANDARDBSI
  2
AcmSurfTextStdBSI
  3
"AcmSymBB|Product Description: AutoCAD Mechanical 2000|Company: Autodesk"
 90
        0
280
     0
281
     0
  0
CLASS
  1
ACMFCFSTANDARDBSI
  2
AcmFCFStdBSI
  3
"AcmSymBB|Product Description: AutoCAD Mechanical 2000|Company: Autodesk"
 90
        0
280
     0
281
     0
  0
CLASS
  1
ACMWELDSTANDARDBSI
  2
AcmWeldingStdBSI
  3
"AcmSymBB|Product Description: AutoCAD Mechanical 2000|Company: Autodesk"
 90
        0
280
     0
281
     0
  0
CLASS
  1
ACMIDSTANDARDBSI
  2
AcmIdStdBSI
  3
"AcmSymBB|Product Description: AutoCAD Mechanical 2000|Company: Autodesk"
 90
        0
280
     0
281
     0
  0
CLASS
  1
ACMDATUMSTANDARDBSI
  2
AcmDatumStdBSI
  3
"AcmSymBB|Product Description: AutoCAD Mechanical 2000|Company: Autodesk"
 90
        0
280
     0
281
     0
  0
CLASS
  1
ACMBOMSTANDARDBSI
  2
AcmBOMStdBSI
  3
"AcmSymBB|Product Description: AutoCAD Mechanical 2000|Company: Autodesk"
 90
        0
280
     0
281
     0
  0
CLASS
  1
STDPART2D
  2
AmgStdPart
  3
"AmgStdPart|Product Description: AutoCAD Mechanical 2000|Company: Autodesk"
 90
     1023
280
     0
281
     1
  0
CLASS
  1
ACMDATAENTRYPART
  2
AcmDataEntryPart
  3
"AcmSymBB|Product Description: AutoCAD Mechanical 2000|Company: Autodesk"
 90
        0
280
     0
281
     0
  0
CLASS
  1
ACMPARTREF
  2
AcmPartRef
  3
"AcmSymBB|Product Description: AutoCAD Mechanical 2000|Company: Autodesk"
 90
     1023
280
     0
281
     1
  0
CLASS
  1
LONG_TRANSACTION
  2
AcDbLongTransaction
  3
AutoCAD 2000
 90
        0
280
     0
281
     0
  0
CLASS
  1
LWPOLYLINE
  2
AcDbPolyline
  3
AutoCAD 2000
 90
        0
280
     0
281
     1
  0
CLASS
  1
HATCH
  2
AcDbHatch
  3
AutoCAD 2000
 90
        0
280
     0
281
     1
  0
CLASS
  1
XRECORD
  2
AcDbXrecord
  3
AutoCAD 2000
 90
        0
280
     0
281
     0
  0
ENDSEC
  0
SECTION
  2
TABLES
  0
TABLE
  2
VPORT
  5
8
330
0
100
AcDbSymbolTable
 70
     3
  0
VPORT
  5
95DA
330
8
100
AcDbSymbolTableRecord
100
AcDbViewportTableRecord
  2
*ACTIVE
 70
     0
 10
0.0
 20
0.0
 11
1.0
 21
1.0
 12
-57.3031667632021
 22
31.80351102905573
 13
0.0
 23
0.0
 14
2.5
 24
2.5
 15
10.0
 25
10.0
 16
0.0
 26
0.0
 36
1.0
 17
0.0
 27
0.0
 37
0.0
 40
144.0748419385771
 41
1.56570841889117
 42
50.0
 43
0.0
 44
0.0
 50
0.0
 51
0.0
 71
     0
 72
   100
 73
     1
 74
     2
 75
     0
 76
     0
 77
     0
 78
     0
  0
ENDTAB
  0
TABLE
  2
LTYPE
  5
5
330
0
100
AcDbSymbolTable
 70
    10
  0
LTYPE
  5
14
330
5
100
AcDbSymbolTableRecord
100
AcDbLinetypeTableRecord
  2
BYBLOCK
 70
     0
  3

 72
    65
 73
     0
 40
0.0
  0
LTYPE
  5
15
330
5
100
AcDbSymbolTableRecord
100
AcDbLinetypeTableRecord
  2
BYLAYER
 70
     0
  3

 72
    65
 73
     0
 40
0.0
  0
LTYPE
  5
16
330
5
100
AcDbSymbolTableRecord
100
AcDbLinetypeTableRecord
  2
CONTINUOUS
 70
     0
  3
Solid line
 72
    65
 73
     0
 40
0.0
  0
LTYPE
  5
4B
330
5
100
AcDbSymbolTableRecord
100
AcDbLinetypeTableRecord
  2
AM_ISO02W050
 70
     0
  3
__ __ __ __ __ __ __ __ __ __ __ __ __ __ __
 72
    65
 73
     2
 40
7.5
 49
6.0
 74
     0
 49
-1.5
 74
     0
  0
LTYPE
  5
4C
330
5
100
AcDbSymbolTableRecord
100
AcDbLinetypeTableRecord
  2
AM_ISO08W050
 70
     0
  3
____ . ____ . ____ . ____ . ____ . ____ . ____
 72
    65
 73
     4
 40
18.0
 49
12.0
 74
     0
 49
-1.5
 74
     0
 49
3.0
 74
     0
 49
-1.5
 74
     0
  0
LTYPE
  5
4D
330
5
100
AcDbSymbolTableRecord
100
AcDbLinetypeTableRecord
  2
AM_ISO09W050
 70
     0
  3
_____ . . _____ . . _____ . . ____ .. ____
 72
    65
 73
     6
 40
22.5
 49
12.0
 74
     0
 49
-1.5
 74
     0
 49
3.0
 74
     0
 49
-1.5
 74
     0
 49
3.0
 74
     0
 49
-1.5
 74
     0
  0
LTYPE
  5
4E
330
5
100
AcDbSymbolTableRecord
100
AcDbLinetypeTableRecord
  2
AMCONSTR
 70
     0
  3
_______________________
 72
    65
 73
     2
 40
9999.0
 49
9999.0
 74
     0
 49
0.0
 74
     0
  0
LTYPE
  5
4F
330
5
100
AcDbSymbolTableRecord
100
AcDbLinetypeTableRecord
  2
AM_ISO02W050X2
 70
     0
  3
 _ _ _ _ _ _ _ _ _ _ _ _
 72
    65
 73
     2
 40
3.75
 49
3.0
 74
     0
 49
-0.75
 74
     0
  0
LTYPE
  5
50
330
5
100
AcDbSymbolTableRecord
100
AcDbLinetypeTableRecord
  2
AM_ISO08W050X2
 70
     0
  3
__ . __ . __ . __ . __ . __
 72
    65
 73
     4
 40
9.0
 49
6.0
 74
     0
 49
-0.75
 74
     0
 49
1.5
 74
     0
 49
-0.75
 74
     0
  0
LTYPE
  5
53
330
5
100
AcDbSymbolTableRecord
100
AcDbLinetypeTableRecord
  2
AMZIGZAG
 70
     0
  3
/\/-/\/-/\/-/\/-/\/-/\/
 72
    65
 73
     2
 40
11.00009999999999
 49
0.0001
 74
     4
 75
   135
340
52
 46
0.04
 50
0.0
 44
0.0
 45
0.0
 49
-11.0
 74
     0
  0
LTYPE
  5
166
330
5
100
AcDbSymbolTableRecord
100
AcDbLinetypeTableRecord
  2
ACJISTGL
 70
     0
  3
_ _ _ _ _
 72
    65
 73
     2
 40
3.0
 49
2.0
 74
     0
 49
-1.0
 74
     0
  0
LTYPE
  5
26A
330
5
100
AcDbSymbolTableRecord
100
AcDbLinetypeTableRecord
  2
ACJISTGB
 70
     0
  3
__ . . __ . .
 72
    65
 73
     6
 40
9.0
 49
4.0
 74
     0
 49
-1.0
 74
     0
 49
1.0
 74
     0
 49
-1.0
 74
     0
 49
1.0
 74
     0
 49
-1.0
 74
     0
  0
ENDTAB
  0
TABLE
  2
LAYER
  5
2
330
0
100
AcDbSymbolTable
 70
     7
  0
LAYER
  5
10
330
2
100
AcDbSymbolTableRecord
100
AcDbLayerTableRecord
  2
0
 70
     0
 62
     7
  6
CONTINUOUS
  0
LAYER
  5
3F9
330
2
100
AcDbSymbolTableRecord
100
AcDbLayerTableRecord
  2
AM_0
 70
     0
 62
     7
  6
CONTINUOUS
  0
LAYER
  5
BD7
330
2
100
AcDbSymbolTableRecord
100
AcDbLayerTableRecord
  2
AM_7
 70
     0
 62
     4
  6
AM_ISO08W050
  0
LAYER
  5
BD8
330
2
100
AcDbSymbolTableRecord
100
AcDbLayerTableRecord
  2
AM_5
 70
     0
 62
     3
  6
CONTINUOUS
  0
LAYER
  5
BD9
330
2
100
AcDbSymbolTableRecord
100
AcDbLayerTableRecord
  2
DEFPOINTS
 70
     0
 62
     7
  6
CONTINUOUS
  0
LAYER
  5
BDA
330
2
100
AcDbSymbolTableRecord
100
AcDbLayerTableRecord
  2
AM_6
 70
     0
 62
     2
  6
CONTINUOUS
  0
LAYER
  5
952F
330
2
100
AcDbSymbolTableRecord
100
AcDbLayerTableRecord
  2
AM_11
 70
     0
 62
     3
  6
AM_ISO09W050
  0
ENDTAB
  0
TABLE
  2
STYLE
  5
3
330
0
100
AcDbSymbolTable
 70
     5
  0
STYLE
  5
11
330
3
100
AcDbSymbolTableRecord
100
AcDbTextStyleTableRecord
  2
STANDARD
 70
     0
 40
0.0
 41
1.0
 50
0.0
 71
     0
 42
2.5
  3
simplex.shx
  4
EXTFONT.SHX
  0
STYLE
  5
52
330
3
100
AcDbSymbolTableRecord
100
AcDbTextStyleTableRecord
  2

 70
     1
 40
0.0
 41
1.0
 50
0.0
 71
     0
 42
2.5
  3
ltypeshp.shx
  4

  0
STYLE
  5
6B
330
3
100
AcDbSymbolTableRecord
100
AcDbTextStyleTableRecord
  2
ASAMI
 70
     0
 40
0.0
 41
1.0
 50
0.0
 71
     0
 42
2.5
  3
simplex.shx
  4
EXTFONT.SHX
  0
STYLE
  5
262
330
3
100
AcDbSymbolTableRecord
100
AcDbTextStyleTableRecord
  2
ACJISTS
 70
     0
 40
1.0
 41
1.0
 50
0.0
 71
     0
 42
2.5
  3
simplex.shx
  4
bigfont.shx
  0
STYLE
  5
269
330
3
100
AcDbSymbolTableRecord
100
AcDbTextStyleTableRecord
  2
ACJISGDT
 70
     0
 40
0.0
 41
1.0
 50
0.0
 71
     0
 42
2.5
  3
amgdtans.shx
  4

  0
ENDTAB
  0
TABLE
  2
VIEW
  5
6
330
0
100
AcDbSymbolTable
 70
     0
  0
ENDTAB
  0
TABLE
  2
UCS
  5
7
330
0
100
AcDbSymbolTable
 70
     0
  0
ENDTAB
  0
TABLE
  2
APPID
  5
9
330
0
100
AcDbSymbolTable
 70
    21
  0
APPID
  5
12
330
9
100
AcDbSymbolTableRecord
100
AcDbRegAppTableRecord
  2
ACAD
 70
     0
  0
APPID
  5
30
330
9
100
AcDbSymbolTableRecord
100
AcDbRegAppTableRecord
  2
MCAD_NO_VIS
 70
     0
  0
APPID
  5
31
330
9
100
AcDbSymbolTableRecord
100
AcDbRegAppTableRecord
  2
ACAD_TEMP_GRAPHIC
 70
     0
  0
APPID
  5
2C2
330
9
100
AcDbSymbolTableRecord
100
AcDbRegAppTableRecord
  2
GENIUS_GENDTOL_13
 70
     0
  0
APPID
  5
339
330
9
100
AcDbSymbolTableRecord
100
AcDbRegAppTableRecord
  2
GENIUS_GENODEF_13
 70
     0
  0
APPID
  5
33A
330
9
100
AcDbSymbolTableRecord
100
AcDbRegAppTableRecord
  2
GENIUS_GENOBJ-N-RSBK_13
 70
     0
  0
APPID
  5
33B
330
9
100
AcDbSymbolTableRecord
100
AcDbRegAppTableRecord
  2
GENIUS_GENOBJ-N-LIB_13
 70
     0
  0
APPID
  5
33C
330
9
100
AcDbSymbolTableRecord
100
AcDbRegAppTableRecord
  2
GENIUS_GENSCALE_13
 70
     0
  0
APPID
  5
378
330
9
100
AcDbSymbolTableRecord
100
AcDbRegAppTableRecord
  2
GENIUS_GENDIMSH_14
 70
     0
  0
APPID
  5
BDB
330
9
100
AcDbSymbolTableRecord
100
AcDbRegAppTableRecord
  2
GENIUS_GENOBJ-N-CEN_13
 70
     0
  0
APPID
  5
BDC
330
9
100
AcDbSymbolTableRecord
100
AcDbRegAppTableRecord
  2
GENIUS_GENFIL_13
 70
     0
  0
APPID
  5
BDD
330
9
100
AcDbSymbolTableRecord
100
AcDbRegAppTableRecord
  2
GENIUS_GENOBJ-N-FIL_13
 70
     0
  0
APPID
  5
12AD
330
9
100
AcDbSymbolTableRecord
100
AcDbRegAppTableRecord
  2
GENIUS_GENOREF_13
 70
     0
  0
APPID
  5
68E9
330
9
100
AcDbSymbolTableRecord
100
AcDbRegAppTableRecord
  2
GEVID1060695448
 70
     0
  0
APPID
  5
68EA
330
9
100
AcDbSymbolTableRecord
100
AcDbRegAppTableRecord
  2
GEVDC
 70
     0
  0
APPID
  5
68ED
330
9
100
AcDbSymbolTableRecord
100
AcDbRegAppTableRecord
  2
GENIUS_GENBH_13
 70
     0
  0
APPID
  5
68EF
330
9
100
AcDbSymbolTableRecord
100
AcDbRegAppTableRecord
  2
GENIUS_GENOBJ-NBEHI-BHF_13
 70
     0
  0
APPID
  5
68F0
330
9
100
AcDbSymbolTableRecord
100
AcDbRegAppTableRecord
  2
GENIUS_GENOENT_13
 70
     0
  0
APPID
  5
68F1
330
9
100
AcDbSymbolTableRecord
100
AcDbRegAppTableRecord
  2
GENIUS_GENOLIS_13
 70
     0
  0
APPID
  5
68F3
330
9
100
AcDbSymbolTableRecord
100
AcDbRegAppTableRecord
  2
GENIUS_GENOBJ-NBEHI-BHB_13
 70
     0
  0
APPID
  5
6B27
330
9
100
AcDbSymbolTableRecord
100
AcDbRegAppTableRecord
  2
GENIUS_GENOBJ-N-CHA_13
 70
     0
  0
ENDTAB
  0
TABLE
  2
DIMSTYLE
  5
A
330
0
100
AcDbSymbolTable
 70
     8
  0
DIMSTYLE
105
58
102
{ACAD_REACTORS
330
8E9B
330
8EA8
330
8FCF
330
904E
330
905B
102
}
330
A
100
AcDbSymbolTableRecord
100
AcDbDimStyleTableRecord
  2
AM_JIS
 70
     0
  3

  4
"
  5
OPEN30
  6

  7

 40
1.0
 41
2.5
 42
1.0
 43
12.0
 44
1.0
 45
0.0
 46
0.0
 47
0.1
 48
0.1
140
3.2
141
0.0
142
0.0
143
0.0393701
144
1.0
145
0.0
146
0.71
147
1.5
 71
     0
 72
     0
 73
     0
 74
     0
 75
     0
 76
     0
 77
     3
 78
     8
170
     0
171
     2
172
     1
173
     0
174
     0
175
     0
176
     3
177
     3
178
     2
270
     2
271
     3
272
     3
273
     2
274
     2
340
6B
275
     0
280
     0
281
     0
282
     0
283
     0
284
     0
285
     0
286
     0
287
     3
288
     0
  0
DIMSTYLE
105
5F
330
A
100
AcDbSymbolTableRecord
100
AcDbDimStyleTableRecord
  2
AM_JIS$3
 70
     0
  3

  4
"
  5
OPEN30
  6

  7

 40
1.0
 41
2.5
 42
1.0
 43
10.0
 44
1.0
 45
0.0
 46
0.0
 47
0.1
 48
0.1
140
3.2
141
0.0
142
0.0
143
0.0393701
144
1.0
145
0.0
146
0.71
147
1.5
 71
     0
 72
     0
 73
     0
 74
     1
 75
     0
 76
     0
 77
     3
 78
     8
170
     0
171
     2
172
     0
173
     0
174
     0
175
     0
176
     3
177
     3
178
     2
270
     2
271
     2
272
     3
273
     2
274
     2
340
6B
275
     0
280
     0
281
     0
282
     0
283
     0
284
     0
285
     0
286
     0
287
     0
288
     1
  0
DIMSTYLE
105
60
330
A
100
AcDbSymbolTableRecord
100
AcDbDimStyleTableRecord
  2
AM_JIS$4
 70
     0
  3

  4
"
  5
OPEN30
  6

  7

 40
1.0
 41
2.5
 42
1.0
 43
10.0
 44
1.0
 45
0.0
 46
0.0
 47
0.1
 48
0.1
140
3.2
141
0.0
142
0.0
143
0.0393701
144
1.0
145
0.0
146
0.71
147
1.5
 71
     0
 72
     0
 73
     0
 74
     1
 75
     0
 76
     0
 77
     3
 78
     8
170
     0
171
     2
172
     0
173
     0
174
     0
175
     0
176
     3
177
     3
178
     2
270
     2
271
     2
272
     3
273
     2
274
     2
340
6B
275
     0
280
     0
281
     0
282
     0
283
     0
284
     0
285
     0
286
     0
287
     0
288
     1
  0
DIMSTYLE
105
61
330
A
100
AcDbSymbolTableRecord
100
AcDbDimStyleTableRecord
  2
AM_JIS$6
 70
     0
  3

  4
"
  5
OPEN30
  6

  7

 40
1.0
 41
2.5
 42
1.0
 43
10.0
 44
1.0
 45
0.0
 46
0.0
 47
0.1
 48
0.1
140
3.2
141
0.0
142
0.0
143
0.0393701
144
1.0
145
0.0
146
0.71
147
1.5
 71
     0
 72
     0
 73
     0
 74
     0
 75
     0
 76
     0
 77
     0
 78
     8
170
     0
171
     2
172
     1
173
     0
174
     0
175
     0
176
     3
177
     3
178
     2
270
     2
271
     2
272
     2
273
     2
274
     2
340
6B
275
     0
280
     0
281
     0
282
     0
283
     0
284
     0
285
     0
286
     0
287
     3
288
     0
  0
DIMSTYLE
105
62
330
A
100
AcDbSymbolTableRecord
100
AcDbDimStyleTableRecord
  2
AM_JIS$7
 70
     0
  3

  4
"
  5
OPEN30
  6

  7

 40
1.0
 41
2.5
 42
1.0
 43
10.0
 44
1.0
 45
0.0
 46
0.0
 47
0.1
 48
0.1
140
3.2
141
0.0
142
0.0
143
0.0393701
144
1.0
145
0.0
146
0.71
147
1.5
 71
     0
 72
     0
 73
     0
 74
     0
 75
     0
 76
     0
 77
     3
 78
     8
170
     0
171
     2
172
     1
173
     0
174
     0
175
     0
176
     3
177
     3
178
     2
270
     2
271
     2
272
     3
273
     2
274
     2
340
6B
275
     0
280
     0
281
     0
282
     0
283
     0
284
     0
285
     0
286
     0
287
     3
288
     0
  0
DIMSTYLE
105
63
330
A
100
AcDbSymbolTableRecord
100
AcDbDimStyleTableRecord
  2
AM_JIS$SF
 70
     0
  3

  4
"
  5
OPEN30
  6

  7

 40
1.0
 41
2.5
 42
1.0
 43
10.0
 44
1.0
 45
0.0
 46
0.0
 47
0.1
 48
0.1
140
3.2
141
0.0
142
0.0
143
0.0393701
144
1.0
145
0.0
146
0.71
147
1.5
 71
     0
 72
     0
 73
     0
 74
     0
 75
     1
 76
     1
 77
     3
 78
     8
170
     0
171
     2
172
     1
173
     0
174
     0
175
     0
176
   256
177
   256
178
     2
270
     2
271
     2
272
     2
273
     2
274
     2
340
6B
275
     0
280
     0
281
     0
282
     0
283
     0
284
     0
285
     0
286
     0
287
     3
288
     0
  0
DIMSTYLE
105
68
330
A
100
AcDbSymbolTableRecord
100
AcDbDimStyleTableRecord
  2
AM_JIS$SH
 70
     0
  3

  4
"
  5

  6
GENAXEH
  7
OPEN30
 40
1.0
 41
2.5
 42
1.0
 43
10.0
 44
1.0
 45
0.0
 46
0.0
 47
0.1
 48
0.1
140
3.2
141
0.0
142
0.0
143
0.0393701
144
2.0
145
0.0
146
0.71
147
1.5
 71
     0
 72
     0
 73
     0
 74
     0
 75
     1
 76
     1
 77
     3
 78
     8
170
     0
171
     2
172
     1
173
     1
174
     0
175
     0
176
   256
177
   256
178
     2
270
     2
271
     2
272
     2
273
     2
274
     2
340
6B
275
     0
280
     0
281
     0
282
     0
283
     0
284
     0
285
     0
286
     0
287
     3
288
     0
  0
DIMSTYLE
105
B34
102
{ACAD_REACTORS
330
8EE8
330
93A3
102
}
330
A
100
AcDbSymbolTableRecord
100
AcDbDimStyleTableRecord
  2
AM_JIS$2
 70
     0
  3

  4
"
  5
OPEN30
  6

  7

 40
1.0
 41
2.5
 42
1.0
 43
12.0
 44
1.0
 45
0.0
 46
0.0
 47
0.1
 48
0.1
140
3.2
141
0.0
142
0.0
143
0.0393701
144
1.0
145
0.0
146
0.71
147
1.5
 71
     0
 72
     0
 73
     0
 74
     0
 75
     0
 76
     0
 77
     3
 78
     8
170
     0
171
     2
172
     1
173
     0
174
     0
175
     0
176
     3
177
     3
178
     2
270
     2
271
     3
272
     3
273
     2
274
     2
340
6B
275
     0
280
     0
281
     0
282
     0
283
     0
284
     0
285
     0
286
     0
287
     3
288
     0
  0
ENDTAB
  0
TABLE
  2
BLOCK_RECORD
  5
1
330
0
100
AcDbSymbolTable
 70
    12
  0
BLOCK_RECORD
  5
1F
102
{ACAD_XDICTIONARY
360
74
102
}
330
1
100
AcDbSymbolTableRecord
100
AcDbBlockTableRecord
  2
*MODEL_SPACE
  0
BLOCK_RECORD
  5
101
102
{ACAD_XDICTIONARY
360
9603
102
}
330
1
100
AcDbSymbolTableRecord
100
AcDbBlockTableRecord
  2
*PAPER_SPACE
  0
BLOCK_RECORD
  5
59
330
1
100
AcDbSymbolTableRecord
100
AcDbBlockTableRecord
  2
_OPEN30
  0
BLOCK_RECORD
  5
64
330
1
100
AcDbSymbolTableRecord
100
AcDbBlockTableRecord
  2
GENAXEH
  0
BLOCK_RECORD
  5
8E9C
330
1
100
AcDbSymbolTableRecord
100
AcDbBlockTableRecord
  2
*D5
  0
BLOCK_RECORD
  5
8EA9
330
1
100
AcDbSymbolTableRecord
100
AcDbBlockTableRecord
  2
*D6
  0
BLOCK_RECORD
  5
8EE9
330
1
100
AcDbSymbolTableRecord
100
AcDbBlockTableRecord
  2
*D7
  0
BLOCK_RECORD
  5
8FD0
330
1
100
AcDbSymbolTableRecord
100
AcDbBlockTableRecord
  2
*D8
  0
BLOCK_RECORD
  5
904F
330
1
100
AcDbSymbolTableRecord
100
AcDbBlockTableRecord
  2
*D9
  0
BLOCK_RECORD
  5
905C
330
1
100
AcDbSymbolTableRecord
100
AcDbBlockTableRecord
  2
*D10
  0
BLOCK_RECORD
  5
93A4
330
1
100
AcDbSymbolTableRecord
100
AcDbBlockTableRecord
  2
*D11
  0
ENDTAB
  0
ENDSEC
  0
SECTION
  2
BLOCKS
  0
BLOCK
  5
20
330
1F
100
AcDbEntity
  8
0
100
AcDbBlockBegin
  2
*MODEL_SPACE
 70
     0
 10
0.0
 20
0.0
 30
0.0
  3
*MODEL_SPACE
  1

  0
ENDBLK
  5
21
330
1F
100
AcDbEntity
  8
0
100
AcDbBlockEnd
  0
BLOCK
  5
103
330
101
100
AcDbEntity
 67
     1
  8
0
100
AcDbBlockBegin
  2
*PAPER_SPACE
 70
     0
 10
0.0
 20
0.0
 30
0.0
  3
*PAPER_SPACE
  1

  0
ENDBLK
  5
104
330
101
100
AcDbEntity
 67
     1
  8
0
100
AcDbBlockEnd
  0
BLOCK
  5
5D
330
59
100
AcDbEntity
  8
0
100
AcDbBlockBegin
  2
_OPEN30
 70
     0
 10
0.0
 20
0.0
 30
0.0
  3
_OPEN30
  1

  0
LINE
  5
5A
330
59
100
AcDbEntity
  8
0
 62
     0
100
AcDbLine
 10
-1.0
 20
0.26794919
 30
0.0
 11
0.0
 21
0.0
 31
0.0
  0
LINE
  5
5B
330
59
100
AcDbEntity
  8
0
 62
     0
100
AcDbLine
 10
0.0
 20
0.0
 30
0.0
 11
-1.0
 21
-0.26794919
 31
0.0
  0
LINE
  5
5C
330
59
100
AcDbEntity
  8
0
 62
     0
100
AcDbLine
 10
0.0
 20
0.0
 30
0.0
 11
-1.0
 21
0.0
 31
0.0
  0
ENDBLK
  5
5E
330
59
100
AcDbEntity
  8
0
100
AcDbBlockEnd
  0
BLOCK
  5
66
330
64
100
AcDbEntity
  8
0
100
AcDbBlockBegin
  2
GENAXEH
 70
     0
 10
0.0
 20
0.0
 30
0.0
  3
GENAXEH
  1

  0
LINE
  5
65
330
64
100
AcDbEntity
  8
0
100
AcDbLine
 10
-1.0
 20
0.0
 30
0.0
 11
1.0
 21
0.0
 31
0.0
  0
ENDBLK
  5
67
330
64
100
AcDbEntity
  8
0
100
AcDbBlockEnd
  0
BLOCK
  5
8EA6
330
8E9C
100
AcDbEntity
  8
0
100
AcDbBlockBegin
  2
*D5
 70
     1
 10
0.0
 20
0.0
 30
0.0
  3
*D5
  1

  0
LINE
  5
950D
330
8E9C
100
AcDbEntity
  8
AM_5
 62
     3
100
AcDbLine
 10
0.0000000000000001
 20
1.000000000000003
 30
0.0
 11
0.0000000000000017
 21
27.50000000000001
 31
0.0
  0
LINE
  5
950E
330
8E9C
100
AcDbEntity
  8
AM_5
 62
     3
100
AcDbLine
 10
-150.0
 20
13.5
 30
0.0
 11
-150.0
 21
27.50000000000001
 31
0.0
  0
LINE
  5
950F
330
8E9C
100
AcDbEntity
  8
AM_5
 62
     3
100
AcDbLine
 10
-2.499999999999998
 20
26.50000000000002
 30
0.0
 11
-147.5
 21
26.50000000000002
 31
0.0
  0
INSERT
  5
9510
330
8E9C
100
AcDbEntity
  8
AM_5
 62
     3
100
AcDbBlockReference
  2
_OPEN30
 10
0.0000000000000016
 20
26.50000000000002
 30
0.0
 41
2.5
 42
2.5
 43
2.5
  0
INSERT
  5
9511
330
8E9C
100
AcDbEntity
  8
AM_5
 62
     3
100
AcDbBlockReference
  2
_OPEN30
 10
-150.0
 20
26.50000000000002
 30
0.0
 41
2.5
 42
2.5
 43
2.5
 50
180.0
  0
MTEXT
  5
9512
330
8E9C
100
AcDbEntity
  8
AM_5
 62
     2
100
AcDbMText
 10
-75.0
 20
29.60000000000002
 30
0.0
 40
3.2
 41
0.0
 71
     5
 72
     1
  1
150
  7
ASAMI
1001
ACAD
1000
MTEXTBEGIN
1070
    73
1070
     1
1070
    44
1040
1.0
1070
    74
1070
     0
1000
MTEXTEND
  0
POINT
  5
9513
330
8E9C
100
AcDbEntity
  8
DEFPOINTS
 62
     0
100
AcDbPoint
 10
0.0
 20
0.0000000000000031
 30
0.0
  0
POINT
  5
9514
330
8E9C
100
AcDbEntity
  8
DEFPOINTS
 62
     0
100
AcDbPoint
 10
-150.0
 20
12.5
 30
0.0
  0
POINT
  5
9515
330
8E9C
100
AcDbEntity
  8
DEFPOINTS
 62
     0
100
AcDbPoint
 10
-150.0
 20
26.50000000000002
 30
0.0
  0
ENDBLK
  5
8EA7
330
8E9C
100
AcDbEntity
  8
0
100
AcDbBlockEnd
  0
BLOCK
  5
8EB5
330
8EA9
100
AcDbEntity
  8
0
100
AcDbBlockBegin
  2
*D6
 70
     1
 10
0.0
 20
0.0
 30
0.0
  3
*D6
  1

  0
LINE
  5
94FB
330
8EA9
100
AcDbEntity
  8
AM_5
 62
     3
100
AcDbLine
 10
1.0
 20
0.0000000000000028
 30
0.0
 11
15.48471454515278
 21
-0.0000000000000013
 31
0.0
  0
LINE
  5
94FC
330
8EA9
100
AcDbEntity
  8
AM_5
 62
     3
100
AcDbLine
 10
-19.8506350736884
 20
-12.5
 30
0.0
 11
15.48471454515277
 21
-12.5
 31
0.0
  0
LINE
  5
94FD
330
8EA9
100
AcDbEntity
  8
AM_5
 62
     3
100
AcDbLine
 10
14.48471454515277
 20
-2.5
 30
0.0
 11
14.48471454515277
 21
-10.0
 31
0.0
  0
INSERT
  5
94FE
330
8EA9
100
AcDbEntity
  8
AM_5
 62
     3
100
AcDbBlockReference
  2
_OPEN30
 10
14.48471454515277
 20
-0.000000000000001
 30
0.0
 41
2.5
 42
2.5
 43
2.5
 50
90.0
  0
INSERT
  5
94FF
330
8EA9
100
AcDbEntity
  8
AM_5
 62
     3
100
AcDbBlockReference
  2
_OPEN30
 10
14.48471454515277
 20
-12.5
 30
0.0
 41
2.5
 42
2.5
 43
2.5
 50
270.0
  0
MTEXT
  5
9500
330
8EA9
100
AcDbEntity
  8
AM_5
 62
     2
100
AcDbMText
 10
11.38471454515277
 20
-6.250000000000001
 30
0.0
 40
3.2
 41
0.0
 71
     5
 72
     1
  1
12.5
  7
ASAMI
 11
0.0000000000000001
 21
1.0
 31
0.0
1001
ACAD
1000
MTEXTBEGIN
1070
    73
1070
     1
1070
    44
1040
1.0
1070
    74
1070
     0
1000
MTEXTEND
  0
POINT
  5
9501
330
8EA9
100
AcDbEntity
  8
DEFPOINTS
 62
     0
100
AcDbPoint
 10
0.0
 20
0.0000000000000031
 30
0.0
  0
POINT
  5
9502
330
8EA9
100
AcDbEntity
  8
DEFPOINTS
 62
     0
100
AcDbPoint
 10
-20.8506350736884
 20
-12.49999999999999
 30
0.0
  0
POINT
  5
9503
330
8EA9
100
AcDbEntity
  8
DEFPOINTS
 62
     0
100
AcDbPoint
 10
14.48471454515277
 20
-12.5
 30
0.0
  0
ENDBLK
  5
8EB6
330
8EA9
100
AcDbEntity
  8
0
100
AcDbBlockEnd
  0
BLOCK
  5
8EF7
330
8EE9
100
AcDbEntity
  8
0
100
AcDbBlockBegin
  2
*D7
 70
     1
 10
0.0
 20
0.0
 30
0.0
  3
*D7
  1

  0
LINE
  5
9605
330
8EE9
100
AcDbEntity
  8
AM_0
 62
     3
100
AcDbLine
 10
-0.0000000000000036
 20
15.33877799972765
 30
0.0
 11
-0.0000000000000249
 21
19.36297998539458
 31
0.0
  0
LINE
  5
9606
330
8EE9
100
AcDbEntity
  8
AM_0
 62
     3
100
AcDbLine
 10
-14.35352539297703
 20
8.748891977686096
 30
0.0
 11
-16.36883255409899
 21
9.912430111519775
 31
0.0
  0
ARC
  5
9607
330
8EE9
100
AcDbEntity
  8
AM_0
 62
     3
100
AcDbCircle
 10
0.0000000000000022
 20
0.4618802149825028
 30
0.0
 40
17.90109977041208
100
AcDbArc
 50
98.00822920795738
 51
141.99177075238
  0
INSERT
  5
9608
330
8EE9
100
AcDbEntity
  8
AM_0
 62
     3
100
AcDbBlockReference
  2
_OPEN30
 10
-0.0000000000000213
 20
18.36297998539459
 30
0.0
 41
2.5
 42
2.5
 43
2.5
 50
4.004114603978721
  0
INSERT
  5
9609
330
8EE9
100
AcDbEntity
  8
AM_0
 62
     3
100
AcDbBlockReference
  2
_OPEN30
 10
-15.50280715066068
 20
9.412430110920267
 30
0.0
 41
2.5
 42
2.5
 43
2.5
 50
235.9958853563586
  0
MTEXT
  5
960A
330
8EE9
100
AcDbEntity
  8
AM_0
 62
     2
100
AcDbMText
 10
-10.50054987891096
 20
18.64936612720537
 30
0.0
 40
3.2
 41
0.0
 71
     5
 72
     1
  1
60°
  7
ASAMI
 11
0.8660254039574992
 21
0.4999999997002502
 31
0.0
  0
POINT
  5
960B
330
8EE9
100
AcDbEntity
  8
DEFPOINTS
 62
     0
100
AcDbPoint
 10
-6.122536705281914
 20
17.28341157460381
 30
0.0
  0
POINT
  5
960C
330
8EE9
100
AcDbEntity
  8
DEFPOINTS
 62
     0
100
AcDbPoint
 10
-0.399999999999997
 20
0.6928203230275486
 30
0.0
  0
POINT
  5
960D
330
8EE9
100
AcDbEntity
  8
DEFPOINTS
 62
     0
100
AcDbPoint
 10
0.0000000000000018
 20
14.33877799972765
 30
0.0
  0
POINT
  5
960E
330
8EE9
100
AcDbEntity
  8
DEFPOINTS
 62
     0
100
AcDbPoint
 10
0.0000000000000016
 20
1.03247479298116
 30
0.0
  0
POINT
  5
960F
330
8EE9
100
AcDbEntity
  8
DEFPOINTS
 62
     0
100
AcDbPoint
 10
-13.48749998953872
 20
8.248891977086588
 30
0.0
  0
ENDBLK
  5
8EF8
330
8EE9
100
AcDbEntity
  8
0
100
AcDbBlockEnd
  0
BLOCK
  5
8FDB
330
8FD0
100
AcDbEntity
  8
0
100
AcDbBlockBegin
  2
*D8
 70
     1
 10
0.0
 20
0.0
 30
0.0
  3
*D8
  1

  0
LINE
  5
9610
330
8FD0
100
AcDbEntity
  8
AM_5
 62
     3
100
AcDbLine
 10
-1.400317098087141
 20
74.65148055215832
 30
0.0
 11
31.22475772148608
 21
74.65148055215832
 31
0.0
  0
LINE
  5
9611
330
8FD0
100
AcDbEntity
  8
AM_5
 62
     3
100
AcDbLine
 10
1.000000000000001
 20
50.15148055215832
 30
0.0
 11
31.22475772148607
 21
50.15148055215831
 31
0.0
  0
LINE
  5
9612
330
8FD0
100
AcDbEntity
  8
AM_5
 62
     3
100
AcDbLine
 10
30.22475772148608
 20
72.15148055215832
 30
0.0
 11
30.22475772148607
 21
52.65148055215831
 31
0.0
  0
MTEXT
  5
9613
330
8FD0
100
AcDbEntity
  8
AM_5
 62
     2
100
AcDbMText
 10
27.12475772148607
 20
62.40148055215833
 30
0.0
 40
3.2
 41
0.0
 71
     5
 72
     1
  1
24.5
  7
ASAMI
 11
0.0000000000000001
 21
1.0
 31
0.0
  0
INSERT
  5
9614
330
8FD0
100
AcDbEntity
  8
AM_5
 62
     3
100
AcDbBlockReference
  2
_OPEN30
 10
30.22475772148608
 20
74.65148055215832
 30
0.0
 41
2.5
 42
2.5
 43
2.5
 50
90.0
  0
INSERT
  5
9615
330
8FD0
100
AcDbEntity
  8
AM_5
 62
     3
100
AcDbBlockReference
  2
_OPEN30
 10
30.22475772148607
 20
50.15148055215831
 30
0.0
 41
2.5
 42
2.5
 43
2.5
 50
270.0
  0
POINT
  5
9616
330
8FD0
100
AcDbEntity
  8
DEFPOINTS
 62
     0
100
AcDbPoint
 10
-2.400317098087141
 20
74.65148055215832
 30
0.0
  0
POINT
  5
9617
330
8FD0
100
AcDbEntity
  8
DEFPOINTS
 62
     0
100
AcDbPoint
 10
0.0000000000000016
 20
50.15148055215832
 30
0.0
  0
POINT
  5
9618
330
8FD0
100
AcDbEntity
  8
DEFPOINTS
 62
     0
100
AcDbPoint
 10
30.22475772148607
 20
50.15148055215831
 30
0.0
  0
ENDBLK
  5
8FDC
330
8FD0
100
AcDbEntity
  8
0
100
AcDbBlockEnd
  0
BLOCK
  5
9059
330
904F
100
AcDbEntity
  8
0
100
AcDbBlockBegin
  2
*D9
 70
     1
 10
0.0
 20
0.0
 30
0.0
  3
*D9
  1

  0
LINE
  5
94C6
330
904F
100
AcDbEntity
  8
AM_5
 62
     3
100
AcDbLine
 10
-151.0
 20
12.5
 30
0.0
 11
-165.1912411586574
 21
12.5
 31
0.0
  0
LINE
  5
94C7
330
904F
100
AcDbEntity
  8
AM_5
 62
     3
100
AcDbLine
 10
-151.0
 20
-12.49999999999999
 30
0.0
 11
-165.1912411586574
 21
-12.49999999999999
 31
0.0
  0
LINE
  5
94C8
330
904F
100
AcDbEntity
  8
AM_5
 62
     3
100
AcDbLine
 10
-164.1912411586574
 20
10.0
 30
0.0
 11
-164.1912411586574
 21
-9.999999999999992
 31
0.0
  0
INSERT
  5
94C9
330
904F
100
AcDbEntity
  8
AM_5
 62
     3
100
AcDbBlockReference
  2
_OPEN30
 10
-164.1912411586574
 20
12.5
 30
0.0
 41
2.5
 42
2.5
 43
2.5
 50
90.0
  0
INSERT
  5
94CA
330
904F
100
AcDbEntity
  8
AM_5
 62
     3
100
AcDbBlockReference
  2
_OPEN30
 10
-164.1912411586574
 20
-12.49999999999999
 30
0.0
 41
2.5
 42
2.5
 43
2.5
 50
270.0
  0
MTEXT
  5
94CB
330
904F
100
AcDbEntity
  8
AM_5
 62
     2
100
AcDbMText
 10
-167.2912411586574
 20
-0.0000000000000207
 30
0.0
 40
3.2
 41
0.0
 71
     5
 72
     1
  1
25
  7
ASAMI
 11
0.0000000000000001
 21
1.0
 31
0.0
1001
ACAD
1000
MTEXTBEGIN
1070
    73
1070
     1
1070
    44
1040
1.0
1070
    74
1070
     0
1000
MTEXTEND
  0
POINT
  5
94CC
330
904F
100
AcDbEntity
  8
DEFPOINTS
 62
     0
100
AcDbPoint
 10
-150.0
 20
12.5
 30
0.0
  0
POINT
  5
94CD
330
904F
100
AcDbEntity
  8
DEFPOINTS
 62
     0
100
AcDbPoint
 10
-150.0
 20
-12.49999999999999
 30
0.0
  0
POINT
  5
94CE
330
904F
100
AcDbEntity
  8
DEFPOINTS
 62
     0
100
AcDbPoint
 10
-164.1912411586574
 20
-12.49999999999999
 30
0.0
  0
ENDBLK
  5
905A
330
904F
100
AcDbEntity
  8
0
100
AcDbBlockEnd
  0
BLOCK
  5
9066
330
905C
100
AcDbEntity
  8
0
100
AcDbBlockBegin
  2
*D10
 70
     1
 10
0.0
 20
0.0
 30
0.0
  3
*D10
  1

  0
LINE
  5
94BD
330
905C
100
AcDbEntity
  8
AM_5
 62
     3
100
AcDbLine
 10
-151.0
 20
74.65148055215832
 30
0.0
 11
-165.991462736115
 21
74.65148055215833
 31
0.0
  0
LINE
  5
94BE
330
905C
100
AcDbEntity
  8
AM_5
 62
     3
100
AcDbLine
 10
-151.0
 20
49.65148055215832
 30
0.0
 11
-165.9914627361151
 21
49.65148055215832
 31
0.0
  0
LINE
  5
94BF
330
905C
100
AcDbEntity
  8
AM_5
 62
     3
100
AcDbLine
 10
-164.991462736115
 20
72.15148055215833
 30
0.0
 11
-164.9914627361151
 21
52.15148055215832
 31
0.0
  0
INSERT
  5
94C0
330
905C
100
AcDbEntity
  8
AM_5
 62
     3
100
AcDbBlockReference
  2
_OPEN30
 10
-164.991462736115
 20
74.65148055215833
 30
0.0
 41
2.5
 42
2.5
 43
2.5
 50
90.0
  0
INSERT
  5
94C1
330
905C
100
AcDbEntity
  8
AM_5
 62
     3
100
AcDbBlockReference
  2
_OPEN30
 10
-164.9914627361151
 20
49.65148055215832
 30
0.0
 41
2.5
 42
2.5
 43
2.5
 50
270.0
  0
MTEXT
  5
94C2
330
905C
100
AcDbEntity
  8
AM_5
 62
     2
100
AcDbMText
 10
-168.0914627361151
 20
62.1514805521583
 30
0.0
 40
3.2
 41
0.0
 71
     5
 72
     1
  1
25
  7
ASAMI
 11
0.0000000000000001
 21
1.0
 31
0.0
1001
ACAD
1000
MTEXTBEGIN
1070
    73
1070
     1
1070
    44
1040
1.0
1070
    74
1070
     0
1000
MTEXTEND
  0
POINT
  5
94C3
330
905C
100
AcDbEntity
  8
DEFPOINTS
 62
     0
100
AcDbPoint
 10
-150.0
 20
74.65148055215832
 30
0.0
  0
POINT
  5
94C4
330
905C
100
AcDbEntity
  8
DEFPOINTS
 62
     0
100
AcDbPoint
 10
-150.0
 20
49.65148055215832
 30
0.0
  0
POINT
  5
94C5
330
905C
100
AcDbEntity
  8
DEFPOINTS
 62
     0
100
AcDbPoint
 10
-164.9914627361151
 20
49.65148055215832
 30
0.0
  0
ENDBLK
  5
9067
330
905C
100
AcDbEntity
  8
0
100
AcDbBlockEnd
  0
BLOCK
  5
93B4
330
93A4
100
AcDbEntity
  8
0
100
AcDbBlockBegin
  2
*D11
 70
     1
 10
0.0
 20
0.0
 30
0.0
  3
*D11
  1

  0
LINE
  5
9580
330
93A4
100
AcDbEntity
  8
AM_5
 62
     3
100
AcDbLine
 10
1.513653289334348
 20
50.15148055215832
 30
0.0
 11
19.477177610876
 21
50.15148055215826
 31
0.0
  0
LINE
  5
9581
330
93A4
100
AcDbEntity
  8
AM_5
 62
     3
100
AcDbLine
 10
0.9925461516413228
 20
50.27334989556347
 30
0.0
 11
19.33199768250949
 21
52.52515139898124
 31
0.0
  0
ARC
  5
9582
330
93A4
100
AcDbEntity
  8
AM_5
 62
     3
100
AcDbCircle
 10
0.0
 20
50.15148055215833
 30
0.0
 40
18.477177610876
100
AcDbArc
 50
344.4478273894883
 51
359.9999999999997
  0
LINE
  5
9583
330
93A4
100
AcDbEntity
  8
AM_5
 62
     3
100
AcDbLine
 10
17.80066736330212
 20
45.19745856139887
 30
0.0
 11
14.08739215651176
 21
31.85501137247573
 31
0.0
  0
ARC
  5
9584
330
93A4
100
AcDbEntity
  8
AM_5
 62
     3
100
AcDbCircle
 10
0.0
 20
50.15148055215833
 30
0.0
 40
18.477177610876
100
AcDbArc
 50
344.483676330507
 51
352.2418381652534
  0
ARC
  5
9585
330
93A4
100
AcDbEntity
  8
AM_5
 62
     3
100
AcDbCircle
 10
0.0
 20
50.15148055215833
 30
0.0
 40
18.477177610876
100
AcDbArc
 50
14.75816183474637
 51
22.51632366949273
  0
ARC
  5
9586
330
93A4
100
AcDbEntity
  8
AM_5
 62
     3
100
AcDbCircle
 10
0.0
 20
50.15148055215833
 30
0.0
 40
18.477177610876
100
AcDbArc
 50
359.9999999999997
 51
7.000000000000022
  0
INSERT
  5
9587
330
93A4
100
AcDbEntity
  8
AM_5
 62
     3
100
AcDbBlockReference
  2
_OPEN30
 10
18.477177610876
 20
50.15148055215826
 30
0.0
 41
2.5
 42
2.5
 43
2.5
 50
86.12091908262661
  0
INSERT
  5
9588
330
93A4
100
AcDbEntity
  8
AM_5
 62
     3
100
AcDbBlockReference
  2
_OPEN30
 10
18.33945153086817
 20
52.40328205557609
 30
0.0
 41
2.5
 42
2.5
 43
2.5
 50
280.8790809173732
  0
MTEXT
  5
9589
330
93A4
100
AcDbEntity
  8
AM_5
 62
     2
100
AcDbMText
 10
18.93052856336896
 20
37.69507619936046
 30
0.0
 40
3.2
 41
0.0
 71
     5
 72
     1
  1
-7°
  7
ASAMI
 11
-0.2681157314764031
 21
-0.963386710794203
 31
0.0
1001
ACAD
1000
MTEXTBEGIN
1070
    73
1070
     1
1070
    44
1040
1.0
1070
    74
1070
     0
1000
MTEXTEND
  0
POINT
  5
958A
330
93A4
100
AcDbEntity
  8
DEFPOINTS
 62
     0
100
AcDbPoint
 10
18.41592369847441
 20
51.65475923418181
 30
0.0
  0
POINT
  5
958B
330
93A4
100
AcDbEntity
  8
DEFPOINTS
 62
     0
100
AcDbPoint
 10
-18.24999999999997
 20
47.91066231568032
 30
0.0
  0
POINT
  5
958C
330
93A4
100
AcDbEntity
  8
DEFPOINTS
 62
     0
100
AcDbPoint
 10
0.0000000000000018
 20
50.15148055215833
 30
0.0
  0
POINT
  5
958D
330
93A4
100
AcDbEntity
  8
DEFPOINTS
 62
     0
100
AcDbPoint
 10
0.5136532893343482
 20
50.15148055215833
 30
0.0
  0
POINT
  5
958E
330
93A4
100
AcDbEntity
  8
DEFPOINTS
 62
     0
100
AcDbPoint
 10
0.0000000000000013
 20
50.15148055215833
 30
0.0
  0
ENDBLK
  5
93B5
330
93A4
100
AcDbEntity
  8
0
100
AcDbBlockEnd
  0
ENDSEC
  0
SECTION
  2
ENTITIES
  0
TEXT
  5
C58
330
1F
100
AcDbEntity
  8
AM_6
100
AcDbText
 10
-106.4285714285714
 20
-35.0000000000001
 30
0.0
 40
5.0
  1
ETENN2525M43W
 50
0.0000000000002036
 72
     4
 11
-75.0
 21
-32.49999999999999
 31
0.0
100
AcDbText
  0
POINT
  5
68EE
330
1F
100
AcDbEntity
  8
0
 60
     1
100
AcDbPoint
 10
0.0
 20
0.0
 30
0.0
1001
GENIUS_GENOBJ-NBEHI-BHF_13
1002
{
1000
OWNER
1000
GENBEHI
1002
}
1001
GENIUS_GENOENT_13
1002
{
1000
MYREF
1005
68EE
1002
}
1002
{
1000
GRP
1005
0
1002
}
1001
GENIUS_GENOLIS_13
1002
{
1000
ENT
1005
68EB
1002
}
1001
GENIUS_GENBH_13
1002
{
1000
OIUMAP
1000
OIU
1002
}
1002
{
1000
FLAGS
1070
    32
1002
}
1002
{
1000
BGO
1005
68F2
1002
}
1001
GENIUS_GENODEF_13
1002
{
1000
HIER
1070
     1
1002
}
1002
{
1000
MANEDIT
1070
     1
1002
}
1002
{
1000
NOSEL
1070
     1
1002
}
1002
{
1000
BEHIND
1070
     0
1002
}
1002
{
1000
REACTOR
1002
}
  0
POINT
  5
68F2
330
1F
100
AcDbEntity
  8
0
 60
     1
100
AcDbPoint
 10
0.0
 20
0.0
 30
0.0
1001
GENIUS_GENOBJ-NBEHI-BHB_13
1002
{
1000
OWNER
1000
GENBEHI
1002
}
1001
GENIUS_GENOENT_13
1002
{
1000
MYREF
1005
68F2
1002
}
1002
{
1000
GRP
1005
0
1002
}
1001
GENIUS_GENOLIS_13
1002
{
1000
ENT
1002
}
1001
GENIUS_GENODEF_13
1002
{
1000
HIER
1070
     1
1002
}
1002
{
1000
MANEDIT
1070
     0
1002
}
1002
{
1000
NOSEL
1070
     1
1002
}
1002
{
1000
BEHIND
1070
     0
1002
}
1002
{
1000
REACTOR
1002
}
1002
{
1000
OTHER
1070
     1
1002
}
1001
GENIUS_GENBH_13
1002
{
1000
FGO
1005
68EE
1002
}
  0
LINE
  5
8E6F
330
1F
100
AcDbEntity
  8
AM_0
100
AcDbLine
 10
-150.0
 20
74.65148055215832
 30
0.0
 11
-150.0
 21
49.65148055215832
 31
0.0
  0
LINE
  5
8E77
330
1F
100
AcDbEntity
  8
AM_0
100
AcDbLine
 10
-150.0
 20
49.65148055215832
 30
0.0
 11
-31.0
 21
49.65148055215832
 31
0.0
  0
LINE
  5
8E78
330
1F
100
AcDbEntity
  8
AM_0
100
AcDbLine
 10
-150.0
 20
74.65148055215832
 30
0.0
 11
-3.021534355013953
 21
74.65148055215832
 31
0.0
  0
LINE
  5
8E79
330
1F
100
AcDbEntity
  8
AM_0
100
AcDbLine
 10
0.0000000000000016
 20
50.15148055215832
 30
0.0
 11
-0.9676425866368829
 21
58.03229699619042
 31
0.0
  0
LINE
  5
8E7A
330
1F
100
AcDbEntity
  8
AM_0
100
AcDbLine
 10
-150.0
 20
12.5
 30
0.0
 11
-150.0
 21
-12.49999999999999
 31
0.0
  0
LINE
  5
8E80
330
1F
100
AcDbEntity
  8
AM_0
100
AcDbLine
 10
-18.24999999999997
 20
47.91066231568031
 30
0.0
 11
0.0000000000000016
 21
50.15148055215832
 31
0.0
  0
LINE
  5
8E82
330
1F
100
AcDbEntity
  8
AM_0
100
AcDbLine
 10
-0.9807574787809853
 20
58.03068668991721
 30
0.0
 11
-3.021534355013953
 21
74.65148055215832
 31
0.0
  0
LINE
  5
8E84
330
1F
100
AcDbEntity
  8
AM_0
100
AcDbLine
 10
-19.41019614921697
 20
57.3597016793057
 30
0.0
 11
-18.15678420052043
 21
47.15148055215832
 31
0.0
  0
LINE
  5
8E8F
330
1F
100
AcDbEntity
  8
AM_7
100
AcDbLine
 10
-8.276312492033609
 20
45.42591880138326
 30
0.0
 11
-12.93482228674076
 21
83.36643640759126
 31
0.0
  0
DIMENSION
  5
8E9B
330
1F
100
AcDbEntity
  8
AM_5
100
AcDbDimension
  2
*D5
 10
-150.0
 20
26.50000000000002
 30
0.0
 11
-75.0
 21
29.60000000000002
 31
0.0
 70
    32
  3
AM_JIS
100
AcDbAlignedDimension
 13
0.0
 23
0.0000000000000031
 33
0.0
 14
-150.0
 24
12.5
 34
0.0
 50
180.0
100
AcDbRotatedDimension
  0
DIMENSION
  5
8EA8
330
1F
100
AcDbEntity
  8
AM_5
100
AcDbDimension
  2
*D6
 10
14.48471454515277
 20
-12.5
 30
0.0
 11
11.38471454515277
 21
-6.250000000000001
 31
0.0
 70
    32
  3
AM_JIS
100
AcDbAlignedDimension
 13
0.0
 23
0.0000000000000031
 33
0.0
 14
-20.8506350736884
 24
-12.49999999999999
 34
0.0
 50
270.0
100
AcDbRotatedDimension
  0
DIMENSION
  5
8EE8
330
1F
100
AcDbEntity
  8
AM_0
100
AcDbDimension
  2
*D7
 10
-13.48749998953872
 20
8.248891977086588
 30
0.0
 11
-10.50054987891096
 21
18.64936612720537
 31
0.0
 70
    34
  3
AM_JIS$2
100
AcDb2LineAngularDimension
 13
0.0000000000000016
 23
14.33877799972765
 33
0.0
 14
0.0000000000000015
 24
1.03247479298116
 34
0.0
 15
-0.399999999999997
 25
0.6928203230275488
 35
0.0
 16
-6.122536705281914
 26
17.28341157460381
 36
0.0
1001
ACAD
1000
DSTYLE
1002
{
1070
   271
1070
     0
1002
}
  0
DIMENSION
  5
8FCF
330
1F
100
AcDbEntity
  8
AM_5
100
AcDbDimension
  2
*D8
 10
30.22475772148607
 20
50.15148055215831
 30
0.0
 11
30.22475772148607
 21
62.40148055215833
 31
0.0
 70
   160
  3
AM_JIS
100
AcDbAlignedDimension
 13
-2.400317098087141
 23
74.65148055215832
 33
0.0
 14
0.0000000000000016
 24
50.15148055215832
 34
0.0
 50
270.0
100
AcDbRotatedDimension
1001
ACAD
1000
DSTYLE
1002
{
1070
   287
1070
     4
1070
   279
1070
     1
1002
}
  0
DIMENSION
  5
904E
330
1F
100
AcDbEntity
  8
AM_5
100
AcDbDimension
  2
*D9
 10
-164.1912411586574
 20
-12.49999999999999
 30
0.0
 11
-167.2912411586574
 21
-0.0000000000000207
 31
0.0
 70
    32
  3
AM_JIS
100
AcDbAlignedDimension
 13
-150.0
 23
12.5
 33
0.0
 14
-150.0
 24
-12.49999999999999
 34
0.0
 50
270.0
100
AcDbRotatedDimension
  0
DIMENSION
  5
905B
330
1F
100
AcDbEntity
  8
AM_5
100
AcDbDimension
  2
*D10
 10
-164.9914627361151
 20
49.65148055215832
 30
0.0
 11
-168.0914627361151
 21
62.1514805521583
 31
0.0
 70
    32
  3
AM_JIS
100
AcDbAlignedDimension
 13
-150.0
 23
74.65148055215832
 33
0.0
 14
-150.0
 24
49.65148055215832
 34
0.0
 50
270.0
100
AcDbRotatedDimension
  0
LINE
  5
9104
330
1F
100
AcDbEntity
  8
AM_0
100
AcDbLine
 10
-18.83009807460848
 20
52.63518199749301
 30
0.0
 11
-0.5800980746085129
 21
54.87600023397102
 31
0.0
  0
LINE
  5
9105
330
1F
100
AcDbEntity
  8
AM_0
100
AcDbLine
 10
-24.2272104985183
 20
74.65148055215832
 30
0.0
 11
-20.85063507368843
 21
47.15148055215832
 31
0.0
  0
LINE
  5
9135
330
1F
100
AcDbEntity
  8
AM_0
100
AcDbLine
 10
-20.85063507368843
 20
12.5
 30
0.0
 11
-18.24999999999997
 21
10.99852264014199
 31
0.0
  0
LINE
  5
91A9
330
1F
100
AcDbEntity
  8
AM_0
100
AcDbLine
 10
-19.98310911196074
 20
56.28184698728077
 30
0.0
 11
-19.28832680581183
 21
56.36715552766439
 31
0.0
  0
LINE
  5
91AA
330
1F
100
AcDbEntity
  8
AM_0
100
AcDbLine
 10
-19.03767860598105
 20
51.86413704225691
 30
0.0
 11
-18.73991476048866
 21
51.90069784527843
 31
0.0
  0
LINE
  5
91AB
330
1F
100
AcDbEntity
  8
AM_0
100
AcDbLine
 10
-19.58609065130423
 20
56.33059472464284
 30
0.0
 11
-19.03767860598105
 21
51.86413704225691
 31
0.0
  0
LINE
  5
91AC
330
1F
100
AcDbEntity
  8
AM_0
100
AcDbLine
 10
-20.1049784553659
 20
57.27439313892209
 30
0.0
 11
-19.98310911196077
 21
56.28184698728078
 31
0.0
  0
LINE
  5
91B0
330
1F
100
AcDbEntity
  8
AM_0
100
AcDbLine
 10
-150.0
 20
-12.49999999999999
 30
0.0
 11
-20.85063507368841
 21
-12.49999999999999
 31
0.0
  0
LINE
  5
91B1
330
1F
100
AcDbEntity
  8
AM_0
100
AcDbLine
 10
-150.0
 20
12.5
 30
0.0
 11
-20.85063507368843
 21
12.5
 31
0.0
  0
CIRCLE
  5
9214
330
1F
100
AcDbEntity
  8
AM_0
100
AcDbCircle
 10
-11.89999999999998
 20
0.0000000000000051
 30
0.0
 40
2.5125
  0
LINE
  5
921F
330
1F
100
AcDbEntity
  8
AM_0
100
AcDbLine
 10
-18.24999999999997
 20
9.612881982007266
 30
0.0
 11
-18.24999999999998
 21
10.99852264014199
 31
0.0
  0
LINE
  5
9220
330
1F
100
AcDbEntity
  8
AM_0
100
AcDbLine
 10
-30.0
 20
-12.49999999999999
 30
0.0
 11
-30.0
 21
12.5
 31
0.0
  0
LINE
  5
9222
330
1F
100
AcDbEntity
  8
AM_0
100
AcDbLine
 10
-20.85063507368843
 20
-12.5
 30
0.0
 11
-18.24999999999997
 21
-10.99852264014198
 31
0.0
  0
LINE
  5
9223
330
1F
100
AcDbEntity
  8
AM_0
100
AcDbLine
 10
-18.24999999999997
 20
-9.612881982007262
 30
0.0
 11
-18.24999999999998
 21
-10.99852264014198
 31
0.0
  0
LINE
  5
9225
330
1F
100
AcDbEntity
  8
AM_0
100
AcDbLine
 10
-30.0
 20
47.15148055215832
 30
0.0
 11
-18.15678420052043
 21
47.15148055215832
 31
0.0
  0
LINE
  5
9226
330
1F
100
AcDbEntity
  8
AM_0
100
AcDbLine
 10
-30.0
 20
48.65148055215833
 30
0.0
 11
-30.0
 21
47.15148055215832
 31
0.0
  0
LINE
  5
9227
330
1F
100
AcDbEntity
  8
AM_0
100
AcDbLine
 10
-30.0
 20
48.65148055215833
 30
0.0
 11
-31.0
 21
49.65148055215832
 31
0.0
  0
LINE
  5
9229
330
1F
100
AcDbEntity
  8
AM_0
100
AcDbLine
 10
-20.1049784553659
 20
57.2743931389221
 30
0.0
 11
-1.160196149216998
 21
59.60051991578371
 31
0.0
  0
LINE
  5
927E
330
1F
100
AcDbEntity
  8
AM_0
100
AcDbLine
 10
-9.40344184168007
 20
79.22217783841708
 30
0.0
 11
-8.842230782366712
 21
74.65148055215832
 31
0.0
  0
LINE
  5
927F
330
1F
100
AcDbEntity
  8
AM_0
100
AcDbLine
 10
-15.358718751528
 20
78.4909617779862
 30
0.0
 11
-14.88728973511979
 21
74.65148055215832
 31
0.0
  0
LINE
  5
932E
330
1F
100
AcDbEntity
  8
AM_0
100
AcDbLine
 10
-15.35871875152799
 20
78.4909617779862
 30
0.0
 11
-9.40344184168007
 21
79.22217783841708
 31
0.0
  0
DIMENSION
  5
93A3
330
1F
100
AcDbEntity
  8
AM_5
100
AcDbDimension
  2
*D11
 10
0.0000000000000015
 20
50.15148055215832
 30
0.0
 11
18.93052856336897
 21
37.69507619936046
 31
0.0
 70
    34
  1
-<>
  3
AM_JIS$2
100
AcDb2LineAngularDimension
 13
0.0000000000000016
 23
50.15148055215832
 33
0.0
 14
0.513653289334348
 24
50.15148055215832
 34
0.0
 15
-18.24999999999997
 25
47.91066231568031
 35
0.0
 16
18.41592369847441
 26
51.65475923418181
 36
0.0
1001
ACAD
1000
DSTYLE
1002
{
1070
   179
1070
     3
1002
}
1001
GENIUS_GENDTOL_13
1000

1000
h7
1000

1040
0.0
  0
LINE
  5
9517
330
1F
100
AcDbEntity
  8
AM_0
100
AcDbLine
 10
-17.04999999999999
 20
-10.3057023050348
 30
0.0
 11
-0.3999999999999989
 21
-0.6928203230275491
 31
0.0
  0
ARC
  5
9518
330
1F
100
AcDbEntity
  8
AM_0
100
AcDbCircle
 10
-0.8
 20
0.0000000000000031
 30
0.0
 40
0.8
100
AcDbArc
 50
299.9999999999998
 51
59.99999999999975
  0
LINE
  5
9519
330
1F
100
AcDbEntity
  8
AM_11
100
AcDbLine
 10
0.7999999999999992
 20
0.0000000000000026
 30
0.0
 11
-0.3999999999999995
 21
0.6928203230275538
 31
0.0
  0
ARC
  5
951A
330
1F
100
AcDbEntity
  8
AM_0
100
AcDbCircle
 10
-17.44999999999997
 20
9.612881982007266
 30
0.0
 40
0.8000000000000021
100
AcDbArc
 50
60.00000000000021
 51
180.0
  0
LINE
  5
951B
330
1F
100
AcDbEntity
  8
AM_0
100
AcDbLine
 10
-18.24999999999997
 20
9.612881982007266
 30
0.0
 11
-18.24999999999998
 21
-9.612881982007262
 31
0.0
  0
ARC
  5
951C
330
1F
100
AcDbEntity
  8
AM_0
100
AcDbCircle
 10
-17.44999999999999
 20
-9.612881982007262
 30
0.0
 40
0.7999999999999972
100
AcDbArc
 50
180.0
 51
300.0
  0
LINE
  5
9522
330
1F
100
AcDbEntity
  8
AM_0
100
AcDbLine
 10
-0.3999999999999995
 20
0.6928203230275538
 30
0.0
 11
-17.04999999999997
 21
10.30570230503482
 31
0.0
  0
LINE
  5
9526
330
1F
100
AcDbEntity
  8
AM_11
100
AcDbLine
 10
-0.3999999999999989
 20
-0.6928203230275491
 30
0.0
 11
0.7999999999999992
 21
0.0000000000000026
 31
0.0
  0
LEADER
  5
95B2
330
1F
100
AcDbEntity
  8
AM_5
  6
CONTINUOUS
 48
0.5
100
AcDbLeader
  3
AM_JIS$7
 76
     2
 10
28.06074896421213
 20
1.845590360038556
 30
0.0
 10
28.06074896421205
 20
11.84559036003855
 30
0.0
211
-1.0
221
-0.0000000000000078
231
0.0
1001
ACAD
1000
DSTYLE
1002
{
1070
     6
1000
OPEN30
1070
   173
1070
     1
1070
   176
1070
     0
1070
   341
1005
59
1002
}
  0
MTEXT
  5
95B3
330
1F
100
AcDbEntity
  8
AM_6
100
AcDbMText
 10
15.06074896421205
 20
11.84559036003847
 30
0.0
 40
4.0
 41
0.0
 71
     5
 72
     5
  1
\T1.4;\W0.59;-7°
  7
ASAMI
1001
ACAD
1000
MTEXTBEGIN
1070
    73
1070
     1
1070
    44
1040
1.0
1070
    74
1070
     0
1000
MTEXTEND
  0
MTEXT
  5
95B4
330
1F
100
AcDbEntity
  8
AM_6
100
AcDbMText
 10
30.60832555111071
 20
-2.154409639961428
 30
0.0
 40
4.0
 41
0.0
 71
     5
 72
     5
  1
\T1.40;\W0.59;０°
  7
ASAMI
1001
ACAD
1000
MTEXTBEGIN
1070
    73
1070
     1
1070
    44
1040
1.0
1070
    74
1070
     0
1000
MTEXTEND
  0
LEADER
  5
95B5
330
1F
100
AcDbEntity
  8
AM_5
  6
CONTINUOUS
 48
0.5
100
AcDbLeader
  3
AM_JIS$7
 76
     2
 10
18.06074896421205
 20
11.84559036003847
 30
0.0
 10
28.06074896421205
 20
11.84559036003855
 30
0.0
211
-1.0
221
-0.0000000000000078
231
0.0
1001
ACAD
1000
DSTYLE
1002
{
1070
     6
1000
OPEN30
1070
   173
1070
     1
1070
   176
1070
     0
1070
   341
1005
59
1002
}
  0
VIEWPORT
  5
110
330
101
100
AcDbEntity
 67
     1
  8
0
100
AcDbViewport
 10
420.5
 20
297.0
 30
0.0
 40
948.9782706766916
 41
628.452
 68
     1
 69
     1
1001
ACAD
1000
MVIEW
1002
{
1070
    16
1010
0.0
1020
0.0
1030
0.0
1010
0.0
1020
0.0
1030
1.0
1040
0.0
1040
628.452
1040
420.5
1040
297.0
1040
50.0
1040
0.0
1040
0.0
1070
     0
1070
   100
1070
     1
1070
     1
1070
     0
1070
     0
1070
     0
1070
     0
1040
0.0
1040
0.0
1040
0.0
1040
10.0
1040
10.0
1040
10.0
1040
10.0
1070
     0
1002
{
1002
}
1002
}
  0
ENDSEC
  0
SECTION
  2
OBJECTS
  0
DICTIONARY
  5
C
330
0
100
AcDbDictionary
  3
ACAD_GROUP
350
D
  3
ACAD_LAYOUT
350
1A
  3
ACAD_MLINESTYLE
350
17
  3
ACAD_PLOTSETTINGS
350
19
  3
ACAD_PLOTSTYLENAME
350
E
  3
ACDBVARIABLEDICTIONARY
350
34
  3
ACMDICTIONARY
350
43
  3
AMG
350
2B
  3
AMGSNAPSETTINGS
350
6E
  3
DWGPROPS
350
95CF
  3
ACDBHEADERROUNDTRIPXREC
350
95DB
  0
DICTIONARY
  5
74
330
1F
100
AcDbDictionary
280
     1
  3
ACAD_INDEX
360
95D1
  3
ACAD_LAYOUTSELFREF
360
95FE
  0
DICTIONARY
  5
9603
330
101
100
AcDbDictionary
280
     1
  3
ACAD_LAYOUTSELFREF
360
9604
  0
DICTIONARY
  5
D
102
{ACAD_REACTORS
330
C
102
}
330
C
100
AcDbDictionary
  3
*A1
350
8AC5
  3
*A2
350
8B73
  3
*A3
350
8D58
  0
DICTIONARY
  5
1A
102
{ACAD_REACTORS
330
C
102
}
330
C
100
AcDbDictionary
  0
DICTIONARY
  5
17
102
{ACAD_REACTORS
330
C
102
}
330
C
100
AcDbDictionary
  3
STANDARD
350
18
  0
DICTIONARY
  5
19
102
{ACAD_REACTORS
330
C
102
}
330
C
100
AcDbDictionary
  0
ACDBDICTIONARYWDFLT
  5
E
102
{ACAD_REACTORS
330
C
102
}
330
C
100
AcDbDictionary
281
     1
  3
Normal
350
F
100
AcDbDictionaryWithDefault
340
F
  0
DICTIONARY
  5
34
102
{ACAD_REACTORS
330
C
102
}
330
C
100
AcDbDictionary
  3
INDEXCTL
350
35
  3
SORTENTS
350
B5E
  0
DICTIONARY
  5
43
102
{ACAD_REACTORS
330
C
102
}
330
C
100
AcDbDictionary
  3
ACMSTDDICTIONARY
350
260
  0
DICTIONARY
  5
2B
102
{ACAD_REACTORS
330
C
102
}
330
C
100
AcDbDictionary
  3
ACMGSETTINGS
350
2C
  0
DICTIONARY
  5
6E
102
{ACAD_REACTORS
330
C
102
}
330
C
100
AcDbDictionary
  0
XRECORD
  5
95CF
102
{ACAD_REACTORS
330
C
102
}
330
C
100
AcDbXrecord
  1
DWGPROPS COOKIE
  2

  3

  4

  6

  7

  8

  9

300
AmdtFileType=82
301
=
302
=
303
=
304
=
305
=
306
=
307
=
308
=
309
=
 40
1.838792430555555
 41
2452838.620506898
 42
2452938.603742534
  1

 90
        1
  0
DICTIONARY
  5
95DB
102
{ACAD_REACTORS
330
C
102
}
330
C
100
AcDbDictionary
  3
TSTACKALIGN
350
95DC
  3
TSTACKSIZE
350
95DD
  3
HYPERLINKBASE
350
95DE
  3
STYLESHEET
350
95DF
  3
LAYOUTDICT
350
95E0
  3
PLOTSETDICT
350
95E1
  3
PLOTSTYLNAMDICT
350
95E2
  3
LWETCUNION
350
95E3
  3
INSUNITS
350
95E4
  3
CEPSNTYPE
350
95E5
  3
FINGERPRINTGUID
350
95E6
  3
VERSIONGUID
350
95E7
  3
PSVPSCALE
350
95E8
  3
DIMSTYLEDATA
350
95E9
  3
PUCSORTHOREF
350
95EA
  3
PUCSORTHOVIEW
350
95EB
  3
PUCSBASE
350
95EC
  3
PUCSORGTOP
350
95ED
  3
PUCSORGBOTTOM
350
95EE
  3
PUCSORGLEFT
350
95EF
  3
PUCSORGRIGHT
350
95F0
  3
PUCSORGFRONT
350
95F1
  3
PUCSORGBACK
350
95F2
  3
UCSORTHOREF
350
95F3
  3
UCSORTHOVIEW
350
95F4
  3
UCSBASE
350
95F5
  3
UCSORGTOP
350
95F6
  3
UCSORGBOTTOM
350
95F7
  3
UCSORGLEFT
350
95F8
  3
UCSORGRIGHT
350
95F9
  3
UCSORGFRONT
350
95FA
  3
UCSORGBACK
350
95FB
  0
DICTIONARY
  5
95D1
102
{ACAD_REACTORS
330
74
102
}
330
74
100
AcDbDictionary
  3
*A1
350
95D2
  0
XRECORD
  5
95FE
102
{ACAD_REACTORS
330
74
102
}
330
74
100
AcDbXrecord
340
1F
  0
XRECORD
  5
9604
102
{ACAD_REACTORS
330
9603
102
}
330
9603
100
AcDbXrecord
340
101
  0
GROUP
  5
8AC5
102
{ACAD_REACTORS
330
D
102
}
330
D
100
AcDbGroup
300

 70
     1
 71
     1
  0
GROUP
  5
8B73
102
{ACAD_REACTORS
330
D
102
}
330
D
100
AcDbGroup
300

 70
     1
 71
     1
  0
GROUP
  5
8D58
102
{ACAD_REACTORS
330
D
102
}
330
D
100
AcDbGroup
300

 70
     1
 71
     1
  0
MLINESTYLE
  5
18
102
{ACAD_REACTORS
330
17
102
}
330
17
100
AcDbMlineStyle
  2
STANDARD
 70
     0
  3

 62
   256
 51
90.0
 52
90.0
 71
     2
 49
0.5
 62
   256
  6
BYLAYER
 49
-0.5
 62
   256
  6
BYLAYER
  0
ACDBPLACEHOLDER
  5
F
102
{ACAD_REACTORS
330
E
102
}
330
E
100
AcDbPlaceHolder
280
     0
  0
DICTIONARYVAR
  5
35
102
{ACAD_REACTORS
330
34
102
}
330
34
100
DictionaryVariables
280
     0
  1
1
  0
DICTIONARYVAR
  5
B5E
102
{ACAD_REACTORS
330
34
102
}
330
34
100
DictionaryVariables
280
     0
  1
96
  0
DICTIONARY
  5
260
102
{ACAD_REACTORS
330
43
102
}
330
43
100
AcDbDictionary
  0
DICTIONARY
  5
2C
102
{ACAD_REACTORS
330
2B
102
}
330
2B
100
AcDbDictionary
  3
DWGSETTINGS
350
2D
  0
XRECORD
  5
95DC
102
{ACAD_REACTORS
330
95DB
102
}
330
95DB
100
AcDbXrecord
 90
        1
  0
XRECORD
  5
95DD
102
{ACAD_REACTORS
330
95DB
102
}
330
95DB
100
AcDbXrecord
 90
       70
  0
XRECORD
  5
95DE
102
{ACAD_REACTORS
330
95DB
102
}
330
95DB
100
AcDbXrecord
  1

  0
XRECORD
  5
95DF
102
{ACAD_REACTORS
330
95DB
102
}
330
95DB
100
AcDbXrecord
  1
ASAMI.ctb
  0
XRECORD
  5
95E0
102
{ACAD_REACTORS
330
95DB
102
}
330
95DB
100
AcDbXrecord
340
1A
  0
XRECORD
  5
95E1
102
{ACAD_REACTORS
330
95DB
102
}
330
95DB
100
AcDbXrecord
340
19
  0
XRECORD
  5
95E2
102
{ACAD_REACTORS
330
95DB
102
}
330
95DB
100
AcDbXrecord
340
E
  0
XRECORD
  5
95E3
102
{ACAD_REACTORS
330
95DB
102
}
330
95DB
100
AcDbXrecord
 90
    10781
  0
XRECORD
  5
95E4
102
{ACAD_REACTORS
330
95DB
102
}
330
95DB
100
AcDbXrecord
 90
        4
  0
XRECORD
  5
95E5
102
{ACAD_REACTORS
330
95DB
102
}
330
95DB
100
AcDbXrecord
 90
        0
  0
XRECORD
  5
95E6
102
{ACAD_REACTORS
330
95DB
102
}
330
95DB
100
AcDbXrecord
  1
{AFB28963-8C59-40AE-9337-C84526B81ACE}
  0
XRECORD
  5
95E7
102
{ACAD_REACTORS
330
95DB
102
}
330
95DB
100
AcDbXrecord
  1
{33888848-2FBF-4261-850A-E9FD5A4021EB}
  0
XRECORD
  5
95E8
102
{ACAD_REACTORS
330
95DB
102
}
330
95DB
100
AcDbXrecord
 40
0.0
  0
XRECORD
  5
95E9
102
{ACAD_REACTORS
330
95DB
102
}
330
95DB
100
AcDbXrecord
1000
DSTYLE
1002
{
1070
    79
 70
     2
1070
   341
340
59
1070
   342
340
59
1070
   371
 70
    -1
1070
   372
 70
    -1
1002
}
  0
XRECORD
  5
95EA
102
{ACAD_REACTORS
330
95DB
102
}
330
95DB
100
AcDbXrecord
340
0
  0
XRECORD
  5
95EB
102
{ACAD_REACTORS
330
95DB
102
}
330
95DB
100
AcDbXrecord
 70
     0
  0
XRECORD
  5
95EC
102
{ACAD_REACTORS
330
95DB
102
}
330
95DB
100
AcDbXrecord
340
0
  0
XRECORD
  5
95ED
102
{ACAD_REACTORS
330
95DB
102
}
330
95DB
100
AcDbXrecord
 10
0.0
 20
0.0
 30
0.0
  0
XRECORD
  5
95EE
102
{ACAD_REACTORS
330
95DB
102
}
330
95DB
100
AcDbXrecord
 10
0.0
 20
0.0
 30
0.0
  0
XRECORD
  5
95EF
102
{ACAD_REACTORS
330
95DB
102
}
330
95DB
100
AcDbXrecord
 10
0.0
 20
0.0
 30
0.0
  0
XRECORD
  5
95F0
102
{ACAD_REACTORS
330
95DB
102
}
330
95DB
100
AcDbXrecord
 10
0.0
 20
0.0
 30
0.0
  0
XRECORD
  5
95F1
102
{ACAD_REACTORS
330
95DB
102
}
330
95DB
100
AcDbXrecord
 10
0.0
 20
0.0
 30
0.0
  0
XRECORD
  5
95F2
102
{ACAD_REACTORS
330
95DB
102
}
330
95DB
100
AcDbXrecord
 10
0.0
 20
0.0
 30
0.0
  0
XRECORD
  5
95F3
102
{ACAD_REACTORS
330
95DB
102
}
330
95DB
100
AcDbXrecord
340
0
  0
XRECORD
  5
95F4
102
{ACAD_REACTORS
330
95DB
102
}
330
95DB
100
AcDbXrecord
 70
     0
  0
XRECORD
  5
95F5
102
{ACAD_REACTORS
330
95DB
102
}
330
95DB
100
AcDbXrecord
340
0
  0
XRECORD
  5
95F6
102
{ACAD_REACTORS
330
95DB
102
}
330
95DB
100
AcDbXrecord
 10
0.0
 20
0.0
 30
0.0
  0
XRECORD
  5
95F7
102
{ACAD_REACTORS
330
95DB
102
}
330
95DB
100
AcDbXrecord
 10
0.0
 20
0.0
 30
0.0
  0
XRECORD
  5
95F8
102
{ACAD_REACTORS
330
95DB
102
}
330
95DB
100
AcDbXrecord
 10
0.0
 20
0.0
 30
0.0
  0
XRECORD
  5
95F9
102
{ACAD_REACTORS
330
95DB
102
}
330
95DB
100
AcDbXrecord
 10
0.0
 20
0.0
 30
0.0
  0
XRECORD
  5
95FA
102
{ACAD_REACTORS
330
95DB
102
}
330
95DB
100
AcDbXrecord
 10
0.0
 20
0.0
 30
0.0
  0
XRECORD
  5
95FB
102
{ACAD_REACTORS
330
95DB
102
}
330
95DB
100
AcDbXrecord
 10
0.0
 20
0.0
 30
0.0
  0
LAYER_INDEX
  5
95D2
102
{ACAD_REACTORS
330
95D1
102
}
330
95D1
100
AcDbIndex
 40
2452941.592807071
100
AcDbLayerIndex
  8
0
360
95D3
 90
        2
  8
AM_0
360
95D4
 90
       36
  8
AM_7
360
95D5
 90
        1
  8
AM_5
360
95D6
 90
        8
  8
Defpoints
360
95D7
 90
        0
  8
AM_6
360
95D8
 90
        3
  8
AM_11
360
95D9
 90
        2
  0
XRECORD
  5
2D
102
{ACAD_REACTORS
330
2C
102
}
330
2C
100
AcDbXrecord
  1
VERSION
140
15.0
  1
PRODUCT
  2
AutoCAD Mechanical 2000
  0
IDBUFFER
  5
95D3
330
0
100
AcDbIdBuffer
330
68EE
330
68F2
  0
IDBUFFER
  5
95D4
330
0
100
AcDbIdBuffer
330
91B0
330
91B1
330
9214
330
921F
330
9220
330
9222
330
9223
330
9225
330
9226
330
9227
330
9229
330
927E
330
927F
330
932E
330
9517
330
9518
330
951A
330
951B
330
951C
330
9522
330
8E6F
330
8E77
330
8E78
330
8E79
330
8E7A
330
8E80
330
8E82
330
8E84
330
8EE8
330
9104
330
9105
330
9135
330
91A9
330
91AA
330
91AB
330
91AC
  0
IDBUFFER
  5
95D5
330
0
100
AcDbIdBuffer
330
8E8F
  0
IDBUFFER
  5
95D6
330
0
100
AcDbIdBuffer
330
8E9B
330
8EA8
330
8FCF
330
904E
330
905B
330
93A3
330
95B2
330
95B5
  0
IDBUFFER
  5
95D7
330
0
100
AcDbIdBuffer
  0
IDBUFFER
  5
95D8
330
0
100
AcDbIdBuffer
330
C58
330
95B3
330
95B4
  0
IDBUFFER
  5
95D9
330
0
100
AcDbIdBuffer
330
9519
330
9526
  0
ENDSEC
  0
EOF
