  0
SECTION
  2
HEADER
  9
$ACADVER
  1
AC1014
  9
$ACADMAINTVER
 70
     9
  9
$DWGCODEPAGE
  3
ANSI_932
  9
$INSBASE
 10
0.0
 20
0.0
 30
0.0
  9
$EXTMIN
 10
-118.7001478188881
 20
-42.49974570222611
 30
0.0
  9
$EXTMAX
 10
57.89724742321991
 20
55.59882314643569
 30
0.0
  9
$LIMMIN
 10
-126.0286117321877
 20
-55.16099520484044
  9
$LIMMAX
 10
67.38998793779365
 20
58.75692158986976
  9
$ORTHOMODE
 70
     0
  9
$REGENMODE
 70
     1
  9
$FILLMODE
 70
     1
  9
$QTEXTMODE
 70
     0
  9
$MIRRTEXT
 70
     0
  9
$DRAGMODE
 70
     2
  9
$LTSCALE
 40
1.0
  9
$OSMODE
 70
  2103
  9
$ATTMODE
 70
     1
  9
$TEXTSIZE
 40
2.5
  9
$TRACEWID
 40
1.0
  9
$TEXTSTYLE
  7
STANDARD
  9
$CLAYER
  8
AM_0
  9
$CELTYPE
  6
BYLAYER
  9
$CECOLOR
 62
   256
  9
$CELTSCALE
 40
1.0
  9
$DELOBJ
 70
     1
  9
$DISPSILH
 70
     0
  9
$DIMSCALE
 40
1.0
  9
$DIMASZ
 40
2.5
  9
$DIMEXO
 40
1.0
  9
$DIMDLI
 40
12.0
  9
$DIMRND
 40
0.0
  9
$DIMDLE
 40
0.0
  9
$DIMEXE
 40
1.0
  9
$DIMTP
 40
0.1
  9
$DIMTM
 40
0.1
  9
$DIMTXT
 40
3.2
  9
$DIMCEN
 40
0.0
  9
$DIMTSZ
 40
0.0
  9
$DIMTOL
 70
     0
  9
$DIMLIM
 70
     0
  9
$DIMTIH
 70
     0
  9
$DIMTOH
 70
     0
  9
$DIMSE1
 70
     0
  9
$DIMSE2
 70
     0
  9
$DIMTAD
 70
     3
  9
$DIMZIN
 70
     8
  9
$DIMBLK
  1
OPEN30
  9
$DIMASO
 70
     1
  9
$DIMSHO
 70
     1
  9
$DIMPOST
  1

  9
$DIMAPOST
  1
"
  9
$DIMALT
 70
     0
  9
$DIMALTD
 70
     2
  9
$DIMALTF
 40
0.0393701
  9
$DIMLFAC
 40
1.0
  9
$DIMTOFL
 70
     1
  9
$DIMTVP
 40
0.0
  9
$DIMTIX
 70
     0
  9
$DIMSOXD
 70
     0
  9
$DIMSAH
 70
     0
  9
$DIMBLK1
  1

  9
$DIMBLK2
  1

  9
$DIMSTYLE
  2
AM_JIS
  9
$DIMCLRD
 70
     3
  9
$DIMCLRE
 70
     3
  9
$DIMCLRT
 70
     2
  9
$DIMTFAC
 40
0.71
  9
$DIMGAP
 40
1.5
  9
$DIMJUST
 70
     0
  9
$DIMSD1
 70
     0
  9
$DIMSD2
 70
     0
  9
$DIMTOLJ
 70
     0
  9
$DIMTZIN
 70
     0
  9
$DIMALTZ
 70
     0
  9
$DIMALTTZ
 70
     0
  9
$DIMFIT
 70
     3
  9
$DIMUPT
 70
     0
  9
$DIMUNIT
 70
     2
  9
$DIMDEC
 70
     3
  9
$DIMTDEC
 70
     3
  9
$DIMALTU
 70
     2
  9
$DIMALTTD
 70
     2
  9
$DIMTXSTY
  7
ASAMI
  9
$DIMAUNIT
 70
     0
  9
$LUNITS
 70
     2
  9
$LUPREC
 70
     2
  9
$SKETCHINC
 40
1.0
  9
$FILLETRAD
 40
0.8
  9
$AUNITS
 70
     0
  9
$AUPREC
 70
     0
  9
$MENU
  1
.
  9
$ELEVATION
 40
0.0
  9
$PELEVATION
 40
0.0
  9
$THICKNESS
 40
0.0
  9
$LIMCHECK
 70
     0
  9
$BLIPMODE
 70
     0
  9
$CHAMFERA
 40
2.5
  9
$CHAMFERB
 40
2.5
  9
$CHAMFERC
 40
20.0
  9
$CHAMFERD
 40
0.0
  9
$SKPOLY
 70
     0
  9
$TDCREATE
 40
2452838.620506898
  9
$TDUPDATE
 40
2452941.592974895
  9
$TDINDWG
 40
0.6187432755
  9
$TDUSRTIMER
 40
0.6187432755
  9
$USRTIMER
 70
     1
  9
$ANGBASE
 50
0.0
  9
$ANGDIR
 70
     0
  9
$PDMODE
 70
     0
  9
$PDSIZE
 40
0.0
  9
$PLINEWID
 40
0.0
  9
$COORDS
 70
     0
  9
$SPLFRAME
 70
     0
  9
$SPLINETYPE
 70
     6
  9
$SPLINESEGS
 70
     8
  9
$ATTDIA
 70
     1
  9
$ATTREQ
 70
     1
  9
$HANDLING
 70
 12289
  9
$HANDSEED
  5
564D
  9
$SURFTAB1
 70
     6
  9
$SURFTAB2
 70
     6
  9
$SURFTYPE
 70
     6
  9
$SURFU
 70
     6
  9
$SURFV
 70
     6
  9
$UCSNAME
  2

  9
$UCSORG
 10
-0.0000000000000616
 20
0.0000000000003144
 30
0.0
  9
$UCSXDIR
 10
1.0
 20
0.0
 30
0.0
  9
$UCSYDIR
 10
0.0
 20
1.0
 30
0.0
  9
$PUCSNAME
  2

  9
$PUCSORG
 10
0.0
 20
0.0
 30
0.0
  9
$PUCSXDIR
 10
1.0
 20
0.0
 30
0.0
  9
$PUCSYDIR
 10
0.0
 20
1.0
 30
0.0
  9
$USERI1
 70
     0
  9
$USERI2
 70
     0
  9
$USERI3
 70
     0
  9
$USERI4
 70
     0
  9
$USERI5
 70
     0
  9
$USERR1
 40
0.0
  9
$USERR2
 40
0.0
  9
$USERR3
 40
0.0
  9
$USERR4
 40
0.0
  9
$USERR5
 40
0.0
  9
$WORLDVIEW
 70
     1
  9
$SHADEDGE
 70
     3
  9
$SHADEDIF
 70
    70
  9
$TILEMODE
 70
     1
  9
$MAXACTVP
 70
    64
  9
$PINSBASE
 10
0.0
 20
0.0
 30
0.0
  9
$PLIMCHECK
 70
     0
  9
$PEXTMIN
 10
1.000000000000000E+20
 20
1.000000000000000E+20
 30
1.000000000000000E+20
  9
$PEXTMAX
 10
-1.000000000000000E+20
 20
-1.000000000000000E+20
 30
-1.000000000000000E+20
  9
$PLIMMIN
 10
0.0
 20
0.0
  9
$PLIMMAX
 10
841.0
 20
594.0
  9
$UNITMODE
 70
     0
  9
$VISRETAIN
 70
     1
  9
$PLINEGEN
 70
     0
  9
$PSLTSCALE
 70
     0
  9
$TREEDEPTH
 70
  3020
  9
$PICKSTYLE
 70
     0
  9
$CMLSTYLE
  2
STANDARD
  9
$CMLJUST
 70
     0
  9
$CMLSCALE
 40
20.0
  9
$PROXYGRAPHICS
 70
     1
  9
$MEASUREMENT
 70
     1
  0
ENDSEC
  0
SECTION
  2
CLASSES
  0
CLASS
  1
ACDBDICTIONARYWDFLT
  2
AcDbDictionaryWithDefault
  3
AutoCAD 2000
 90
        0
280
     0
281
     0
  0
CLASS
  1
ACDBPLACEHOLDER
  2
AcDbPlaceHolder
  3
AutoCAD 2000
 90
        0
280
     0
281
     0
  0
CLASS
  1
LAYOUT
  2
AcDbLayout
  3
AutoCAD 2000
 90
        0
280
     0
281
     0
  0
CLASS
  1
AMGSETTINGSOBJ
  2
AmgSettingsObj
  3
"AcadM|Product Description: AutoCAD Mechanical 2000|Company: Autodesk"
 90
        0
280
     0
281
     0
  0
CLASS
  1
ACME_DOCUMENT
  2
AcMeDbDoc
  3
AcMeServices
 90
        0
280
     0
281
     0
  0
CLASS
  1
ACMESCOPE
  2
AcMeScope
  3
AcMeServices
 90
        0
280
     0
281
     0
  0
CLASS
  1
ACMECOMMANDHISTORY
  2
AcMeCommandHistory
  3
AcMeServices
 90
        0
280
     0
281
     0
  0
CLASS
  1
DICTIONARYVAR
  2
AcDbDictionaryVar
  3
AutoCAD 2000
 90
        0
280
     0
281
     0
  0
CLASS
  1
ACIMSYSVARMAN
  2
AcImSysVarManager
  3
AcMeServices
 90
        0
280
     0
281
     0
  0
CLASS
  1
ACIMREALSYSVAR
  2
AcImRealSysVar
  3
AcMeServices
 90
        0
280
     0
281
     0
  0
CLASS
  1
ACIMINTSYSVAR
  2
AcImIntSysVar
  3
AcMeServices
 90
        0
280
     0
281
     0
  0
CLASS
  1
ACMEDRAWINGMAN
  2
AcMeDrawingMan
  3
AcMeServices
 90
        0
280
     0
281
     0
  0
CLASS
  1
ACMEVIEW
  2
AcMeView
  3
AcMeServices
 90
        0
280
     0
281
     0
  0
CLASS
  1
ACDBENTITYCACHE
  2
AcMeEntityCache
  3
AcMeServices
 90
        0
280
     0
281
     0
  0
CLASS
  1
GSMANAGER
  2
AcMeGSManager
  3
AcMeServices
 90
        0
280
     0
281
     0
  0
CLASS
  1
AmdtInternalReactor
  2
AmdtInternalReactor
  3
AcMeServices
 90
        0
280
     0
281
     0
  0
CLASS
  1
ACMESTATEMGR
  2
AcMeStateMgr
  3
AcMeServices
 90
        0
280
     0
281
     0
  0
CLASS
  1
ACME_DATABASE
  2
AcMeDbDatabase
  3
AcMeServices
 90
        0
280
     0
281
     0
  0
CLASS
  1
ACRFINSADJUSTERMGR
  2
AcRfInsAdjusterMgr
  3
AcMeServices
 90
        0
280
     0
281
     0
  0
CLASS
  1
ACMDATADICTIONARY
  2
AcmDataDictionary
  3
"AcmSymBB|Product Description: AutoCAD Mechanical 2000|Company: Autodesk"
 90
        0
280
     0
281
     0
  0
CLASS
  1
ACMDATAENTRYBLOCK
  2
AcmDataEntryBlock
  3
"AcmSymBB|Product Description: AutoCAD Mechanical 2000|Company: Autodesk"
 90
        0
280
     0
281
     0
  0
CLASS
  1
AMGOBJPROPCFG
  2
AmgObjPropCfg
  3
"AmgLay|Product Description: AutoCAD Mechanical 2000|Company: Autodesk"
 90
        1
280
     0
281
     0
  0
CLASS
  1
ACAMGFILTERDAT
  2
AcAmgFilterDat
  3
"AcadM|Product Description: AutoCAD Mechanical 2000|Company: Autodesk"
 90
        0
280
     0
281
     0
  0
CLASS
  1
LAYER_INDEX
  2
AcDbLayerIndex
  3
AutoCAD 2000
 90
        0
280
     0
281
     0
  0
CLASS
  1
IDBUFFER
  2
AcDbIdBuffer
  3
AutoCAD 2000
 90
        0
280
     0
281
     0
  0
CLASS
  1
ACIMSTRSYSVAR
  2
AcImStrSysVar
  3
AcMeServices
 90
        0
280
     0
281
     0
  0
CLASS
  1
ACMSTANDARDJIS
  2
AcmStandardJIS
  3
"AcmSymBB|Product Description: AutoCAD Mechanical 2000|Company: Autodesk"
 90
        0
280
     0
281
     0
  0
CLASS
  1
ACMSURFSTANDARDJIS
  2
AcmSurfTextStdJIS
  3
"AcmSymBB|Product Description: AutoCAD Mechanical 2000|Company: Autodesk"
 90
        0
280
     0
281
     0
  0
CLASS
  1
ACMFCFSTANDARDJIS
  2
AcmFCFStdJIS
  3
"AcmSymBB|Product Description: AutoCAD Mechanical 2000|Company: Autodesk"
 90
        0
280
     0
281
     0
  0
CLASS
  1
ACMWELDSTANDARDJIS
  2
AcmWeldingStdJIS
  3
"AcmSymBB|Product Description: AutoCAD Mechanical 2000|Company: Autodesk"
 90
        0
280
     0
281
     0
  0
CLASS
  1
ACMIDSTANDARDJIS
  2
AcmIdStdJIS
  3
"AcmSymBB|Product Description: AutoCAD Mechanical 2000|Company: Autodesk"
 90
        0
280
     0
281
     0
  0
CLASS
  1
ACMDATUMSTANDARDJIS
  2
AcmDatumStdJIS
  3
"AcmSymBB|Product Description: AutoCAD Mechanical 2000|Company: Autodesk"
 90
        0
280
     0
281
     0
  0
CLASS
  1
ACMBOMSTANDARDJIS
  2
AcmBOMStdJIS
  3
"AcmSymBB|Product Description: AutoCAD Mechanical 2000|Company: Autodesk"
 90
        0
280
     0
281
     0
  0
CLASS
  1
ACMSTANDARDANSI
  2
AcmStandardANSI
  3
"AcmSymBB|Product Description: AutoCAD Mechanical 2000|Company: Autodesk"
 90
        0
280
     0
281
     0
  0
CLASS
  1
ACMSURFSTANDARDANSI
  2
AcmSurfTextStdANSI
  3
"AcmSymBB|Product Description: AutoCAD Mechanical 2000|Company: Autodesk"
 90
        0
280
     0
281
     0
  0
CLASS
  1
ACMFCFSTANDARDANSI
  2
AcmFCFStdANSI
  3
"AcmSymBB|Product Description: AutoCAD Mechanical 2000|Company: Autodesk"
 90
        0
280
     0
281
     0
  0
CLASS
  1
ACMWELDSTANDARDANSI
  2
AcmWeldingStdANSI
  3
"AcmSymBB|Product Description: AutoCAD Mechanical 2000|Company: Autodesk"
 90
        0
280
     0
281
     0
  0
CLASS
  1
ACMIDSTANDARDANSI
  2
AcmIdStdANSI
  3
"AcmSymBB|Product Description: AutoCAD Mechanical 2000|Company: Autodesk"
 90
        0
280
     0
281
     0
  0
CLASS
  1
ACMDATUMSTANDARDANSI
  2
AcmDatumStdANSI
  3
"AcmSymBB|Product Description: AutoCAD Mechanical 2000|Company: Autodesk"
 90
        0
280
     0
281
     0
  0
CLASS
  1
ACMBOMSTANDARDANSI
  2
AcmBOMStdANSI
  3
"AcmSymBB|Product Description: AutoCAD Mechanical 2000|Company: Autodesk"
 90
        0
280
     0
281
     0
  0
CLASS
  1
ACMSTANDARDBSI
  2
AcmStandardBSI
  3
"AcmSymBB|Product Description: AutoCAD Mechanical 2000|Company: Autodesk"
 90
        0
280
     0
281
     0
  0
CLASS
  1
ACMSURFSTANDARDBSI
  2
AcmSurfTextStdBSI
  3
"AcmSymBB|Product Description: AutoCAD Mechanical 2000|Company: Autodesk"
 90
        0
280
     0
281
     0
  0
CLASS
  1
ACMFCFSTANDARDBSI
  2
AcmFCFStdBSI
  3
"AcmSymBB|Product Description: AutoCAD Mechanical 2000|Company: Autodesk"
 90
        0
280
     0
281
     0
  0
CLASS
  1
ACMWELDSTANDARDBSI
  2
AcmWeldingStdBSI
  3
"AcmSymBB|Product Description: AutoCAD Mechanical 2000|Company: Autodesk"
 90
        0
280
     0
281
     0
  0
CLASS
  1
ACMIDSTANDARDBSI
  2
AcmIdStdBSI
  3
"AcmSymBB|Product Description: AutoCAD Mechanical 2000|Company: Autodesk"
 90
        0
280
     0
281
     0
  0
CLASS
  1
ACMDATUMSTANDARDBSI
  2
AcmDatumStdBSI
  3
"AcmSymBB|Product Description: AutoCAD Mechanical 2000|Company: Autodesk"
 90
        0
280
     0
281
     0
  0
CLASS
  1
ACMBOMSTANDARDBSI
  2
AcmBOMStdBSI
  3
"AcmSymBB|Product Description: AutoCAD Mechanical 2000|Company: Autodesk"
 90
        0
280
     0
281
     0
  0
CLASS
  1
LONG_TRANSACTION
  2
AcDbLongTransaction
  3
AutoCAD 2000
 90
        0
280
     0
281
     0
  0
CLASS
  1
LWPOLYLINE
  2
AcDbPolyline
  3
AutoCAD 2000
 90
        0
280
     0
281
     1
  0
CLASS
  1
HATCH
  2
AcDbHatch
  3
AutoCAD 2000
 90
        0
280
     0
281
     1
  0
CLASS
  1
XRECORD
  2
AcDbXrecord
  3
AutoCAD 2000
 90
        0
280
     0
281
     0
  0
ENDSEC
  0
SECTION
  2
TABLES
  0
TABLE
  2
VPORT
  5
8
330
0
100
AcDbSymbolTable
 70
     3
  0
VPORT
  5
5622
330
8
100
AcDbSymbolTableRecord
100
AcDbViewportTableRecord
  2
*ACTIVE
 70
     0
 10
0.0
 20
0.0
 11
1.0
 21
1.0
 12
-30.40218974521531
 22
6.551020644487181
 13
0.0
 23
0.0
 14
2.5
 24
2.5
 15
10.0
 25
10.0
 16
0.0
 26
0.0
 36
1.0
 17
0.0
 27
0.0
 37
0.0
 40
113.2459247136714
 41
1.56570841889117
 42
50.0
 43
0.0
 44
0.0
 50
0.0
 51
0.0
 71
     0
 72
   100
 73
     1
 74
     3
 75
     0
 76
     0
 77
     0
 78
     0
  0
ENDTAB
  0
TABLE
  2
LTYPE
  5
5
330
0
100
AcDbSymbolTable
 70
    10
  0
LTYPE
  5
14
330
5
100
AcDbSymbolTableRecord
100
AcDbLinetypeTableRecord
  2
BYBLOCK
 70
     0
  3

 72
    65
 73
     0
 40
0.0
  0
LTYPE
  5
15
330
5
100
AcDbSymbolTableRecord
100
AcDbLinetypeTableRecord
  2
BYLAYER
 70
     0
  3

 72
    65
 73
     0
 40
0.0
  0
LTYPE
  5
16
330
5
100
AcDbSymbolTableRecord
100
AcDbLinetypeTableRecord
  2
CONTINUOUS
 70
     0
  3
Solid line
 72
    65
 73
     0
 40
0.0
  0
LTYPE
  5
4B
330
5
100
AcDbSymbolTableRecord
100
AcDbLinetypeTableRecord
  2
AM_ISO02W050
 70
     0
  3
__ __ __ __ __ __ __ __ __ __ __ __ __ __ __
 72
    65
 73
     2
 40
7.5
 49
6.0
 74
     0
 49
-1.5
 74
     0
  0
LTYPE
  5
4C
330
5
100
AcDbSymbolTableRecord
100
AcDbLinetypeTableRecord
  2
AM_ISO08W050
 70
     0
  3
____ . ____ . ____ . ____ . ____ . ____ . ____
 72
    65
 73
     4
 40
18.0
 49
12.0
 74
     0
 49
-1.5
 74
     0
 49
3.0
 74
     0
 49
-1.5
 74
     0
  0
LTYPE
  5
4D
330
5
100
AcDbSymbolTableRecord
100
AcDbLinetypeTableRecord
  2
AM_ISO09W050
 70
     0
  3
_____ . . _____ . . _____ . . ____ .. ____
 72
    65
 73
     6
 40
22.5
 49
12.0
 74
     0
 49
-1.5
 74
     0
 49
3.0
 74
     0
 49
-1.5
 74
     0
 49
3.0
 74
     0
 49
-1.5
 74
     0
  0
LTYPE
  5
4E
330
5
100
AcDbSymbolTableRecord
100
AcDbLinetypeTableRecord
  2
AMCONSTR
 70
     0
  3
_______________________
 72
    65
 73
     2
 40
9999.0
 49
9999.0
 74
     0
 49
0.0
 74
     0
  0
LTYPE
  5
4F
330
5
100
AcDbSymbolTableRecord
100
AcDbLinetypeTableRecord
  2
AM_ISO02W050X2
 70
     0
  3
 _ _ _ _ _ _ _ _ _ _ _ _
 72
    65
 73
     2
 40
3.75
 49
3.0
 74
     0
 49
-0.75
 74
     0
  0
LTYPE
  5
50
330
5
100
AcDbSymbolTableRecord
100
AcDbLinetypeTableRecord
  2
AM_ISO08W050X2
 70
     0
  3
__ . __ . __ . __ . __ . __
 72
    65
 73
     4
 40
9.0
 49
6.0
 74
     0
 49
-0.75
 74
     0
 49
1.5
 74
     0
 49
-0.75
 74
     0
  0
LTYPE
  5
53
330
5
100
AcDbSymbolTableRecord
100
AcDbLinetypeTableRecord
  2
AMZIGZAG
 70
     0
  3
/\/-/\/-/\/-/\/-/\/-/\/
 72
    65
 73
     2
 40
11.00009999999999
 49
0.0001
 74
     4
 75
   135
340
52
 46
0.04
 50
0.0
 44
0.0
 45
0.0
 49
-11.0
 74
     0
  0
LTYPE
  5
166
330
5
100
AcDbSymbolTableRecord
100
AcDbLinetypeTableRecord
  2
ACJISTGL
 70
     0
  3
_ _ _ _ _
 72
    65
 73
     2
 40
3.0
 49
2.0
 74
     0
 49
-1.0
 74
     0
  0
LTYPE
  5
26A
330
5
100
AcDbSymbolTableRecord
100
AcDbLinetypeTableRecord
  2
ACJISTGB
 70
     0
  3
__ . . __ . .
 72
    65
 73
     6
 40
9.0
 49
4.0
 74
     0
 49
-1.0
 74
     0
 49
1.0
 74
     0
 49
-1.0
 74
     0
 49
1.0
 74
     0
 49
-1.0
 74
     0
  0
ENDTAB
  0
TABLE
  2
LAYER
  5
2
330
0
100
AcDbSymbolTable
 70
     7
  0
LAYER
  5
10
330
2
100
AcDbSymbolTableRecord
100
AcDbLayerTableRecord
  2
0
 70
     0
 62
     7
  6
CONTINUOUS
  0
LAYER
  5
3F9
330
2
100
AcDbSymbolTableRecord
100
AcDbLayerTableRecord
  2
AM_0
 70
     0
 62
     7
  6
CONTINUOUS
  0
LAYER
  5
BD6
330
2
100
AcDbSymbolTableRecord
100
AcDbLayerTableRecord
  2
AM_11
 70
     0
 62
     3
  6
AM_ISO09W050
  0
LAYER
  5
BD7
330
2
100
AcDbSymbolTableRecord
100
AcDbLayerTableRecord
  2
AM_7
 70
     0
 62
     4
  6
AM_ISO08W050
  0
LAYER
  5
BD8
330
2
100
AcDbSymbolTableRecord
100
AcDbLayerTableRecord
  2
AM_5
 70
     0
 62
     3
  6
CONTINUOUS
  0
LAYER
  5
BD9
330
2
100
AcDbSymbolTableRecord
100
AcDbLayerTableRecord
  2
DEFPOINTS
 70
     0
 62
     7
  6
CONTINUOUS
  0
LAYER
  5
BDA
330
2
100
AcDbSymbolTableRecord
100
AcDbLayerTableRecord
  2
AM_6
 70
     0
 62
     2
  6
CONTINUOUS
  0
ENDTAB
  0
TABLE
  2
STYLE
  5
3
330
0
100
AcDbSymbolTable
 70
     5
  0
STYLE
  5
11
330
3
100
AcDbSymbolTableRecord
100
AcDbTextStyleTableRecord
  2
STANDARD
 70
     0
 40
0.0
 41
1.0
 50
0.0
 71
     0
 42
2.5
  3
simplex.shx
  4
EXTFONT.SHX
  0
STYLE
  5
52
330
3
100
AcDbSymbolTableRecord
100
AcDbTextStyleTableRecord
  2

 70
     1
 40
0.0
 41
1.0
 50
0.0
 71
     0
 42
2.5
  3
ltypeshp.shx
  4

  0
STYLE
  5
6B
330
3
100
AcDbSymbolTableRecord
100
AcDbTextStyleTableRecord
  2
ASAMI
 70
     0
 40
0.0
 41
1.0
 50
0.0
 71
     0
 42
2.5
  3
simplex.shx
  4
EXTFONT.SHX
  0
STYLE
  5
262
330
3
100
AcDbSymbolTableRecord
100
AcDbTextStyleTableRecord
  2
ACJISTS
 70
     0
 40
1.0
 41
1.0
 50
0.0
 71
     0
 42
2.5
  3
simplex.shx
  4
bigfont.shx
  0
STYLE
  5
269
330
3
100
AcDbSymbolTableRecord
100
AcDbTextStyleTableRecord
  2
ACJISGDT
 70
     0
 40
0.0
 41
1.0
 50
0.0
 71
     0
 42
2.5
  3
amgdtans.shx
  4

  0
ENDTAB
  0
TABLE
  2
VIEW
  5
6
330
0
100
AcDbSymbolTable
 70
     0
  0
ENDTAB
  0
TABLE
  2
UCS
  5
7
330
0
100
AcDbSymbolTable
 70
     0
  0
ENDTAB
  0
TABLE
  2
APPID
  5
9
330
0
100
AcDbSymbolTable
 70
    13
  0
APPID
  5
12
330
9
100
AcDbSymbolTableRecord
100
AcDbRegAppTableRecord
  2
ACAD
 70
     0
  0
APPID
  5
30
330
9
100
AcDbSymbolTableRecord
100
AcDbRegAppTableRecord
  2
MCAD_NO_VIS
 70
     0
  0
APPID
  5
31
330
9
100
AcDbSymbolTableRecord
100
AcDbRegAppTableRecord
  2
ACAD_TEMP_GRAPHIC
 70
     0
  0
APPID
  5
2C2
330
9
100
AcDbSymbolTableRecord
100
AcDbRegAppTableRecord
  2
GENIUS_GENDTOL_13
 70
     0
  0
APPID
  5
339
330
9
100
AcDbSymbolTableRecord
100
AcDbRegAppTableRecord
  2
GENIUS_GENODEF_13
 70
     0
  0
APPID
  5
33A
330
9
100
AcDbSymbolTableRecord
100
AcDbRegAppTableRecord
  2
GENIUS_GENOBJ-N-RSBK_13
 70
     0
  0
APPID
  5
33B
330
9
100
AcDbSymbolTableRecord
100
AcDbRegAppTableRecord
  2
GENIUS_GENOBJ-N-LIB_13
 70
     0
  0
APPID
  5
33C
330
9
100
AcDbSymbolTableRecord
100
AcDbRegAppTableRecord
  2
GENIUS_GENSCALE_13
 70
     0
  0
APPID
  5
378
330
9
100
AcDbSymbolTableRecord
100
AcDbRegAppTableRecord
  2
GENIUS_GENDIMSH_14
 70
     0
  0
APPID
  5
BDB
330
9
100
AcDbSymbolTableRecord
100
AcDbRegAppTableRecord
  2
GENIUS_GENOBJ-N-CEN_13
 70
     0
  0
APPID
  5
BDC
330
9
100
AcDbSymbolTableRecord
100
AcDbRegAppTableRecord
  2
GENIUS_GENFIL_13
 70
     0
  0
APPID
  5
BDD
330
9
100
AcDbSymbolTableRecord
100
AcDbRegAppTableRecord
  2
GENIUS_GENOBJ-N-FIL_13
 70
     0
  0
APPID
  5
12AD
330
9
100
AcDbSymbolTableRecord
100
AcDbRegAppTableRecord
  2
GENIUS_GENOREF_13
 70
     0
  0
ENDTAB
  0
TABLE
  2
DIMSTYLE
  5
A
330
0
100
AcDbSymbolTable
 70
     8
  0
DIMSTYLE
105
58
102
{ACAD_REACTORS
330
498B
330
4A13
330
4AAF
330
4B96
330
52FB
330
5388
102
}
330
A
100
AcDbSymbolTableRecord
100
AcDbDimStyleTableRecord
  2
AM_JIS
 70
     0
  3

  4
"
  5
OPEN30
  6

  7

 40
1.0
 41
2.5
 42
1.0
 43
12.0
 44
1.0
 45
0.0
 46
0.0
 47
0.1
 48
0.1
140
3.2
141
0.0
142
0.0
143
0.0393701
144
1.0
145
0.0
146
0.71
147
1.5
 71
     0
 72
     0
 73
     0
 74
     0
 75
     0
 76
     0
 77
     3
 78
     8
170
     0
171
     2
172
     1
173
     0
174
     0
175
     0
176
     3
177
     3
178
     2
270
     2
271
     3
272
     3
273
     2
274
     2
340
6B
275
     0
280
     0
281
     0
282
     0
283
     0
284
     0
285
     0
286
     0
287
     3
288
     0
  0
DIMSTYLE
105
5F
330
A
100
AcDbSymbolTableRecord
100
AcDbDimStyleTableRecord
  2
AM_JIS$3
 70
     0
  3

  4
"
  5
OPEN30
  6

  7

 40
1.0
 41
2.5
 42
1.0
 43
10.0
 44
1.0
 45
0.0
 46
0.0
 47
0.1
 48
0.1
140
3.2
141
0.0
142
0.0
143
0.0393701
144
1.0
145
0.0
146
0.71
147
1.5
 71
     0
 72
     0
 73
     0
 74
     1
 75
     0
 76
     0
 77
     3
 78
     8
170
     0
171
     2
172
     0
173
     0
174
     0
175
     0
176
     3
177
     3
178
     2
270
     2
271
     2
272
     3
273
     2
274
     2
340
6B
275
     0
280
     0
281
     0
282
     0
283
     0
284
     0
285
     0
286
     0
287
     0
288
     1
  0
DIMSTYLE
105
60
330
A
100
AcDbSymbolTableRecord
100
AcDbDimStyleTableRecord
  2
AM_JIS$4
 70
     0
  3

  4
"
  5
OPEN30
  6

  7

 40
1.0
 41
2.5
 42
1.0
 43
10.0
 44
1.0
 45
0.0
 46
0.0
 47
0.1
 48
0.1
140
3.2
141
0.0
142
0.0
143
0.0393701
144
1.0
145
0.0
146
0.71
147
1.5
 71
     0
 72
     0
 73
     0
 74
     1
 75
     0
 76
     0
 77
     3
 78
     8
170
     0
171
     2
172
     0
173
     0
174
     0
175
     0
176
     3
177
     3
178
     2
270
     2
271
     2
272
     3
273
     2
274
     2
340
6B
275
     0
280
     0
281
     0
282
     0
283
     0
284
     0
285
     0
286
     0
287
     0
288
     1
  0
DIMSTYLE
105
61
330
A
100
AcDbSymbolTableRecord
100
AcDbDimStyleTableRecord
  2
AM_JIS$6
 70
     0
  3

  4
"
  5
OPEN30
  6

  7

 40
1.0
 41
2.5
 42
1.0
 43
10.0
 44
1.0
 45
0.0
 46
0.0
 47
0.1
 48
0.1
140
3.2
141
0.0
142
0.0
143
0.0393701
144
1.0
145
0.0
146
0.71
147
1.5
 71
     0
 72
     0
 73
     0
 74
     0
 75
     0
 76
     0
 77
     0
 78
     8
170
     0
171
     2
172
     1
173
     0
174
     0
175
     0
176
     3
177
     3
178
     2
270
     2
271
     2
272
     2
273
     2
274
     2
340
6B
275
     0
280
     0
281
     0
282
     0
283
     0
284
     0
285
     0
286
     0
287
     3
288
     0
  0
DIMSTYLE
105
62
330
A
100
AcDbSymbolTableRecord
100
AcDbDimStyleTableRecord
  2
AM_JIS$7
 70
     0
  3

  4
"
  5
OPEN30
  6

  7

 40
1.0
 41
2.5
 42
1.0
 43
10.0
 44
1.0
 45
0.0
 46
0.0
 47
0.1
 48
0.1
140
3.2
141
0.0
142
0.0
143
0.0393701
144
1.0
145
0.0
146
0.71
147
1.5
 71
     0
 72
     0
 73
     0
 74
     0
 75
     0
 76
     0
 77
     3
 78
     8
170
     0
171
     2
172
     1
173
     0
174
     0
175
     0
176
     3
177
     3
178
     2
270
     2
271
     2
272
     3
273
     2
274
     2
340
6B
275
     0
280
     0
281
     0
282
     0
283
     0
284
     0
285
     0
286
     0
287
     3
288
     0
  0
DIMSTYLE
105
63
330
A
100
AcDbSymbolTableRecord
100
AcDbDimStyleTableRecord
  2
AM_JIS$SF
 70
     0
  3

  4
"
  5
OPEN30
  6

  7

 40
1.0
 41
2.5
 42
1.0
 43
10.0
 44
1.0
 45
0.0
 46
0.0
 47
0.1
 48
0.1
140
3.2
141
0.0
142
0.0
143
0.0393701
144
1.0
145
0.0
146
0.71
147
1.5
 71
     0
 72
     0
 73
     0
 74
     0
 75
     1
 76
     1
 77
     3
 78
     8
170
     0
171
     2
172
     1
173
     0
174
     0
175
     0
176
   256
177
   256
178
     2
270
     2
271
     2
272
     2
273
     2
274
     2
340
6B
275
     0
280
     0
281
     0
282
     0
283
     0
284
     0
285
     0
286
     0
287
     3
288
     0
  0
DIMSTYLE
105
68
330
A
100
AcDbSymbolTableRecord
100
AcDbDimStyleTableRecord
  2
AM_JIS$SH
 70
     0
  3

  4
"
  5

  6
GENAXEH
  7
OPEN30
 40
1.0
 41
2.5
 42
1.0
 43
10.0
 44
1.0
 45
0.0
 46
0.0
 47
0.1
 48
0.1
140
3.2
141
0.0
142
0.0
143
0.0393701
144
2.0
145
0.0
146
0.71
147
1.5
 71
     0
 72
     0
 73
     0
 74
     0
 75
     1
 76
     1
 77
     3
 78
     8
170
     0
171
     2
172
     1
173
     1
174
     0
175
     0
176
   256
177
   256
178
     2
270
     2
271
     2
272
     2
273
     2
274
     2
340
6B
275
     0
280
     0
281
     0
282
     0
283
     0
284
     0
285
     0
286
     0
287
     3
288
     0
  0
DIMSTYLE
105
B34
102
{ACAD_REACTORS
330
4D8A
330
5491
330
5492
102
}
330
A
100
AcDbSymbolTableRecord
100
AcDbDimStyleTableRecord
  2
AM_JIS$2
 70
     0
  3

  4
"
  5
OPEN30
  6

  7

 40
1.0
 41
2.5
 42
1.0
 43
12.0
 44
1.0
 45
0.0
 46
0.0
 47
0.1
 48
0.1
140
3.2
141
0.0
142
0.0
143
0.0393701
144
1.0
145
0.0
146
0.71
147
1.5
 71
     0
 72
     0
 73
     0
 74
     0
 75
     0
 76
     0
 77
     3
 78
     8
170
     0
171
     2
172
     1
173
     0
174
     0
175
     0
176
     3
177
     3
178
     2
270
     2
271
     3
272
     3
273
     2
274
     2
340
6B
275
     0
280
     0
281
     0
282
     0
283
     0
284
     0
285
     0
286
     0
287
     3
288
     0
  0
ENDTAB
  0
TABLE
  2
BLOCK_RECORD
  5
1
330
0
100
AcDbSymbolTable
 70
    14
  0
BLOCK_RECORD
  5
1F
102
{ACAD_XDICTIONARY
360
74
102
}
330
1
100
AcDbSymbolTableRecord
100
AcDbBlockTableRecord
  2
*MODEL_SPACE
  0
BLOCK_RECORD
  5
101
102
{ACAD_XDICTIONARY
360
564B
102
}
330
1
100
AcDbSymbolTableRecord
100
AcDbBlockTableRecord
  2
*PAPER_SPACE
  0
BLOCK_RECORD
  5
59
330
1
100
AcDbSymbolTableRecord
100
AcDbBlockTableRecord
  2
_OPEN30
  0
BLOCK_RECORD
  5
64
330
1
100
AcDbSymbolTableRecord
100
AcDbBlockTableRecord
  2
GENAXEH
  0
BLOCK_RECORD
  5
498C
330
1
100
AcDbSymbolTableRecord
100
AcDbBlockTableRecord
  2
*D5
  0
BLOCK_RECORD
  5
4A14
330
1
100
AcDbSymbolTableRecord
100
AcDbBlockTableRecord
  2
*D6
  0
BLOCK_RECORD
  5
4AB0
330
1
100
AcDbSymbolTableRecord
100
AcDbBlockTableRecord
  2
*D7
  0
BLOCK_RECORD
  5
4B97
330
1
100
AcDbSymbolTableRecord
100
AcDbBlockTableRecord
  2
*D8
  0
BLOCK_RECORD
  5
4D8B
330
1
100
AcDbSymbolTableRecord
100
AcDbBlockTableRecord
  2
*D9
  0
BLOCK_RECORD
  5
52FC
330
1
100
AcDbSymbolTableRecord
100
AcDbBlockTableRecord
  2
*D10
  0
BLOCK_RECORD
  5
5389
330
1
100
AcDbSymbolTableRecord
100
AcDbBlockTableRecord
  2
*D11
  0
BLOCK_RECORD
  5
5493
330
1
100
AcDbSymbolTableRecord
100
AcDbBlockTableRecord
  2
*D12
  0
BLOCK_RECORD
  5
54A3
330
1
100
AcDbSymbolTableRecord
100
AcDbBlockTableRecord
  2
*D13
  0
ENDTAB
  0
ENDSEC
  0
SECTION
  2
BLOCKS
  0
BLOCK
  5
20
330
1F
100
AcDbEntity
  8
0
100
AcDbBlockBegin
  2
*MODEL_SPACE
 70
     0
 10
0.0
 20
0.0
 30
0.0
  3
*MODEL_SPACE
  1

  0
ENDBLK
  5
21
330
1F
100
AcDbEntity
  8
0
100
AcDbBlockEnd
  0
BLOCK
  5
103
330
101
100
AcDbEntity
 67
     1
  8
0
100
AcDbBlockBegin
  2
*PAPER_SPACE
 70
     0
 10
0.0
 20
0.0
 30
0.0
  3
*PAPER_SPACE
  1

  0
ENDBLK
  5
104
330
101
100
AcDbEntity
 67
     1
  8
0
100
AcDbBlockEnd
  0
BLOCK
  5
5D
330
59
100
AcDbEntity
  8
0
100
AcDbBlockBegin
  2
_OPEN30
 70
     0
 10
0.0
 20
0.0
 30
0.0
  3
_OPEN30
  1

  0
LINE
  5
5A
330
59
100
AcDbEntity
  8
0
 62
     0
100
AcDbLine
 10
-1.0
 20
0.26794919
 30
0.0
 11
0.0
 21
0.0
 31
0.0
  0
LINE
  5
5B
330
59
100
AcDbEntity
  8
0
 62
     0
100
AcDbLine
 10
0.0
 20
0.0
 30
0.0
 11
-1.0
 21
-0.26794919
 31
0.0
  0
LINE
  5
5C
330
59
100
AcDbEntity
  8
0
 62
     0
100
AcDbLine
 10
0.0
 20
0.0
 30
0.0
 11
-1.0
 21
0.0
 31
0.0
  0
ENDBLK
  5
5E
330
59
100
AcDbEntity
  8
0
100
AcDbBlockEnd
  0
BLOCK
  5
66
330
64
100
AcDbEntity
  8
0
100
AcDbBlockBegin
  2
GENAXEH
 70
     0
 10
0.0
 20
0.0
 30
0.0
  3
GENAXEH
  1

  0
LINE
  5
65
330
64
100
AcDbEntity
  8
0
100
AcDbLine
 10
-1.0
 20
0.0
 30
0.0
 11
1.0
 21
0.0
 31
0.0
  0
ENDBLK
  5
67
330
64
100
AcDbEntity
  8
0
100
AcDbBlockEnd
  0
BLOCK
  5
4996
330
498C
100
AcDbEntity
  8
0
100
AcDbBlockBegin
  2
*D5
 70
     1
 10
0.0
 20
0.0
 30
0.0
  3
*D5
  1

  0
LINE
  5
55B5
330
498C
100
AcDbEntity
  8
AM_5
 62
     3
100
AcDbLine
 10
-101.0001468188882
 20
47.61047320316866
 30
0.0
 11
-115.0001468188882
 21
47.61047320316867
 31
0.0
  0
LINE
  5
55B6
330
498C
100
AcDbEntity
  8
AM_5
 62
     3
100
AcDbLine
 10
-101.0001468188882
 20
31.61047320316866
 30
0.0
 11
-115.0001468188882
 21
31.61047320316867
 31
0.0
  0
LINE
  5
55B7
330
498C
100
AcDbEntity
  8
AM_5
 62
     3
100
AcDbLine
 10
-114.0001468188882
 20
45.11047320316867
 30
0.0
 11
-114.0001468188882
 21
34.11047320316867
 31
0.0
  0
INSERT
  5
55B8
330
498C
100
AcDbEntity
  8
AM_5
 62
     3
100
AcDbBlockReference
  2
_OPEN30
 10
-114.0001468188882
 20
47.61047320316867
 30
0.0
 41
2.5
 42
2.5
 43
2.5
 50
90.0
  0
INSERT
  5
55B9
330
498C
100
AcDbEntity
  8
AM_5
 62
     3
100
AcDbBlockReference
  2
_OPEN30
 10
-114.0001468188882
 20
31.61047320316867
 30
0.0
 41
2.5
 42
2.5
 43
2.5
 50
270.0
  0
MTEXT
  5
55BA
330
498C
100
AcDbEntity
  8
AM_5
 62
     2
100
AcDbMText
 10
-117.1001468188882
 20
39.61047320316865
 30
0.0
 40
3.2
 41
0.0
 71
     5
 72
     1
  1
16
  7
ASAMI
 11
0.0000000000000001
 21
1.0
 31
0.0
1001
ACAD
1000
MTEXTBEGIN
1070
    73
1070
     1
1070
    44
1040
1.0
1070
    74
1070
     0
1000
MTEXTEND
  0
POINT
  5
55BB
330
498C
100
AcDbEntity
  8
DEFPOINTS
 62
     0
100
AcDbPoint
 10
-100.0001468188882
 20
47.61047320316866
 30
0.0
  0
POINT
  5
55BC
330
498C
100
AcDbEntity
  8
DEFPOINTS
 62
     0
100
AcDbPoint
 10
-100.0001468188882
 20
31.61047320316866
 30
0.0
  0
POINT
  5
55BD
330
498C
100
AcDbEntity
  8
DEFPOINTS
 62
     0
100
AcDbPoint
 10
-114.0001468188882
 20
31.61047320316867
 30
0.0
  0
ENDBLK
  5
4997
330
498C
100
AcDbEntity
  8
0
100
AcDbBlockEnd
  0
BLOCK
  5
4A1E
330
4A14
100
AcDbEntity
  8
0
100
AcDbBlockBegin
  2
*D6
 70
     1
 10
0.0
 20
0.0
 30
0.0
  3
*D6
  1

  0
LINE
  5
55F0
330
4A14
100
AcDbEntity
  8
AM_5
 62
     3
100
AcDbLine
 10
-0.3562211035400907
 20
47.61047320316882
 30
0.0
 11
24.48319620966694
 21
47.61047320316881
 31
0.0
  0
LINE
  5
55F1
330
4A14
100
AcDbEntity
  8
AM_5
 62
     3
100
AcDbLine
 10
0.9998531811117439
 20
32.11047320316876
 30
0.0
 11
24.48319620966694
 21
32.11047320316875
 31
0.0
  0
LINE
  5
55F2
330
4A14
100
AcDbEntity
  8
AM_5
 62
     3
100
AcDbLine
 10
23.48319620966694
 20
45.11047320316881
 30
0.0
 11
23.48319620966694
 21
34.61047320316875
 31
0.0
  0
INSERT
  5
55F3
330
4A14
100
AcDbEntity
  8
AM_5
 62
     3
100
AcDbBlockReference
  2
_OPEN30
 10
23.48319620966694
 20
47.61047320316881
 30
0.0
 41
2.5
 42
2.5
 43
2.5
 50
90.0
  0
INSERT
  5
55F4
330
4A14
100
AcDbEntity
  8
AM_5
 62
     3
100
AcDbBlockReference
  2
_OPEN30
 10
23.48319620966694
 20
32.11047320316875
 30
0.0
 41
2.5
 42
2.5
 43
2.5
 50
270.0
  0
MTEXT
  5
55F5
330
4A14
100
AcDbEntity
  8
AM_5
 62
     2
100
AcDbMText
 10
20.38319620966694
 20
39.86047320316879
 30
0.0
 40
3.2
 41
0.0
 71
     5
 72
     1
  1
15.5
  7
ASAMI
 11
0.0000000000000001
 21
1.0
 31
0.0
1001
ACAD
1000
MTEXTBEGIN
1070
    73
1070
     1
1070
    44
1040
1.0
1070
    74
1070
     0
1000
MTEXTEND
  0
POINT
  5
55F6
330
4A14
100
AcDbEntity
  8
DEFPOINTS
 62
     0
100
AcDbPoint
 10
-1.35622110354009
 20
47.61047320316882
 30
0.0
  0
POINT
  5
55F7
330
4A14
100
AcDbEntity
  8
DEFPOINTS
 62
     0
100
AcDbPoint
 10
-0.000146818888256
 20
32.11047320316876
 30
0.0
  0
POINT
  5
55F8
330
4A14
100
AcDbEntity
  8
DEFPOINTS
 62
     0
100
AcDbPoint
 10
23.48319620966694
 20
32.11047320316875
 30
0.0
  0
ENDBLK
  5
4A1F
330
4A14
100
AcDbEntity
  8
0
100
AcDbBlockEnd
  0
BLOCK
  5
4ABA
330
4AB0
100
AcDbEntity
  8
0
100
AcDbBlockBegin
  2
*D7
 70
     1
 10
0.0
 20
0.0
 30
0.0
  3
*D7
  1

  0
LINE
  5
55BE
330
4AB0
100
AcDbEntity
  8
AM_5
 62
     3
100
AcDbLine
 10
-101.0001468188881
 20
-3.999745702226057
 30
0.0
 11
-115.0001478188881
 21
-3.999745702226053
 31
0.0
  0
LINE
  5
55BF
330
4AB0
100
AcDbEntity
  8
AM_5
 62
     3
100
AcDbLine
 10
-101.0001468188881
 20
-19.99974570222605
 30
0.0
 11
-115.0001478188881
 21
-19.99974570222605
 31
0.0
  0
LINE
  5
55C0
330
4AB0
100
AcDbEntity
  8
AM_5
 62
     3
100
AcDbLine
 10
-114.0001478188881
 20
-6.499745702226053
 30
0.0
 11
-114.0001478188881
 21
-17.49974570222605
 31
0.0
  0
INSERT
  5
55C1
330
4AB0
100
AcDbEntity
  8
AM_5
 62
     3
100
AcDbBlockReference
  2
_OPEN30
 10
-114.0001478188881
 20
-3.999745702226053
 30
0.0
 41
2.5
 42
2.5
 43
2.5
 50
90.0
  0
INSERT
  5
55C2
330
4AB0
100
AcDbEntity
  8
AM_5
 62
     3
100
AcDbBlockReference
  2
_OPEN30
 10
-114.0001478188881
 20
-19.99974570222605
 30
0.0
 41
2.5
 42
2.5
 43
2.5
 50
270.0
  0
MTEXT
  5
55C3
330
4AB0
100
AcDbEntity
  8
AM_5
 62
     2
100
AcDbMText
 10
-117.1001478188881
 20
-11.99974570222607
 30
0.0
 40
3.2
 41
0.0
 71
     5
 72
     1
  1
16
  7
ASAMI
 11
0.0000000000000001
 21
1.0
 31
0.0
1001
ACAD
1000
MTEXTBEGIN
1070
    73
1070
     1
1070
    44
1040
1.0
1070
    74
1070
     0
1000
MTEXTEND
  0
POINT
  5
55C4
330
4AB0
100
AcDbEntity
  8
DEFPOINTS
 62
     0
100
AcDbPoint
 10
-100.0001468188881
 20
-3.999745702226057
 30
0.0
  0
POINT
  5
55C5
330
4AB0
100
AcDbEntity
  8
DEFPOINTS
 62
     0
100
AcDbPoint
 10
-100.0001468188881
 20
-19.99974570222605
 30
0.0
  0
POINT
  5
55C6
330
4AB0
100
AcDbEntity
  8
DEFPOINTS
 62
     0
100
AcDbPoint
 10
-114.0001478188881
 20
-19.99974570222605
 30
0.0
  0
ENDBLK
  5
4ABB
330
4AB0
100
AcDbEntity
  8
0
100
AcDbBlockEnd
  0
BLOCK
  5
4BA1
330
4B97
100
AcDbEntity
  8
0
100
AcDbBlockBegin
  2
*D8
 70
     1
 10
0.0
 20
0.0
 30
0.0
  3
*D8
  1

  0
LINE
  5
55C7
330
4B97
100
AcDbEntity
  8
AM_5
 62
     3
100
AcDbLine
 10
35.15739967513253
 20
1.000254297774098
 30
0.0
 11
35.15739967513253
 21
24.76531902060435
 31
0.0
  0
LINE
  5
55C8
330
4B97
100
AcDbEntity
  8
AM_5
 62
     3
100
AcDbLine
 10
50.65739967513254
 20
1.00025429777412
 30
0.0
 11
50.65739967513254
 21
24.76531902060435
 31
0.0
  0
LINE
  5
55C9
330
4B97
100
AcDbEntity
  8
AM_5
 62
     3
100
AcDbLine
 10
37.65739967513253
 20
23.76531902060435
 30
0.0
 11
48.15739967513254
 21
23.76531902060435
 31
0.0
  0
INSERT
  5
55CA
330
4B97
100
AcDbEntity
  8
AM_5
 62
     3
100
AcDbBlockReference
  2
_OPEN30
 10
35.15739967513253
 20
23.76531902060435
 30
0.0
 41
2.5
 42
2.5
 43
2.5
 50
180.0
  0
INSERT
  5
55CB
330
4B97
100
AcDbEntity
  8
AM_5
 62
     3
100
AcDbBlockReference
  2
_OPEN30
 10
50.65739967513254
 20
23.76531902060435
 30
0.0
 41
2.5
 42
2.5
 43
2.5
  0
MTEXT
  5
55CC
330
4B97
100
AcDbEntity
  8
AM_5
 62
     2
100
AcDbMText
 10
42.90739967513253
 20
26.86531902060435
 30
0.0
 40
3.2
 41
0.0
 71
     5
 72
     1
  1
15.5
  7
ASAMI
1001
ACAD
1000
MTEXTBEGIN
1070
    73
1070
     1
1070
    44
1040
1.0
1070
    74
1070
     0
1000
MTEXTEND
  0
POINT
  5
55CD
330
4B97
100
AcDbEntity
  8
DEFPOINTS
 62
     0
100
AcDbPoint
 10
35.15739967513253
 20
0.0002542977740987
 30
0.0
  0
POINT
  5
55CE
330
4B97
100
AcDbEntity
  8
DEFPOINTS
 62
     0
100
AcDbPoint
 10
50.65739967513254
 20
0.00025429777412
 30
0.0
  0
POINT
  5
55CF
330
4B97
100
AcDbEntity
  8
DEFPOINTS
 62
     0
100
AcDbPoint
 10
50.65739967513254
 20
23.76531902060435
 30
0.0
  0
ENDBLK
  5
4BA2
330
4B97
100
AcDbEntity
  8
0
100
AcDbBlockEnd
  0
BLOCK
  5
4D9A
330
4D8B
100
AcDbEntity
  8
0
100
AcDbBlockBegin
  2
*D9
 70
     1
 10
0.0
 20
0.0
 30
0.0
  3
*D9
  1

  0
LINE
  5
55DD
330
4D8B
100
AcDbEntity
  8
AM_5
 62
     3
100
AcDbLine
 10
0.9999999999999428
 20
0.0000000000003142
 30
0.0
 11
14.15561829122435
 21
0.0000000000003357
 31
0.0
  0
ARC
  5
55DE
330
4D8B
100
AcDbEntity
  8
AM_5
 62
     3
100
AcDbCircle
 10
-0.0000000000000573
 20
0.0000000000003126
 30
0.0
 40
13.15561829122441
100
AcDbArc
 50
280.9045319302944
 51
349.0954680697054
  0
INSERT
  5
55DF
330
4D8B
100
AcDbEntity
  8
AM_5
 62
     3
100
AcDbBlockReference
  2
_OPEN30
 10
-0.0000000000000986
 20
-13.1556182912241
 30
0.0
 41
2.5
 42
2.5
 43
2.5
 50
185.4522659651471
  0
INSERT
  5
55E0
330
4D8B
100
AcDbEntity
  8
AM_5
 62
     3
100
AcDbBlockReference
  2
_OPEN30
 10
13.15561829122435
 20
0.0000000000003348
 30
0.0
 41
2.5
 42
2.5
 43
2.5
 50
84.54773403485281
  0
MTEXT
  5
55E1
330
4D8B
100
AcDbEntity
  8
AM_5
 62
     2
100
AcDbMText
 10
7.110395882748202
 20
-7.110395882747962
 30
0.0
 40
3.2
 41
0.0
 71
     5
 72
     1
  1
90°
  7
ASAMI
 11
0.7071067811865481
 21
0.707106781186547
 31
0.0
1001
ACAD
1000
MTEXTBEGIN
1070
    73
1070
     1
1070
    44
1040
1.0
1070
    74
1070
     0
1000
MTEXTEND
  0
POINT
  5
55E2
330
4D8B
100
AcDbEntity
  8
DEFPOINTS
 62
     0
100
AcDbPoint
 10
6.577809145612132
 20
-11.39309964269126
 30
0.0
  0
POINT
  5
55E3
330
4D8B
100
AcDbEntity
  8
DEFPOINTS
 62
     0
100
AcDbPoint
 10
-0.0000000000000625
 20
0.0000000000003126
 30
0.0
  0
POINT
  5
55E4
330
4D8B
100
AcDbEntity
  8
DEFPOINTS
 62
     0
100
AcDbPoint
 10
-0.0000000000000959
 20
-15.11180423233994
 30
0.0
  0
POINT
  5
55E5
330
4D8B
100
AcDbEntity
  8
DEFPOINTS
 62
     0
100
AcDbPoint
 10
-0.0000000000000604
 20
-1.385301582356618
 30
0.0
  0
POINT
  5
55E6
330
4D8B
100
AcDbEntity
  8
DEFPOINTS
 62
     0
100
AcDbPoint
 10
-21.26216133319809
 20
0.0000000000002771
 30
0.0
  0
ENDBLK
  5
4D9B
330
4D8B
100
AcDbEntity
  8
0
100
AcDbBlockEnd
  0
BLOCK
  5
5306
330
52FC
100
AcDbEntity
  8
0
100
AcDbBlockBegin
  2
*D10
 70
     1
 10
0.0
 20
0.0
 30
0.0
  3
*D10
  1

  0
LINE
  5
55E7
330
52FC
100
AcDbEntity
  8
AM_5
 62
     3
100
AcDbLine
 10
0.9999999999999383
 20
0.0000000000003124
 30
0.0
 11
23.81048163219996
 21
0.0000000000003059
 31
0.0
  0
LINE
  5
55E8
330
52FC
100
AcDbEntity
  8
AM_5
 62
     3
100
AcDbLine
 10
0.4408466166049683
 20
-19.99974570222596
 30
0.0
 11
23.81048163219995
 21
-19.99974570222597
 31
0.0
  0
LINE
  5
55E9
330
52FC
100
AcDbEntity
  8
AM_5
 62
     3
100
AcDbLine
 10
22.81048163219995
 20
-2.499999999999693
 30
0.0
 11
22.81048163219995
 21
-17.49974570222597
 31
0.0
  0
INSERT
  5
55EA
330
52FC
100
AcDbEntity
  8
AM_5
 62
     3
100
AcDbBlockReference
  2
_OPEN30
 10
22.81048163219995
 20
0.0000000000003062
 30
0.0
 41
2.5
 42
2.5
 43
2.5
 50
90.0
  0
INSERT
  5
55EB
330
52FC
100
AcDbEntity
  8
AM_5
 62
     3
100
AcDbBlockReference
  2
_OPEN30
 10
22.81048163219995
 20
-19.99974570222597
 30
0.0
 41
2.5
 42
2.5
 43
2.5
 50
270.0
  0
MTEXT
  5
55EC
330
52FC
100
AcDbEntity
  8
AM_5
 62
     2
100
AcDbMText
 10
19.71048163219995
 20
-9.999872851112828
 30
0.0
 40
3.2
 41
0.0
 71
     5
 72
     1
  1
20
  7
ASAMI
 11
0.0000000000000001
 21
1.0
 31
0.0
1001
ACAD
1000
MTEXTBEGIN
1070
    73
1070
     1
1070
    44
1040
1.0
1070
    74
1070
     0
1000
MTEXTEND
  0
POINT
  5
55ED
330
52FC
100
AcDbEntity
  8
DEFPOINTS
 62
     0
100
AcDbPoint
 10
-0.0000000000000616
 20
0.0000000000003126
 30
0.0
  0
POINT
  5
55EE
330
52FC
100
AcDbEntity
  8
DEFPOINTS
 62
     0
100
AcDbPoint
 10
-0.5591533833950317
 20
-19.99974570222596
 30
0.0
  0
POINT
  5
55EF
330
52FC
100
AcDbEntity
  8
DEFPOINTS
 62
     0
100
AcDbPoint
 10
22.81048163219995
 20
-19.99974570222597
 30
0.0
  0
ENDBLK
  5
5307
330
52FC
100
AcDbEntity
  8
0
100
AcDbBlockEnd
  0
BLOCK
  5
5393
330
5389
100
AcDbEntity
  8
0
100
AcDbBlockBegin
  2
*D11
 70
     1
 10
0.0
 20
0.0
 30
0.0
  3
*D11
  1

  0
LINE
  5
55AC
330
5389
100
AcDbEntity
  8
AM_5
 62
     3
100
AcDbLine
 10
-100.0001468188882
 20
30.61047320316866
 30
0.0
 11
-100.0001468188882
 21
16.61047320316869
 31
0.0
  0
LINE
  5
55AD
330
5389
100
AcDbEntity
  8
AM_5
 62
     3
100
AcDbLine
 10
-0.0001468188881993
 20
31.11047320316876
 30
0.0
 11
-0.0001468188882001
 21
16.61047320316869
 31
0.0
  0
LINE
  5
55AE
330
5389
100
AcDbEntity
  8
AM_5
 62
     3
100
AcDbLine
 10
-97.50014681888822
 20
17.61047320316869
 30
0.0
 11
-2.500146818888199
 21
17.61047320316869
 31
0.0
  0
INSERT
  5
55AF
330
5389
100
AcDbEntity
  8
AM_5
 62
     3
100
AcDbBlockReference
  2
_OPEN30
 10
-100.0001468188882
 20
17.61047320316869
 30
0.0
 41
2.5
 42
2.5
 43
2.5
 50
180.0
  0
INSERT
  5
55B0
330
5389
100
AcDbEntity
  8
AM_5
 62
     3
100
AcDbBlockReference
  2
_OPEN30
 10
-0.0001468188882001
 20
17.61047320316869
 30
0.0
 41
2.5
 42
2.5
 43
2.5
  0
MTEXT
  5
55B1
330
5389
100
AcDbEntity
  8
AM_5
 62
     2
100
AcDbMText
 10
-50.00014681888821
 20
20.71047320316869
 30
0.0
 40
3.2
 41
0.0
 71
     5
 72
     1
  1
100
  7
ASAMI
1001
ACAD
1000
MTEXTBEGIN
1070
    73
1070
     1
1070
    44
1040
1.0
1070
    74
1070
     0
1000
MTEXTEND
  0
POINT
  5
55B2
330
5389
100
AcDbEntity
  8
DEFPOINTS
 62
     0
100
AcDbPoint
 10
-100.0001468188882
 20
31.61047320316866
 30
0.0
  0
POINT
  5
55B3
330
5389
100
AcDbEntity
  8
DEFPOINTS
 62
     0
100
AcDbPoint
 10
-0.0001468188881992
 20
32.11047320316876
 30
0.0
  0
POINT
  5
55B4
330
5389
100
AcDbEntity
  8
DEFPOINTS
 62
     0
100
AcDbPoint
 10
-0.0001468188882001
 20
17.61047320316869
 30
0.0
  0
ENDBLK
  5
5394
330
5389
100
AcDbEntity
  8
0
100
AcDbBlockEnd
  0
BLOCK
  5
54A1
330
5493
100
AcDbEntity
  8
0
100
AcDbBlockBegin
  2
*D12
 70
     1
 10
0.0
 20
0.0
 30
0.0
  3
*D12
  1

  0
LINE
  5
55D0
330
5493
100
AcDbEntity
  8
AM_5
 62
     3
100
AcDbLine
 10
35.2445554178802
 20
2.45326634617619
 30
0.0
 11
36.24354548051165
 21
13.87177501199206
 31
0.0
  0
LINE
  5
55D1
330
5493
100
AcDbEntity
  8
AM_5
 62
     3
100
AcDbLine
 10
35.15739967513253
 20
2.457071648084443
 30
0.0
 11
35.15739967513249
 21
13.91919716199104
 31
0.0
  0
ARC
  5
55D2
330
5493
100
AcDbEntity
  8
AM_5
 62
     3
100
AcDbCircle
 10
35.15739967513254
 20
1.457071648084444
 30
0.0
 40
11.4621255139066
100
AcDbArc
 50
59.95666884758169
 51
72.47833442379077
  0
ARC
  5
55D3
330
5493
100
AcDbEntity
  8
AM_5
 62
     3
100
AcDbCircle
 10
35.15739967513254
 20
1.457071648084444
 30
0.0
 40
11.4621255139066
100
AcDbArc
 50
102.5216655762092
 51
115.0433311524183
  0
ARC
  5
55D4
330
5493
100
AcDbEntity
  8
AM_5
 62
     3
100
AcDbCircle
 10
35.15739967513254
 20
1.457071648084444
 30
0.0
 40
11.4621255139066
100
AcDbArc
 50
84.99999999999984
 51
90.00000000000017
  0
INSERT
  5
55D5
330
5493
100
AcDbEntity
  8
AM_5
 62
     3
100
AcDbBlockReference
  2
_OPEN30
 10
36.15638973776398
 20
12.87558031390032
 30
0.0
 41
2.5
 42
2.5
 43
2.5
 50
168.7391672118953
  0
INSERT
  5
55D6
330
5493
100
AcDbEntity
  8
AM_5
 62
     3
100
AcDbBlockReference
  2
_OPEN30
 10
35.15739967513251
 20
12.91919716199104
 30
0.0
 41
2.5
 42
2.5
 43
2.5
 50
6.260832788104695
  0
MTEXT
  5
55D7
330
5493
100
AcDbEntity
  8
AM_5
 62
     2
100
AcDbMText
 10
32.00020314266371
 20
15.67282381032111
 30
0.0
 40
3.2
 41
0.0
 71
     5
 72
     1
  1
-5°
  7
ASAMI
 11
0.976214093791517
 21
0.2168087707700204
 31
0.0
1001
ACAD
1000
MTEXTBEGIN
1070
    73
1070
     1
1070
    44
1040
1.0
1070
    74
1070
     0
1000
MTEXTEND
  0
POINT
  5
55D8
330
5493
100
AcDbEntity
  8
DEFPOINTS
 62
     0
100
AcDbPoint
 10
35.82386300208905
 20
12.89980505974665
 30
0.0
  0
POINT
  5
55D9
330
5493
100
AcDbEntity
  8
DEFPOINTS
 62
     0
100
AcDbPoint
 10
34.2450200318147
 20
-8.971475395012767
 30
0.0
  0
POINT
  5
55DA
330
5493
100
AcDbEntity
  8
DEFPOINTS
 62
     0
100
AcDbPoint
 10
35.15739967513254
 20
1.457071648084443
 30
0.0
  0
POINT
  5
55DB
330
5493
100
AcDbEntity
  8
DEFPOINTS
 62
     0
100
AcDbPoint
 10
35.15739967513253
 20
0.0002542977741005
 30
0.0
  0
POINT
  5
55DC
330
5493
100
AcDbEntity
  8
DEFPOINTS
 62
     0
100
AcDbPoint
 10
35.15739967513254
 20
1.457071648084443
 30
0.0
  0
ENDBLK
  5
54A2
330
5493
100
AcDbEntity
  8
0
100
AcDbBlockEnd
  0
BLOCK
  5
54B3
330
54A3
100
AcDbEntity
  8
0
100
AcDbBlockBegin
  2
*D13
 70
     1
 10
0.0
 20
0.0
 30
0.0
  3
*D13
  1

  0
LINE
  5
55F9
330
54A3
100
AcDbEntity
  8
AM_5
 62
     3
100
AcDbLine
 10
0.9998531811115402
 20
32.11047320316907
 30
0.0
 11
13.04360693366039
 21
32.1104732031691
 31
0.0
  0
LINE
  5
55FA
330
54A3
100
AcDbEntity
  8
AM_5
 62
     3
100
AcDbLine
 10
0.9960478792034502
 20
32.19762894591674
 30
0.0
 11
12.99397151261501
 21
33.24731124969003
 31
0.0
  0
ARC
  5
55FB
330
54A3
100
AcDbEntity
  8
AM_5
 62
     3
100
AcDbCircle
 10
-0.0001468188884592
 20
32.11047320316907
 30
0.0
 40
12.04375375254885
100
AcDbArc
 50
336.0392691517879
 51
0.0000000000001018
  0
LINE
  5
55FC
330
54A3
100
AcDbEntity
  8
AM_5
 62
     3
100
AcDbLine
 10
11.00572453778739
 20
27.21937924247513
 30
0.0
 11
5.381288530955806
 21
14.56335185013659
 31
0.0
  0
ARC
  5
55FD
330
54A3
100
AcDbEntity
  8
AM_5
 62
     3
100
AcDbCircle
 10
-0.0001468188884592
 20
32.11047320316907
 30
0.0
 40
12.04375375254885
100
AcDbArc
 50
336.1705745770148
 51
348.0852872885074
  0
ARC
  5
55FE
330
54A3
100
AcDbEntity
  8
AM_5
 62
     3
100
AcDbCircle
 10
-0.0001468188884592
 20
32.11047320316907
 30
0.0
 40
12.04375375254885
100
AcDbArc
 50
16.91471271149268
 51
28.82942542298533
  0
ARC
  5
55FF
330
54A3
100
AcDbEntity
  8
AM_5
 62
     3
100
AcDbCircle
 10
-0.0001468188884592
 20
32.11047320316907
 30
0.0
 40
12.04375375254885
100
AcDbArc
 50
0.0000000000001018
 51
5.000000000000032
  0
INSERT
  5
5600
330
54A3
100
AcDbEntity
  8
AM_5
 62
     3
100
AcDbBlockReference
  2
_OPEN30
 10
12.04360693366039
 20
32.11047320316909
 30
0.0
 41
2.5
 42
2.5
 43
2.5
 50
84.04264364425378
  0
INSERT
  5
5601
330
54A3
100
AcDbEntity
  8
AM_5
 62
     3
100
AcDbBlockReference
  2
_OPEN30
 10
11.99777681452327
 20
33.16015550694237
 30
0.0
 41
2.5
 42
2.5
 43
2.5
 50
280.9573563557463
  0
MTEXT
  5
5602
330
54A3
100
AcDbEntity
  8
AM_5
 62
     2
100
AcDbMText
 10
11.02636096719114
 20
19.63242322735132
 30
0.0
 40
3.2
 41
0.0
 71
     5
 72
     1
  1
-5°
  7
ASAMI
 11
-0.4061104254692054
 21
-0.9138240105869515
 31
0.0
1001
ACAD
1000
MTEXTBEGIN
1070
    73
1070
     1
1070
    44
1040
1.0
1070
    74
1070
     0
1000
MTEXTEND
  0
POINT
  5
5603
330
54A3
100
AcDbEntity
  8
DEFPOINTS
 62
     0
100
AcDbPoint
 10
12.02323080849126
 20
32.81075520455093
 30
0.0
  0
POINT
  5
5604
330
54A3
100
AcDbEntity
  8
DEFPOINTS
 62
     0
100
AcDbPoint
 10
-0.0001468188882949
 20
32.11047320316908
 30
0.0
  0
POINT
  5
5605
330
54A3
100
AcDbEntity
  8
DEFPOINTS
 62
     0
100
AcDbPoint
 10
-0.0001468188884612
 20
32.11047320316907
 30
0.0
  0
POINT
  5
5606
330
54A3
100
AcDbEntity
  8
DEFPOINTS
 62
     0
100
AcDbPoint
 10
-1.648169770691108
 20
32.11047320316906
 30
0.0
  0
POINT
  5
5607
330
54A3
100
AcDbEntity
  8
DEFPOINTS
 62
     0
100
AcDbPoint
 10
-14.27467229708784
 20
30.86161404661465
 30
0.0
  0
ENDBLK
  5
54B4
330
54A3
100
AcDbEntity
  8
0
100
AcDbBlockEnd
  0
ENDSEC
  0
SECTION
  2
ENTITIES
  0
TEXT
  5
C58
330
1F
100
AcDbEntity
  8
AM_6
100
AcDbText
 10
-76.90490872365005
 20
-42.49974570222611
 30
0.0
 40
5.0
  1
ETFNR1616H33
 50
0.0000000000002036
 72
     4
 11
-50.00014681888816
 21
-39.99974570222601
 31
0.0
100
AcDbText
  0
LINE
  5
44A8
330
1F
100
AcDbEntity
  8
AM_0
100
AcDbLine
 10
0.0435975128747213
 20
31.61047320316882
 30
0.0
 11
-5.715172970269013
 21
31.6104732031688
 31
0.0
  0
LINE
  5
44B2
330
1F
100
AcDbEntity
  8
AM_0
100
AcDbLine
 10
-0.4157179706363183
 20
-15.22816305353172
 30
0.0
 11
-0.4157179706363175
 21
-15.67212841378439
 31
0.0
  0
LINE
  5
44BF
330
1F
100
AcDbEntity
  8
AM_0
100
AcDbLine
 10
-1.356221103540083
 20
47.61047320316882
 30
0.0
 11
-100.0001468188882
 21
47.61047320316866
 31
0.0
  0
LINE
  5
44C5
330
1F
100
AcDbEntity
  8
AM_0
100
AcDbLine
 10
-100.0001468188881
 20
-19.99974570222605
 30
0.0
 11
-0.5591533833950317
 21
-19.99974570222596
 31
0.0
  0
LINE
  5
44E9
330
1F
100
AcDbEntity
  8
AM_0
100
AcDbLine
 10
-100.0001468188881
 20
-19.99974570222605
 30
0.0
 11
-100.0001468188881
 21
-3.999745702226057
 31
0.0
  0
LINE
  5
44EF
330
1F
100
AcDbEntity
  8
DEFPOINTS
100
AcDbLine
 10
-27.60496654725526
 20
34.48172218292619
 30
0.0
 11
-0.4157179706363696
 21
36.86047320316876
 31
0.0
  0
LINE
  5
44F0
330
1F
100
AcDbEntity
  8
AM_0
100
AcDbLine
 10
0.0435975128747213
 20
31.61047320316882
 30
0.0
 11
-1.356221103540083
 21
47.61047320316882
 31
0.0
  0
LINE
  5
44F1
330
1F
100
AcDbEntity
  8
AM_0
100
AcDbLine
 10
-100.0001468188882
 20
31.61047320316866
 30
0.0
 11
-100.0001468188882
 21
47.61047320316866
 31
0.0
  0
LINE
  5
44F2
330
1F
100
AcDbEntity
  8
AM_0
100
AcDbLine
 10
-1.285442564834488
 20
-0.0058367446078762
 30
0.0
 11
-46.93603084287576
 21
-3.999745702225979
 31
0.0
  0
LINE
  5
4556
330
1F
100
AcDbEntity
  8
AM_0
100
AcDbLine
 10
-100.0001468188881
 20
-3.999745702226057
 30
0.0
 11
-46.93603084287576
 21
-3.999745702225979
 31
0.0
  0
LINE
  5
4561
330
1F
100
AcDbEntity
  8
AM_0
100
AcDbLine
 10
34.65739967513257
 20
-19.99974570222585
 30
0.0
 11
34.65739967513256
 21
-15.57481967997031
 31
0.0
  0
LINE
  5
456D
330
1F
100
AcDbEntity
  8
AM_0
100
AcDbLine
 10
50.65739967513257
 20
-19.99974570222582
 30
0.0
 11
50.65739967513255
 21
-0.8702216493754804
 31
0.0
  0
LINE
  5
4585
330
1F
100
AcDbEntity
  8
AM_0
100
AcDbLine
 10
0.0517145710835133
 20
-16.52730229993127
 30
0.0
 11
-0.5591533833950317
 21
-19.99170662435258
 31
0.0
  0
LINE
  5
4586
330
1F
100
AcDbEntity
  8
AM_0
100
AcDbLine
 10
34.65739967513254
 20
-3.999745702225851
 30
0.0
 11
34.80744502102881
 21
-3.999745702225851
 31
0.0
  0
LINE
  5
4587
330
1F
100
AcDbEntity
  8
AM_0
100
AcDbLine
 10
39.90739967513253
 20
0.0702542977741558
 30
0.0
 11
50.65739731475425
 21
-0.8702486286230737
 31
0.0
  0
LINE
  5
4588
330
1F
100
AcDbEntity
  8
AM_0
100
AcDbLine
 10
34.65739967513257
 20
-19.99974570222585
 30
0.0
 11
50.65739967513257
 21
-19.99974570222582
 31
0.0
  0
LINE
  5
4590
330
1F
100
AcDbEntity
  8
AM_0
100
AcDbLine
 10
38.37080202166514
 20
-17.88526386093055
 30
0.0
 11
39.94144571086362
 21
0.0672756556096914
 31
0.0
  0
LINE
  5
4596
330
1F
100
AcDbEntity
  8
AM_7
100
AcDbLine
 10
57.89724742321991
 20
-9.737563541270326
 30
0.0
 11
31.49526889915236
 21
-7.427689725759506
 31
0.0
  0
LINE
  5
45A0
330
1F
100
AcDbEntity
  8
AM_7
100
AcDbLine
 10
-7.390731164520109
 20
55.59882314643569
 30
0.0
 11
-5.148856223510482
 21
29.97407531444624
 31
0.0
  0
LINE
  5
45F2
330
1F
100
AcDbEntity
  8
AM_0
100
AcDbLine
 10
-27.5171009882383
 20
33.47741424775124
 30
0.0
 11
-25.36400393895087
 21
33.66578583103499
 31
0.0
  0
LINE
  5
45F3
330
1F
100
AcDbEntity
  8
AM_0
100
AcDbLine
 10
-25.36400393895087
 20
33.66578583103499
 30
0.0
 11
-25.1841873840109
 21
31.61047320316878
 31
0.0
  0
LINE
  5
45F5
330
1F
100
AcDbEntity
  8
AM_0
100
AcDbLine
 10
-27.60425673098601
 20
34.47360894584299
 30
0.0
 11
-27.51710098823833
 21
33.47741424775124
 31
0.0
  0
LINE
  5
45F6
330
1F
100
AcDbEntity
  8
AM_0
100
AcDbLine
 10
-25.36400393895087
 20
33.66578583103499
 30
0.0
 11
-13.30805597138559
 21
33.66578583103502
 31
0.0
  0
LINE
  5
45F7
330
1F
100
AcDbEntity
  8
AM_0
100
AcDbLine
 10
-25.45115968169853
 20
34.66198052912675
 30
0.0
 11
-13.39521171413324
 21
34.66198052912678
 31
0.0
  0
LINE
  5
45FE
330
1F
100
AcDbEntity
  8
AM_0
100
AcDbLine
 10
37.45495544993109
 20
-16.48759822021397
 30
0.0
 11
34.65739967513256
 21
-16.24284380433763
 31
0.0
  0
LINE
  5
46C7
330
1F
100
AcDbEntity
  8
AM_0
100
AcDbLine
 10
34.65739967513256
 20
-16.83993988100977
 30
0.0
 11
41.02539967513257
 21
-19.99974570222583
 31
0.0
  0
LINE
  5
46CD
330
1F
100
AcDbEntity
  8
AM_0
100
AcDbLine
 10
38.37216885981568
 20
-17.86964082938023
 30
0.0
 11
37.37597416172398
 21
-17.78248508663258
 31
0.0
  0
LINE
  5
46D9
330
1F
100
AcDbEntity
  8
AM_0
100
AcDbLine
 10
37.37597416172398
 20
-17.78248508663258
 30
0.0
 11
37.48900148566211
 21
-16.49057686237844
 31
0.0
  0
LINE
  5
46E2
330
1F
100
AcDbEntity
  8
AM_0
100
AcDbLine
 10
-0.0001468188882019
 20
32.11047320316876
 30
0.0
 11
-13.07192884825196
 21
30.96684046351755
 31
0.0
  0
POLYLINE
  5
4756
330
1F
100
AcDbEntity
  8
AM_0
100
AcDb2dPolyline
 66
     1
 10
0.0
 20
0.0
 30
0.0
 70
     1
  0
VERTEX
  5
4757
330
4756
100
AcDbEntity
  8
AM_0
100
AcDbVertex
100
AcDb2dVertex
 10
-0.0000000000000964
 20
-14.52650264998307
 30
0.0
  0
VERTEX
  5
4758
330
4756
100
AcDbEntity
  8
AM_0
100
AcDbVertex
100
AcDb2dVertex
 10
-0.0000000000000604
 20
-0.7999999999997414
 30
0.0
 42
0.5773502691896258
  0
VERTEX
  5
4759
330
4756
100
AcDbEntity
  8
AM_0
100
AcDbVertex
100
AcDb2dVertex
 10
-1.200000000000106
 20
-0.1071796769721374
 30
0.0
  0
VERTEX
  5
475A
330
4756
100
AcDbEntity
  8
AM_0
100
AcDbVertex
100
AcDb2dVertex
 10
-13.08750000000005
 20
-6.970431001963881
 30
0.0
 42
0.5773502691896262
  0
VERTEX
  5
475B
330
4756
100
AcDbEntity
  8
AM_0
100
AcDbVertex
100
AcDb2dVertex
 10
-13.08750000000005
 20
-8.356071648018975
 30
0.0
  0
VERTEX
  5
475C
330
4756
100
AcDbEntity
  8
AM_0
100
AcDbVertex
100
AcDb2dVertex
 10
-1.200000000000084
 20
-15.21932297301062
 30
0.0
 42
0.577350269189626
  0
SEQEND
  5
475D
330
4756
100
AcDbEntity
  8
AM_0
  0
CIRCLE
  5
475E
330
1F
100
AcDbEntity
  8
AM_0
100
AcDbCircle
 10
-4.762500000000095
 20
-7.663251324991414
 30
0.0
 40
1.817499999999999
  0
LINE
  5
4760
330
1F
100
AcDbEntity
  8
AM_5
100
AcDbLine
 10
-0.0000000000000604
 20
-0.7999999999997414
 30
0.0
 11
-0.0000000000000616
 21
0.0000000000003126
 31
0.0
  0
LINE
  5
476A
330
1F
100
AcDbEntity
  8
AM_0
100
AcDbLine
 10
-24.09420901095243
 20
-2.001345237653701
 30
0.0
 11
0.0517145710835417
 21
-15.94200071757434
 31
0.0
  0
ARC
  5
476B
330
1F
100
AcDbEntity
  8
AM_0
100
AcDbCircle
 10
-1.215717970636352
 20
-0.8027925030812923
 30
0.0
 40
0.8
100
AcDbArc
 50
75.32491618681117
 51
95.00000000000008
1001
GENIUS_GENODEF_13
1002
{
1000
HIER
1070
     0
1002
}
1002
{
1000
MANEDIT
1070
     0
1002
}
1002
{
1000
NOSEL
1070
     0
1002
}
1002
{
1000
BEHIND
1070
     0
1002
}
1002
{
1000
REACTOR
1002
}
1001
GENIUS_GENOBJ-N-FIL_13
1002
{
1000
OWNER
1000
GEN
1002
}
  0
LINE
  5
4772
330
1F
100
AcDbEntity
  8
AM_0
100
AcDbLine
 10
-13.48679018373082
 20
35.70872722643425
 30
0.0
 11
-13.07192884825196
 21
30.96684046351755
 31
0.0
  0
LINE
  5
477C
330
1F
100
AcDbEntity
  8
AM_0
100
AcDbLine
 10
38.54319676967081
 20
-15.91478287450436
 30
0.0
 11
33.80131000675412
 21
-15.4999215390255
 31
0.0
  0
LINE
  5
4781
330
1F
100
AcDbEntity
  8
AM_0
100
AcDbLine
 10
-13.12823941644558
 20
31.61047320316875
 30
0.0
 11
-100.0001468188882
 21
31.61047320316866
 31
0.0
  0
LINE
  5
4787
330
1F
100
AcDbEntity
  8
AM_0
100
AcDbLine
 10
-46.93603084287581
 20
31.61047320316875
 30
0.0
 11
-46.93603084287583
 21
47.61047320316875
 31
0.0
  0
LINE
  5
47EF
330
1F
100
AcDbEntity
  8
AM_0
100
AcDbLine
 10
-0.4150081543670343
 20
36.85235996608551
 30
0.0
 11
-27.60425673098601
 21
34.47360894584299
 31
0.0
  0
LINE
  5
47F8
330
1F
100
AcDbEntity
  8
AM_0
100
AcDbLine
 10
33.80131000675412
 20
-15.4999215390255
 30
0.0
 11
35.15739967513253
 21
0.0002542977740987
 31
0.0
  0
LINE
  5
486F
330
1F
100
AcDbEntity
  8
AM_0
100
AcDbLine
 10
39.89928643804923
 20
-0.4146070377048119
 30
0.0
 11
35.15739967513253
 21
0.0002542977740418
 31
0.0
  0
LINE
  5
4870
330
1F
100
AcDbEntity
  8
AM_0
100
AcDbLine
 10
34.65739967513255
 20
-5.714771853606777
 30
0.0
 11
34.65739967513254
 21
-3.999745702225851
 31
0.0
  0
LINE
  5
4878
330
1F
100
AcDbEntity
  8
AM_0
100
AcDbLine
 10
-4.635020643584373
 20
52.78519087504512
 30
0.0
 11
-4.182291510347899
 21
47.61047320316882
 31
0.0
  0
LINE
  5
487C
330
1F
100
AcDbEntity
  8
AM_0
100
AcDbLine
 10
-9.615994134043097
 20
52.34941216130683
 30
0.0
 11
-9.201390698064647
 21
47.61047320316881
 31
0.0
  0
LINE
  5
4885
330
1F
100
AcDbEntity
  8
AM_0
100
AcDbLine
 10
-4.635020643584373
 20
52.78519087504512
 30
0.0
 11
-9.615994134043097
 21
52.34941216130683
 31
0.0
  0
LINE
  5
4887
330
1F
100
AcDbEntity
  8
AM_0
100
AcDbLine
 10
55.62263522255395
 20
-7.02901116593599
 30
0.0
 11
50.65739967513255
 21
-6.594609343800698
 31
0.0
  0
LINE
  5
4888
330
1F
100
AcDbEntity
  8
AM_0
100
AcDbLine
 10
55.18685650881558
 20
-12.0099846563946
 30
0.0
 11
50.65739967513255
 21
-11.61370853151731
 31
0.0
  0
LINE
  5
4889
330
1F
100
AcDbEntity
  8
AM_0
100
AcDbLine
 10
55.1815541440008
 20
-12.07059096355583
 30
0.0
 11
55.61733285773918
 21
-7.089617473097227
 31
0.0
  0
DIMENSION
  5
498B
330
1F
100
AcDbEntity
  8
AM_5
100
AcDbDimension
  2
*D5
 10
-114.0001468188882
 20
31.61047320316867
 30
0.0
 11
-117.1001468188882
 21
39.61047320316865
 31
0.0
 70
    32
  1
<>
  3
AM_JIS
100
AcDbAlignedDimension
 13
-100.0001468188882
 23
47.61047320316866
 33
0.0
 14
-100.0001468188882
 24
31.61047320316866
 34
0.0
 50
270.0000000000001
100
AcDbRotatedDimension
1001
GENIUS_GENDTOL_13
1000

1000
h7
1000

1040
0.0
  0
DIMENSION
  5
4A13
330
1F
100
AcDbEntity
  8
AM_5
100
AcDbDimension
  2
*D6
 10
23.48319620966694
 20
32.11047320316875
 30
0.0
 11
20.38319620966694
 21
39.86047320316879
 31
0.0
 70
    32
  1
<>
  3
AM_JIS
100
AcDbAlignedDimension
 13
-1.35622110354009
 23
47.61047320316882
 33
0.0
 14
-0.000146818888256
 24
32.11047320316876
 34
0.0
 50
90.00000000000005
100
AcDbRotatedDimension
1001
GENIUS_GENDTOL_13
1000

1000
h7
1000

1040
0.0
  0
DIMENSION
  5
4AAF
330
1F
100
AcDbEntity
  8
AM_5
100
AcDbDimension
  2
*D7
 10
-114.0001478188881
 20
-19.99974570222605
 30
0.0
 11
-117.1001478188881
 21
-11.99974570222607
 31
0.0
 70
    32
  1
<>
  3
AM_JIS
100
AcDbAlignedDimension
 13
-100.0001468188881
 23
-3.999745702226057
 33
0.0
 14
-100.0001468188881
 24
-19.99974570222605
 34
0.0
 50
270.0000000000001
100
AcDbRotatedDimension
1001
GENIUS_GENDTOL_13
1000

1000
h7
1000

1040
0.0
  0
DIMENSION
  5
4B96
330
1F
100
AcDbEntity
  8
AM_5
100
AcDbDimension
  2
*D8
 10
50.65739967513254
 20
23.76531902060435
 30
0.0
 11
42.90739967513253
 21
26.86531902060435
 31
0.0
 70
    32
  1
<>
  3
AM_JIS
100
AcDbAlignedDimension
 13
35.15739967513253
 23
0.0002542977740987
 33
0.0
 14
50.65739967513254
 24
0.00025429777412
 34
0.0
 50
180.0
100
AcDbRotatedDimension
1001
GENIUS_GENDTOL_13
1000

1000
h7
1000

1040
0.0
  0
DIMENSION
  5
4D8A
330
1F
100
AcDbEntity
  8
AM_5
100
AcDbDimension
  2
*D9
 10
-21.26216133319809
 20
0.0000000000002771
 30
0.0
 11
7.110395882748201
 21
-7.110395882747963
 31
0.0
 70
    34
  1
<>
  3
AM_JIS$2
100
AcDb2LineAngularDimension
 13
-0.0000000000000964
 23
-15.11180423233994
 33
0.0
 14
-0.0000000000000604
 24
-1.385301582356618
 34
0.0
 15
-0.0000000000000625
 25
0.0000000000003126
 35
0.0
 16
6.577809145612132
 26
-11.39309964269126
 36
0.0
1001
ACAD
1000
DSTYLE
1002
{
1070
   179
1070
     3
1002
}
1001
GENIUS_GENDTOL_13
1000

1000
h7
1000

1040
0.0
  0
LINE
  5
4FCF
330
1F
100
AcDbEntity
  8
AM_0
100
AcDbLine
 10
-0.4150081543670343
 20
36.85235996608551
 30
0.0
 11
-11.16571797063605
 21
47.61047320316881
 31
0.0
  0
LINE
  5
52EC
330
1F
100
AcDbEntity
  8
AM_11
100
AcDbLine
 10
-0.8000000000000998
 20
0.0000000000003126
 30
0.0
 11
-0.0000000000000616
 21
0.0000000000003126
 31
0.0
  0
LINE
  5
52EE
330
1F
100
AcDbEntity
  8
AM_0
100
AcDbLine
 10
0.0517145710835417
 20
-15.94200071757434
 30
0.0
 11
0.0517145710835424
 21
-16.52730229993111
 31
0.0
  0
DIMENSION
  5
52FB
330
1F
100
AcDbEntity
  8
AM_5
100
AcDbDimension
  2
*D10
 10
22.81048163219995
 20
-19.99974570222597
 30
0.0
 11
19.71048163219995
 21
-9.999872851112828
 31
0.0
 70
    32
  1
<>
  3
AM_JIS
100
AcDbAlignedDimension
 13
-0.0000000000000616
 23
0.0000000000003126
 33
0.0
 14
-0.5591533833950317
 24
-19.99974570222596
 34
0.0
 50
270.0
100
AcDbRotatedDimension
1001
GENIUS_GENDTOL_13
1000

1000
h7
1000

1040
0.0
  0
DIMENSION
  5
5388
330
1F
100
AcDbEntity
  8
AM_5
100
AcDbDimension
  2
*D11
 10
-0.0001468188882001
 20
17.61047320316869
 30
0.0
 11
-50.00014681888821
 21
20.71047320316869
 31
0.0
 70
    32
  1
<>
  3
AM_JIS
100
AcDbAlignedDimension
 13
-100.0001468188882
 23
31.61047320316866
 33
0.0
 14
-0.0001468188881992
 24
32.11047320316876
 34
0.0
 50
180.0
100
AcDbRotatedDimension
1001
GENIUS_GENDTOL_13
1000

1000
h7
1000

1040
0.0
  0
DIMENSION
  5
5491
330
1F
100
AcDbEntity
  8
AM_5
100
AcDbDimension
  2
*D12
 10
35.15739967513253
 20
1.457071648084443
 30
0.0
 11
32.67231033205077
 21
12.6465601195674
 31
0.0
 70
   162
  1
-<>
  3
AM_JIS$2
100
AcDb2LineAngularDimension
 13
35.15739967513253
 23
1.457071648084443
 33
0.0
 14
35.15739967513253
 24
0.0002542977740987
 34
0.0
 15
34.2450200318147
 25
-8.971475395012767
 35
0.0
 16
35.82386300208905
 26
12.89980505974665
 36
0.0
1001
ACAD
1000
DSTYLE
1002
{
1070
   179
1070
     3
1002
}
1001
GENIUS_GENDTOL_13
1000

1000
h7
1000

1040
0.0
  0
DIMENSION
  5
5492
330
1F
100
AcDbEntity
  8
AM_5
100
AcDbDimension
  2
*D13
 10
-14.27467229708784
 20
30.86161404661464
 30
0.0
 11
11.02636096719114
 21
19.63242322735132
 31
0.0
 70
    34
  1
-<>
  3
AM_JIS$2
100
AcDb2LineAngularDimension
 13
-0.0001468188884613
 23
32.11047320316906
 33
0.0
 14
-1.648169770691108
 24
32.11047320316906
 34
0.0
 15
-0.0001468188882949
 25
32.11047320316907
 35
0.0
 16
12.02323080849126
 26
32.81075520455093
 36
0.0
1001
ACAD
1000
DSTYLE
1002
{
1070
   179
1070
     3
1002
}
1001
GENIUS_GENDTOL_13
1000

1000
h7
1000

1040
0.0
  0
VIEWPORT
  5
110
330
101
100
AcDbEntity
 67
     1
  8
0
100
AcDbViewport
 10
420.5
 20
297.0
 30
0.0
 40
948.9782706766916
 41
628.452
 68
     1
 69
     1
1001
ACAD
1000
MVIEW
1002
{
1070
    16
1010
0.0
1020
0.0
1030
0.0
1010
0.0
1020
0.0
1030
1.0
1040
0.0
1040
628.452
1040
420.5
1040
297.0
1040
50.0
1040
0.0
1040
0.0
1070
     0
1070
   100
1070
     1
1070
     1
1070
     0
1070
     0
1070
     0
1070
     0
1040
0.0
1040
0.0
1040
0.0
1040
10.0
1040
10.0
1040
10.0
1040
10.0
1070
     0
1002
{
1002
}
1002
}
  0
ENDSEC
  0
SECTION
  2
OBJECTS
  0
DICTIONARY
  5
C
330
0
100
AcDbDictionary
  3
ACAD_GROUP
350
D
  3
ACAD_LAYOUT
350
1A
  3
ACAD_MLINESTYLE
350
17
  3
ACAD_PLOTSETTINGS
350
19
  3
ACAD_PLOTSTYLENAME
350
E
  3
ACDBVARIABLEDICTIONARY
350
34
  3
ACMDICTIONARY
350
43
  3
AMG
350
2B
  3
AMGSNAPSETTINGS
350
6E
  3
DWGPROPS
350
5617
  3
ACDBHEADERROUNDTRIPXREC
350
5623
  0
DICTIONARY
  5
74
330
1F
100
AcDbDictionary
280
     1
  3
ACAD_INDEX
360
5619
  3
ACAD_LAYOUTSELFREF
360
5646
  0
DICTIONARY
  5
564B
330
101
100
AcDbDictionary
280
     1
  3
ACAD_LAYOUTSELFREF
360
564C
  0
DICTIONARY
  5
D
102
{ACAD_REACTORS
330
C
102
}
330
C
100
AcDbDictionary
  0
DICTIONARY
  5
1A
102
{ACAD_REACTORS
330
C
102
}
330
C
100
AcDbDictionary
  0
DICTIONARY
  5
17
102
{ACAD_REACTORS
330
C
102
}
330
C
100
AcDbDictionary
  3
STANDARD
350
18
  0
DICTIONARY
  5
19
102
{ACAD_REACTORS
330
C
102
}
330
C
100
AcDbDictionary
  0
ACDBDICTIONARYWDFLT
  5
E
102
{ACAD_REACTORS
330
C
102
}
330
C
100
AcDbDictionary
281
     1
  3
Normal
350
F
100
AcDbDictionaryWithDefault
340
F
  0
DICTIONARY
  5
34
102
{ACAD_REACTORS
330
C
102
}
330
C
100
AcDbDictionary
  3
INDEXCTL
350
35
  3
SORTENTS
350
B5E
  0
DICTIONARY
  5
43
102
{ACAD_REACTORS
330
C
102
}
330
C
100
AcDbDictionary
  3
ACMSTDDICTIONARY
350
260
  0
DICTIONARY
  5
2B
102
{ACAD_REACTORS
330
C
102
}
330
C
100
AcDbDictionary
  3
ACMGSETTINGS
350
2C
  0
DICTIONARY
  5
6E
102
{ACAD_REACTORS
330
C
102
}
330
C
100
AcDbDictionary
  0
XRECORD
  5
5617
102
{ACAD_REACTORS
330
C
102
}
330
C
100
AcDbXrecord
  1
DWGPROPS COOKIE
  2

  3

  4

  6

  7

  8

  9

300
AmdtFileType=82
301
=
302
=
303
=
304
=
305
=
306
=
307
=
308
=
309
=
 40
0.6186928240740741
 41
2452838.620506898
 42
2452909.592234687
  1

 90
        1
  0
DICTIONARY
  5
5623
102
{ACAD_REACTORS
330
C
102
}
330
C
100
AcDbDictionary
  3
TSTACKALIGN
350
5624
  3
TSTACKSIZE
350
5625
  3
HYPERLINKBASE
350
5626
  3
STYLESHEET
350
5627
  3
LAYOUTDICT
350
5628
  3
PLOTSETDICT
350
5629
  3
PLOTSTYLNAMDICT
350
562A
  3
LWETCUNION
350
562B
  3
INSUNITS
350
562C
  3
CEPSNTYPE
350
562D
  3
FINGERPRINTGUID
350
562E
  3
VERSIONGUID
350
562F
  3
PSVPSCALE
350
5630
  3
DIMSTYLEDATA
350
5631
  3
PUCSORTHOREF
350
5632
  3
PUCSORTHOVIEW
350
5633
  3
PUCSBASE
350
5634
  3
PUCSORGTOP
350
5635
  3
PUCSORGBOTTOM
350
5636
  3
PUCSORGLEFT
350
5637
  3
PUCSORGRIGHT
350
5638
  3
PUCSORGFRONT
350
5639
  3
PUCSORGBACK
350
563A
  3
UCSORTHOREF
350
563B
  3
UCSORTHOVIEW
350
563C
  3
UCSBASE
350
563D
  3
UCSORGTOP
350
563E
  3
UCSORGBOTTOM
350
563F
  3
UCSORGLEFT
350
5640
  3
UCSORGRIGHT
350
5641
  3
UCSORGFRONT
350
5642
  3
UCSORGBACK
350
5643
  0
DICTIONARY
  5
5619
102
{ACAD_REACTORS
330
74
102
}
330
74
100
AcDbDictionary
  3
*A1
350
561A
  0
XRECORD
  5
5646
102
{ACAD_REACTORS
330
74
102
}
330
74
100
AcDbXrecord
340
1F
  0
XRECORD
  5
564C
102
{ACAD_REACTORS
330
564B
102
}
330
564B
100
AcDbXrecord
340
101
  0
MLINESTYLE
  5
18
102
{ACAD_REACTORS
330
17
102
}
330
17
100
AcDbMlineStyle
  2
STANDARD
 70
     0
  3

 62
   256
 51
90.0
 52
90.0
 71
     2
 49
0.5
 62
   256
  6
BYLAYER
 49
-0.5
 62
   256
  6
BYLAYER
  0
ACDBPLACEHOLDER
  5
F
102
{ACAD_REACTORS
330
E
102
}
330
E
100
AcDbPlaceHolder
280
     0
  0
DICTIONARYVAR
  5
35
102
{ACAD_REACTORS
330
34
102
}
330
34
100
DictionaryVariables
280
     0
  1
1
  0
DICTIONARYVAR
  5
B5E
102
{ACAD_REACTORS
330
34
102
}
330
34
100
DictionaryVariables
280
     0
  1
96
  0
DICTIONARY
  5
260
102
{ACAD_REACTORS
330
43
102
}
330
43
100
AcDbDictionary
  0
DICTIONARY
  5
2C
102
{ACAD_REACTORS
330
2B
102
}
330
2B
100
AcDbDictionary
  3
DWGSETTINGS
350
2D
  0
XRECORD
  5
5624
102
{ACAD_REACTORS
330
5623
102
}
330
5623
100
AcDbXrecord
 90
        1
  0
XRECORD
  5
5625
102
{ACAD_REACTORS
330
5623
102
}
330
5623
100
AcDbXrecord
 90
       70
  0
XRECORD
  5
5626
102
{ACAD_REACTORS
330
5623
102
}
330
5623
100
AcDbXrecord
  1

  0
XRECORD
  5
5627
102
{ACAD_REACTORS
330
5623
102
}
330
5623
100
AcDbXrecord
  1
ASAMI.ctb
  0
XRECORD
  5
5628
102
{ACAD_REACTORS
330
5623
102
}
330
5623
100
AcDbXrecord
340
1A
  0
XRECORD
  5
5629
102
{ACAD_REACTORS
330
5623
102
}
330
5623
100
AcDbXrecord
340
19
  0
XRECORD
  5
562A
102
{ACAD_REACTORS
330
5623
102
}
330
5623
100
AcDbXrecord
340
E
  0
XRECORD
  5
562B
102
{ACAD_REACTORS
330
5623
102
}
330
5623
100
AcDbXrecord
 90
    10781
  0
XRECORD
  5
562C
102
{ACAD_REACTORS
330
5623
102
}
330
5623
100
AcDbXrecord
 90
        4
  0
XRECORD
  5
562D
102
{ACAD_REACTORS
330
5623
102
}
330
5623
100
AcDbXrecord
 90
        0
  0
XRECORD
  5
562E
102
{ACAD_REACTORS
330
5623
102
}
330
5623
100
AcDbXrecord
  1
{AFB28963-8C59-40AE-9337-C84526B81ACE}
  0
XRECORD
  5
562F
102
{ACAD_REACTORS
330
5623
102
}
330
5623
100
AcDbXrecord
  1
{D90E3E59-E527-4F81-9919-FD0D1625497F}
  0
XRECORD
  5
5630
102
{ACAD_REACTORS
330
5623
102
}
330
5623
100
AcDbXrecord
 40
0.0
  0
XRECORD
  5
5631
102
{ACAD_REACTORS
330
5623
102
}
330
5623
100
AcDbXrecord
1000
DSTYLE
1002
{
1070
    79
 70
     2
1070
   341
340
59
1070
   342
340
59
1070
   371
 70
    -1
1070
   372
 70
    -1
1002
}
  0
XRECORD
  5
5632
102
{ACAD_REACTORS
330
5623
102
}
330
5623
100
AcDbXrecord
340
0
  0
XRECORD
  5
5633
102
{ACAD_REACTORS
330
5623
102
}
330
5623
100
AcDbXrecord
 70
     0
  0
XRECORD
  5
5634
102
{ACAD_REACTORS
330
5623
102
}
330
5623
100
AcDbXrecord
340
0
  0
XRECORD
  5
5635
102
{ACAD_REACTORS
330
5623
102
}
330
5623
100
AcDbXrecord
 10
0.0
 20
0.0
 30
0.0
  0
XRECORD
  5
5636
102
{ACAD_REACTORS
330
5623
102
}
330
5623
100
AcDbXrecord
 10
0.0
 20
0.0
 30
0.0
  0
XRECORD
  5
5637
102
{ACAD_REACTORS
330
5623
102
}
330
5623
100
AcDbXrecord
 10
0.0
 20
0.0
 30
0.0
  0
XRECORD
  5
5638
102
{ACAD_REACTORS
330
5623
102
}
330
5623
100
AcDbXrecord
 10
0.0
 20
0.0
 30
0.0
  0
XRECORD
  5
5639
102
{ACAD_REACTORS
330
5623
102
}
330
5623
100
AcDbXrecord
 10
0.0
 20
0.0
 30
0.0
  0
XRECORD
  5
563A
102
{ACAD_REACTORS
330
5623
102
}
330
5623
100
AcDbXrecord
 10
0.0
 20
0.0
 30
0.0
  0
XRECORD
  5
563B
102
{ACAD_REACTORS
330
5623
102
}
330
5623
100
AcDbXrecord
340
0
  0
XRECORD
  5
563C
102
{ACAD_REACTORS
330
5623
102
}
330
5623
100
AcDbXrecord
 70
     0
  0
XRECORD
  5
563D
102
{ACAD_REACTORS
330
5623
102
}
330
5623
100
AcDbXrecord
340
0
  0
XRECORD
  5
563E
102
{ACAD_REACTORS
330
5623
102
}
330
5623
100
AcDbXrecord
 10
0.0
 20
0.0
 30
0.0
  0
XRECORD
  5
563F
102
{ACAD_REACTORS
330
5623
102
}
330
5623
100
AcDbXrecord
 10
0.0
 20
0.0
 30
0.0
  0
XRECORD
  5
5640
102
{ACAD_REACTORS
330
5623
102
}
330
5623
100
AcDbXrecord
 10
0.0
 20
0.0
 30
0.0
  0
XRECORD
  5
5641
102
{ACAD_REACTORS
330
5623
102
}
330
5623
100
AcDbXrecord
 10
0.0
 20
0.0
 30
0.0
  0
XRECORD
  5
5642
102
{ACAD_REACTORS
330
5623
102
}
330
5623
100
AcDbXrecord
 10
0.0
 20
0.0
 30
0.0
  0
XRECORD
  5
5643
102
{ACAD_REACTORS
330
5623
102
}
330
5623
100
AcDbXrecord
 10
0.0
 20
0.0
 30
0.0
  0
LAYER_INDEX
  5
561A
102
{ACAD_REACTORS
330
5619
102
}
330
5619
100
AcDbIndex
 40
2452941.592974895
100
AcDbLayerIndex
  8
0
360
561B
 90
        0
  8
AM_0
360
561C
 90
       46
  8
AM_11
360
561D
 90
        1
  8
AM_7
360
561E
 90
        2
  8
AM_5
360
561F
 90
       10
  8
Defpoints
360
5620
 90
        1
  8
AM_6
360
5621
 90
        1
  0
XRECORD
  5
2D
102
{ACAD_REACTORS
330
2C
102
}
330
2C
100
AcDbXrecord
  1
VERSION
140
15.0
  1
PRODUCT
  2
AutoCAD Mechanical 2000
  0
IDBUFFER
  5
561B
330
0
100
AcDbIdBuffer
  0
IDBUFFER
  5
561C
330
0
100
AcDbIdBuffer
330
45F2
330
45F3
330
45F5
330
45F6
330
45F7
330
45FE
330
46C7
330
46CD
330
46D9
330
46E2
330
4756
330
475E
330
476A
330
476B
330
4772
330
477C
330
4781
330
4787
330
47EF
330
47F8
330
486F
330
4870
330
4878
330
487C
330
4885
330
4887
330
4888
330
4889
330
4FCF
330
52EE
330
44A8
330
44B2
330
44BF
330
44C5
330
44E9
330
44F0
330
44F1
330
44F2
330
4556
330
4561
330
456D
330
4585
330
4586
330
4587
330
4588
330
4590
  0
IDBUFFER
  5
561D
330
0
100
AcDbIdBuffer
330
52EC
  0
IDBUFFER
  5
561E
330
0
100
AcDbIdBuffer
330
4596
330
45A0
  0
IDBUFFER
  5
561F
330
0
100
AcDbIdBuffer
330
4760
330
498B
330
4A13
330
4AAF
330
4B96
330
4D8A
330
52FB
330
5388
330
5491
330
5492
  0
IDBUFFER
  5
5620
330
0
100
AcDbIdBuffer
330
44EF
  0
IDBUFFER
  5
5621
330
0
100
AcDbIdBuffer
330
C58
  0
ENDSEC
  0
EOF
