  0
SECTION
  2
HEADER
  9
$ACADVER
  1
AC1014
  9
$ACADMAINTVER
 70
     9
  9
$DWGCODEPAGE
  3
ANSI_932
  9
$INSBASE
 10
0.0
 20
0.0
 30
0.0
  9
$EXTMIN
 10
-143.7
 20
-47.4999999999998
 30
0.0
  9
$EXTMAX
 10
69.16058617671193
 20
61.72306580669326
 30
0.0
  9
$LIMMIN
 10
-158.1596418024666
 20
-62.46611033728777
  9
$LIMMAX
 10
77.13645435486433
 20
65.37165929278353
  9
$ORTHOMODE
 70
     0
  9
$REGENMODE
 70
     1
  9
$FILLMODE
 70
     1
  9
$QTEXTMODE
 70
     0
  9
$MIRRTEXT
 70
     0
  9
$DRAGMODE
 70
     2
  9
$LTSCALE
 40
1.0
  9
$OSMODE
 70
  2103
  9
$ATTMODE
 70
     1
  9
$TEXTSIZE
 40
2.5
  9
$TRACEWID
 40
1.0
  9
$TEXTSTYLE
  7
STANDARD
  9
$CLAYER
  8
AM_0
  9
$CELTYPE
  6
BYLAYER
  9
$CECOLOR
 62
   256
  9
$CELTSCALE
 40
1.0
  9
$DELOBJ
 70
     1
  9
$DISPSILH
 70
     0
  9
$DIMSCALE
 40
1.0
  9
$DIMASZ
 40
2.5
  9
$DIMEXO
 40
1.0
  9
$DIMDLI
 40
12.0
  9
$DIMRND
 40
0.0
  9
$DIMDLE
 40
0.0
  9
$DIMEXE
 40
1.0
  9
$DIMTP
 40
0.1
  9
$DIMTM
 40
0.1
  9
$DIMTXT
 40
3.2
  9
$DIMCEN
 40
0.0
  9
$DIMTSZ
 40
0.0
  9
$DIMTOL
 70
     0
  9
$DIMLIM
 70
     0
  9
$DIMTIH
 70
     0
  9
$DIMTOH
 70
     0
  9
$DIMSE1
 70
     0
  9
$DIMSE2
 70
     0
  9
$DIMTAD
 70
     3
  9
$DIMZIN
 70
     8
  9
$DIMBLK
  1
OPEN30
  9
$DIMASO
 70
     1
  9
$DIMSHO
 70
     1
  9
$DIMPOST
  1

  9
$DIMAPOST
  1
"
  9
$DIMALT
 70
     0
  9
$DIMALTD
 70
     2
  9
$DIMALTF
 40
0.0393701
  9
$DIMLFAC
 40
1.0
  9
$DIMTOFL
 70
     1
  9
$DIMTVP
 40
0.0
  9
$DIMTIX
 70
     0
  9
$DIMSOXD
 70
     0
  9
$DIMSAH
 70
     0
  9
$DIMBLK1
  1

  9
$DIMBLK2
  1

  9
$DIMSTYLE
  2
AM_JIS
  9
$DIMCLRD
 70
     3
  9
$DIMCLRE
 70
     3
  9
$DIMCLRT
 70
     2
  9
$DIMTFAC
 40
0.71
  9
$DIMGAP
 40
1.5
  9
$DIMJUST
 70
     0
  9
$DIMSD1
 70
     0
  9
$DIMSD2
 70
     0
  9
$DIMTOLJ
 70
     0
  9
$DIMTZIN
 70
     0
  9
$DIMALTZ
 70
     0
  9
$DIMALTTZ
 70
     0
  9
$DIMFIT
 70
     3
  9
$DIMUPT
 70
     0
  9
$DIMUNIT
 70
     2
  9
$DIMDEC
 70
     3
  9
$DIMTDEC
 70
     3
  9
$DIMALTU
 70
     2
  9
$DIMALTTD
 70
     2
  9
$DIMTXSTY
  7
ASAMI
  9
$DIMAUNIT
 70
     0
  9
$LUNITS
 70
     2
  9
$LUPREC
 70
     2
  9
$SKETCHINC
 40
1.0
  9
$FILLETRAD
 40
1.0
  9
$AUNITS
 70
     0
  9
$AUPREC
 70
     0
  9
$MENU
  1
.
  9
$ELEVATION
 40
0.0
  9
$PELEVATION
 40
0.0
  9
$THICKNESS
 40
0.0
  9
$LIMCHECK
 70
     0
  9
$BLIPMODE
 70
     0
  9
$CHAMFERA
 40
2.5
  9
$CHAMFERB
 40
2.5
  9
$CHAMFERC
 40
20.0
  9
$CHAMFERD
 40
0.0
  9
$SKPOLY
 70
     0
  9
$TDCREATE
 40
2452838.620506898
  9
$TDUPDATE
 40
2452941.592890798
  9
$TDINDWG
 40
0.4675330556
  9
$TDUSRTIMER
 40
0.4675330556
  9
$USRTIMER
 70
     1
  9
$ANGBASE
 50
0.0
  9
$ANGDIR
 70
     0
  9
$PDMODE
 70
     0
  9
$PDSIZE
 40
0.0
  9
$PLINEWID
 40
0.0
  9
$COORDS
 70
     0
  9
$SPLFRAME
 70
     0
  9
$SPLINETYPE
 70
     6
  9
$SPLINESEGS
 70
     8
  9
$ATTDIA
 70
     1
  9
$ATTREQ
 70
     1
  9
$HANDLING
 70
 12289
  9
$HANDSEED
  5
3B4B
  9
$SURFTAB1
 70
     6
  9
$SURFTAB2
 70
     6
  9
$SURFTYPE
 70
     6
  9
$SURFU
 70
     6
  9
$SURFV
 70
     6
  9
$UCSNAME
  2

  9
$UCSORG
 10
-0.0000000000000616
 20
0.0000000000003144
 30
0.0
  9
$UCSXDIR
 10
1.0
 20
0.0
 30
0.0
  9
$UCSYDIR
 10
0.0
 20
1.0
 30
0.0
  9
$PUCSNAME
  2

  9
$PUCSORG
 10
0.0
 20
0.0
 30
0.0
  9
$PUCSXDIR
 10
1.0
 20
0.0
 30
0.0
  9
$PUCSYDIR
 10
0.0
 20
1.0
 30
0.0
  9
$USERI1
 70
     0
  9
$USERI2
 70
     0
  9
$USERI3
 70
     0
  9
$USERI4
 70
     0
  9
$USERI5
 70
     0
  9
$USERR1
 40
0.0
  9
$USERR2
 40
0.0
  9
$USERR3
 40
0.0
  9
$USERR4
 40
0.0
  9
$USERR5
 40
0.0
  9
$WORLDVIEW
 70
     1
  9
$SHADEDGE
 70
     3
  9
$SHADEDIF
 70
    70
  9
$TILEMODE
 70
     1
  9
$MAXACTVP
 70
    64
  9
$PINSBASE
 10
0.0
 20
0.0
 30
0.0
  9
$PLIMCHECK
 70
     0
  9
$PEXTMIN
 10
1.000000000000000E+20
 20
1.000000000000000E+20
 30
1.000000000000000E+20
  9
$PEXTMAX
 10
-1.000000000000000E+20
 20
-1.000000000000000E+20
 30
-1.000000000000000E+20
  9
$PLIMMIN
 10
0.0
 20
0.0
  9
$PLIMMAX
 10
841.0
 20
594.0
  9
$UNITMODE
 70
     0
  9
$VISRETAIN
 70
     1
  9
$PLINEGEN
 70
     0
  9
$PSLTSCALE
 70
     0
  9
$TREEDEPTH
 70
  3020
  9
$PICKSTYLE
 70
     0
  9
$CMLSTYLE
  2
STANDARD
  9
$CMLJUST
 70
     0
  9
$CMLSCALE
 40
20.0
  9
$PROXYGRAPHICS
 70
     1
  9
$MEASUREMENT
 70
     1
  0
ENDSEC
  0
SECTION
  2
CLASSES
  0
CLASS
  1
ACDBDICTIONARYWDFLT
  2
AcDbDictionaryWithDefault
  3
AutoCAD 2000
 90
        0
280
     0
281
     0
  0
CLASS
  1
ACDBPLACEHOLDER
  2
AcDbPlaceHolder
  3
AutoCAD 2000
 90
        0
280
     0
281
     0
  0
CLASS
  1
LAYOUT
  2
AcDbLayout
  3
AutoCAD 2000
 90
        0
280
     0
281
     0
  0
CLASS
  1
AMGSETTINGSOBJ
  2
AmgSettingsObj
  3
"AcadM|Product Description: AutoCAD Mechanical 2000|Company: Autodesk"
 90
        0
280
     0
281
     0
  0
CLASS
  1
ACME_DOCUMENT
  2
AcMeDbDoc
  3
AcMeServices
 90
        0
280
     0
281
     0
  0
CLASS
  1
ACMESCOPE
  2
AcMeScope
  3
AcMeServices
 90
        0
280
     0
281
     0
  0
CLASS
  1
ACMECOMMANDHISTORY
  2
AcMeCommandHistory
  3
AcMeServices
 90
        0
280
     0
281
     0
  0
CLASS
  1
DICTIONARYVAR
  2
AcDbDictionaryVar
  3
AutoCAD 2000
 90
        0
280
     0
281
     0
  0
CLASS
  1
ACIMSYSVARMAN
  2
AcImSysVarManager
  3
AcMeServices
 90
        0
280
     0
281
     0
  0
CLASS
  1
ACIMREALSYSVAR
  2
AcImRealSysVar
  3
AcMeServices
 90
        0
280
     0
281
     0
  0
CLASS
  1
ACIMINTSYSVAR
  2
AcImIntSysVar
  3
AcMeServices
 90
        0
280
     0
281
     0
  0
CLASS
  1
ACMEDRAWINGMAN
  2
AcMeDrawingMan
  3
AcMeServices
 90
        0
280
     0
281
     0
  0
CLASS
  1
ACMEVIEW
  2
AcMeView
  3
AcMeServices
 90
        0
280
     0
281
     0
  0
CLASS
  1
ACDBENTITYCACHE
  2
AcMeEntityCache
  3
AcMeServices
 90
        0
280
     0
281
     0
  0
CLASS
  1
GSMANAGER
  2
AcMeGSManager
  3
AcMeServices
 90
        0
280
     0
281
     0
  0
CLASS
  1
AmdtInternalReactor
  2
AmdtInternalReactor
  3
AcMeServices
 90
        0
280
     0
281
     0
  0
CLASS
  1
ACMESTATEMGR
  2
AcMeStateMgr
  3
AcMeServices
 90
        0
280
     0
281
     0
  0
CLASS
  1
ACME_DATABASE
  2
AcMeDbDatabase
  3
AcMeServices
 90
        0
280
     0
281
     0
  0
CLASS
  1
ACRFINSADJUSTERMGR
  2
AcRfInsAdjusterMgr
  3
AcMeServices
 90
        0
280
     0
281
     0
  0
CLASS
  1
ACMDATADICTIONARY
  2
AcmDataDictionary
  3
"AcmSymBB|Product Description: AutoCAD Mechanical 2000|Company: Autodesk"
 90
        0
280
     0
281
     0
  0
CLASS
  1
ACMDATAENTRYBLOCK
  2
AcmDataEntryBlock
  3
"AcmSymBB|Product Description: AutoCAD Mechanical 2000|Company: Autodesk"
 90
        0
280
     0
281
     0
  0
CLASS
  1
AMGOBJPROPCFG
  2
AmgObjPropCfg
  3
"AmgLay|Product Description: AutoCAD Mechanical 2000|Company: Autodesk"
 90
        1
280
     0
281
     0
  0
CLASS
  1
ACAMGFILTERDAT
  2
AcAmgFilterDat
  3
"AcadM|Product Description: AutoCAD Mechanical 2000|Company: Autodesk"
 90
        0
280
     0
281
     0
  0
CLASS
  1
LAYER_INDEX
  2
AcDbLayerIndex
  3
AutoCAD 2000
 90
        0
280
     0
281
     0
  0
CLASS
  1
IDBUFFER
  2
AcDbIdBuffer
  3
AutoCAD 2000
 90
        0
280
     0
281
     0
  0
CLASS
  1
ACIMSTRSYSVAR
  2
AcImStrSysVar
  3
AcMeServices
 90
        0
280
     0
281
     0
  0
CLASS
  1
ACMSTANDARDJIS
  2
AcmStandardJIS
  3
"AcmSymBB|Product Description: AutoCAD Mechanical 2000|Company: Autodesk"
 90
        0
280
     0
281
     0
  0
CLASS
  1
ACMSURFSTANDARDJIS
  2
AcmSurfTextStdJIS
  3
"AcmSymBB|Product Description: AutoCAD Mechanical 2000|Company: Autodesk"
 90
        0
280
     0
281
     0
  0
CLASS
  1
ACMFCFSTANDARDJIS
  2
AcmFCFStdJIS
  3
"AcmSymBB|Product Description: AutoCAD Mechanical 2000|Company: Autodesk"
 90
        0
280
     0
281
     0
  0
CLASS
  1
ACMWELDSTANDARDJIS
  2
AcmWeldingStdJIS
  3
"AcmSymBB|Product Description: AutoCAD Mechanical 2000|Company: Autodesk"
 90
        0
280
     0
281
     0
  0
CLASS
  1
ACMIDSTANDARDJIS
  2
AcmIdStdJIS
  3
"AcmSymBB|Product Description: AutoCAD Mechanical 2000|Company: Autodesk"
 90
        0
280
     0
281
     0
  0
CLASS
  1
ACMDATUMSTANDARDJIS
  2
AcmDatumStdJIS
  3
"AcmSymBB|Product Description: AutoCAD Mechanical 2000|Company: Autodesk"
 90
        0
280
     0
281
     0
  0
CLASS
  1
ACMBOMSTANDARDJIS
  2
AcmBOMStdJIS
  3
"AcmSymBB|Product Description: AutoCAD Mechanical 2000|Company: Autodesk"
 90
        0
280
     0
281
     0
  0
CLASS
  1
ACMSTANDARDANSI
  2
AcmStandardANSI
  3
"AcmSymBB|Product Description: AutoCAD Mechanical 2000|Company: Autodesk"
 90
        0
280
     0
281
     0
  0
CLASS
  1
ACMSURFSTANDARDANSI
  2
AcmSurfTextStdANSI
  3
"AcmSymBB|Product Description: AutoCAD Mechanical 2000|Company: Autodesk"
 90
        0
280
     0
281
     0
  0
CLASS
  1
ACMFCFSTANDARDANSI
  2
AcmFCFStdANSI
  3
"AcmSymBB|Product Description: AutoCAD Mechanical 2000|Company: Autodesk"
 90
        0
280
     0
281
     0
  0
CLASS
  1
ACMWELDSTANDARDANSI
  2
AcmWeldingStdANSI
  3
"AcmSymBB|Product Description: AutoCAD Mechanical 2000|Company: Autodesk"
 90
        0
280
     0
281
     0
  0
CLASS
  1
ACMIDSTANDARDANSI
  2
AcmIdStdANSI
  3
"AcmSymBB|Product Description: AutoCAD Mechanical 2000|Company: Autodesk"
 90
        0
280
     0
281
     0
  0
CLASS
  1
ACMDATUMSTANDARDANSI
  2
AcmDatumStdANSI
  3
"AcmSymBB|Product Description: AutoCAD Mechanical 2000|Company: Autodesk"
 90
        0
280
     0
281
     0
  0
CLASS
  1
ACMBOMSTANDARDANSI
  2
AcmBOMStdANSI
  3
"AcmSymBB|Product Description: AutoCAD Mechanical 2000|Company: Autodesk"
 90
        0
280
     0
281
     0
  0
CLASS
  1
ACMSTANDARDBSI
  2
AcmStandardBSI
  3
"AcmSymBB|Product Description: AutoCAD Mechanical 2000|Company: Autodesk"
 90
        0
280
     0
281
     0
  0
CLASS
  1
ACMSURFSTANDARDBSI
  2
AcmSurfTextStdBSI
  3
"AcmSymBB|Product Description: AutoCAD Mechanical 2000|Company: Autodesk"
 90
        0
280
     0
281
     0
  0
CLASS
  1
ACMFCFSTANDARDBSI
  2
AcmFCFStdBSI
  3
"AcmSymBB|Product Description: AutoCAD Mechanical 2000|Company: Autodesk"
 90
        0
280
     0
281
     0
  0
CLASS
  1
ACMWELDSTANDARDBSI
  2
AcmWeldingStdBSI
  3
"AcmSymBB|Product Description: AutoCAD Mechanical 2000|Company: Autodesk"
 90
        0
280
     0
281
     0
  0
CLASS
  1
ACMIDSTANDARDBSI
  2
AcmIdStdBSI
  3
"AcmSymBB|Product Description: AutoCAD Mechanical 2000|Company: Autodesk"
 90
        0
280
     0
281
     0
  0
CLASS
  1
ACMDATUMSTANDARDBSI
  2
AcmDatumStdBSI
  3
"AcmSymBB|Product Description: AutoCAD Mechanical 2000|Company: Autodesk"
 90
        0
280
     0
281
     0
  0
CLASS
  1
ACMBOMSTANDARDBSI
  2
AcmBOMStdBSI
  3
"AcmSymBB|Product Description: AutoCAD Mechanical 2000|Company: Autodesk"
 90
        0
280
     0
281
     0
  0
CLASS
  1
LONG_TRANSACTION
  2
AcDbLongTransaction
  3
AutoCAD 2000
 90
        0
280
     0
281
     0
  0
CLASS
  1
LWPOLYLINE
  2
AcDbPolyline
  3
AutoCAD 2000
 90
        0
280
     0
281
     1
  0
CLASS
  1
HATCH
  2
AcDbHatch
  3
AutoCAD 2000
 90
        0
280
     0
281
     1
  0
CLASS
  1
XRECORD
  2
AcDbXrecord
  3
AutoCAD 2000
 90
        0
280
     0
281
     0
  0
ENDSEC
  0
SECTION
  2
TABLES
  0
TABLE
  2
VPORT
  5
8
330
0
100
AcDbSymbolTable
 70
     3
  0
VPORT
  5
3B20
330
8
100
AcDbSymbolTableRecord
100
AcDbViewportTableRecord
  2
*ACTIVE
 70
     0
 10
0.0
 20
0.0
 11
1.0
 21
1.0
 12
-37.267828306378
 22
7.112907642762564
 13
0.0
 23
0.0
 14
2.5
 24
2.5
 15
10.0
 25
10.0
 16
0.0
 26
0.0
 36
1.0
 17
0.0
 27
0.0
 37
0.0
 40
136.5039208368226
 41
1.56570841889117
 42
50.0
 43
0.0
 44
0.0
 50
0.0
 51
0.0
 71
     0
 72
   100
 73
     1
 74
     3
 75
     0
 76
     0
 77
     0
 78
     0
  0
ENDTAB
  0
TABLE
  2
LTYPE
  5
5
330
0
100
AcDbSymbolTable
 70
    10
  0
LTYPE
  5
14
330
5
100
AcDbSymbolTableRecord
100
AcDbLinetypeTableRecord
  2
BYBLOCK
 70
     0
  3

 72
    65
 73
     0
 40
0.0
  0
LTYPE
  5
15
330
5
100
AcDbSymbolTableRecord
100
AcDbLinetypeTableRecord
  2
BYLAYER
 70
     0
  3

 72
    65
 73
     0
 40
0.0
  0
LTYPE
  5
16
330
5
100
AcDbSymbolTableRecord
100
AcDbLinetypeTableRecord
  2
CONTINUOUS
 70
     0
  3
Solid line
 72
    65
 73
     0
 40
0.0
  0
LTYPE
  5
4B
330
5
100
AcDbSymbolTableRecord
100
AcDbLinetypeTableRecord
  2
AM_ISO02W050
 70
     0
  3
__ __ __ __ __ __ __ __ __ __ __ __ __ __ __
 72
    65
 73
     2
 40
7.5
 49
6.0
 74
     0
 49
-1.5
 74
     0
  0
LTYPE
  5
4C
330
5
100
AcDbSymbolTableRecord
100
AcDbLinetypeTableRecord
  2
AM_ISO08W050
 70
     0
  3
____ . ____ . ____ . ____ . ____ . ____ . ____
 72
    65
 73
     4
 40
18.0
 49
12.0
 74
     0
 49
-1.5
 74
     0
 49
3.0
 74
     0
 49
-1.5
 74
     0
  0
LTYPE
  5
4D
330
5
100
AcDbSymbolTableRecord
100
AcDbLinetypeTableRecord
  2
AM_ISO09W050
 70
     0
  3
_____ . . _____ . . _____ . . ____ .. ____
 72
    65
 73
     6
 40
22.5
 49
12.0
 74
     0
 49
-1.5
 74
     0
 49
3.0
 74
     0
 49
-1.5
 74
     0
 49
3.0
 74
     0
 49
-1.5
 74
     0
  0
LTYPE
  5
4E
330
5
100
AcDbSymbolTableRecord
100
AcDbLinetypeTableRecord
  2
AMCONSTR
 70
     0
  3
_______________________
 72
    65
 73
     2
 40
9999.0
 49
9999.0
 74
     0
 49
0.0
 74
     0
  0
LTYPE
  5
4F
330
5
100
AcDbSymbolTableRecord
100
AcDbLinetypeTableRecord
  2
AM_ISO02W050X2
 70
     0
  3
 _ _ _ _ _ _ _ _ _ _ _ _
 72
    65
 73
     2
 40
3.75
 49
3.0
 74
     0
 49
-0.75
 74
     0
  0
LTYPE
  5
50
330
5
100
AcDbSymbolTableRecord
100
AcDbLinetypeTableRecord
  2
AM_ISO08W050X2
 70
     0
  3
__ . __ . __ . __ . __ . __
 72
    65
 73
     4
 40
9.0
 49
6.0
 74
     0
 49
-0.75
 74
     0
 49
1.5
 74
     0
 49
-0.75
 74
     0
  0
LTYPE
  5
53
330
5
100
AcDbSymbolTableRecord
100
AcDbLinetypeTableRecord
  2
AMZIGZAG
 70
     0
  3
/\/-/\/-/\/-/\/-/\/-/\/
 72
    65
 73
     2
 40
11.00009999999999
 49
0.0001
 74
     4
 75
   135
340
52
 46
0.04
 50
0.0
 44
0.0
 45
0.0
 49
-11.0
 74
     0
  0
LTYPE
  5
166
330
5
100
AcDbSymbolTableRecord
100
AcDbLinetypeTableRecord
  2
ACJISTGL
 70
     0
  3
_ _ _ _ _
 72
    65
 73
     2
 40
3.0
 49
2.0
 74
     0
 49
-1.0
 74
     0
  0
LTYPE
  5
26A
330
5
100
AcDbSymbolTableRecord
100
AcDbLinetypeTableRecord
  2
ACJISTGB
 70
     0
  3
__ . . __ . .
 72
    65
 73
     6
 40
9.0
 49
4.0
 74
     0
 49
-1.0
 74
     0
 49
1.0
 74
     0
 49
-1.0
 74
     0
 49
1.0
 74
     0
 49
-1.0
 74
     0
  0
ENDTAB
  0
TABLE
  2
LAYER
  5
2
330
0
100
AcDbSymbolTable
 70
     7
  0
LAYER
  5
10
330
2
100
AcDbSymbolTableRecord
100
AcDbLayerTableRecord
  2
0
 70
     0
 62
     7
  6
CONTINUOUS
  0
LAYER
  5
3F9
330
2
100
AcDbSymbolTableRecord
100
AcDbLayerTableRecord
  2
AM_0
 70
     0
 62
     7
  6
CONTINUOUS
  0
LAYER
  5
BD6
330
2
100
AcDbSymbolTableRecord
100
AcDbLayerTableRecord
  2
AM_11
 70
     0
 62
     3
  6
AM_ISO09W050
  0
LAYER
  5
BD7
330
2
100
AcDbSymbolTableRecord
100
AcDbLayerTableRecord
  2
AM_7
 70
     0
 62
     4
  6
AM_ISO08W050
  0
LAYER
  5
BD8
330
2
100
AcDbSymbolTableRecord
100
AcDbLayerTableRecord
  2
AM_5
 70
     0
 62
     3
  6
CONTINUOUS
  0
LAYER
  5
BD9
330
2
100
AcDbSymbolTableRecord
100
AcDbLayerTableRecord
  2
DEFPOINTS
 70
     0
 62
     7
  6
CONTINUOUS
  0
LAYER
  5
BDA
330
2
100
AcDbSymbolTableRecord
100
AcDbLayerTableRecord
  2
AM_6
 70
     0
 62
     2
  6
CONTINUOUS
  0
ENDTAB
  0
TABLE
  2
STYLE
  5
3
330
0
100
AcDbSymbolTable
 70
     5
  0
STYLE
  5
11
330
3
100
AcDbSymbolTableRecord
100
AcDbTextStyleTableRecord
  2
STANDARD
 70
     0
 40
0.0
 41
1.0
 50
0.0
 71
     0
 42
2.5
  3
simplex.shx
  4
EXTFONT.SHX
  0
STYLE
  5
52
330
3
100
AcDbSymbolTableRecord
100
AcDbTextStyleTableRecord
  2

 70
     1
 40
0.0
 41
1.0
 50
0.0
 71
     0
 42
2.5
  3
ltypeshp.shx
  4

  0
STYLE
  5
6B
330
3
100
AcDbSymbolTableRecord
100
AcDbTextStyleTableRecord
  2
ASAMI
 70
     0
 40
0.0
 41
1.0
 50
0.0
 71
     0
 42
2.5
  3
simplex.shx
  4
EXTFONT.SHX
  0
STYLE
  5
262
330
3
100
AcDbSymbolTableRecord
100
AcDbTextStyleTableRecord
  2
ACJISTS
 70
     0
 40
1.0
 41
1.0
 50
0.0
 71
     0
 42
2.5
  3
simplex.shx
  4
bigfont.shx
  0
STYLE
  5
269
330
3
100
AcDbSymbolTableRecord
100
AcDbTextStyleTableRecord
  2
ACJISGDT
 70
     0
 40
0.0
 41
1.0
 50
0.0
 71
     0
 42
2.5
  3
amgdtans.shx
  4

  0
ENDTAB
  0
TABLE
  2
VIEW
  5
6
330
0
100
AcDbSymbolTable
 70
     0
  0
ENDTAB
  0
TABLE
  2
UCS
  5
7
330
0
100
AcDbSymbolTable
 70
     0
  0
ENDTAB
  0
TABLE
  2
APPID
  5
9
330
0
100
AcDbSymbolTable
 70
    13
  0
APPID
  5
12
330
9
100
AcDbSymbolTableRecord
100
AcDbRegAppTableRecord
  2
ACAD
 70
     0
  0
APPID
  5
30
330
9
100
AcDbSymbolTableRecord
100
AcDbRegAppTableRecord
  2
MCAD_NO_VIS
 70
     0
  0
APPID
  5
31
330
9
100
AcDbSymbolTableRecord
100
AcDbRegAppTableRecord
  2
ACAD_TEMP_GRAPHIC
 70
     0
  0
APPID
  5
2C2
330
9
100
AcDbSymbolTableRecord
100
AcDbRegAppTableRecord
  2
GENIUS_GENDTOL_13
 70
     0
  0
APPID
  5
339
330
9
100
AcDbSymbolTableRecord
100
AcDbRegAppTableRecord
  2
GENIUS_GENODEF_13
 70
     0
  0
APPID
  5
33A
330
9
100
AcDbSymbolTableRecord
100
AcDbRegAppTableRecord
  2
GENIUS_GENOBJ-N-RSBK_13
 70
     0
  0
APPID
  5
33B
330
9
100
AcDbSymbolTableRecord
100
AcDbRegAppTableRecord
  2
GENIUS_GENOBJ-N-LIB_13
 70
     0
  0
APPID
  5
33C
330
9
100
AcDbSymbolTableRecord
100
AcDbRegAppTableRecord
  2
GENIUS_GENSCALE_13
 70
     0
  0
APPID
  5
378
330
9
100
AcDbSymbolTableRecord
100
AcDbRegAppTableRecord
  2
GENIUS_GENDIMSH_14
 70
     0
  0
APPID
  5
BDB
330
9
100
AcDbSymbolTableRecord
100
AcDbRegAppTableRecord
  2
GENIUS_GENOBJ-N-CEN_13
 70
     0
  0
APPID
  5
BDC
330
9
100
AcDbSymbolTableRecord
100
AcDbRegAppTableRecord
  2
GENIUS_GENFIL_13
 70
     0
  0
APPID
  5
BDD
330
9
100
AcDbSymbolTableRecord
100
AcDbRegAppTableRecord
  2
GENIUS_GENOBJ-N-FIL_13
 70
     0
  0
APPID
  5
12AD
330
9
100
AcDbSymbolTableRecord
100
AcDbRegAppTableRecord
  2
GENIUS_GENOREF_13
 70
     0
  0
ENDTAB
  0
TABLE
  2
DIMSTYLE
  5
A
330
0
100
AcDbSymbolTable
 70
     8
  0
DIMSTYLE
105
58
102
{ACAD_REACTORS
330
28FE
330
2A35
330
2C21
330
2F7C
330
3713
330
37A6
102
}
330
A
100
AcDbSymbolTableRecord
100
AcDbDimStyleTableRecord
  2
AM_JIS
 70
     0
  3

  4
"
  5
OPEN30
  6

  7

 40
1.0
 41
2.5
 42
1.0
 43
12.0
 44
1.0
 45
0.0
 46
0.0
 47
0.1
 48
0.1
140
3.2
141
0.0
142
0.0
143
0.0393701
144
1.0
145
0.0
146
0.71
147
1.5
 71
     0
 72
     0
 73
     0
 74
     0
 75
     0
 76
     0
 77
     3
 78
     8
170
     0
171
     2
172
     1
173
     0
174
     0
175
     0
176
     3
177
     3
178
     2
270
     2
271
     3
272
     3
273
     2
274
     2
340
6B
275
     0
280
     0
281
     0
282
     0
283
     0
284
     0
285
     0
286
     0
287
     3
288
     0
  0
DIMSTYLE
105
5F
330
A
100
AcDbSymbolTableRecord
100
AcDbDimStyleTableRecord
  2
AM_JIS$3
 70
     0
  3

  4
"
  5
OPEN30
  6

  7

 40
1.0
 41
2.5
 42
1.0
 43
10.0
 44
1.0
 45
0.0
 46
0.0
 47
0.1
 48
0.1
140
3.2
141
0.0
142
0.0
143
0.0393701
144
1.0
145
0.0
146
0.71
147
1.5
 71
     0
 72
     0
 73
     0
 74
     1
 75
     0
 76
     0
 77
     3
 78
     8
170
     0
171
     2
172
     0
173
     0
174
     0
175
     0
176
     3
177
     3
178
     2
270
     2
271
     2
272
     3
273
     2
274
     2
340
6B
275
     0
280
     0
281
     0
282
     0
283
     0
284
     0
285
     0
286
     0
287
     0
288
     1
  0
DIMSTYLE
105
60
330
A
100
AcDbSymbolTableRecord
100
AcDbDimStyleTableRecord
  2
AM_JIS$4
 70
     0
  3

  4
"
  5
OPEN30
  6

  7

 40
1.0
 41
2.5
 42
1.0
 43
10.0
 44
1.0
 45
0.0
 46
0.0
 47
0.1
 48
0.1
140
3.2
141
0.0
142
0.0
143
0.0393701
144
1.0
145
0.0
146
0.71
147
1.5
 71
     0
 72
     0
 73
     0
 74
     1
 75
     0
 76
     0
 77
     3
 78
     8
170
     0
171
     2
172
     0
173
     0
174
     0
175
     0
176
     3
177
     3
178
     2
270
     2
271
     2
272
     3
273
     2
274
     2
340
6B
275
     0
280
     0
281
     0
282
     0
283
     0
284
     0
285
     0
286
     0
287
     0
288
     1
  0
DIMSTYLE
105
61
330
A
100
AcDbSymbolTableRecord
100
AcDbDimStyleTableRecord
  2
AM_JIS$6
 70
     0
  3

  4
"
  5
OPEN30
  6

  7

 40
1.0
 41
2.5
 42
1.0
 43
10.0
 44
1.0
 45
0.0
 46
0.0
 47
0.1
 48
0.1
140
3.2
141
0.0
142
0.0
143
0.0393701
144
1.0
145
0.0
146
0.71
147
1.5
 71
     0
 72
     0
 73
     0
 74
     0
 75
     0
 76
     0
 77
     0
 78
     8
170
     0
171
     2
172
     1
173
     0
174
     0
175
     0
176
     3
177
     3
178
     2
270
     2
271
     2
272
     2
273
     2
274
     2
340
6B
275
     0
280
     0
281
     0
282
     0
283
     0
284
     0
285
     0
286
     0
287
     3
288
     0
  0
DIMSTYLE
105
62
330
A
100
AcDbSymbolTableRecord
100
AcDbDimStyleTableRecord
  2
AM_JIS$7
 70
     0
  3

  4
"
  5
OPEN30
  6

  7

 40
1.0
 41
2.5
 42
1.0
 43
10.0
 44
1.0
 45
0.0
 46
0.0
 47
0.1
 48
0.1
140
3.2
141
0.0
142
0.0
143
0.0393701
144
1.0
145
0.0
146
0.71
147
1.5
 71
     0
 72
     0
 73
     0
 74
     0
 75
     0
 76
     0
 77
     3
 78
     8
170
     0
171
     2
172
     1
173
     0
174
     0
175
     0
176
     3
177
     3
178
     2
270
     2
271
     2
272
     3
273
     2
274
     2
340
6B
275
     0
280
     0
281
     0
282
     0
283
     0
284
     0
285
     0
286
     0
287
     3
288
     0
  0
DIMSTYLE
105
63
330
A
100
AcDbSymbolTableRecord
100
AcDbDimStyleTableRecord
  2
AM_JIS$SF
 70
     0
  3

  4
"
  5
OPEN30
  6

  7

 40
1.0
 41
2.5
 42
1.0
 43
10.0
 44
1.0
 45
0.0
 46
0.0
 47
0.1
 48
0.1
140
3.2
141
0.0
142
0.0
143
0.0393701
144
1.0
145
0.0
146
0.71
147
1.5
 71
     0
 72
     0
 73
     0
 74
     0
 75
     1
 76
     1
 77
     3
 78
     8
170
     0
171
     2
172
     1
173
     0
174
     0
175
     0
176
   256
177
   256
178
     2
270
     2
271
     2
272
     2
273
     2
274
     2
340
6B
275
     0
280
     0
281
     0
282
     0
283
     0
284
     0
285
     0
286
     0
287
     3
288
     0
  0
DIMSTYLE
105
68
330
A
100
AcDbSymbolTableRecord
100
AcDbDimStyleTableRecord
  2
AM_JIS$SH
 70
     0
  3

  4
"
  5

  6
GENAXEH
  7
OPEN30
 40
1.0
 41
2.5
 42
1.0
 43
10.0
 44
1.0
 45
0.0
 46
0.0
 47
0.1
 48
0.1
140
3.2
141
0.0
142
0.0
143
0.0393701
144
2.0
145
0.0
146
0.71
147
1.5
 71
     0
 72
     0
 73
     0
 74
     0
 75
     1
 76
     1
 77
     3
 78
     8
170
     0
171
     2
172
     1
173
     1
174
     0
175
     0
176
   256
177
   256
178
     2
270
     2
271
     2
272
     2
273
     2
274
     2
340
6B
275
     0
280
     0
281
     0
282
     0
283
     0
284
     0
285
     0
286
     0
287
     3
288
     0
  0
DIMSTYLE
105
B34
102
{ACAD_REACTORS
330
2CBB
330
3893
330
39A4
102
}
330
A
100
AcDbSymbolTableRecord
100
AcDbDimStyleTableRecord
  2
AM_JIS$2
 70
     0
  3

  4
"
  5
OPEN30
  6

  7

 40
1.0
 41
2.5
 42
1.0
 43
12.0
 44
1.0
 45
0.0
 46
0.0
 47
0.1
 48
0.1
140
3.2
141
0.0
142
0.0
143
0.0393701
144
1.0
145
0.0
146
0.71
147
1.5
 71
     0
 72
     0
 73
     0
 74
     0
 75
     0
 76
     0
 77
     3
 78
     8
170
     0
171
     2
172
     1
173
     0
174
     0
175
     0
176
     3
177
     3
178
     2
270
     2
271
     3
272
     3
273
     2
274
     2
340
6B
275
     0
280
     0
281
     0
282
     0
283
     0
284
     0
285
     0
286
     0
287
     3
288
     0
  0
ENDTAB
  0
TABLE
  2
BLOCK_RECORD
  5
1
330
0
100
AcDbSymbolTable
 70
    14
  0
BLOCK_RECORD
  5
1F
102
{ACAD_XDICTIONARY
360
74
102
}
330
1
100
AcDbSymbolTableRecord
100
AcDbBlockTableRecord
  2
*MODEL_SPACE
  0
BLOCK_RECORD
  5
101
102
{ACAD_XDICTIONARY
360
3B49
102
}
330
1
100
AcDbSymbolTableRecord
100
AcDbBlockTableRecord
  2
*PAPER_SPACE
  0
BLOCK_RECORD
  5
59
330
1
100
AcDbSymbolTableRecord
100
AcDbBlockTableRecord
  2
_OPEN30
  0
BLOCK_RECORD
  5
64
330
1
100
AcDbSymbolTableRecord
100
AcDbBlockTableRecord
  2
GENAXEH
  0
BLOCK_RECORD
  5
28FF
330
1
100
AcDbSymbolTableRecord
100
AcDbBlockTableRecord
  2
*D5
  0
BLOCK_RECORD
  5
2A36
330
1
100
AcDbSymbolTableRecord
100
AcDbBlockTableRecord
  2
*D6
  0
BLOCK_RECORD
  5
2C22
330
1
100
AcDbSymbolTableRecord
100
AcDbBlockTableRecord
  2
*D7
  0
BLOCK_RECORD
  5
2CBC
330
1
100
AcDbSymbolTableRecord
100
AcDbBlockTableRecord
  2
*D8
  0
BLOCK_RECORD
  5
2F7D
330
1
100
AcDbSymbolTableRecord
100
AcDbBlockTableRecord
  2
*D9
  0
BLOCK_RECORD
  5
3714
330
1
100
AcDbSymbolTableRecord
100
AcDbBlockTableRecord
  2
*D10
  0
BLOCK_RECORD
  5
37A7
330
1
100
AcDbSymbolTableRecord
100
AcDbBlockTableRecord
  2
*D11
  0
BLOCK_RECORD
  5
3894
330
1
100
AcDbSymbolTableRecord
100
AcDbBlockTableRecord
  2
*D12
  0
BLOCK_RECORD
  5
39A5
330
1
100
AcDbSymbolTableRecord
100
AcDbBlockTableRecord
  2
*D13
  0
ENDTAB
  0
ENDSEC
  0
SECTION
  2
BLOCKS
  0
BLOCK
  5
20
330
1F
100
AcDbEntity
  8
0
100
AcDbBlockBegin
  2
*MODEL_SPACE
 70
     0
 10
0.0
 20
0.0
 30
0.0
  3
*MODEL_SPACE
  1

  0
ENDBLK
  5
21
330
1F
100
AcDbEntity
  8
0
100
AcDbBlockEnd
  0
BLOCK
  5
103
330
101
100
AcDbEntity
 67
     1
  8
0
100
AcDbBlockBegin
  2
*PAPER_SPACE
 70
     0
 10
0.0
 20
0.0
 30
0.0
  3
*PAPER_SPACE
  1

  0
ENDBLK
  5
104
330
101
100
AcDbEntity
 67
     1
  8
0
100
AcDbBlockEnd
  0
BLOCK
  5
5D
330
59
100
AcDbEntity
  8
0
100
AcDbBlockBegin
  2
_OPEN30
 70
     0
 10
0.0
 20
0.0
 30
0.0
  3
_OPEN30
  1

  0
LINE
  5
5A
330
59
100
AcDbEntity
  8
0
 62
     0
100
AcDbLine
 10
-1.0
 20
0.26794919
 30
0.0
 11
0.0
 21
0.0
 31
0.0
  0
LINE
  5
5B
330
59
100
AcDbEntity
  8
0
 62
     0
100
AcDbLine
 10
0.0
 20
0.0
 30
0.0
 11
-1.0
 21
-0.26794919
 31
0.0
  0
LINE
  5
5C
330
59
100
AcDbEntity
  8
0
 62
     0
100
AcDbLine
 10
0.0
 20
0.0
 30
0.0
 11
-1.0
 21
0.0
 31
0.0
  0
ENDBLK
  5
5E
330
59
100
AcDbEntity
  8
0
100
AcDbBlockEnd
  0
BLOCK
  5
66
330
64
100
AcDbEntity
  8
0
100
AcDbBlockBegin
  2
GENAXEH
 70
     0
 10
0.0
 20
0.0
 30
0.0
  3
GENAXEH
  1

  0
LINE
  5
65
330
64
100
AcDbEntity
  8
0
100
AcDbLine
 10
-1.0
 20
0.0
 30
0.0
 11
1.0
 21
0.0
 31
0.0
  0
ENDBLK
  5
67
330
64
100
AcDbEntity
  8
0
100
AcDbBlockEnd
  0
BLOCK
  5
2909
330
28FF
100
AcDbEntity
  8
0
100
AcDbBlockBegin
  2
*D5
 70
     1
 10
0.0
 20
0.0
 30
0.0
  3
*D5
  1

  0
LINE
  5
3AB9
330
28FF
100
AcDbEntity
  8
AM_5
 62
     3
100
AcDbLine
 10
-126.0
 20
53.31308121984137
 30
0.0
 11
-140.0
 21
53.31308121984137
 31
0.0
  0
LINE
  5
3ABA
330
28FF
100
AcDbEntity
  8
AM_5
 62
     3
100
AcDbLine
 10
-126.0
 20
33.31308121984137
 30
0.0
 11
-140.0
 21
33.31308121984137
 31
0.0
  0
LINE
  5
3ABB
330
28FF
100
AcDbEntity
  8
AM_5
 62
     3
100
AcDbLine
 10
-139.0
 20
50.81308121984137
 30
0.0
 11
-139.0
 21
35.81308121984137
 31
0.0
  0
INSERT
  5
3ABC
330
28FF
100
AcDbEntity
  8
AM_5
 62
     3
100
AcDbBlockReference
  2
_OPEN30
 10
-139.0
 20
53.31308121984137
 30
0.0
 41
2.5
 42
2.5
 43
2.5
 50
90.0
  0
INSERT
  5
3ABD
330
28FF
100
AcDbEntity
  8
AM_5
 62
     3
100
AcDbBlockReference
  2
_OPEN30
 10
-139.0
 20
33.31308121984137
 30
0.0
 41
2.5
 42
2.5
 43
2.5
 50
270.0
  0
MTEXT
  5
3ABE
330
28FF
100
AcDbEntity
  8
AM_5
 62
     2
100
AcDbMText
 10
-142.1
 20
43.31308121984135
 30
0.0
 40
3.2
 41
0.0
 71
     5
 72
     1
  1
20
  7
ASAMI
 11
0.0000000000000001
 21
1.0
 31
0.0
1001
ACAD
1000
MTEXTBEGIN
1070
    73
1070
     1
1070
    44
1040
1.0
1070
    74
1070
     0
1000
MTEXTEND
  0
POINT
  5
3ABF
330
28FF
100
AcDbEntity
  8
DEFPOINTS
 62
     0
100
AcDbPoint
 10
-125.0
 20
53.31308121984137
 30
0.0
  0
POINT
  5
3AC0
330
28FF
100
AcDbEntity
  8
DEFPOINTS
 62
     0
100
AcDbPoint
 10
-125.0
 20
33.31308121984137
 30
0.0
  0
POINT
  5
3AC1
330
28FF
100
AcDbEntity
  8
DEFPOINTS
 62
     0
100
AcDbPoint
 10
-139.0
 20
33.31308121984137
 30
0.0
  0
ENDBLK
  5
290A
330
28FF
100
AcDbEntity
  8
0
100
AcDbBlockEnd
  0
BLOCK
  5
2A40
330
2A36
100
AcDbEntity
  8
0
100
AcDbBlockBegin
  2
*D6
 70
     1
 10
0.0
 20
0.0
 30
0.0
  3
*D6
  1

  0
LINE
  5
3AF3
330
2A36
100
AcDbEntity
  8
AM_5
 62
     3
100
AcDbLine
 10
-0.7121277557131741
 20
53.31308121984137
 30
0.0
 11
25.01220083839289
 21
53.31308121984136
 31
0.0
  0
LINE
  5
3AF4
330
2A36
100
AcDbEntity
  8
AM_5
 62
     3
100
AcDbLine
 10
0.999999999999938
 20
33.81308121984137
 30
0.0
 11
25.01220083839289
 21
33.81308121984136
 31
0.0
  0
LINE
  5
3AF5
330
2A36
100
AcDbEntity
  8
AM_5
 62
     3
100
AcDbLine
 10
24.01220083839289
 20
50.81308121984136
 30
0.0
 11
24.01220083839289
 21
36.31308121984136
 31
0.0
  0
INSERT
  5
3AF6
330
2A36
100
AcDbEntity
  8
AM_5
 62
     3
100
AcDbBlockReference
  2
_OPEN30
 10
24.01220083839289
 20
53.31308121984136
 30
0.0
 41
2.5
 42
2.5
 43
2.5
 50
90.0
  0
INSERT
  5
3AF7
330
2A36
100
AcDbEntity
  8
AM_5
 62
     3
100
AcDbBlockReference
  2
_OPEN30
 10
24.01220083839289
 20
33.81308121984136
 30
0.0
 41
2.5
 42
2.5
 43
2.5
 50
270.0
  0
MTEXT
  5
3AF8
330
2A36
100
AcDbEntity
  8
AM_5
 62
     2
100
AcDbMText
 10
20.91220083839288
 20
43.56308121984137
 30
0.0
 40
3.2
 41
0.0
 71
     5
 72
     1
  1
19.5
  7
ASAMI
 11
0.0000000000000001
 21
1.0
 31
0.0
1001
ACAD
1000
MTEXTBEGIN
1070
    73
1070
     1
1070
    44
1040
1.0
1070
    74
1070
     0
1000
MTEXTEND
  0
POINT
  5
3AF9
330
2A36
100
AcDbEntity
  8
DEFPOINTS
 62
     0
100
AcDbPoint
 10
-1.712127755713174
 20
53.31308121984137
 30
0.0
  0
POINT
  5
3AFA
330
2A36
100
AcDbEntity
  8
DEFPOINTS
 62
     0
100
AcDbPoint
 10
-0.0000000000000621
 20
33.81308121984137
 30
0.0
  0
POINT
  5
3AFB
330
2A36
100
AcDbEntity
  8
DEFPOINTS
 62
     0
100
AcDbPoint
 10
24.01220083839289
 20
33.81308121984136
 30
0.0
  0
ENDBLK
  5
2A41
330
2A36
100
AcDbEntity
  8
0
100
AcDbBlockEnd
  0
BLOCK
  5
2C2C
330
2C22
100
AcDbEntity
  8
0
100
AcDbBlockBegin
  2
*D7
 70
     1
 10
0.0
 20
0.0
 30
0.0
  3
*D7
  1

  0
LINE
  5
3AB0
330
2C22
100
AcDbEntity
  8
AM_5
 62
     3
100
AcDbLine
 10
-126.0
 20
-4.999999999999693
 30
0.0
 11
-140.0
 21
-4.99999999999969
 31
0.0
  0
LINE
  5
3AB1
330
2C22
100
AcDbEntity
  8
AM_5
 62
     3
100
AcDbLine
 10
-126.0
 20
-24.99999999999969
 30
0.0
 11
-140.0
 21
-24.99999999999969
 31
0.0
  0
LINE
  5
3AB2
330
2C22
100
AcDbEntity
  8
AM_5
 62
     3
100
AcDbLine
 10
-139.0
 20
-7.49999999999969
 30
0.0
 11
-139.0
 21
-22.49999999999969
 31
0.0
  0
INSERT
  5
3AB3
330
2C22
100
AcDbEntity
  8
AM_5
 62
     3
100
AcDbBlockReference
  2
_OPEN30
 10
-139.0
 20
-4.99999999999969
 30
0.0
 41
2.5
 42
2.5
 43
2.5
 50
90.0
  0
INSERT
  5
3AB4
330
2C22
100
AcDbEntity
  8
AM_5
 62
     3
100
AcDbBlockReference
  2
_OPEN30
 10
-139.0
 20
-24.99999999999969
 30
0.0
 41
2.5
 42
2.5
 43
2.5
 50
270.0
  0
MTEXT
  5
3AB5
330
2C22
100
AcDbEntity
  8
AM_5
 62
     2
100
AcDbMText
 10
-142.1
 20
-14.99999999999971
 30
0.0
 40
3.2
 41
0.0
 71
     5
 72
     1
  1
20
  7
ASAMI
 11
0.0000000000000001
 21
1.0
 31
0.0
1001
ACAD
1000
MTEXTBEGIN
1070
    73
1070
     1
1070
    44
1040
1.0
1070
    74
1070
     0
1000
MTEXTEND
  0
POINT
  5
3AB6
330
2C22
100
AcDbEntity
  8
DEFPOINTS
 62
     0
100
AcDbPoint
 10
-125.0
 20
-4.999999999999694
 30
0.0
  0
POINT
  5
3AB7
330
2C22
100
AcDbEntity
  8
DEFPOINTS
 62
     0
100
AcDbPoint
 10
-125.0
 20
-24.99999999999969
 30
0.0
  0
POINT
  5
3AB8
330
2C22
100
AcDbEntity
  8
DEFPOINTS
 62
     0
100
AcDbPoint
 10
-139.0
 20
-24.99999999999969
 30
0.0
  0
ENDBLK
  5
2C2D
330
2C22
100
AcDbEntity
  8
0
100
AcDbBlockEnd
  0
BLOCK
  5
2CCB
330
2CBC
100
AcDbEntity
  8
0
100
AcDbBlockBegin
  2
*D8
 70
     1
 10
0.0
 20
0.0
 30
0.0
  3
*D8
  1

  0
LINE
  5
3AE0
330
2CBC
100
AcDbEntity
  8
AM_5
 62
     3
100
AcDbLine
 10
0.9999999999999371
 20
0.0000000000003113
 30
0.0
 11
14.99999999999992
 21
0.0000000000003073
 31
0.0
  0
ARC
  5
3AE1
330
2CBC
100
AcDbEntity
  8
AM_5
 62
     3
100
AcDbCircle
 10
-0.0000000000000628
 20
0.0000000000003115
 30
0.0
 40
13.99999999999999
100
AcDbArc
 50
280.2450321995618
 51
349.7549678004381
  0
INSERT
  5
3AE2
330
2CBC
100
AcDbEntity
  8
AM_5
 62
     3
100
AcDbBlockReference
  2
_OPEN30
 10
-0.0000000000000524
 20
-13.99999999999968
 30
0.0
 41
2.5
 42
2.5
 43
2.5
 50
185.122516099781
  0
INSERT
  5
3AE3
330
2CBC
100
AcDbEntity
  8
AM_5
 62
     3
100
AcDbBlockReference
  2
_OPEN30
 10
13.99999999999993
 20
0.0000000000003073
 30
0.0
 41
2.5
 42
2.5
 43
2.5
 50
84.87748390021911
  0
MTEXT
  5
3AE4
330
2CBC
100
AcDbEntity
  8
AM_5
 62
     2
100
AcDbMText
 10
7.707463914933303
 20
-7.707463914933044
 30
0.0
 40
3.2
 41
0.0
 71
     5
 72
     1
  1
90°
  7
ASAMI
 11
0.707106781186547
 21
0.7071067811865481
 31
0.0
1001
ACAD
1000
MTEXTBEGIN
1070
    73
1070
     1
1070
    44
1040
1.0
1070
    74
1070
     0
1000
MTEXTEND
  0
POINT
  5
3AE5
330
2CBC
100
AcDbEntity
  8
DEFPOINTS
 62
     0
100
AcDbPoint
 10
6.999999999999933
 20
-12.12435565298182
 30
0.0
  0
POINT
  5
3AE6
330
2CBC
100
AcDbEntity
  8
DEFPOINTS
 62
     0
100
AcDbPoint
 10
-0.000000000000048
 20
-15.1121432960381
 30
0.0
  0
POINT
  5
3AE7
330
2CBC
100
AcDbEntity
  8
DEFPOINTS
 62
     0
100
AcDbPoint
 10
-0.0000000000000763
 20
0.0000000000003126
 30
0.0
  0
POINT
  5
3AE8
330
2CBC
100
AcDbEntity
  8
DEFPOINTS
 62
     0
100
AcDbPoint
 10
-6.872499254640601
 20
0.0000000000003126
 30
0.0
  0
POINT
  5
3AE9
330
2CBC
100
AcDbEntity
  8
DEFPOINTS
 62
     0
100
AcDbPoint
 10
-0.0000000000000621
 20
-1.385640646054781
 30
0.0
  0
ENDBLK
  5
2CCC
330
2CBC
100
AcDbEntity
  8
0
100
AcDbBlockEnd
  0
BLOCK
  5
2F87
330
2F7D
100
AcDbEntity
  8
0
100
AcDbBlockBegin
  2
*D9
 70
     1
 10
0.0
 20
0.0
 30
0.0
  3
*D9
  1

  0
LINE
  5
3AFC
330
2F7D
100
AcDbEntity
  8
AM_5
 62
     3
100
AcDbLine
 10
41.24060158986003
 20
1.000000000000312
 30
0.0
 11
41.24060158986003
 21
22.31191093732765
 31
0.0
  0
LINE
  5
3AFD
330
2F7D
100
AcDbEntity
  8
AM_5
 62
     3
100
AcDbLine
 10
60.74079392751742
 20
-0.7407189669229908
 30
0.0
 11
60.74079392751742
 21
22.31191093732765
 31
0.0
  0
LINE
  5
3AFE
330
2F7D
100
AcDbEntity
  8
AM_5
 62
     3
100
AcDbLine
 10
43.74060158986003
 20
21.31191093732765
 30
0.0
 11
58.24079392751742
 21
21.31191093732765
 31
0.0
  0
INSERT
  5
3AFF
330
2F7D
100
AcDbEntity
  8
AM_5
 62
     3
100
AcDbBlockReference
  2
_OPEN30
 10
41.24060158986003
 20
21.31191093732765
 30
0.0
 41
2.5
 42
2.5
 43
2.5
 50
180.0
  0
INSERT
  5
3B00
330
2F7D
100
AcDbEntity
  8
AM_5
 62
     3
100
AcDbBlockReference
  2
_OPEN30
 10
60.74079392751742
 20
21.31191093732765
 30
0.0
 41
2.5
 42
2.5
 43
2.5
  0
MTEXT
  5
3B01
330
2F7D
100
AcDbEntity
  8
AM_5
 62
     2
100
AcDbMText
 10
50.99069775868873
 20
24.41191093732765
 30
0.0
 40
3.2
 41
0.0
 71
     5
 72
     1
  1
19.5
  7
ASAMI
1001
ACAD
1000
MTEXTBEGIN
1070
    73
1070
     1
1070
    44
1040
1.0
1070
    74
1070
     0
1000
MTEXTEND
  0
POINT
  5
3B02
330
2F7D
100
AcDbEntity
  8
DEFPOINTS
 62
     0
100
AcDbPoint
 10
41.24060158986003
 20
0.0000000000003126
 30
0.0
  0
POINT
  5
3B03
330
2F7D
100
AcDbEntity
  8
DEFPOINTS
 62
     0
100
AcDbPoint
 10
60.74079392751742
 20
-1.74071896692299
 30
0.0
  0
POINT
  5
3B04
330
2F7D
100
AcDbEntity
  8
DEFPOINTS
 62
     0
100
AcDbPoint
 10
60.74079392751742
 20
21.31191093732765
 30
0.0
  0
ENDBLK
  5
2F88
330
2F7D
100
AcDbEntity
  8
0
100
AcDbBlockEnd
  0
BLOCK
  5
371E
330
3714
100
AcDbEntity
  8
0
100
AcDbBlockBegin
  2
*D10
 70
     1
 10
0.0
 20
0.0
 30
0.0
  3
*D10
  1

  0
LINE
  5
3AA7
330
3714
100
AcDbEntity
  8
AM_5
 62
     3
100
AcDbLine
 10
-125.0
 20
32.31308121984137
 30
0.0
 11
-125.0
 21
18.31308121984128
 31
0.0
  0
LINE
  5
3AA8
330
3714
100
AcDbEntity
  8
AM_5
 62
     3
100
AcDbLine
 10
-0.0000000000000757
 20
32.81308121984137
 30
0.0
 11
-0.0000000000000765
 21
18.31308121984128
 31
0.0
  0
LINE
  5
3AA9
330
3714
100
AcDbEntity
  8
AM_5
 62
     3
100
AcDbLine
 10
-122.5
 20
19.31308121984128
 30
0.0
 11
-2.500000000000076
 21
19.31308121984128
 31
0.0
  0
INSERT
  5
3AAA
330
3714
100
AcDbEntity
  8
AM_5
 62
     3
100
AcDbBlockReference
  2
_OPEN30
 10
-125.0
 20
19.31308121984128
 30
0.0
 41
2.5
 42
2.5
 43
2.5
 50
180.0
  0
INSERT
  5
3AAB
330
3714
100
AcDbEntity
  8
AM_5
 62
     3
100
AcDbBlockReference
  2
_OPEN30
 10
-0.0000000000000765
 20
19.31308121984128
 30
0.0
 41
2.5
 42
2.5
 43
2.5
  0
MTEXT
  5
3AAC
330
3714
100
AcDbEntity
  8
AM_5
 62
     2
100
AcDbMText
 10
-62.50000000000007
 20
22.41308121984129
 30
0.0
 40
3.2
 41
0.0
 71
     5
 72
     1
  1
125
  7
ASAMI
1001
ACAD
1000
MTEXTBEGIN
1070
    73
1070
     1
1070
    44
1040
1.0
1070
    74
1070
     0
1000
MTEXTEND
  0
POINT
  5
3AAD
330
3714
100
AcDbEntity
  8
DEFPOINTS
 62
     0
100
AcDbPoint
 10
-125.0
 20
33.31308121984137
 30
0.0
  0
POINT
  5
3AAE
330
3714
100
AcDbEntity
  8
DEFPOINTS
 62
     0
100
AcDbPoint
 10
-0.0000000000000756
 20
33.81308121984137
 30
0.0
  0
POINT
  5
3AAF
330
3714
100
AcDbEntity
  8
DEFPOINTS
 62
     0
100
AcDbPoint
 10
-0.0000000000000765
 20
19.31308121984128
 30
0.0
  0
ENDBLK
  5
371F
330
3714
100
AcDbEntity
  8
0
100
AcDbBlockEnd
  0
BLOCK
  5
37B1
330
37A7
100
AcDbEntity
  8
0
100
AcDbBlockBegin
  2
*D11
 70
     1
 10
0.0
 20
0.0
 30
0.0
  3
*D11
  1

  0
LINE
  5
3AEA
330
37A7
100
AcDbEntity
  8
AM_5
 62
     3
100
AcDbLine
 10
0.9999999999999383
 20
0.0000000000003124
 30
0.0
 11
23.8404752366205
 21
0.0000000000003059
 31
0.0
  0
LINE
  5
3AEB
330
37A7
100
AcDbEntity
  8
AM_5
 62
     3
100
AcDbLine
 10
-0.4576921671389811
 20
-24.99999999999969
 30
0.0
 11
23.84047523662049
 21
-24.99999999999969
 31
0.0
  0
LINE
  5
3AEC
330
37A7
100
AcDbEntity
  8
AM_5
 62
     3
100
AcDbLine
 10
22.8404752366205
 20
-2.499999999999693
 30
0.0
 11
22.84047523662049
 21
-22.49999999999969
 31
0.0
  0
INSERT
  5
3AED
330
37A7
100
AcDbEntity
  8
AM_5
 62
     3
100
AcDbBlockReference
  2
_OPEN30
 10
22.8404752366205
 20
0.0000000000003062
 30
0.0
 41
2.5
 42
2.5
 43
2.5
 50
90.0
  0
INSERT
  5
3AEE
330
37A7
100
AcDbEntity
  8
AM_5
 62
     3
100
AcDbBlockReference
  2
_OPEN30
 10
22.84047523662049
 20
-24.99999999999969
 30
0.0
 41
2.5
 42
2.5
 43
2.5
 50
270.0
  0
MTEXT
  5
3AEF
330
37A7
100
AcDbEntity
  8
AM_5
 62
     2
100
AcDbMText
 10
19.7404752366205
 20
-12.49999999999969
 30
0.0
 40
3.2
 41
0.0
 71
     5
 72
     1
  1
25
  7
ASAMI
 11
0.0000000000000001
 21
1.0
 31
0.0
1001
ACAD
1000
MTEXTBEGIN
1070
    73
1070
     1
1070
    44
1040
1.0
1070
    74
1070
     0
1000
MTEXTEND
  0
POINT
  5
3AF0
330
37A7
100
AcDbEntity
  8
DEFPOINTS
 62
     0
100
AcDbPoint
 10
-0.0000000000000616
 20
0.0000000000003126
 30
0.0
  0
POINT
  5
3AF1
330
37A7
100
AcDbEntity
  8
DEFPOINTS
 62
     0
100
AcDbPoint
 10
-1.457692167138981
 20
-24.99999999999969
 30
0.0
  0
POINT
  5
3AF2
330
37A7
100
AcDbEntity
  8
DEFPOINTS
 62
     0
100
AcDbPoint
 10
22.84047523662049
 20
-24.99999999999969
 30
0.0
  0
ENDBLK
  5
37B2
330
37A7
100
AcDbEntity
  8
0
100
AcDbBlockEnd
  0
BLOCK
  5
38A3
330
3894
100
AcDbEntity
  8
0
100
AcDbBlockBegin
  2
*D12
 70
     1
 10
0.0
 20
0.0
 30
0.0
  3
*D12
  1

  0
LINE
  5
3AD1
330
3894
100
AcDbEntity
  8
AM_5
 62
     3
100
AcDbLine
 10
0.9999999999999344
 20
33.81308121984137
 30
0.0
 11
15.09128272128974
 21
33.81308121984137
 31
0.0
  0
LINE
  5
3AD2
330
3894
100
AcDbEntity
  8
AM_5
 62
     3
100
AcDbLine
 10
0.9961946980916842
 20
33.90023696258904
 30
0.0
 11
15.03385583435241
 21
35.12837317443028
 31
0.0
  0
ARC
  5
3AD3
330
3894
100
AcDbEntity
  8
AM_5
 62
     3
100
AcDbCircle
 10
-0.0000000000000657
 20
33.81308121984137
 30
0.0
 40
14.09128272128981
100
AcDbArc
 50
339.5615868331244
 51
0.0
  0
LINE
  5
3AD4
330
3894
100
AcDbEntity
  8
AM_5
 62
     3
100
AcDbLine
 10
13.20420946846838
 20
28.89240026654548
 30
0.0
 11
8.367950813407921
 21
15.91473052302374
 31
0.0
  0
ARC
  5
3AD5
330
3894
100
AcDbEntity
  8
AM_5
 62
     3
100
AcDbCircle
 10
-0.0000000000000657
 20
33.81308121984137
 30
0.0
 40
14.09128272128981
100
AcDbArc
 50
339.6430206880848
 51
349.8215103440423
  0
ARC
  5
3AD6
330
3894
100
AcDbEntity
  8
AM_5
 62
     3
100
AcDbCircle
 10
-0.0000000000000657
 20
33.81308121984137
 30
0.0
 40
14.09128272128981
100
AcDbArc
 50
15.17848965595755
 51
25.35697931191509
  0
ARC
  5
3AD7
330
3894
100
AcDbEntity
  8
AM_5
 62
     3
100
AcDbCircle
 10
-0.0000000000000657
 20
33.81308121984137
 30
0.0
 40
14.09128272128981
100
AcDbArc
 50
0.0
 51
4.999999999999994
  0
INSERT
  5
3AD8
330
3894
100
AcDbEntity
  8
AM_5
 62
     3
100
AcDbBlockReference
  2
_OPEN30
 10
14.09128272128974
 20
33.81308121984137
 30
0.0
 41
2.5
 42
2.5
 43
2.5
 50
84.91075517202123
  0
INSERT
  5
3AD9
330
3894
100
AcDbEntity
  8
AM_5
 62
     3
100
AcDbBlockReference
  2
_OPEN30
 10
14.03766113626067
 20
35.04121743168263
 30
0.0
 41
2.5
 42
2.5
 43
2.5
 50
280.0892448279788
  0
MTEXT
  5
3ADA
330
3894
100
AcDbEntity
  8
AM_5
 62
     2
100
AcDbMText
 10
13.69092919988212
 20
21.32104428886921
 30
0.0
 40
3.2
 41
0.0
 71
     5
 72
     1
  1
-5°
  7
ASAMI
 11
-0.3492003567469043
 21
-0.9370480835303142
 31
0.0
1001
ACAD
1000
MTEXTBEGIN
1070
    73
1070
     1
1070
    44
1040
1.0
1070
    74
1070
     0
1000
MTEXTEND
  0
POINT
  5
3ADB
330
3894
100
AcDbEntity
  8
DEFPOINTS
 62
     0
100
AcDbPoint
 10
14.06744250117051
 20
34.63241644279991
 30
0.0
  0
POINT
  5
3ADC
330
3894
100
AcDbEntity
  8
DEFPOINTS
 62
     0
100
AcDbPoint
 10
-13.48750000000003
 20
32.63307787053548
 30
0.0
  0
POINT
  5
3ADD
330
3894
100
AcDbEntity
  8
DEFPOINTS
 62
     0
100
AcDbPoint
 10
-0.0000000000000762
 20
33.81308121984137
 30
0.0
  0
POINT
  5
3ADE
330
3894
100
AcDbEntity
  8
DEFPOINTS
 62
     0
100
AcDbPoint
 10
-3.471448266549132
 20
33.81308121984137
 30
0.0
  0
POINT
  5
3ADF
330
3894
100
AcDbEntity
  8
DEFPOINTS
 62
     0
100
AcDbPoint
 10
-0.0000000000000613
 20
33.81308121984137
 30
0.0
  0
ENDBLK
  5
38A4
330
3894
100
AcDbEntity
  8
0
100
AcDbBlockEnd
  0
BLOCK
  5
39B4
330
39A5
100
AcDbEntity
  8
0
100
AcDbBlockBegin
  2
*D13
 70
     1
 10
0.0
 20
0.0
 30
0.0
  3
*D13
  1

  0
LINE
  5
3AC2
330
39A5
100
AcDbEntity
  8
AM_5
 62
     3
100
AcDbLine
 10
41.32775733260767
 20
0.9961946980920586
 30
0.0
 11
42.39462718400636
 21
13.19057289981847
 31
0.0
  0
LINE
  5
3AC3
330
39A5
100
AcDbEntity
  8
AM_5
 62
     3
100
AcDbLine
 10
41.24060158986003
 20
1.000000000000312
 30
0.0
 11
41.24060158986003
 21
13.24095874539945
 31
0.0
  0
ARC
  5
3AC4
330
39A5
100
AcDbEntity
  8
AM_5
 62
     3
100
AcDbCircle
 10
41.24060158986003
 20
0.0000000000003131
 30
0.0
 40
12.24095874539914
100
AcDbArc
 50
61.43086731701351
 51
85.00000000000012
  0
LINE
  5
3AC5
330
39A5
100
AcDbEntity
  8
AM_5
 62
     3
100
AcDbLine
 10
47.09445803507015
 20
10.75050862636007
 30
0.0
 11
59.25767402836167
 21
4.127406147075591
 31
0.0
  0
ARC
  5
3AC6
330
39A5
100
AcDbEntity
  8
AM_5
 62
     3
100
AcDbCircle
 10
41.24060158986003
 20
0.0000000000003131
 30
0.0
 40
12.24095874539914
100
AcDbArc
 50
61.55582857680555
 51
73.27791428840282
  0
ARC
  5
3AC7
330
39A5
100
AcDbEntity
  8
AM_5
 62
     3
100
AcDbCircle
 10
41.24060158986003
 20
0.0000000000003131
 30
0.0
 40
12.24095874539914
100
AcDbArc
 50
101.7220857115972
 51
113.4441714231945
  0
ARC
  5
3AC8
330
39A5
100
AcDbEntity
  8
AM_5
 62
     3
100
AcDbCircle
 10
41.24060158986003
 20
0.0000000000003131
 30
0.0
 40
12.24095874539914
100
AcDbArc
 50
85.00000000000012
 51
89.99999999999996
  0
INSERT
  5
3AC9
330
39A5
100
AcDbEntity
  8
AM_5
 62
     3
100
AcDbBlockReference
  2
_OPEN30
 10
42.30747144125871
 20
12.19437820172672
 30
0.0
 41
2.5
 42
2.5
 43
2.5
 50
169.1389571442014
  0
INSERT
  5
3ACA
330
39A5
100
AcDbEntity
  8
AM_5
 62
     3
100
AcDbBlockReference
  2
_OPEN30
 10
41.24060158986003
 20
12.24095874539945
 30
0.0
 41
2.5
 42
2.5
 43
2.5
 50
5.861042855798593
  0
MTEXT
  5
3ACB
330
39A5
100
AcDbEntity
  8
AM_5
 62
     2
100
AcDbMText
 10
54.65854427199037
 20
10.16150367045898
 30
0.0
 40
3.2
 41
0.0
 71
     5
 72
     1
  1
-5°
  7
ASAMI
 11
0.8782407366906957
 21
-0.4782187871853049
 31
0.0
1001
ACAD
1000
MTEXTBEGIN
1070
    73
1070
     1
1070
    44
1040
1.0
1070
    74
1070
     0
1000
MTEXTEND
  0
POINT
  5
3ACC
330
39A5
100
AcDbEntity
  8
DEFPOINTS
 62
     0
100
AcDbPoint
 10
41.59662643211599
 20
12.23578020880842
 30
0.0
  0
POINT
  5
3ACD
330
39A5
100
AcDbEntity
  8
DEFPOINTS
 62
     0
100
AcDbPoint
 10
39.84846943905665
 20
-15.9121432960381
 30
0.0
  0
POINT
  5
3ACE
330
39A5
100
AcDbEntity
  8
DEFPOINTS
 62
     0
100
AcDbPoint
 10
41.24060158986003
 20
0.0000000000003126
 30
0.0
  0
POINT
  5
3ACF
330
39A5
100
AcDbEntity
  8
DEFPOINTS
 62
     0
100
AcDbPoint
 10
41.24060158986002
 20
-2.738469779424484
 30
0.0
  0
POINT
  5
3AD0
330
39A5
100
AcDbEntity
  8
DEFPOINTS
 62
     0
100
AcDbPoint
 10
41.24060158986003
 20
0.0000000000003126
 30
0.0
  0
ENDBLK
  5
39B5
330
39A5
100
AcDbEntity
  8
0
100
AcDbBlockEnd
  0
ENDSEC
  0
SECTION
  2
ENTITIES
  0
TEXT
  5
C58
330
1F
100
AcDbEntity
  8
AM_6
100
AcDbText
 10
-93.33333333333333
 20
-47.4999999999998
 30
0.0
 40
5.0
  1
ETFNR2020K33W
 50
0.0000000000002036
 72
     4
 11
-62.50000000000002
 21
-44.99999999999969
 31
0.0
100
AcDbText
  0
POLYLINE
  5
1D74
330
1F
100
AcDbEntity
  8
AM_0
100
AcDb2dPolyline
 66
     1
 10
0.0
 20
0.0
 30
0.0
 70
     1
  0
VERTEX
  5
1D75
330
1D74
100
AcDbEntity
  8
AM_0
100
AcDbVertex
100
AcDb2dVertex
 10
-0.0000000000000474
 20
-14.526502649983
 30
0.0
  0
VERTEX
  5
1D80
330
1D74
100
AcDbEntity
  8
AM_0
100
AcDbVertex
100
AcDb2dVertex
 10
-0.0000000000000617
 20
-0.7999999999996775
 30
0.0
 42
0.5773502691896258
  0
VERTEX
  5
1D76
330
1D74
100
AcDbEntity
  8
AM_0
100
AcDbVertex
100
AcDb2dVertex
 10
-1.200000000000064
 20
-0.1071796769721303
 30
0.0
  0
VERTEX
  5
1D81
330
1D74
100
AcDbEntity
  8
AM_0
100
AcDbVertex
100
AcDb2dVertex
 10
-13.08750000000002
 20
-6.970431001963802
 30
0.0
 42
0.5773502691896262
  0
VERTEX
  5
1D77
330
1D74
100
AcDbEntity
  8
AM_0
100
AcDbVertex
100
AcDb2dVertex
 10
-13.08750000000002
 20
-8.356071648018904
 30
0.0
  0
VERTEX
  5
1D82
330
1D74
100
AcDbEntity
  8
AM_0
100
AcDbVertex
100
AcDb2dVertex
 10
-1.20000000000005
 20
-15.21932297301054
 30
0.0
 42
0.577350269189626
  0
SEQEND
  5
1D78
330
1D74
100
AcDbEntity
  8
AM_0
  0
LINE
  5
1E3E
330
1F
100
AcDbEntity
  8
AM_0
100
AcDbLine
 10
0.0376455148052594
 20
-16.51951859020005
 30
0.0
 11
0.037645514805258
 21
-15.93387794414478
 31
0.0
  0
LINE
  5
1E4A
330
1F
100
AcDbEntity
  8
AM_0
100
AcDbLine
 10
-1.4527588318112
 20
-24.99999999999969
 30
0.0
 11
-125.0
 21
-24.99999999999969
 31
0.0
  0
LINE
  5
1E52
330
1F
100
AcDbEntity
  8
AM_0
100
AcDbLine
 10
-13.55259316079804
 20
33.31308121984137
 30
0.0
 11
-125.0
 21
33.31308121984137
 31
0.0
  0
LINE
  5
1E5E
330
1F
100
AcDbEntity
  8
AM_0
100
AcDbLine
 10
-1.712127755713174
 20
53.31308121984137
 30
0.0
 11
-125.0
 21
53.31308121984137
 31
0.0
  0
LINE
  5
1E67
330
1F
100
AcDbEntity
  8
AM_0
100
AcDbLine
 10
-1.712127755713174
 20
53.31308121984137
 30
0.0
 11
-0.699812201862235
 21
41.74226149242636
 31
0.0
  0
LINE
  5
1E69
330
1F
100
AcDbEntity
  8
AM_0
100
AcDbLine
 10
-20.69375094617898
 20
39.9930185130669
 30
0.0
 11
-0.6937597122714205
 21
41.74279101665167
 31
0.0
  0
LINE
  5
1E83
330
1F
100
AcDbEntity
  8
AM_0
100
AcDbLine
 10
-13.83312234233184
 20
36.57405557885527
 30
0.0
 11
-20.39463044842013
 21
36.57405557885527
 31
0.0
  0
LINE
  5
1E84
330
1F
100
AcDbEntity
  8
AM_0
100
AcDbLine
 10
-20.69375094617898
 20
39.9930185130669
 30
0.0
 11
-20.69375094617898
 21
39.97993368677584
 31
0.0
  0
LINE
  5
1E85
330
1F
100
AcDbEntity
  8
AM_0
100
AcDbLine
 10
-20.69375971227141
 20
39.9930185130669
 30
0.0
 11
-20.69375971227141
 21
53.31308121984137
 31
0.0
  0
LINE
  5
1E8B
330
1F
100
AcDbEntity
  8
AM_0
100
AcDbLine
 10
0.0376455148052594
 20
-16.51951859020005
 30
0.0
 11
-1.458197316261395
 21
-25.00286484303384
 31
0.0
  0
LINE
  5
1E97
330
1F
100
AcDbEntity
  8
AM_0
100
AcDbLine
 10
-20.69375971227141
 20
-4.999999999999694
 30
0.0
 11
-20.69375971227141
 21
-4.106539614168987
 31
0.0
  0
LINE
  5
1EBB
330
1F
100
AcDbEntity
  8
AM_0
100
AcDbLine
 10
-2.601624695175704
 20
-0.9164080720346063
 30
0.0
 11
-20.69375971227141
 21
-4.106539614168994
 31
0.0
  0
LINE
  5
1F1F
330
1F
100
AcDbEntity
  8
AM_0
100
AcDbLine
 10
-20.69375971227141
 20
-4.999999999999694
 30
0.0
 11
-125.0
 21
-4.999999999999694
 31
0.0
  0
LINE
  5
1F29
330
1F
100
AcDbEntity
  8
AM_0
100
AcDbLine
 10
-125.0
 20
-24.99999999999969
 30
0.0
 11
-125.0
 21
-4.999999999999694
 31
0.0
  0
LINE
  5
1F2A
330
1F
100
AcDbEntity
  8
AM_0
100
AcDbLine
 10
-125.0
 20
33.31308121984137
 30
0.0
 11
-125.0
 21
53.31308121984137
 31
0.0
  0
LINE
  5
1F35
330
1F
100
AcDbEntity
  8
AM_7
100
AcDbLine
 10
-7.677631709304881
 20
61.72306580669326
 30
0.0
 11
-5.043805696529792
 21
31.61829672430048
 31
0.0
  0
LINE
  5
1F36
330
1F
100
AcDbEntity
  8
AM_0
100
AcDbLine
 10
40.75060158986001
 20
-24.99999999999969
 30
0.0
 11
60.75060158986003
 21
-24.99999999999969
 31
0.0
  0
LINE
  5
1F37
330
1F
100
AcDbEntity
  8
AM_0
100
AcDbLine
 10
40.75060158986003
 20
-24.99999999999969
 30
0.0
 11
40.75060158986003
 21
-15.99048223405118
 31
0.0
  0
LINE
  5
1F40
330
1F
100
AcDbEntity
  8
AM_0
100
AcDbLine
 10
60.75060158986003
 20
-24.99999999999969
 30
0.0
 11
60.75060158986003
 21
-1.74071896692299
 31
0.0
  0
LINE
  5
1FCC
330
1F
100
AcDbEntity
  8
AM_0
100
AcDbLine
 10
40.75060158986003
 20
-16.51951859019988
 30
0.0
 11
53.96060158986004
 21
-24.99999999999969
 31
0.0
  0
LINE
  5
20B1
330
1F
100
AcDbEntity
  8
AM_0
100
AcDbLine
 10
44.27091808854465
 20
-16.36999236176962
 30
0.0
 11
44.27091808854465
 21
-16.29322768645045
 31
0.0
  0
LINE
  5
20BF
330
1F
100
AcDbEntity
  8
AM_0
100
AcDbLine
 10
44.27082778762762
 20
-16.37054827000891
 30
0.0
 11
40.74368802016165
 21
-16.06196352568417
 31
0.0
  0
LINE
  5
20DB
330
1F
100
AcDbEntity
  8
AM_0
100
AcDbLine
 10
44.2288386904612
 20
-16.7146080920693
 30
0.0
 11
47.71552013378229
 21
-17.01965319168611
 31
0.0
  0
LINE
  5
20F6
330
1F
100
AcDbEntity
  8
AM_0
100
AcDbLine
 10
47.72185589295132
 20
-17.02020749878823
 30
0.0
 11
49.15038749270852
 21
-0.6920165974161066
 31
0.0
  0
LINE
  5
2100
330
1F
100
AcDbEntity
  8
AM_0
100
AcDbLine
 10
-4.797303570305315
 20
57.48504764298756
 30
0.0
 11
-4.434830541758705
 21
53.34196196835945
 31
0.0
  0
LINE
  5
2104
330
1F
100
AcDbEntity
  8
AM_0
100
AcDbLine
 10
-9.778277060764038
 20
57.04926892924927
 30
0.0
 11
-9.449791641703873
 21
53.29466340869718
 31
0.0
  0
LINE
  5
210C
330
1F
100
AcDbEntity
  8
AM_0
100
AcDbLine
 10
-13.48750000000003
 20
32.63307787053548
 30
0.0
 11
-0.0000000000000621
 21
33.81308121984137
 31
0.0
  0
LINE
  5
2114
330
1F
100
AcDbEntity
  8
AM_0
100
AcDbLine
 10
-9.778277060764038
 20
57.04926892924927
 30
0.0
 11
-4.797303570305314
 21
57.48504764298756
 31
0.0
  0
LINE
  5
2120
330
1F
100
AcDbEntity
  8
AM_0
100
AcDbLine
 10
64.23914501162605
 20
-12.49456369796298
 30
0.0
 11
60.75060158986
 21
-12.18935569634049
 31
0.0
  0
LINE
  5
2121
330
1F
100
AcDbEntity
  8
AM_0
100
AcDbLine
 10
64.67492372536432
 20
-7.51359020750425
 30
0.0
 11
60.75060158986003
 21
-7.170256508623772
 31
0.0
  0
LINE
  5
2122
330
1F
100
AcDbEntity
  8
AM_0
100
AcDbLine
 10
64.67492372536432
 20
-7.51359020750425
 30
0.0
 11
64.23914501162605
 21
-12.49456369796298
 31
0.0
  0
LINE
  5
2123
330
1F
100
AcDbEntity
  8
AM_7
100
AcDbLine
 10
69.16058617671193
 20
-10.41558441425942
 30
0.0
 11
39.05581709431914
 21
-7.781758401484317
 31
0.0
  0
LINE
  5
25D0
330
1F
100
AcDbEntity
  8
AM_0
100
AcDbLine
 10
-20.50542437565956
 20
-4.073331012903516
 30
0.0
 11
0.037645514805258
 21
-15.93387794414478
 31
0.0
  0
CIRCLE
  5
2692
330
1F
100
AcDbEntity
  8
AM_0
100
AcDbCircle
 10
-4.762500000000036
 20
-7.663251324991328
 30
0.0
 40
1.817499999999999
  0
LINE
  5
2702
330
1F
100
AcDbEntity
  8
AM_0
100
AcDbLine
 10
-20.69375094617898
 20
39.9930185130669
 30
0.0
 11
-14.12563820006029
 21
39.9930185130669
 31
0.0
  0
LINE
  5
27FF
330
1F
100
AcDbEntity
  8
AM_0
100
AcDbLine
 10
-14.18125971227139
 20
40.56278766734576
 30
0.0
 11
-13.48750000000003
 21
32.63307787053548
 31
0.0
  0
LINE
  5
280B
330
1F
100
AcDbEntity
  8
AM_0
100
AcDbLine
 10
-13.90236133547889
 20
37.37496463345218
 30
0.0
 11
-0.4148613354789087
 21
38.55496798275808
 31
0.0
  0
LINE
  5
2834
330
1F
100
AcDbEntity
  8
AM_0
100
AcDbLine
 10
39.84846943905666
 20
-15.9121432960381
 30
0.0
 11
41.24060158986003
 21
0.0000000000003126
 31
0.0
  0
LINE
  5
283C
330
1F
100
AcDbEntity
  8
AM_0
100
AcDbLine
 10
44.59035620197337
 20
-16.32700463151696
 30
0.0
 11
45.98248835277678
 21
-0.4148613354785482
 31
0.0
  0
LINE
  5
283E
330
1F
100
AcDbEntity
  8
AM_0
100
AcDbLine
 10
-20.39463044842013
 20
36.57405557885527
 30
0.0
 11
-20.10937842073615
 21
33.31360998295869
 31
0.0
  0
LINE
  5
283F
330
1F
100
AcDbEntity
  8
AM_0
100
AcDbLine
 10
-20.39463044842013
 20
36.57405557885527
 30
0.0
 11
-20.69147878993845
 21
36.54808471418593
 31
0.0
  0
LINE
  5
2840
330
1F
100
AcDbEntity
  8
AM_0
100
AcDbLine
 10
-20.69375094617898
 20
36.54788592627314
 30
0.0
 11
-20.99287144393782
 21
39.96684886048477
 31
0.0
  0
LINE
  5
2841
330
1F
100
AcDbEntity
  8
AM_0
100
AcDbLine
 10
-20.69375094617898
 20
39.9930185130669
 30
0.0
 11
-20.99287144393782
 21
39.96684886048477
 31
0.0
  0
LINE
  5
2842
330
1F
100
AcDbEntity
  8
AM_0
100
AcDbLine
 10
49.14737702364185
 20
-0.7264264163040579
 30
0.0
 11
60.74079392751742
 21
-1.74071896692299
 31
0.0
  0
LINE
  5
2844
330
1F
100
AcDbEntity
  8
AM_0
100
AcDbLine
 10
39.85846943905671
 20
-15.9121432960381
 30
0.0
 11
47.76825534190513
 21
-16.6041598934545
 31
0.0
  0
LINE
  5
2845
330
1F
100
AcDbEntity
  8
AM_0
100
AcDbLine
 10
44.27082778762762
 20
-16.36951612580416
 30
0.0
 11
44.24063615270553
 21
-16.71460809206929
 31
0.0
  0
LINE
  5
2869
330
1F
100
AcDbEntity
  8
AM_0
100
AcDbLine
 10
-0.6998122018622492
 20
41.74226149242636
 30
0.0
 11
-7.276524087068983
 21
53.31308121984137
 31
0.0
  0
DIMENSION
  5
28FE
330
1F
100
AcDbEntity
  8
AM_5
100
AcDbDimension
  2
*D5
 10
-139.0
 20
33.31308121984137
 30
0.0
 11
-142.1
 21
43.31308121984135
 31
0.0
 70
    32
  1
<>
  3
AM_JIS
100
AcDbAlignedDimension
 13
-125.0
 23
53.31308121984137
 33
0.0
 14
-125.0
 24
33.31308121984137
 34
0.0
 50
270.0
100
AcDbRotatedDimension
1001
GENIUS_GENDTOL_13
1000

1000
h7
1000

1040
0.0
  0
DIMENSION
  5
2A35
330
1F
100
AcDbEntity
  8
AM_5
100
AcDbDimension
  2
*D6
 10
24.01220083839289
 20
33.81308121984136
 30
0.0
 11
20.91220083839288
 21
43.56308121984137
 31
0.0
 70
    32
  1
<>
  3
AM_JIS
100
AcDbAlignedDimension
 13
-1.712127755713174
 23
53.31308121984137
 33
0.0
 14
-0.0000000000000621
 24
33.81308121984137
 34
0.0
 50
90.00000000000003
100
AcDbRotatedDimension
1001
GENIUS_GENDTOL_13
1000

1000
h7
1000

1040
0.0
  0
LINE
  5
2ACC
330
1F
100
AcDbEntity
  8
AM_0
100
AcDbLine
 10
-0.0000000000000763
 20
33.81308121984137
 30
0.0
 11
-0.6937597122714347
 21
41.74279101665166
 31
0.0
  0
DIMENSION
  5
2C21
330
1F
100
AcDbEntity
  8
AM_5
100
AcDbDimension
  2
*D7
 10
-139.0
 20
-24.99999999999969
 30
0.0
 11
-142.1
 21
-14.99999999999971
 31
0.0
 70
    32
  1
<>
  3
AM_JIS
100
AcDbAlignedDimension
 13
-125.0
 23
-4.999999999999694
 33
0.0
 14
-125.0
 24
-24.99999999999969
 34
0.0
 50
270.0
100
AcDbRotatedDimension
1001
GENIUS_GENDTOL_13
1000

1000
h7
1000

1040
0.0
  0
LINE
  5
2CB0
330
1F
100
AcDbEntity
  8
AM_11
100
AcDbLine
 10
-0.0000000000000617
 20
-0.7999999999996846
 30
0.0
 11
-0.0000000000000617
 21
0.0000000000003126
 31
0.0
  0
DIMENSION
  5
2CBB
330
1F
100
AcDbEntity
  8
AM_5
100
AcDbDimension
  2
*D8
 10
-0.0000000000000621
 20
-1.385640646054781
 30
0.0
 11
7.707463914933303
 21
-7.707463914933044
 31
0.0
 70
    34
  1
<>
  3
AM_JIS$2
100
AcDb2LineAngularDimension
 13
-0.0000000000000763
 23
0.0000000000003126
 33
0.0
 14
-6.872499254640602
 24
0.0000000000003126
 34
0.0
 15
-0.0000000000000479
 25
-15.1121432960381
 35
0.0
 16
6.999999999999933
 26
-12.12435565298182
 36
0.0
1001
GENIUS_GENDTOL_13
1000

1000
h7
1000

1040
0.0
1001
ACAD
1000
DSTYLE
1002
{
1070
   179
1070
     3
1070
    76
1070
     0
1070
    75
1070
     0
1002
}
  0
LINE
  5
2F18
330
1F
100
AcDbEntity
  8
AM_0
100
AcDbLine
 10
41.24060158986003
 20
0.0000000000003126
 30
0.0
 11
49.15038749270852
 21
-0.6920165974160924
 31
0.0
  0
DIMENSION
  5
2F7C
330
1F
100
AcDbEntity
  8
AM_5
100
AcDbDimension
  2
*D9
 10
60.74079392751742
 20
21.31191093732765
 30
0.0
 11
50.99069775868873
 21
24.41191093732765
 31
0.0
 70
    32
  1
<>
  3
AM_JIS
100
AcDbAlignedDimension
 13
41.24060158986003
 23
0.0000000000003126
 33
0.0
 14
60.74079392751742
 24
-1.74071896692299
 34
0.0
 50
180.0
100
AcDbRotatedDimension
1001
GENIUS_GENDTOL_13
1000

1000
h7
1000

1040
0.0
  0
DIMENSION
  5
3713
330
1F
100
AcDbEntity
  8
AM_5
100
AcDbDimension
  2
*D10
 10
-0.0000000000000765
 20
19.31308121984128
 30
0.0
 11
-62.50000000000007
 21
22.41308121984129
 31
0.0
 70
    32
  1
<>
  3
AM_JIS
100
AcDbAlignedDimension
 13
-125.0
 23
33.31308121984137
 33
0.0
 14
-0.0000000000000756
 24
33.81308121984137
 34
0.0
 50
180.0
100
AcDbRotatedDimension
1001
GENIUS_GENDTOL_13
1000

1000
h7
1000

1040
0.0
  0
LINE
  5
3798
330
1F
100
AcDbEntity
  8
AM_11
100
AcDbLine
 10
-0.8000000000000621
 20
0.0000000000003126
 30
0.0
 11
-0.0000000000000617
 21
0.0000000000003126
 31
0.0
  0
DIMENSION
  5
37A6
330
1F
100
AcDbEntity
  8
AM_5
100
AcDbDimension
  2
*D11
 10
22.84047523662049
 20
-24.99999999999969
 30
0.0
 11
19.7404752366205
 21
-12.49999999999969
 31
0.0
 70
    32
  1
<>
  3
AM_JIS
100
AcDbAlignedDimension
 13
-0.0000000000000616
 23
0.0000000000003126
 33
0.0
 14
-1.457692167138981
 24
-24.99999999999969
 34
0.0
 50
270.0
100
AcDbRotatedDimension
1001
GENIUS_GENDTOL_13
1000

1000
h7
1000

1040
0.0
  0
DIMENSION
  5
3893
330
1F
100
AcDbEntity
  8
AM_5
100
AcDbDimension
  2
*D12
 10
-0.0000000000000614
 20
33.81308121984137
 30
0.0
 11
13.69092919988212
 21
21.32104428886921
 31
0.0
 70
    34
  1
-<>
  3
AM_JIS$2
100
AcDb2LineAngularDimension
 13
-0.0000000000000763
 23
33.81308121984137
 33
0.0
 14
-3.471448266549132
 24
33.81308121984137
 34
0.0
 15
-13.48750000000003
 25
32.63307787053548
 35
0.0
 16
14.06744250117051
 26
34.63241644279991
 36
0.0
1001
ACAD
1000
DSTYLE
1002
{
1070
   179
1070
     3
1002
}
1001
GENIUS_GENDTOL_13
1000

1000
h7
1000

1040
0.0
  0
DIMENSION
  5
39A4
330
1F
100
AcDbEntity
  8
AM_5
100
AcDbDimension
  2
*D13
 10
41.24060158986003
 20
0.0000000000003126
 30
0.0
 11
54.65854427199037
 21
10.16150367045898
 31
0.0
 70
    34
  1
-<>
  3
AM_JIS$2
100
AcDb2LineAngularDimension
 13
41.24060158986003
 23
0.0000000000003126
 33
0.0
 14
41.24060158986003
 24
-2.738469779424484
 34
0.0
 15
39.84846943905666
 25
-15.9121432960381
 35
0.0
 16
41.59662643211599
 26
12.23578020880842
 36
0.0
1001
ACAD
1000
DSTYLE
1002
{
1070
   179
1070
     3
1002
}
1001
GENIUS_GENDTOL_13
1000

1000
h7
1000

1040
0.0
  0
VIEWPORT
  5
110
330
101
100
AcDbEntity
 67
     1
  8
0
100
AcDbViewport
 10
420.5
 20
297.0
 30
0.0
 40
948.9782706766916
 41
628.452
 68
     1
 69
     1
1001
ACAD
1000
MVIEW
1002
{
1070
    16
1010
0.0
1020
0.0
1030
0.0
1010
0.0
1020
0.0
1030
1.0
1040
0.0
1040
628.452
1040
420.5
1040
297.0
1040
50.0
1040
0.0
1040
0.0
1070
     0
1070
   100
1070
     1
1070
     1
1070
     0
1070
     0
1070
     0
1070
     0
1040
0.0
1040
0.0
1040
0.0
1040
10.0
1040
10.0
1040
10.0
1040
10.0
1070
     0
1002
{
1002
}
1002
}
  0
ENDSEC
  0
SECTION
  2
OBJECTS
  0
DICTIONARY
  5
C
330
0
100
AcDbDictionary
  3
ACAD_GROUP
350
D
  3
ACAD_LAYOUT
350
1A
  3
ACAD_MLINESTYLE
350
17
  3
ACAD_PLOTSETTINGS
350
19
  3
ACAD_PLOTSTYLENAME
350
E
  3
ACDBVARIABLEDICTIONARY
350
34
  3
ACMDICTIONARY
350
43
  3
AMG
350
2B
  3
AMGSNAPSETTINGS
350
6E
  3
DWGPROPS
350
3B15
  3
ACDBHEADERROUNDTRIPXREC
350
3B21
  0
DICTIONARY
  5
74
330
1F
100
AcDbDictionary
280
     1
  3
ACAD_INDEX
360
3B17
  3
ACAD_LAYOUTSELFREF
360
3B44
  0
DICTIONARY
  5
3B49
330
101
100
AcDbDictionary
280
     1
  3
ACAD_LAYOUTSELFREF
360
3B4A
  0
DICTIONARY
  5
D
102
{ACAD_REACTORS
330
C
102
}
330
C
100
AcDbDictionary
  0
DICTIONARY
  5
1A
102
{ACAD_REACTORS
330
C
102
}
330
C
100
AcDbDictionary
  0
DICTIONARY
  5
17
102
{ACAD_REACTORS
330
C
102
}
330
C
100
AcDbDictionary
  3
STANDARD
350
18
  0
DICTIONARY
  5
19
102
{ACAD_REACTORS
330
C
102
}
330
C
100
AcDbDictionary
  0
ACDBDICTIONARYWDFLT
  5
E
102
{ACAD_REACTORS
330
C
102
}
330
C
100
AcDbDictionary
281
     1
  3
Normal
350
F
100
AcDbDictionaryWithDefault
340
F
  0
DICTIONARY
  5
34
102
{ACAD_REACTORS
330
C
102
}
330
C
100
AcDbDictionary
  3
INDEXCTL
350
35
  3
SORTENTS
350
B5E
  0
DICTIONARY
  5
43
102
{ACAD_REACTORS
330
C
102
}
330
C
100
AcDbDictionary
  3
ACMSTDDICTIONARY
350
260
  0
DICTIONARY
  5
2B
102
{ACAD_REACTORS
330
C
102
}
330
C
100
AcDbDictionary
  3
ACMGSETTINGS
350
2C
  0
DICTIONARY
  5
6E
102
{ACAD_REACTORS
330
C
102
}
330
C
100
AcDbDictionary
  0
XRECORD
  5
3B15
102
{ACAD_REACTORS
330
C
102
}
330
C
100
AcDbXrecord
  1
DWGPROPS COOKIE
  2

  3

  4

  6

  7

  8

  9

300
AmdtFileType=82
301
=
302
=
303
=
304
=
305
=
306
=
307
=
308
=
309
=
 40
0.4674833333333333
 41
2452838.620506898
 42
2452909.589372997
  1

 90
        1
  0
DICTIONARY
  5
3B21
102
{ACAD_REACTORS
330
C
102
}
330
C
100
AcDbDictionary
  3
TSTACKALIGN
350
3B22
  3
TSTACKSIZE
350
3B23
  3
HYPERLINKBASE
350
3B24
  3
STYLESHEET
350
3B25
  3
LAYOUTDICT
350
3B26
  3
PLOTSETDICT
350
3B27
  3
PLOTSTYLNAMDICT
350
3B28
  3
LWETCUNION
350
3B29
  3
INSUNITS
350
3B2A
  3
CEPSNTYPE
350
3B2B
  3
FINGERPRINTGUID
350
3B2C
  3
VERSIONGUID
350
3B2D
  3
PSVPSCALE
350
3B2E
  3
DIMSTYLEDATA
350
3B2F
  3
PUCSORTHOREF
350
3B30
  3
PUCSORTHOVIEW
350
3B31
  3
PUCSBASE
350
3B32
  3
PUCSORGTOP
350
3B33
  3
PUCSORGBOTTOM
350
3B34
  3
PUCSORGLEFT
350
3B35
  3
PUCSORGRIGHT
350
3B36
  3
PUCSORGFRONT
350
3B37
  3
PUCSORGBACK
350
3B38
  3
UCSORTHOREF
350
3B39
  3
UCSORTHOVIEW
350
3B3A
  3
UCSBASE
350
3B3B
  3
UCSORGTOP
350
3B3C
  3
UCSORGBOTTOM
350
3B3D
  3
UCSORGLEFT
350
3B3E
  3
UCSORGRIGHT
350
3B3F
  3
UCSORGFRONT
350
3B40
  3
UCSORGBACK
350
3B41
  0
DICTIONARY
  5
3B17
102
{ACAD_REACTORS
330
74
102
}
330
74
100
AcDbDictionary
  3
*A1
350
3B18
  0
XRECORD
  5
3B44
102
{ACAD_REACTORS
330
74
102
}
330
74
100
AcDbXrecord
340
1F
  0
XRECORD
  5
3B4A
102
{ACAD_REACTORS
330
3B49
102
}
330
3B49
100
AcDbXrecord
340
101
  0
MLINESTYLE
  5
18
102
{ACAD_REACTORS
330
17
102
}
330
17
100
AcDbMlineStyle
  2
STANDARD
 70
     0
  3

 62
   256
 51
90.0
 52
90.0
 71
     2
 49
0.5
 62
   256
  6
BYLAYER
 49
-0.5
 62
   256
  6
BYLAYER
  0
ACDBPLACEHOLDER
  5
F
102
{ACAD_REACTORS
330
E
102
}
330
E
100
AcDbPlaceHolder
280
     0
  0
DICTIONARYVAR
  5
35
102
{ACAD_REACTORS
330
34
102
}
330
34
100
DictionaryVariables
280
     0
  1
1
  0
DICTIONARYVAR
  5
B5E
102
{ACAD_REACTORS
330
34
102
}
330
34
100
DictionaryVariables
280
     0
  1
96
  0
DICTIONARY
  5
260
102
{ACAD_REACTORS
330
43
102
}
330
43
100
AcDbDictionary
  0
DICTIONARY
  5
2C
102
{ACAD_REACTORS
330
2B
102
}
330
2B
100
AcDbDictionary
  3
DWGSETTINGS
350
2D
  0
XRECORD
  5
3B22
102
{ACAD_REACTORS
330
3B21
102
}
330
3B21
100
AcDbXrecord
 90
        1
  0
XRECORD
  5
3B23
102
{ACAD_REACTORS
330
3B21
102
}
330
3B21
100
AcDbXrecord
 90
       70
  0
XRECORD
  5
3B24
102
{ACAD_REACTORS
330
3B21
102
}
330
3B21
100
AcDbXrecord
  1

  0
XRECORD
  5
3B25
102
{ACAD_REACTORS
330
3B21
102
}
330
3B21
100
AcDbXrecord
  1
ASAMI.ctb
  0
XRECORD
  5
3B26
102
{ACAD_REACTORS
330
3B21
102
}
330
3B21
100
AcDbXrecord
340
1A
  0
XRECORD
  5
3B27
102
{ACAD_REACTORS
330
3B21
102
}
330
3B21
100
AcDbXrecord
340
19
  0
XRECORD
  5
3B28
102
{ACAD_REACTORS
330
3B21
102
}
330
3B21
100
AcDbXrecord
340
E
  0
XRECORD
  5
3B29
102
{ACAD_REACTORS
330
3B21
102
}
330
3B21
100
AcDbXrecord
 90
    10781
  0
XRECORD
  5
3B2A
102
{ACAD_REACTORS
330
3B21
102
}
330
3B21
100
AcDbXrecord
 90
        4
  0
XRECORD
  5
3B2B
102
{ACAD_REACTORS
330
3B21
102
}
330
3B21
100
AcDbXrecord
 90
        0
  0
XRECORD
  5
3B2C
102
{ACAD_REACTORS
330
3B21
102
}
330
3B21
100
AcDbXrecord
  1
{AFB28963-8C59-40AE-9337-C84526B81ACE}
  0
XRECORD
  5
3B2D
102
{ACAD_REACTORS
330
3B21
102
}
330
3B21
100
AcDbXrecord
  1
{52ADEE6C-941C-4340-BFB3-91442265252F}
  0
XRECORD
  5
3B2E
102
{ACAD_REACTORS
330
3B21
102
}
330
3B21
100
AcDbXrecord
 40
0.0
  0
XRECORD
  5
3B2F
102
{ACAD_REACTORS
330
3B21
102
}
330
3B21
100
AcDbXrecord
1000
DSTYLE
1002
{
1070
    79
 70
     2
1070
   341
340
59
1070
   342
340
59
1070
   371
 70
    -1
1070
   372
 70
    -1
1002
}
  0
XRECORD
  5
3B30
102
{ACAD_REACTORS
330
3B21
102
}
330
3B21
100
AcDbXrecord
340
0
  0
XRECORD
  5
3B31
102
{ACAD_REACTORS
330
3B21
102
}
330
3B21
100
AcDbXrecord
 70
     0
  0
XRECORD
  5
3B32
102
{ACAD_REACTORS
330
3B21
102
}
330
3B21
100
AcDbXrecord
340
0
  0
XRECORD
  5
3B33
102
{ACAD_REACTORS
330
3B21
102
}
330
3B21
100
AcDbXrecord
 10
0.0
 20
0.0
 30
0.0
  0
XRECORD
  5
3B34
102
{ACAD_REACTORS
330
3B21
102
}
330
3B21
100
AcDbXrecord
 10
0.0
 20
0.0
 30
0.0
  0
XRECORD
  5
3B35
102
{ACAD_REACTORS
330
3B21
102
}
330
3B21
100
AcDbXrecord
 10
0.0
 20
0.0
 30
0.0
  0
XRECORD
  5
3B36
102
{ACAD_REACTORS
330
3B21
102
}
330
3B21
100
AcDbXrecord
 10
0.0
 20
0.0
 30
0.0
  0
XRECORD
  5
3B37
102
{ACAD_REACTORS
330
3B21
102
}
330
3B21
100
AcDbXrecord
 10
0.0
 20
0.0
 30
0.0
  0
XRECORD
  5
3B38
102
{ACAD_REACTORS
330
3B21
102
}
330
3B21
100
AcDbXrecord
 10
0.0
 20
0.0
 30
0.0
  0
XRECORD
  5
3B39
102
{ACAD_REACTORS
330
3B21
102
}
330
3B21
100
AcDbXrecord
340
0
  0
XRECORD
  5
3B3A
102
{ACAD_REACTORS
330
3B21
102
}
330
3B21
100
AcDbXrecord
 70
     0
  0
XRECORD
  5
3B3B
102
{ACAD_REACTORS
330
3B21
102
}
330
3B21
100
AcDbXrecord
340
0
  0
XRECORD
  5
3B3C
102
{ACAD_REACTORS
330
3B21
102
}
330
3B21
100
AcDbXrecord
 10
0.0
 20
0.0
 30
0.0
  0
XRECORD
  5
3B3D
102
{ACAD_REACTORS
330
3B21
102
}
330
3B21
100
AcDbXrecord
 10
0.0
 20
0.0
 30
0.0
  0
XRECORD
  5
3B3E
102
{ACAD_REACTORS
330
3B21
102
}
330
3B21
100
AcDbXrecord
 10
0.0
 20
0.0
 30
0.0
  0
XRECORD
  5
3B3F
102
{ACAD_REACTORS
330
3B21
102
}
330
3B21
100
AcDbXrecord
 10
0.0
 20
0.0
 30
0.0
  0
XRECORD
  5
3B40
102
{ACAD_REACTORS
330
3B21
102
}
330
3B21
100
AcDbXrecord
 10
0.0
 20
0.0
 30
0.0
  0
XRECORD
  5
3B41
102
{ACAD_REACTORS
330
3B21
102
}
330
3B21
100
AcDbXrecord
 10
0.0
 20
0.0
 30
0.0
  0
LAYER_INDEX
  5
3B18
102
{ACAD_REACTORS
330
3B17
102
}
330
3B17
100
AcDbIndex
 40
2452941.592890798
100
AcDbLayerIndex
  8
0
360
3B19
 90
        0
  8
AM_0
360
3B1A
 90
       48
  8
AM_11
360
3B1B
 90
        2
  8
AM_7
360
3B1C
 90
        2
  8
AM_5
360
3B1D
 90
        9
  8
Defpoints
360
3B1E
 90
        0
  8
AM_6
360
3B1F
 90
        1
  0
XRECORD
  5
2D
102
{ACAD_REACTORS
330
2C
102
}
330
2C
100
AcDbXrecord
  1
VERSION
140
15.0
  1
PRODUCT
  2
AutoCAD Mechanical 2000
  0
IDBUFFER
  5
3B19
330
0
100
AcDbIdBuffer
  0
IDBUFFER
  5
3B1A
330
0
100
AcDbIdBuffer
330
1F36
330
1F37
330
1F40
330
1FCC
330
20B1
330
20BF
330
20DB
330
20F6
330
2100
330
2104
330
210C
330
2114
330
2120
330
2121
330
2122
330
25D0
330
2692
330
2702
330
27FF
330
280B
330
2834
330
283C
330
283E
330
283F
330
2840
330
2841
330
2842
330
2844
330
2845
330
2869
330
2ACC
330
2F18
330
1D74
330
1E3E
330
1E4A
330
1E52
330
1E5E
330
1E67
330
1E69
330
1E83
330
1E84
330
1E85
330
1E8B
330
1E97
330
1EBB
330
1F1F
330
1F29
330
1F2A
  0
IDBUFFER
  5
3B1B
330
0
100
AcDbIdBuffer
330
2CB0
330
3798
  0
IDBUFFER
  5
3B1C
330
0
100
AcDbIdBuffer
330
1F35
330
2123
  0
IDBUFFER
  5
3B1D
330
0
100
AcDbIdBuffer
330
28FE
330
2A35
330
2C21
330
2CBB
330
2F7C
330
3713
330
37A6
330
3893
330
39A4
  0
IDBUFFER
  5
3B1E
330
0
100
AcDbIdBuffer
  0
IDBUFFER
  5
3B1F
330
0
100
AcDbIdBuffer
330
C58
  0
ENDSEC
  0
EOF
