  0
SECTION
  2
HEADER
  9
$ACADVER
  1
AC1014
  9
$ACADMAINTVER
 70
     9
  9
$DWGCODEPAGE
  3
ANSI_932
  9
$INSBASE
 10
0.0
 20
0.0
 30
0.0
  9
$EXTMIN
 10
-168.7
 20
-54.50000000000009
 30
0.0
  9
$EXTMAX
 10
75.4755726718122
 20
64.76438948264338
 30
0.0
  9
$LIMMIN
 10
-183.5318647037872
 20
-70.56858354822748
  9
$LIMMAX
 10
83.12456498030337
 20
69.57281725272799
  9
$ORTHOMODE
 70
     0
  9
$REGENMODE
 70
     1
  9
$FILLMODE
 70
     1
  9
$QTEXTMODE
 70
     0
  9
$MIRRTEXT
 70
     0
  9
$DRAGMODE
 70
     2
  9
$LTSCALE
 40
1.0
  9
$OSMODE
 70
  2103
  9
$ATTMODE
 70
     1
  9
$TEXTSIZE
 40
2.5
  9
$TRACEWID
 40
1.0
  9
$TEXTSTYLE
  7
STANDARD
  9
$CLAYER
  8
AM_0
  9
$CELTYPE
  6
BYLAYER
  9
$CECOLOR
 62
   256
  9
$CELTSCALE
 40
1.0
  9
$DELOBJ
 70
     1
  9
$DISPSILH
 70
     0
  9
$DIMSCALE
 40
1.0
  9
$DIMASZ
 40
2.5
  9
$DIMEXO
 40
1.0
  9
$DIMDLI
 40
12.0
  9
$DIMRND
 40
0.0
  9
$DIMDLE
 40
0.0
  9
$DIMEXE
 40
1.0
  9
$DIMTP
 40
0.1
  9
$DIMTM
 40
0.1
  9
$DIMTXT
 40
3.2
  9
$DIMCEN
 40
0.0
  9
$DIMTSZ
 40
0.0
  9
$DIMTOL
 70
     0
  9
$DIMLIM
 70
     0
  9
$DIMTIH
 70
     0
  9
$DIMTOH
 70
     0
  9
$DIMSE1
 70
     0
  9
$DIMSE2
 70
     0
  9
$DIMTAD
 70
     3
  9
$DIMZIN
 70
     8
  9
$DIMBLK
  1
OPEN30
  9
$DIMASO
 70
     1
  9
$DIMSHO
 70
     1
  9
$DIMPOST
  1

  9
$DIMAPOST
  1
"
  9
$DIMALT
 70
     0
  9
$DIMALTD
 70
     2
  9
$DIMALTF
 40
0.0393701
  9
$DIMLFAC
 40
1.0
  9
$DIMTOFL
 70
     1
  9
$DIMTVP
 40
0.0
  9
$DIMTIX
 70
     0
  9
$DIMSOXD
 70
     0
  9
$DIMSAH
 70
     0
  9
$DIMBLK1
  1

  9
$DIMBLK2
  1

  9
$DIMSTYLE
  2
AM_JIS
  9
$DIMCLRD
 70
     3
  9
$DIMCLRE
 70
     3
  9
$DIMCLRT
 70
     2
  9
$DIMTFAC
 40
0.71
  9
$DIMGAP
 40
1.5
  9
$DIMJUST
 70
     0
  9
$DIMSD1
 70
     0
  9
$DIMSD2
 70
     0
  9
$DIMTOLJ
 70
     0
  9
$DIMTZIN
 70
     0
  9
$DIMALTZ
 70
     0
  9
$DIMALTTZ
 70
     0
  9
$DIMFIT
 70
     3
  9
$DIMUPT
 70
     0
  9
$DIMUNIT
 70
     2
  9
$DIMDEC
 70
     3
  9
$DIMTDEC
 70
     3
  9
$DIMALTU
 70
     2
  9
$DIMALTTD
 70
     2
  9
$DIMTXSTY
  7
ASAMI
  9
$DIMAUNIT
 70
     0
  9
$LUNITS
 70
     2
  9
$LUPREC
 70
     2
  9
$SKETCHINC
 40
1.0
  9
$FILLETRAD
 40
1.199999999999999
  9
$AUNITS
 70
     0
  9
$AUPREC
 70
     0
  9
$MENU
  1
.
  9
$ELEVATION
 40
0.0
  9
$PELEVATION
 40
0.0
  9
$THICKNESS
 40
0.0
  9
$LIMCHECK
 70
     0
  9
$BLIPMODE
 70
     0
  9
$CHAMFERA
 40
2.5
  9
$CHAMFERB
 40
2.5
  9
$CHAMFERC
 40
20.0
  9
$CHAMFERD
 40
0.0
  9
$SKPOLY
 70
     0
  9
$TDCREATE
 40
2452838.620506898
  9
$TDUPDATE
 40
2452941.593143623
  9
$TDINDWG
 40
0.4709119676
  9
$TDUSRTIMER
 40
0.4709119676
  9
$USRTIMER
 70
     1
  9
$ANGBASE
 50
0.0
  9
$ANGDIR
 70
     0
  9
$PDMODE
 70
     0
  9
$PDSIZE
 40
0.0
  9
$PLINEWID
 40
0.0
  9
$COORDS
 70
     0
  9
$SPLFRAME
 70
     0
  9
$SPLINETYPE
 70
     6
  9
$SPLINESEGS
 70
     8
  9
$ATTDIA
 70
     1
  9
$ATTREQ
 70
     1
  9
$HANDLING
 70
 12289
  9
$HANDSEED
  5
3CC8
  9
$SURFTAB1
 70
     6
  9
$SURFTAB2
 70
     6
  9
$SURFTYPE
 70
     6
  9
$SURFU
 70
     6
  9
$SURFV
 70
     6
  9
$UCSNAME
  2

  9
$UCSORG
 10
0.0
 20
0.0
 30
0.0
  9
$UCSXDIR
 10
1.0
 20
0.0
 30
0.0
  9
$UCSYDIR
 10
0.0
 20
1.0
 30
0.0
  9
$PUCSNAME
  2

  9
$PUCSORG
 10
0.0
 20
0.0
 30
0.0
  9
$PUCSXDIR
 10
1.0
 20
0.0
 30
0.0
  9
$PUCSYDIR
 10
0.0
 20
1.0
 30
0.0
  9
$USERI1
 70
     0
  9
$USERI2
 70
     0
  9
$USERI3
 70
     0
  9
$USERI4
 70
     0
  9
$USERI5
 70
     0
  9
$USERR1
 40
0.0
  9
$USERR2
 40
0.0
  9
$USERR3
 40
0.0
  9
$USERR4
 40
0.0
  9
$USERR5
 40
0.0
  9
$WORLDVIEW
 70
     1
  9
$SHADEDGE
 70
     3
  9
$SHADEDIF
 70
    70
  9
$TILEMODE
 70
     1
  9
$MAXACTVP
 70
    64
  9
$PINSBASE
 10
0.0
 20
0.0
 30
0.0
  9
$PLIMCHECK
 70
     0
  9
$PEXTMIN
 10
1.000000000000000E+20
 20
1.000000000000000E+20
 30
1.000000000000000E+20
  9
$PEXTMAX
 10
-1.000000000000000E+20
 20
-1.000000000000000E+20
 30
-1.000000000000000E+20
  9
$PLIMMIN
 10
0.0
 20
0.0
  9
$PLIMMAX
 10
841.0
 20
594.0
  9
$UNITMODE
 70
     0
  9
$VISRETAIN
 70
     1
  9
$PLINEGEN
 70
     0
  9
$PSLTSCALE
 70
     0
  9
$TREEDEPTH
 70
  3020
  9
$PICKSTYLE
 70
     0
  9
$CMLSTYLE
  2
STANDARD
  9
$CMLJUST
 70
     0
  9
$CMLSCALE
 40
20.0
  9
$PROXYGRAPHICS
 70
     1
  9
$MEASUREMENT
 70
     1
  0
ENDSEC
  0
SECTION
  2
CLASSES
  0
CLASS
  1
ACDBDICTIONARYWDFLT
  2
AcDbDictionaryWithDefault
  3
AutoCAD 2000
 90
        0
280
     0
281
     0
  0
CLASS
  1
ACDBPLACEHOLDER
  2
AcDbPlaceHolder
  3
AutoCAD 2000
 90
        0
280
     0
281
     0
  0
CLASS
  1
LAYOUT
  2
AcDbLayout
  3
AutoCAD 2000
 90
        0
280
     0
281
     0
  0
CLASS
  1
AMGSETTINGSOBJ
  2
AmgSettingsObj
  3
"AcadM|Product Description: AutoCAD Mechanical 2000|Company: Autodesk"
 90
        0
280
     0
281
     0
  0
CLASS
  1
ACME_DOCUMENT
  2
AcMeDbDoc
  3
AcMeServices
 90
        0
280
     0
281
     0
  0
CLASS
  1
ACMESCOPE
  2
AcMeScope
  3
AcMeServices
 90
        0
280
     0
281
     0
  0
CLASS
  1
ACMECOMMANDHISTORY
  2
AcMeCommandHistory
  3
AcMeServices
 90
        0
280
     0
281
     0
  0
CLASS
  1
DICTIONARYVAR
  2
AcDbDictionaryVar
  3
AutoCAD 2000
 90
        0
280
     0
281
     0
  0
CLASS
  1
ACIMSYSVARMAN
  2
AcImSysVarManager
  3
AcMeServices
 90
        0
280
     0
281
     0
  0
CLASS
  1
ACIMREALSYSVAR
  2
AcImRealSysVar
  3
AcMeServices
 90
        0
280
     0
281
     0
  0
CLASS
  1
ACIMINTSYSVAR
  2
AcImIntSysVar
  3
AcMeServices
 90
        0
280
     0
281
     0
  0
CLASS
  1
ACMEDRAWINGMAN
  2
AcMeDrawingMan
  3
AcMeServices
 90
        0
280
     0
281
     0
  0
CLASS
  1
ACMEVIEW
  2
AcMeView
  3
AcMeServices
 90
        0
280
     0
281
     0
  0
CLASS
  1
ACDBENTITYCACHE
  2
AcMeEntityCache
  3
AcMeServices
 90
        0
280
     0
281
     0
  0
CLASS
  1
GSMANAGER
  2
AcMeGSManager
  3
AcMeServices
 90
        0
280
     0
281
     0
  0
CLASS
  1
AmdtInternalReactor
  2
AmdtInternalReactor
  3
AcMeServices
 90
        0
280
     0
281
     0
  0
CLASS
  1
ACMESTATEMGR
  2
AcMeStateMgr
  3
AcMeServices
 90
        0
280
     0
281
     0
  0
CLASS
  1
ACME_DATABASE
  2
AcMeDbDatabase
  3
AcMeServices
 90
        0
280
     0
281
     0
  0
CLASS
  1
ACRFINSADJUSTERMGR
  2
AcRfInsAdjusterMgr
  3
AcMeServices
 90
        0
280
     0
281
     0
  0
CLASS
  1
ACMDATADICTIONARY
  2
AcmDataDictionary
  3
"AcmSymBB|Product Description: AutoCAD Mechanical 2000|Company: Autodesk"
 90
        0
280
     0
281
     0
  0
CLASS
  1
ACMDATAENTRYBLOCK
  2
AcmDataEntryBlock
  3
"AcmSymBB|Product Description: AutoCAD Mechanical 2000|Company: Autodesk"
 90
        0
280
     0
281
     0
  0
CLASS
  1
AMGOBJPROPCFG
  2
AmgObjPropCfg
  3
"AmgLay|Product Description: AutoCAD Mechanical 2000|Company: Autodesk"
 90
        1
280
     0
281
     0
  0
CLASS
  1
ACAMGFILTERDAT
  2
AcAmgFilterDat
  3
"AcadM|Product Description: AutoCAD Mechanical 2000|Company: Autodesk"
 90
        0
280
     0
281
     0
  0
CLASS
  1
LAYER_INDEX
  2
AcDbLayerIndex
  3
AutoCAD 2000
 90
        0
280
     0
281
     0
  0
CLASS
  1
IDBUFFER
  2
AcDbIdBuffer
  3
AutoCAD 2000
 90
        0
280
     0
281
     0
  0
CLASS
  1
ACIMSTRSYSVAR
  2
AcImStrSysVar
  3
AcMeServices
 90
        0
280
     0
281
     0
  0
CLASS
  1
ACMSTANDARDJIS
  2
AcmStandardJIS
  3
"AcmSymBB|Product Description: AutoCAD Mechanical 2000|Company: Autodesk"
 90
        0
280
     0
281
     0
  0
CLASS
  1
ACMSURFSTANDARDJIS
  2
AcmSurfTextStdJIS
  3
"AcmSymBB|Product Description: AutoCAD Mechanical 2000|Company: Autodesk"
 90
        0
280
     0
281
     0
  0
CLASS
  1
ACMFCFSTANDARDJIS
  2
AcmFCFStdJIS
  3
"AcmSymBB|Product Description: AutoCAD Mechanical 2000|Company: Autodesk"
 90
        0
280
     0
281
     0
  0
CLASS
  1
ACMWELDSTANDARDJIS
  2
AcmWeldingStdJIS
  3
"AcmSymBB|Product Description: AutoCAD Mechanical 2000|Company: Autodesk"
 90
        0
280
     0
281
     0
  0
CLASS
  1
ACMIDSTANDARDJIS
  2
AcmIdStdJIS
  3
"AcmSymBB|Product Description: AutoCAD Mechanical 2000|Company: Autodesk"
 90
        0
280
     0
281
     0
  0
CLASS
  1
ACMDATUMSTANDARDJIS
  2
AcmDatumStdJIS
  3
"AcmSymBB|Product Description: AutoCAD Mechanical 2000|Company: Autodesk"
 90
        0
280
     0
281
     0
  0
CLASS
  1
ACMBOMSTANDARDJIS
  2
AcmBOMStdJIS
  3
"AcmSymBB|Product Description: AutoCAD Mechanical 2000|Company: Autodesk"
 90
        0
280
     0
281
     0
  0
CLASS
  1
ACMSTANDARDANSI
  2
AcmStandardANSI
  3
"AcmSymBB|Product Description: AutoCAD Mechanical 2000|Company: Autodesk"
 90
        0
280
     0
281
     0
  0
CLASS
  1
ACMSURFSTANDARDANSI
  2
AcmSurfTextStdANSI
  3
"AcmSymBB|Product Description: AutoCAD Mechanical 2000|Company: Autodesk"
 90
        0
280
     0
281
     0
  0
CLASS
  1
ACMFCFSTANDARDANSI
  2
AcmFCFStdANSI
  3
"AcmSymBB|Product Description: AutoCAD Mechanical 2000|Company: Autodesk"
 90
        0
280
     0
281
     0
  0
CLASS
  1
ACMWELDSTANDARDANSI
  2
AcmWeldingStdANSI
  3
"AcmSymBB|Product Description: AutoCAD Mechanical 2000|Company: Autodesk"
 90
        0
280
     0
281
     0
  0
CLASS
  1
ACMIDSTANDARDANSI
  2
AcmIdStdANSI
  3
"AcmSymBB|Product Description: AutoCAD Mechanical 2000|Company: Autodesk"
 90
        0
280
     0
281
     0
  0
CLASS
  1
ACMDATUMSTANDARDANSI
  2
AcmDatumStdANSI
  3
"AcmSymBB|Product Description: AutoCAD Mechanical 2000|Company: Autodesk"
 90
        0
280
     0
281
     0
  0
CLASS
  1
ACMBOMSTANDARDANSI
  2
AcmBOMStdANSI
  3
"AcmSymBB|Product Description: AutoCAD Mechanical 2000|Company: Autodesk"
 90
        0
280
     0
281
     0
  0
CLASS
  1
ACMSTANDARDBSI
  2
AcmStandardBSI
  3
"AcmSymBB|Product Description: AutoCAD Mechanical 2000|Company: Autodesk"
 90
        0
280
     0
281
     0
  0
CLASS
  1
ACMSURFSTANDARDBSI
  2
AcmSurfTextStdBSI
  3
"AcmSymBB|Product Description: AutoCAD Mechanical 2000|Company: Autodesk"
 90
        0
280
     0
281
     0
  0
CLASS
  1
ACMFCFSTANDARDBSI
  2
AcmFCFStdBSI
  3
"AcmSymBB|Product Description: AutoCAD Mechanical 2000|Company: Autodesk"
 90
        0
280
     0
281
     0
  0
CLASS
  1
ACMWELDSTANDARDBSI
  2
AcmWeldingStdBSI
  3
"AcmSymBB|Product Description: AutoCAD Mechanical 2000|Company: Autodesk"
 90
        0
280
     0
281
     0
  0
CLASS
  1
ACMIDSTANDARDBSI
  2
AcmIdStdBSI
  3
"AcmSymBB|Product Description: AutoCAD Mechanical 2000|Company: Autodesk"
 90
        0
280
     0
281
     0
  0
CLASS
  1
ACMDATUMSTANDARDBSI
  2
AcmDatumStdBSI
  3
"AcmSymBB|Product Description: AutoCAD Mechanical 2000|Company: Autodesk"
 90
        0
280
     0
281
     0
  0
CLASS
  1
ACMBOMSTANDARDBSI
  2
AcmBOMStdBSI
  3
"AcmSymBB|Product Description: AutoCAD Mechanical 2000|Company: Autodesk"
 90
        0
280
     0
281
     0
  0
CLASS
  1
LONG_TRANSACTION
  2
AcDbLongTransaction
  3
AutoCAD 2000
 90
        0
280
     0
281
     0
  0
CLASS
  1
LWPOLYLINE
  2
AcDbPolyline
  3
AutoCAD 2000
 90
        0
280
     0
281
     1
  0
CLASS
  1
HATCH
  2
AcDbHatch
  3
AutoCAD 2000
 90
        0
280
     0
281
     1
  0
CLASS
  1
XRECORD
  2
AcDbXrecord
  3
AutoCAD 2000
 90
        0
280
     0
281
     0
  0
ENDSEC
  0
SECTION
  2
TABLES
  0
TABLE
  2
VPORT
  5
8
330
0
100
AcDbSymbolTable
 70
     3
  0
VPORT
  5
3C9D
330
8
100
AcDbSymbolTableRecord
100
AcDbViewportTableRecord
  2
*ACTIVE
 70
     0
 10
0.0
 20
0.0
 11
1.0
 21
1.0
 12
-43.37253254954878
 22
5.12816567345439
 13
0.0
 23
0.0
 14
2.5
 24
2.5
 15
10.0
 25
10.0
 16
0.0
 26
0.0
 36
1.0
 17
0.0
 27
0.0
 37
0.0
 40
162.4190803870904
 41
1.56570841889117
 42
50.0
 43
0.0
 44
0.0
 50
0.0
 51
0.0
 71
     0
 72
   100
 73
     1
 74
     3
 75
     0
 76
     0
 77
     0
 78
     0
  0
ENDTAB
  0
TABLE
  2
LTYPE
  5
5
330
0
100
AcDbSymbolTable
 70
    10
  0
LTYPE
  5
14
330
5
100
AcDbSymbolTableRecord
100
AcDbLinetypeTableRecord
  2
BYBLOCK
 70
     0
  3

 72
    65
 73
     0
 40
0.0
  0
LTYPE
  5
15
330
5
100
AcDbSymbolTableRecord
100
AcDbLinetypeTableRecord
  2
BYLAYER
 70
     0
  3

 72
    65
 73
     0
 40
0.0
  0
LTYPE
  5
16
330
5
100
AcDbSymbolTableRecord
100
AcDbLinetypeTableRecord
  2
CONTINUOUS
 70
     0
  3
Solid line
 72
    65
 73
     0
 40
0.0
  0
LTYPE
  5
4B
330
5
100
AcDbSymbolTableRecord
100
AcDbLinetypeTableRecord
  2
AM_ISO02W050
 70
     0
  3
__ __ __ __ __ __ __ __ __ __ __ __ __ __ __
 72
    65
 73
     2
 40
7.5
 49
6.0
 74
     0
 49
-1.5
 74
     0
  0
LTYPE
  5
4C
330
5
100
AcDbSymbolTableRecord
100
AcDbLinetypeTableRecord
  2
AM_ISO08W050
 70
     0
  3
____ . ____ . ____ . ____ . ____ . ____ . ____
 72
    65
 73
     4
 40
18.0
 49
12.0
 74
     0
 49
-1.5
 74
     0
 49
3.0
 74
     0
 49
-1.5
 74
     0
  0
LTYPE
  5
4D
330
5
100
AcDbSymbolTableRecord
100
AcDbLinetypeTableRecord
  2
AM_ISO09W050
 70
     0
  3
_____ . . _____ . . _____ . . ____ .. ____
 72
    65
 73
     6
 40
22.5
 49
12.0
 74
     0
 49
-1.5
 74
     0
 49
3.0
 74
     0
 49
-1.5
 74
     0
 49
3.0
 74
     0
 49
-1.5
 74
     0
  0
LTYPE
  5
4E
330
5
100
AcDbSymbolTableRecord
100
AcDbLinetypeTableRecord
  2
AMCONSTR
 70
     0
  3
_______________________
 72
    65
 73
     2
 40
9999.0
 49
9999.0
 74
     0
 49
0.0
 74
     0
  0
LTYPE
  5
4F
330
5
100
AcDbSymbolTableRecord
100
AcDbLinetypeTableRecord
  2
AM_ISO02W050X2
 70
     0
  3
 _ _ _ _ _ _ _ _ _ _ _ _
 72
    65
 73
     2
 40
3.75
 49
3.0
 74
     0
 49
-0.75
 74
     0
  0
LTYPE
  5
50
330
5
100
AcDbSymbolTableRecord
100
AcDbLinetypeTableRecord
  2
AM_ISO08W050X2
 70
     0
  3
__ . __ . __ . __ . __ . __
 72
    65
 73
     4
 40
9.0
 49
6.0
 74
     0
 49
-0.75
 74
     0
 49
1.5
 74
     0
 49
-0.75
 74
     0
  0
LTYPE
  5
53
330
5
100
AcDbSymbolTableRecord
100
AcDbLinetypeTableRecord
  2
AMZIGZAG
 70
     0
  3
/\/-/\/-/\/-/\/-/\/-/\/
 72
    65
 73
     2
 40
11.00009999999999
 49
0.0001
 74
     4
 75
   135
340
52
 46
0.04
 50
0.0
 44
0.0
 45
0.0
 49
-11.0
 74
     0
  0
LTYPE
  5
166
330
5
100
AcDbSymbolTableRecord
100
AcDbLinetypeTableRecord
  2
ACJISTGL
 70
     0
  3
_ _ _ _ _
 72
    65
 73
     2
 40
3.0
 49
2.0
 74
     0
 49
-1.0
 74
     0
  0
LTYPE
  5
26A
330
5
100
AcDbSymbolTableRecord
100
AcDbLinetypeTableRecord
  2
ACJISTGB
 70
     0
  3
__ . . __ . .
 72
    65
 73
     6
 40
9.0
 49
4.0
 74
     0
 49
-1.0
 74
     0
 49
1.0
 74
     0
 49
-1.0
 74
     0
 49
1.0
 74
     0
 49
-1.0
 74
     0
  0
ENDTAB
  0
TABLE
  2
LAYER
  5
2
330
0
100
AcDbSymbolTable
 70
     7
  0
LAYER
  5
10
330
2
100
AcDbSymbolTableRecord
100
AcDbLayerTableRecord
  2
0
 70
     0
 62
     7
  6
CONTINUOUS
  0
LAYER
  5
3F9
330
2
100
AcDbSymbolTableRecord
100
AcDbLayerTableRecord
  2
AM_0
 70
     0
 62
     7
  6
CONTINUOUS
  0
LAYER
  5
BD6
330
2
100
AcDbSymbolTableRecord
100
AcDbLayerTableRecord
  2
AM_11
 70
     0
 62
     3
  6
AM_ISO09W050
  0
LAYER
  5
BD7
330
2
100
AcDbSymbolTableRecord
100
AcDbLayerTableRecord
  2
AM_7
 70
     0
 62
     4
  6
AM_ISO08W050
  0
LAYER
  5
BD8
330
2
100
AcDbSymbolTableRecord
100
AcDbLayerTableRecord
  2
AM_5
 70
     0
 62
     3
  6
CONTINUOUS
  0
LAYER
  5
BD9
330
2
100
AcDbSymbolTableRecord
100
AcDbLayerTableRecord
  2
DEFPOINTS
 70
     0
 62
     7
  6
CONTINUOUS
  0
LAYER
  5
BDA
330
2
100
AcDbSymbolTableRecord
100
AcDbLayerTableRecord
  2
AM_6
 70
     0
 62
     2
  6
CONTINUOUS
  0
ENDTAB
  0
TABLE
  2
STYLE
  5
3
330
0
100
AcDbSymbolTable
 70
     5
  0
STYLE
  5
11
330
3
100
AcDbSymbolTableRecord
100
AcDbTextStyleTableRecord
  2
STANDARD
 70
     0
 40
0.0
 41
1.0
 50
0.0
 71
     0
 42
2.5
  3
simplex.shx
  4
EXTFONT.SHX
  0
STYLE
  5
52
330
3
100
AcDbSymbolTableRecord
100
AcDbTextStyleTableRecord
  2

 70
     1
 40
0.0
 41
1.0
 50
0.0
 71
     0
 42
2.5
  3
ltypeshp.shx
  4

  0
STYLE
  5
6B
330
3
100
AcDbSymbolTableRecord
100
AcDbTextStyleTableRecord
  2
ASAMI
 70
     0
 40
0.0
 41
1.0
 50
0.0
 71
     0
 42
2.5
  3
simplex.shx
  4
EXTFONT.SHX
  0
STYLE
  5
262
330
3
100
AcDbSymbolTableRecord
100
AcDbTextStyleTableRecord
  2
ACJISTS
 70
     0
 40
1.0
 41
1.0
 50
0.0
 71
     0
 42
2.5
  3
simplex.shx
  4
bigfont.shx
  0
STYLE
  5
269
330
3
100
AcDbSymbolTableRecord
100
AcDbTextStyleTableRecord
  2
ACJISGDT
 70
     0
 40
0.0
 41
1.0
 50
0.0
 71
     0
 42
2.5
  3
amgdtans.shx
  4

  0
ENDTAB
  0
TABLE
  2
VIEW
  5
6
330
0
100
AcDbSymbolTable
 70
     0
  0
ENDTAB
  0
TABLE
  2
UCS
  5
7
330
0
100
AcDbSymbolTable
 70
     0
  0
ENDTAB
  0
TABLE
  2
APPID
  5
9
330
0
100
AcDbSymbolTable
 70
    13
  0
APPID
  5
12
330
9
100
AcDbSymbolTableRecord
100
AcDbRegAppTableRecord
  2
ACAD
 70
     0
  0
APPID
  5
30
330
9
100
AcDbSymbolTableRecord
100
AcDbRegAppTableRecord
  2
MCAD_NO_VIS
 70
     0
  0
APPID
  5
31
330
9
100
AcDbSymbolTableRecord
100
AcDbRegAppTableRecord
  2
ACAD_TEMP_GRAPHIC
 70
     0
  0
APPID
  5
2C2
330
9
100
AcDbSymbolTableRecord
100
AcDbRegAppTableRecord
  2
GENIUS_GENDTOL_13
 70
     0
  0
APPID
  5
339
330
9
100
AcDbSymbolTableRecord
100
AcDbRegAppTableRecord
  2
GENIUS_GENODEF_13
 70
     0
  0
APPID
  5
33A
330
9
100
AcDbSymbolTableRecord
100
AcDbRegAppTableRecord
  2
GENIUS_GENOBJ-N-RSBK_13
 70
     0
  0
APPID
  5
33B
330
9
100
AcDbSymbolTableRecord
100
AcDbRegAppTableRecord
  2
GENIUS_GENOBJ-N-LIB_13
 70
     0
  0
APPID
  5
33C
330
9
100
AcDbSymbolTableRecord
100
AcDbRegAppTableRecord
  2
GENIUS_GENSCALE_13
 70
     0
  0
APPID
  5
378
330
9
100
AcDbSymbolTableRecord
100
AcDbRegAppTableRecord
  2
GENIUS_GENDIMSH_14
 70
     0
  0
APPID
  5
BDB
330
9
100
AcDbSymbolTableRecord
100
AcDbRegAppTableRecord
  2
GENIUS_GENOBJ-N-CEN_13
 70
     0
  0
APPID
  5
BDC
330
9
100
AcDbSymbolTableRecord
100
AcDbRegAppTableRecord
  2
GENIUS_GENFIL_13
 70
     0
  0
APPID
  5
BDD
330
9
100
AcDbSymbolTableRecord
100
AcDbRegAppTableRecord
  2
GENIUS_GENOBJ-N-FIL_13
 70
     0
  0
APPID
  5
12AD
330
9
100
AcDbSymbolTableRecord
100
AcDbRegAppTableRecord
  2
GENIUS_GENOREF_13
 70
     0
  0
ENDTAB
  0
TABLE
  2
DIMSTYLE
  5
A
330
0
100
AcDbSymbolTable
 70
     8
  0
DIMSTYLE
105
58
102
{ACAD_REACTORS
330
28FE
330
2A35
330
2C21
330
2F7C
330
3865
330
38F2
102
}
330
A
100
AcDbSymbolTableRecord
100
AcDbDimStyleTableRecord
  2
AM_JIS
 70
     0
  3

  4
"
  5
OPEN30
  6

  7

 40
1.0
 41
2.5
 42
1.0
 43
12.0
 44
1.0
 45
0.0
 46
0.0
 47
0.1
 48
0.1
140
3.2
141
0.0
142
0.0
143
0.0393701
144
1.0
145
0.0
146
0.71
147
1.5
 71
     0
 72
     0
 73
     0
 74
     0
 75
     0
 76
     0
 77
     3
 78
     8
170
     0
171
     2
172
     1
173
     0
174
     0
175
     0
176
     3
177
     3
178
     2
270
     2
271
     3
272
     3
273
     2
274
     2
340
6B
275
     0
280
     0
281
     0
282
     0
283
     0
284
     0
285
     0
286
     0
287
     3
288
     0
  0
DIMSTYLE
105
5F
330
A
100
AcDbSymbolTableRecord
100
AcDbDimStyleTableRecord
  2
AM_JIS$3
 70
     0
  3

  4
"
  5
OPEN30
  6

  7

 40
1.0
 41
2.5
 42
1.0
 43
10.0
 44
1.0
 45
0.0
 46
0.0
 47
0.1
 48
0.1
140
3.2
141
0.0
142
0.0
143
0.0393701
144
1.0
145
0.0
146
0.71
147
1.5
 71
     0
 72
     0
 73
     0
 74
     1
 75
     0
 76
     0
 77
     3
 78
     8
170
     0
171
     2
172
     0
173
     0
174
     0
175
     0
176
     3
177
     3
178
     2
270
     2
271
     2
272
     3
273
     2
274
     2
340
6B
275
     0
280
     0
281
     0
282
     0
283
     0
284
     0
285
     0
286
     0
287
     0
288
     1
  0
DIMSTYLE
105
60
330
A
100
AcDbSymbolTableRecord
100
AcDbDimStyleTableRecord
  2
AM_JIS$4
 70
     0
  3

  4
"
  5
OPEN30
  6

  7

 40
1.0
 41
2.5
 42
1.0
 43
10.0
 44
1.0
 45
0.0
 46
0.0
 47
0.1
 48
0.1
140
3.2
141
0.0
142
0.0
143
0.0393701
144
1.0
145
0.0
146
0.71
147
1.5
 71
     0
 72
     0
 73
     0
 74
     1
 75
     0
 76
     0
 77
     3
 78
     8
170
     0
171
     2
172
     0
173
     0
174
     0
175
     0
176
     3
177
     3
178
     2
270
     2
271
     2
272
     3
273
     2
274
     2
340
6B
275
     0
280
     0
281
     0
282
     0
283
     0
284
     0
285
     0
286
     0
287
     0
288
     1
  0
DIMSTYLE
105
61
330
A
100
AcDbSymbolTableRecord
100
AcDbDimStyleTableRecord
  2
AM_JIS$6
 70
     0
  3

  4
"
  5
OPEN30
  6

  7

 40
1.0
 41
2.5
 42
1.0
 43
10.0
 44
1.0
 45
0.0
 46
0.0
 47
0.1
 48
0.1
140
3.2
141
0.0
142
0.0
143
0.0393701
144
1.0
145
0.0
146
0.71
147
1.5
 71
     0
 72
     0
 73
     0
 74
     0
 75
     0
 76
     0
 77
     0
 78
     8
170
     0
171
     2
172
     1
173
     0
174
     0
175
     0
176
     3
177
     3
178
     2
270
     2
271
     2
272
     2
273
     2
274
     2
340
6B
275
     0
280
     0
281
     0
282
     0
283
     0
284
     0
285
     0
286
     0
287
     3
288
     0
  0
DIMSTYLE
105
62
330
A
100
AcDbSymbolTableRecord
100
AcDbDimStyleTableRecord
  2
AM_JIS$7
 70
     0
  3

  4
"
  5
OPEN30
  6

  7

 40
1.0
 41
2.5
 42
1.0
 43
10.0
 44
1.0
 45
0.0
 46
0.0
 47
0.1
 48
0.1
140
3.2
141
0.0
142
0.0
143
0.0393701
144
1.0
145
0.0
146
0.71
147
1.5
 71
     0
 72
     0
 73
     0
 74
     0
 75
     0
 76
     0
 77
     3
 78
     8
170
     0
171
     2
172
     1
173
     0
174
     0
175
     0
176
     3
177
     3
178
     2
270
     2
271
     2
272
     3
273
     2
274
     2
340
6B
275
     0
280
     0
281
     0
282
     0
283
     0
284
     0
285
     0
286
     0
287
     3
288
     0
  0
DIMSTYLE
105
63
330
A
100
AcDbSymbolTableRecord
100
AcDbDimStyleTableRecord
  2
AM_JIS$SF
 70
     0
  3

  4
"
  5
OPEN30
  6

  7

 40
1.0
 41
2.5
 42
1.0
 43
10.0
 44
1.0
 45
0.0
 46
0.0
 47
0.1
 48
0.1
140
3.2
141
0.0
142
0.0
143
0.0393701
144
1.0
145
0.0
146
0.71
147
1.5
 71
     0
 72
     0
 73
     0
 74
     0
 75
     1
 76
     1
 77
     3
 78
     8
170
     0
171
     2
172
     1
173
     0
174
     0
175
     0
176
   256
177
   256
178
     2
270
     2
271
     2
272
     2
273
     2
274
     2
340
6B
275
     0
280
     0
281
     0
282
     0
283
     0
284
     0
285
     0
286
     0
287
     3
288
     0
  0
DIMSTYLE
105
68
330
A
100
AcDbSymbolTableRecord
100
AcDbDimStyleTableRecord
  2
AM_JIS$SH
 70
     0
  3

  4
"
  5

  6
GENAXEH
  7
OPEN30
 40
1.0
 41
2.5
 42
1.0
 43
10.0
 44
1.0
 45
0.0
 46
0.0
 47
0.1
 48
0.1
140
3.2
141
0.0
142
0.0
143
0.0393701
144
2.0
145
0.0
146
0.71
147
1.5
 71
     0
 72
     0
 73
     0
 74
     0
 75
     1
 76
     1
 77
     3
 78
     8
170
     0
171
     2
172
     1
173
     1
174
     0
175
     0
176
   256
177
   256
178
     2
270
     2
271
     2
272
     2
273
     2
274
     2
340
6B
275
     0
280
     0
281
     0
282
     0
283
     0
284
     0
285
     0
286
     0
287
     3
288
     0
  0
DIMSTYLE
105
B34
102
{ACAD_REACTORS
330
2CBB
330
39FB
330
3A70
102
}
330
A
100
AcDbSymbolTableRecord
100
AcDbDimStyleTableRecord
  2
AM_JIS$2
 70
     0
  3

  4
"
  5
OPEN30
  6

  7

 40
1.0
 41
2.5
 42
1.0
 43
12.0
 44
1.0
 45
0.0
 46
0.0
 47
0.1
 48
0.1
140
3.2
141
0.0
142
0.0
143
0.0393701
144
1.0
145
0.0
146
0.71
147
1.5
 71
     0
 72
     0
 73
     0
 74
     0
 75
     0
 76
     0
 77
     3
 78
     8
170
     0
171
     2
172
     1
173
     0
174
     0
175
     0
176
     3
177
     3
178
     2
270
     2
271
     3
272
     3
273
     2
274
     2
340
6B
275
     0
280
     0
281
     0
282
     0
283
     0
284
     0
285
     0
286
     0
287
     3
288
     0
  0
ENDTAB
  0
TABLE
  2
BLOCK_RECORD
  5
1
330
0
100
AcDbSymbolTable
 70
    14
  0
BLOCK_RECORD
  5
1F
102
{ACAD_XDICTIONARY
360
74
102
}
330
1
100
AcDbSymbolTableRecord
100
AcDbBlockTableRecord
  2
*MODEL_SPACE
  0
BLOCK_RECORD
  5
101
102
{ACAD_XDICTIONARY
360
3CC6
102
}
330
1
100
AcDbSymbolTableRecord
100
AcDbBlockTableRecord
  2
*PAPER_SPACE
  0
BLOCK_RECORD
  5
59
330
1
100
AcDbSymbolTableRecord
100
AcDbBlockTableRecord
  2
_OPEN30
  0
BLOCK_RECORD
  5
64
330
1
100
AcDbSymbolTableRecord
100
AcDbBlockTableRecord
  2
GENAXEH
  0
BLOCK_RECORD
  5
28FF
330
1
100
AcDbSymbolTableRecord
100
AcDbBlockTableRecord
  2
*D5
  0
BLOCK_RECORD
  5
2A36
330
1
100
AcDbSymbolTableRecord
100
AcDbBlockTableRecord
  2
*D6
  0
BLOCK_RECORD
  5
2C22
330
1
100
AcDbSymbolTableRecord
100
AcDbBlockTableRecord
  2
*D7
  0
BLOCK_RECORD
  5
2CBC
330
1
100
AcDbSymbolTableRecord
100
AcDbBlockTableRecord
  2
*D8
  0
BLOCK_RECORD
  5
2F7D
330
1
100
AcDbSymbolTableRecord
100
AcDbBlockTableRecord
  2
*D9
  0
BLOCK_RECORD
  5
3866
330
1
100
AcDbSymbolTableRecord
100
AcDbBlockTableRecord
  2
*D10
  0
BLOCK_RECORD
  5
38F3
330
1
100
AcDbSymbolTableRecord
100
AcDbBlockTableRecord
  2
*D11
  0
BLOCK_RECORD
  5
3A0C
330
1
100
AcDbSymbolTableRecord
100
AcDbBlockTableRecord
  2
*D12
  0
BLOCK_RECORD
  5
3A71
330
1
100
AcDbSymbolTableRecord
100
AcDbBlockTableRecord
  2
*D13
  0
ENDTAB
  0
ENDSEC
  0
SECTION
  2
BLOCKS
  0
BLOCK
  5
20
330
1F
100
AcDbEntity
  8
0
100
AcDbBlockBegin
  2
*MODEL_SPACE
 70
     0
 10
0.0
 20
0.0
 30
0.0
  3
*MODEL_SPACE
  1

  0
ENDBLK
  5
21
330
1F
100
AcDbEntity
  8
0
100
AcDbBlockEnd
  0
BLOCK
  5
103
330
101
100
AcDbEntity
 67
     1
  8
0
100
AcDbBlockBegin
  2
*PAPER_SPACE
 70
     0
 10
0.0
 20
0.0
 30
0.0
  3
*PAPER_SPACE
  1

  0
ENDBLK
  5
104
330
101
100
AcDbEntity
 67
     1
  8
0
100
AcDbBlockEnd
  0
BLOCK
  5
5D
330
59
100
AcDbEntity
  8
0
100
AcDbBlockBegin
  2
_OPEN30
 70
     0
 10
0.0
 20
0.0
 30
0.0
  3
_OPEN30
  1

  0
LINE
  5
5A
330
59
100
AcDbEntity
  8
0
 62
     0
100
AcDbLine
 10
-1.0
 20
0.26794919
 30
0.0
 11
0.0
 21
0.0
 31
0.0
  0
LINE
  5
5B
330
59
100
AcDbEntity
  8
0
 62
     0
100
AcDbLine
 10
0.0
 20
0.0
 30
0.0
 11
-1.0
 21
-0.26794919
 31
0.0
  0
LINE
  5
5C
330
59
100
AcDbEntity
  8
0
 62
     0
100
AcDbLine
 10
0.0
 20
0.0
 30
0.0
 11
-1.0
 21
0.0
 31
0.0
  0
ENDBLK
  5
5E
330
59
100
AcDbEntity
  8
0
100
AcDbBlockEnd
  0
BLOCK
  5
66
330
64
100
AcDbEntity
  8
0
100
AcDbBlockBegin
  2
GENAXEH
 70
     0
 10
0.0
 20
0.0
 30
0.0
  3
GENAXEH
  1

  0
LINE
  5
65
330
64
100
AcDbEntity
  8
0
100
AcDbLine
 10
-1.0
 20
0.0
 30
0.0
 11
1.0
 21
0.0
 31
0.0
  0
ENDBLK
  5
67
330
64
100
AcDbEntity
  8
0
100
AcDbBlockEnd
  0
BLOCK
  5
2909
330
28FF
100
AcDbEntity
  8
0
100
AcDbBlockBegin
  2
*D5
 70
     1
 10
0.0
 20
0.0
 30
0.0
  3
*D5
  1

  0
LINE
  5
3B85
330
28FF
100
AcDbEntity
  8
AM_5
 62
     3
100
AcDbLine
 10
-151.0
 20
58.31308121984107
 30
0.0
 11
-165.0
 21
58.31308121984107
 31
0.0
  0
LINE
  5
3B86
330
28FF
100
AcDbEntity
  8
AM_5
 62
     3
100
AcDbLine
 10
-151.0
 20
33.31308121984106
 30
0.0
 11
-165.0
 21
33.31308121984106
 31
0.0
  0
LINE
  5
3B87
330
28FF
100
AcDbEntity
  8
AM_5
 62
     3
100
AcDbLine
 10
-164.0
 20
55.81308121984107
 30
0.0
 11
-164.0
 21
35.81308121984106
 31
0.0
  0
INSERT
  5
3B88
330
28FF
100
AcDbEntity
  8
AM_5
 62
     3
100
AcDbBlockReference
  2
_OPEN30
 10
-164.0
 20
58.31308121984107
 30
0.0
 41
2.5
 42
2.5
 43
2.5
 50
90.0
  0
INSERT
  5
3B89
330
28FF
100
AcDbEntity
  8
AM_5
 62
     3
100
AcDbBlockReference
  2
_OPEN30
 10
-164.0
 20
33.31308121984106
 30
0.0
 41
2.5
 42
2.5
 43
2.5
 50
270.0
  0
MTEXT
  5
3B8A
330
28FF
100
AcDbEntity
  8
AM_5
 62
     2
100
AcDbMText
 10
-167.1
 20
45.81308121984103
 30
0.0
 40
3.2
 41
0.0
 71
     5
 72
     1
  1
25
  7
ASAMI
 11
0.0000000000000001
 21
1.0
 31
0.0
1001
ACAD
1000
MTEXTBEGIN
1070
    73
1070
     1
1070
    44
1040
1.0
1070
    74
1070
     0
1000
MTEXTEND
  0
POINT
  5
3B8B
330
28FF
100
AcDbEntity
  8
DEFPOINTS
 62
     0
100
AcDbPoint
 10
-150.0
 20
58.31308121984107
 30
0.0
  0
POINT
  5
3B8C
330
28FF
100
AcDbEntity
  8
DEFPOINTS
 62
     0
100
AcDbPoint
 10
-150.0
 20
33.31308121984106
 30
0.0
  0
POINT
  5
3B8D
330
28FF
100
AcDbEntity
  8
DEFPOINTS
 62
     0
100
AcDbPoint
 10
-164.0
 20
33.31308121984106
 30
0.0
  0
ENDBLK
  5
290A
330
28FF
100
AcDbEntity
  8
0
100
AcDbBlockEnd
  0
BLOCK
  5
2A40
330
2A36
100
AcDbEntity
  8
0
100
AcDbBlockBegin
  2
*D6
 70
     1
 10
0.0
 20
0.0
 30
0.0
  3
*D6
  1

  0
LINE
  5
3BBE
330
2A36
100
AcDbEntity
  8
AM_5
 62
     3
100
AcDbLine
 10
-0.7121277557131135
 20
58.31308121984107
 30
0.0
 11
25.01220083839296
 21
58.31308121984106
 31
0.0
  0
LINE
  5
3BBF
330
2A36
100
AcDbEntity
  8
AM_5
 62
     3
100
AcDbLine
 10
0.9999999999999987
 20
33.81308121984107
 30
0.0
 11
25.01220083839295
 21
33.81308121984106
 31
0.0
  0
LINE
  5
3BC0
330
2A36
100
AcDbEntity
  8
AM_5
 62
     3
100
AcDbLine
 10
24.01220083839295
 20
55.81308121984106
 30
0.0
 11
24.01220083839295
 21
36.31308121984106
 31
0.0
  0
INSERT
  5
3BC1
330
2A36
100
AcDbEntity
  8
AM_5
 62
     3
100
AcDbBlockReference
  2
_OPEN30
 10
24.01220083839296
 20
58.31308121984106
 30
0.0
 41
2.5
 42
2.5
 43
2.5
 50
90.0
  0
INSERT
  5
3BC2
330
2A36
100
AcDbEntity
  8
AM_5
 62
     3
100
AcDbBlockReference
  2
_OPEN30
 10
24.01220083839295
 20
33.81308121984106
 30
0.0
 41
2.5
 42
2.5
 43
2.5
 50
270.0
  0
MTEXT
  5
3BC3
330
2A36
100
AcDbEntity
  8
AM_5
 62
     2
100
AcDbMText
 10
20.91220083839294
 20
46.06308121984106
 30
0.0
 40
3.2
 41
0.0
 71
     5
 72
     1
  1
24.5
  7
ASAMI
 11
0.0000000000000001
 21
1.0
 31
0.0
1001
ACAD
1000
MTEXTBEGIN
1070
    73
1070
     1
1070
    44
1040
1.0
1070
    74
1070
     0
1000
MTEXTEND
  0
POINT
  5
3BC4
330
2A36
100
AcDbEntity
  8
DEFPOINTS
 62
     0
100
AcDbPoint
 10
-1.712127755713113
 20
58.31308121984107
 30
0.0
  0
POINT
  5
3BC5
330
2A36
100
AcDbEntity
  8
DEFPOINTS
 62
     0
100
AcDbPoint
 10
-0.0000000000000013
 20
33.81308121984107
 30
0.0
  0
POINT
  5
3BC6
330
2A36
100
AcDbEntity
  8
DEFPOINTS
 62
     0
100
AcDbPoint
 10
24.01220083839295
 20
33.81308121984106
 30
0.0
  0
ENDBLK
  5
2A41
330
2A36
100
AcDbEntity
  8
0
100
AcDbBlockEnd
  0
BLOCK
  5
2C2C
330
2C22
100
AcDbEntity
  8
0
100
AcDbBlockBegin
  2
*D7
 70
     1
 10
0.0
 20
0.0
 30
0.0
  3
*D7
  1

  0
LINE
  5
3B7C
330
2C22
100
AcDbEntity
  8
AM_5
 62
     3
100
AcDbLine
 10
-151.0
 20
-6.999999999999985
 30
0.0
 11
-165.0
 21
-6.999999999999982
 31
0.0
  0
LINE
  5
3B7D
330
2C22
100
AcDbEntity
  8
AM_5
 62
     3
100
AcDbLine
 10
-151.0
 20
-31.99999999999999
 30
0.0
 11
-165.0
 21
-31.99999999999998
 31
0.0
  0
LINE
  5
3B7E
330
2C22
100
AcDbEntity
  8
AM_5
 62
     3
100
AcDbLine
 10
-164.0
 20
-9.49999999999998
 30
0.0
 11
-164.0
 21
-29.49999999999998
 31
0.0
  0
INSERT
  5
3B7F
330
2C22
100
AcDbEntity
  8
AM_5
 62
     3
100
AcDbBlockReference
  2
_OPEN30
 10
-164.0
 20
-6.999999999999982
 30
0.0
 41
2.5
 42
2.5
 43
2.5
 50
90.0
  0
INSERT
  5
3B80
330
2C22
100
AcDbEntity
  8
AM_5
 62
     3
100
AcDbBlockReference
  2
_OPEN30
 10
-164.0
 20
-31.99999999999998
 30
0.0
 41
2.5
 42
2.5
 43
2.5
 50
270.0
  0
MTEXT
  5
3B81
330
2C22
100
AcDbEntity
  8
AM_5
 62
     2
100
AcDbMText
 10
-167.1
 20
-19.50000000000001
 30
0.0
 40
3.2
 41
0.0
 71
     5
 72
     1
  1
25
  7
ASAMI
 11
0.0000000000000001
 21
1.0
 31
0.0
1001
ACAD
1000
MTEXTBEGIN
1070
    73
1070
     1
1070
    44
1040
1.0
1070
    74
1070
     0
1000
MTEXTEND
  0
POINT
  5
3B82
330
2C22
100
AcDbEntity
  8
DEFPOINTS
 62
     0
100
AcDbPoint
 10
-150.0
 20
-6.999999999999985
 30
0.0
  0
POINT
  5
3B83
330
2C22
100
AcDbEntity
  8
DEFPOINTS
 62
     0
100
AcDbPoint
 10
-150.0
 20
-31.99999999999999
 30
0.0
  0
POINT
  5
3B84
330
2C22
100
AcDbEntity
  8
DEFPOINTS
 62
     0
100
AcDbPoint
 10
-164.0
 20
-31.99999999999998
 30
0.0
  0
ENDBLK
  5
2C2D
330
2C22
100
AcDbEntity
  8
0
100
AcDbBlockEnd
  0
BLOCK
  5
2CCB
330
2CBC
100
AcDbEntity
  8
0
100
AcDbBlockBegin
  2
*D8
 70
     1
 10
0.0
 20
0.0
 30
0.0
  3
*D8
  1

  0
LINE
  5
3BC7
330
2CBC
100
AcDbEntity
  8
AM_5
 62
     3
100
AcDbLine
 10
0.9999999999999962
 20
0.0000000000000085
 30
0.0
 11
14.99999999999999
 21
0.0000000000000053
 31
0.0
  0
ARC
  5
3BC8
330
2CBC
100
AcDbEntity
  8
AM_5
 62
     3
100
AcDbCircle
 10
-0.0000000000000038
 20
0.0000000000000088
 30
0.0
 40
13.99999999999999
100
AcDbArc
 50
280.2450321995618
 51
349.7549678004381
  0
INSERT
  5
3BC9
330
2CBC
100
AcDbEntity
  8
AM_5
 62
     3
100
AcDbBlockReference
  2
_OPEN30
 10
0.0000000000000053
 20
-13.99999999999998
 30
0.0
 41
2.5
 42
2.5
 43
2.5
 50
185.122516099781
  0
INSERT
  5
3BCA
330
2CBC
100
AcDbEntity
  8
AM_5
 62
     3
100
AcDbBlockReference
  2
_OPEN30
 10
13.99999999999999
 20
0.0000000000000053
 30
0.0
 41
2.5
 42
2.5
 43
2.5
 50
84.87748390021911
  0
MTEXT
  5
3BCB
330
2CBC
100
AcDbEntity
  8
AM_5
 62
     2
100
AcDbMText
 10
7.707463914933364
 20
-7.707463914933349
 30
0.0
 40
3.2
 41
0.0
 71
     5
 72
     1
  1
90°
  7
ASAMI
 11
0.707106781186547
 21
0.7071067811865481
 31
0.0
1001
ACAD
1000
MTEXTBEGIN
1070
    73
1070
     1
1070
    44
1040
1.0
1070
    74
1070
     0
1000
MTEXTEND
  0
POINT
  5
3BCC
330
2CBC
100
AcDbEntity
  8
DEFPOINTS
 62
     0
100
AcDbPoint
 10
6.999999999999995
 20
-12.12435565298212
 30
0.0
  0
POINT
  5
3BCD
330
2CBC
100
AcDbEntity
  8
DEFPOINTS
 62
     0
100
AcDbPoint
 10
0.0000000000000124
 20
-15.11214329603841
 30
0.0
  0
POINT
  5
3BCE
330
2CBC
100
AcDbEntity
  8
DEFPOINTS
 62
     0
100
AcDbPoint
 10
-0.0000000000000155
 20
0.0000000000000071
 30
0.0
  0
POINT
  5
3BCF
330
2CBC
100
AcDbEntity
  8
DEFPOINTS
 62
     0
100
AcDbPoint
 10
-9.045977174069246
 20
0.0000000000000071
 30
0.0
  0
POINT
  5
3BD0
330
2CBC
100
AcDbEntity
  8
DEFPOINTS
 62
     0
100
AcDbPoint
 10
-0.0000000000000013
 20
-1.385640646055087
 30
0.0
  0
ENDBLK
  5
2CCC
330
2CBC
100
AcDbEntity
  8
0
100
AcDbBlockEnd
  0
BLOCK
  5
2F87
330
2F7D
100
AcDbEntity
  8
0
100
AcDbBlockBegin
  2
*D9
 70
     1
 10
0.0
 20
0.0
 30
0.0
  3
*D9
  1

  0
LINE
  5
3BA6
330
2F7D
100
AcDbEntity
  8
AM_5
 62
     3
100
AcDbLine
 10
41.24060158986009
 20
1.000000000000007
 30
0.0
 11
41.24060158986009
 21
23.31191093732738
 31
0.0
  0
LINE
  5
3BA7
330
2F7D
100
AcDbEntity
  8
AM_5
 62
     3
100
AcDbLine
 10
65.74060158986009
 20
-1.179020343823594
 30
0.0
 11
65.74060158986009
 21
23.31191093732738
 31
0.0
  0
LINE
  5
3BA8
330
2F7D
100
AcDbEntity
  8
AM_5
 62
     3
100
AcDbLine
 10
43.74060158986009
 20
22.31191093732739
 30
0.0
 11
63.24060158986009
 21
22.31191093732739
 31
0.0
  0
INSERT
  5
3BA9
330
2F7D
100
AcDbEntity
  8
AM_5
 62
     3
100
AcDbBlockReference
  2
_OPEN30
 10
41.24060158986009
 20
22.31191093732739
 30
0.0
 41
2.5
 42
2.5
 43
2.5
 50
180.0
  0
INSERT
  5
3BAA
330
2F7D
100
AcDbEntity
  8
AM_5
 62
     3
100
AcDbBlockReference
  2
_OPEN30
 10
65.74060158986009
 20
22.31191093732739
 30
0.0
 41
2.5
 42
2.5
 43
2.5
  0
MTEXT
  5
3BAB
330
2F7D
100
AcDbEntity
  8
AM_5
 62
     2
100
AcDbMText
 10
53.49060158986009
 20
25.41191093732739
 30
0.0
 40
3.2
 41
0.0
 71
     5
 72
     1
  1
24.5
  7
ASAMI
1001
ACAD
1000
MTEXTBEGIN
1070
    73
1070
     1
1070
    44
1040
1.0
1070
    74
1070
     0
1000
MTEXTEND
  0
POINT
  5
3BAC
330
2F7D
100
AcDbEntity
  8
DEFPOINTS
 62
     0
100
AcDbPoint
 10
41.24060158986009
 20
0.0000000000000071
 30
0.0
  0
POINT
  5
3BAD
330
2F7D
100
AcDbEntity
  8
DEFPOINTS
 62
     0
100
AcDbPoint
 10
65.74060158986009
 20
-2.179020343823594
 30
0.0
  0
POINT
  5
3BAE
330
2F7D
100
AcDbEntity
  8
DEFPOINTS
 62
     0
100
AcDbPoint
 10
65.74060158986009
 20
22.31191093732739
 30
0.0
  0
ENDBLK
  5
2F88
330
2F7D
100
AcDbEntity
  8
0
100
AcDbBlockEnd
  0
BLOCK
  5
3870
330
3866
100
AcDbEntity
  8
0
100
AcDbBlockBegin
  2
*D10
 70
     1
 10
0.0
 20
0.0
 30
0.0
  3
*D10
  1

  0
LINE
  5
3B8E
330
3866
100
AcDbEntity
  8
AM_5
 62
     3
100
AcDbLine
 10
-1.691981032098174
 20
-31.99999999999998
 30
0.0
 11
25.45154382066705
 21
-31.99999999999999
 31
0.0
  0
LINE
  5
3B8F
330
3866
100
AcDbEntity
  8
AM_5
 62
     3
100
AcDbLine
 10
1.0
 20
-0.0000000000000003
 30
0.0
 11
25.45154382066705
 21
-0.0000000000000072
 31
0.0
  0
LINE
  5
3B90
330
3866
100
AcDbEntity
  8
AM_5
 62
     3
100
AcDbLine
 10
24.45154382066704
 20
-29.49999999999999
 30
0.0
 11
24.45154382066705
 21
-2.500000000000006
 31
0.0
  0
INSERT
  5
3B91
330
3866
100
AcDbEntity
  8
AM_5
 62
     3
100
AcDbBlockReference
  2
_OPEN30
 10
24.45154382066704
 20
-31.99999999999999
 30
0.0
 41
2.5
 42
2.5
 43
2.5
 50
270.0
  0
INSERT
  5
3B92
330
3866
100
AcDbEntity
  8
AM_5
 62
     3
100
AcDbBlockReference
  2
_OPEN30
 10
24.45154382066705
 20
-0.0000000000000069
 30
0.0
 41
2.5
 42
2.5
 43
2.5
 50
90.0
  0
MTEXT
  5
3B93
330
3866
100
AcDbEntity
  8
AM_5
 62
     2
100
AcDbMText
 10
21.35154382066705
 20
-15.99999999999999
 30
0.0
 40
3.2
 41
0.0
 71
     5
 72
     1
  1
32
  7
ASAMI
 11
0.0000000000000001
 21
1.0
 31
0.0
1001
ACAD
1000
MTEXTBEGIN
1070
    73
1070
     1
1070
    44
1040
1.0
1070
    74
1070
     0
1000
MTEXTEND
  0
POINT
  5
3B94
330
3866
100
AcDbEntity
  8
DEFPOINTS
 62
     0
100
AcDbPoint
 10
-2.691981032098174
 20
-31.99999999999998
 30
0.0
  0
POINT
  5
3B95
330
3866
100
AcDbEntity
  8
DEFPOINTS
 62
     0
100
AcDbPoint
 10
0.0
 20
0.0
 30
0.0
  0
POINT
  5
3B96
330
3866
100
AcDbEntity
  8
DEFPOINTS
 62
     0
100
AcDbPoint
 10
24.45154382066705
 20
-0.0000000000000069
 30
0.0
  0
ENDBLK
  5
3871
330
3866
100
AcDbEntity
  8
0
100
AcDbBlockEnd
  0
BLOCK
  5
38FD
330
38F3
100
AcDbEntity
  8
0
100
AcDbBlockBegin
  2
*D11
 70
     1
 10
0.0
 20
0.0
 30
0.0
  3
*D11
  1

  0
LINE
  5
3B73
330
38F3
100
AcDbEntity
  8
AM_5
 62
     3
100
AcDbLine
 10
-150.0
 20
32.31308121984106
 30
0.0
 11
-150.0
 21
18.31308121984097
 31
0.0
  0
LINE
  5
3B74
330
38F3
100
AcDbEntity
  8
AM_5
 62
     3
100
AcDbLine
 10
-0.0000000000000014
 20
32.81308121984106
 30
0.0
 11
-0.0000000000000022
 21
18.31308121984097
 31
0.0
  0
LINE
  5
3B75
330
38F3
100
AcDbEntity
  8
AM_5
 62
     3
100
AcDbLine
 10
-147.5
 20
19.31308121984097
 30
0.0
 11
-2.500000000000002
 21
19.31308121984097
 31
0.0
  0
INSERT
  5
3B76
330
38F3
100
AcDbEntity
  8
AM_5
 62
     3
100
AcDbBlockReference
  2
_OPEN30
 10
-150.0
 20
19.31308121984097
 30
0.0
 41
2.5
 42
2.5
 43
2.5
 50
180.0
  0
INSERT
  5
3B77
330
38F3
100
AcDbEntity
  8
AM_5
 62
     3
100
AcDbBlockReference
  2
_OPEN30
 10
-0.0000000000000022
 20
19.31308121984097
 30
0.0
 41
2.5
 42
2.5
 43
2.5
  0
MTEXT
  5
3B78
330
38F3
100
AcDbEntity
  8
AM_5
 62
     2
100
AcDbMText
 10
-75.0
 20
22.41308121984097
 30
0.0
 40
3.2
 41
0.0
 71
     5
 72
     1
  1
150
  7
ASAMI
1001
ACAD
1000
MTEXTBEGIN
1070
    73
1070
     1
1070
    44
1040
1.0
1070
    74
1070
     0
1000
MTEXTEND
  0
POINT
  5
3B79
330
38F3
100
AcDbEntity
  8
DEFPOINTS
 62
     0
100
AcDbPoint
 10
-150.0
 20
33.31308121984106
 30
0.0
  0
POINT
  5
3B7A
330
38F3
100
AcDbEntity
  8
DEFPOINTS
 62
     0
100
AcDbPoint
 10
-0.0000000000000013
 20
33.81308121984107
 30
0.0
  0
POINT
  5
3B7B
330
38F3
100
AcDbEntity
  8
DEFPOINTS
 62
     0
100
AcDbPoint
 10
-0.0000000000000022
 20
19.31308121984097
 30
0.0
  0
ENDBLK
  5
38FE
330
38F3
100
AcDbEntity
  8
0
100
AcDbBlockEnd
  0
BLOCK
  5
3A1C
330
3A0C
100
AcDbEntity
  8
0
100
AcDbBlockBegin
  2
*D12
 70
     1
 10
0.0
 20
0.0
 30
0.0
  3
*D12
  1

  0
LINE
  5
3C1F
330
3A0C
100
AcDbEntity
  8
AM_5
 62
     3
100
AcDbLine
 10
0.9999999999997733
 20
33.81308121984136
 30
0.0
 11
13.04375375254862
 21
33.81308121984133
 31
0.0
  0
LINE
  5
3C20
330
3A0C
100
AcDbEntity
  8
AM_5
 62
     3
100
AcDbLine
 10
0.9961946980916824
 20
33.90023696258904
 30
0.0
 11
12.99411833150324
 21
34.94991926636232
 31
0.0
  0
ARC
  5
3C21
330
3A0C
100
AcDbEntity
  8
AM_5
 62
     3
100
AcDbCircle
 10
-0.0000000000002272
 20
33.81308121984136
 30
0.0
 40
12.04375375254885
100
AcDbArc
 50
336.0392691517876
 51
359.9999999999998
  0
LINE
  5
3C22
330
3A0C
100
AcDbEntity
  8
AM_5
 62
     3
100
AcDbLine
 10
11.00587135667559
 20
28.92198725914738
 30
0.0
 11
5.381435349843944
 21
16.26595986680887
 31
0.0
  0
ARC
  5
3C23
330
3A0C
100
AcDbEntity
  8
AM_5
 62
     3
100
AcDbCircle
 10
-0.0000000000002272
 20
33.81308121984136
 30
0.0
 40
12.04375375254885
100
AcDbArc
 50
336.1705745770145
 51
348.0852872885071
  0
ARC
  5
3C24
330
3A0C
100
AcDbEntity
  8
AM_5
 62
     3
100
AcDbCircle
 10
-0.0000000000002272
 20
33.81308121984136
 30
0.0
 40
12.04375375254885
100
AcDbArc
 50
16.91471271149266
 51
28.8294254229853
  0
ARC
  5
3C25
330
3A0C
100
AcDbEntity
  8
AM_5
 62
     3
100
AcDbCircle
 10
-0.0000000000002272
 20
33.81308121984136
 30
0.0
 40
12.04375375254885
100
AcDbArc
 50
359.9999999999998
 51
5.000000000000007
  0
INSERT
  5
3C26
330
3A0C
100
AcDbEntity
  8
AM_5
 62
     3
100
AcDbBlockReference
  2
_OPEN30
 10
12.04375375254862
 20
33.81308121984133
 30
0.0
 41
2.5
 42
2.5
 43
2.5
 50
84.04264364425353
  0
INSERT
  5
3C27
330
3A0C
100
AcDbEntity
  8
AM_5
 62
     3
100
AcDbBlockReference
  2
_OPEN30
 10
11.9979236334115
 20
34.86276352361466
 30
0.0
 41
2.5
 42
2.5
 43
2.5
 50
280.9573563557463
  0
MTEXT
  5
3C28
330
3A0C
100
AcDbEntity
  8
AM_5
 62
     2
100
AcDbMText
 10
11.02650778607931
 20
21.33503124402359
 30
0.0
 40
3.2
 41
0.0
 71
     5
 72
     1
  1
-5°
  7
ASAMI
 11
-0.4061104254692071
 21
-0.913824010586951
 31
0.0
1001
ACAD
1000
MTEXTBEGIN
1070
    73
1070
     1
1070
    44
1040
1.0
1070
    74
1070
     0
1000
MTEXTEND
  0
POINT
  5
3C29
330
3A0C
100
AcDbEntity
  8
DEFPOINTS
 62
     0
100
AcDbPoint
 10
12.02337762737949
 20
34.51336322122321
 30
0.0
  0
POINT
  5
3C2A
330
3A0C
100
AcDbEntity
  8
DEFPOINTS
 62
     0
100
AcDbPoint
 10
-0.0000000000000631
 20
33.81308121984138
 30
0.0
  0
POINT
  5
3C2B
330
3A0C
100
AcDbEntity
  8
DEFPOINTS
 62
     0
100
AcDbPoint
 10
-0.0000000000002294
 20
33.81308121984136
 30
0.0
  0
POINT
  5
3C2C
330
3A0C
100
AcDbEntity
  8
DEFPOINTS
 62
     0
100
AcDbPoint
 10
-1.648022951802877
 20
33.81308121984137
 30
0.0
  0
POINT
  5
3C2D
330
3A0C
100
AcDbEntity
  8
DEFPOINTS
 62
     0
100
AcDbPoint
 10
-14.27452547819961
 20
32.56422206328695
 30
0.0
  0
ENDBLK
  5
3A1D
330
3A0C
100
AcDbEntity
  8
0
100
AcDbBlockEnd
  0
BLOCK
  5
3A80
330
3A71
100
AcDbEntity
  8
0
100
AcDbBlockBegin
  2
*D13
 70
     1
 10
0.0
 20
0.0
 30
0.0
  3
*D13
  1

  0
LINE
  5
3C6B
330
3A71
100
AcDbEntity
  8
AM_5
 62
     3
100
AcDbLine
 10
41.32775733260774
 20
0.9961946980917531
 30
0.0
 11
42.39516918240286
 21
13.19676796983735
 31
0.0
  0
LINE
  5
3C6C
330
3A71
100
AcDbEntity
  8
AM_5
 62
     3
100
AcDbLine
 10
41.24060158986009
 20
1.000000000000007
 30
0.0
 11
41.24060158986007
 21
13.24717747957938
 31
0.0
  0
ARC
  5
3C6D
330
3A71
100
AcDbEntity
  8
AM_5
 62
     3
100
AcDbCircle
 10
41.24060158986009
 20
0.000000000000008
 30
0.0
 40
12.24717747957938
100
AcDbArc
 50
61.44300651802294
 51
85.00000000000012
  0
LINE
  5
3C6E
330
3A71
100
AcDbEntity
  8
AM_5
 62
     3
100
AcDbLine
 10
47.09515296222671
 20
10.75721081157362
 30
0.0
 11
59.25977191278613
 21
4.136685489648055
 31
0.0
  0
ARC
  5
3C6F
330
3A71
100
AcDbEntity
  8
AM_5
 62
     3
100
AcDbCircle
 10
41.24060158986009
 20
0.000000000000008
 30
0.0
 40
12.24717747957938
100
AcDbArc
 50
61.56777445991657
 51
73.28388722995834
  0
ARC
  5
3C70
330
3A71
100
AcDbEntity
  8
AM_5
 62
     3
100
AcDbCircle
 10
41.24060158986009
 20
0.000000000000008
 30
0.0
 40
12.24717747957938
100
AcDbArc
 50
101.7161127700418
 51
113.4322255400836
  0
ARC
  5
3C71
330
3A71
100
AcDbEntity
  8
AM_5
 62
     3
100
AcDbCircle
 10
41.24060158986009
 20
0.000000000000008
 30
0.0
 40
12.24717747957938
100
AcDbArc
 50
85.00000000000012
 51
90.00000000000005
  0
INSERT
  5
3C72
330
3A71
100
AcDbEntity
  8
AM_5
 62
     3
100
AcDbBlockReference
  2
_OPEN30
 10
42.3080134396552
 20
12.20057327174561
 30
0.0
 41
2.5
 42
2.5
 43
2.5
 50
169.1419436149792
  0
INSERT
  5
3C73
330
3A71
100
AcDbEntity
  8
AM_5
 62
     3
100
AcDbBlockReference
  2
_OPEN30
 10
41.24060158986008
 20
12.24717747957938
 30
0.0
 41
2.5
 42
2.5
 43
2.5
 50
5.858056385020942
  0
MTEXT
  5
3C74
330
3A71
100
AcDbEntity
  8
AM_5
 62
     2
100
AcDbMText
 10
54.65936382128224
 20
10.16980846446525
 30
0.0
 40
3.2
 41
0.0
 71
     5
 72
     1
  1
-5°
  7
ASAMI
 11
0.8783420367272299
 21
-0.4780327044438084
 31
0.0
1001
ACAD
1000
MTEXTBEGIN
1070
    73
1070
     1
1070
    44
1040
1.0
1070
    74
1070
     0
1000
MTEXTEND
  0
POINT
  5
3C75
330
3A71
100
AcDbEntity
  8
DEFPOINTS
 62
     0
100
AcDbPoint
 10
41.59680730225061
 20
12.24199631215337
 30
0.0
  0
POINT
  5
3C76
330
3A71
100
AcDbEntity
  8
DEFPOINTS
 62
     0
100
AcDbPoint
 10
39.84846943905672
 20
-15.91214329603841
 30
0.0
  0
POINT
  5
3C77
330
3A71
100
AcDbEntity
  8
DEFPOINTS
 62
     0
100
AcDbPoint
 10
41.24060158986009
 20
0.0000000000000071
 30
0.0
  0
POINT
  5
3C78
330
3A71
100
AcDbEntity
  8
DEFPOINTS
 62
     0
100
AcDbPoint
 10
41.24060158986009
 20
-1.45380657243264
 30
0.0
  0
POINT
  5
3C79
330
3A71
100
AcDbEntity
  8
DEFPOINTS
 62
     0
100
AcDbPoint
 10
41.24060158986009
 20
0.0000000000000071
 30
0.0
  0
ENDBLK
  5
3A81
330
3A71
100
AcDbEntity
  8
0
100
AcDbBlockEnd
  0
ENDSEC
  0
SECTION
  2
ENTITIES
  0
TEXT
  5
C58
330
1F
100
AcDbEntity
  8
AM_6
100
AcDbText
 10
-106.1904761904761
 20
-54.50000000000009
 30
0.0
 40
5.0
  1
ETFNR2525M33W
 50
0.0000000000002036
 72
     4
 11
-74.99999999999997
 21
-51.99999999999999
 31
0.0
100
AcDbText
  0
POLYLINE
  5
1D74
330
1F
100
AcDbEntity
  8
AM_0
100
AcDb2dPolyline
 66
     1
 10
0.0
 20
0.0
 30
0.0
 70
     1
  0
VERTEX
  5
1D75
330
1D74
100
AcDbEntity
  8
AM_0
100
AcDbVertex
100
AcDb2dVertex
 10
0.0000000000000143
 20
-14.52650264998332
 30
0.0
  0
VERTEX
  5
1D80
330
1D74
100
AcDbEntity
  8
AM_0
100
AcDbVertex
100
AcDb2dVertex
 10
0.0
 20
-0.7999999999999972
 30
0.0
 42
0.5773502691896258
  0
VERTEX
  5
1D76
330
1D74
100
AcDbEntity
  8
AM_0
100
AcDbVertex
100
AcDb2dVertex
 10
-1.200000000000002
 20
-0.10717967697245
 30
0.0
  0
VERTEX
  5
1D81
330
1D74
100
AcDbEntity
  8
AM_0
100
AcDbVertex
100
AcDb2dVertex
 10
-13.08749999999996
 20
-6.970431001964122
 30
0.0
 42
0.5773502691896262
  0
VERTEX
  5
1D77
330
1D74
100
AcDbEntity
  8
AM_0
100
AcDbVertex
100
AcDb2dVertex
 10
-13.08749999999996
 20
-8.356071648019224
 30
0.0
  0
VERTEX
  5
1D82
330
1D74
100
AcDbEntity
  8
AM_0
100
AcDbVertex
100
AcDb2dVertex
 10
-1.199999999999988
 20
-15.21932297301086
 30
0.0
 42
0.577350269189626
  0
SEQEND
  5
1D78
330
1D74
100
AcDbEntity
  8
AM_0
  0
LINE
  5
1E3E
330
1F
100
AcDbEntity
  8
AM_0
100
AcDbLine
 10
-0.6937597122713442
 20
-15.51160093940568
 30
0.0
 11
-0.6937597122713445
 21
-15.31941689582793
 31
0.0
  0
LINE
  5
1E4A
330
1F
100
AcDbEntity
  8
AM_0
100
AcDbLine
 10
-2.69198103209817
 20
-31.99999999999998
 30
0.0
 11
-150.0
 21
-31.99999999999998
 31
0.0
  0
LINE
  5
1E52
330
1F
100
AcDbEntity
  8
AM_0
100
AcDbLine
 10
-13.55259316079798
 20
33.31308121984106
 30
0.0
 11
-150.0
 21
33.31308121984106
 31
0.0
  0
LINE
  5
1E5E
330
1F
100
AcDbEntity
  8
AM_0
100
AcDbLine
 10
-2.146248199880433
 20
58.31308121984107
 30
0.0
 11
-150.0
 21
58.31308121984107
 31
0.0
  0
LINE
  5
1E67
330
1F
100
AcDbEntity
  8
AM_0
100
AcDbLine
 10
-2.146248199880441
 20
58.27510060237158
 30
0.0
 11
-0.6998122018621742
 21
41.74226149242605
 31
0.0
  0
LINE
  5
1E69
330
1F
100
AcDbEntity
  8
AM_0
100
AcDbLine
 10
-20.69375094617892
 20
39.9930185130666
 30
0.0
 11
-0.6937597122713597
 21
41.74279101665137
 31
0.0
  0
LINE
  5
1E83
330
1F
100
AcDbEntity
  8
AM_0
100
AcDbLine
 10
-13.83312234233177
 20
36.57405557885496
 30
0.0
 11
-20.39463044842007
 21
36.57405557885496
 31
0.0
  0
LINE
  5
1E84
330
1F
100
AcDbEntity
  8
AM_0
100
AcDbLine
 10
-20.69375094617892
 20
39.9930185130666
 30
0.0
 11
-20.69375094617892
 21
39.97993368677553
 31
0.0
  0
LINE
  5
1E85
330
1F
100
AcDbEntity
  8
AM_0
100
AcDbLine
 10
-20.69375971227136
 20
39.9930185130666
 30
0.0
 11
-20.69375971227136
 21
58.31308121984107
 31
0.0
  0
LINE
  5
1E8B
330
1F
100
AcDbEntity
  8
AM_0
100
AcDbLine
 10
0.037645514805361
 20
-16.51951859020012
 30
0.0
 11
-2.691981032098174
 21
-31.99999999999998
 31
0.0
  0
LINE
  5
1E97
330
1F
100
AcDbEntity
  8
AM_0
100
AcDbLine
 10
-20.69375971227136
 20
-6.999999999999985
 30
0.0
 11
-20.69375971227136
 21
-4.106539614169292
 31
0.0
  0
LINE
  5
1EBB
330
1F
100
AcDbEntity
  8
AM_0
100
AcDbLine
 10
-2.601624695175602
 20
-0.9164080720349119
 30
0.0
 11
-20.69375971227136
 21
-4.1065396141693
 31
0.0
  0
LINE
  5
1F1F
330
1F
100
AcDbEntity
  8
AM_0
100
AcDbLine
 10
-20.69375971227136
 20
-6.999999999999985
 30
0.0
 11
-150.0
 21
-6.999999999999985
 31
0.0
  0
LINE
  5
1F29
330
1F
100
AcDbEntity
  8
AM_0
100
AcDbLine
 10
-150.0
 20
-31.99999999999998
 30
0.0
 11
-150.0
 21
-6.999999999999985
 31
0.0
  0
LINE
  5
1F2A
330
1F
100
AcDbEntity
  8
AM_0
100
AcDbLine
 10
-150.0
 20
33.31308121984106
 30
0.0
 11
-150.0
 21
58.31308121984107
 31
0.0
  0
LINE
  5
1F35
330
1F
100
AcDbEntity
  8
AM_7
100
AcDbLine
 10
-7.943713053063472
 20
64.76438948264338
 30
0.0
 11
-5.043805696529731
 21
31.61829672430018
 31
0.0
  0
LINE
  5
1F36
330
1F
100
AcDbEntity
  8
AM_0
100
AcDbLine
 10
40.75060158986008
 20
-31.99999999999998
 30
0.0
 11
65.74060158986009
 21
-31.99999999999998
 31
0.0
  0
LINE
  5
1F37
330
1F
100
AcDbEntity
  8
AM_0
100
AcDbLine
 10
40.75060158986009
 20
-31.99999999999998
 30
0.0
 11
40.75060158986009
 21
-15.99048223405148
 31
0.0
  0
LINE
  5
1F40
330
1F
100
AcDbEntity
  8
AM_0
100
AcDbLine
 10
65.74060158986009
 20
-31.99999999999998
 30
0.0
 11
65.74060158986009
 21
-2.179020343823594
 31
0.0
  0
LINE
  5
1FCC
330
1F
100
AcDbEntity
  8
AM_0
100
AcDbLine
 10
40.75060158986009
 20
-16.51951859020019
 30
0.0
 11
65.75060158986009
 21
-31.45399999999998
 31
0.0
  0
LINE
  5
20B1
330
1F
100
AcDbEntity
  8
AM_0
100
AcDbLine
 10
44.27091808854472
 20
-16.36999236176993
 30
0.0
 11
44.27091808854472
 21
-16.29322768645076
 31
0.0
  0
LINE
  5
20BF
330
1F
100
AcDbEntity
  8
AM_0
100
AcDbLine
 10
44.27082778762768
 20
-16.37054827000922
 30
0.0
 11
40.74368802016171
 21
-16.06196352568447
 31
0.0
  0
LINE
  5
20DB
330
1F
100
AcDbEntity
  8
AM_0
100
AcDbLine
 10
44.22883869046126
 20
-16.71460809206961
 30
0.0
 11
47.71552013378236
 21
-17.01965319168641
 31
0.0
  0
LINE
  5
20F6
330
1F
100
AcDbEntity
  8
AM_0
100
AcDbLine
 10
47.72185589295138
 20
-17.02020749878853
 30
0.0
 11
49.15038749270859
 21
-0.6920165974164121
 31
0.0
  0
LINE
  5
2100
330
1F
100
AcDbEntity
  8
AM_0
100
AcDbLine
 10
-5.320238026791197
 20
63.46221583153774
 30
0.0
 11
-4.873885209070339
 21
58.36037977950333
 31
0.0
  0
LINE
  5
2104
330
1F
100
AcDbEntity
  8
AM_0
100
AcDbLine
 10
-10.30121151724992
 20
63.02643711779943
 30
0.0
 11
-9.888846309015509
 21
58.31308121984107
 31
0.0
  0
LINE
  5
210C
330
1F
100
AcDbEntity
  8
AM_0
100
AcDbLine
 10
-13.48749999999997
 20
32.63307787053517
 30
0.0
 11
-0.0000000000000013
 21
33.81308121984107
 31
0.0
  0
LINE
  5
2114
330
1F
100
AcDbEntity
  8
AM_0
100
AcDbLine
 10
-10.30121151724992
 20
63.02643711779943
 30
0.0
 11
-5.320238026791198
 21
63.46221583153774
 31
0.0
  0
LINE
  5
2120
330
1F
100
AcDbEntity
  8
AM_0
100
AcDbLine
 10
70.21631320017658
 20
-13.01749815444924
 30
0.0
 11
65.75060158986009
 21
-12.62679901397042
 31
0.0
  0
LINE
  5
2121
330
1F
100
AcDbEntity
  8
AM_0
100
AcDbLine
 10
70.65209191391486
 20
-8.036524663990505
 30
0.0
 11
65.75060158986012
 21
-7.6076998262537
 31
0.0
  0
LINE
  5
2122
330
1F
100
AcDbEntity
  8
AM_0
100
AcDbLine
 10
70.65209191391486
 20
-8.036524663990498
 30
0.0
 11
70.21631320017658
 21
-13.01749815444923
 31
0.0
  0
LINE
  5
2123
330
1F
100
AcDbEntity
  8
AM_7
100
AcDbLine
 10
75.4755726718122
 20
-10.9680741429003
 30
0.0
 11
39.0558170943192
 21
-7.781758401484623
 31
0.0
  0
LINE
  5
25D0
330
1F
100
AcDbEntity
  8
AM_0
100
AcDbLine
 10
-20.50542437565951
 20
-4.073331012903828
 30
0.0
 11
0.0376455148053197
 21
-15.9338779441451
 31
0.0
  0
CIRCLE
  5
2692
330
1F
100
AcDbEntity
  8
AM_0
100
AcDbCircle
 10
-4.762499999999974
 20
-7.663251324991648
 30
0.0
 40
1.817499999999999
  0
LINE
  5
2702
330
1F
100
AcDbEntity
  8
AM_0
100
AcDbLine
 10
-20.69375094617892
 20
39.9930185130666
 30
0.0
 11
-14.12563820006023
 21
39.9930185130666
 31
0.0
  0
LINE
  5
27FF
330
1F
100
AcDbEntity
  8
AM_0
100
AcDbLine
 10
-14.18125971227133
 20
40.56278766734545
 30
0.0
 11
-13.48749999999997
 21
32.63307787053517
 31
0.0
  0
LINE
  5
280B
330
1F
100
AcDbEntity
  8
AM_0
100
AcDbLine
 10
-13.90236133547883
 20
37.37496463345188
 30
0.0
 11
-0.4148613354788479
 21
38.55496798275777
 31
0.0
  0
LINE
  5
2834
330
1F
100
AcDbEntity
  8
AM_0
100
AcDbLine
 10
39.84846943905672
 20
-15.91214329603841
 30
0.0
 11
41.24060158986009
 21
0.0000000000000071
 31
0.0
  0
LINE
  5
283C
330
1F
100
AcDbEntity
  8
AM_0
100
AcDbLine
 10
44.59035620197343
 20
-16.32700463151727
 30
0.0
 11
45.98248835277684
 21
-0.4148613354788538
 31
0.0
  0
LINE
  5
283E
330
1F
100
AcDbEntity
  8
AM_0
100
AcDbLine
 10
-20.39463044842007
 20
36.57405557885496
 30
0.0
 11
-20.1093784207361
 21
33.31360998295838
 31
0.0
  0
LINE
  5
283F
330
1F
100
AcDbEntity
  8
AM_0
100
AcDbLine
 10
-20.39463044842007
 20
36.57405557885496
 30
0.0
 11
-20.69147878993839
 21
36.54808471418564
 31
0.0
  0
LINE
  5
2840
330
1F
100
AcDbEntity
  8
AM_0
100
AcDbLine
 10
-20.69375094617892
 20
36.54788592627283
 30
0.0
 11
-20.99287144393776
 21
39.96684886048446
 31
0.0
  0
LINE
  5
2841
330
1F
100
AcDbEntity
  8
AM_0
100
AcDbLine
 10
-20.69375094617892
 20
39.9930185130666
 30
0.0
 11
-20.99287144393776
 21
39.96684886048446
 31
0.0
  0
LINE
  5
2842
330
1F
100
AcDbEntity
  8
AM_0
100
AcDbLine
 10
49.14737702364191
 20
-0.7264264163043635
 30
0.0
 11
65.74067755109503
 21
-2.178152102935257
 31
0.0
  0
LINE
  5
2844
330
1F
100
AcDbEntity
  8
AM_0
100
AcDbLine
 10
39.85846943905677
 20
-15.91214329603841
 30
0.0
 11
47.7682553419052
 21
-16.6041598934548
 31
0.0
  0
LINE
  5
2845
330
1F
100
AcDbEntity
  8
AM_0
100
AcDbLine
 10
44.27082778762768
 20
-16.36951612580446
 30
0.0
 11
44.24063615270559
 21
-16.71460809206959
 31
0.0
  0
LINE
  5
2869
330
1F
100
AcDbEntity
  8
AM_0
100
AcDbLine
 10
-0.6998122018621884
 20
41.74226149242605
 30
0.0
 11
-9.762254717396986
 21
58.31308121984107
 31
0.0
  0
DIMENSION
  5
28FE
330
1F
100
AcDbEntity
  8
AM_5
100
AcDbDimension
  2
*D5
 10
-164.0
 20
33.31308121984106
 30
0.0
 11
-167.1
 21
45.81308121984103
 31
0.0
 70
    32
  1
<>
  3
AM_JIS
100
AcDbAlignedDimension
 13
-150.0
 23
58.31308121984107
 33
0.0
 14
-150.0
 24
33.31308121984106
 34
0.0
 50
270.0
100
AcDbRotatedDimension
1001
GENIUS_GENDTOL_13
1000

1000
h7
1000

1040
0.0
  0
DIMENSION
  5
2A35
330
1F
100
AcDbEntity
  8
AM_5
100
AcDbDimension
  2
*D6
 10
24.01220083839295
 20
33.81308121984106
 30
0.0
 11
20.91220083839294
 21
46.06308121984106
 31
0.0
 70
    32
  1
<>
  3
AM_JIS
100
AcDbAlignedDimension
 13
-1.712127755713113
 23
58.31308121984107
 33
0.0
 14
-0.0000000000000013
 24
33.81308121984107
 34
0.0
 50
90.00000000000003
100
AcDbRotatedDimension
1001
GENIUS_GENDTOL_13
1000

1000
h7
1000

1040
0.0
  0
LINE
  5
2ACC
330
1F
100
AcDbEntity
  8
AM_0
100
AcDbLine
 10
-0.0000000000000155
 20
33.81308121984107
 30
0.0
 11
-0.6937597122713739
 21
41.74279101665135
 31
0.0
  0
DIMENSION
  5
2C21
330
1F
100
AcDbEntity
  8
AM_5
100
AcDbDimension
  2
*D7
 10
-164.0
 20
-31.99999999999998
 30
0.0
 11
-167.1
 21
-19.50000000000001
 31
0.0
 70
    32
  1
<>
  3
AM_JIS
100
AcDbAlignedDimension
 13
-150.0
 23
-6.999999999999985
 33
0.0
 14
-150.0
 24
-31.99999999999998
 34
0.0
 50
270.0
100
AcDbRotatedDimension
1001
GENIUS_GENDTOL_13
1000

1000
h7
1000

1040
0.0
  0
LINE
  5
2CB0
330
1F
100
AcDbEntity
  8
AM_11
100
AcDbLine
 10
0.0
 20
-0.8000000000000042
 30
0.0
 11
0.0
 21
0.0
 31
0.0
  0
DIMENSION
  5
2CBB
330
1F
100
AcDbEntity
  8
AM_5
100
AcDbDimension
  2
*D8
 10
-0.0000000000000013
 20
-1.385640646055087
 30
0.0
 11
7.707463914933364
 21
-7.707463914933349
 31
0.0
 70
    34
  1
<>
  3
AM_JIS$2
100
AcDb2LineAngularDimension
 13
-0.0000000000000155
 23
0.0000000000000071
 33
0.0
 14
-9.045977174069246
 24
0.0000000000000071
 34
0.0
 15
0.0000000000000129
 25
-15.11214329603841
 35
0.0
 16
6.999999999999995
 26
-12.12435565298212
 36
0.0
1001
GENIUS_GENDTOL_13
1000

1000
h7
1000

1040
0.0
1001
ACAD
1000
DSTYLE
1002
{
1070
   179
1070
     3
1070
    76
1070
     0
1070
    75
1070
     0
1002
}
  0
LINE
  5
2F18
330
1F
100
AcDbEntity
  8
AM_0
100
AcDbLine
 10
41.24060158986009
 20
0.0000000000000071
 30
0.0
 11
49.15038749270859
 21
-0.6920165974163979
 31
0.0
  0
DIMENSION
  5
2F7C
330
1F
100
AcDbEntity
  8
AM_5
100
AcDbDimension
  2
*D9
 10
65.74060158986009
 20
22.31191093732739
 30
0.0
 11
53.49060158986009
 21
25.41191093732739
 31
0.0
 70
    32
  1
<>
  3
AM_JIS
100
AcDbAlignedDimension
 13
41.24060158986009
 23
0.0000000000000071
 33
0.0
 14
65.74060158986009
 24
-2.179020343823594
 34
0.0
 50
180.0
100
AcDbRotatedDimension
1001
GENIUS_GENDTOL_13
1000

1000
h7
1000

1040
0.0
  0
LINE
  5
3855
330
1F
100
AcDbEntity
  8
AM_11
100
AcDbLine
 10
-0.8000000000000005
 20
-0.0000000000000071
 30
0.0
 11
0.0
 21
0.0
 31
0.0
  0
LINE
  5
3858
330
1F
100
AcDbEntity
  8
AM_0
100
AcDbLine
 10
0.037645514805361
 20
-16.51951859020012
 30
0.0
 11
0.0376455148053197
 21
-15.9338779441451
 31
0.0
  0
DIMENSION
  5
3865
330
1F
100
AcDbEntity
  8
AM_5
100
AcDbDimension
  2
*D10
 10
24.45154382066705
 20
-0.0000000000000069
 30
0.0
 11
21.35154382066705
 21
-15.99999999999999
 31
0.0
 70
    32
  1
<>
  3
AM_JIS
100
AcDbAlignedDimension
 13
-2.691981032098174
 23
-31.99999999999998
 33
0.0
 14
0.0
 24
0.0
 34
0.0
 50
270.0
100
AcDbRotatedDimension
1001
GENIUS_GENDTOL_13
1000

1000
h7
1000

1040
0.0
  0
DIMENSION
  5
38F2
330
1F
100
AcDbEntity
  8
AM_5
100
AcDbDimension
  2
*D11
 10
-0.0000000000000022
 20
19.31308121984097
 30
0.0
 11
-75.0
 21
22.41308121984097
 31
0.0
 70
    32
  1
<>
  3
AM_JIS
100
AcDbAlignedDimension
 13
-150.0
 23
33.31308121984106
 33
0.0
 14
-0.0000000000000013
 24
33.81308121984107
 34
0.0
 50
180.0
100
AcDbRotatedDimension
1001
GENIUS_GENDTOL_13
1000

1000
h7
1000

1040
0.0
  0
DIMENSION
  5
39FB
330
1F
100
AcDbEntity
  8
AM_5
100
AcDbDimension
  2
*D12
 10
-14.27452547819961
 20
32.56422206328695
 30
0.0
 11
11.02650778607932
 21
21.33503124402359
 31
0.0
 70
    34
  1
-<>
  3
AM_JIS$2
100
AcDb2LineAngularDimension
 13
-0.0000000000002293
 23
33.81308121984136
 33
0.0
 14
-1.648022951802876
 24
33.81308121984136
 34
0.0
 15
-0.0000000000000629
 25
33.81308121984138
 35
0.0
 16
12.02337762737949
 26
34.51336322122321
 36
0.0
1001
ACAD
1000
DSTYLE
1002
{
1070
   179
1070
     3
1002
}
1001
GENIUS_GENDTOL_13
1000

1000
h7
1000

1040
0.0
  0
DIMENSION
  5
3A70
330
1F
100
AcDbEntity
  8
AM_5
100
AcDbDimension
  2
*D13
 10
41.24060158986009
 20
0.0000000000000071
 30
0.0
 11
54.65936382128224
 21
10.16980846446525
 31
0.0
 70
    34
  1
-<>
  3
AM_JIS$2
100
AcDb2LineAngularDimension
 13
41.24060158986009
 23
0.0000000000000071
 33
0.0
 14
41.24060158986009
 24
-1.45380657243264
 34
0.0
 15
39.84846943905672
 25
-15.91214329603841
 35
0.0
 16
41.59680730225061
 26
12.24199631215337
 36
0.0
1001
ACAD
1000
DSTYLE
1002
{
1070
   179
1070
     3
1002
}
1001
GENIUS_GENDTOL_13
1000

1000
h7
1000

1040
0.0
  0
VIEWPORT
  5
110
330
101
100
AcDbEntity
 67
     1
  8
0
100
AcDbViewport
 10
420.5
 20
297.0
 30
0.0
 40
948.9782706766916
 41
628.452
 68
     1
 69
     1
1001
ACAD
1000
MVIEW
1002
{
1070
    16
1010
0.0
1020
0.0
1030
0.0
1010
0.0
1020
0.0
1030
1.0
1040
0.0
1040
628.452
1040
420.5
1040
297.0
1040
50.0
1040
0.0
1040
0.0
1070
     0
1070
   100
1070
     1
1070
     1
1070
     0
1070
     0
1070
     0
1070
     0
1040
0.0
1040
0.0
1040
0.0
1040
10.0
1040
10.0
1040
10.0
1040
10.0
1070
     0
1002
{
1002
}
1002
}
  0
ENDSEC
  0
SECTION
  2
OBJECTS
  0
DICTIONARY
  5
C
330
0
100
AcDbDictionary
  3
ACAD_GROUP
350
D
  3
ACAD_LAYOUT
350
1A
  3
ACAD_MLINESTYLE
350
17
  3
ACAD_PLOTSETTINGS
350
19
  3
ACAD_PLOTSTYLENAME
350
E
  3
ACDBVARIABLEDICTIONARY
350
34
  3
ACMDICTIONARY
350
43
  3
AMG
350
2B
  3
AMGSNAPSETTINGS
350
6E
  3
DWGPROPS
350
3C92
  3
ACDBHEADERROUNDTRIPXREC
350
3C9E
  0
DICTIONARY
  5
74
330
1F
100
AcDbDictionary
280
     1
  3
ACAD_INDEX
360
3C94
  3
ACAD_LAYOUTSELFREF
360
3CC1
  0
DICTIONARY
  5
3CC6
330
101
100
AcDbDictionary
280
     1
  3
ACAD_LAYOUTSELFREF
360
3CC7
  0
DICTIONARY
  5
D
102
{ACAD_REACTORS
330
C
102
}
330
C
100
AcDbDictionary
  0
DICTIONARY
  5
1A
102
{ACAD_REACTORS
330
C
102
}
330
C
100
AcDbDictionary
  0
DICTIONARY
  5
17
102
{ACAD_REACTORS
330
C
102
}
330
C
100
AcDbDictionary
  3
STANDARD
350
18
  0
DICTIONARY
  5
19
102
{ACAD_REACTORS
330
C
102
}
330
C
100
AcDbDictionary
  0
ACDBDICTIONARYWDFLT
  5
E
102
{ACAD_REACTORS
330
C
102
}
330
C
100
AcDbDictionary
281
     1
  3
Normal
350
F
100
AcDbDictionaryWithDefault
340
F
  0
DICTIONARY
  5
34
102
{ACAD_REACTORS
330
C
102
}
330
C
100
AcDbDictionary
  3
INDEXCTL
350
35
  3
SORTENTS
350
B5E
  0
DICTIONARY
  5
43
102
{ACAD_REACTORS
330
C
102
}
330
C
100
AcDbDictionary
  3
ACMSTDDICTIONARY
350
260
  0
DICTIONARY
  5
2B
102
{ACAD_REACTORS
330
C
102
}
330
C
100
AcDbDictionary
  3
ACMGSETTINGS
350
2C
  0
DICTIONARY
  5
6E
102
{ACAD_REACTORS
330
C
102
}
330
C
100
AcDbDictionary
  0
XRECORD
  5
3C92
102
{ACAD_REACTORS
330
C
102
}
330
C
100
AcDbXrecord
  1
DWGPROPS COOKIE
  2

  3

  4

  6

  7

  8

  9

300
AmdtFileType=82
301
=
302
=
303
=
304
=
305
=
306
=
307
=
308
=
309
=
 40
0.4708627777777778
 41
2452838.620506898
 42
2452909.668324814
  1

 90
        1
  0
DICTIONARY
  5
3C9E
102
{ACAD_REACTORS
330
C
102
}
330
C
100
AcDbDictionary
  3
TSTACKALIGN
350
3C9F
  3
TSTACKSIZE
350
3CA0
  3
HYPERLINKBASE
350
3CA1
  3
STYLESHEET
350
3CA2
  3
LAYOUTDICT
350
3CA3
  3
PLOTSETDICT
350
3CA4
  3
PLOTSTYLNAMDICT
350
3CA5
  3
LWETCUNION
350
3CA6
  3
INSUNITS
350
3CA7
  3
CEPSNTYPE
350
3CA8
  3
FINGERPRINTGUID
350
3CA9
  3
VERSIONGUID
350
3CAA
  3
PSVPSCALE
350
3CAB
  3
DIMSTYLEDATA
350
3CAC
  3
PUCSORTHOREF
350
3CAD
  3
PUCSORTHOVIEW
350
3CAE
  3
PUCSBASE
350
3CAF
  3
PUCSORGTOP
350
3CB0
  3
PUCSORGBOTTOM
350
3CB1
  3
PUCSORGLEFT
350
3CB2
  3
PUCSORGRIGHT
350
3CB3
  3
PUCSORGFRONT
350
3CB4
  3
PUCSORGBACK
350
3CB5
  3
UCSORTHOREF
350
3CB6
  3
UCSORTHOVIEW
350
3CB7
  3
UCSBASE
350
3CB8
  3
UCSORGTOP
350
3CB9
  3
UCSORGBOTTOM
350
3CBA
  3
UCSORGLEFT
350
3CBB
  3
UCSORGRIGHT
350
3CBC
  3
UCSORGFRONT
350
3CBD
  3
UCSORGBACK
350
3CBE
  0
DICTIONARY
  5
3C94
102
{ACAD_REACTORS
330
74
102
}
330
74
100
AcDbDictionary
  3
*A1
350
3C95
  0
XRECORD
  5
3CC1
102
{ACAD_REACTORS
330
74
102
}
330
74
100
AcDbXrecord
340
1F
  0
XRECORD
  5
3CC7
102
{ACAD_REACTORS
330
3CC6
102
}
330
3CC6
100
AcDbXrecord
340
101
  0
MLINESTYLE
  5
18
102
{ACAD_REACTORS
330
17
102
}
330
17
100
AcDbMlineStyle
  2
STANDARD
 70
     0
  3

 62
   256
 51
90.0
 52
90.0
 71
     2
 49
0.5
 62
   256
  6
BYLAYER
 49
-0.5
 62
   256
  6
BYLAYER
  0
ACDBPLACEHOLDER
  5
F
102
{ACAD_REACTORS
330
E
102
}
330
E
100
AcDbPlaceHolder
280
     0
  0
DICTIONARYVAR
  5
35
102
{ACAD_REACTORS
330
34
102
}
330
34
100
DictionaryVariables
280
     0
  1
1
  0
DICTIONARYVAR
  5
B5E
102
{ACAD_REACTORS
330
34
102
}
330
34
100
DictionaryVariables
280
     0
  1
96
  0
DICTIONARY
  5
260
102
{ACAD_REACTORS
330
43
102
}
330
43
100
AcDbDictionary
  0
DICTIONARY
  5
2C
102
{ACAD_REACTORS
330
2B
102
}
330
2B
100
AcDbDictionary
  3
DWGSETTINGS
350
2D
  0
XRECORD
  5
3C9F
102
{ACAD_REACTORS
330
3C9E
102
}
330
3C9E
100
AcDbXrecord
 90
        1
  0
XRECORD
  5
3CA0
102
{ACAD_REACTORS
330
3C9E
102
}
330
3C9E
100
AcDbXrecord
 90
       70
  0
XRECORD
  5
3CA1
102
{ACAD_REACTORS
330
3C9E
102
}
330
3C9E
100
AcDbXrecord
  1

  0
XRECORD
  5
3CA2
102
{ACAD_REACTORS
330
3C9E
102
}
330
3C9E
100
AcDbXrecord
  1
ASAMI.ctb
  0
XRECORD
  5
3CA3
102
{ACAD_REACTORS
330
3C9E
102
}
330
3C9E
100
AcDbXrecord
340
1A
  0
XRECORD
  5
3CA4
102
{ACAD_REACTORS
330
3C9E
102
}
330
3C9E
100
AcDbXrecord
340
19
  0
XRECORD
  5
3CA5
102
{ACAD_REACTORS
330
3C9E
102
}
330
3C9E
100
AcDbXrecord
340
E
  0
XRECORD
  5
3CA6
102
{ACAD_REACTORS
330
3C9E
102
}
330
3C9E
100
AcDbXrecord
 90
    10781
  0
XRECORD
  5
3CA7
102
{ACAD_REACTORS
330
3C9E
102
}
330
3C9E
100
AcDbXrecord
 90
        4
  0
XRECORD
  5
3CA8
102
{ACAD_REACTORS
330
3C9E
102
}
330
3C9E
100
AcDbXrecord
 90
        0
  0
XRECORD
  5
3CA9
102
{ACAD_REACTORS
330
3C9E
102
}
330
3C9E
100
AcDbXrecord
  1
{AFB28963-8C59-40AE-9337-C84526B81ACE}
  0
XRECORD
  5
3CAA
102
{ACAD_REACTORS
330
3C9E
102
}
330
3C9E
100
AcDbXrecord
  1
{E10A73F6-7E11-4C98-858A-1733CDDC1715}
  0
XRECORD
  5
3CAB
102
{ACAD_REACTORS
330
3C9E
102
}
330
3C9E
100
AcDbXrecord
 40
0.0
  0
XRECORD
  5
3CAC
102
{ACAD_REACTORS
330
3C9E
102
}
330
3C9E
100
AcDbXrecord
1000
DSTYLE
1002
{
1070
    79
 70
     2
1070
   341
340
59
1070
   342
340
59
1070
   371
 70
    -1
1070
   372
 70
    -1
1002
}
  0
XRECORD
  5
3CAD
102
{ACAD_REACTORS
330
3C9E
102
}
330
3C9E
100
AcDbXrecord
340
0
  0
XRECORD
  5
3CAE
102
{ACAD_REACTORS
330
3C9E
102
}
330
3C9E
100
AcDbXrecord
 70
     0
  0
XRECORD
  5
3CAF
102
{ACAD_REACTORS
330
3C9E
102
}
330
3C9E
100
AcDbXrecord
340
0
  0
XRECORD
  5
3CB0
102
{ACAD_REACTORS
330
3C9E
102
}
330
3C9E
100
AcDbXrecord
 10
0.0
 20
0.0
 30
0.0
  0
XRECORD
  5
3CB1
102
{ACAD_REACTORS
330
3C9E
102
}
330
3C9E
100
AcDbXrecord
 10
0.0
 20
0.0
 30
0.0
  0
XRECORD
  5
3CB2
102
{ACAD_REACTORS
330
3C9E
102
}
330
3C9E
100
AcDbXrecord
 10
0.0
 20
0.0
 30
0.0
  0
XRECORD
  5
3CB3
102
{ACAD_REACTORS
330
3C9E
102
}
330
3C9E
100
AcDbXrecord
 10
0.0
 20
0.0
 30
0.0
  0
XRECORD
  5
3CB4
102
{ACAD_REACTORS
330
3C9E
102
}
330
3C9E
100
AcDbXrecord
 10
0.0
 20
0.0
 30
0.0
  0
XRECORD
  5
3CB5
102
{ACAD_REACTORS
330
3C9E
102
}
330
3C9E
100
AcDbXrecord
 10
0.0
 20
0.0
 30
0.0
  0
XRECORD
  5
3CB6
102
{ACAD_REACTORS
330
3C9E
102
}
330
3C9E
100
AcDbXrecord
340
0
  0
XRECORD
  5
3CB7
102
{ACAD_REACTORS
330
3C9E
102
}
330
3C9E
100
AcDbXrecord
 70
     0
  0
XRECORD
  5
3CB8
102
{ACAD_REACTORS
330
3C9E
102
}
330
3C9E
100
AcDbXrecord
340
0
  0
XRECORD
  5
3CB9
102
{ACAD_REACTORS
330
3C9E
102
}
330
3C9E
100
AcDbXrecord
 10
0.0
 20
0.0
 30
0.0
  0
XRECORD
  5
3CBA
102
{ACAD_REACTORS
330
3C9E
102
}
330
3C9E
100
AcDbXrecord
 10
0.0
 20
0.0
 30
0.0
  0
XRECORD
  5
3CBB
102
{ACAD_REACTORS
330
3C9E
102
}
330
3C9E
100
AcDbXrecord
 10
0.0
 20
0.0
 30
0.0
  0
XRECORD
  5
3CBC
102
{ACAD_REACTORS
330
3C9E
102
}
330
3C9E
100
AcDbXrecord
 10
0.0
 20
0.0
 30
0.0
  0
XRECORD
  5
3CBD
102
{ACAD_REACTORS
330
3C9E
102
}
330
3C9E
100
AcDbXrecord
 10
0.0
 20
0.0
 30
0.0
  0
XRECORD
  5
3CBE
102
{ACAD_REACTORS
330
3C9E
102
}
330
3C9E
100
AcDbXrecord
 10
0.0
 20
0.0
 30
0.0
  0
LAYER_INDEX
  5
3C95
102
{ACAD_REACTORS
330
3C94
102
}
330
3C94
100
AcDbIndex
 40
2452941.593143623
100
AcDbLayerIndex
  8
0
360
3C96
 90
        0
  8
AM_0
360
3C97
 90
       49
  8
AM_11
360
3C98
 90
        2
  8
AM_7
360
3C99
 90
        2
  8
AM_5
360
3C9A
 90
        9
  8
Defpoints
360
3C9B
 90
        0
  8
AM_6
360
3C9C
 90
        1
  0
XRECORD
  5
2D
102
{ACAD_REACTORS
330
2C
102
}
330
2C
100
AcDbXrecord
  1
VERSION
140
15.0
  1
PRODUCT
  2
AutoCAD Mechanical 2000
  0
IDBUFFER
  5
3C96
330
0
100
AcDbIdBuffer
  0
IDBUFFER
  5
3C97
330
0
100
AcDbIdBuffer
330
3858
330
1D74
330
1E3E
330
1E4A
330
1E52
330
1E5E
330
1E67
330
1E69
330
1E83
330
1E84
330
1E85
330
1E8B
330
1E97
330
1EBB
330
1F1F
330
1F29
330
1F2A
330
1F36
330
1F37
330
1F40
330
1FCC
330
20B1
330
20BF
330
20DB
330
20F6
330
2100
330
2104
330
210C
330
2114
330
2120
330
2121
330
2122
330
25D0
330
2692
330
2702
330
27FF
330
280B
330
2834
330
283C
330
283E
330
283F
330
2840
330
2841
330
2842
330
2844
330
2845
330
2869
330
2ACC
330
2F18
  0
IDBUFFER
  5
3C98
330
0
100
AcDbIdBuffer
330
2CB0
330
3855
  0
IDBUFFER
  5
3C99
330
0
100
AcDbIdBuffer
330
1F35
330
2123
  0
IDBUFFER
  5
3C9A
330
0
100
AcDbIdBuffer
330
28FE
330
2A35
330
2C21
330
2CBB
330
2F7C
330
3865
330
38F2
330
39FB
330
3A70
  0
IDBUFFER
  5
3C9B
330
0
100
AcDbIdBuffer
  0
IDBUFFER
  5
3C9C
330
0
100
AcDbIdBuffer
330
C58
  0
ENDSEC
  0
EOF
