  0
SECTION
  2
HEADER
  9
$ACADVER
  1
AC1014
  9
$ACADMAINTVER
 70
     9
  9
$DWGCODEPAGE
  3
ANSI_932
  9
$INSBASE
 10
0.0
 20
0.0
 30
0.0
  9
$EXTMIN
 10
-168.7
 20
-54.50000000000017
 30
0.0
  9
$EXTMAX
 10
75.47557267181225
 20
64.6634321571786
 30
0.0
  9
$LIMMIN
 10
-175.5608447104375
 20
-68.95254885163035
  9
$LIMMAX
 10
84.16552443200499
 20
75.07232360672901
  9
$ORTHOMODE
 70
     0
  9
$REGENMODE
 70
     1
  9
$FILLMODE
 70
     1
  9
$QTEXTMODE
 70
     0
  9
$MIRRTEXT
 70
     0
  9
$DRAGMODE
 70
     2
  9
$LTSCALE
 40
1.0
  9
$OSMODE
 70
  2103
  9
$ATTMODE
 70
     1
  9
$TEXTSIZE
 40
2.5
  9
$TRACEWID
 40
1.0
  9
$TEXTSTYLE
  7
STANDARD
  9
$CLAYER
  8
AM_0
  9
$CELTYPE
  6
BYLAYER
  9
$CECOLOR
 62
   256
  9
$CELTSCALE
 40
1.0
  9
$DELOBJ
 70
     1
  9
$DISPSILH
 70
     0
  9
$DIMSCALE
 40
1.0
  9
$DIMASZ
 40
2.5
  9
$DIMEXO
 40
1.0
  9
$DIMDLI
 40
12.0
  9
$DIMRND
 40
0.0
  9
$DIMDLE
 40
0.0
  9
$DIMEXE
 40
1.0
  9
$DIMTP
 40
0.1
  9
$DIMTM
 40
0.1
  9
$DIMTXT
 40
3.2
  9
$DIMCEN
 40
0.0
  9
$DIMTSZ
 40
0.0
  9
$DIMTOL
 70
     0
  9
$DIMLIM
 70
     0
  9
$DIMTIH
 70
     0
  9
$DIMTOH
 70
     0
  9
$DIMSE1
 70
     0
  9
$DIMSE2
 70
     0
  9
$DIMTAD
 70
     3
  9
$DIMZIN
 70
     8
  9
$DIMBLK
  1
OPEN30
  9
$DIMASO
 70
     1
  9
$DIMSHO
 70
     1
  9
$DIMPOST
  1

  9
$DIMAPOST
  1
"
  9
$DIMALT
 70
     0
  9
$DIMALTD
 70
     2
  9
$DIMALTF
 40
0.0393701
  9
$DIMLFAC
 40
1.0
  9
$DIMTOFL
 70
     1
  9
$DIMTVP
 40
0.0
  9
$DIMTIX
 70
     0
  9
$DIMSOXD
 70
     0
  9
$DIMSAH
 70
     0
  9
$DIMBLK1
  1

  9
$DIMBLK2
  1

  9
$DIMSTYLE
  2
AM_JIS
  9
$DIMCLRD
 70
     3
  9
$DIMCLRE
 70
     3
  9
$DIMCLRT
 70
     2
  9
$DIMTFAC
 40
0.71
  9
$DIMGAP
 40
1.5
  9
$DIMJUST
 70
     0
  9
$DIMSD1
 70
     0
  9
$DIMSD2
 70
     0
  9
$DIMTOLJ
 70
     0
  9
$DIMTZIN
 70
     0
  9
$DIMALTZ
 70
     0
  9
$DIMALTTZ
 70
     0
  9
$DIMFIT
 70
     3
  9
$DIMUPT
 70
     0
  9
$DIMUNIT
 70
     2
  9
$DIMDEC
 70
     3
  9
$DIMTDEC
 70
     3
  9
$DIMALTU
 70
     2
  9
$DIMALTTD
 70
     2
  9
$DIMTXSTY
  7
ASAMI
  9
$DIMAUNIT
 70
     0
  9
$LUNITS
 70
     2
  9
$LUPREC
 70
     2
  9
$SKETCHINC
 40
1.0
  9
$FILLETRAD
 40
1.0
  9
$AUNITS
 70
     0
  9
$AUPREC
 70
     0
  9
$MENU
  1
.
  9
$ELEVATION
 40
0.0
  9
$PELEVATION
 40
0.0
  9
$THICKNESS
 40
0.0
  9
$LIMCHECK
 70
     0
  9
$BLIPMODE
 70
     0
  9
$CHAMFERA
 40
2.5
  9
$CHAMFERB
 40
2.5
  9
$CHAMFERC
 40
20.0
  9
$CHAMFERD
 40
0.0
  9
$SKPOLY
 70
     0
  9
$TDCREATE
 40
2452838.620506898
  9
$TDUPDATE
 40
2452941.593227164
  9
$TDINDWG
 40
0.5873989699
  9
$TDUSRTIMER
 40
0.5873989699
  9
$USRTIMER
 70
     1
  9
$ANGBASE
 50
0.0
  9
$ANGDIR
 70
     0
  9
$PDMODE
 70
     0
  9
$PDSIZE
 40
0.0
  9
$PLINEWID
 40
0.0
  9
$COORDS
 70
     0
  9
$SPLFRAME
 70
     0
  9
$SPLINETYPE
 70
     6
  9
$SPLINESEGS
 70
     8
  9
$ATTDIA
 70
     1
  9
$ATTREQ
 70
     1
  9
$HANDLING
 70
 12289
  9
$HANDSEED
  5
4556
  9
$SURFTAB1
 70
     6
  9
$SURFTAB2
 70
     6
  9
$SURFTYPE
 70
     6
  9
$SURFU
 70
     6
  9
$SURFV
 70
     6
  9
$UCSNAME
  2

  9
$UCSORG
 10
0.0
 20
0.0
 30
0.0
  9
$UCSXDIR
 10
1.0
 20
0.0
 30
0.0
  9
$UCSYDIR
 10
0.0
 20
1.0
 30
0.0
  9
$PUCSNAME
  2

  9
$PUCSORG
 10
0.0
 20
0.0
 30
0.0
  9
$PUCSXDIR
 10
1.0
 20
0.0
 30
0.0
  9
$PUCSYDIR
 10
0.0
 20
1.0
 30
0.0
  9
$USERI1
 70
     0
  9
$USERI2
 70
     0
  9
$USERI3
 70
     0
  9
$USERI4
 70
     0
  9
$USERI5
 70
     0
  9
$USERR1
 40
0.0
  9
$USERR2
 40
0.0
  9
$USERR3
 40
0.0
  9
$USERR4
 40
0.0
  9
$USERR5
 40
0.0
  9
$WORLDVIEW
 70
     1
  9
$SHADEDGE
 70
     3
  9
$SHADEDIF
 70
    70
  9
$TILEMODE
 70
     1
  9
$MAXACTVP
 70
    64
  9
$PINSBASE
 10
0.0
 20
0.0
 30
0.0
  9
$PLIMCHECK
 70
     0
  9
$PEXTMIN
 10
1.000000000000000E+20
 20
1.000000000000000E+20
 30
1.000000000000000E+20
  9
$PEXTMAX
 10
-1.000000000000000E+20
 20
-1.000000000000000E+20
 30
-1.000000000000000E+20
  9
$PLIMMIN
 10
0.0
 20
0.0
  9
$PLIMMAX
 10
841.0
 20
594.0
  9
$UNITMODE
 70
     0
  9
$VISRETAIN
 70
     1
  9
$PLINEGEN
 70
     0
  9
$PSLTSCALE
 70
     0
  9
$TREEDEPTH
 70
  3020
  9
$PICKSTYLE
 70
     0
  9
$CMLSTYLE
  2
STANDARD
  9
$CMLJUST
 70
     0
  9
$CMLSCALE
 40
20.0
  9
$PROXYGRAPHICS
 70
     1
  9
$MEASUREMENT
 70
     1
  0
ENDSEC
  0
SECTION
  2
CLASSES
  0
CLASS
  1
ACDBDICTIONARYWDFLT
  2
AcDbDictionaryWithDefault
  3
AutoCAD 2000
 90
        0
280
     0
281
     0
  0
CLASS
  1
ACDBPLACEHOLDER
  2
AcDbPlaceHolder
  3
AutoCAD 2000
 90
        0
280
     0
281
     0
  0
CLASS
  1
LAYOUT
  2
AcDbLayout
  3
AutoCAD 2000
 90
        0
280
     0
281
     0
  0
CLASS
  1
AMGSETTINGSOBJ
  2
AmgSettingsObj
  3
"AcadM|Product Description: AutoCAD Mechanical 2000|Company: Autodesk"
 90
        0
280
     0
281
     0
  0
CLASS
  1
ACME_DOCUMENT
  2
AcMeDbDoc
  3
AcMeServices
 90
        0
280
     0
281
     0
  0
CLASS
  1
ACMESCOPE
  2
AcMeScope
  3
AcMeServices
 90
        0
280
     0
281
     0
  0
CLASS
  1
ACMECOMMANDHISTORY
  2
AcMeCommandHistory
  3
AcMeServices
 90
        0
280
     0
281
     0
  0
CLASS
  1
DICTIONARYVAR
  2
AcDbDictionaryVar
  3
AutoCAD 2000
 90
        0
280
     0
281
     0
  0
CLASS
  1
ACIMSYSVARMAN
  2
AcImSysVarManager
  3
AcMeServices
 90
        0
280
     0
281
     0
  0
CLASS
  1
ACIMREALSYSVAR
  2
AcImRealSysVar
  3
AcMeServices
 90
        0
280
     0
281
     0
  0
CLASS
  1
ACIMINTSYSVAR
  2
AcImIntSysVar
  3
AcMeServices
 90
        0
280
     0
281
     0
  0
CLASS
  1
ACMEDRAWINGMAN
  2
AcMeDrawingMan
  3
AcMeServices
 90
        0
280
     0
281
     0
  0
CLASS
  1
ACMEVIEW
  2
AcMeView
  3
AcMeServices
 90
        0
280
     0
281
     0
  0
CLASS
  1
ACDBENTITYCACHE
  2
AcMeEntityCache
  3
AcMeServices
 90
        0
280
     0
281
     0
  0
CLASS
  1
GSMANAGER
  2
AcMeGSManager
  3
AcMeServices
 90
        0
280
     0
281
     0
  0
CLASS
  1
AmdtInternalReactor
  2
AmdtInternalReactor
  3
AcMeServices
 90
        0
280
     0
281
     0
  0
CLASS
  1
ACMESTATEMGR
  2
AcMeStateMgr
  3
AcMeServices
 90
        0
280
     0
281
     0
  0
CLASS
  1
ACME_DATABASE
  2
AcMeDbDatabase
  3
AcMeServices
 90
        0
280
     0
281
     0
  0
CLASS
  1
ACRFINSADJUSTERMGR
  2
AcRfInsAdjusterMgr
  3
AcMeServices
 90
        0
280
     0
281
     0
  0
CLASS
  1
ACMDATADICTIONARY
  2
AcmDataDictionary
  3
"AcmSymBB|Product Description: AutoCAD Mechanical 2000|Company: Autodesk"
 90
        0
280
     0
281
     0
  0
CLASS
  1
ACMDATAENTRYBLOCK
  2
AcmDataEntryBlock
  3
"AcmSymBB|Product Description: AutoCAD Mechanical 2000|Company: Autodesk"
 90
        0
280
     0
281
     0
  0
CLASS
  1
AMGOBJPROPCFG
  2
AmgObjPropCfg
  3
"AmgLay|Product Description: AutoCAD Mechanical 2000|Company: Autodesk"
 90
        1
280
     0
281
     0
  0
CLASS
  1
ACAMGFILTERDAT
  2
AcAmgFilterDat
  3
"AcadM|Product Description: AutoCAD Mechanical 2000|Company: Autodesk"
 90
        0
280
     0
281
     0
  0
CLASS
  1
LAYER_INDEX
  2
AcDbLayerIndex
  3
AutoCAD 2000
 90
        0
280
     0
281
     0
  0
CLASS
  1
IDBUFFER
  2
AcDbIdBuffer
  3
AutoCAD 2000
 90
        0
280
     0
281
     0
  0
CLASS
  1
ACIMSTRSYSVAR
  2
AcImStrSysVar
  3
AcMeServices
 90
        0
280
     0
281
     0
  0
CLASS
  1
ACMSTANDARDJIS
  2
AcmStandardJIS
  3
"AcmSymBB|Product Description: AutoCAD Mechanical 2000|Company: Autodesk"
 90
        0
280
     0
281
     0
  0
CLASS
  1
ACMSURFSTANDARDJIS
  2
AcmSurfTextStdJIS
  3
"AcmSymBB|Product Description: AutoCAD Mechanical 2000|Company: Autodesk"
 90
        0
280
     0
281
     0
  0
CLASS
  1
ACMFCFSTANDARDJIS
  2
AcmFCFStdJIS
  3
"AcmSymBB|Product Description: AutoCAD Mechanical 2000|Company: Autodesk"
 90
        0
280
     0
281
     0
  0
CLASS
  1
ACMWELDSTANDARDJIS
  2
AcmWeldingStdJIS
  3
"AcmSymBB|Product Description: AutoCAD Mechanical 2000|Company: Autodesk"
 90
        0
280
     0
281
     0
  0
CLASS
  1
ACMIDSTANDARDJIS
  2
AcmIdStdJIS
  3
"AcmSymBB|Product Description: AutoCAD Mechanical 2000|Company: Autodesk"
 90
        0
280
     0
281
     0
  0
CLASS
  1
ACMDATUMSTANDARDJIS
  2
AcmDatumStdJIS
  3
"AcmSymBB|Product Description: AutoCAD Mechanical 2000|Company: Autodesk"
 90
        0
280
     0
281
     0
  0
CLASS
  1
ACMBOMSTANDARDJIS
  2
AcmBOMStdJIS
  3
"AcmSymBB|Product Description: AutoCAD Mechanical 2000|Company: Autodesk"
 90
        0
280
     0
281
     0
  0
CLASS
  1
ACMSTANDARDANSI
  2
AcmStandardANSI
  3
"AcmSymBB|Product Description: AutoCAD Mechanical 2000|Company: Autodesk"
 90
        0
280
     0
281
     0
  0
CLASS
  1
ACMSURFSTANDARDANSI
  2
AcmSurfTextStdANSI
  3
"AcmSymBB|Product Description: AutoCAD Mechanical 2000|Company: Autodesk"
 90
        0
280
     0
281
     0
  0
CLASS
  1
ACMFCFSTANDARDANSI
  2
AcmFCFStdANSI
  3
"AcmSymBB|Product Description: AutoCAD Mechanical 2000|Company: Autodesk"
 90
        0
280
     0
281
     0
  0
CLASS
  1
ACMWELDSTANDARDANSI
  2
AcmWeldingStdANSI
  3
"AcmSymBB|Product Description: AutoCAD Mechanical 2000|Company: Autodesk"
 90
        0
280
     0
281
     0
  0
CLASS
  1
ACMIDSTANDARDANSI
  2
AcmIdStdANSI
  3
"AcmSymBB|Product Description: AutoCAD Mechanical 2000|Company: Autodesk"
 90
        0
280
     0
281
     0
  0
CLASS
  1
ACMDATUMSTANDARDANSI
  2
AcmDatumStdANSI
  3
"AcmSymBB|Product Description: AutoCAD Mechanical 2000|Company: Autodesk"
 90
        0
280
     0
281
     0
  0
CLASS
  1
ACMBOMSTANDARDANSI
  2
AcmBOMStdANSI
  3
"AcmSymBB|Product Description: AutoCAD Mechanical 2000|Company: Autodesk"
 90
        0
280
     0
281
     0
  0
CLASS
  1
ACMSTANDARDBSI
  2
AcmStandardBSI
  3
"AcmSymBB|Product Description: AutoCAD Mechanical 2000|Company: Autodesk"
 90
        0
280
     0
281
     0
  0
CLASS
  1
ACMSURFSTANDARDBSI
  2
AcmSurfTextStdBSI
  3
"AcmSymBB|Product Description: AutoCAD Mechanical 2000|Company: Autodesk"
 90
        0
280
     0
281
     0
  0
CLASS
  1
ACMFCFSTANDARDBSI
  2
AcmFCFStdBSI
  3
"AcmSymBB|Product Description: AutoCAD Mechanical 2000|Company: Autodesk"
 90
        0
280
     0
281
     0
  0
CLASS
  1
ACMWELDSTANDARDBSI
  2
AcmWeldingStdBSI
  3
"AcmSymBB|Product Description: AutoCAD Mechanical 2000|Company: Autodesk"
 90
        0
280
     0
281
     0
  0
CLASS
  1
ACMIDSTANDARDBSI
  2
AcmIdStdBSI
  3
"AcmSymBB|Product Description: AutoCAD Mechanical 2000|Company: Autodesk"
 90
        0
280
     0
281
     0
  0
CLASS
  1
ACMDATUMSTANDARDBSI
  2
AcmDatumStdBSI
  3
"AcmSymBB|Product Description: AutoCAD Mechanical 2000|Company: Autodesk"
 90
        0
280
     0
281
     0
  0
CLASS
  1
ACMBOMSTANDARDBSI
  2
AcmBOMStdBSI
  3
"AcmSymBB|Product Description: AutoCAD Mechanical 2000|Company: Autodesk"
 90
        0
280
     0
281
     0
  0
CLASS
  1
LONG_TRANSACTION
  2
AcDbLongTransaction
  3
AutoCAD 2000
 90
        0
280
     0
281
     0
  0
CLASS
  1
LWPOLYLINE
  2
AcDbPolyline
  3
AutoCAD 2000
 90
        0
280
     0
281
     1
  0
CLASS
  1
HATCH
  2
AcDbHatch
  3
AutoCAD 2000
 90
        0
280
     0
281
     1
  0
CLASS
  1
XRECORD
  2
AcDbXrecord
  3
AutoCAD 2000
 90
        0
280
     0
281
     0
  0
ENDSEC
  0
SECTION
  2
TABLES
  0
TABLE
  2
VPORT
  5
8
330
0
100
AcDbSymbolTable
 70
     3
  0
VPORT
  5
452B
330
8
100
AcDbSymbolTableRecord
100
AcDbViewportTableRecord
  2
*ACTIVE
 70
     0
 10
0.0
 20
0.0
 11
1.0
 21
1.0
 12
-46.61899139823034
 22
5.081391671353756
 13
0.0
 23
0.0
 14
2.5
 24
2.5
 15
10.0
 25
10.0
 16
0.0
 26
0.0
 36
1.0
 17
0.0
 27
0.0
 37
0.0
 40
156.6420390838451
 41
1.56570841889117
 42
50.0
 43
0.0
 44
0.0
 50
0.0
 51
0.0
 71
     0
 72
   100
 73
     1
 74
     2
 75
     0
 76
     0
 77
     0
 78
     0
  0
ENDTAB
  0
TABLE
  2
LTYPE
  5
5
330
0
100
AcDbSymbolTable
 70
    10
  0
LTYPE
  5
14
330
5
100
AcDbSymbolTableRecord
100
AcDbLinetypeTableRecord
  2
BYBLOCK
 70
     0
  3

 72
    65
 73
     0
 40
0.0
  0
LTYPE
  5
15
330
5
100
AcDbSymbolTableRecord
100
AcDbLinetypeTableRecord
  2
BYLAYER
 70
     0
  3

 72
    65
 73
     0
 40
0.0
  0
LTYPE
  5
16
330
5
100
AcDbSymbolTableRecord
100
AcDbLinetypeTableRecord
  2
CONTINUOUS
 70
     0
  3
Solid line
 72
    65
 73
     0
 40
0.0
  0
LTYPE
  5
4B
330
5
100
AcDbSymbolTableRecord
100
AcDbLinetypeTableRecord
  2
AM_ISO02W050
 70
     0
  3
__ __ __ __ __ __ __ __ __ __ __ __ __ __ __
 72
    65
 73
     2
 40
7.5
 49
6.0
 74
     0
 49
-1.5
 74
     0
  0
LTYPE
  5
4C
330
5
100
AcDbSymbolTableRecord
100
AcDbLinetypeTableRecord
  2
AM_ISO08W050
 70
     0
  3
____ . ____ . ____ . ____ . ____ . ____ . ____
 72
    65
 73
     4
 40
18.0
 49
12.0
 74
     0
 49
-1.5
 74
     0
 49
3.0
 74
     0
 49
-1.5
 74
     0
  0
LTYPE
  5
4D
330
5
100
AcDbSymbolTableRecord
100
AcDbLinetypeTableRecord
  2
AM_ISO09W050
 70
     0
  3
_____ . . _____ . . _____ . . ____ .. ____
 72
    65
 73
     6
 40
22.5
 49
12.0
 74
     0
 49
-1.5
 74
     0
 49
3.0
 74
     0
 49
-1.5
 74
     0
 49
3.0
 74
     0
 49
-1.5
 74
     0
  0
LTYPE
  5
4E
330
5
100
AcDbSymbolTableRecord
100
AcDbLinetypeTableRecord
  2
AMCONSTR
 70
     0
  3
_______________________
 72
    65
 73
     2
 40
9999.0
 49
9999.0
 74
     0
 49
0.0
 74
     0
  0
LTYPE
  5
4F
330
5
100
AcDbSymbolTableRecord
100
AcDbLinetypeTableRecord
  2
AM_ISO02W050X2
 70
     0
  3
 _ _ _ _ _ _ _ _ _ _ _ _
 72
    65
 73
     2
 40
3.75
 49
3.0
 74
     0
 49
-0.75
 74
     0
  0
LTYPE
  5
50
330
5
100
AcDbSymbolTableRecord
100
AcDbLinetypeTableRecord
  2
AM_ISO08W050X2
 70
     0
  3
__ . __ . __ . __ . __ . __
 72
    65
 73
     4
 40
9.0
 49
6.0
 74
     0
 49
-0.75
 74
     0
 49
1.5
 74
     0
 49
-0.75
 74
     0
  0
LTYPE
  5
53
330
5
100
AcDbSymbolTableRecord
100
AcDbLinetypeTableRecord
  2
AMZIGZAG
 70
     0
  3
/\/-/\/-/\/-/\/-/\/-/\/
 72
    65
 73
     2
 40
11.00009999999999
 49
0.0001
 74
     4
 75
   135
340
52
 46
0.04
 50
0.0
 44
0.0
 45
0.0
 49
-11.0
 74
     0
  0
LTYPE
  5
166
330
5
100
AcDbSymbolTableRecord
100
AcDbLinetypeTableRecord
  2
ACJISTGL
 70
     0
  3
_ _ _ _ _
 72
    65
 73
     2
 40
3.0
 49
2.0
 74
     0
 49
-1.0
 74
     0
  0
LTYPE
  5
26A
330
5
100
AcDbSymbolTableRecord
100
AcDbLinetypeTableRecord
  2
ACJISTGB
 70
     0
  3
__ . . __ . .
 72
    65
 73
     6
 40
9.0
 49
4.0
 74
     0
 49
-1.0
 74
     0
 49
1.0
 74
     0
 49
-1.0
 74
     0
 49
1.0
 74
     0
 49
-1.0
 74
     0
  0
ENDTAB
  0
TABLE
  2
LAYER
  5
2
330
0
100
AcDbSymbolTable
 70
     7
  0
LAYER
  5
10
330
2
100
AcDbSymbolTableRecord
100
AcDbLayerTableRecord
  2
0
 70
     0
 62
     7
  6
CONTINUOUS
  0
LAYER
  5
3F9
330
2
100
AcDbSymbolTableRecord
100
AcDbLayerTableRecord
  2
AM_0
 70
     0
 62
     7
  6
CONTINUOUS
  0
LAYER
  5
BD6
330
2
100
AcDbSymbolTableRecord
100
AcDbLayerTableRecord
  2
AM_11
 70
     0
 62
     3
  6
AM_ISO09W050
  0
LAYER
  5
BD7
330
2
100
AcDbSymbolTableRecord
100
AcDbLayerTableRecord
  2
AM_7
 70
     0
 62
     4
  6
AM_ISO08W050
  0
LAYER
  5
BD8
330
2
100
AcDbSymbolTableRecord
100
AcDbLayerTableRecord
  2
AM_5
 70
     0
 62
     3
  6
CONTINUOUS
  0
LAYER
  5
BD9
330
2
100
AcDbSymbolTableRecord
100
AcDbLayerTableRecord
  2
DEFPOINTS
 70
     0
 62
     7
  6
CONTINUOUS
  0
LAYER
  5
BDA
330
2
100
AcDbSymbolTableRecord
100
AcDbLayerTableRecord
  2
AM_6
 70
     0
 62
     2
  6
CONTINUOUS
  0
ENDTAB
  0
TABLE
  2
STYLE
  5
3
330
0
100
AcDbSymbolTable
 70
     5
  0
STYLE
  5
11
330
3
100
AcDbSymbolTableRecord
100
AcDbTextStyleTableRecord
  2
STANDARD
 70
     0
 40
0.0
 41
1.0
 50
0.0
 71
     0
 42
2.5
  3
simplex.shx
  4
EXTFONT.SHX
  0
STYLE
  5
52
330
3
100
AcDbSymbolTableRecord
100
AcDbTextStyleTableRecord
  2

 70
     1
 40
0.0
 41
1.0
 50
0.0
 71
     0
 42
2.5
  3
ltypeshp.shx
  4

  0
STYLE
  5
6B
330
3
100
AcDbSymbolTableRecord
100
AcDbTextStyleTableRecord
  2
ASAMI
 70
     0
 40
0.0
 41
1.0
 50
0.0
 71
     0
 42
2.5
  3
simplex.shx
  4
EXTFONT.SHX
  0
STYLE
  5
262
330
3
100
AcDbSymbolTableRecord
100
AcDbTextStyleTableRecord
  2
ACJISTS
 70
     0
 40
1.0
 41
1.0
 50
0.0
 71
     0
 42
2.5
  3
simplex.shx
  4
bigfont.shx
  0
STYLE
  5
269
330
3
100
AcDbSymbolTableRecord
100
AcDbTextStyleTableRecord
  2
ACJISGDT
 70
     0
 40
0.0
 41
1.0
 50
0.0
 71
     0
 42
2.5
  3
amgdtans.shx
  4

  0
ENDTAB
  0
TABLE
  2
VIEW
  5
6
330
0
100
AcDbSymbolTable
 70
     0
  0
ENDTAB
  0
TABLE
  2
UCS
  5
7
330
0
100
AcDbSymbolTable
 70
     0
  0
ENDTAB
  0
TABLE
  2
APPID
  5
9
330
0
100
AcDbSymbolTable
 70
    13
  0
APPID
  5
12
330
9
100
AcDbSymbolTableRecord
100
AcDbRegAppTableRecord
  2
ACAD
 70
     0
  0
APPID
  5
30
330
9
100
AcDbSymbolTableRecord
100
AcDbRegAppTableRecord
  2
MCAD_NO_VIS
 70
     0
  0
APPID
  5
31
330
9
100
AcDbSymbolTableRecord
100
AcDbRegAppTableRecord
  2
ACAD_TEMP_GRAPHIC
 70
     0
  0
APPID
  5
2C2
330
9
100
AcDbSymbolTableRecord
100
AcDbRegAppTableRecord
  2
GENIUS_GENDTOL_13
 70
     0
  0
APPID
  5
339
330
9
100
AcDbSymbolTableRecord
100
AcDbRegAppTableRecord
  2
GENIUS_GENODEF_13
 70
     0
  0
APPID
  5
33A
330
9
100
AcDbSymbolTableRecord
100
AcDbRegAppTableRecord
  2
GENIUS_GENOBJ-N-RSBK_13
 70
     0
  0
APPID
  5
33B
330
9
100
AcDbSymbolTableRecord
100
AcDbRegAppTableRecord
  2
GENIUS_GENOBJ-N-LIB_13
 70
     0
  0
APPID
  5
33C
330
9
100
AcDbSymbolTableRecord
100
AcDbRegAppTableRecord
  2
GENIUS_GENSCALE_13
 70
     0
  0
APPID
  5
378
330
9
100
AcDbSymbolTableRecord
100
AcDbRegAppTableRecord
  2
GENIUS_GENDIMSH_14
 70
     0
  0
APPID
  5
BDB
330
9
100
AcDbSymbolTableRecord
100
AcDbRegAppTableRecord
  2
GENIUS_GENOBJ-N-CEN_13
 70
     0
  0
APPID
  5
BDC
330
9
100
AcDbSymbolTableRecord
100
AcDbRegAppTableRecord
  2
GENIUS_GENFIL_13
 70
     0
  0
APPID
  5
BDD
330
9
100
AcDbSymbolTableRecord
100
AcDbRegAppTableRecord
  2
GENIUS_GENOBJ-N-FIL_13
 70
     0
  0
APPID
  5
12AD
330
9
100
AcDbSymbolTableRecord
100
AcDbRegAppTableRecord
  2
GENIUS_GENOREF_13
 70
     0
  0
ENDTAB
  0
TABLE
  2
DIMSTYLE
  5
A
330
0
100
AcDbSymbolTable
 70
     8
  0
DIMSTYLE
105
58
102
{ACAD_REACTORS
330
28FE
330
2A35
330
2C21
330
2F7C
330
40AB
330
445F
102
}
330
A
100
AcDbSymbolTableRecord
100
AcDbDimStyleTableRecord
  2
AM_JIS
 70
     0
  3

  4
"
  5
OPEN30
  6

  7

 40
1.0
 41
2.5
 42
1.0
 43
12.0
 44
1.0
 45
0.0
 46
0.0
 47
0.1
 48
0.1
140
3.2
141
0.0
142
0.0
143
0.0393701
144
1.0
145
0.0
146
0.71
147
1.5
 71
     0
 72
     0
 73
     0
 74
     0
 75
     0
 76
     0
 77
     3
 78
     8
170
     0
171
     2
172
     1
173
     0
174
     0
175
     0
176
     3
177
     3
178
     2
270
     2
271
     3
272
     3
273
     2
274
     2
340
6B
275
     0
280
     0
281
     0
282
     0
283
     0
284
     0
285
     0
286
     0
287
     3
288
     0
  0
DIMSTYLE
105
5F
330
A
100
AcDbSymbolTableRecord
100
AcDbDimStyleTableRecord
  2
AM_JIS$3
 70
     0
  3

  4
"
  5
OPEN30
  6

  7

 40
1.0
 41
2.5
 42
1.0
 43
10.0
 44
1.0
 45
0.0
 46
0.0
 47
0.1
 48
0.1
140
3.2
141
0.0
142
0.0
143
0.0393701
144
1.0
145
0.0
146
0.71
147
1.5
 71
     0
 72
     0
 73
     0
 74
     1
 75
     0
 76
     0
 77
     3
 78
     8
170
     0
171
     2
172
     0
173
     0
174
     0
175
     0
176
     3
177
     3
178
     2
270
     2
271
     2
272
     3
273
     2
274
     2
340
6B
275
     0
280
     0
281
     0
282
     0
283
     0
284
     0
285
     0
286
     0
287
     0
288
     1
  0
DIMSTYLE
105
60
330
A
100
AcDbSymbolTableRecord
100
AcDbDimStyleTableRecord
  2
AM_JIS$4
 70
     0
  3

  4
"
  5
OPEN30
  6

  7

 40
1.0
 41
2.5
 42
1.0
 43
10.0
 44
1.0
 45
0.0
 46
0.0
 47
0.1
 48
0.1
140
3.2
141
0.0
142
0.0
143
0.0393701
144
1.0
145
0.0
146
0.71
147
1.5
 71
     0
 72
     0
 73
     0
 74
     1
 75
     0
 76
     0
 77
     3
 78
     8
170
     0
171
     2
172
     0
173
     0
174
     0
175
     0
176
     3
177
     3
178
     2
270
     2
271
     2
272
     3
273
     2
274
     2
340
6B
275
     0
280
     0
281
     0
282
     0
283
     0
284
     0
285
     0
286
     0
287
     0
288
     1
  0
DIMSTYLE
105
61
330
A
100
AcDbSymbolTableRecord
100
AcDbDimStyleTableRecord
  2
AM_JIS$6
 70
     0
  3

  4
"
  5
OPEN30
  6

  7

 40
1.0
 41
2.5
 42
1.0
 43
10.0
 44
1.0
 45
0.0
 46
0.0
 47
0.1
 48
0.1
140
3.2
141
0.0
142
0.0
143
0.0393701
144
1.0
145
0.0
146
0.71
147
1.5
 71
     0
 72
     0
 73
     0
 74
     0
 75
     0
 76
     0
 77
     0
 78
     8
170
     0
171
     2
172
     1
173
     0
174
     0
175
     0
176
     3
177
     3
178
     2
270
     2
271
     2
272
     2
273
     2
274
     2
340
6B
275
     0
280
     0
281
     0
282
     0
283
     0
284
     0
285
     0
286
     0
287
     3
288
     0
  0
DIMSTYLE
105
62
330
A
100
AcDbSymbolTableRecord
100
AcDbDimStyleTableRecord
  2
AM_JIS$7
 70
     0
  3

  4
"
  5
OPEN30
  6

  7

 40
1.0
 41
2.5
 42
1.0
 43
10.0
 44
1.0
 45
0.0
 46
0.0
 47
0.1
 48
0.1
140
3.2
141
0.0
142
0.0
143
0.0393701
144
1.0
145
0.0
146
0.71
147
1.5
 71
     0
 72
     0
 73
     0
 74
     0
 75
     0
 76
     0
 77
     3
 78
     8
170
     0
171
     2
172
     1
173
     0
174
     0
175
     0
176
     3
177
     3
178
     2
270
     2
271
     2
272
     3
273
     2
274
     2
340
6B
275
     0
280
     0
281
     0
282
     0
283
     0
284
     0
285
     0
286
     0
287
     3
288
     0
  0
DIMSTYLE
105
63
330
A
100
AcDbSymbolTableRecord
100
AcDbDimStyleTableRecord
  2
AM_JIS$SF
 70
     0
  3

  4
"
  5
OPEN30
  6

  7

 40
1.0
 41
2.5
 42
1.0
 43
10.0
 44
1.0
 45
0.0
 46
0.0
 47
0.1
 48
0.1
140
3.2
141
0.0
142
0.0
143
0.0393701
144
1.0
145
0.0
146
0.71
147
1.5
 71
     0
 72
     0
 73
     0
 74
     0
 75
     1
 76
     1
 77
     3
 78
     8
170
     0
171
     2
172
     1
173
     0
174
     0
175
     0
176
   256
177
   256
178
     2
270
     2
271
     2
272
     2
273
     2
274
     2
340
6B
275
     0
280
     0
281
     0
282
     0
283
     0
284
     0
285
     0
286
     0
287
     3
288
     0
  0
DIMSTYLE
105
68
330
A
100
AcDbSymbolTableRecord
100
AcDbDimStyleTableRecord
  2
AM_JIS$SH
 70
     0
  3

  4
"
  5

  6
GENAXEH
  7
OPEN30
 40
1.0
 41
2.5
 42
1.0
 43
10.0
 44
1.0
 45
0.0
 46
0.0
 47
0.1
 48
0.1
140
3.2
141
0.0
142
0.0
143
0.0393701
144
2.0
145
0.0
146
0.71
147
1.5
 71
     0
 72
     0
 73
     0
 74
     0
 75
     1
 76
     1
 77
     3
 78
     8
170
     0
171
     2
172
     1
173
     1
174
     0
175
     0
176
   256
177
   256
178
     2
270
     2
271
     2
272
     2
273
     2
274
     2
340
6B
275
     0
280
     0
281
     0
282
     0
283
     0
284
     0
285
     0
286
     0
287
     3
288
     0
  0
DIMSTYLE
105
B34
102
{ACAD_REACTORS
330
2CBB
330
413F
330
425D
102
}
330
A
100
AcDbSymbolTableRecord
100
AcDbDimStyleTableRecord
  2
AM_JIS$2
 70
     0
  3

  4
"
  5
OPEN30
  6

  7

 40
1.0
 41
2.5
 42
1.0
 43
12.0
 44
1.0
 45
0.0
 46
0.0
 47
0.1
 48
0.1
140
3.2
141
0.0
142
0.0
143
0.0393701
144
1.0
145
0.0
146
0.71
147
1.5
 71
     0
 72
     0
 73
     0
 74
     0
 75
     0
 76
     0
 77
     3
 78
     8
170
     0
171
     2
172
     1
173
     0
174
     0
175
     0
176
     3
177
     3
178
     2
270
     2
271
     3
272
     3
273
     2
274
     2
340
6B
275
     0
280
     0
281
     0
282
     0
283
     0
284
     0
285
     0
286
     0
287
     3
288
     0
  0
ENDTAB
  0
TABLE
  2
BLOCK_RECORD
  5
1
330
0
100
AcDbSymbolTable
 70
    14
  0
BLOCK_RECORD
  5
1F
102
{ACAD_XDICTIONARY
360
74
102
}
330
1
100
AcDbSymbolTableRecord
100
AcDbBlockTableRecord
  2
*MODEL_SPACE
  0
BLOCK_RECORD
  5
101
102
{ACAD_XDICTIONARY
360
4554
102
}
330
1
100
AcDbSymbolTableRecord
100
AcDbBlockTableRecord
  2
*PAPER_SPACE
  0
BLOCK_RECORD
  5
59
330
1
100
AcDbSymbolTableRecord
100
AcDbBlockTableRecord
  2
_OPEN30
  0
BLOCK_RECORD
  5
64
330
1
100
AcDbSymbolTableRecord
100
AcDbBlockTableRecord
  2
GENAXEH
  0
BLOCK_RECORD
  5
28FF
330
1
100
AcDbSymbolTableRecord
100
AcDbBlockTableRecord
  2
*D5
  0
BLOCK_RECORD
  5
2A36
330
1
100
AcDbSymbolTableRecord
100
AcDbBlockTableRecord
  2
*D6
  0
BLOCK_RECORD
  5
2C22
330
1
100
AcDbSymbolTableRecord
100
AcDbBlockTableRecord
  2
*D7
  0
BLOCK_RECORD
  5
2CBC
330
1
100
AcDbSymbolTableRecord
100
AcDbBlockTableRecord
  2
*D8
  0
BLOCK_RECORD
  5
2F7D
330
1
100
AcDbSymbolTableRecord
100
AcDbBlockTableRecord
  2
*D9
  0
BLOCK_RECORD
  5
40AC
330
1
100
AcDbSymbolTableRecord
100
AcDbBlockTableRecord
  2
*D10
  0
BLOCK_RECORD
  5
4140
330
1
100
AcDbSymbolTableRecord
100
AcDbBlockTableRecord
  2
*D11
  0
BLOCK_RECORD
  5
425E
330
1
100
AcDbSymbolTableRecord
100
AcDbBlockTableRecord
  2
*D12
  0
BLOCK_RECORD
  5
4460
330
1
100
AcDbSymbolTableRecord
100
AcDbBlockTableRecord
  2
*D13
  0
ENDTAB
  0
ENDSEC
  0
SECTION
  2
BLOCKS
  0
BLOCK
  5
20
330
1F
100
AcDbEntity
  8
0
100
AcDbBlockBegin
  2
*MODEL_SPACE
 70
     0
 10
0.0
 20
0.0
 30
0.0
  3
*MODEL_SPACE
  1

  0
ENDBLK
  5
21
330
1F
100
AcDbEntity
  8
0
100
AcDbBlockEnd
  0
BLOCK
  5
103
330
101
100
AcDbEntity
 67
     1
  8
0
100
AcDbBlockBegin
  2
*PAPER_SPACE
 70
     0
 10
0.0
 20
0.0
 30
0.0
  3
*PAPER_SPACE
  1

  0
ENDBLK
  5
104
330
101
100
AcDbEntity
 67
     1
  8
0
100
AcDbBlockEnd
  0
BLOCK
  5
5D
330
59
100
AcDbEntity
  8
0
100
AcDbBlockBegin
  2
_OPEN30
 70
     0
 10
0.0
 20
0.0
 30
0.0
  3
_OPEN30
  1

  0
LINE
  5
5A
330
59
100
AcDbEntity
  8
0
 62
     0
100
AcDbLine
 10
-1.0
 20
0.26794919
 30
0.0
 11
0.0
 21
0.0
 31
0.0
  0
LINE
  5
5B
330
59
100
AcDbEntity
  8
0
 62
     0
100
AcDbLine
 10
0.0
 20
0.0
 30
0.0
 11
-1.0
 21
-0.26794919
 31
0.0
  0
LINE
  5
5C
330
59
100
AcDbEntity
  8
0
 62
     0
100
AcDbLine
 10
0.0
 20
0.0
 30
0.0
 11
-1.0
 21
0.0
 31
0.0
  0
ENDBLK
  5
5E
330
59
100
AcDbEntity
  8
0
100
AcDbBlockEnd
  0
BLOCK
  5
66
330
64
100
AcDbEntity
  8
0
100
AcDbBlockBegin
  2
GENAXEH
 70
     0
 10
0.0
 20
0.0
 30
0.0
  3
GENAXEH
  1

  0
LINE
  5
65
330
64
100
AcDbEntity
  8
0
100
AcDbLine
 10
-1.0
 20
0.0
 30
0.0
 11
1.0
 21
0.0
 31
0.0
  0
ENDBLK
  5
67
330
64
100
AcDbEntity
  8
0
100
AcDbBlockEnd
  0
BLOCK
  5
2909
330
28FF
100
AcDbEntity
  8
0
100
AcDbBlockBegin
  2
*D5
 70
     1
 10
0.0
 20
0.0
 30
0.0
  3
*D5
  1

  0
LINE
  5
440B
330
28FF
100
AcDbEntity
  8
AM_5
 62
     3
100
AcDbLine
 10
-151.0000000000001
 20
58.31308121984072
 30
0.0
 11
-165.0
 21
58.31308121984072
 31
0.0
  0
LINE
  5
440C
330
28FF
100
AcDbEntity
  8
AM_5
 62
     3
100
AcDbLine
 10
-151.0
 20
33.31308121984072
 30
0.0
 11
-165.0
 21
33.31308121984072
 31
0.0
  0
LINE
  5
440D
330
28FF
100
AcDbEntity
  8
AM_5
 62
     3
100
AcDbLine
 10
-164.0
 20
55.81308121984072
 30
0.0
 11
-164.0
 21
35.81308121984072
 31
0.0
  0
INSERT
  5
440E
330
28FF
100
AcDbEntity
  8
AM_5
 62
     3
100
AcDbBlockReference
  2
_OPEN30
 10
-164.0
 20
58.31308121984072
 30
0.0
 41
2.5
 42
2.5
 43
2.5
 50
90.0
  0
INSERT
  5
440F
330
28FF
100
AcDbEntity
  8
AM_5
 62
     3
100
AcDbBlockReference
  2
_OPEN30
 10
-164.0
 20
33.31308121984072
 30
0.0
 41
2.5
 42
2.5
 43
2.5
 50
270.0
  0
MTEXT
  5
4410
330
28FF
100
AcDbEntity
  8
AM_5
 62
     2
100
AcDbMText
 10
-167.1
 20
45.81308121984069
 30
0.0
 40
3.2
 41
0.0
 71
     5
 72
     1
  1
25
  7
ASAMI
 11
0.0000000000000001
 21
1.0
 31
0.0
1001
ACAD
1000
MTEXTBEGIN
1070
    73
1070
     1
1070
    44
1040
1.0
1070
    74
1070
     0
1000
MTEXTEND
  0
POINT
  5
4411
330
28FF
100
AcDbEntity
  8
DEFPOINTS
 62
     0
100
AcDbPoint
 10
-150.0000000000001
 20
58.31308121984072
 30
0.0
  0
POINT
  5
4412
330
28FF
100
AcDbEntity
  8
DEFPOINTS
 62
     0
100
AcDbPoint
 10
-150.0
 20
33.31308121984072
 30
0.0
  0
POINT
  5
4413
330
28FF
100
AcDbEntity
  8
DEFPOINTS
 62
     0
100
AcDbPoint
 10
-164.0
 20
33.31308121984072
 30
0.0
  0
ENDBLK
  5
290A
330
28FF
100
AcDbEntity
  8
0
100
AcDbBlockEnd
  0
BLOCK
  5
2A40
330
2A36
100
AcDbEntity
  8
0
100
AcDbBlockBegin
  2
*D6
 70
     1
 10
0.0
 20
0.0
 30
0.0
  3
*D6
  1

  0
LINE
  5
4444
330
2A36
100
AcDbEntity
  8
AM_5
 62
     3
100
AcDbLine
 10
-0.7121277557132428
 20
58.31308121984107
 30
0.0
 11
25.01220083839288
 21
58.31308121984106
 31
0.0
  0
LINE
  5
4445
330
2A36
100
AcDbEntity
  8
AM_5
 62
     3
100
AcDbLine
 10
0.9999999999999243
 20
33.81308121984107
 30
0.0
 11
25.01220083839287
 21
33.81308121984106
 31
0.0
  0
LINE
  5
4446
330
2A36
100
AcDbEntity
  8
AM_5
 62
     3
100
AcDbLine
 10
24.01220083839287
 20
55.81308121984106
 30
0.0
 11
24.01220083839287
 21
36.31308121984106
 31
0.0
  0
INSERT
  5
4447
330
2A36
100
AcDbEntity
  8
AM_5
 62
     3
100
AcDbBlockReference
  2
_OPEN30
 10
24.01220083839288
 20
58.31308121984106
 30
0.0
 41
2.5
 42
2.5
 43
2.5
 50
90.0
  0
INSERT
  5
4448
330
2A36
100
AcDbEntity
  8
AM_5
 62
     3
100
AcDbBlockReference
  2
_OPEN30
 10
24.01220083839287
 20
33.81308121984106
 30
0.0
 41
2.5
 42
2.5
 43
2.5
 50
270.0
  0
MTEXT
  5
4449
330
2A36
100
AcDbEntity
  8
AM_5
 62
     2
100
AcDbMText
 10
20.91220083839286
 20
46.06308121984106
 30
0.0
 40
3.2
 41
0.0
 71
     5
 72
     1
  1
24.5
  7
ASAMI
 11
0.0000000000000001
 21
1.0
 31
0.0
1001
ACAD
1000
MTEXTBEGIN
1070
    73
1070
     1
1070
    44
1040
1.0
1070
    74
1070
     0
1000
MTEXTEND
  0
POINT
  5
444A
330
2A36
100
AcDbEntity
  8
DEFPOINTS
 62
     0
100
AcDbPoint
 10
-1.712127755713242
 20
58.31308121984107
 30
0.0
  0
POINT
  5
444B
330
2A36
100
AcDbEntity
  8
DEFPOINTS
 62
     0
100
AcDbPoint
 10
-0.0000000000000757
 20
33.81308121984107
 30
0.0
  0
POINT
  5
444C
330
2A36
100
AcDbEntity
  8
DEFPOINTS
 62
     0
100
AcDbPoint
 10
24.01220083839287
 20
33.81308121984106
 30
0.0
  0
ENDBLK
  5
2A41
330
2A36
100
AcDbEntity
  8
0
100
AcDbBlockEnd
  0
BLOCK
  5
2C2C
330
2C22
100
AcDbEntity
  8
0
100
AcDbBlockBegin
  2
*D7
 70
     1
 10
0.0
 20
0.0
 30
0.0
  3
*D7
  1

  0
LINE
  5
4402
330
2C22
100
AcDbEntity
  8
AM_5
 62
     3
100
AcDbLine
 10
-151.0
 20
-7.000000000000319
 30
0.0
 11
-164.9999999999999
 21
-7.000000000000316
 31
0.0
  0
LINE
  5
4403
330
2C22
100
AcDbEntity
  8
AM_5
 62
     3
100
AcDbLine
 10
-150.9999999999999
 20
-32.00000000000033
 30
0.0
 11
-164.9999999999999
 21
-32.00000000000033
 31
0.0
  0
LINE
  5
4404
330
2C22
100
AcDbEntity
  8
AM_5
 62
     3
100
AcDbLine
 10
-163.9999999999999
 20
-9.500000000000316
 30
0.0
 11
-163.9999999999999
 21
-29.50000000000033
 31
0.0
  0
INSERT
  5
4405
330
2C22
100
AcDbEntity
  8
AM_5
 62
     3
100
AcDbBlockReference
  2
_OPEN30
 10
-163.9999999999999
 20
-7.000000000000316
 30
0.0
 41
2.5
 42
2.5
 43
2.5
 50
90.0
  0
INSERT
  5
4406
330
2C22
100
AcDbEntity
  8
AM_5
 62
     3
100
AcDbBlockReference
  2
_OPEN30
 10
-163.9999999999999
 20
-32.00000000000033
 30
0.0
 41
2.5
 42
2.5
 43
2.5
 50
270.0
  0
MTEXT
  5
4407
330
2C22
100
AcDbEntity
  8
AM_5
 62
     2
100
AcDbMText
 10
-167.0999999999999
 20
-19.50000000000034
 30
0.0
 40
3.2
 41
0.0
 71
     5
 72
     1
  1
25
  7
ASAMI
 11
0.0000000000000001
 21
1.0
 31
0.0
1001
ACAD
1000
MTEXTBEGIN
1070
    73
1070
     1
1070
    44
1040
1.0
1070
    74
1070
     0
1000
MTEXTEND
  0
POINT
  5
4408
330
2C22
100
AcDbEntity
  8
DEFPOINTS
 62
     0
100
AcDbPoint
 10
-150.0
 20
-7.000000000000319
 30
0.0
  0
POINT
  5
4409
330
2C22
100
AcDbEntity
  8
DEFPOINTS
 62
     0
100
AcDbPoint
 10
-149.9999999999999
 20
-32.00000000000033
 30
0.0
  0
POINT
  5
440A
330
2C22
100
AcDbEntity
  8
DEFPOINTS
 62
     0
100
AcDbPoint
 10
-163.9999999999999
 20
-32.00000000000033
 30
0.0
  0
ENDBLK
  5
2C2D
330
2C22
100
AcDbEntity
  8
0
100
AcDbBlockEnd
  0
BLOCK
  5
2CCB
330
2CBC
100
AcDbEntity
  8
0
100
AcDbBlockBegin
  2
*D8
 70
     1
 10
0.0
 20
0.0
 30
0.0
  3
*D8
  1

  0
LINE
  5
44E4
330
2CBC
100
AcDbEntity
  8
AM_5
 62
     3
100
AcDbLine
 10
1.000000000000001
 20
0.0000000000000037
 30
0.0
 11
14.71655955119724
 21
-0.0000000000000124
 31
0.0
  0
ARC
  5
44E5
330
2CBC
100
AcDbEntity
  8
AM_5
 62
     3
100
AcDbCircle
 10
0.0000000000000013
 20
0.0000000000000038
 30
0.0
 40
13.71655955119724
100
AcDbArc
 50
280.457320261499
 51
349.5426797385011
  0
INSERT
  5
44E6
330
2CBC
100
AcDbEntity
  8
AM_5
 62
     3
100
AcDbBlockReference
  2
_OPEN30
 10
0.0000000000000488
 20
-13.71655955119723
 30
0.0
 41
2.5
 42
2.5
 43
2.5
 50
185.2286601307496
  0
INSERT
  5
44E7
330
2CBC
100
AcDbEntity
  8
AM_5
 62
     3
100
AcDbBlockReference
  2
_OPEN30
 10
13.71655955119724
 20
-0.0000000000000107
 30
0.0
 41
2.5
 42
2.5
 43
2.5
 50
84.77133986925053
  0
MTEXT
  5
44E8
330
2CBC
100
AcDbEntity
  8
AM_5
 62
     2
100
AcDbMText
 10
7.507041251522379
 20
-7.507041251522372
 30
0.0
 40
3.2
 41
0.0
 71
     5
 72
     1
  1
90°
  7
ASAMI
 11
0.7071067811865457
 21
0.7071067811865494
 31
0.0
1001
ACAD
1000
MTEXTBEGIN
1070
    73
1070
     1
1070
    44
1040
1.0
1070
    74
1070
     0
1000
MTEXTEND
  0
POINT
  5
44E9
330
2CBC
100
AcDbEntity
  8
DEFPOINTS
 62
     0
100
AcDbPoint
 10
6.858279775598642
 20
-11.87888902385887
 30
0.0
  0
POINT
  5
44EA
330
2CBC
100
AcDbEntity
  8
DEFPOINTS
 62
     0
100
AcDbPoint
 10
0.000000000000048
 20
-14.52650264998331
 30
0.0
  0
POINT
  5
44EB
330
2CBC
100
AcDbEntity
  8
DEFPOINTS
 62
     0
100
AcDbPoint
 10
0.0000000000000014
 20
0.0000000000000048
 30
0.0
  0
POINT
  5
44EC
330
2CBC
100
AcDbEntity
  8
DEFPOINTS
 62
     0
100
AcDbPoint
 10
-0.8000000000000175
 20
0.0000000000000047
 30
0.0
  0
POINT
  5
44ED
330
2CBC
100
AcDbEntity
  8
DEFPOINTS
 62
     0
100
AcDbPoint
 10
0.0000000000000033
 20
-0.7999999999999926
 30
0.0
  0
ENDBLK
  5
2CCC
330
2CBC
100
AcDbEntity
  8
0
100
AcDbBlockEnd
  0
BLOCK
  5
2F87
330
2F7D
100
AcDbEntity
  8
0
100
AcDbBlockBegin
  2
*D9
 70
     1
 10
0.0
 20
0.0
 30
0.0
  3
*D9
  1

  0
LINE
  5
442C
330
2F7D
100
AcDbEntity
  8
AM_5
 62
     3
100
AcDbLine
 10
41.24060158986009
 20
1.000000000000099
 30
0.0
 11
41.24060158986009
 21
22.31191093732749
 31
0.0
  0
LINE
  5
442D
330
2F7D
100
AcDbEntity
  8
AM_5
 62
     3
100
AcDbLine
 10
65.74060158986012
 20
-1.179020343823445
 30
0.0
 11
65.74060158986012
 21
22.31191093732749
 31
0.0
  0
LINE
  5
442E
330
2F7D
100
AcDbEntity
  8
AM_5
 62
     3
100
AcDbLine
 10
43.74060158986009
 20
21.31191093732749
 30
0.0
 11
63.24060158986012
 21
21.31191093732749
 31
0.0
  0
INSERT
  5
442F
330
2F7D
100
AcDbEntity
  8
AM_5
 62
     3
100
AcDbBlockReference
  2
_OPEN30
 10
41.24060158986009
 20
21.31191093732749
 30
0.0
 41
2.5
 42
2.5
 43
2.5
 50
180.0
  0
INSERT
  5
4430
330
2F7D
100
AcDbEntity
  8
AM_5
 62
     3
100
AcDbBlockReference
  2
_OPEN30
 10
65.74060158986012
 20
21.31191093732749
 30
0.0
 41
2.5
 42
2.5
 43
2.5
  0
MTEXT
  5
4431
330
2F7D
100
AcDbEntity
  8
AM_5
 62
     2
100
AcDbMText
 10
53.4906015898601
 20
24.41191093732749
 30
0.0
 40
3.2
 41
0.0
 71
     5
 72
     1
  1
24.5
  7
ASAMI
1001
ACAD
1000
MTEXTBEGIN
1070
    73
1070
     1
1070
    44
1040
1.0
1070
    74
1070
     0
1000
MTEXTEND
  0
POINT
  5
4432
330
2F7D
100
AcDbEntity
  8
DEFPOINTS
 62
     0
100
AcDbPoint
 10
41.24060158986009
 20
0.0000000000000995
 30
0.0
  0
POINT
  5
4433
330
2F7D
100
AcDbEntity
  8
DEFPOINTS
 62
     0
100
AcDbPoint
 10
65.74060158986012
 20
-2.179020343823445
 30
0.0
  0
POINT
  5
4434
330
2F7D
100
AcDbEntity
  8
DEFPOINTS
 62
     0
100
AcDbPoint
 10
65.74060158986012
 20
21.31191093732749
 30
0.0
  0
ENDBLK
  5
2F88
330
2F7D
100
AcDbEntity
  8
0
100
AcDbBlockEnd
  0
BLOCK
  5
40B6
330
40AC
100
AcDbEntity
  8
0
100
AcDbBlockBegin
  2
*D10
 70
     1
 10
0.0
 20
0.0
 30
0.0
  3
*D10
  1

  0
LINE
  5
43F9
330
40AC
100
AcDbEntity
  8
AM_5
 62
     3
100
AcDbLine
 10
-150.0
 20
32.31308121984072
 30
0.0
 11
-150.0
 21
18.313081219841
 31
0.0
  0
LINE
  5
43FA
330
40AC
100
AcDbEntity
  8
AM_5
 62
     3
100
AcDbLine
 10
-0.0000000000000899
 20
32.81308121984106
 30
0.0
 11
-0.0000000000000908
 21
18.313081219841
 31
0.0
  0
LINE
  5
43FB
330
40AC
100
AcDbEntity
  8
AM_5
 62
     3
100
AcDbLine
 10
-147.5
 20
19.313081219841
 30
0.0
 11
-2.50000000000009
 21
19.313081219841
 31
0.0
  0
INSERT
  5
43FC
330
40AC
100
AcDbEntity
  8
AM_5
 62
     3
100
AcDbBlockReference
  2
_OPEN30
 10
-150.0
 20
19.313081219841
 30
0.0
 41
2.5
 42
2.5
 43
2.5
 50
180.0
  0
INSERT
  5
43FD
330
40AC
100
AcDbEntity
  8
AM_5
 62
     3
100
AcDbBlockReference
  2
_OPEN30
 10
-0.0000000000000908
 20
19.313081219841
 30
0.0
 41
2.5
 42
2.5
 43
2.5
  0
MTEXT
  5
43FE
330
40AC
100
AcDbEntity
  8
AM_5
 62
     2
100
AcDbMText
 10
-75.00000000000008
 20
22.41308121984101
 30
0.0
 40
3.2
 41
0.0
 71
     5
 72
     1
  1
150
  7
ASAMI
1001
ACAD
1000
MTEXTBEGIN
1070
    73
1070
     1
1070
    44
1040
1.0
1070
    74
1070
     0
1000
MTEXTEND
  0
POINT
  5
43FF
330
40AC
100
AcDbEntity
  8
DEFPOINTS
 62
     0
100
AcDbPoint
 10
-150.0
 20
33.31308121984072
 30
0.0
  0
POINT
  5
4400
330
40AC
100
AcDbEntity
  8
DEFPOINTS
 62
     0
100
AcDbPoint
 10
-0.0000000000000899
 20
33.81308121984107
 30
0.0
  0
POINT
  5
4401
330
40AC
100
AcDbEntity
  8
DEFPOINTS
 62
     0
100
AcDbPoint
 10
-0.0000000000000908
 20
19.313081219841
 30
0.0
  0
ENDBLK
  5
40B7
330
40AC
100
AcDbEntity
  8
0
100
AcDbBlockEnd
  0
BLOCK
  5
414F
330
4140
100
AcDbEntity
  8
0
100
AcDbBlockBegin
  2
*D11
 70
     1
 10
0.0
 20
0.0
 30
0.0
  3
*D11
  1

  0
LINE
  5
4435
330
4140
100
AcDbEntity
  8
AM_5
 62
     3
100
AcDbLine
 10
0.9999999999999252
 20
33.81308121984106
 30
0.0
 11
14.10717297607981
 21
33.81308121984103
 31
0.0
  0
LINE
  5
4436
330
4140
100
AcDbEntity
  8
AM_5
 62
     3
100
AcDbLine
 10
0.9961946980916703
 20
33.90023696258872
 30
0.0
 11
14.05349092383386
 21
35.04260235864101
 31
0.0
  0
ARC
  5
4437
330
4140
100
AcDbEntity
  8
AM_5
 62
     3
100
AcDbCircle
 10
-0.0000000000000755
 20
33.81308121984106
 30
0.0
 40
13.10717297607989
100
AcDbArc
 50
338.0086079395865
 51
359.9999999999998
  0
LINE
  5
4438
330
4140
100
AcDbEntity
  8
AM_5
 62
     3
100
AcDbLine
 10
12.15349669342054
 20
28.90487365007658
 30
0.0
 11
6.967303017362965
 21
16.06303947792705
 31
0.0
  0
ARC
  5
4439
330
4140
100
AcDbEntity
  8
AM_5
 62
     3
100
AcDbCircle
 10
-0.0000000000000755
 20
33.81308121984106
 30
0.0
 40
13.10717297607989
100
AcDbArc
 50
338.1100822746527
 51
349.0550411373263
  0
ARC
  5
443A
330
4140
100
AcDbEntity
  8
AM_5
 62
     3
100
AcDbCircle
 10
-0.0000000000000755
 20
33.81308121984106
 30
0.0
 40
13.10717297607989
100
AcDbArc
 50
15.94495886267367
 51
26.88991772534725
  0
ARC
  5
443B
330
4140
100
AcDbEntity
  8
AM_5
 62
     3
100
AcDbCircle
 10
-0.0000000000000755
 20
33.81308121984106
 30
0.0
 40
13.10717297607989
100
AcDbArc
 50
359.9999999999998
 51
5.000000000000083
  0
INSERT
  5
443C
330
4140
100
AcDbEntity
  8
AM_5
 62
     3
100
AcDbBlockReference
  2
_OPEN30
 10
13.10717297607982
 20
33.81308121984103
 30
0.0
 41
2.5
 42
2.5
 43
2.5
 50
84.52752056866311
  0
INSERT
  5
443D
330
4140
100
AcDbEntity
  8
AM_5
 62
     3
100
AcDbBlockReference
  2
_OPEN30
 10
13.05729622574212
 20
34.95544661589335
 30
0.0
 41
2.5
 42
2.5
 43
2.5
 50
280.4724794313368
  0
MTEXT
  5
443E
330
4140
100
AcDbEntity
  8
AM_5
 62
     2
100
AcDbMText
 10
12.43484423926926
 20
21.32310795888784
 30
0.0
 40
3.2
 41
0.0
 71
     5
 72
     1
  1
-5°
  7
ASAMI
 11
-0.3744672919722485
 21
-0.9272401238314543
 31
0.0
1001
ACAD
1000
MTEXTBEGIN
1070
    73
1070
     1
1070
    44
1040
1.0
1070
    74
1070
     0
1000
MTEXTEND
  0
POINT
  5
443F
330
4140
100
AcDbEntity
  8
DEFPOINTS
 62
     0
100
AcDbPoint
 10
13.08499771389318
 20
34.57519555003524
 30
0.0
  0
POINT
  5
4440
330
4140
100
AcDbEntity
  8
DEFPOINTS
 62
     0
100
AcDbPoint
 10
-18.25000000000006
 20
32.21641311049292
 30
0.0
  0
POINT
  5
4441
330
4140
100
AcDbEntity
  8
DEFPOINTS
 62
     0
100
AcDbPoint
 10
-0.0000000000000755
 20
33.81308121984106
 30
0.0
  0
POINT
  5
4442
330
4140
100
AcDbEntity
  8
DEFPOINTS
 62
     0
100
AcDbPoint
 10
-2.314117621470051
 20
33.81308121984107
 30
0.0
  0
POINT
  5
4443
330
4140
100
AcDbEntity
  8
DEFPOINTS
 62
     0
100
AcDbPoint
 10
-0.0000000000000768
 20
33.81308121984106
 30
0.0
  0
ENDBLK
  5
4150
330
4140
100
AcDbEntity
  8
0
100
AcDbBlockEnd
  0
BLOCK
  5
426D
330
425E
100
AcDbEntity
  8
0
100
AcDbBlockBegin
  2
*D12
 70
     1
 10
0.0
 20
0.0
 30
0.0
  3
*D12
  1

  0
LINE
  5
441D
330
425E
100
AcDbEntity
  8
AM_5
 62
     3
100
AcDbLine
 10
41.32775733260774
 20
0.9961946980918462
 30
0.0
 11
42.43124148695313
 21
13.60907629752872
 31
0.0
  0
LINE
  5
441E
330
425E
100
AcDbEntity
  8
AM_5
 62
     3
100
AcDbLine
 10
41.24060158986008
 20
1.000000000000099
 30
0.0
 11
41.24060158986003
 21
13.66106075810029
 31
0.0
  0
ARC
  5
441F
330
425E
100
AcDbEntity
  8
AM_5
 62
     3
100
AcDbCircle
 10
41.24060158986009
 20
0.0000000000000999
 30
0.0
 40
12.66106075810019
100
AcDbArc
 50
62.22355804177769
 51
85.00000000000024
  0
LINE
  5
4420
330
425E
100
AcDbEntity
  8
AM_5
 62
     3
100
AcDbLine
 10
47.14094573813312
 20
11.20216043681963
 30
0.0
 11
59.39462579322492
 21
4.74796530047517
 31
0.0
  0
ARC
  5
4421
330
425E
100
AcDbEntity
  8
AM_5
 62
     3
100
AcDbCircle
 10
41.24060158986009
 20
0.0000000000000999
 30
0.0
 40
12.66106075810019
100
AcDbArc
 50
62.3363108525545
 51
73.66815542627738
  0
ARC
  5
4422
330
425E
100
AcDbEntity
  8
AM_5
 62
     3
100
AcDbCircle
 10
41.24060158986009
 20
0.0000000000000999
 30
0.0
 40
12.66106075810019
100
AcDbArc
 50
101.331844573723
 51
112.6636891474458
  0
ARC
  5
4423
330
425E
100
AcDbEntity
  8
AM_5
 62
     3
100
AcDbCircle
 10
41.24060158986009
 20
0.0000000000000999
 30
0.0
 40
12.66106075810019
100
AcDbArc
 50
85.00000000000024
 51
90.00000000000019
  0
INSERT
  5
4424
330
425E
100
AcDbEntity
  8
AM_5
 62
     3
100
AcDbBlockReference
  2
_OPEN30
 10
42.34408574420547
 20
12.61288159943698
 30
0.0
 41
2.5
 42
2.5
 43
2.5
 50
169.3340777131387
  0
INSERT
  5
4425
330
425E
100
AcDbEntity
  8
AM_5
 62
     3
100
AcDbBlockReference
  2
_OPEN30
 10
41.24060158986003
 20
12.66106075810029
 30
0.0
 41
2.5
 42
2.5
 43
2.5
 50
5.665922286861616
  0
MTEXT
  5
4426
330
425E
100
AcDbEntity
  8
AM_5
 62
     2
100
AcDbMText
 10
54.71245673038823
 20
10.71785812234866
 30
0.0
 40
3.2
 41
0.0
 71
     5
 72
     1
  1
-5°
  7
ASAMI
 11
0.8847726624842779
 21
-0.4660228918416798
 31
0.0
1001
ACAD
1000
MTEXTBEGIN
1070
    73
1070
     1
1070
    44
1040
1.0
1070
    74
1070
     0
1000
MTEXTEND
  0
POINT
  5
4427
330
425E
100
AcDbEntity
  8
DEFPOINTS
 62
     0
100
AcDbPoint
 10
41.60884498099883
 20
12.65570449738733
 30
0.0
  0
POINT
  5
4428
330
425E
100
AcDbEntity
  8
DEFPOINTS
 62
     0
100
AcDbPoint
 10
39.3710010862089
 20
-21.36963154200294
 30
0.0
  0
POINT
  5
4429
330
425E
100
AcDbEntity
  8
DEFPOINTS
 62
     0
100
AcDbPoint
 10
41.24060158986009
 20
0.0000000000000997
 30
0.0
  0
POINT
  5
442A
330
425E
100
AcDbEntity
  8
DEFPOINTS
 62
     0
100
AcDbPoint
 10
41.24060158986009
 20
-1.60731003260868
 30
0.0
  0
POINT
  5
442B
330
425E
100
AcDbEntity
  8
DEFPOINTS
 62
     0
100
AcDbPoint
 10
41.24060158986009
 20
0.0000000000000997
 30
0.0
  0
ENDBLK
  5
426E
330
425E
100
AcDbEntity
  8
0
100
AcDbBlockEnd
  0
BLOCK
  5
446A
330
4460
100
AcDbEntity
  8
0
100
AcDbBlockBegin
  2
*D13
 70
     1
 10
0.0
 20
0.0
 30
0.0
  3
*D13
  1

  0
LINE
  5
44D8
330
4460
100
AcDbEntity
  8
AM_5
 62
     3
100
AcDbLine
 10
1.0
 20
-0.0000000000000003
 30
0.0
 11
22.48418690594531
 21
-0.0000000000000064
 31
0.0
  0
LINE
  5
44D9
330
4460
100
AcDbEntity
  8
AM_5
 62
     3
100
AcDbLine
 10
-1.691981032098097
 20
-31.99999999999998
 30
0.0
 11
22.4841869059453
 21
-31.99999999999999
 31
0.0
  0
LINE
  5
44DA
330
4460
100
AcDbEntity
  8
AM_5
 62
     3
100
AcDbLine
 10
21.48418690594531
 20
-2.500000000000006
 30
0.0
 11
21.4841869059453
 21
-29.49999999999999
 31
0.0
  0
INSERT
  5
44DB
330
4460
100
AcDbEntity
  8
AM_5
 62
     3
100
AcDbBlockReference
  2
_OPEN30
 10
21.48418690594531
 20
-0.0000000000000061
 30
0.0
 41
2.5
 42
2.5
 43
2.5
 50
90.0
  0
INSERT
  5
44DC
330
4460
100
AcDbEntity
  8
AM_5
 62
     3
100
AcDbBlockReference
  2
_OPEN30
 10
21.4841869059453
 20
-31.99999999999999
 30
0.0
 41
2.5
 42
2.5
 43
2.5
 50
270.0
  0
MTEXT
  5
44DD
330
4460
100
AcDbEntity
  8
AM_5
 62
     2
100
AcDbMText
 10
18.3841869059453
 20
-15.99999999999999
 30
0.0
 40
3.2
 41
0.0
 71
     5
 72
     1
  1
32
  7
ASAMI
 11
0.0000000000000001
 21
1.0
 31
0.0
1001
ACAD
1000
MTEXTBEGIN
1070
    73
1070
     1
1070
    44
1040
1.0
1070
    74
1070
     0
1000
MTEXTEND
  0
POINT
  5
44DE
330
4460
100
AcDbEntity
  8
DEFPOINTS
 62
     0
100
AcDbPoint
 10
0.0
 20
0.0
 30
0.0
  0
POINT
  5
44DF
330
4460
100
AcDbEntity
  8
DEFPOINTS
 62
     0
100
AcDbPoint
 10
-2.691981032098097
 20
-31.99999999999998
 30
0.0
  0
POINT
  5
44E0
330
4460
100
AcDbEntity
  8
DEFPOINTS
 62
     0
100
AcDbPoint
 10
21.4841869059453
 20
-31.99999999999999
 30
0.0
  0
ENDBLK
  5
446B
330
4460
100
AcDbEntity
  8
0
100
AcDbBlockEnd
  0
ENDSEC
  0
SECTION
  2
ENTITIES
  0
LINE
  5
1E4A
330
1F
100
AcDbEntity
  8
AM_0
100
AcDbLine
 10
-2.691981032098097
 20
-31.99999999999998
 30
0.0
 11
-149.9999999999999
 21
-32.00000000000033
 31
0.0
  0
LINE
  5
1E52
330
1F
100
AcDbEntity
  8
AM_0
100
AcDbLine
 10
-31.83577516054861
 20
33.31308121984099
 30
0.0
 11
-150.0
 21
33.31308121984072
 31
0.0
  0
LINE
  5
1E5E
330
1F
100
AcDbEntity
  8
AM_0
100
AcDbLine
 10
-2.146248199880562
 20
58.31308121984107
 30
0.0
 11
-150.0000000000001
 21
58.31308121984072
 31
0.0
  0
LINE
  5
1E67
330
1F
100
AcDbEntity
  8
AM_0
100
AcDbLine
 10
-2.146248199880571
 20
58.27510060237158
 30
0.0
 11
-0.6998122018622665
 21
41.74226149242605
 31
0.0
  0
LINE
  5
1E83
330
1F
100
AcDbEntity
  8
AM_0
100
AcDbLine
 10
-18.5494429781025
 20
35.60915832445351
 30
0.0
 11
-25.45275179573011
 21
35.6091583244535
 31
0.0
  0
LINE
  5
1E84
330
1F
100
AcDbEntity
  8
AM_0
100
AcDbLine
 10
-25.83577516054862
 20
41.11565027951285
 30
0.0
 11
-25.83577516054862
 21
41.10256545322177
 31
0.0
  0
LINE
  5
1E85
330
1F
100
AcDbEntity
  8
AM_0
100
AcDbLine
 10
-25.83578392664106
 20
41.11565027951285
 30
0.0
 11
-25.83578392664109
 21
58.30719812428303
 31
0.0
  0
LINE
  5
1E8B
330
1F
100
AcDbEntity
  8
AM_0
100
AcDbLine
 10
-0.7487058974945083
 20
-20.97913905860735
 30
0.0
 11
-2.691981032098101
 21
-31.99999999999998
 31
0.0
  0
LINE
  5
1E97
330
1F
100
AcDbEntity
  8
AM_0
100
AcDbLine
 10
-25.69375971227135
 20
-6.000000000000049
 30
0.0
 11
-25.69375971227135
 21
-4.961589972483523
 31
0.0
  0
LINE
  5
1EBB
330
1F
100
AcDbEntity
  8
AM_0
100
AcDbLine
 10
-2.601624695175626
 20
-0.9164080720349261
 30
0.0
 11
-25.68921348728675
 21
-4.987372895586524
 31
0.0
  0
LINE
  5
1F1F
330
1F
100
AcDbEntity
  8
AM_0
100
AcDbLine
 10
-26.69375971227134
 20
-7.000000000000049
 30
0.0
 11
-150.0
 21
-7.000000000000319
 31
0.0
  0
LINE
  5
1F29
330
1F
100
AcDbEntity
  8
AM_0
100
AcDbLine
 10
-149.9999999999999
 20
-32.00000000000033
 30
0.0
 11
-150.0
 21
-7.000000000000319
 31
0.0
  0
LINE
  5
1F2A
330
1F
100
AcDbEntity
  8
AM_0
100
AcDbLine
 10
-150.0
 20
33.31308121984072
 30
0.0
 11
-150.0000000000001
 21
58.31308121984072
 31
0.0
  0
LINE
  5
1F35
330
1F
100
AcDbEntity
  8
AM_7
100
AcDbLine
 10
-9.097660563472784
 20
64.6634321571786
 30
0.0
 11
-6.197753206938968
 21
31.51733939883541
 31
0.0
  0
LINE
  5
1F36
330
1F
100
AcDbEntity
  8
AM_0
100
AcDbLine
 10
38.24060158986016
 20
-31.9999999999999
 30
0.0
 11
65.74060158986018
 21
-31.99999999999984
 31
0.0
  0
LINE
  5
1F40
330
1F
100
AcDbEntity
  8
AM_0
100
AcDbLine
 10
65.74060158986018
 20
-31.99999999999984
 30
0.0
 11
65.74060158986012
 21
-2.179020343823445
 31
0.0
  0
LINE
  5
1FCC
330
1F
100
AcDbEntity
  8
AM_0
100
AcDbLine
 10
39.48428563563601
 20
-21.45162880643643
 30
0.0
 11
65.75060158986018
 21
-31.45399999999983
 31
0.0
  0
LINE
  5
20B1
330
1F
100
AcDbEntity
  8
AM_0
100
AcDbLine
 10
43.79339873538476
 20
-21.82806354396967
 30
0.0
 11
43.79339873538476
 21
-21.7512988686505
 31
0.0
  0
LINE
  5
20BF
330
1F
100
AcDbEntity
  8
AM_0
100
AcDbLine
 10
43.79330843446772
 20
-21.82861945220897
 30
0.0
 11
39.484285635636
 21
-21.45162880643643
 31
0.0
  0
LINE
  5
20DB
330
1F
100
AcDbEntity
  8
AM_0
100
AcDbLine
 10
43.7513193373013
 20
-22.17267927426935
 30
0.0
 11
48.81832416277637
 21
-22.61598475452957
 31
0.0
  0
LINE
  5
2100
330
1F
100
AcDbEntity
  8
AM_0
100
AcDbLine
 10
-6.474185537200506
 20
63.36125850607295
 30
0.0
 11
-6.0366653409577
 21
58.36037977950332
 31
0.0
  0
LINE
  5
2104
330
1F
100
AcDbEntity
  8
AM_0
100
AcDbLine
 10
-11.45515902765922
 20
62.92547979233465
 30
0.0
 11
-11.05162644090286
 21
58.31308121984104
 31
0.0
  0
LINE
  5
210C
330
1F
100
AcDbEntity
  8
AM_0
100
AcDbLine
 10
-18.25000000000006
 20
32.21641311049292
 30
0.0
 11
-0.0000000000000757
 21
33.81308121984107
 31
0.0
  0
LINE
  5
2114
330
1F
100
AcDbEntity
  8
AM_0
100
AcDbLine
 10
-11.45515902765922
 20
62.92547979233465
 30
0.0
 11
-6.474185537200507
 21
63.36125850607295
 31
0.0
  0
LINE
  5
2120
330
1F
100
AcDbEntity
  8
AM_0
100
AcDbLine
 10
69.94835812970581
 20
-16.08023862472085
 30
0.0
 11
65.75060158986016
 21
-15.71298251524251
 31
0.0
  0
LINE
  5
2121
330
1F
100
AcDbEntity
  8
AM_0
100
AcDbLine
 10
70.38413684344407
 20
-11.0992651342621
 30
0.0
 11
65.75060158986016
 21
-10.69388332752579
 31
0.0
  0
LINE
  5
2122
330
1F
100
AcDbEntity
  8
AM_0
100
AcDbLine
 10
70.38413684344407
 20
-11.0992651342621
 30
0.0
 11
69.94835812970581
 21
-16.08023862472084
 31
0.0
  0
LINE
  5
2123
330
1F
100
AcDbEntity
  8
AM_7
100
AcDbLine
 10
75.47557267181225
 20
-14.05425764417238
 30
0.0
 11
39.05581709431923
 21
-10.86794190275678
 31
0.0
  0
LINE
  5
25D0
330
1F
100
AcDbEntity
  8
AM_0
100
AcDbLine
 10
-25.82762835003271
 20
-6.499816429648618
 30
0.0
 11
-0.7487058974945083
 21
-20.97913905860735
 31
0.0
  0
LINE
  5
2702
330
1F
100
AcDbEntity
  8
AM_0
100
AcDbLine
 10
-25.83520718807681
 20
41.1091583244535
 30
0.0
 11
-19.02983047541644
 21
41.10915832445352
 31
0.0
  0
LINE
  5
27FF
330
1F
100
AcDbEntity
  8
AM_0
100
AcDbLine
 10
-19.07972267095779
 20
41.70018663632633
 30
0.0
 11
-18.25000000000006
 21
32.21641311049292
 31
0.0
  0
LINE
  5
280B
330
1F
100
AcDbEntity
  8
AM_0
100
AcDbLine
 10
-18.66486133547893
 20
36.95829987340963
 30
0.0
 11
-0.414861335478933
 21
38.55496798275777
 31
0.0
  0
LINE
  5
2834
330
1F
100
AcDbEntity
  8
AM_0
100
AcDbLine
 10
39.3710010862089
 20
-21.36963154200294
 30
0.0
 11
41.24060158986009
 21
0.0000000000000995
 31
0.0
  0
LINE
  5
283C
330
1F
100
AcDbEntity
  8
AM_0
100
AcDbLine
 10
44.1129128100484
 20
-21.78420757282866
 30
0.0
 11
45.98248835277684
 21
-0.4148613354787472
 31
0.0
  0
LINE
  5
283E
330
1F
100
AcDbEntity
  8
AM_0
100
AcDbLine
 10
-25.45275179573011
 20
35.6091583244535
 30
0.0
 11
-25.11392548087735
 21
31.73635582413462
 31
0.0
  0
LINE
  5
283F
330
1F
100
AcDbEntity
  8
AM_0
100
AcDbLine
 10
-25.45275179573011
 20
35.6091583244535
 30
0.0
 11
-25.74960013724843
 21
35.58318745978418
 31
0.0
  0
LINE
  5
2840
330
1F
100
AcDbEntity
  8
AM_0
100
AcDbLine
 10
-25.75187229348896
 20
35.58298867187137
 30
0.0
 11
-26.23230996046419
 21
41.07441633361489
 31
0.0
  0
LINE
  5
2841
330
1F
100
AcDbEntity
  8
AM_0
100
AcDbLine
 10
-25.83520718807681
 20
41.1091583244535
 30
0.0
 11
-26.23230996046419
 21
41.07441633361489
 31
0.0
  0
LINE
  5
2842
330
1F
100
AcDbEntity
  8
AM_0
100
AcDbLine
 10
49.15730106240698
 20
-0.7272946571925872
 30
0.0
 11
65.74067755109506
 21
-2.178152102935108
 31
0.0
  0
LINE
  5
2844
330
1F
100
AcDbEntity
  8
AM_0
100
AcDbLine
 10
39.3809500858968
 20
-21.37021447823816
 30
0.0
 11
48.85479957296512
 21
-22.1990689083075
 31
0.0
  0
LINE
  5
2845
330
1F
100
AcDbEntity
  8
AM_0
100
AcDbLine
 10
43.79330843446772
 20
-21.82758730800421
 30
0.0
 11
43.76311679954563
 21
-22.17267927426934
 31
0.0
  0
LINE
  5
2869
330
1F
100
AcDbEntity
  8
AM_0
100
AcDbLine
 10
-0.8357751605486303
 20
43.29632522144918
 30
0.0
 11
-9.762254717397114
 21
58.31308121984104
 31
0.0
  0
DIMENSION
  5
28FE
330
1F
100
AcDbEntity
  8
AM_5
100
AcDbDimension
  2
*D5
 10
-164.0
 20
33.31308121984072
 30
0.0
 11
-167.1
 21
45.81308121984069
 31
0.0
 70
    32
  1
<>
  3
AM_JIS
100
AcDbAlignedDimension
 13
-150.0000000000001
 23
58.31308121984072
 33
0.0
 14
-150.0
 24
33.31308121984072
 34
0.0
 50
270.0000000000001
100
AcDbRotatedDimension
1001
GENIUS_GENDTOL_13
1000

1000
h7
1000

1040
0.0
  0
DIMENSION
  5
2A35
330
1F
100
AcDbEntity
  8
AM_5
100
AcDbDimension
  2
*D6
 10
24.01220083839287
 20
33.81308121984106
 30
0.0
 11
20.91220083839286
 21
46.06308121984106
 31
0.0
 70
    32
  1
<>
  3
AM_JIS
100
AcDbAlignedDimension
 13
-1.712127755713242
 23
58.31308121984107
 33
0.0
 14
-0.0000000000000757
 24
33.81308121984107
 34
0.0
 50
90.00000000000012
100
AcDbRotatedDimension
1001
GENIUS_GENDTOL_13
1000

1000
h7
1000

1040
0.0
  0
LINE
  5
2ACC
330
1F
100
AcDbEntity
  8
AM_0
100
AcDbLine
 10
-0.0000000000000899
 20
33.81308121984107
 30
0.0
 11
-0.6937597122714662
 21
41.74279101665135
 31
0.0
  0
DIMENSION
  5
2C21
330
1F
100
AcDbEntity
  8
AM_5
100
AcDbDimension
  2
*D7
 10
-163.9999999999999
 20
-32.00000000000033
 30
0.0
 11
-167.0999999999999
 21
-19.50000000000034
 31
0.0
 70
    32
  1
<>
  3
AM_JIS
100
AcDbAlignedDimension
 13
-150.0
 23
-7.000000000000319
 33
0.0
 14
-149.9999999999999
 24
-32.00000000000033
 34
0.0
 50
270.0000000000001
100
AcDbRotatedDimension
1001
GENIUS_GENDTOL_13
1000

1000
h7
1000

1040
0.0
  0
LINE
  5
2CB0
330
1F
100
AcDbEntity
  8
AM_11
100
AcDbLine
 10
0.0000000000000018
 20
-0.8000000000000042
 30
0.0
 11
0.0
 21
0.0
 31
0.0
  0
DIMENSION
  5
2CBB
330
1F
100
AcDbEntity
  8
AM_5
100
AcDbDimension
  2
*D8
 10
0.0000000000000032
 20
-0.7999999999999924
 30
0.0
 11
7.50704125152238
 21
-7.507041251522372
 31
0.0
 70
    34
  1
<>
  3
AM_JIS$2
100
AcDb2LineAngularDimension
 13
0.0000000000000014
 23
0.0000000000000048
 33
0.0
 14
-0.8000000000000174
 24
0.0000000000000048
 34
0.0
 15
0.0000000000000483
 25
-14.52650264998331
 35
0.0
 16
6.858279775598642
 26
-11.87888902385887
 36
0.0
1001
GENIUS_GENDTOL_13
1000

1000
h7
1000

1040
0.0
1001
ACAD
1000
DSTYLE
1002
{
1070
   179
1070
     3
1070
    76
1070
     0
1070
    75
1070
     0
1002
}
  0
LINE
  5
2F18
330
1F
100
AcDbEntity
  8
AM_0
100
AcDbLine
 10
41.24060158986009
 20
0.0000000000000995
 30
0.0
 11
49.15038749270859
 21
-0.6920165974162842
 31
0.0
  0
DIMENSION
  5
2F7C
330
1F
100
AcDbEntity
  8
AM_5
100
AcDbDimension
  2
*D9
 10
65.74060158986012
 20
21.31191093732749
 30
0.0
 11
53.4906015898601
 21
24.41191093732749
 31
0.0
 70
    32
  1
<>
  3
AM_JIS
100
AcDbAlignedDimension
 13
41.24060158986009
 23
0.0000000000000995
 33
0.0
 14
65.74060158986012
 24
-2.179020343823445
 34
0.0
 50
180.0
100
AcDbRotatedDimension
1001
GENIUS_GENDTOL_13
1000

1000
h7
1000

1040
0.0
  0
CIRCLE
  5
3486
330
1F
100
AcDbEntity
  8
AM_0
100
AcDbCircle
 10
-6.349999999999971
 20
-10.41288198200727
 30
0.0
 40
2.5125
  0
POLYLINE
  5
3487
330
1F
100
AcDbEntity
  8
AM_0
100
AcDb2dPolyline
 66
     1
 10
0.0
 20
0.0
 30
0.0
 70
     1
  0
VERTEX
  5
3488
330
3487
100
AcDbEntity
  8
AM_0
100
AcDbVertex
100
AcDb2dVertex
 10
0.000000000000045
 20
-20.02576396401452
 30
0.0
  0
VERTEX
  5
3489
330
3487
100
AcDbEntity
  8
AM_0
100
AcDbVertex
100
AcDb2dVertex
 10
-0.0000000000000124
 20
-0.8000000000000042
 30
0.0
 42
0.5773502691896255
  0
VERTEX
  5
348A
330
3487
100
AcDbEntity
  8
AM_0
100
AcDbVertex
100
AcDb2dVertex
 10
-1.200000000000016
 20
-0.1071796769724429
 30
0.0
  0
VERTEX
  5
348B
330
3487
100
AcDbEntity
  8
AM_0
100
AcDbVertex
100
AcDb2dVertex
 10
-17.84999999999997
 20
-9.720061658979751
 30
0.0
 42
0.5773502691896255
  0
VERTEX
  5
348C
330
3487
100
AcDbEntity
  8
AM_0
100
AcDbVertex
100
AcDb2dVertex
 10
-17.84999999999996
 20
-11.10570230503486
 30
0.0
  0
VERTEX
  5
348D
330
3487
100
AcDbEntity
  8
AM_0
100
AcDbVertex
100
AcDb2dVertex
 10
-1.199999999999956
 20
-20.71858428704207
 30
0.0
 42
0.5773502691896262
  0
SEQEND
  5
348E
330
3487
100
AcDbEntity
  8
AM_0
  0
LINE
  5
34CC
330
1F
100
AcDbEntity
  8
AM_0
100
AcDbLine
 10
-25.83520718807681
 20
41.1091583244535
 30
0.0
 11
-0.8297226709577955
 21
43.29685474567448
 31
0.0
  0
LINE
  5
3548
330
1F
100
AcDbEntity
  8
AM_0
100
AcDbLine
 10
-2.241099461160865
 20
30.81308121984106
 30
0.0
 11
-30.8357751605486
 21
30.81308121984099
 31
0.0
  0
LINE
  5
3633
330
1F
100
AcDbEntity
  8
AM_0
100
AcDbLine
 10
-30.8357751605486
 20
30.81308121984099
 30
0.0
 11
-30.83577516054861
 21
32.31308121984099
 31
0.0
  0
LINE
  5
36B3
330
1F
100
AcDbEntity
  8
AM_0
100
AcDbLine
 10
-2.241099461160865
 20
30.81308121984106
 30
0.0
 11
-1.003993603555456
 21
33.72524316127743
 31
0.0
  0
LINE
  5
36C2
330
1F
100
AcDbEntity
  8
AM_0
100
AcDbLine
 10
-30.83577516054851
 20
-7.000000000000056
 30
0.0
 11
-30.83577516054845
 21
-32.00000000000005
 31
0.0
  0
LINE
  5
36DE
330
1F
100
AcDbEntity
  8
AM_0
100
AcDbLine
 10
48.81832416277635
 20
-22.61598475452957
 30
0.0
 11
50.72437511569354
 21
-0.8297226709575937
 31
0.0
  0
LINE
  5
37BC
330
1F
100
AcDbEntity
  8
AM_0
100
AcDbLine
 10
40.62818094517865
 20
-6.999999999999893
 30
0.0
 11
38.2406015898601
 21
-6.9999999999999
 31
0.0
  0
LINE
  5
37C8
330
1F
100
AcDbEntity
  8
AM_0
100
AcDbLine
 10
38.24060158986016
 20
-31.9999999999999
 30
0.0
 11
38.2406015898601
 21
-6.9999999999999
 31
0.0
  0
LINE
  5
3807
330
1F
100
AcDbEntity
  8
AM_0
100
AcDbLine
 10
-26.14884266274974
 20
-6.838489957686292
 30
0.0
 11
-2.194141267307305
 21
-29.17661039285917
 31
0.0
  0
LINE
  5
3862
330
1F
100
AcDbEntity
  8
AM_0
100
AcDbLine
 10
39.484285635636
 20
-21.45162880643643
 30
0.0
 11
38.24060158986015
 21
-29.17661039285908
 31
0.0
  0
LINE
  5
3863
330
1F
100
AcDbEntity
  8
AM_0
100
AcDbLine
 10
39.484285635636
 20
-21.45162880643643
 30
0.0
 11
39.47801002618337
 21
-21.37870612269574
 31
0.0
  0
LINE
  5
3881
330
1F
100
AcDbEntity
  8
AM_0
100
AcDbLine
 10
-25.69375971227143
 20
31.68562690216336
 30
0.0
 11
-18.26045868912978
 21
32.33595647426392
 31
0.0
  0
LINE
  5
3887
330
1F
100
AcDbEntity
  8
AM_0
100
AcDbLine
 10
-25.69375971227143
 20
31.68562690216336
 30
0.0
 11
-25.69375971227143
 21
30.813081219841
 31
0.0
  0
LINE
  5
3F8B
330
1F
100
AcDbEntity
  8
AM_11
100
AcDbLine
 10
-0.8000000000000188
 20
0.0
 30
0.0
 11
0.0
 21
0.0
 31
0.0
  0
ARC
  5
3FD2
330
1F
100
AcDbEntity
  8
AM_0
100
AcDbCircle
 10
-31.8357751605486
 20
32.31308121984099
 30
0.0
 40
1.0
100
AcDbArc
 50
0.0000000000001288
 51
90.00000000000014
1001
GENIUS_GENODEF_13
1002
{
1000
HIER
1070
     0
1002
}
1002
{
1000
MANEDIT
1070
     0
1002
}
1002
{
1000
NOSEL
1070
     0
1002
}
1002
{
1000
BEHIND
1070
     0
1002
}
1002
{
1000
REACTOR
1002
}
1001
GENIUS_GENOBJ-N-FIL_13
1002
{
1000
OWNER
1000
GEN
1002
}
  0
ARC
  5
3FE8
330
1F
100
AcDbEntity
  8
AM_0
100
AcDbCircle
 10
-26.69375971227135
 20
-6.000000000000049
 30
0.0
 40
1.0
100
AcDbArc
 50
270.0000000000001
 51
0.0000000000001288
1001
GENIUS_GENODEF_13
1002
{
1000
HIER
1070
     0
1002
}
1002
{
1000
MANEDIT
1070
     0
1002
}
1002
{
1000
NOSEL
1070
     0
1002
}
1002
{
1000
BEHIND
1070
     0
1002
}
1002
{
1000
REACTOR
1002
}
1001
GENIUS_GENOBJ-N-FIL_13
1002
{
1000
OWNER
1000
GEN
1002
}
  0
DIMENSION
  5
40AB
330
1F
100
AcDbEntity
  8
AM_5
100
AcDbDimension
  2
*D10
 10
-0.0000000000000908
 20
19.313081219841
 30
0.0
 11
-75.00000000000008
 21
22.41308121984101
 31
0.0
 70
    32
  1
<>
  3
AM_JIS
100
AcDbAlignedDimension
 13
-150.0
 23
33.31308121984072
 33
0.0
 14
-0.0000000000000899
 24
33.81308121984107
 34
0.0
 50
0.0000000000004071
100
AcDbRotatedDimension
1001
GENIUS_GENDTOL_13
1000

1000
h7
1000

1040
0.0
  0
LINE
  5
4130
330
1F
100
AcDbEntity
  8
AM_0
100
AcDbLine
 10
-0.0000000000000757
 20
33.81308121984107
 30
0.0
 11
-0.0000000000000769
 21
33.81308121984107
 31
0.0
  0
DIMENSION
  5
413F
330
1F
100
AcDbEntity
  8
AM_5
100
AcDbDimension
  2
*D11
 10
-0.0000000000000769
 20
33.81308121984107
 30
0.0
 11
12.43484423926926
 21
21.32310795888784
 31
0.0
 70
    34
  1
-<>
  3
AM_JIS$2
100
AcDb2LineAngularDimension
 13
-0.0000000000000757
 23
33.81308121984107
 33
0.0
 14
-2.314117621470052
 24
33.81308121984107
 34
0.0
 15
-18.25000000000006
 25
32.21641311049292
 35
0.0
 16
13.08499771389318
 26
34.57519555003524
 36
0.0
1001
ACAD
1000
DSTYLE
1002
{
1070
   179
1070
     3
1002
}
1001
GENIUS_GENDTOL_13
1000

1000
h7
1000

1040
0.0
  0
DIMENSION
  5
425D
330
1F
100
AcDbEntity
  8
AM_5
100
AcDbDimension
  2
*D12
 10
41.24060158986009
 20
0.0000000000000995
 30
0.0
 11
54.71245673038823
 21
10.71785812234866
 31
0.0
 70
    34
  1
-<>
  3
AM_JIS$2
100
AcDb2LineAngularDimension
 13
41.24060158986009
 23
0.0000000000000995
 33
0.0
 14
41.24060158986009
 24
-1.60731003260868
 34
0.0
 15
39.3710010862089
 25
-21.36963154200294
 35
0.0
 16
41.60884498099883
 26
12.65570449738733
 36
0.0
1001
ACAD
1000
DSTYLE
1002
{
1070
   179
1070
     3
1002
}
1001
GENIUS_GENDTOL_13
1000

1000
h7
1000

1040
0.0
  0
DIMENSION
  5
445F
330
1F
100
AcDbEntity
  8
AM_5
100
AcDbDimension
  2
*D13
 10
21.4841869059453
 20
-31.99999999999999
 30
0.0
 11
18.3841869059453
 21
-15.99999999999999
 31
0.0
 70
    32
  1
<>
  3
AM_JIS
100
AcDbAlignedDimension
 13
0.0
 23
0.0
 33
0.0
 14
-2.691981032098097
 24
-31.99999999999998
 34
0.0
 50
90.0
100
AcDbRotatedDimension
1001
GENIUS_GENDTOL_13
1000

1000
h7
1000

1040
0.0
  0
TEXT
  5
44F3
330
1F
100
AcDbEntity
  8
AM_6
100
AcDbText
 10
-106.1904761904762
 20
-54.50000000000016
 30
0.0
 40
5.0
  1
ETFNR2525M43W
 72
     4
 11
-75.00000000000006
 21
-52.00000000000016
 31
0.0
100
AcDbText
  0
VIEWPORT
  5
110
330
101
100
AcDbEntity
 67
     1
  8
0
100
AcDbViewport
 10
420.5
 20
297.0
 30
0.0
 40
948.9782706766916
 41
628.452
 68
     1
 69
     1
1001
ACAD
1000
MVIEW
1002
{
1070
    16
1010
0.0
1020
0.0
1030
0.0
1010
0.0
1020
0.0
1030
1.0
1040
0.0
1040
628.452
1040
420.5
1040
297.0
1040
50.0
1040
0.0
1040
0.0
1070
     0
1070
   100
1070
     1
1070
     1
1070
     0
1070
     0
1070
     0
1070
     0
1040
0.0
1040
0.0
1040
0.0
1040
10.0
1040
10.0
1040
10.0
1040
10.0
1070
     0
1002
{
1002
}
1002
}
  0
ENDSEC
  0
SECTION
  2
OBJECTS
  0
DICTIONARY
  5
C
330
0
100
AcDbDictionary
  3
ACAD_GROUP
350
D
  3
ACAD_LAYOUT
350
1A
  3
ACAD_MLINESTYLE
350
17
  3
ACAD_PLOTSETTINGS
350
19
  3
ACAD_PLOTSTYLENAME
350
E
  3
ACDBVARIABLEDICTIONARY
350
34
  3
ACMDICTIONARY
350
43
  3
AMG
350
2B
  3
AMGSNAPSETTINGS
350
6E
  3
DWGPROPS
350
4520
  3
ACDBHEADERROUNDTRIPXREC
350
452C
  0
DICTIONARY
  5
74
330
1F
100
AcDbDictionary
280
     1
  3
ACAD_INDEX
360
4522
  3
ACAD_LAYOUTSELFREF
360
454F
  0
DICTIONARY
  5
4554
330
101
100
AcDbDictionary
280
     1
  3
ACAD_LAYOUTSELFREF
360
4555
  0
DICTIONARY
  5
D
102
{ACAD_REACTORS
330
C
102
}
330
C
100
AcDbDictionary
  0
DICTIONARY
  5
1A
102
{ACAD_REACTORS
330
C
102
}
330
C
100
AcDbDictionary
  0
DICTIONARY
  5
17
102
{ACAD_REACTORS
330
C
102
}
330
C
100
AcDbDictionary
  3
STANDARD
350
18
  0
DICTIONARY
  5
19
102
{ACAD_REACTORS
330
C
102
}
330
C
100
AcDbDictionary
  0
ACDBDICTIONARYWDFLT
  5
E
102
{ACAD_REACTORS
330
C
102
}
330
C
100
AcDbDictionary
281
     1
  3
Normal
350
F
100
AcDbDictionaryWithDefault
340
F
  0
DICTIONARY
  5
34
102
{ACAD_REACTORS
330
C
102
}
330
C
100
AcDbDictionary
  3
INDEXCTL
350
35
  3
SORTENTS
350
B5E
  0
DICTIONARY
  5
43
102
{ACAD_REACTORS
330
C
102
}
330
C
100
AcDbDictionary
  3
ACMSTDDICTIONARY
350
260
  0
DICTIONARY
  5
2B
102
{ACAD_REACTORS
330
C
102
}
330
C
100
AcDbDictionary
  3
ACMGSETTINGS
350
2C
  0
DICTIONARY
  5
6E
102
{ACAD_REACTORS
330
C
102
}
330
C
100
AcDbDictionary
  0
XRECORD
  5
4520
102
{ACAD_REACTORS
330
C
102
}
330
C
100
AcDbXrecord
  1
DWGPROPS COOKIE
  2

  3

  4

  6

  7

  8

  9

300
AmdtFileType=82
301
=
302
=
303
=
304
=
305
=
306
=
307
=
308
=
309
=
 40
0.5873476157407409
 41
2452838.620506898
 42
2452909.589772118
  1

 90
        1
  0
DICTIONARY
  5
452C
102
{ACAD_REACTORS
330
C
102
}
330
C
100
AcDbDictionary
  3
TSTACKALIGN
350
452D
  3
TSTACKSIZE
350
452E
  3
HYPERLINKBASE
350
452F
  3
STYLESHEET
350
4530
  3
LAYOUTDICT
350
4531
  3
PLOTSETDICT
350
4532
  3
PLOTSTYLNAMDICT
350
4533
  3
LWETCUNION
350
4534
  3
INSUNITS
350
4535
  3
CEPSNTYPE
350
4536
  3
FINGERPRINTGUID
350
4537
  3
VERSIONGUID
350
4538
  3
PSVPSCALE
350
4539
  3
DIMSTYLEDATA
350
453A
  3
PUCSORTHOREF
350
453B
  3
PUCSORTHOVIEW
350
453C
  3
PUCSBASE
350
453D
  3
PUCSORGTOP
350
453E
  3
PUCSORGBOTTOM
350
453F
  3
PUCSORGLEFT
350
4540
  3
PUCSORGRIGHT
350
4541
  3
PUCSORGFRONT
350
4542
  3
PUCSORGBACK
350
4543
  3
UCSORTHOREF
350
4544
  3
UCSORTHOVIEW
350
4545
  3
UCSBASE
350
4546
  3
UCSORGTOP
350
4547
  3
UCSORGBOTTOM
350
4548
  3
UCSORGLEFT
350
4549
  3
UCSORGRIGHT
350
454A
  3
UCSORGFRONT
350
454B
  3
UCSORGBACK
350
454C
  0
DICTIONARY
  5
4522
102
{ACAD_REACTORS
330
74
102
}
330
74
100
AcDbDictionary
  3
*A1
350
4523
  0
XRECORD
  5
454F
102
{ACAD_REACTORS
330
74
102
}
330
74
100
AcDbXrecord
340
1F
  0
XRECORD
  5
4555
102
{ACAD_REACTORS
330
4554
102
}
330
4554
100
AcDbXrecord
340
101
  0
MLINESTYLE
  5
18
102
{ACAD_REACTORS
330
17
102
}
330
17
100
AcDbMlineStyle
  2
STANDARD
 70
     0
  3

 62
   256
 51
90.0
 52
90.0
 71
     2
 49
0.5
 62
   256
  6
BYLAYER
 49
-0.5
 62
   256
  6
BYLAYER
  0
ACDBPLACEHOLDER
  5
F
102
{ACAD_REACTORS
330
E
102
}
330
E
100
AcDbPlaceHolder
280
     0
  0
DICTIONARYVAR
  5
35
102
{ACAD_REACTORS
330
34
102
}
330
34
100
DictionaryVariables
280
     0
  1
1
  0
DICTIONARYVAR
  5
B5E
102
{ACAD_REACTORS
330
34
102
}
330
34
100
DictionaryVariables
280
     0
  1
96
  0
DICTIONARY
  5
260
102
{ACAD_REACTORS
330
43
102
}
330
43
100
AcDbDictionary
  0
DICTIONARY
  5
2C
102
{ACAD_REACTORS
330
2B
102
}
330
2B
100
AcDbDictionary
  3
DWGSETTINGS
350
2D
  0
XRECORD
  5
452D
102
{ACAD_REACTORS
330
452C
102
}
330
452C
100
AcDbXrecord
 90
        1
  0
XRECORD
  5
452E
102
{ACAD_REACTORS
330
452C
102
}
330
452C
100
AcDbXrecord
 90
       70
  0
XRECORD
  5
452F
102
{ACAD_REACTORS
330
452C
102
}
330
452C
100
AcDbXrecord
  1

  0
XRECORD
  5
4530
102
{ACAD_REACTORS
330
452C
102
}
330
452C
100
AcDbXrecord
  1
ASAMI.ctb
  0
XRECORD
  5
4531
102
{ACAD_REACTORS
330
452C
102
}
330
452C
100
AcDbXrecord
340
1A
  0
XRECORD
  5
4532
102
{ACAD_REACTORS
330
452C
102
}
330
452C
100
AcDbXrecord
340
19
  0
XRECORD
  5
4533
102
{ACAD_REACTORS
330
452C
102
}
330
452C
100
AcDbXrecord
340
E
  0
XRECORD
  5
4534
102
{ACAD_REACTORS
330
452C
102
}
330
452C
100
AcDbXrecord
 90
    10781
  0
XRECORD
  5
4535
102
{ACAD_REACTORS
330
452C
102
}
330
452C
100
AcDbXrecord
 90
        4
  0
XRECORD
  5
4536
102
{ACAD_REACTORS
330
452C
102
}
330
452C
100
AcDbXrecord
 90
        0
  0
XRECORD
  5
4537
102
{ACAD_REACTORS
330
452C
102
}
330
452C
100
AcDbXrecord
  1
{AFB28963-8C59-40AE-9337-C84526B81ACE}
  0
XRECORD
  5
4538
102
{ACAD_REACTORS
330
452C
102
}
330
452C
100
AcDbXrecord
  1
{AB142EF7-04CF-49E6-8B87-237D54ACB0E9}
  0
XRECORD
  5
4539
102
{ACAD_REACTORS
330
452C
102
}
330
452C
100
AcDbXrecord
 40
0.0
  0
XRECORD
  5
453A
102
{ACAD_REACTORS
330
452C
102
}
330
452C
100
AcDbXrecord
1000
DSTYLE
1002
{
1070
    79
 70
     2
1070
   341
340
59
1070
   342
340
59
1070
   371
 70
    -1
1070
   372
 70
    -1
1002
}
  0
XRECORD
  5
453B
102
{ACAD_REACTORS
330
452C
102
}
330
452C
100
AcDbXrecord
340
0
  0
XRECORD
  5
453C
102
{ACAD_REACTORS
330
452C
102
}
330
452C
100
AcDbXrecord
 70
     0
  0
XRECORD
  5
453D
102
{ACAD_REACTORS
330
452C
102
}
330
452C
100
AcDbXrecord
340
0
  0
XRECORD
  5
453E
102
{ACAD_REACTORS
330
452C
102
}
330
452C
100
AcDbXrecord
 10
0.0
 20
0.0
 30
0.0
  0
XRECORD
  5
453F
102
{ACAD_REACTORS
330
452C
102
}
330
452C
100
AcDbXrecord
 10
0.0
 20
0.0
 30
0.0
  0
XRECORD
  5
4540
102
{ACAD_REACTORS
330
452C
102
}
330
452C
100
AcDbXrecord
 10
0.0
 20
0.0
 30
0.0
  0
XRECORD
  5
4541
102
{ACAD_REACTORS
330
452C
102
}
330
452C
100
AcDbXrecord
 10
0.0
 20
0.0
 30
0.0
  0
XRECORD
  5
4542
102
{ACAD_REACTORS
330
452C
102
}
330
452C
100
AcDbXrecord
 10
0.0
 20
0.0
 30
0.0
  0
XRECORD
  5
4543
102
{ACAD_REACTORS
330
452C
102
}
330
452C
100
AcDbXrecord
 10
0.0
 20
0.0
 30
0.0
  0
XRECORD
  5
4544
102
{ACAD_REACTORS
330
452C
102
}
330
452C
100
AcDbXrecord
340
0
  0
XRECORD
  5
4545
102
{ACAD_REACTORS
330
452C
102
}
330
452C
100
AcDbXrecord
 70
     0
  0
XRECORD
  5
4546
102
{ACAD_REACTORS
330
452C
102
}
330
452C
100
AcDbXrecord
340
0
  0
XRECORD
  5
4547
102
{ACAD_REACTORS
330
452C
102
}
330
452C
100
AcDbXrecord
 10
0.0
 20
0.0
 30
0.0
  0
XRECORD
  5
4548
102
{ACAD_REACTORS
330
452C
102
}
330
452C
100
AcDbXrecord
 10
0.0
 20
0.0
 30
0.0
  0
XRECORD
  5
4549
102
{ACAD_REACTORS
330
452C
102
}
330
452C
100
AcDbXrecord
 10
0.0
 20
0.0
 30
0.0
  0
XRECORD
  5
454A
102
{ACAD_REACTORS
330
452C
102
}
330
452C
100
AcDbXrecord
 10
0.0
 20
0.0
 30
0.0
  0
XRECORD
  5
454B
102
{ACAD_REACTORS
330
452C
102
}
330
452C
100
AcDbXrecord
 10
0.0
 20
0.0
 30
0.0
  0
XRECORD
  5
454C
102
{ACAD_REACTORS
330
452C
102
}
330
452C
100
AcDbXrecord
 10
0.0
 20
0.0
 30
0.0
  0
LAYER_INDEX
  5
4523
102
{ACAD_REACTORS
330
4522
102
}
330
4522
100
AcDbIndex
 40
2452941.593227164
100
AcDbLayerIndex
  8
0
360
4524
 90
        0
  8
AM_0
360
4525
 90
       60
  8
AM_11
360
4526
 90
        2
  8
AM_7
360
4527
 90
        2
  8
AM_5
360
4528
 90
        9
  8
Defpoints
360
4529
 90
        0
  8
AM_6
360
452A
 90
        1
  0
XRECORD
  5
2D
102
{ACAD_REACTORS
330
2C
102
}
330
2C
100
AcDbXrecord
  1
VERSION
140
15.0
  1
PRODUCT
  2
AutoCAD Mechanical 2000
  0
IDBUFFER
  5
4524
330
0
100
AcDbIdBuffer
  0
IDBUFFER
  5
4525
330
0
100
AcDbIdBuffer
330
36C2
330
36DE
330
37BC
330
37C8
330
3807
330
3862
330
3863
330
3881
330
3887
330
3FD2
330
3FE8
330
4130
330
1E4A
330
1E52
330
1E5E
330
1E67
330
1E83
330
1E84
330
1E85
330
1E8B
330
1E97
330
1EBB
330
1F1F
330
1F29
330
1F2A
330
1F36
330
1F40
330
1FCC
330
20B1
330
20BF
330
20DB
330
2100
330
2104
330
210C
330
2114
330
2120
330
2121
330
2122
330
25D0
330
2702
330
27FF
330
280B
330
2834
330
283C
330
283E
330
283F
330
2840
330
2841
330
2842
330
2844
330
2845
330
2869
330
2ACC
330
2F18
330
3486
330
3487
330
34CC
330
3548
330
3633
330
36B3
  0
IDBUFFER
  5
4526
330
0
100
AcDbIdBuffer
330
2CB0
330
3F8B
  0
IDBUFFER
  5
4527
330
0
100
AcDbIdBuffer
330
1F35
330
2123
  0
IDBUFFER
  5
4528
330
0
100
AcDbIdBuffer
330
28FE
330
2A35
330
2C21
330
2CBB
330
2F7C
330
40AB
330
413F
330
425D
330
445F
  0
IDBUFFER
  5
4529
330
0
100
AcDbIdBuffer
  0
IDBUFFER
  5
452A
330
0
100
AcDbIdBuffer
330
44F3
  0
ENDSEC
  0
EOF
