  0
SECTION
  2
HEADER
  9
$ACADVER
  1
AC1014
  9
$ACADMAINTVER
 70
     9
  9
$DWGCODEPAGE
  3
ANSI_932
  9
$INSBASE
 10
0.0
 20
0.0
 30
0.0
  9
$EXTMIN
 10
-89.35236752321527
 20
-27.25293637233028
 30
-0.000000000000013
  9
$EXTMAX
 10
39.7793208434673
 20
45.60138388039024
 30
0.0000000000000023
  9
$LIMMIN
 10
-99.75257379361032
 20
-36.32975972477257
  9
$LIMMAX
 10
50.44308385846114
 20
50.47290790810567
  9
$ORTHOMODE
 70
     0
  9
$REGENMODE
 70
     1
  9
$FILLMODE
 70
     1
  9
$QTEXTMODE
 70
     0
  9
$MIRRTEXT
 70
     0
  9
$DRAGMODE
 70
     2
  9
$LTSCALE
 40
1.0
  9
$OSMODE
 70
    55
  9
$ATTMODE
 70
     1
  9
$TEXTSIZE
 40
2.5
  9
$TRACEWID
 40
1.0
  9
$TEXTSTYLE
  7
STANDARD
  9
$CLAYER
  8
AM_0
  9
$CELTYPE
  6
BYLAYER
  9
$CECOLOR
 62
   256
  9
$CELTSCALE
 40
1.0
  9
$DELOBJ
 70
     1
  9
$DISPSILH
 70
     0
  9
$DIMSCALE
 40
0.5
  9
$DIMASZ
 40
2.5
  9
$DIMEXO
 40
1.0
  9
$DIMDLI
 40
12.0
  9
$DIMRND
 40
0.0
  9
$DIMDLE
 40
0.0
  9
$DIMEXE
 40
1.0
  9
$DIMTP
 40
0.1
  9
$DIMTM
 40
0.1
  9
$DIMTXT
 40
3.2
  9
$DIMCEN
 40
0.0
  9
$DIMTSZ
 40
0.0
  9
$DIMTOL
 70
     0
  9
$DIMLIM
 70
     0
  9
$DIMTIH
 70
     0
  9
$DIMTOH
 70
     0
  9
$DIMSE1
 70
     0
  9
$DIMSE2
 70
     0
  9
$DIMTAD
 70
     3
  9
$DIMZIN
 70
     8
  9
$DIMBLK
  1
OPEN30
  9
$DIMASO
 70
     1
  9
$DIMSHO
 70
     1
  9
$DIMPOST
  1

  9
$DIMAPOST
  1
"
  9
$DIMALT
 70
     0
  9
$DIMALTD
 70
     2
  9
$DIMALTF
 40
0.0393701
  9
$DIMLFAC
 40
1.0
  9
$DIMTOFL
 70
     1
  9
$DIMTVP
 40
0.0
  9
$DIMTIX
 70
     0
  9
$DIMSOXD
 70
     0
  9
$DIMSAH
 70
     0
  9
$DIMBLK1
  1

  9
$DIMBLK2
  1

  9
$DIMSTYLE
  2
AM_JIS
  9
$DIMCLRD
 70
   256
  9
$DIMCLRE
 70
   256
  9
$DIMCLRT
 70
     2
  9
$DIMTFAC
 40
0.71
  9
$DIMGAP
 40
1.5
  9
$DIMJUST
 70
     0
  9
$DIMSD1
 70
     0
  9
$DIMSD2
 70
     0
  9
$DIMTOLJ
 70
     0
  9
$DIMTZIN
 70
     0
  9
$DIMALTZ
 70
     0
  9
$DIMALTTZ
 70
     0
  9
$DIMFIT
 70
     3
  9
$DIMUPT
 70
     0
  9
$DIMUNIT
 70
     2
  9
$DIMDEC
 70
     3
  9
$DIMTDEC
 70
     3
  9
$DIMALTU
 70
     2
  9
$DIMALTTD
 70
     2
  9
$DIMTXSTY
  7
ASAMI
  9
$DIMAUNIT
 70
     0
  9
$LUNITS
 70
     2
  9
$LUPREC
 70
     2
  9
$SKETCHINC
 40
1.0
  9
$FILLETRAD
 40
0.8
  9
$AUNITS
 70
     0
  9
$AUPREC
 70
     0
  9
$MENU
  1
.
  9
$ELEVATION
 40
0.0
  9
$PELEVATION
 40
0.0
  9
$THICKNESS
 40
0.0
  9
$LIMCHECK
 70
     0
  9
$BLIPMODE
 70
     0
  9
$CHAMFERA
 40
2.5
  9
$CHAMFERB
 40
2.5
  9
$CHAMFERC
 40
20.0
  9
$CHAMFERD
 40
0.0
  9
$SKPOLY
 70
     0
  9
$TDCREATE
 40
2452858.464435764
  9
$TDUPDATE
 40
2453180.397000497
  9
$TDINDWG
 40
0.1297506250
  9
$TDUSRTIMER
 40
0.1297504398
  9
$USRTIMER
 70
     1
  9
$ANGBASE
 50
0.0
  9
$ANGDIR
 70
     0
  9
$PDMODE
 70
     0
  9
$PDSIZE
 40
0.0
  9
$PLINEWID
 40
0.0
  9
$COORDS
 70
     1
  9
$SPLFRAME
 70
     0
  9
$SPLINETYPE
 70
     6
  9
$SPLINESEGS
 70
     8
  9
$ATTDIA
 70
     1
  9
$ATTREQ
 70
     1
  9
$HANDLING
 70
 12289
  9
$HANDSEED
  5
2099
  9
$SURFTAB1
 70
     6
  9
$SURFTAB2
 70
     6
  9
$SURFTYPE
 70
     6
  9
$SURFU
 70
     6
  9
$SURFV
 70
     6
  9
$UCSNAME
  2

  9
$UCSORG
 10
0.0
 20
0.0
 30
0.0
  9
$UCSXDIR
 10
1.0
 20
0.0
 30
0.0
  9
$UCSYDIR
 10
0.0
 20
1.0
 30
0.0
  9
$PUCSNAME
  2

  9
$PUCSORG
 10
0.0
 20
0.0
 30
0.0
  9
$PUCSXDIR
 10
1.0
 20
0.0
 30
0.0
  9
$PUCSYDIR
 10
0.0
 20
1.0
 30
0.0
  9
$USERI1
 70
     0
  9
$USERI2
 70
     0
  9
$USERI3
 70
     0
  9
$USERI4
 70
     0
  9
$USERI5
 70
     0
  9
$USERR1
 40
0.0
  9
$USERR2
 40
0.0
  9
$USERR3
 40
0.0
  9
$USERR4
 40
0.0
  9
$USERR5
 40
0.0
  9
$WORLDVIEW
 70
     1
  9
$SHADEDGE
 70
     3
  9
$SHADEDIF
 70
    70
  9
$TILEMODE
 70
     1
  9
$MAXACTVP
 70
    64
  9
$PINSBASE
 10
0.0
 20
0.0
 30
0.0
  9
$PLIMCHECK
 70
     0
  9
$PEXTMIN
 10
1.000000000000000E+20
 20
1.000000000000000E+20
 30
1.000000000000000E+20
  9
$PEXTMAX
 10
-1.000000000000000E+20
 20
-1.000000000000000E+20
 30
-1.000000000000000E+20
  9
$PLIMMIN
 10
0.0
 20
0.0
  9
$PLIMMAX
 10
841.0
 20
594.0
  9
$UNITMODE
 70
     0
  9
$VISRETAIN
 70
     1
  9
$PLINEGEN
 70
     0
  9
$PSLTSCALE
 70
     0
  9
$TREEDEPTH
 70
  3020
  9
$PICKSTYLE
 70
     0
  9
$CMLSTYLE
  2
STANDARD
  9
$CMLJUST
 70
     0
  9
$CMLSCALE
 40
20.0
  9
$PROXYGRAPHICS
 70
     1
  9
$MEASUREMENT
 70
     1
  0
ENDSEC
  0
SECTION
  2
CLASSES
  0
CLASS
  1
ACDBDICTIONARYWDFLT
  2
AcDbDictionaryWithDefault
  3
AutoCAD 2000
 90
        0
280
     0
281
     0
  0
CLASS
  1
ACDBPLACEHOLDER
  2
AcDbPlaceHolder
  3
AutoCAD 2000
 90
        0
280
     0
281
     0
  0
CLASS
  1
LAYOUT
  2
AcDbLayout
  3
AutoCAD 2000
 90
        0
280
     0
281
     0
  0
CLASS
  1
AMGSETTINGSOBJ
  2
AmgSettingsObj
  3
"AcadM|Product Description: AutoCAD Mechanical 2000|Company: Autodesk"
 90
        0
280
     0
281
     0
  0
CLASS
  1
ACME_DOCUMENT
  2
AcMeDbDoc
  3
AcMeServices
 90
        0
280
     0
281
     0
  0
CLASS
  1
ACMESCOPE
  2
AcMeScope
  3
AcMeServices
 90
        0
280
     0
281
     0
  0
CLASS
  1
ACMECOMMANDHISTORY
  2
AcMeCommandHistory
  3
AcMeServices
 90
        0
280
     0
281
     0
  0
CLASS
  1
DICTIONARYVAR
  2
AcDbDictionaryVar
  3
AutoCAD 2000
 90
        0
280
     0
281
     0
  0
CLASS
  1
ACIMSYSVARMAN
  2
AcImSysVarManager
  3
AcMeServices
 90
        0
280
     0
281
     0
  0
CLASS
  1
ACIMREALSYSVAR
  2
AcImRealSysVar
  3
AcMeServices
 90
        0
280
     0
281
     0
  0
CLASS
  1
ACIMINTSYSVAR
  2
AcImIntSysVar
  3
AcMeServices
 90
        0
280
     0
281
     0
  0
CLASS
  1
ACMEDRAWINGMAN
  2
AcMeDrawingMan
  3
AcMeServices
 90
        0
280
     0
281
     0
  0
CLASS
  1
ACMEVIEW
  2
AcMeView
  3
AcMeServices
 90
        0
280
     0
281
     0
  0
CLASS
  1
ACDBENTITYCACHE
  2
AcMeEntityCache
  3
AcMeServices
 90
        0
280
     0
281
     0
  0
CLASS
  1
GSMANAGER
  2
AcMeGSManager
  3
AcMeServices
 90
        0
280
     0
281
     0
  0
CLASS
  1
AmdtInternalReactor
  2
AmdtInternalReactor
  3
AcMeServices
 90
        0
280
     0
281
     0
  0
CLASS
  1
ACMESTATEMGR
  2
AcMeStateMgr
  3
AcMeServices
 90
        0
280
     0
281
     0
  0
CLASS
  1
ACME_DATABASE
  2
AcMeDbDatabase
  3
AcMeServices
 90
        0
280
     0
281
     0
  0
CLASS
  1
ACRFINSADJUSTERMGR
  2
AcRfInsAdjusterMgr
  3
AcMeServices
 90
        0
280
     0
281
     0
  0
CLASS
  1
ACMDATADICTIONARY
  2
AcmDataDictionary
  3
"AcmSymBB|Product Description: AutoCAD Mechanical 2000|Company: Autodesk"
 90
        0
280
     0
281
     0
  0
CLASS
  1
ACMDATAENTRYBLOCK
  2
AcmDataEntryBlock
  3
"AcmSymBB|Product Description: AutoCAD Mechanical 2000|Company: Autodesk"
 90
        0
280
     0
281
     0
  0
CLASS
  1
AMGOBJPROPCFG
  2
AmgObjPropCfg
  3
"AmgLay|Product Description: AutoCAD Mechanical 2000|Company: Autodesk"
 90
        1
280
     0
281
     0
  0
CLASS
  1
ACAMGFILTERDAT
  2
AcAmgFilterDat
  3
"AcadM|Product Description: AutoCAD Mechanical 2000|Company: Autodesk"
 90
        0
280
     0
281
     0
  0
CLASS
  1
LAYER_INDEX
  2
AcDbLayerIndex
  3
AutoCAD 2000
 90
        0
280
     0
281
     0
  0
CLASS
  1
IDBUFFER
  2
AcDbIdBuffer
  3
AutoCAD 2000
 90
        0
280
     0
281
     0
  0
CLASS
  1
ACIMSTRSYSVAR
  2
AcImStrSysVar
  3
AcMeServices
 90
        0
280
     0
281
     0
  0
CLASS
  1
ACMSTANDARDJIS
  2
AcmStandardJIS
  3
"AcmSymBB|Product Description: AutoCAD Mechanical 2000|Company: Autodesk"
 90
        0
280
     0
281
     0
  0
CLASS
  1
ACMSURFSTANDARDJIS
  2
AcmSurfTextStdJIS
  3
"AcmSymBB|Product Description: AutoCAD Mechanical 2000|Company: Autodesk"
 90
        0
280
     0
281
     0
  0
CLASS
  1
ACMFCFSTANDARDJIS
  2
AcmFCFStdJIS
  3
"AcmSymBB|Product Description: AutoCAD Mechanical 2000|Company: Autodesk"
 90
        0
280
     0
281
     0
  0
CLASS
  1
ACMWELDSTANDARDJIS
  2
AcmWeldingStdJIS
  3
"AcmSymBB|Product Description: AutoCAD Mechanical 2000|Company: Autodesk"
 90
        0
280
     0
281
     0
  0
CLASS
  1
ACMIDSTANDARDJIS
  2
AcmIdStdJIS
  3
"AcmSymBB|Product Description: AutoCAD Mechanical 2000|Company: Autodesk"
 90
        0
280
     0
281
     0
  0
CLASS
  1
ACMDATUMSTANDARDJIS
  2
AcmDatumStdJIS
  3
"AcmSymBB|Product Description: AutoCAD Mechanical 2000|Company: Autodesk"
 90
        0
280
     0
281
     0
  0
CLASS
  1
ACMBOMSTANDARDJIS
  2
AcmBOMStdJIS
  3
"AcmSymBB|Product Description: AutoCAD Mechanical 2000|Company: Autodesk"
 90
        0
280
     0
281
     0
  0
CLASS
  1
ACMSTANDARDANSI
  2
AcmStandardANSI
  3
"AcmSymBB|Product Description: AutoCAD Mechanical 2000|Company: Autodesk"
 90
        0
280
     0
281
     0
  0
CLASS
  1
ACMSURFSTANDARDANSI
  2
AcmSurfTextStdANSI
  3
"AcmSymBB|Product Description: AutoCAD Mechanical 2000|Company: Autodesk"
 90
        0
280
     0
281
     0
  0
CLASS
  1
ACMFCFSTANDARDANSI
  2
AcmFCFStdANSI
  3
"AcmSymBB|Product Description: AutoCAD Mechanical 2000|Company: Autodesk"
 90
        0
280
     0
281
     0
  0
CLASS
  1
ACMWELDSTANDARDANSI
  2
AcmWeldingStdANSI
  3
"AcmSymBB|Product Description: AutoCAD Mechanical 2000|Company: Autodesk"
 90
        0
280
     0
281
     0
  0
CLASS
  1
ACMIDSTANDARDANSI
  2
AcmIdStdANSI
  3
"AcmSymBB|Product Description: AutoCAD Mechanical 2000|Company: Autodesk"
 90
        0
280
     0
281
     0
  0
CLASS
  1
ACMDATUMSTANDARDANSI
  2
AcmDatumStdANSI
  3
"AcmSymBB|Product Description: AutoCAD Mechanical 2000|Company: Autodesk"
 90
        0
280
     0
281
     0
  0
CLASS
  1
ACMBOMSTANDARDANSI
  2
AcmBOMStdANSI
  3
"AcmSymBB|Product Description: AutoCAD Mechanical 2000|Company: Autodesk"
 90
        0
280
     0
281
     0
  0
CLASS
  1
ACMSTANDARDBSI
  2
AcmStandardBSI
  3
"AcmSymBB|Product Description: AutoCAD Mechanical 2000|Company: Autodesk"
 90
        0
280
     0
281
     0
  0
CLASS
  1
ACMSURFSTANDARDBSI
  2
AcmSurfTextStdBSI
  3
"AcmSymBB|Product Description: AutoCAD Mechanical 2000|Company: Autodesk"
 90
        0
280
     0
281
     0
  0
CLASS
  1
ACMFCFSTANDARDBSI
  2
AcmFCFStdBSI
  3
"AcmSymBB|Product Description: AutoCAD Mechanical 2000|Company: Autodesk"
 90
        0
280
     0
281
     0
  0
CLASS
  1
ACMWELDSTANDARDBSI
  2
AcmWeldingStdBSI
  3
"AcmSymBB|Product Description: AutoCAD Mechanical 2000|Company: Autodesk"
 90
        0
280
     0
281
     0
  0
CLASS
  1
ACMIDSTANDARDBSI
  2
AcmIdStdBSI
  3
"AcmSymBB|Product Description: AutoCAD Mechanical 2000|Company: Autodesk"
 90
        0
280
     0
281
     0
  0
CLASS
  1
ACMDATUMSTANDARDBSI
  2
AcmDatumStdBSI
  3
"AcmSymBB|Product Description: AutoCAD Mechanical 2000|Company: Autodesk"
 90
        0
280
     0
281
     0
  0
CLASS
  1
ACMBOMSTANDARDBSI
  2
AcmBOMStdBSI
  3
"AcmSymBB|Product Description: AutoCAD Mechanical 2000|Company: Autodesk"
 90
        0
280
     0
281
     0
  0
CLASS
  1
LONG_TRANSACTION
  2
AcDbLongTransaction
  3
AutoCAD 2000
 90
        0
280
     0
281
     0
  0
CLASS
  1
LWPOLYLINE
  2
AcDbPolyline
  3
AutoCAD 2000
 90
        0
280
     0
281
     1
  0
CLASS
  1
HATCH
  2
AcDbHatch
  3
AutoCAD 2000
 90
        0
280
     0
281
     1
  0
CLASS
  1
XRECORD
  2
AcDbXrecord
  3
AutoCAD 2000
 90
        0
280
     0
281
     0
  0
ENDSEC
  0
SECTION
  2
TABLES
  0
TABLE
  2
VPORT
  5
8
330
0
100
AcDbSymbolTable
 70
     4
  0
VPORT
  5
206E
330
8
100
AcDbSymbolTableRecord
100
AcDbViewportTableRecord
  2
*ACTIVE
 70
     0
 10
0.0
 20
0.0
 11
1.0
 21
1.0
 12
-24.78652333987398
 22
9.174223754029977
 13
0.0
 23
0.0
 14
2.5
 24
2.5
 15
10.0
 25
10.0
 16
0.0
 26
0.0
 36
1.0
 17
0.0
 27
0.0
 37
0.0
 40
82.79908622705431
 41
1.56570841889117
 42
50.0
 43
0.0
 44
0.0
 50
0.0
 51
0.0
 71
     0
 72
   100
 73
     1
 74
     3
 75
     0
 76
     0
 77
     0
 78
     0
  0
ENDTAB
  0
TABLE
  2
LTYPE
  5
5
330
0
100
AcDbSymbolTable
 70
    10
  0
LTYPE
  5
14
330
5
100
AcDbSymbolTableRecord
100
AcDbLinetypeTableRecord
  2
BYBLOCK
 70
     0
  3

 72
    65
 73
     0
 40
0.0
  0
LTYPE
  5
15
330
5
100
AcDbSymbolTableRecord
100
AcDbLinetypeTableRecord
  2
BYLAYER
 70
     0
  3

 72
    65
 73
     0
 40
0.0
  0
LTYPE
  5
16
330
5
100
AcDbSymbolTableRecord
100
AcDbLinetypeTableRecord
  2
CONTINUOUS
 70
     0
  3
Solid line
 72
    65
 73
     0
 40
0.0
  0
LTYPE
  5
4B
330
5
100
AcDbSymbolTableRecord
100
AcDbLinetypeTableRecord
  2
AM_ISO02W050
 70
     0
  3
__ __ __ __ __ __ __ __ __ __ __ __ __ __ __
 72
    65
 73
     2
 40
7.5
 49
6.0
 74
     0
 49
-1.5
 74
     0
  0
LTYPE
  5
4C
330
5
100
AcDbSymbolTableRecord
100
AcDbLinetypeTableRecord
  2
AM_ISO08W050
 70
     0
  3
____ . ____ . ____ . ____ . ____ . ____ . ____
 72
    65
 73
     4
 40
18.0
 49
12.0
 74
     0
 49
-1.5
 74
     0
 49
3.0
 74
     0
 49
-1.5
 74
     0
  0
LTYPE
  5
4D
330
5
100
AcDbSymbolTableRecord
100
AcDbLinetypeTableRecord
  2
AM_ISO09W050
 70
     0
  3
_____ . . _____ . . _____ . . ____ .. ____
 72
    65
 73
     6
 40
22.5
 49
12.0
 74
     0
 49
-1.5
 74
     0
 49
3.0
 74
     0
 49
-1.5
 74
     0
 49
3.0
 74
     0
 49
-1.5
 74
     0
  0
LTYPE
  5
4E
330
5
100
AcDbSymbolTableRecord
100
AcDbLinetypeTableRecord
  2
AMCONSTR
 70
     0
  3
_______________________
 72
    65
 73
     2
 40
9999.0
 49
9999.0
 74
     0
 49
0.0
 74
     0
  0
LTYPE
  5
4F
330
5
100
AcDbSymbolTableRecord
100
AcDbLinetypeTableRecord
  2
AM_ISO02W050X2
 70
     0
  3
 _ _ _ _ _ _ _ _ _ _ _ _
 72
    65
 73
     2
 40
3.75
 49
3.0
 74
     0
 49
-0.75
 74
     0
  0
LTYPE
  5
50
330
5
100
AcDbSymbolTableRecord
100
AcDbLinetypeTableRecord
  2
AM_ISO08W050X2
 70
     0
  3
__ . __ . __ . __ . __ . __
 72
    65
 73
     4
 40
9.0
 49
6.0
 74
     0
 49
-0.75
 74
     0
 49
1.5
 74
     0
 49
-0.75
 74
     0
  0
LTYPE
  5
53
330
5
100
AcDbSymbolTableRecord
100
AcDbLinetypeTableRecord
  2
AMZIGZAG
 70
     0
  3
/\/-/\/-/\/-/\/-/\/-/\/
 72
    65
 73
     2
 40
11.00009999999999
 49
0.0001
 74
     4
 75
   135
340
52
 46
0.04
 50
0.0
 44
0.0
 45
0.0
 49
-11.0
 74
     0
  0
LTYPE
  5
166
330
5
100
AcDbSymbolTableRecord
100
AcDbLinetypeTableRecord
  2
ACJISTGL
 70
     0
  3
_ _ _ _ _
 72
    65
 73
     2
 40
3.0
 49
2.0
 74
     0
 49
-1.0
 74
     0
  0
LTYPE
  5
26A
330
5
100
AcDbSymbolTableRecord
100
AcDbLinetypeTableRecord
  2
ACJISTGB
 70
     0
  3
__ . . __ . .
 72
    65
 73
     6
 40
9.0
 49
4.0
 74
     0
 49
-1.0
 74
     0
 49
1.0
 74
     0
 49
-1.0
 74
     0
 49
1.0
 74
     0
 49
-1.0
 74
     0
  0
ENDTAB
  0
TABLE
  2
LAYER
  5
2
330
0
100
AcDbSymbolTable
 70
     8
  0
LAYER
  5
10
330
2
100
AcDbSymbolTableRecord
100
AcDbLayerTableRecord
  2
0
 70
     0
 62
     7
  6
CONTINUOUS
  0
LAYER
  5
3F9
330
2
100
AcDbSymbolTableRecord
100
AcDbLayerTableRecord
  2
AM_0
 70
     0
 62
     7
  6
CONTINUOUS
  0
LAYER
  5
BC5
330
2
100
AcDbSymbolTableRecord
100
AcDbLayerTableRecord
  2
AM_11
 70
     0
 62
     3
  6
AM_ISO09W050
  0
LAYER
  5
CB3
330
2
100
AcDbSymbolTableRecord
100
AcDbLayerTableRecord
  2
AM_7
 70
     0
 62
     4
  6
AM_ISO08W050
  0
LAYER
  5
CCC
330
2
100
AcDbSymbolTableRecord
100
AcDbLayerTableRecord
  2
AM_5
 70
     0
 62
     3
  6
CONTINUOUS
  0
LAYER
  5
1515
330
2
100
AcDbSymbolTableRecord
100
AcDbLayerTableRecord
  2
DEFPOINTS
 70
     0
 62
     7
  6
CONTINUOUS
  0
LAYER
  5
1D19
330
2
100
AcDbSymbolTableRecord
100
AcDbLayerTableRecord
  2
AM_6
 70
     0
 62
     2
  6
CONTINUOUS
  0
LAYER
  5
1E89
330
2
100
AcDbSymbolTableRecord
100
AcDbLayerTableRecord
  2
AM_CL
 70
     0
 62
     1
  6
AMCONSTR
  0
ENDTAB
  0
TABLE
  2
STYLE
  5
3
330
0
100
AcDbSymbolTable
 70
     5
  0
STYLE
  5
11
330
3
100
AcDbSymbolTableRecord
100
AcDbTextStyleTableRecord
  2
STANDARD
 70
     0
 40
0.0
 41
1.0
 50
0.0
 71
     0
 42
2.5
  3
simplex.shx
  4
EXTFONT.SHX
  0
STYLE
  5
52
330
3
100
AcDbSymbolTableRecord
100
AcDbTextStyleTableRecord
  2

 70
     1
 40
0.0
 41
1.0
 50
0.0
 71
     0
 42
2.5
  3
ltypeshp.shx
  4

  0
STYLE
  5
6B
330
3
100
AcDbSymbolTableRecord
100
AcDbTextStyleTableRecord
  2
ASAMI
 70
     0
 40
0.0
 41
1.0
 50
0.0
 71
     0
 42
2.5
  3
simplex.shx
  4
EXTFONT.SHX
  0
STYLE
  5
262
330
3
100
AcDbSymbolTableRecord
100
AcDbTextStyleTableRecord
  2
ACJISTS
 70
     0
 40
1.0
 41
1.0
 50
0.0
 71
     0
 42
2.5
  3
simplex.shx
  4
bigfont.shx
  0
STYLE
  5
269
330
3
100
AcDbSymbolTableRecord
100
AcDbTextStyleTableRecord
  2
ACJISGDT
 70
     0
 40
0.0
 41
1.0
 50
0.0
 71
     0
 42
2.5
  3
amgdtans.shx
  4

  0
ENDTAB
  0
TABLE
  2
VIEW
  5
6
330
0
100
AcDbSymbolTable
 70
     0
  0
ENDTAB
  0
TABLE
  2
UCS
  5
7
330
0
100
AcDbSymbolTable
 70
     0
  0
ENDTAB
  0
TABLE
  2
APPID
  5
9
330
0
100
AcDbSymbolTable
 70
    18
  0
APPID
  5
12
330
9
100
AcDbSymbolTableRecord
100
AcDbRegAppTableRecord
  2
ACAD
 70
     0
  0
APPID
  5
30
330
9
100
AcDbSymbolTableRecord
100
AcDbRegAppTableRecord
  2
MCAD_NO_VIS
 70
     0
  0
APPID
  5
31
330
9
100
AcDbSymbolTableRecord
100
AcDbRegAppTableRecord
  2
ACAD_TEMP_GRAPHIC
 70
     0
  0
APPID
  5
2C2
330
9
100
AcDbSymbolTableRecord
100
AcDbRegAppTableRecord
  2
GENIUS_GENDTOL_13
 70
     0
  0
APPID
  5
339
330
9
100
AcDbSymbolTableRecord
100
AcDbRegAppTableRecord
  2
GENIUS_GENODEF_13
 70
     0
  0
APPID
  5
33A
330
9
100
AcDbSymbolTableRecord
100
AcDbRegAppTableRecord
  2
GENIUS_GENOBJ-N-RSBK_13
 70
     0
  0
APPID
  5
33B
330
9
100
AcDbSymbolTableRecord
100
AcDbRegAppTableRecord
  2
GENIUS_GENOBJ-N-LIB_13
 70
     0
  0
APPID
  5
33C
330
9
100
AcDbSymbolTableRecord
100
AcDbRegAppTableRecord
  2
GENIUS_GENSCALE_13
 70
     0
  0
APPID
  5
378
330
9
100
AcDbSymbolTableRecord
100
AcDbRegAppTableRecord
  2
GENIUS_GENDIMSH_14
 70
     0
  0
APPID
  5
BAD
330
9
100
AcDbSymbolTableRecord
100
AcDbRegAppTableRecord
  2
GENIUS_GENREC_14
 70
     0
  0
APPID
  5
BAE
330
9
100
AcDbSymbolTableRecord
100
AcDbRegAppTableRecord
  2
GENIUS_GENOBJ-N-REC_13
 70
     0
  0
APPID
  5
CB5
330
9
100
AcDbSymbolTableRecord
100
AcDbRegAppTableRecord
  2
GENIUS_GENOBJ-N-CEN_13
 70
     0
  0
APPID
  5
11C4
330
9
100
AcDbSymbolTableRecord
100
AcDbRegAppTableRecord
  2
GENIUS_GENOBJ-N-FIL_13
 70
     0
  0
APPID
  5
2065
330
9
100
AcDbSymbolTableRecord
100
AcDbRegAppTableRecord
  2
GENIUS_GENSCREG_15
 70
     0
  0
APPID
  5
2067
330
9
100
AcDbSymbolTableRecord
100
AcDbRegAppTableRecord
  2
GENIUS_GENOBJ-N-SDF_13
 70
     0
  0
APPID
  5
2068
330
9
100
AcDbSymbolTableRecord
100
AcDbRegAppTableRecord
  2
GENIUS_GENOENT_13
 70
     0
  0
APPID
  5
2069
330
9
100
AcDbSymbolTableRecord
100
AcDbRegAppTableRecord
  2
GENIUS_GENOREF_13
 70
     0
  0
APPID
  5
206A
330
9
100
AcDbSymbolTableRecord
100
AcDbRegAppTableRecord
  2
GENIUS_GENOLIS_13
 70
     0
  0
ENDTAB
  0
TABLE
  2
DIMSTYLE
  5
A
330
0
100
AcDbSymbolTable
 70
     8
  0
DIMSTYLE
105
58
102
{ACAD_REACTORS
330
1514
330
15BF
330
1799
330
1825
330
1A92
102
}
330
A
100
AcDbSymbolTableRecord
100
AcDbDimStyleTableRecord
  2
AM_JIS
 70
     0
  3

  4
"
  5
OPEN30
  6

  7

 40
0.5
 41
2.5
 42
1.0
 43
12.0
 44
1.0
 45
0.0
 46
0.0
 47
0.1
 48
0.1
140
3.2
141
0.0
142
0.0
143
0.0393701
144
1.0
145
0.0
146
0.71
147
1.5
 71
     0
 72
     0
 73
     0
 74
     0
 75
     0
 76
     0
 77
     3
 78
     8
170
     0
171
     2
172
     1
173
     0
174
     0
175
     0
176
   256
177
   256
178
     2
270
     2
271
     3
272
     3
273
     2
274
     2
340
6B
275
     0
280
     0
281
     0
282
     0
283
     0
284
     0
285
     0
286
     0
287
     3
288
     0
  0
DIMSTYLE
105
5F
330
A
100
AcDbSymbolTableRecord
100
AcDbDimStyleTableRecord
  2
AM_JIS$3
 70
     0
  3

  4
"
  5
OPEN30
  6

  7

 40
0.5
 41
2.5
 42
1.0
 43
10.0
 44
1.0
 45
0.0
 46
0.0
 47
0.1
 48
0.1
140
3.2
141
0.0
142
0.0
143
0.0393701
144
1.0
145
0.0
146
0.71
147
1.5
 71
     0
 72
     0
 73
     0
 74
     1
 75
     0
 76
     0
 77
     3
 78
     8
170
     0
171
     2
172
     0
173
     0
174
     0
175
     0
176
   256
177
   256
178
     2
270
     2
271
     2
272
     3
273
     2
274
     2
340
6B
275
     0
280
     0
281
     0
282
     0
283
     0
284
     0
285
     0
286
     0
287
     0
288
     1
  0
DIMSTYLE
105
60
330
A
100
AcDbSymbolTableRecord
100
AcDbDimStyleTableRecord
  2
AM_JIS$4
 70
     0
  3

  4
"
  5
OPEN30
  6

  7

 40
0.5
 41
2.5
 42
1.0
 43
10.0
 44
1.0
 45
0.0
 46
0.0
 47
0.1
 48
0.1
140
3.2
141
0.0
142
0.0
143
0.0393701
144
1.0
145
0.0
146
0.71
147
1.5
 71
     0
 72
     0
 73
     0
 74
     1
 75
     0
 76
     0
 77
     3
 78
     8
170
     0
171
     2
172
     0
173
     0
174
     0
175
     0
176
   256
177
   256
178
     2
270
     2
271
     2
272
     3
273
     2
274
     2
340
6B
275
     0
280
     0
281
     0
282
     0
283
     0
284
     0
285
     0
286
     0
287
     0
288
     1
  0
DIMSTYLE
105
61
330
A
100
AcDbSymbolTableRecord
100
AcDbDimStyleTableRecord
  2
AM_JIS$6
 70
     0
  3

  4
"
  5
OPEN30
  6

  7

 40
0.5
 41
2.5
 42
1.0
 43
10.0
 44
1.0
 45
0.0
 46
0.0
 47
0.1
 48
0.1
140
3.2
141
0.0
142
0.0
143
0.0393701
144
1.0
145
0.0
146
0.71
147
1.5
 71
     0
 72
     0
 73
     0
 74
     0
 75
     0
 76
     0
 77
     0
 78
     8
170
     0
171
     2
172
     1
173
     0
174
     0
175
     0
176
   256
177
   256
178
     2
270
     2
271
     2
272
     2
273
     2
274
     2
340
6B
275
     0
280
     0
281
     0
282
     0
283
     0
284
     0
285
     0
286
     0
287
     3
288
     0
  0
DIMSTYLE
105
62
330
A
100
AcDbSymbolTableRecord
100
AcDbDimStyleTableRecord
  2
AM_JIS$7
 70
     0
  3

  4
"
  5
OPEN30
  6

  7

 40
0.5
 41
2.5
 42
1.0
 43
10.0
 44
1.0
 45
0.0
 46
0.0
 47
0.1
 48
0.1
140
3.2
141
0.0
142
0.0
143
0.0393701
144
1.0
145
0.0
146
0.71
147
1.5
 71
     0
 72
     0
 73
     0
 74
     0
 75
     0
 76
     0
 77
     3
 78
     8
170
     0
171
     2
172
     1
173
     0
174
     0
175
     0
176
   256
177
   256
178
     2
270
     2
271
     2
272
     3
273
     2
274
     2
340
6B
275
     0
280
     0
281
     0
282
     0
283
     0
284
     0
285
     0
286
     0
287
     3
288
     0
  0
DIMSTYLE
105
63
330
A
100
AcDbSymbolTableRecord
100
AcDbDimStyleTableRecord
  2
AM_JIS$SF
 70
     0
  3

  4
"
  5
OPEN30
  6

  7

 40
0.5
 41
2.5
 42
1.0
 43
10.0
 44
1.0
 45
0.0
 46
0.0
 47
0.1
 48
0.1
140
3.2
141
0.0
142
0.0
143
0.0393701
144
1.0
145
0.0
146
0.71
147
1.5
 71
     0
 72
     0
 73
     0
 74
     0
 75
     1
 76
     1
 77
     3
 78
     8
170
     0
171
     2
172
     1
173
     0
174
     0
175
     0
176
   256
177
   256
178
     2
270
     2
271
     2
272
     2
273
     2
274
     2
340
6B
275
     0
280
     0
281
     0
282
     0
283
     0
284
     0
285
     0
286
     0
287
     3
288
     0
  0
DIMSTYLE
105
68
330
A
100
AcDbSymbolTableRecord
100
AcDbDimStyleTableRecord
  2
AM_JIS$SH
 70
     0
  3

  4
"
  5

  6
GENAXEH
  7
OPEN30
 40
0.5
 41
2.5
 42
1.0
 43
10.0
 44
1.0
 45
0.0
 46
0.0
 47
0.1
 48
0.1
140
3.2
141
0.0
142
0.0
143
0.0393701
144
2.0
145
0.0
146
0.71
147
1.5
 71
     0
 72
     0
 73
     0
 74
     0
 75
     1
 76
     1
 77
     3
 78
     8
170
     0
171
     2
172
     1
173
     1
174
     0
175
     0
176
   256
177
   256
178
     2
270
     2
271
     2
272
     2
273
     2
274
     2
340
6B
275
     0
280
     0
281
     0
282
     0
283
     0
284
     0
285
     0
286
     0
287
     3
288
     0
  0
DIMSTYLE
105
B34
102
{ACAD_REACTORS
330
1655
330
18B2
330
1988
102
}
330
A
100
AcDbSymbolTableRecord
100
AcDbDimStyleTableRecord
  2
AM_JIS$2
 70
     0
  3

  4
"
  5
OPEN30
  6

  7

 40
0.5
 41
2.5
 42
1.0
 43
12.0
 44
1.0
 45
0.0
 46
0.0
 47
0.1
 48
0.1
140
3.2
141
0.0
142
0.0
143
0.0393701
144
1.0
145
0.0
146
0.71
147
1.5
 71
     0
 72
     0
 73
     0
 74
     0
 75
     0
 76
     0
 77
     3
 78
     8
170
     0
171
     2
172
     1
173
     0
174
     0
175
     0
176
   256
177
   256
178
     2
270
     2
271
     3
272
     3
273
     2
274
     2
340
6B
275
     0
280
     0
281
     0
282
     0
283
     0
284
     0
285
     0
286
     0
287
     3
288
     0
  0
ENDTAB
  0
TABLE
  2
BLOCK_RECORD
  5
1
330
0
100
AcDbSymbolTable
 70
    15
  0
BLOCK_RECORD
  5
1F
102
{ACAD_XDICTIONARY
360
74
102
}
330
1
100
AcDbSymbolTableRecord
100
AcDbBlockTableRecord
  2
*MODEL_SPACE
  0
BLOCK_RECORD
  5
101
102
{ACAD_XDICTIONARY
360
2097
102
}
330
1
100
AcDbSymbolTableRecord
100
AcDbBlockTableRecord
  2
*PAPER_SPACE
  0
BLOCK_RECORD
  5
59
330
1
100
AcDbSymbolTableRecord
100
AcDbBlockTableRecord
  2
_OPEN30
  0
BLOCK_RECORD
  5
64
330
1
100
AcDbSymbolTableRecord
100
AcDbBlockTableRecord
  2
GENAXEH
  0
BLOCK_RECORD
  5
1516
330
1
100
AcDbSymbolTableRecord
100
AcDbBlockTableRecord
  2
*D5
  0
BLOCK_RECORD
  5
15C0
330
1
100
AcDbSymbolTableRecord
100
AcDbBlockTableRecord
  2
*D6
  0
BLOCK_RECORD
  5
1656
330
1
100
AcDbSymbolTableRecord
100
AcDbBlockTableRecord
  2
*D7
  0
BLOCK_RECORD
  5
179A
330
1
100
AcDbSymbolTableRecord
100
AcDbBlockTableRecord
  2
*D8
  0
BLOCK_RECORD
  5
1826
330
1
100
AcDbSymbolTableRecord
100
AcDbBlockTableRecord
  2
*D9
  0
BLOCK_RECORD
  5
18B3
330
1
100
AcDbSymbolTableRecord
100
AcDbBlockTableRecord
  2
*D10
  0
BLOCK_RECORD
  5
1989
330
1
100
AcDbSymbolTableRecord
100
AcDbBlockTableRecord
  2
*D11
  0
BLOCK_RECORD
  5
1A93
330
1
100
AcDbSymbolTableRecord
100
AcDbBlockTableRecord
  2
*D12
  0
BLOCK_RECORD
  5
1F17
330
1
100
AcDbSymbolTableRecord
100
AcDbBlockTableRecord
  2
A$C6C544E8B
  0
BLOCK_RECORD
  5
1F20
330
1
100
AcDbSymbolTableRecord
100
AcDbBlockTableRecord
  2
A$C56F62234
  0
ENDTAB
  0
ENDSEC
  0
SECTION
  2
BLOCKS
  0
BLOCK
  5
20
330
1F
100
AcDbEntity
  8
0
100
AcDbBlockBegin
  2
*MODEL_SPACE
 70
     0
 10
0.0
 20
0.0
 30
0.0
  3
*MODEL_SPACE
  1

  0
ENDBLK
  5
21
330
1F
100
AcDbEntity
  8
0
100
AcDbBlockEnd
  0
BLOCK
  5
103
330
101
100
AcDbEntity
 67
     1
  8
0
100
AcDbBlockBegin
  2
*PAPER_SPACE
 70
     0
 10
0.0
 20
0.0
 30
0.0
  3
*PAPER_SPACE
  1

  0
ENDBLK
  5
104
330
101
100
AcDbEntity
 67
     1
  8
0
100
AcDbBlockEnd
  0
BLOCK
  5
5D
330
59
100
AcDbEntity
  8
0
100
AcDbBlockBegin
  2
_OPEN30
 70
     0
 10
0.0
 20
0.0
 30
0.0
  3
_OPEN30
  1

  0
LINE
  5
5A
330
59
100
AcDbEntity
  8
0
 62
     0
100
AcDbLine
 10
-1.0
 20
0.26794919
 30
0.0
 11
0.0
 21
0.0
 31
0.0
  0
LINE
  5
5B
330
59
100
AcDbEntity
  8
0
 62
     0
100
AcDbLine
 10
0.0
 20
0.0
 30
0.0
 11
-1.0
 21
-0.26794919
 31
0.0
  0
LINE
  5
5C
330
59
100
AcDbEntity
  8
0
 62
     0
100
AcDbLine
 10
0.0
 20
0.0
 30
0.0
 11
-1.0
 21
0.0
 31
0.0
  0
ENDBLK
  5
5E
330
59
100
AcDbEntity
  8
0
100
AcDbBlockEnd
  0
BLOCK
  5
66
330
64
100
AcDbEntity
  8
0
100
AcDbBlockBegin
  2
GENAXEH
 70
     0
 10
0.0
 20
0.0
 30
0.0
  3
GENAXEH
  1

  0
LINE
  5
65
330
64
100
AcDbEntity
  8
0
100
AcDbLine
 10
-1.0
 20
0.0
 30
0.0
 11
1.0
 21
0.0
 31
0.0
  0
ENDBLK
  5
67
330
64
100
AcDbEntity
  8
0
100
AcDbBlockEnd
  0
BLOCK
  5
1520
330
1516
100
AcDbEntity
  8
0
100
AcDbBlockBegin
  2
*D5
 70
     1
 10
0.0
 20
0.0
 30
0.0
  3
*D5
  1

  0
LINE
  5
1CC3
330
1516
100
AcDbEntity
  8
AM_5
100
AcDbLine
 10
0.0
 20
24.6348446099679
 30
0.0
 11
-0.0000000000000009
 21
9.727301146682293
 31
0.0
  0
LINE
  5
1CC4
330
1516
100
AcDbEntity
  8
AM_5
100
AcDbLine
 10
-79.99999999999997
 20
24.18050823286688
 30
0.0
 11
-79.99999999999997
 21
9.727301146682293
 31
0.0
  0
LINE
  5
1CC5
330
1516
100
AcDbEntity
  8
AM_5
100
AcDbLine
 10
-1.25
 20
10.22730114668229
 30
0.0
 11
-78.74999999999997
 21
10.22730114668229
 31
0.0
  0
INSERT
  5
1CC6
330
1516
100
AcDbEntity
  8
AM_5
100
AcDbBlockReference
  2
_OPEN30
 10
-0.0000000000000009
 20
10.22730114668229
 30
0.0
 41
1.25
 42
1.25
 43
1.25
  0
INSERT
  5
1CC7
330
1516
100
AcDbEntity
  8
AM_5
100
AcDbBlockReference
  2
_OPEN30
 10
-79.99999999999997
 20
10.22730114668229
 30
0.0
 41
1.25
 42
1.25
 43
1.25
 50
180.0
  0
MTEXT
  5
1CC8
330
1516
100
AcDbEntity
  8
AM_5
 62
     2
100
AcDbMText
 10
-39.99999999999998
 20
11.77730114668229
 30
0.0
 40
1.6
 41
0.0
 71
     5
 72
     1
  1
80
  7
ASAMI
1001
ACAD
1000
MTEXTBEGIN
1070
    73
1070
     1
1070
    44
1040
1.0
1070
    74
1070
     0
1000
MTEXTEND
  0
POINT
  5
1CC9
330
1516
100
AcDbEntity
  8
DEFPOINTS
 62
     0
100
AcDbPoint
 10
0.0
 20
25.1348446099679
 30
0.0
  0
POINT
  5
1CCA
330
1516
100
AcDbEntity
  8
DEFPOINTS
 62
     0
100
AcDbPoint
 10
-79.99999999999997
 20
24.68050823286688
 30
0.0
  0
POINT
  5
1CCB
330
1516
100
AcDbEntity
  8
DEFPOINTS
 62
     0
100
AcDbPoint
 10
-79.99999999999997
 20
10.22730114668229
 30
0.0
  0
ENDBLK
  5
1521
330
1516
100
AcDbEntity
  8
0
100
AcDbBlockEnd
  0
BLOCK
  5
15CA
330
15C0
100
AcDbEntity
  8
0
100
AcDbBlockBegin
  2
*D6
 70
     1
 10
0.0
 20
0.0
 30
0.0
  3
*D6
  1

  0
LINE
  5
1F85
330
15C0
100
AcDbEntity
  8
AM_5
100
AcDbLine
 10
-0.0255046083661221
 20
36.68050823286688
 30
0.0
 11
13.66320757073092
 21
36.68050823286688
 31
0.0
  0
LINE
  5
1F86
330
15C0
100
AcDbEntity
  8
AM_5
100
AcDbLine
 10
0.5
 20
25.18050823286688
 30
0.0
 11
13.66320757073091
 21
25.18050823286688
 31
0.0
  0
LINE
  5
1F87
330
15C0
100
AcDbEntity
  8
AM_5
100
AcDbLine
 10
13.16320757073092
 20
35.43050823286688
 30
0.0
 11
13.16320757073091
 21
26.43050823286688
 31
0.0
  0
INSERT
  5
1F88
330
15C0
100
AcDbEntity
  8
AM_5
100
AcDbBlockReference
  2
_OPEN30
 10
13.16320757073092
 20
36.68050823286688
 30
0.0
 41
1.25
 42
1.25
 43
1.25
 50
90.0
  0
INSERT
  5
1F89
330
15C0
100
AcDbEntity
  8
AM_5
100
AcDbBlockReference
  2
_OPEN30
 10
13.16320757073091
 20
25.18050823286688
 30
0.0
 41
1.25
 42
1.25
 43
1.25
 50
270.0
  0
MTEXT
  5
1F8A
330
15C0
100
AcDbEntity
  8
AM_5
 62
     2
100
AcDbMText
 10
11.61320757073091
 20
30.93050823286688
 30
0.0
 40
1.6
 41
0.0
 71
     5
 72
     1
  1
11.5
  7
ASAMI
 11
0.0000000000000001
 21
1.0
 31
0.0
1001
ACAD
1000
MTEXTBEGIN
1070
    73
1070
     1
1070
    44
1040
1.0
1070
    74
1070
     0
1000
MTEXTEND
  0
POINT
  5
1F8B
330
15C0
100
AcDbEntity
  8
DEFPOINTS
 62
     0
100
AcDbPoint
 10
-0.5255046083661222
 20
36.68050823286688
 30
0.0
  0
POINT
  5
1F8C
330
15C0
100
AcDbEntity
  8
DEFPOINTS
 62
     0
100
AcDbPoint
 10
0.0
 20
25.18050823286688
 30
0.0
  0
POINT
  5
1F8D
330
15C0
100
AcDbEntity
  8
DEFPOINTS
 62
     0
100
AcDbPoint
 10
13.16320757073091
 20
25.18050823286688
 30
0.0
  0
ENDBLK
  5
15CB
330
15C0
100
AcDbEntity
  8
0
100
AcDbBlockEnd
  0
BLOCK
  5
1665
330
1656
100
AcDbEntity
  8
0
100
AcDbBlockBegin
  2
*D7
 70
     1
 10
0.0
 20
0.0
 30
0.0
  3
*D7
  1

  0
LINE
  5
1F9D
330
1656
100
AcDbEntity
  8
AM_5
100
AcDbLine
 10
0.5000000000000002
 20
25.18050823286688
 30
0.0
 11
8.808375682875782
 21
25.18050823286688
 31
0.0
  0
LINE
  5
1F9E
330
1656
100
AcDbEntity
  8
AM_5
100
AcDbLine
 10
0.4980973490458727
 20
25.22408610424071
 30
0.0
 11
8.774857154081107
 21
25.94820875790838
 31
0.0
  0
ARC
  5
1F9F
330
1656
100
AcDbEntity
  8
AM_5
100
AcDbCircle
 10
-0.0000000000000002
 20
25.18050823286688
 30
0.0
 40
8.308375682875782
100
AcDbArc
 50
342.6939207212758
 51
0.0000000000000127
  0
LINE
  5
1FA0
330
1656
100
AcDbEntity
  8
AM_5
100
AcDbLine
 10
7.932249214925992
 20
22.70896440762169
 30
0.0
 11
5.872297525177238
 21
16.09769172578932
 31
0.0
  0
ARC
  5
1FA1
330
1656
100
AcDbEntity
  8
AM_5
100
AcDbCircle
 10
-0.0000000000000002
 20
25.18050823286688
 30
0.0
 40
8.308375682875782
100
AcDbArc
 50
342.7433310188011
 51
351.3716655094006
  0
ARC
  5
1FA2
330
1656
100
AcDbEntity
  8
AM_5
100
AcDbCircle
 10
-0.0000000000000002
 20
25.18050823286688
 30
0.0
 40
8.308375682875782
100
AcDbArc
 50
13.62833449059974
 51
22.25666898119913
  0
ARC
  5
1FA3
330
1656
100
AcDbEntity
  8
AM_5
100
AcDbCircle
 10
-0.0000000000000002
 20
25.18050823286688
 30
0.0
 40
8.308375682875782
100
AcDbArc
 50
0.0000000000000127
 51
5.00000000000035
  0
INSERT
  5
1FA4
330
1656
100
AcDbEntity
  8
AM_5
100
AcDbBlockReference
  2
_OPEN30
 10
8.308375682875784
 20
25.18050823286688
 30
0.0
 41
1.25
 42
1.25
 43
1.25
 50
85.68583275470031
  0
INSERT
  5
1FA5
330
1656
100
AcDbEntity
  8
AM_5
100
AcDbBlockReference
  2
_OPEN30
 10
8.276759805035236
 20
25.90463088653455
 30
0.0
 41
1.25
 42
1.25
 43
1.25
 50
279.3141672453
  0
MTEXT
  5
1FA6
330
1656
100
AcDbEntity
  8
AM_5
 62
     2
100
AcDbMText
 10
8.382103694584989
 20
18.9422399942167
 30
0.0
 40
1.6
 41
0.0
 71
     5
 72
     1
  1
-5°
  7
ASAMI
 11
-0.2974761757992288
 21
-0.9547292416344365
 31
0.0
1001
ACAD
1000
MTEXTBEGIN
1070
    73
1070
     1
1070
    44
1040
1.0
1070
    74
1070
     0
1000
MTEXTEND
  0
POINT
  5
1FA7
330
1656
100
AcDbEntity
  8
DEFPOINTS
 62
     0
100
AcDbPoint
 10
8.29431922619751
 20
25.66359731547168
 30
0.0
  0
POINT
  5
1FA8
330
1656
100
AcDbEntity
  8
DEFPOINTS
 62
     0
100
AcDbPoint
 10
-0.0000000000000002
 20
25.18050823286688
 30
0.0
  0
POINT
  5
1FA9
330
1656
100
AcDbEntity
  8
DEFPOINTS
 62
     0
100
AcDbPoint
 10
-10.37325782233062
 20
24.27296576958127
 30
0.0
  0
POINT
  5
1FAA
330
1656
100
AcDbEntity
  8
DEFPOINTS
 62
     0
100
AcDbPoint
 10
-0.0000000000000002
 20
25.18050823286688
 30
0.0
  0
POINT
  5
1FAB
330
1656
100
AcDbEntity
  8
DEFPOINTS
 62
     0
100
AcDbPoint
 10
-2.254148120101234
 20
25.18050823286688
 30
0.0
  0
ENDBLK
  5
1666
330
1656
100
AcDbEntity
  8
0
100
AcDbBlockEnd
  0
BLOCK
  5
17A4
330
179A
100
AcDbEntity
  8
0
100
AcDbBlockBegin
  2
*D8
 70
     1
 10
0.0
 20
0.0
 30
0.0
  3
*D8
  1

  0
LINE
  5
1CD5
330
179A
100
AcDbEntity
  8
AM_5
100
AcDbLine
 10
-80.49999999999997
 20
36.68050823286689
 30
0.0
 11
-87.49999999999996
 21
36.68050823286689
 31
0.0
  0
LINE
  5
1CD6
330
179A
100
AcDbEntity
  8
AM_5
100
AcDbLine
 10
-80.49999999999997
 20
24.68050823286688
 30
0.0
 11
-87.49999999999998
 21
24.68050823286688
 31
0.0
  0
LINE
  5
1CD7
330
179A
100
AcDbEntity
  8
AM_5
100
AcDbLine
 10
-86.99999999999995
 20
35.43050823286689
 30
0.0
 11
-86.99999999999997
 21
25.93050823286688
 31
0.0
  0
INSERT
  5
1CD8
330
179A
100
AcDbEntity
  8
AM_5
100
AcDbBlockReference
  2
_OPEN30
 10
-86.99999999999995
 20
36.68050823286689
 30
0.0
 41
1.25
 42
1.25
 43
1.25
 50
90.0
  0
INSERT
  5
1CD9
330
179A
100
AcDbEntity
  8
AM_5
100
AcDbBlockReference
  2
_OPEN30
 10
-86.99999999999997
 20
24.68050823286688
 30
0.0
 41
1.25
 42
1.25
 43
1.25
 50
270.0
  0
MTEXT
  5
1CDA
330
179A
100
AcDbEntity
  8
AM_5
 62
     2
100
AcDbMText
 10
-88.54999999999996
 20
30.68050823286688
 30
0.0
 40
1.6
 41
0.0
 71
     5
 72
     1
  1
12
  7
ASAMI
 11
0.0000000000000001
 21
1.0
 31
0.0
1001
ACAD
1000
MTEXTBEGIN
1070
    73
1070
     1
1070
    44
1040
1.0
1070
    74
1070
     0
1000
MTEXTEND
  0
POINT
  5
1CDB
330
179A
100
AcDbEntity
  8
DEFPOINTS
 62
     0
100
AcDbPoint
 10
-79.99999999999997
 20
36.68050823286688
 30
0.0
  0
POINT
  5
1CDC
330
179A
100
AcDbEntity
  8
DEFPOINTS
 62
     0
100
AcDbPoint
 10
-79.99999999999997
 20
24.68050823286688
 30
0.0
  0
POINT
  5
1CDD
330
179A
100
AcDbEntity
  8
DEFPOINTS
 62
     0
100
AcDbPoint
 10
-86.99999999999997
 20
24.68050823286688
 30
0.0
  0
ENDBLK
  5
17A5
330
179A
100
AcDbEntity
  8
0
100
AcDbBlockEnd
  0
BLOCK
  5
1830
330
1826
100
AcDbEntity
  8
0
100
AcDbBlockBegin
  2
*D9
 70
     1
 10
0.0
 20
0.0
 30
0.0
  3
*D9
  1

  0
LINE
  5
1CCC
330
1826
100
AcDbEntity
  8
AM_5
100
AcDbLine
 10
-80.49999999999997
 20
-3.999999999999943
 30
0.0
 11
-87.49999999999998
 21
-3.999999999999941
 31
0.0
  0
LINE
  5
1CCD
330
1826
100
AcDbEntity
  8
AM_5
100
AcDbLine
 10
-80.49999999999997
 20
-15.99999999999994
 30
0.0
 11
-87.49999999999998
 21
-15.99999999999994
 31
0.0
  0
LINE
  5
1CCE
330
1826
100
AcDbEntity
  8
AM_5
100
AcDbLine
 10
-86.99999999999997
 20
-5.249999999999941
 30
0.0
 11
-86.99999999999997
 21
-14.74999999999994
 31
0.0
  0
INSERT
  5
1CCF
330
1826
100
AcDbEntity
  8
AM_5
100
AcDbBlockReference
  2
_OPEN30
 10
-86.99999999999997
 20
-3.999999999999941
 30
0.0
 41
1.25
 42
1.25
 43
1.25
 50
90.0
  0
INSERT
  5
1CD0
330
1826
100
AcDbEntity
  8
AM_5
100
AcDbBlockReference
  2
_OPEN30
 10
-86.99999999999997
 20
-15.99999999999994
 30
0.0
 41
1.25
 42
1.25
 43
1.25
 50
270.0
  0
MTEXT
  5
1CD1
330
1826
100
AcDbEntity
  8
AM_5
 62
     2
100
AcDbMText
 10
-88.54999999999996
 20
-9.999999999999955
 30
0.0
 40
1.6
 41
0.0
 71
     5
 72
     1
  1
12
  7
ASAMI
 11
0.0000000000000001
 21
1.0
 31
0.0
1001
ACAD
1000
MTEXTBEGIN
1070
    73
1070
     1
1070
    44
1040
1.0
1070
    74
1070
     0
1000
MTEXTEND
  0
POINT
  5
1CD2
330
1826
100
AcDbEntity
  8
DEFPOINTS
 62
     0
100
AcDbPoint
 10
-79.99999999999997
 20
-3.999999999999943
 30
0.0
  0
POINT
  5
1CD3
330
1826
100
AcDbEntity
  8
DEFPOINTS
 62
     0
100
AcDbPoint
 10
-79.99999999999997
 20
-15.99999999999994
 30
0.0
  0
POINT
  5
1CD4
330
1826
100
AcDbEntity
  8
DEFPOINTS
 62
     0
100
AcDbPoint
 10
-86.99999999999997
 20
-15.99999999999994
 30
0.0
  0
ENDBLK
  5
1831
330
1826
100
AcDbEntity
  8
0
100
AcDbBlockEnd
  0
BLOCK
  5
18C2
330
18B3
100
AcDbEntity
  8
0
100
AcDbBlockBegin
  2
*D10
 70
     1
 10
0.0
 20
0.0
 30
0.0
  3
*D10
  1

  0
LINE
  5
1D05
330
18B3
100
AcDbEntity
  8
AM_5
100
AcDbLine
 10
0.0000000000000356
 20
0.5
 30
0.0
 11
0.0000000000005791
 21
8.128943789212989
 31
0.0
  0
ARC
  5
1D06
330
18B3
100
AcDbEntity
  8
AM_5
100
AcDbCircle
 10
0.0000000000000001
 20
-0.0000000000000001
 30
0.0
 40
7.628943789212988
100
AcDbArc
 50
99.39842841713797
 51
170.6015715828579
  0
INSERT
  5
1D07
330
18B3
100
AcDbEntity
  8
AM_5
100
AcDbBlockReference
  2
_OPEN30
 10
0.0000000000005436
 20
7.628943789212988
 30
0.0
 41
1.25
 42
1.25
 43
1.25
 50
4.699214208566943
  0
INSERT
  5
1D08
330
18B3
100
AcDbEntity
  8
AM_5
100
AcDbBlockReference
  2
_OPEN30
 10
-7.628943789212988
 20
-0.0000000000000004
 30
0.0
 41
1.25
 42
1.25
 43
1.25
 50
265.3007857914289
  0
MTEXT
  5
1D09
330
18B3
100
AcDbEntity
  8
AM_5
 62
     2
100
AcDbMText
 10
-6.490493397482418
 20
6.490493397482877
 30
0.0
 40
1.6
 41
0.0
 71
     5
 72
     1
  1
90°
  7
ASAMI
 11
0.7071067811865723
 21
0.7071067811865229
 31
0.0
1001
ACAD
1000
MTEXTBEGIN
1070
    73
1070
     1
1070
    44
1040
1.0
1070
    74
1070
     0
1000
MTEXTEND
  0
POINT
  5
1D0A
330
18B3
100
AcDbEntity
  8
DEFPOINTS
 62
     0
100
AcDbPoint
 10
-3.814471894606179
 20
6.606859125502144
 30
0.0
  0
POINT
  5
1D0B
330
18B3
100
AcDbEntity
  8
DEFPOINTS
 62
     0
100
AcDbPoint
 10
1.110000000000042
 20
0.0
 30
0.0
  0
POINT
  5
1D0C
330
18B3
100
AcDbEntity
  8
DEFPOINTS
 62
     0
100
AcDbPoint
 10
-0.0000000000000284
 20
-0.3999999999999772
 30
0.0
  0
POINT
  5
1D0D
330
18B3
100
AcDbEntity
  8
DEFPOINTS
 62
     0
100
AcDbPoint
 10
0.0
 20
0.0
 30
0.0
  0
POINT
  5
1D0E
330
18B3
100
AcDbEntity
  8
DEFPOINTS
 62
     0
100
AcDbPoint
 10
-10.70570230503477
 20
0.0
 30
0.0
  0
ENDBLK
  5
18C3
330
18B3
100
AcDbEntity
  8
0
100
AcDbBlockEnd
  0
BLOCK
  5
1998
330
1989
100
AcDbEntity
  8
0
100
AcDbBlockBegin
  2
*D11
 70
     1
 10
0.0
 20
0.0
 30
0.0
  3
*D11
  1

  0
LINE
  5
1DF4
330
1989
100
AcDbEntity
  8
AM_5
100
AcDbLine
 10
19.18898283868353
 20
0.4980973490458726
 30
0.0
 11
19.77700178975084
 21
7.219184714760128
 31
0.0
  0
LINE
  5
1DF5
330
1989
100
AcDbEntity
  8
AM_5
100
AcDbLine
 10
19.1454049673097
 20
0.4999999999999999
 30
0.0
 11
19.14540496730971
 21
7.246760827565931
 31
0.0
  0
ARC
  5
1DF6
330
1989
100
AcDbEntity
  8
AM_5
100
AcDbCircle
 10
19.1454049673097
 20
0.0
 30
0.0
 40
6.746760827565929
100
AcDbArc
 50
63.64577381592321
 51
84.99999999999996
  0
LINE
  5
1DF7
330
1989
100
AcDbEntity
  8
AM_5
100
AcDbLine
 10
22.14042332208037
 20
6.045547677337835
 30
0.0
 11
28.34547183638414
 21
2.97151118230752
 31
0.0
  0
ARC
  5
1DF8
330
1989
100
AcDbEntity
  8
AM_5
100
AcDbCircle
 10
19.1454049673097
 20
0.0
 30
0.0
 40
6.746760827565929
100
AcDbArc
 50
63.73866899736847
 51
74.36933449868421
  0
ARC
  5
1DF9
330
1989
100
AcDbEntity
  8
AM_5
100
AcDbCircle
 10
19.1454049673097
 20
0.0
 30
0.0
 40
6.746760827565929
100
AcDbArc
 50
100.6306655013156
 51
111.2613310026314
  0
ARC
  5
1DFA
330
1989
100
AcDbEntity
  8
AM_5
100
AcDbCircle
 10
19.1454049673097
 20
0.0
 30
0.0
 40
6.746760827565929
100
AcDbArc
 50
84.99999999999996
 51
89.99999999999991
  0
INSERT
  5
1DFB
330
1989
100
AcDbEntity
  8
AM_5
100
AcDbBlockReference
  2
_OPEN30
 10
19.73342391837701
 20
6.721087365714256
 30
0.0
 41
1.25
 42
1.25
 43
1.25
 50
169.684667249342
  0
INSERT
  5
1DFC
330
1989
100
AcDbEntity
  8
AM_5
100
AcDbBlockReference
  2
_OPEN30
 10
19.1454049673097
 20
6.74676082756593
 30
0.0
 41
1.25
 42
1.25
 43
1.25
 50
5.315332750657775
  0
MTEXT
  5
1DFD
330
1989
100
AcDbEntity
  8
AM_5
 62
     2
100
AcDbMText
 10
25.93102272648323
 20
5.897432807216349
 30
0.0
 40
1.6
 41
0.0
 71
     5
 72
     1
  1
-5°
  7
ASAMI
 11
0.8960666950926917
 21
-0.4439194498393388
 31
0.0
1001
ACAD
1000
MTEXTBEGIN
1070
    73
1070
     1
1070
    44
1040
1.0
1070
    74
1070
     0
1000
MTEXTEND
  0
POINT
  5
1DFE
330
1989
100
AcDbEntity
  8
DEFPOINTS
 62
     0
100
AcDbPoint
 10
19.3416326084065
 20
6.743906610952414
 30
0.0
  0
POINT
  5
1DFF
330
1989
100
AcDbEntity
  8
DEFPOINTS
 62
     0
100
AcDbPoint
 10
19.1454049673097
 20
0.0
 30
0.0
  0
POINT
  5
1E00
330
1989
100
AcDbEntity
  8
DEFPOINTS
 62
     0
100
AcDbPoint
 10
19.1454049673097
 20
0.0
 30
0.0
  0
POINT
  5
1E01
330
1989
100
AcDbEntity
  8
DEFPOINTS
 62
     0
100
AcDbPoint
 10
19.14540496730969
 20
-1.216470403797984
 30
0.0
  0
POINT
  5
1E02
330
1989
100
AcDbEntity
  8
DEFPOINTS
 62
     0
100
AcDbPoint
 10
18.23786250402415
 20
-10.37325782233063
 30
0.0
  0
ENDBLK
  5
1999
330
1989
100
AcDbEntity
  8
0
100
AcDbBlockEnd
  0
BLOCK
  5
1A9D
330
1A93
100
AcDbEntity
  8
0
100
AcDbBlockBegin
  2
*D12
 70
     1
 10
0.0
 20
0.0
 30
0.0
  3
*D12
  1

  0
LINE
  5
1CED
330
1A93
100
AcDbEntity
  8
AM_5
100
AcDbLine
 10
0.5
 20
-0.0000000000000001
 30
0.0
 11
7.500000000000003
 21
-0.0000000000000021
 31
0.0
  0
LINE
  5
1CEE
330
1A93
100
AcDbEntity
  8
AM_5
100
AcDbLine
 10
-7.627604307033976
 20
-16.0
 30
0.0
 11
7.5
 21
-16.0
 31
0.0
  0
LINE
  5
1CEF
330
1A93
100
AcDbEntity
  8
AM_5
100
AcDbLine
 10
7.000000000000003
 20
-1.250000000000001
 30
0.0
 11
7.0
 21
-14.75
 31
0.0
  0
INSERT
  5
1CF0
330
1A93
100
AcDbEntity
  8
AM_5
100
AcDbBlockReference
  2
_OPEN30
 10
7.000000000000003
 20
-0.000000000000002
 30
0.0
 41
1.25
 42
1.25
 43
1.25
 50
90.0
  0
INSERT
  5
1CF1
330
1A93
100
AcDbEntity
  8
AM_5
100
AcDbBlockReference
  2
_OPEN30
 10
7.0
 20
-16.0
 30
0.0
 41
1.25
 42
1.25
 43
1.25
 50
270.0
  0
MTEXT
  5
1CF2
330
1A93
100
AcDbEntity
  8
AM_5
 62
     2
100
AcDbMText
 10
5.450000000000002
 20
-8.000000000000001
 30
0.0
 40
1.6
 41
0.0
 71
     5
 72
     1
  1
16
  7
ASAMI
 11
0.0000000000000001
 21
1.0
 31
0.0
1001
ACAD
1000
MTEXTBEGIN
1070
    73
1070
     1
1070
    44
1040
1.0
1070
    74
1070
     0
1000
MTEXTEND
  0
POINT
  5
1CF3
330
1A93
100
AcDbEntity
  8
DEFPOINTS
 62
     0
100
AcDbPoint
 10
0.0
 20
0.0
 30
0.0
  0
POINT
  5
1CF4
330
1A93
100
AcDbEntity
  8
DEFPOINTS
 62
     0
100
AcDbPoint
 10
-8.127604307033976
 20
-16.0
 30
0.0
  0
POINT
  5
1CF5
330
1A93
100
AcDbEntity
  8
DEFPOINTS
 62
     0
100
AcDbPoint
 10
7.0
 20
-16.0
 30
0.0
  0
ENDBLK
  5
1A9E
330
1A93
100
AcDbEntity
  8
0
100
AcDbBlockEnd
  0
BLOCK
  5
1F1C
330
1F17
100
AcDbEntity
  8
0
100
AcDbBlockBegin
  2
A$C6C544E8B
 70
     0
 10
0.0
 20
0.0
 30
0.0
  3
A$C6C544E8B
  1

  0
LINE
  5
1F18
330
1F17
100
AcDbEntity
  8
AM_0
100
AcDbLine
 10
3.179999999999999
 20
0.0000000000000017
 30
0.0
 11
3.180000000000006
 21
-13.48749999999997
 31
0.0
  0
LINE
  5
1F19
330
1F17
100
AcDbEntity
  8
AM_0
100
AcDbLine
 10
0.0
 20
0.0
 30
0.0
 11
0.0000000000000071
 21
-13.48749999999997
 31
0.0
  0
LINE
  5
1F1A
330
1F17
100
AcDbEntity
  8
AM_0
100
AcDbLine
 10
0.0000000000000071
 20
-13.48749999999997
 30
0.0
 11
3.180000000000006
 21
-13.48749999999997
 31
0.0
  0
LINE
  5
1F1B
330
1F17
100
AcDbEntity
  8
AM_0
100
AcDbLine
 10
0.0
 20
0.0
 30
0.0
 11
3.179999999999999
 21
0.0
 31
0.0
  0
ENDBLK
  5
1F1D
330
1F17
100
AcDbEntity
  8
0
100
AcDbBlockEnd
  0
BLOCK
  5
1F25
330
1F20
100
AcDbEntity
  8
0
100
AcDbBlockBegin
  2
A$C56F62234
 70
     0
 10
0.0
 20
0.0
 30
0.0
  3
A$C56F62234
  1

  0
LINE
  5
1F21
330
1F20
100
AcDbEntity
  8
AM_0
100
AcDbLine
 10
3.179999999999999
 20
0.0000000000000025
 30
0.0
 11
3.180000000000006
 21
-9.124999999999969
 31
0.0
  0
LINE
  5
1F22
330
1F20
100
AcDbEntity
  8
AM_0
100
AcDbLine
 10
0.0
 20
0.0
 30
0.0
 11
0.0000000000000071
 21
-9.124999999999971
 31
0.0
  0
LINE
  5
1F23
330
1F20
100
AcDbEntity
  8
AM_0
100
AcDbLine
 10
0.0000000000000071
 20
-9.124999999999971
 30
0.0
 11
3.180000000000006
 21
-9.124999999999971
 31
0.0
  0
LINE
  5
1F24
330
1F20
100
AcDbEntity
  8
AM_0
100
AcDbLine
 10
0.0
 20
0.0
 30
0.0
 11
3.179999999999999
 21
0.0000000000000025
 31
0.0
  0
ENDBLK
  5
1F26
330
1F20
100
AcDbEntity
  8
0
100
AcDbBlockEnd
  0
ENDSEC
  0
SECTION
  2
ENTITIES
  0
LINE
  5
11C9
330
1F
100
AcDbEntity
  8
AM_0
100
AcDbLine
 10
-10.70570230503477
 20
0.0
 30
0.0
 11
-11.58059892324143
 21
0.0
 31
0.0
  0
LINE
  5
11CD
330
1F
100
AcDbEntity
  8
AM_0
100
AcDbLine
 10
-4.797851152517353
 20
-10.2326983597145
 30
0.0
 11
-8.127604307033976
 21
-16.0
 31
0.0
  0
LINE
  5
11D2
330
1F
100
AcDbEntity
  8
AM_0
100
AcDbLine
 10
-8.127604307033976
 20
-16.0
 30
0.0
 11
-79.99999999999997
 21
-15.99999999999994
 31
0.0
  0
LINE
  5
11D3
330
1F
100
AcDbEntity
  8
AM_0
100
AcDbLine
 10
-79.99999999999997
 20
-15.99999999999994
 30
0.0
 11
-79.99999999999997
 21
-3.999999999999943
 31
0.0
  0
LINE
  5
11D4
330
1F
100
AcDbEntity
  8
AM_0
100
AcDbLine
 10
-79.99999999999997
 20
-3.999999999999943
 30
0.0
 11
-14.46735026918958
 21
-4.0
 31
0.0
  0
LINE
  5
11E7
330
1F
100
AcDbEntity
  8
AM_11
100
AcDbLine
 10
-13.88999999999995
 20
-4.0
 30
0.0
 11
-13.60132486540516
 21
-3.5
 31
0.0
  0
LINE
  5
11F5
330
1F
100
AcDbEntity
  8
AM_11
100
AcDbLine
 10
-14.46735026918958
 20
-4.0
 30
0.0
 11
-13.88999999999995
 21
-4.0
 31
0.0
  0
ARC
  5
11F6
330
1F
100
AcDbEntity
  8
AM_0
100
AcDbCircle
 10
-14.4673502691896
 20
-3.0
 30
0.0
 40
1.0
100
AcDbArc
 50
270.0
 51
329.9999999999998
1001
GENIUS_GENODEF_13
1002
{
1000
HIER
1070
     0
1002
}
1002
{
1000
MANEDIT
1070
     0
1002
}
1002
{
1000
NOSEL
1070
     0
1002
}
1002
{
1000
BEHIND
1070
     0
1002
}
1002
{
1000
REACTOR
1002
}
1001
GENIUS_GENOBJ-N-FIL_13
1002
{
1000
OWNER
1000
GEN
1002
}
  0
LINE
  5
11FA
330
1F
100
AcDbEntity
  8
AM_0
100
AcDbLine
 10
-13.60132486540516
 20
-3.5
 30
0.0
 11
-11.58059892324143
 21
0.0
 31
0.0
  0
LINE
  5
12C3
330
1F
100
AcDbEntity
  8
AM_0
100
AcDbLine
 10
22.30950604549451
 20
-0.3205673063542918
 30
0.0
 11
30.64540496730968
 21
-1.049863962311121
 31
0.0
  0
LINE
  5
12C4
330
1F
100
AcDbEntity
  8
AM_0
100
AcDbLine
 10
18.6454049673097
 20
-9.116111685820055
 30
0.0
 11
18.6454049673097
 21
-16.0
 31
0.0
  0
LINE
  5
12C5
330
1F
100
AcDbEntity
  8
AM_0
100
AcDbLine
 10
18.6454049673097
 20
-16.0
 30
0.0
 11
30.64540496730968
 21
-16.0
 31
0.0
  0
LINE
  5
12C6
330
1F
100
AcDbEntity
  8
AM_0
100
AcDbLine
 10
30.64540496730968
 20
-16.0
 30
0.0
 11
30.64540496730968
 21
-1.049863962311064
 31
0.0
  0
ARC
  5
12F9
330
1F
100
AcDbEntity
  8
AM_0
100
AcDbCircle
 10
-0.6002235877362239
 20
-1.124582941681126
 30
0.0
 40
0.8
100
AcDbArc
 50
329.9999999999999
 51
44.88534654507276
1001
GENIUS_GENODEF_13
1002
{
1000
HIER
1070
     0
1002
}
1002
{
1000
MANEDIT
1070
     0
1002
}
1002
{
1000
NOSEL
1070
     0
1002
}
1002
{
1000
BEHIND
1070
     0
1002
}
1002
{
1000
REACTOR
1002
}
1001
GENIUS_GENOBJ-N-FIL_13
1002
{
1000
OWNER
1000
GEN
1002
}
  0
LINE
  5
12FA
330
1F
100
AcDbEntity
  8
AM_0
100
AcDbLine
 10
-10.41290821711274
 20
24.68050823286683
 30
0.0
 11
-79.99999999999997
 21
24.68050823286688
 31
0.0
  0
LINE
  5
12FB
330
1F
100
AcDbEntity
  8
AM_0
100
AcDbLine
 10
-79.99999999999997
 20
24.68050823286688
 30
0.0
 11
-79.99999999999997
 21
36.68050823286688
 31
0.0
  0
LINE
  5
12FC
330
1F
100
AcDbEntity
  8
AM_0
100
AcDbLine
 10
-79.99999999999997
 20
36.68050823286688
 30
0.0
 11
-0.5255046083661222
 21
36.68050823286688
 31
0.0
  0
LINE
  5
1302
330
1F
100
AcDbEntity
  8
AM_0
100
AcDbLine
 10
22.3554049673097
 20
-0.3245829416811716
 30
0.0
 11
21.47727544408696
 21
-10.3616493207159
 31
0.0
  0
LINE
  5
1310
330
1F
100
AcDbEntity
  8
AM_0
100
AcDbLine
 10
0.0925967352913517
 20
-1.52458294168116
 30
0.0
 11
-4.866443598980964
 21
-10.11389275742413
 31
0.0
  0
LINE
  5
1377
330
1F
100
AcDbEntity
  8
AM_0
100
AcDbLine
 10
-10.37325782233063
 20
24.27296576958127
 30
0.0
 11
0.0
 21
25.18050823286688
 31
0.0
  0
LINE
  5
1378
330
1F
100
AcDbEntity
  8
AM_0
100
AcDbLine
 10
-0.2771552619375655
 20
28.3027437498996
 30
0.0
 11
-10.65041308426816
 21
27.39520128661411
 31
0.0
  0
LINE
  5
1379
330
1F
100
AcDbEntity
  8
AM_0
100
AcDbLine
 10
0.0
 20
25.18050823286688
 30
0.0
 11
-0.2771552619375655
 21
28.34840737279859
 31
0.0
  0
LINE
  5
137A
330
1F
100
AcDbEntity
  8
AM_0
100
AcDbLine
 10
-10.65041308426816
 20
27.44086490951309
 30
0.0
 11
-10.37325782233063
 21
24.27296576958127
 31
0.0
  0
LINE
  5
137F
330
1F
100
AcDbEntity
  8
AM_0
100
AcDbLine
 10
0.204225010934266
 20
28.33966051738923
 30
0.0
 11
-0.2767039026372515
 21
28.29758468948989
 31
0.0
  0
LINE
  5
138E
330
1F
100
AcDbEntity
  8
AM_7
  6
AM_ISO08W050X2
100
AcDbLine
 10
-4.925161682922322
 20
21.69248928404988
 30
0.0
 11
-7.016899508866117
 21
45.60116203825169
 31
0.0
1001
GENIUS_GENODEF_13
1002
{
1000
HIER
1070
     0
1002
}
1002
{
1000
MANEDIT
1070
     0
1002
}
1002
{
1000
NOSEL
1070
     0
1002
}
1002
{
1000
BEHIND
1070
     0
1002
}
1002
{
1000
REACTOR
1002
}
1001
GENIUS_GENOBJ-N-CEN_13
1002
{
1000
OWNER
1000
GEN
1002
}
  0
LINE
  5
13EA
330
1F
100
AcDbEntity
  8
AM_0
100
AcDbLine
 10
-10.70570230503474
 20
0.0
 30
0.0
 11
-4.797851152517381
 21
-10.23269835971456
 31
0.0
  0
LINE
  5
13EB
330
1F
100
AcDbEntity
  8
AM_0
100
AcDbLine
 10
-4.860030829489886
 20
-8.924999999999954
 30
0.0
 11
-0.0535898384862605
 21
-0.6000000000000228
 31
0.0
  0
LINE
  5
13EC
330
1F
100
AcDbEntity
  8
AM_0
100
AcDbLine
 10
-0.4000000000000057
 20
0.0
 30
0.0
 11
-10.0128819820072
 21
0.0
 31
0.0
  0
LINE
  5
13ED
330
1F
100
AcDbEntity
  8
AM_11
100
AcDbLine
 10
-0.4000000000000057
 20
0.0
 30
0.0
 11
0.0
 21
0.0
 31
0.0
  0
LINE
  5
13EE
330
1F
100
AcDbEntity
  8
AM_11
100
AcDbLine
 10
-0.0000000000000284
 20
-0.3999999999999772
 30
0.0
 11
0.0
 21
0.0
 31
0.0
  0
ARC
  5
13EF
330
1F
100
AcDbEntity
  8
AM_0
100
AcDbCircle
 10
-0.4000000000000341
 20
-0.3999999999999772
 30
0.0
 40
0.400000000000007
100
AcDbArc
 50
329.9999999999966
 51
90.0
  0
ARC
  5
13F0
330
1F
100
AcDbEntity
  8
AM_0
100
AcDbCircle
 10
-10.01288198200722
 20
-0.3999999999999772
 30
0.0
 40
0.3999999999999772
100
AcDbArc
 50
90.0
 51
210.0000000000033
  0
ARC
  5
13F1
330
1F
100
AcDbEntity
  8
AM_0
100
AcDbCircle
 10
-5.206440991003688
 20
-8.724999999999965
 30
0.0
 40
0.400000000000007
100
AcDbArc
 50
210.0000000000033
 51
329.9999999999966
  0
LINE
  5
1428
330
1F
100
AcDbEntity
  8
AM_0
100
AcDbLine
 10
-8.498773002283598
 20
42.46005539416808
 30
0.0
 11
-5.012091558962509
 21
42.76510049378487
 31
0.0
  0
LINE
  5
1429
330
1F
100
AcDbEntity
  8
AM_0
100
AcDbLine
 10
-4.475990208116684
 20
36.63743401403576
 30
0.0
 11
-5.012091558962509
 21
42.76510049378498
 31
0.0
  0
LINE
  5
142A
330
1F
100
AcDbEntity
  8
AM_0
100
AcDbLine
 10
-7.98953495878365
 20
36.63943792240718
 30
0.0
 11
-8.498773002283627
 21
42.46005539416808
 31
0.0
  0
LINE
  5
143E
330
1F
100
AcDbEntity
  8
AM_7
  6
AM_ISO08W050X2
100
AcDbLine
 10
15.86626173995387
 20
-3.059638859913007
 30
0.0
 11
39.77493449415575
 21
-5.151376685856944
 31
0.0
1001
GENIUS_GENODEF_13
1002
{
1000
HIER
1070
     0
1002
}
1002
{
1000
MANEDIT
1070
     0
1002
}
1002
{
1000
NOSEL
1070
     0
1002
}
1002
{
1000
BEHIND
1070
     0
1002
}
1002
{
1000
REACTOR
1002
}
1001
GENIUS_GENOBJ-N-CEN_13
1002
{
1000
OWNER
1000
GEN
1002
}
  0
LINE
  5
1461
330
1F
100
AcDbEntity
  8
AM_0
100
AcDbLine
 10
36.93887294968894
 20
-3.146568735953365
 30
0.0
 11
36.63382785007209
 21
-6.633250179274539
 31
0.0
  0
LINE
  5
1462
330
1F
100
AcDbEntity
  8
AM_0
100
AcDbLine
 10
30.64540496730968
 20
-6.109331064633574
 30
0.0
 11
36.63382785007209
 21
-6.633250179274482
 31
0.0
  0
LINE
  5
1463
330
1F
100
AcDbEntity
  8
AM_0
100
AcDbLine
 10
30.64540496730969
 20
-2.595961633231802
 30
0.0
 11
36.93887294968891
 21
-3.146568735953365
 31
0.0
  0
DIMENSION
  5
1514
330
1F
100
AcDbEntity
  8
AM_5
100
AcDbDimension
  2
*D5
 10
-79.99999999999997
 20
10.22730114668229
 30
0.0
 11
-39.99999999999998
 21
11.77730114668229
 31
0.0
 70
    32
  1
<>
  3
AM_JIS
100
AcDbAlignedDimension
 13
0.0
 23
25.1348446099679
 33
0.0
 14
-79.99999999999997
 24
24.68050823286688
 34
0.0
100
AcDbRotatedDimension
1001
GENIUS_GENDTOL_13
1000

1000
h7
1000

1040
0.0
  0
DIMENSION
  5
15BF
330
1F
100
AcDbEntity
  8
AM_5
100
AcDbDimension
  2
*D6
 10
13.16320757073091
 20
25.18050823286688
 30
0.0
 11
11.61320757073091
 21
30.93050823286688
 31
0.0
 70
    32
  1
<>
  3
AM_JIS
100
AcDbAlignedDimension
 13
-0.5255046083661222
 23
36.68050823286688
 33
0.0
 14
0.0
 24
25.18050823286688
 34
0.0
 50
90.0
100
AcDbRotatedDimension
1001
GENIUS_GENDTOL_13
1000

1000
h7
1000

1040
0.0
  0
DIMENSION
  5
1655
330
1F
100
AcDbEntity
  8
AM_5
100
AcDbDimension
  2
*D7
 10
-2.254148120101234
 20
25.18050823286688
 30
0.0
 11
8.382103694584991
 21
18.9422399942167
 31
0.0
 70
    34
  1
-<>
  3
AM_JIS$2
100
AcDb2LineAngularDimension
 13
-10.37325782233063
 23
24.27296576958127
 33
0.0
 14
0.0
 24
25.18050823286688
 34
0.0
 15
0.0
 25
25.18050823286688
 35
0.0
 16
8.29431922619751
 26
25.66359731547168
 36
0.0
1001
ACAD
1000
DSTYLE
1002
{
1070
   179
1070
     3
1002
}
1001
GENIUS_GENDTOL_13
1000

1000
h7
1000

1040
0.0
  0
DIMENSION
  5
1799
330
1F
100
AcDbEntity
  8
AM_5
100
AcDbDimension
  2
*D8
 10
-86.99999999999997
 20
24.68050823286688
 30
0.0
 11
-88.54999999999996
 21
30.68050823286688
 31
0.0
 70
    32
  1
<>
  3
AM_JIS
100
AcDbAlignedDimension
 13
-79.99999999999997
 23
36.68050823286688
 33
0.0
 14
-79.99999999999997
 24
24.68050823286688
 34
0.0
 50
270.0
100
AcDbRotatedDimension
1001
GENIUS_GENDTOL_13
1000

1000
h7
1000

1040
0.0
  0
DIMENSION
  5
1825
330
1F
100
AcDbEntity
  8
AM_5
100
AcDbDimension
  2
*D9
 10
-86.99999999999997
 20
-15.99999999999994
 30
0.0
 11
-88.54999999999996
 21
-9.999999999999955
 31
0.0
 70
    32
  1
<>
  3
AM_JIS
100
AcDbAlignedDimension
 13
-79.99999999999997
 23
-3.999999999999943
 33
0.0
 14
-79.99999999999997
 24
-15.99999999999994
 34
0.0
 50
270.0
100
AcDbRotatedDimension
1001
GENIUS_GENDTOL_13
1000

1000
h7
1000

1040
0.0
  0
DIMENSION
  5
18B2
330
1F
100
AcDbEntity
  8
AM_5
100
AcDbDimension
  2
*D10
 10
-10.70570230503477
 20
0.0
 30
0.0
 11
-6.490493397482418
 21
6.490493397482877
 31
0.0
 70
    34
  1
<>
  3
AM_JIS$2
100
AcDb2LineAngularDimension
 13
-0.0000000000000284
 23
-0.3999999999999772
 33
0.0
 14
0.0
 24
0.0
 34
0.0
 15
1.110000000000042
 25
0.0
 35
0.0
 16
-3.814471894606179
 26
6.606859125502144
 36
0.0
1001
ACAD
1000
DSTYLE
1002
{
1070
   179
1070
     3
1002
}
1001
GENIUS_GENDTOL_13
1000

1000
h7
1000

1040
0.0
  0
DIMENSION
  5
1988
330
1F
100
AcDbEntity
  8
AM_5
100
AcDbDimension
  2
*D11
 10
18.23786250402415
 20
-10.37325782233063
 30
0.0
 11
25.93102272648323
 21
5.897432807216349
 31
0.0
 70
    34
  1
-<>
  3
AM_JIS$2
100
AcDb2LineAngularDimension
 13
19.1454049673097
 23
0.0
 33
0.0
 14
19.1454049673097
 24
-1.216470403797984
 34
0.0
 15
19.1454049673097
 25
0.0
 35
0.0
 16
19.3416326084065
 26
6.743906610952414
 36
0.0
1001
ACAD
1000
DSTYLE
1002
{
1070
   179
1070
     3
1002
}
1001
GENIUS_GENDTOL_13
1000

1000
h7
1000

1040
0.0
  0
DIMENSION
  5
1A92
330
1F
100
AcDbEntity
  8
AM_5
100
AcDbDimension
  2
*D12
 10
7.0
 20
-16.0
 30
0.0
 11
5.450000000000002
 21
-8.000000000000001
 31
0.0
 70
    32
  1
<>
  3
AM_JIS
100
AcDbAlignedDimension
 13
0.0
 23
0.0
 33
0.0
 14
-8.127604307033976
 24
-16.0
 34
0.0
 50
90.0
100
AcDbRotatedDimension
1001
GENIUS_GENDTOL_13
1000

1000
h7
1000

1040
0.0
  0
LINE
  5
1C60
330
1F
100
AcDbEntity
  8
AM_0
100
AcDbLine
 10
0.204225010934266
 20
28.33966051738923
 30
0.0
 11
-0.5255046083661222
 21
36.68050823286688
 31
0.0
  0
TEXT
  5
1D1A
330
1F
100
AcDbEntity
  8
AM_6
100
AcDbText
 10
-49.94047619047619
 20
-27.24999999999997
 30
0.0
 40
2.5
  1
ETGNR1212
 72
     4
 11
-39.99999999999999
 21
-25.99999999999997
 31
0.0
100
AcDbText
  0
LINE
  5
1F37
330
1F
100
AcDbEntity
  8
AM_0
100
AcDbLine
 10
22.31330410724145
 20
-0.2771552619375514
 30
0.0
 11
21.51800795466908
 21
-9.367431882024702
 31
0.0
  0
LINE
  5
1F38
330
1F
100
AcDbEntity
  8
AM_0
100
AcDbLine
 10
19.1454049673097
 20
-0.0000000000000004
 30
0.0
 11
18.35010881473732
 21
-9.090276620087148
 31
0.0
  0
LINE
  5
1F39
330
1F
100
AcDbEntity
  8
AM_0
100
AcDbLine
 10
18.35010881473732
 20
-9.090276620087148
 30
0.0
 11
21.51800795466908
 21
-9.367431882024703
 31
0.0
  0
LINE
  5
1F3A
330
1F
100
AcDbEntity
  8
AM_0
100
AcDbLine
 10
19.1454049673097
 20
-0.0000000000000004
 30
0.0
 11
22.31330410724145
 21
-0.2771552619375514
 31
0.0
  0
LINE
  5
1F3B
330
1F
100
AcDbEntity
  8
AM_0
100
AcDbLine
 10
18.6454049673097
 20
-10.11389275742413
 30
0.0
 11
21.47727544408696
 21
-10.3616493207159
 31
0.0
  0
LINE
  5
1FB0
330
1F
100
AcDbEntity
  8
AM_0
100
AcDbLine
 10
-10.65041308426816
 20
27.44086490951309
 30
0.0
 11
-0.2771552619375655
 21
28.34840737279859
 31
0.0
  0
CIRCLE
  5
203B
330
1F
100
AcDbEntity
  8
AM_0
100
AcDbCircle
 10
-5.206440991003603
 20
-3.175000000000005
 30
0.0
 40
1.5
  0
VIEWPORT
  5
110
330
101
100
AcDbEntity
 67
     1
  8
0
100
AcDbViewport
 10
420.5
 20
297.0
 30
0.0
 40
948.9782706766916
 41
628.452
 68
     1
 69
     1
1001
ACAD
1000
MVIEW
1002
{
1070
    16
1010
0.0
1020
0.0
1030
0.0
1010
0.0
1020
0.0
1030
1.0
1040
0.0
1040
628.452
1040
420.5
1040
297.0
1040
50.0
1040
0.0
1040
0.0
1070
     0
1070
   100
1070
     1
1070
     1
1070
     0
1070
     0
1070
     0
1070
     0
1040
0.0
1040
0.0
1040
0.0
1040
10.0
1040
10.0
1040
10.0
1040
10.0
1070
     0
1002
{
1002
}
1002
}
1001
GENIUS_GENOREF_13
1005
2066
1001
GENIUS_GENSCREG_15
1000
PF
1040
1.0
1000
DF
1040
1.0
1000
MIN
1011
-53.98913533834582
1021
-17.22599999999999
1031
0.0
1000
MAX
1011
894.989135338346
1021
611.226
1031
0.0
1000
FLAGS
1070
     4
  0
ENDSEC
  0
SECTION
  2
OBJECTS
  0
DICTIONARY
  5
C
330
0
100
AcDbDictionary
  3
ACAD_GROUP
350
D
  3
ACAD_LAYOUT
350
1A
  3
ACAD_MLINESTYLE
350
17
  3
ACAD_PLOTSETTINGS
350
19
  3
ACAD_PLOTSTYLENAME
350
E
  3
ACDBVARIABLEDICTIONARY
350
34
  3
ACMDICTIONARY
350
43
  3
AMG
350
2B
  3
AMGSNAPSETTINGS
350
6E
  3
DWGPROPS
350
2058
  3
ACDBHEADERROUNDTRIPXREC
350
206F
  0
DICTIONARY
  5
74
330
1F
100
AcDbDictionary
280
     1
  3
ACAD_INDEX
360
205A
  3
ACAD_LAYOUTSELFREF
360
2092
  0
DICTIONARY
  5
2097
330
101
100
AcDbDictionary
280
     1
  3
ACAD_LAYOUTSELFREF
360
2098
  0
DICTIONARY
  5
D
102
{ACAD_REACTORS
330
C
102
}
330
C
100
AcDbDictionary
  0
DICTIONARY
  5
1A
102
{ACAD_REACTORS
330
C
102
}
330
C
100
AcDbDictionary
  0
DICTIONARY
  5
17
102
{ACAD_REACTORS
330
C
102
}
330
C
100
AcDbDictionary
  3
STANDARD
350
18
  0
DICTIONARY
  5
19
102
{ACAD_REACTORS
330
C
102
}
330
C
100
AcDbDictionary
  0
ACDBDICTIONARYWDFLT
  5
E
102
{ACAD_REACTORS
330
C
102
}
330
C
100
AcDbDictionary
281
     1
  3
Normal
350
F
100
AcDbDictionaryWithDefault
340
F
  0
DICTIONARY
  5
34
102
{ACAD_REACTORS
330
C
102
}
330
C
100
AcDbDictionary
  3
INDEXCTL
350
35
  3
SORTENTS
350
B5E
  0
DICTIONARY
  5
43
102
{ACAD_REACTORS
330
C
102
}
330
C
100
AcDbDictionary
  3
ACMSTDDICTIONARY
350
260
  0
DICTIONARY
  5
2B
102
{ACAD_REACTORS
330
C
102
}
330
C
100
AcDbDictionary
  3
ACMGSETTINGS
350
2C
  0
DICTIONARY
  5
6E
102
{ACAD_REACTORS
330
C
102
}
330
C
100
AcDbDictionary
  0
XRECORD
  5
2058
102
{ACAD_REACTORS
330
C
102
}
330
C
100
AcDbXrecord
  1
DWGPROPS COOKIE
  2

  3

  4

  6

  7

  8

  9

300
AmdtFileType=82
301
=
302
=
303
=
304
=
305
=
306
=
307
=
308
=
309
=
 40
0.1296421180555556
 41
2452858.464435764
 42
2453179.566790995
  1

 90
        1
  0
DICTIONARY
  5
206F
102
{ACAD_REACTORS
330
C
102
}
330
C
100
AcDbDictionary
  3
TSTACKALIGN
350
2070
  3
TSTACKSIZE
350
2071
  3
HYPERLINKBASE
350
2072
  3
STYLESHEET
350
2073
  3
LAYOUTDICT
350
2074
  3
PLOTSETDICT
350
2075
  3
PLOTSTYLNAMDICT
350
2076
  3
LWETCUNION
350
2077
  3
INSUNITS
350
2078
  3
CEPSNTYPE
350
2079
  3
FINGERPRINTGUID
350
207A
  3
VERSIONGUID
350
207B
  3
PSVPSCALE
350
207C
  3
DIMSTYLEDATA
350
207D
  3
PUCSORTHOREF
350
207E
  3
PUCSORTHOVIEW
350
207F
  3
PUCSBASE
350
2080
  3
PUCSORGTOP
350
2081
  3
PUCSORGBOTTOM
350
2082
  3
PUCSORGLEFT
350
2083
  3
PUCSORGRIGHT
350
2084
  3
PUCSORGFRONT
350
2085
  3
PUCSORGBACK
350
2086
  3
UCSORTHOREF
350
2087
  3
UCSORTHOVIEW
350
2088
  3
UCSBASE
350
2089
  3
UCSORGTOP
350
208A
  3
UCSORGBOTTOM
350
208B
  3
UCSORGLEFT
350
208C
  3
UCSORGRIGHT
350
208D
  3
UCSORGFRONT
350
208E
  3
UCSORGBACK
350
208F
  0
DICTIONARY
  5
205A
102
{ACAD_REACTORS
330
74
102
}
330
74
100
AcDbDictionary
  3
*A1
350
205B
  0
XRECORD
  5
2092
102
{ACAD_REACTORS
330
74
102
}
330
74
100
AcDbXrecord
340
1F
  0
XRECORD
  5
2098
102
{ACAD_REACTORS
330
2097
102
}
330
2097
100
AcDbXrecord
340
101
  0
MLINESTYLE
  5
18
102
{ACAD_REACTORS
330
17
102
}
330
17
100
AcDbMlineStyle
  2
STANDARD
 70
     0
  3

 62
   256
 51
90.0
 52
90.0
 71
     2
 49
0.5
 62
   256
  6
BYLAYER
 49
-0.5
 62
   256
  6
BYLAYER
  0
ACDBPLACEHOLDER
  5
F
102
{ACAD_REACTORS
330
E
102
}
330
E
100
AcDbPlaceHolder
280
     0
  0
DICTIONARYVAR
  5
35
102
{ACAD_REACTORS
330
34
102
}
330
34
100
DictionaryVariables
280
     0
  1
1
  0
DICTIONARYVAR
  5
B5E
102
{ACAD_REACTORS
330
34
102
}
330
34
100
DictionaryVariables
280
     0
  1
96
  0
DICTIONARY
  5
260
102
{ACAD_REACTORS
330
43
102
}
330
43
100
AcDbDictionary
  0
DICTIONARY
  5
2C
102
{ACAD_REACTORS
330
2B
102
}
330
2B
100
AcDbDictionary
  3
DWGSETTINGS
350
2D
  0
XRECORD
  5
2070
102
{ACAD_REACTORS
330
206F
102
}
330
206F
100
AcDbXrecord
 90
        1
  0
XRECORD
  5
2071
102
{ACAD_REACTORS
330
206F
102
}
330
206F
100
AcDbXrecord
 90
       70
  0
XRECORD
  5
2072
102
{ACAD_REACTORS
330
206F
102
}
330
206F
100
AcDbXrecord
  1

  0
XRECORD
  5
2073
102
{ACAD_REACTORS
330
206F
102
}
330
206F
100
AcDbXrecord
  1
ASAMI.ctb
  0
XRECORD
  5
2074
102
{ACAD_REACTORS
330
206F
102
}
330
206F
100
AcDbXrecord
340
1A
  0
XRECORD
  5
2075
102
{ACAD_REACTORS
330
206F
102
}
330
206F
100
AcDbXrecord
340
19
  0
XRECORD
  5
2076
102
{ACAD_REACTORS
330
206F
102
}
330
206F
100
AcDbXrecord
340
E
  0
XRECORD
  5
2077
102
{ACAD_REACTORS
330
206F
102
}
330
206F
100
AcDbXrecord
 90
    10781
  0
XRECORD
  5
2078
102
{ACAD_REACTORS
330
206F
102
}
330
206F
100
AcDbXrecord
 90
        4
  0
XRECORD
  5
2079
102
{ACAD_REACTORS
330
206F
102
}
330
206F
100
AcDbXrecord
 90
        0
  0
XRECORD
  5
207A
102
{ACAD_REACTORS
330
206F
102
}
330
206F
100
AcDbXrecord
  1
{AFB28963-8C59-40AE-9337-C84526B81ACE}
  0
XRECORD
  5
207B
102
{ACAD_REACTORS
330
206F
102
}
330
206F
100
AcDbXrecord
  1
{A350F590-8F8E-4063-B024-0833415E06C7}
  0
XRECORD
  5
207C
102
{ACAD_REACTORS
330
206F
102
}
330
206F
100
AcDbXrecord
 40
0.0
  0
XRECORD
  5
207D
102
{ACAD_REACTORS
330
206F
102
}
330
206F
100
AcDbXrecord
1000
DSTYLE
1002
{
1070
    79
 70
     2
1070
   341
340
59
1070
   342
340
59
1070
   371
 70
    -1
1070
   372
 70
    -1
1002
}
  0
XRECORD
  5
207E
102
{ACAD_REACTORS
330
206F
102
}
330
206F
100
AcDbXrecord
340
0
  0
XRECORD
  5
207F
102
{ACAD_REACTORS
330
206F
102
}
330
206F
100
AcDbXrecord
 70
     0
  0
XRECORD
  5
2080
102
{ACAD_REACTORS
330
206F
102
}
330
206F
100
AcDbXrecord
340
0
  0
XRECORD
  5
2081
102
{ACAD_REACTORS
330
206F
102
}
330
206F
100
AcDbXrecord
 10
0.0
 20
0.0
 30
0.0
  0
XRECORD
  5
2082
102
{ACAD_REACTORS
330
206F
102
}
330
206F
100
AcDbXrecord
 10
0.0
 20
0.0
 30
0.0
  0
XRECORD
  5
2083
102
{ACAD_REACTORS
330
206F
102
}
330
206F
100
AcDbXrecord
 10
0.0
 20
0.0
 30
0.0
  0
XRECORD
  5
2084
102
{ACAD_REACTORS
330
206F
102
}
330
206F
100
AcDbXrecord
 10
0.0
 20
0.0
 30
0.0
  0
XRECORD
  5
2085
102
{ACAD_REACTORS
330
206F
102
}
330
206F
100
AcDbXrecord
 10
0.0
 20
0.0
 30
0.0
  0
XRECORD
  5
2086
102
{ACAD_REACTORS
330
206F
102
}
330
206F
100
AcDbXrecord
 10
0.0
 20
0.0
 30
0.0
  0
XRECORD
  5
2087
102
{ACAD_REACTORS
330
206F
102
}
330
206F
100
AcDbXrecord
340
0
  0
XRECORD
  5
2088
102
{ACAD_REACTORS
330
206F
102
}
330
206F
100
AcDbXrecord
 70
     0
  0
XRECORD
  5
2089
102
{ACAD_REACTORS
330
206F
102
}
330
206F
100
AcDbXrecord
340
0
  0
XRECORD
  5
208A
102
{ACAD_REACTORS
330
206F
102
}
330
206F
100
AcDbXrecord
 10
0.0
 20
0.0
 30
0.0
  0
XRECORD
  5
208B
102
{ACAD_REACTORS
330
206F
102
}
330
206F
100
AcDbXrecord
 10
0.0
 20
0.0
 30
0.0
  0
XRECORD
  5
208C
102
{ACAD_REACTORS
330
206F
102
}
330
206F
100
AcDbXrecord
 10
0.0
 20
0.0
 30
0.0
  0
XRECORD
  5
208D
102
{ACAD_REACTORS
330
206F
102
}
330
206F
100
AcDbXrecord
 10
0.0
 20
0.0
 30
0.0
  0
XRECORD
  5
208E
102
{ACAD_REACTORS
330
206F
102
}
330
206F
100
AcDbXrecord
 10
0.0
 20
0.0
 30
0.0
  0
XRECORD
  5
208F
102
{ACAD_REACTORS
330
206F
102
}
330
206F
100
AcDbXrecord
 10
0.0
 20
0.0
 30
0.0
  0
LAYER_INDEX
  5
205B
102
{ACAD_REACTORS
330
205A
102
}
330
205A
100
AcDbIndex
 40
2453180.397000497
100
AcDbLayerIndex
  8
0
360
205C
 90
        0
  8
AM_0
360
205D
 90
       42
  8
AM_11
360
205E
 90
        4
  8
AM_7
360
205F
 90
        2
  8
AM_5
360
2060
 90
        8
  8
Defpoints
360
2061
 90
        0
  8
AM_6
360
2062
 90
        1
  8
AM_CL
360
2063
 90
        0
  0
XRECORD
  5
2D
102
{ACAD_REACTORS
330
2C
102
}
330
2C
100
AcDbXrecord
  1
VERSION
140
15.0
  1
PRODUCT
  2
AutoCAD Mechanical 2000
  0
IDBUFFER
  5
205C
330
0
100
AcDbIdBuffer
  0
IDBUFFER
  5
205D
330
0
100
AcDbIdBuffer
330
1310
330
1377
330
1378
330
1379
330
137A
330
137F
330
13EA
330
13EB
330
13EC
330
13EF
330
13F0
330
13F1
330
1428
330
1429
330
142A
330
1461
330
1462
330
1463
330
1C60
330
1F37
330
1F38
330
1F39
330
1F3A
330
1F3B
330
1FB0
330
203B
330
11C9
330
11CD
330
11D2
330
11D3
330
11D4
330
11F6
330
11FA
330
12C3
330
12C4
330
12C5
330
12C6
330
12F9
330
12FA
330
12FB
330
12FC
330
1302
  0
IDBUFFER
  5
205E
330
0
100
AcDbIdBuffer
330
11E7
330
11F5
330
13ED
330
13EE
  0
IDBUFFER
  5
205F
330
0
100
AcDbIdBuffer
330
138E
330
143E
  0
IDBUFFER
  5
2060
330
0
100
AcDbIdBuffer
330
1514
330
15BF
330
1655
330
1799
330
1825
330
18B2
330
1988
330
1A92
  0
IDBUFFER
  5
2061
330
0
100
AcDbIdBuffer
  0
IDBUFFER
  5
2062
330
0
100
AcDbIdBuffer
330
1D1A
  0
IDBUFFER
  5
2063
330
0
100
AcDbIdBuffer
  0
ENDSEC
  0
EOF
