  0
SECTION
  2
HEADER
  9
$ACADVER
  1
AC1014
  9
$ACADMAINTVER
 70
     9
  9
$DWGCODEPAGE
  3
ANSI_932
  9
$INSBASE
 10
0.0
 20
0.0
 30
0.0
  9
$EXTMIN
 10
-109.35
 20
-31.24999999999999
 30
0.0
  9
$EXTMAX
 10
40.53109986433814
 20
44.05521208288535
 30
0.0
  9
$LIMMIN
 10
-129.4405185208971
 20
-46.92051373904175
  9
$LIMMAX
 10
52.32321139272045
 20
53.99732530850008
  9
$ORTHOMODE
 70
     0
  9
$REGENMODE
 70
     1
  9
$FILLMODE
 70
     1
  9
$QTEXTMODE
 70
     0
  9
$MIRRTEXT
 70
     0
  9
$DRAGMODE
 70
     2
  9
$LTSCALE
 40
1.0
  9
$OSMODE
 70
    55
  9
$ATTMODE
 70
     1
  9
$TEXTSIZE
 40
2.5
  9
$TRACEWID
 40
1.0
  9
$TEXTSTYLE
  7
ACJISGDT
  9
$CLAYER
  8
AM_0
  9
$CELTYPE
  6
BYLAYER
  9
$CECOLOR
 62
   256
  9
$CELTSCALE
 40
1.0
  9
$DELOBJ
 70
     1
  9
$DISPSILH
 70
     0
  9
$DIMSCALE
 40
0.5
  9
$DIMASZ
 40
2.5
  9
$DIMEXO
 40
1.0
  9
$DIMDLI
 40
12.0
  9
$DIMRND
 40
0.0
  9
$DIMDLE
 40
0.0
  9
$DIMEXE
 40
1.0
  9
$DIMTP
 40
0.1
  9
$DIMTM
 40
0.1
  9
$DIMTXT
 40
3.2
  9
$DIMCEN
 40
0.0
  9
$DIMTSZ
 40
0.0
  9
$DIMTOL
 70
     0
  9
$DIMLIM
 70
     0
  9
$DIMTIH
 70
     0
  9
$DIMTOH
 70
     0
  9
$DIMSE1
 70
     0
  9
$DIMSE2
 70
     0
  9
$DIMTAD
 70
     3
  9
$DIMZIN
 70
     8
  9
$DIMBLK
  1
OPEN30
  9
$DIMASO
 70
     1
  9
$DIMSHO
 70
     1
  9
$DIMPOST
  1

  9
$DIMAPOST
  1
"
  9
$DIMALT
 70
     0
  9
$DIMALTD
 70
     2
  9
$DIMALTF
 40
0.0393701
  9
$DIMLFAC
 40
1.0
  9
$DIMTOFL
 70
     1
  9
$DIMTVP
 40
0.0
  9
$DIMTIX
 70
     0
  9
$DIMSOXD
 70
     0
  9
$DIMSAH
 70
     0
  9
$DIMBLK1
  1

  9
$DIMBLK2
  1

  9
$DIMSTYLE
  2
AM_JIS
  9
$DIMCLRD
 70
   256
  9
$DIMCLRE
 70
   256
  9
$DIMCLRT
 70
     2
  9
$DIMTFAC
 40
0.71
  9
$DIMGAP
 40
1.5
  9
$DIMJUST
 70
     0
  9
$DIMSD1
 70
     0
  9
$DIMSD2
 70
     0
  9
$DIMTOLJ
 70
     0
  9
$DIMTZIN
 70
     0
  9
$DIMALTZ
 70
     0
  9
$DIMALTTZ
 70
     0
  9
$DIMFIT
 70
     3
  9
$DIMUPT
 70
     0
  9
$DIMUNIT
 70
     2
  9
$DIMDEC
 70
     3
  9
$DIMTDEC
 70
     3
  9
$DIMALTU
 70
     2
  9
$DIMALTTD
 70
     2
  9
$DIMTXSTY
  7
ASAMI
  9
$DIMAUNIT
 70
     0
  9
$LUNITS
 70
     2
  9
$LUPREC
 70
     2
  9
$SKETCHINC
 40
1.0
  9
$FILLETRAD
 40
0.8
  9
$AUNITS
 70
     0
  9
$AUPREC
 70
     0
  9
$MENU
  1
.
  9
$ELEVATION
 40
0.0
  9
$PELEVATION
 40
0.0
  9
$THICKNESS
 40
0.0
  9
$LIMCHECK
 70
     0
  9
$BLIPMODE
 70
     0
  9
$CHAMFERA
 40
2.5
  9
$CHAMFERB
 40
2.5
  9
$CHAMFERC
 40
20.0
  9
$CHAMFERD
 40
0.0
  9
$SKPOLY
 70
     0
  9
$TDCREATE
 40
2452859.617429641
  9
$TDUPDATE
 40
2453180.398421215
  9
$TDINDWG
 40
0.0548804630
  9
$TDUSRTIMER
 40
0.0548804630
  9
$USRTIMER
 70
     1
  9
$ANGBASE
 50
0.0
  9
$ANGDIR
 70
     0
  9
$PDMODE
 70
     0
  9
$PDSIZE
 40
0.0
  9
$PLINEWID
 40
0.0
  9
$COORDS
 70
     1
  9
$SPLFRAME
 70
     0
  9
$SPLINETYPE
 70
     6
  9
$SPLINESEGS
 70
     8
  9
$ATTDIA
 70
     1
  9
$ATTREQ
 70
     1
  9
$HANDLING
 70
 12289
  9
$HANDSEED
  5
1F19
  9
$SURFTAB1
 70
     6
  9
$SURFTAB2
 70
     6
  9
$SURFTYPE
 70
     6
  9
$SURFU
 70
     6
  9
$SURFV
 70
     6
  9
$UCSNAME
  2

  9
$UCSORG
 10
0.0
 20
0.0
 30
0.0
  9
$UCSXDIR
 10
1.0
 20
0.0
 30
0.0
  9
$UCSYDIR
 10
0.0
 20
1.0
 30
0.0
  9
$PUCSNAME
  2

  9
$PUCSORG
 10
0.0
 20
0.0
 30
0.0
  9
$PUCSXDIR
 10
1.0
 20
0.0
 30
0.0
  9
$PUCSYDIR
 10
0.0
 20
1.0
 30
0.0
  9
$USERI1
 70
     0
  9
$USERI2
 70
     0
  9
$USERI3
 70
     0
  9
$USERI4
 70
     0
  9
$USERI5
 70
     0
  9
$USERR1
 40
0.0
  9
$USERR2
 40
0.0
  9
$USERR3
 40
0.0
  9
$USERR4
 40
0.0
  9
$USERR5
 40
0.0
  9
$WORLDVIEW
 70
     1
  9
$SHADEDGE
 70
     3
  9
$SHADEDIF
 70
    70
  9
$TILEMODE
 70
     1
  9
$MAXACTVP
 70
    64
  9
$PINSBASE
 10
0.0
 20
0.0
 30
0.0
  9
$PLIMCHECK
 70
     0
  9
$PEXTMIN
 10
1.000000000000000E+20
 20
1.000000000000000E+20
 30
1.000000000000000E+20
  9
$PEXTMAX
 10
-1.000000000000000E+20
 20
-1.000000000000000E+20
 30
-1.000000000000000E+20
  9
$PLIMMIN
 10
0.0
 20
0.0
  9
$PLIMMAX
 10
841.0
 20
594.0
  9
$UNITMODE
 70
     0
  9
$VISRETAIN
 70
     1
  9
$PLINEGEN
 70
     0
  9
$PSLTSCALE
 70
     0
  9
$TREEDEPTH
 70
  3020
  9
$PICKSTYLE
 70
     0
  9
$CMLSTYLE
  2
STANDARD
  9
$CMLJUST
 70
     0
  9
$CMLSCALE
 40
20.0
  9
$PROXYGRAPHICS
 70
     1
  9
$MEASUREMENT
 70
     1
  0
ENDSEC
  0
SECTION
  2
CLASSES
  0
CLASS
  1
ACDBDICTIONARYWDFLT
  2
AcDbDictionaryWithDefault
  3
AutoCAD 2000
 90
        0
280
     0
281
     0
  0
CLASS
  1
ACDBPLACEHOLDER
  2
AcDbPlaceHolder
  3
AutoCAD 2000
 90
        0
280
     0
281
     0
  0
CLASS
  1
LAYOUT
  2
AcDbLayout
  3
AutoCAD 2000
 90
        0
280
     0
281
     0
  0
CLASS
  1
AMGSETTINGSOBJ
  2
AmgSettingsObj
  3
"AcadM|Product Description: AutoCAD Mechanical 2000|Company: Autodesk"
 90
        0
280
     0
281
     0
  0
CLASS
  1
ACME_DOCUMENT
  2
AcMeDbDoc
  3
AcMeServices
 90
        0
280
     0
281
     0
  0
CLASS
  1
ACMESCOPE
  2
AcMeScope
  3
AcMeServices
 90
        0
280
     0
281
     0
  0
CLASS
  1
ACMECOMMANDHISTORY
  2
AcMeCommandHistory
  3
AcMeServices
 90
        0
280
     0
281
     0
  0
CLASS
  1
DICTIONARYVAR
  2
AcDbDictionaryVar
  3
AutoCAD 2000
 90
        0
280
     0
281
     0
  0
CLASS
  1
ACIMSYSVARMAN
  2
AcImSysVarManager
  3
AcMeServices
 90
        0
280
     0
281
     0
  0
CLASS
  1
ACIMREALSYSVAR
  2
AcImRealSysVar
  3
AcMeServices
 90
        0
280
     0
281
     0
  0
CLASS
  1
ACIMINTSYSVAR
  2
AcImIntSysVar
  3
AcMeServices
 90
        0
280
     0
281
     0
  0
CLASS
  1
ACMEDRAWINGMAN
  2
AcMeDrawingMan
  3
AcMeServices
 90
        0
280
     0
281
     0
  0
CLASS
  1
ACMEVIEW
  2
AcMeView
  3
AcMeServices
 90
        0
280
     0
281
     0
  0
CLASS
  1
ACDBENTITYCACHE
  2
AcMeEntityCache
  3
AcMeServices
 90
        0
280
     0
281
     0
  0
CLASS
  1
GSMANAGER
  2
AcMeGSManager
  3
AcMeServices
 90
        0
280
     0
281
     0
  0
CLASS
  1
AmdtInternalReactor
  2
AmdtInternalReactor
  3
AcMeServices
 90
        0
280
     0
281
     0
  0
CLASS
  1
ACMESTATEMGR
  2
AcMeStateMgr
  3
AcMeServices
 90
        0
280
     0
281
     0
  0
CLASS
  1
ACME_DATABASE
  2
AcMeDbDatabase
  3
AcMeServices
 90
        0
280
     0
281
     0
  0
CLASS
  1
ACRFINSADJUSTERMGR
  2
AcRfInsAdjusterMgr
  3
AcMeServices
 90
        0
280
     0
281
     0
  0
CLASS
  1
ACMDATADICTIONARY
  2
AcmDataDictionary
  3
"AcmSymBB|Product Description: AutoCAD Mechanical 2000|Company: Autodesk"
 90
        0
280
     0
281
     0
  0
CLASS
  1
ACMDATAENTRYBLOCK
  2
AcmDataEntryBlock
  3
"AcmSymBB|Product Description: AutoCAD Mechanical 2000|Company: Autodesk"
 90
        0
280
     0
281
     0
  0
CLASS
  1
AMGOBJPROPCFG
  2
AmgObjPropCfg
  3
"AmgLay|Product Description: AutoCAD Mechanical 2000|Company: Autodesk"
 90
        1
280
     0
281
     0
  0
CLASS
  1
ACAMGFILTERDAT
  2
AcAmgFilterDat
  3
"AcadM|Product Description: AutoCAD Mechanical 2000|Company: Autodesk"
 90
        0
280
     0
281
     0
  0
CLASS
  1
LAYER_INDEX
  2
AcDbLayerIndex
  3
AutoCAD 2000
 90
        0
280
     0
281
     0
  0
CLASS
  1
IDBUFFER
  2
AcDbIdBuffer
  3
AutoCAD 2000
 90
        0
280
     0
281
     0
  0
CLASS
  1
ACIMSTRSYSVAR
  2
AcImStrSysVar
  3
AcMeServices
 90
        0
280
     0
281
     0
  0
CLASS
  1
ACMSTANDARDJIS
  2
AcmStandardJIS
  3
"AcmSymBB|Product Description: AutoCAD Mechanical 2000|Company: Autodesk"
 90
        0
280
     0
281
     0
  0
CLASS
  1
ACMSURFSTANDARDJIS
  2
AcmSurfTextStdJIS
  3
"AcmSymBB|Product Description: AutoCAD Mechanical 2000|Company: Autodesk"
 90
        0
280
     0
281
     0
  0
CLASS
  1
ACMFCFSTANDARDJIS
  2
AcmFCFStdJIS
  3
"AcmSymBB|Product Description: AutoCAD Mechanical 2000|Company: Autodesk"
 90
        0
280
     0
281
     0
  0
CLASS
  1
ACMWELDSTANDARDJIS
  2
AcmWeldingStdJIS
  3
"AcmSymBB|Product Description: AutoCAD Mechanical 2000|Company: Autodesk"
 90
        0
280
     0
281
     0
  0
CLASS
  1
ACMIDSTANDARDJIS
  2
AcmIdStdJIS
  3
"AcmSymBB|Product Description: AutoCAD Mechanical 2000|Company: Autodesk"
 90
        0
280
     0
281
     0
  0
CLASS
  1
ACMDATUMSTANDARDJIS
  2
AcmDatumStdJIS
  3
"AcmSymBB|Product Description: AutoCAD Mechanical 2000|Company: Autodesk"
 90
        0
280
     0
281
     0
  0
CLASS
  1
ACMBOMSTANDARDJIS
  2
AcmBOMStdJIS
  3
"AcmSymBB|Product Description: AutoCAD Mechanical 2000|Company: Autodesk"
 90
        0
280
     0
281
     0
  0
CLASS
  1
ACMSTANDARDANSI
  2
AcmStandardANSI
  3
"AcmSymBB|Product Description: AutoCAD Mechanical 2000|Company: Autodesk"
 90
        0
280
     0
281
     0
  0
CLASS
  1
ACMSURFSTANDARDANSI
  2
AcmSurfTextStdANSI
  3
"AcmSymBB|Product Description: AutoCAD Mechanical 2000|Company: Autodesk"
 90
        0
280
     0
281
     0
  0
CLASS
  1
ACMFCFSTANDARDANSI
  2
AcmFCFStdANSI
  3
"AcmSymBB|Product Description: AutoCAD Mechanical 2000|Company: Autodesk"
 90
        0
280
     0
281
     0
  0
CLASS
  1
ACMWELDSTANDARDANSI
  2
AcmWeldingStdANSI
  3
"AcmSymBB|Product Description: AutoCAD Mechanical 2000|Company: Autodesk"
 90
        0
280
     0
281
     0
  0
CLASS
  1
ACMIDSTANDARDANSI
  2
AcmIdStdANSI
  3
"AcmSymBB|Product Description: AutoCAD Mechanical 2000|Company: Autodesk"
 90
        0
280
     0
281
     0
  0
CLASS
  1
ACMDATUMSTANDARDANSI
  2
AcmDatumStdANSI
  3
"AcmSymBB|Product Description: AutoCAD Mechanical 2000|Company: Autodesk"
 90
        0
280
     0
281
     0
  0
CLASS
  1
ACMBOMSTANDARDANSI
  2
AcmBOMStdANSI
  3
"AcmSymBB|Product Description: AutoCAD Mechanical 2000|Company: Autodesk"
 90
        0
280
     0
281
     0
  0
CLASS
  1
ACMSTANDARDBSI
  2
AcmStandardBSI
  3
"AcmSymBB|Product Description: AutoCAD Mechanical 2000|Company: Autodesk"
 90
        0
280
     0
281
     0
  0
CLASS
  1
ACMSURFSTANDARDBSI
  2
AcmSurfTextStdBSI
  3
"AcmSymBB|Product Description: AutoCAD Mechanical 2000|Company: Autodesk"
 90
        0
280
     0
281
     0
  0
CLASS
  1
ACMFCFSTANDARDBSI
  2
AcmFCFStdBSI
  3
"AcmSymBB|Product Description: AutoCAD Mechanical 2000|Company: Autodesk"
 90
        0
280
     0
281
     0
  0
CLASS
  1
ACMWELDSTANDARDBSI
  2
AcmWeldingStdBSI
  3
"AcmSymBB|Product Description: AutoCAD Mechanical 2000|Company: Autodesk"
 90
        0
280
     0
281
     0
  0
CLASS
  1
ACMIDSTANDARDBSI
  2
AcmIdStdBSI
  3
"AcmSymBB|Product Description: AutoCAD Mechanical 2000|Company: Autodesk"
 90
        0
280
     0
281
     0
  0
CLASS
  1
ACMDATUMSTANDARDBSI
  2
AcmDatumStdBSI
  3
"AcmSymBB|Product Description: AutoCAD Mechanical 2000|Company: Autodesk"
 90
        0
280
     0
281
     0
  0
CLASS
  1
ACMBOMSTANDARDBSI
  2
AcmBOMStdBSI
  3
"AcmSymBB|Product Description: AutoCAD Mechanical 2000|Company: Autodesk"
 90
        0
280
     0
281
     0
  0
CLASS
  1
LONG_TRANSACTION
  2
AcDbLongTransaction
  3
AutoCAD 2000
 90
        0
280
     0
281
     0
  0
CLASS
  1
LWPOLYLINE
  2
AcDbPolyline
  3
AutoCAD 2000
 90
        0
280
     0
281
     1
  0
CLASS
  1
HATCH
  2
AcDbHatch
  3
AutoCAD 2000
 90
        0
280
     0
281
     1
  0
CLASS
  1
XRECORD
  2
AcDbXrecord
  3
AutoCAD 2000
 90
        0
280
     0
281
     0
  0
ENDSEC
  0
SECTION
  2
TABLES
  0
TABLE
  2
VPORT
  5
8
330
0
100
AcDbSymbolTable
 70
     4
  0
VPORT
  5
1EEE
330
8
100
AcDbSymbolTableRecord
100
AcDbViewportTableRecord
  2
*ACTIVE
 70
     0
 10
0.0
 20
0.0
 11
1.0
 21
1.0
 12
-34.40534525113889
 22
6.402590297756916
 13
0.0
 23
0.0
 14
2.5
 24
2.5
 15
10.0
 25
10.0
 16
0.0
 26
0.0
 36
1.0
 17
0.0
 27
0.0
 37
0.0
 40
96.12100712816669
 41
1.56570841889117
 42
50.0
 43
0.0
 44
0.0
 50
0.0
 51
0.0
 71
     0
 72
   100
 73
     1
 74
     3
 75
     0
 76
     0
 77
     0
 78
     0
  0
ENDTAB
  0
TABLE
  2
LTYPE
  5
5
330
0
100
AcDbSymbolTable
 70
    10
  0
LTYPE
  5
14
330
5
100
AcDbSymbolTableRecord
100
AcDbLinetypeTableRecord
  2
BYBLOCK
 70
     0
  3

 72
    65
 73
     0
 40
0.0
  0
LTYPE
  5
15
330
5
100
AcDbSymbolTableRecord
100
AcDbLinetypeTableRecord
  2
BYLAYER
 70
     0
  3

 72
    65
 73
     0
 40
0.0
  0
LTYPE
  5
16
330
5
100
AcDbSymbolTableRecord
100
AcDbLinetypeTableRecord
  2
CONTINUOUS
 70
     0
  3
Solid line
 72
    65
 73
     0
 40
0.0
  0
LTYPE
  5
4B
330
5
100
AcDbSymbolTableRecord
100
AcDbLinetypeTableRecord
  2
AM_ISO02W050
 70
     0
  3
__ __ __ __ __ __ __ __ __ __ __ __ __ __ __
 72
    65
 73
     2
 40
7.5
 49
6.0
 74
     0
 49
-1.5
 74
     0
  0
LTYPE
  5
4C
330
5
100
AcDbSymbolTableRecord
100
AcDbLinetypeTableRecord
  2
AM_ISO08W050
 70
     0
  3
____ . ____ . ____ . ____ . ____ . ____ . ____
 72
    65
 73
     4
 40
18.0
 49
12.0
 74
     0
 49
-1.5
 74
     0
 49
3.0
 74
     0
 49
-1.5
 74
     0
  0
LTYPE
  5
4D
330
5
100
AcDbSymbolTableRecord
100
AcDbLinetypeTableRecord
  2
AM_ISO09W050
 70
     0
  3
_____ . . _____ . . _____ . . ____ .. ____
 72
    65
 73
     6
 40
22.5
 49
12.0
 74
     0
 49
-1.5
 74
     0
 49
3.0
 74
     0
 49
-1.5
 74
     0
 49
3.0
 74
     0
 49
-1.5
 74
     0
  0
LTYPE
  5
4E
330
5
100
AcDbSymbolTableRecord
100
AcDbLinetypeTableRecord
  2
AMCONSTR
 70
     0
  3
_______________________
 72
    65
 73
     2
 40
9999.0
 49
9999.0
 74
     0
 49
0.0
 74
     0
  0
LTYPE
  5
4F
330
5
100
AcDbSymbolTableRecord
100
AcDbLinetypeTableRecord
  2
AM_ISO02W050X2
 70
     0
  3
 _ _ _ _ _ _ _ _ _ _ _ _
 72
    65
 73
     2
 40
3.75
 49
3.0
 74
     0
 49
-0.75
 74
     0
  0
LTYPE
  5
50
330
5
100
AcDbSymbolTableRecord
100
AcDbLinetypeTableRecord
  2
AM_ISO08W050X2
 70
     0
  3
__ . __ . __ . __ . __ . __
 72
    65
 73
     4
 40
9.0
 49
6.0
 74
     0
 49
-0.75
 74
     0
 49
1.5
 74
     0
 49
-0.75
 74
     0
  0
LTYPE
  5
53
330
5
100
AcDbSymbolTableRecord
100
AcDbLinetypeTableRecord
  2
AMZIGZAG
 70
     0
  3
/\/-/\/-/\/-/\/-/\/-/\/
 72
    65
 73
     2
 40
11.00009999999999
 49
0.0001
 74
     4
 75
   135
340
52
 46
0.04
 50
0.0
 44
0.0
 45
0.0
 49
-11.0
 74
     0
  0
LTYPE
  5
166
330
5
100
AcDbSymbolTableRecord
100
AcDbLinetypeTableRecord
  2
ACJISTGL
 70
     0
  3
_ _ _ _ _
 72
    65
 73
     2
 40
3.0
 49
2.0
 74
     0
 49
-1.0
 74
     0
  0
LTYPE
  5
26A
330
5
100
AcDbSymbolTableRecord
100
AcDbLinetypeTableRecord
  2
ACJISTGB
 70
     0
  3
__ . . __ . .
 72
    65
 73
     6
 40
9.0
 49
4.0
 74
     0
 49
-1.0
 74
     0
 49
1.0
 74
     0
 49
-1.0
 74
     0
 49
1.0
 74
     0
 49
-1.0
 74
     0
  0
ENDTAB
  0
TABLE
  2
LAYER
  5
2
330
0
100
AcDbSymbolTable
 70
     8
  0
LAYER
  5
10
330
2
100
AcDbSymbolTableRecord
100
AcDbLayerTableRecord
  2
0
 70
     0
 62
     7
  6
CONTINUOUS
  0
LAYER
  5
3F9
330
2
100
AcDbSymbolTableRecord
100
AcDbLayerTableRecord
  2
AM_0
 70
     0
 62
     7
  6
CONTINUOUS
  0
LAYER
  5
BD3
330
2
100
AcDbSymbolTableRecord
100
AcDbLayerTableRecord
  2
AM_11
 70
     0
 62
     3
  6
AM_ISO09W050
  0
LAYER
  5
E54
330
2
100
AcDbSymbolTableRecord
100
AcDbLayerTableRecord
  2
AM_7
 70
     0
 62
     4
  6
AM_ISO08W050
  0
LAYER
  5
F32
330
2
100
AcDbSymbolTableRecord
100
AcDbLayerTableRecord
  2
AM_5
 70
     0
 62
     3
  6
CONTINUOUS
  0
LAYER
  5
F33
330
2
100
AcDbSymbolTableRecord
100
AcDbLayerTableRecord
  2
DEFPOINTS
 70
     0
 62
     7
  6
CONTINUOUS
  0
LAYER
  5
14E4
330
2
100
AcDbSymbolTableRecord
100
AcDbLayerTableRecord
  2
AM_6
 70
     0
 62
     2
  6
CONTINUOUS
  0
LAYER
  5
1D1D
330
2
100
AcDbSymbolTableRecord
100
AcDbLayerTableRecord
  2
AM_CL
 70
     0
 62
     1
  6
AMCONSTR
  0
ENDTAB
  0
TABLE
  2
STYLE
  5
3
330
0
100
AcDbSymbolTable
 70
     5
  0
STYLE
  5
11
330
3
100
AcDbSymbolTableRecord
100
AcDbTextStyleTableRecord
  2
STANDARD
 70
     0
 40
0.0
 41
1.0
 50
0.0
 71
     0
 42
2.5
  3
simplex.shx
  4
EXTFONT.SHX
  0
STYLE
  5
52
330
3
100
AcDbSymbolTableRecord
100
AcDbTextStyleTableRecord
  2

 70
     1
 40
0.0
 41
1.0
 50
0.0
 71
     0
 42
2.5
  3
ltypeshp.shx
  4

  0
STYLE
  5
6B
330
3
100
AcDbSymbolTableRecord
100
AcDbTextStyleTableRecord
  2
ASAMI
 70
     0
 40
0.0
 41
1.0
 50
0.0
 71
     0
 42
2.5
  3
simplex.shx
  4
EXTFONT.SHX
  0
STYLE
  5
262
330
3
100
AcDbSymbolTableRecord
100
AcDbTextStyleTableRecord
  2
ACJISTS
 70
     0
 40
1.0
 41
1.0
 50
0.0
 71
     0
 42
2.5
  3
simplex.shx
  4
bigfont.shx
  0
STYLE
  5
269
330
3
100
AcDbSymbolTableRecord
100
AcDbTextStyleTableRecord
  2
ACJISGDT
 70
     0
 40
0.0
 41
1.0
 50
0.0
 71
     0
 42
2.5
  3
amgdtans.shx
  4

  0
ENDTAB
  0
TABLE
  2
VIEW
  5
6
330
0
100
AcDbSymbolTable
 70
     0
  0
ENDTAB
  0
TABLE
  2
UCS
  5
7
330
0
100
AcDbSymbolTable
 70
     0
  0
ENDTAB
  0
TABLE
  2
APPID
  5
9
330
0
100
AcDbSymbolTable
 70
    16
  0
APPID
  5
12
330
9
100
AcDbSymbolTableRecord
100
AcDbRegAppTableRecord
  2
ACAD
 70
     0
  0
APPID
  5
30
330
9
100
AcDbSymbolTableRecord
100
AcDbRegAppTableRecord
  2
MCAD_NO_VIS
 70
     0
  0
APPID
  5
31
330
9
100
AcDbSymbolTableRecord
100
AcDbRegAppTableRecord
  2
ACAD_TEMP_GRAPHIC
 70
     0
  0
APPID
  5
2C2
330
9
100
AcDbSymbolTableRecord
100
AcDbRegAppTableRecord
  2
GENIUS_GENDTOL_13
 70
     0
  0
APPID
  5
339
330
9
100
AcDbSymbolTableRecord
100
AcDbRegAppTableRecord
  2
GENIUS_GENODEF_13
 70
     0
  0
APPID
  5
33A
330
9
100
AcDbSymbolTableRecord
100
AcDbRegAppTableRecord
  2
GENIUS_GENOBJ-N-RSBK_13
 70
     0
  0
APPID
  5
33B
330
9
100
AcDbSymbolTableRecord
100
AcDbRegAppTableRecord
  2
GENIUS_GENOBJ-N-LIB_13
 70
     0
  0
APPID
  5
33C
330
9
100
AcDbSymbolTableRecord
100
AcDbRegAppTableRecord
  2
GENIUS_GENSCALE_13
 70
     0
  0
APPID
  5
378
330
9
100
AcDbSymbolTableRecord
100
AcDbRegAppTableRecord
  2
GENIUS_GENDIMSH_14
 70
     0
  0
APPID
  5
BBF
330
9
100
AcDbSymbolTableRecord
100
AcDbRegAppTableRecord
  2
GENIUS_GENOBJ-N-FIL_13
 70
     0
  0
APPID
  5
E56
330
9
100
AcDbSymbolTableRecord
100
AcDbRegAppTableRecord
  2
GENIUS_GENOBJ-N-CEN_13
 70
     0
  0
APPID
  5
1EE5
330
9
100
AcDbSymbolTableRecord
100
AcDbRegAppTableRecord
  2
GENIUS_GENSCREG_15
 70
     0
  0
APPID
  5
1EE7
330
9
100
AcDbSymbolTableRecord
100
AcDbRegAppTableRecord
  2
GENIUS_GENOBJ-N-SDF_13
 70
     0
  0
APPID
  5
1EE8
330
9
100
AcDbSymbolTableRecord
100
AcDbRegAppTableRecord
  2
GENIUS_GENOENT_13
 70
     0
  0
APPID
  5
1EE9
330
9
100
AcDbSymbolTableRecord
100
AcDbRegAppTableRecord
  2
GENIUS_GENOREF_13
 70
     0
  0
APPID
  5
1EEA
330
9
100
AcDbSymbolTableRecord
100
AcDbRegAppTableRecord
  2
GENIUS_GENOLIS_13
 70
     0
  0
ENDTAB
  0
TABLE
  2
DIMSTYLE
  5
A
330
0
100
AcDbSymbolTable
 70
     8
  0
DIMSTYLE
105
58
102
{ACAD_REACTORS
330
118F
330
1337
330
186E
330
18F6
330
1A57
102
}
330
A
100
AcDbSymbolTableRecord
100
AcDbDimStyleTableRecord
  2
AM_JIS
 70
     0
  3

  4
"
  5
OPEN30
  6

  7

 40
0.5
 41
2.5
 42
1.0
 43
12.0
 44
1.0
 45
0.0
 46
0.0
 47
0.1
 48
0.1
140
3.2
141
0.0
142
0.0
143
0.0393701
144
1.0
145
0.0
146
0.71
147
1.5
 71
     0
 72
     0
 73
     0
 74
     0
 75
     0
 76
     0
 77
     3
 78
     8
170
     0
171
     2
172
     1
173
     0
174
     0
175
     0
176
   256
177
   256
178
     2
270
     2
271
     3
272
     3
273
     2
274
     2
340
6B
275
     0
280
     0
281
     0
282
     0
283
     0
284
     0
285
     0
286
     0
287
     3
288
     0
  0
DIMSTYLE
105
5F
330
A
100
AcDbSymbolTableRecord
100
AcDbDimStyleTableRecord
  2
AM_JIS$3
 70
     0
  3

  4
"
  5
OPEN30
  6

  7

 40
0.5
 41
2.5
 42
1.0
 43
10.0
 44
1.0
 45
0.0
 46
0.0
 47
0.1
 48
0.1
140
3.2
141
0.0
142
0.0
143
0.0393701
144
1.0
145
0.0
146
0.71
147
1.5
 71
     0
 72
     0
 73
     0
 74
     1
 75
     0
 76
     0
 77
     3
 78
     8
170
     0
171
     2
172
     0
173
     0
174
     0
175
     0
176
   256
177
   256
178
     2
270
     2
271
     2
272
     3
273
     2
274
     2
340
6B
275
     0
280
     0
281
     0
282
     0
283
     0
284
     0
285
     0
286
     0
287
     0
288
     1
  0
DIMSTYLE
105
60
330
A
100
AcDbSymbolTableRecord
100
AcDbDimStyleTableRecord
  2
AM_JIS$4
 70
     0
  3

  4
"
  5
OPEN30
  6

  7

 40
0.5
 41
2.5
 42
1.0
 43
10.0
 44
1.0
 45
0.0
 46
0.0
 47
0.1
 48
0.1
140
3.2
141
0.0
142
0.0
143
0.0393701
144
1.0
145
0.0
146
0.71
147
1.5
 71
     0
 72
     0
 73
     0
 74
     1
 75
     0
 76
     0
 77
     3
 78
     8
170
     0
171
     2
172
     0
173
     0
174
     0
175
     0
176
   256
177
   256
178
     2
270
     2
271
     2
272
     3
273
     2
274
     2
340
6B
275
     0
280
     0
281
     0
282
     0
283
     0
284
     0
285
     0
286
     0
287
     0
288
     1
  0
DIMSTYLE
105
61
330
A
100
AcDbSymbolTableRecord
100
AcDbDimStyleTableRecord
  2
AM_JIS$6
 70
     0
  3

  4
"
  5
OPEN30
  6

  7

 40
0.5
 41
2.5
 42
1.0
 43
10.0
 44
1.0
 45
0.0
 46
0.0
 47
0.1
 48
0.1
140
3.2
141
0.0
142
0.0
143
0.0393701
144
1.0
145
0.0
146
0.71
147
1.5
 71
     0
 72
     0
 73
     0
 74
     0
 75
     0
 76
     0
 77
     0
 78
     8
170
     0
171
     2
172
     1
173
     0
174
     0
175
     0
176
   256
177
   256
178
     2
270
     2
271
     2
272
     2
273
     2
274
     2
340
6B
275
     0
280
     0
281
     0
282
     0
283
     0
284
     0
285
     0
286
     0
287
     3
288
     0
  0
DIMSTYLE
105
62
330
A
100
AcDbSymbolTableRecord
100
AcDbDimStyleTableRecord
  2
AM_JIS$7
 70
     0
  3

  4
"
  5
OPEN30
  6

  7

 40
0.5
 41
2.5
 42
1.0
 43
10.0
 44
1.0
 45
0.0
 46
0.0
 47
0.1
 48
0.1
140
3.2
141
0.0
142
0.0
143
0.0393701
144
1.0
145
0.0
146
0.71
147
1.5
 71
     0
 72
     0
 73
     0
 74
     0
 75
     0
 76
     0
 77
     3
 78
     8
170
     0
171
     2
172
     1
173
     0
174
     0
175
     0
176
   256
177
   256
178
     2
270
     2
271
     2
272
     3
273
     2
274
     2
340
6B
275
     0
280
     0
281
     0
282
     0
283
     0
284
     0
285
     0
286
     0
287
     3
288
     0
  0
DIMSTYLE
105
63
330
A
100
AcDbSymbolTableRecord
100
AcDbDimStyleTableRecord
  2
AM_JIS$SF
 70
     0
  3

  4
"
  5
OPEN30
  6

  7

 40
0.5
 41
2.5
 42
1.0
 43
10.0
 44
1.0
 45
0.0
 46
0.0
 47
0.1
 48
0.1
140
3.2
141
0.0
142
0.0
143
0.0393701
144
1.0
145
0.0
146
0.71
147
1.5
 71
     0
 72
     0
 73
     0
 74
     0
 75
     1
 76
     1
 77
     3
 78
     8
170
     0
171
     2
172
     1
173
     0
174
     0
175
     0
176
   256
177
   256
178
     2
270
     2
271
     2
272
     2
273
     2
274
     2
340
6B
275
     0
280
     0
281
     0
282
     0
283
     0
284
     0
285
     0
286
     0
287
     3
288
     0
  0
DIMSTYLE
105
68
330
A
100
AcDbSymbolTableRecord
100
AcDbDimStyleTableRecord
  2
AM_JIS$SH
 70
     0
  3

  4
"
  5

  6
GENAXEH
  7
OPEN30
 40
0.5
 41
2.5
 42
1.0
 43
10.0
 44
1.0
 45
0.0
 46
0.0
 47
0.1
 48
0.1
140
3.2
141
0.0
142
0.0
143
0.0393701
144
2.0
145
0.0
146
0.71
147
1.5
 71
     0
 72
     0
 73
     0
 74
     0
 75
     1
 76
     1
 77
     3
 78
     8
170
     0
171
     2
172
     1
173
     1
174
     0
175
     0
176
   256
177
   256
178
     2
270
     2
271
     2
272
     2
273
     2
274
     2
340
6B
275
     0
280
     0
281
     0
282
     0
283
     0
284
     0
285
     0
286
     0
287
     3
288
     0
  0
DIMSTYLE
105
B34
102
{ACAD_REACTORS
330
175B
330
1986
330
1AE9
102
}
330
A
100
AcDbSymbolTableRecord
100
AcDbDimStyleTableRecord
  2
AM_JIS$2
 70
     0
  3

  4
"
  5
OPEN30
  6

  7

 40
0.5
 41
2.5
 42
1.0
 43
12.0
 44
1.0
 45
0.0
 46
0.0
 47
0.1
 48
0.1
140
3.2
141
0.0
142
0.0
143
0.0393701
144
1.0
145
0.0
146
0.71
147
1.5
 71
     0
 72
     0
 73
     0
 74
     0
 75
     0
 76
     0
 77
     3
 78
     8
170
     0
171
     2
172
     1
173
     0
174
     0
175
     0
176
   256
177
   256
178
     2
270
     2
271
     3
272
     3
273
     2
274
     2
340
6B
275
     0
280
     0
281
     0
282
     0
283
     0
284
     0
285
     0
286
     0
287
     3
288
     0
  0
ENDTAB
  0
TABLE
  2
BLOCK_RECORD
  5
1
330
0
100
AcDbSymbolTable
 70
    14
  0
BLOCK_RECORD
  5
1F
102
{ACAD_XDICTIONARY
360
74
102
}
330
1
100
AcDbSymbolTableRecord
100
AcDbBlockTableRecord
  2
*MODEL_SPACE
  0
BLOCK_RECORD
  5
101
102
{ACAD_XDICTIONARY
360
1F17
102
}
330
1
100
AcDbSymbolTableRecord
100
AcDbBlockTableRecord
  2
*PAPER_SPACE
  0
BLOCK_RECORD
  5
59
330
1
100
AcDbSymbolTableRecord
100
AcDbBlockTableRecord
  2
_OPEN30
  0
BLOCK_RECORD
  5
64
330
1
100
AcDbSymbolTableRecord
100
AcDbBlockTableRecord
  2
GENAXEH
  0
BLOCK_RECORD
  5
1190
330
1
100
AcDbSymbolTableRecord
100
AcDbBlockTableRecord
  2
*D5
  0
BLOCK_RECORD
  5
1338
330
1
100
AcDbSymbolTableRecord
100
AcDbBlockTableRecord
  2
*D6
  0
BLOCK_RECORD
  5
175C
330
1
100
AcDbSymbolTableRecord
100
AcDbBlockTableRecord
  2
*D7
  0
BLOCK_RECORD
  5
186F
330
1
100
AcDbSymbolTableRecord
100
AcDbBlockTableRecord
  2
*D8
  0
BLOCK_RECORD
  5
18F7
330
1
100
AcDbSymbolTableRecord
100
AcDbBlockTableRecord
  2
*D9
  0
BLOCK_RECORD
  5
1987
330
1
100
AcDbSymbolTableRecord
100
AcDbBlockTableRecord
  2
*D10
  0
BLOCK_RECORD
  5
1A58
330
1
100
AcDbSymbolTableRecord
100
AcDbBlockTableRecord
  2
*D11
  0
BLOCK_RECORD
  5
1AEA
330
1
100
AcDbSymbolTableRecord
100
AcDbBlockTableRecord
  2
*D12
  0
BLOCK_RECORD
  5
1DC5
330
1
100
AcDbSymbolTableRecord
100
AcDbBlockTableRecord
  2
A$C28C911A7
  0
ENDTAB
  0
ENDSEC
  0
SECTION
  2
BLOCKS
  0
BLOCK
  5
20
330
1F
100
AcDbEntity
  8
0
100
AcDbBlockBegin
  2
*MODEL_SPACE
 70
     0
 10
0.0
 20
0.0
 30
0.0
  3
*MODEL_SPACE
  1

  0
ENDBLK
  5
21
330
1F
100
AcDbEntity
  8
0
100
AcDbBlockEnd
  0
BLOCK
  5
103
330
101
100
AcDbEntity
 67
     1
  8
0
100
AcDbBlockBegin
  2
*PAPER_SPACE
 70
     0
 10
0.0
 20
0.0
 30
0.0
  3
*PAPER_SPACE
  1

  0
ENDBLK
  5
104
330
101
100
AcDbEntity
 67
     1
  8
0
100
AcDbBlockEnd
  0
BLOCK
  5
5D
330
59
100
AcDbEntity
  8
0
100
AcDbBlockBegin
  2
_OPEN30
 70
     0
 10
0.0
 20
0.0
 30
0.0
  3
_OPEN30
  1

  0
LINE
  5
5A
330
59
100
AcDbEntity
  8
0
 62
     0
100
AcDbLine
 10
-1.0
 20
0.26794919
 30
0.0
 11
0.0
 21
0.0
 31
0.0
  0
LINE
  5
5B
330
59
100
AcDbEntity
  8
0
 62
     0
100
AcDbLine
 10
0.0
 20
0.0
 30
0.0
 11
-1.0
 21
-0.26794919
 31
0.0
  0
LINE
  5
5C
330
59
100
AcDbEntity
  8
0
 62
     0
100
AcDbLine
 10
0.0
 20
0.0
 30
0.0
 11
-1.0
 21
0.0
 31
0.0
  0
ENDBLK
  5
5E
330
59
100
AcDbEntity
  8
0
100
AcDbBlockEnd
  0
BLOCK
  5
66
330
64
100
AcDbEntity
  8
0
100
AcDbBlockBegin
  2
GENAXEH
 70
     0
 10
0.0
 20
0.0
 30
0.0
  3
GENAXEH
  1

  0
LINE
  5
65
330
64
100
AcDbEntity
  8
0
100
AcDbLine
 10
-1.0
 20
0.0
 30
0.0
 11
1.0
 21
0.0
 31
0.0
  0
ENDBLK
  5
67
330
64
100
AcDbEntity
  8
0
100
AcDbBlockEnd
  0
BLOCK
  5
119A
330
1190
100
AcDbEntity
  8
0
100
AcDbBlockBegin
  2
*D5
 70
     1
 10
0.0
 20
0.0
 30
0.0
  3
*D5
  1

  0
LINE
  5
1C48
330
1190
100
AcDbEntity
  8
AM_5
100
AcDbLine
 10
0.5000000000000043
 20
22.30872773691274
 30
0.0
 11
14.13356028328138
 21
22.30872773691273
 31
0.0
  0
LINE
  5
1C49
330
1190
100
AcDbEntity
  8
AM_5
100
AcDbLine
 10
-0.6991446858766779
 20
37.80872773691277
 30
0.0
 11
14.13356028328138
 21
37.80872773691277
 31
0.0
  0
LINE
  5
1C4A
330
1190
100
AcDbEntity
  8
AM_5
100
AcDbLine
 10
13.63356028328138
 20
23.55872773691273
 30
0.0
 11
13.63356028328138
 21
36.55872773691277
 31
0.0
  0
INSERT
  5
1C4B
330
1190
100
AcDbEntity
  8
AM_5
100
AcDbBlockReference
  2
_OPEN30
 10
13.63356028328138
 20
22.30872773691273
 30
0.0
 41
1.25
 42
1.25
 43
1.25
 50
270.0
  0
INSERT
  5
1C4C
330
1190
100
AcDbEntity
  8
AM_5
100
AcDbBlockReference
  2
_OPEN30
 10
13.63356028328138
 20
37.80872773691277
 30
0.0
 41
1.25
 42
1.25
 43
1.25
 50
90.0
  0
MTEXT
  5
1C4D
330
1190
100
AcDbEntity
  8
AM_5
 62
     2
100
AcDbMText
 10
12.08356028328138
 20
30.05872773691276
 30
0.0
 40
1.6
 41
0.0
 71
     5
 72
     1
  1
15.5
  7
ASAMI
 11
0.0000000000000001
 21
1.0
 31
0.0
1001
ACAD
1000
MTEXTBEGIN
1070
    73
1070
     1
1070
    44
1040
1.0
1070
    74
1070
     0
1000
MTEXTEND
  0
POINT
  5
1C4E
330
1190
100
AcDbEntity
  8
DEFPOINTS
 62
     0
100
AcDbPoint
 10
0.0000000000000042
 20
22.30872773691274
 30
0.0
  0
POINT
  5
1C4F
330
1190
100
AcDbEntity
  8
DEFPOINTS
 62
     0
100
AcDbPoint
 10
-1.199144685876677
 20
37.80872773691277
 30
0.0
  0
POINT
  5
1C50
330
1190
100
AcDbEntity
  8
DEFPOINTS
 62
     0
100
AcDbPoint
 10
13.63356028328138
 20
37.80872773691277
 30
0.0
  0
ENDBLK
  5
119B
330
1190
100
AcDbEntity
  8
0
100
AcDbBlockEnd
  0
BLOCK
  5
1342
330
1338
100
AcDbEntity
  8
0
100
AcDbBlockBegin
  2
*D6
 70
     1
 10
0.0
 20
0.0
 30
0.0
  3
*D6
  1

  0
LINE
  5
1BFC
330
1338
100
AcDbEntity
  8
AM_5
100
AcDbLine
 10
-0.0000000000000007
 20
21.80872773691277
 30
0.0
 11
-0.0000000000000012
 21
14.30872773691284
 31
0.0
  0
LINE
  5
1BFD
330
1338
100
AcDbEntity
  8
AM_5
100
AcDbLine
 10
-100.0
 20
21.30872773691277
 30
0.0
 11
-100.0
 21
14.30872773691284
 31
0.0
  0
LINE
  5
1BFE
330
1338
100
AcDbEntity
  8
AM_5
100
AcDbLine
 10
-1.250000000000001
 20
14.80872773691284
 30
0.0
 11
-98.75
 21
14.80872773691284
 31
0.0
  0
INSERT
  5
1BFF
330
1338
100
AcDbEntity
  8
AM_5
100
AcDbBlockReference
  2
_OPEN30
 10
-0.0000000000000011
 20
14.80872773691284
 30
0.0
 41
1.25
 42
1.25
 43
1.25
  0
INSERT
  5
1C00
330
1338
100
AcDbEntity
  8
AM_5
100
AcDbBlockReference
  2
_OPEN30
 10
-100.0
 20
14.80872773691284
 30
0.0
 41
1.25
 42
1.25
 43
1.25
 50
180.0
  0
MTEXT
  5
1C01
330
1338
100
AcDbEntity
  8
AM_5
 62
     2
100
AcDbMText
 10
-50.0
 20
16.35872773691284
 30
0.0
 40
1.6
 41
0.0
 71
     5
 72
     1
  1
100
  7
ASAMI
1001
ACAD
1000
MTEXTBEGIN
1070
    73
1070
     1
1070
    44
1040
1.0
1070
    74
1070
     0
1000
MTEXTEND
  0
POINT
  5
1C02
330
1338
100
AcDbEntity
  8
DEFPOINTS
 62
     0
100
AcDbPoint
 10
-0.0000000000000007
 20
22.30872773691277
 30
0.0
  0
POINT
  5
1C03
330
1338
100
AcDbEntity
  8
DEFPOINTS
 62
     0
100
AcDbPoint
 10
-100.0
 20
21.80872773691277
 30
0.0
  0
POINT
  5
1C04
330
1338
100
AcDbEntity
  8
DEFPOINTS
 62
     0
100
AcDbPoint
 10
-100.0
 20
14.80872773691284
 30
0.0
  0
ENDBLK
  5
1343
330
1338
100
AcDbEntity
  8
0
100
AcDbBlockEnd
  0
BLOCK
  5
176B
330
175C
100
AcDbEntity
  8
0
100
AcDbBlockBegin
  2
*D7
 70
     1
 10
0.0
 20
0.0
 30
0.0
  3
*D7
  1

  0
LINE
  5
1CA0
330
175C
100
AcDbEntity
  8
AM_5
100
AcDbLine
 10
0.5000000000000036
 20
22.30872773691274
 30
0.0
 11
8.222875741347905
 21
22.30872773691274
 31
0.0
  0
LINE
  5
1CA1
330
175C
100
AcDbEntity
  8
AM_5
100
AcDbLine
 10
0.4980973490458764
 20
22.35230560828657
 30
0.0
 11
8.191585216598015
 21
23.02539857967161
 31
0.0
  0
ARC
  5
1CA2
330
175C
100
AcDbEntity
  8
AM_5
100
AcDbCircle
 10
0.0000000000000037
 20
22.30872773691274
 30
0.0
 40
7.722875741347902
100
AcDbArc
 50
341.3706233315259
 51
0.0000000000000254
  0
LINE
  5
1CA3
330
175C
100
AcDbEntity
  8
AM_5
100
AcDbLine
 10
7.31823372655167
 20
19.84169209877096
 30
0.0
 11
5.10615172797318
 21
13.27975483381583
 31
0.0
  0
ARC
  5
1CA4
330
175C
100
AcDbEntity
  8
AM_5
100
AcDbCircle
 10
0.0000000000000037
 20
22.30872773691274
 30
0.0
 40
7.722875741347902
100
AcDbArc
 50
341.4322705988521
 51
350.716135299426
  0
ARC
  5
1CA5
330
175C
100
AcDbEntity
  8
AM_5
100
AcDbCircle
 10
0.0000000000000037
 20
22.30872773691274
 30
0.0
 40
7.722875741347902
100
AcDbArc
 50
14.28386470057387
 51
23.56772940114781
  0
ARC
  5
1CA6
330
175C
100
AcDbEntity
  8
AM_5
100
AcDbCircle
 10
0.0000000000000037
 20
22.30872773691274
 30
0.0
 40
7.722875741347902
100
AcDbArc
 50
0.0000000000000254
 51
4.999999999999943
  0
INSERT
  5
1CA7
330
175C
100
AcDbEntity
  8
AM_5
100
AcDbBlockReference
  2
_OPEN30
 10
7.722875741347905
 20
22.30872773691274
 30
0.0
 41
1.25
 42
1.25
 43
1.25
 50
85.35806764971306
  0
INSERT
  5
1CA8
330
175C
100
AcDbEntity
  8
AM_5
100
AcDbBlockReference
  2
_OPEN30
 10
7.693487867552142
 20
22.98182070829778
 30
0.0
 41
1.25
 42
1.25
 43
1.25
 50
279.6419323502869
  0
MTEXT
  5
1CA9
330
175C
100
AcDbEntity
  8
AM_5
 62
     2
100
AcDbMText
 10
7.680980087833799
 20
16.06558339578225
 30
0.0
 40
1.6
 41
0.0
 71
     5
 72
     1
  1
-5°
  7
ASAMI
 11
-0.3194452067813798
 21
-0.9476047487557254
 31
0.0
1001
ACAD
1000
MTEXTBEGIN
1070
    73
1070
     1
1070
    44
1040
1.0
1070
    74
1070
     0
1000
MTEXTEND
  0
POINT
  5
1CAA
330
175C
100
AcDbEntity
  8
DEFPOINTS
 62
     0
100
AcDbPoint
 10
7.709809857902882
 20
22.75777302559027
 30
0.0
  0
POINT
  5
1CAB
330
175C
100
AcDbEntity
  8
DEFPOINTS
 62
     0
100
AcDbPoint
 10
-15.26818068020253
 20
20.9729350147295
 30
0.0
  0
POINT
  5
1CAC
330
175C
100
AcDbEntity
  8
DEFPOINTS
 62
     0
100
AcDbPoint
 10
0.0000000000000019
 20
22.30872773691274
 30
0.0
  0
POINT
  5
1CAD
330
175C
100
AcDbEntity
  8
DEFPOINTS
 62
     0
100
AcDbPoint
 10
-1.443391164192814
 20
22.30872773691274
 30
0.0
  0
POINT
  5
1CAE
330
175C
100
AcDbEntity
  8
DEFPOINTS
 62
     0
100
AcDbPoint
 10
0.0000000000000037
 20
22.30872773691274
 30
0.0
  0
ENDBLK
  5
176C
330
175C
100
AcDbEntity
  8
0
100
AcDbBlockEnd
  0
BLOCK
  5
1879
330
186F
100
AcDbEntity
  8
0
100
AcDbBlockBegin
  2
*D8
 70
     1
 10
0.0
 20
0.0
 30
0.0
  3
*D8
  1

  0
LINE
  5
1C26
330
186F
100
AcDbEntity
  8
AM_5
100
AcDbLine
 10
0.5
 20
-0.0000000000000001
 30
0.0
 11
7.500001009999992
 21
-0.0000000000000021
 31
0.0
  0
LINE
  5
1C27
330
186F
100
AcDbEntity
  8
AM_5
100
AcDbLine
 10
-10.38059522227875
 20
-20.0
 30
0.0
 11
7.500001009999986
 21
-20.0
 31
0.0
  0
LINE
  5
1C28
330
186F
100
AcDbEntity
  8
AM_5
100
AcDbLine
 10
7.000001009999992
 20
-1.250000000000001
 30
0.0
 11
7.000001009999987
 21
-18.75
 31
0.0
  0
INSERT
  5
1C29
330
186F
100
AcDbEntity
  8
AM_5
100
AcDbBlockReference
  2
_OPEN30
 10
7.000001009999992
 20
-0.000000000000002
 30
0.0
 41
1.25
 42
1.25
 43
1.25
 50
90.0
  0
INSERT
  5
1C2A
330
186F
100
AcDbEntity
  8
AM_5
100
AcDbBlockReference
  2
_OPEN30
 10
7.000001009999987
 20
-20.0
 30
0.0
 41
1.25
 42
1.25
 43
1.25
 50
270.0
  0
MTEXT
  5
1C2B
330
186F
100
AcDbEntity
  8
AM_5
 62
     2
100
AcDbMText
 10
5.450001009999991
 20
-10.0
 30
0.0
 40
1.6
 41
0.0
 71
     5
 72
     1
  1
20
  7
ASAMI
 11
0.0000000000000001
 21
1.0
 31
0.0
1001
ACAD
1000
MTEXTBEGIN
1070
    73
1070
     1
1070
    44
1040
1.0
1070
    74
1070
     0
1000
MTEXTEND
  0
POINT
  5
1C2C
330
186F
100
AcDbEntity
  8
DEFPOINTS
 62
     0
100
AcDbPoint
 10
0.0
 20
0.0
 30
0.0
  0
POINT
  5
1C2D
330
186F
100
AcDbEntity
  8
DEFPOINTS
 62
     0
100
AcDbPoint
 10
-10.88059522227875
 20
-20.0
 30
0.0
  0
POINT
  5
1C2E
330
186F
100
AcDbEntity
  8
DEFPOINTS
 62
     0
100
AcDbPoint
 10
7.000001009999987
 20
-20.0
 30
0.0
  0
ENDBLK
  5
187A
330
186F
100
AcDbEntity
  8
0
100
AcDbBlockEnd
  0
BLOCK
  5
1901
330
18F7
100
AcDbEntity
  8
0
100
AcDbBlockBegin
  2
*D9
 70
     1
 10
0.0
 20
0.0
 30
0.0
  3
*D9
  1

  0
LINE
  5
1C05
330
18F7
100
AcDbEntity
  8
AM_5
100
AcDbLine
 10
-100.5
 20
-19.99999999999997
 30
0.0
 11
-107.4999999999999
 21
-19.99999999999996
 31
0.0
  0
LINE
  5
1C06
330
18F7
100
AcDbEntity
  8
AM_5
100
AcDbLine
 10
-100.4999999999999
 20
-3.999999999999971
 30
0.0
 11
-107.4999999999999
 21
-3.999999999999969
 31
0.0
  0
LINE
  5
1C07
330
18F7
100
AcDbEntity
  8
AM_5
100
AcDbLine
 10
-106.9999999999999
 20
-18.74999999999996
 30
0.0
 11
-106.9999999999999
 21
-5.249999999999968
 31
0.0
  0
INSERT
  5
1C08
330
18F7
100
AcDbEntity
  8
AM_5
100
AcDbBlockReference
  2
_OPEN30
 10
-106.9999999999999
 20
-19.99999999999996
 30
0.0
 41
1.25
 42
1.25
 43
1.25
 50
270.0
  0
INSERT
  5
1C09
330
18F7
100
AcDbEntity
  8
AM_5
100
AcDbBlockReference
  2
_OPEN30
 10
-106.9999999999999
 20
-3.999999999999969
 30
0.0
 41
1.25
 42
1.25
 43
1.25
 50
90.0
  0
MTEXT
  5
1C0A
330
18F7
100
AcDbEntity
  8
AM_5
 62
     2
100
AcDbMText
 10
-108.5499999999999
 20
-11.99999999999998
 30
0.0
 40
1.6
 41
0.0
 71
     5
 72
     1
  1
16
  7
ASAMI
 11
0.0000000000000001
 21
1.0
 31
0.0
1001
ACAD
1000
MTEXTBEGIN
1070
    73
1070
     1
1070
    44
1040
1.0
1070
    74
1070
     0
1000
MTEXTEND
  0
POINT
  5
1C0B
330
18F7
100
AcDbEntity
  8
DEFPOINTS
 62
     0
100
AcDbPoint
 10
-100.0
 20
-19.99999999999997
 30
0.0
  0
POINT
  5
1C0C
330
18F7
100
AcDbEntity
  8
DEFPOINTS
 62
     0
100
AcDbPoint
 10
-100.0
 20
-3.999999999999971
 30
0.0
  0
POINT
  5
1C0D
330
18F7
100
AcDbEntity
  8
DEFPOINTS
 62
     0
100
AcDbPoint
 10
-106.9999999999999
 20
-3.999999999999969
 30
0.0
  0
ENDBLK
  5
1902
330
18F7
100
AcDbEntity
  8
0
100
AcDbBlockEnd
  0
BLOCK
  5
1996
330
1987
100
AcDbEntity
  8
0
100
AcDbBlockBegin
  2
*D10
 70
     1
 10
0.0
 20
0.0
 30
0.0
  3
*D10
  1

  0
LINE
  5
1C2F
330
1987
100
AcDbEntity
  8
AM_5
100
AcDbLine
 10
-0.0000000000000001
 20
0.5
 30
0.0
 11
-0.0000000000000018
 21
8.985183547111901
 31
0.0
  0
ARC
  5
1C30
330
1987
100
AcDbEntity
  8
AM_5
100
AcDbCircle
 10
-0.0000000000000002
 20
0.0
 30
0.0
 40
8.485183547111901
100
AcDbArc
 50
98.44821380996421
 51
171.5517861900357
  0
INSERT
  5
1C31
330
1987
100
AcDbEntity
  8
AM_5
100
AcDbBlockReference
  2
_OPEN30
 10
-0.0000000000000018
 20
8.485183547111901
 30
0.0
 41
1.25
 42
1.25
 43
1.25
 50
4.224106904982122
  0
INSERT
  5
1C32
330
1987
100
AcDbEntity
  8
AM_5
100
AcDbBlockReference
  2
_OPEN30
 10
-8.485183547111901
 20
0.0000000000000115
 30
0.0
 41
1.25
 42
1.25
 43
1.25
 50
265.7758930950178
  0
MTEXT
  5
1C33
330
1987
100
AcDbEntity
  8
AM_5
 62
     2
100
AcDbMText
 10
-7.095946336614494
 20
7.095946336614501
 30
0.0
 40
1.6
 41
0.0
 71
     5
 72
     1
  1
90°
  7
ASAMI
 11
0.7071067811865476
 21
0.7071067811865475
 31
0.0
1001
ACAD
1000
MTEXTBEGIN
1070
    73
1070
     1
1070
    44
1040
1.0
1070
    74
1070
     0
1000
MTEXTEND
  0
POINT
  5
1C34
330
1987
100
AcDbEntity
  8
DEFPOINTS
 62
     0
100
AcDbPoint
 10
-4.242591773555949
 20
7.348384507572662
 30
0.0
  0
POINT
  5
1C35
330
1987
100
AcDbEntity
  8
DEFPOINTS
 62
     0
100
AcDbPoint
 10
-0.8000000000000113
 20
0.0
 30
0.0
  0
POINT
  5
1C36
330
1987
100
AcDbEntity
  8
DEFPOINTS
 62
     0
100
AcDbPoint
 10
0.0
 20
-0.8000000000000113
 30
0.0
  0
POINT
  5
1C37
330
1987
100
AcDbEntity
  8
DEFPOINTS
 62
     0
100
AcDbPoint
 10
0.0
 20
0.0
 30
0.0
  0
POINT
  5
1C38
330
1987
100
AcDbEntity
  8
DEFPOINTS
 62
     0
100
AcDbPoint
 10
-14.52650264998337
 20
0.0
 30
0.0
  0
ENDBLK
  5
1997
330
1987
100
AcDbEntity
  8
0
100
AcDbBlockEnd
  0
BLOCK
  5
1A62
330
1A58
100
AcDbEntity
  8
0
100
AcDbBlockBegin
  2
*D11
 70
     1
 10
0.0
 20
0.0
 30
0.0
  3
*D11
  1

  0
LINE
  5
1C0E
330
1A58
100
AcDbEntity
  8
AM_5
100
AcDbLine
 10
-100.5
 20
21.80872773691277
 30
0.0
 11
-107.5
 21
21.80872773691277
 31
0.0
  0
LINE
  5
1C0F
330
1A58
100
AcDbEntity
  8
AM_5
100
AcDbLine
 10
-100.5
 20
37.80872773691277
 30
0.0
 11
-107.5
 21
37.80872773691277
 31
0.0
  0
LINE
  5
1C10
330
1A58
100
AcDbEntity
  8
AM_5
100
AcDbLine
 10
-107.0
 20
23.05872773691277
 30
0.0
 11
-107.0
 21
36.55872773691277
 31
0.0
  0
INSERT
  5
1C11
330
1A58
100
AcDbEntity
  8
AM_5
100
AcDbBlockReference
  2
_OPEN30
 10
-107.0
 20
21.80872773691277
 30
0.0
 41
1.25
 42
1.25
 43
1.25
 50
270.0
  0
INSERT
  5
1C12
330
1A58
100
AcDbEntity
  8
AM_5
100
AcDbBlockReference
  2
_OPEN30
 10
-107.0
 20
37.80872773691277
 30
0.0
 41
1.25
 42
1.25
 43
1.25
 50
90.0
  0
MTEXT
  5
1C13
330
1A58
100
AcDbEntity
  8
AM_5
 62
     2
100
AcDbMText
 10
-108.55
 20
29.80872773691276
 30
0.0
 40
1.6
 41
0.0
 71
     5
 72
     1
  1
16
  7
ASAMI
 11
0.0000000000000001
 21
1.0
 31
0.0
1001
ACAD
1000
MTEXTBEGIN
1070
    73
1070
     1
1070
    44
1040
1.0
1070
    74
1070
     0
1000
MTEXTEND
  0
POINT
  5
1C14
330
1A58
100
AcDbEntity
  8
DEFPOINTS
 62
     0
100
AcDbPoint
 10
-100.0
 20
21.80872773691277
 30
0.0
  0
POINT
  5
1C15
330
1A58
100
AcDbEntity
  8
DEFPOINTS
 62
     0
100
AcDbPoint
 10
-100.0
 20
37.80872773691277
 30
0.0
  0
POINT
  5
1C16
330
1A58
100
AcDbEntity
  8
DEFPOINTS
 62
     0
100
AcDbPoint
 10
-107.0
 20
37.80872773691277
 30
0.0
  0
ENDBLK
  5
1A63
330
1A58
100
AcDbEntity
  8
0
100
AcDbBlockEnd
  0
BLOCK
  5
1AF9
330
1AEA
100
AcDbEntity
  8
0
100
AcDbBlockBegin
  2
*D12
 70
     1
 10
0.0
 20
0.0
 30
0.0
  3
*D12
  1

  0
LINE
  5
1CEC
330
1AEA
100
AcDbEntity
  8
AM_5
100
AcDbLine
 10
18.57696178868992
 20
0.4980973490458728
 30
0.0
 11
19.27708878968746
 21
8.500585589023172
 31
0.0
  0
LINE
  5
1CED
330
1AEA
100
AcDbEntity
  8
AM_5
100
AcDbLine
 10
18.53338391731609
 20
0.5000000000000001
 30
0.0
 11
18.53338391731609
 21
8.53305644499656
 31
0.0
  0
ARC
  5
1CEE
330
1AEA
100
AcDbEntity
  8
AM_5
100
AcDbCircle
 10
18.53338391731609
 20
0.0000000000000003
 30
0.0
 40
8.033056444996558
100
AcDbArc
 50
67.09599341870917
 51
84.99999999999998
  0
LINE
  5
1CEF
330
1AEA
100
AcDbEntity
  8
AM_5
100
AcDbLine
 10
21.65975602812026
 20
7.399715756249467
 30
0.0
 11
28.03855718877422
 21
4.704678986466621
 31
0.0
  0
ARC
  5
1CF0
330
1AEA
100
AcDbEntity
  8
AM_5
100
AcDbCircle
 10
18.53338391731609
 20
0.0000000000000003
 30
0.0
 40
8.033056444996558
100
AcDbArc
 50
67.15070953332336
 51
76.07535476666166
  0
ARC
  5
1CF1
330
1AEA
100
AcDbEntity
  8
AM_5
100
AcDbCircle
 10
18.53338391731609
 20
0.0000000000000003
 30
0.0
 40
8.033056444996558
100
AcDbArc
 50
98.92464523333829
 51
107.8492904666765
  0
ARC
  5
1CF2
330
1AEA
100
AcDbEntity
  8
AM_5
100
AcDbCircle
 10
18.53338391731609
 20
0.0000000000000003
 30
0.0
 40
8.033056444996558
100
AcDbArc
 50
84.99999999999998
 51
89.99999999999998
  0
INSERT
  5
1CF3
330
1AEA
100
AcDbEntity
  8
AM_5
100
AcDbBlockReference
  2
_OPEN30
 10
19.23351091831363
 20
8.002488239977299
 30
0.0
 41
1.25
 42
1.25
 43
1.25
 50
170.5376773833308
  0
INSERT
  5
1CF4
330
1AEA
100
AcDbEntity
  8
AM_5
100
AcDbBlockReference
  2
_OPEN30
 10
18.53338391731609
 20
8.03305644499656
 30
0.0
 41
1.25
 42
1.25
 43
1.25
 50
4.462322616669145
  0
MTEXT
  5
1CF5
330
1AEA
100
AcDbEntity
  8
AM_5
 62
     2
100
AcDbMText
 10
25.4523985755524
 20
7.479992569950301
 30
0.0
 40
1.6
 41
0.0
 71
     5
 72
     1
  1
-5°
  7
ASAMI
 11
0.921158192640166
 21
-0.3891883658742932
 31
0.0
1001
ACAD
1000
MTEXTBEGIN
1070
    73
1070
     1
1070
    44
1040
1.0
1070
    74
1070
     0
1000
MTEXTEND
  0
POINT
  5
1CF6
330
1AEA
100
AcDbEntity
  8
DEFPOINTS
 62
     0
100
AcDbPoint
 10
18.76702310466636
 20
8.029658061127825
 30
0.0
  0
POINT
  5
1CF7
330
1AEA
100
AcDbEntity
  8
DEFPOINTS
 62
     0
100
AcDbPoint
 10
17.19759119513283
 20
-15.26818068020253
 30
0.0
  0
POINT
  5
1CF8
330
1AEA
100
AcDbEntity
  8
DEFPOINTS
 62
     0
100
AcDbPoint
 10
18.53338391731609
 20
0.0
 30
0.0
  0
POINT
  5
1CF9
330
1AEA
100
AcDbEntity
  8
DEFPOINTS
 62
     0
100
AcDbPoint
 10
18.53338391731609
 20
-2.250941552558345
 30
0.0
  0
POINT
  5
1CFA
330
1AEA
100
AcDbEntity
  8
DEFPOINTS
 62
     0
100
AcDbPoint
 10
18.53338391731609
 20
0.0
 30
0.0
  0
ENDBLK
  5
1AFA
330
1AEA
100
AcDbEntity
  8
0
100
AcDbBlockEnd
  0
BLOCK
  5
1DCA
330
1DC5
100
AcDbEntity
  8
0
100
AcDbBlockBegin
  2
A$C28C911A7
 70
     0
 10
0.0
 20
0.0
 30
0.0
  3
A$C28C911A7
  1

  0
LINE
  5
1DC6
330
1DC5
100
AcDbEntity
  8
AM_0
100
AcDbLine
 10
4.760000000000005
 20
-13.48749999999997
 30
0.0
 11
4.759999999999999
 21
0.0
 31
0.0
  0
LINE
  5
1DC7
330
1DC5
100
AcDbEntity
  8
AM_0
100
AcDbLine
 10
0.0000000000000053
 20
-13.48749999999997
 30
0.0
 11
0.0
 21
0.0
 31
0.0
  0
LINE
  5
1DC8
330
1DC5
100
AcDbEntity
  8
AM_0
100
AcDbLine
 10
0.0000000000000053
 20
-13.48749999999997
 30
0.0
 11
4.760000000000005
 21
-13.48749999999997
 31
0.0
  0
LINE
  5
1DC9
330
1DC5
100
AcDbEntity
  8
AM_0
100
AcDbLine
 10
0.0
 20
0.0
 30
0.0
 11
4.759999999999999
 21
0.0
 31
0.0
  0
ENDBLK
  5
1DCB
330
1DC5
100
AcDbEntity
  8
0
100
AcDbBlockEnd
  0
ENDSEC
  0
SECTION
  2
ENTITIES
  0
DIMENSION
  5
118F
330
1F
100
AcDbEntity
  8
AM_5
100
AcDbDimension
  2
*D5
 10
13.63356028328138
 20
37.80872773691277
 30
0.0
 11
12.08356028328138
 21
30.05872773691276
 31
0.0
 70
    32
  1
<>
  3
AM_JIS
100
AcDbAlignedDimension
 13
0.0000000000000042
 23
22.30872773691274
 33
0.0
 14
-1.199144685876677
 24
37.80872773691277
 34
0.0
 50
90.00000000000003
100
AcDbRotatedDimension
1001
GENIUS_GENDTOL_13
1000

1000
h7
1000

1040
0.0
  0
DIMENSION
  5
1337
330
1F
100
AcDbEntity
  8
AM_5
100
AcDbDimension
  2
*D6
 10
-100.0
 20
14.80872773691284
 30
0.0
 11
-50.0
 21
16.35872773691284
 31
0.0
 70
    32
  1
<>
  3
AM_JIS
100
AcDbAlignedDimension
 13
-0.0000000000000007
 23
22.30872773691277
 33
0.0
 14
-100.0
 24
21.80872773691277
 34
0.0
100
AcDbRotatedDimension
1001
GENIUS_GENDTOL_13
1000

1000
h7
1000

1040
0.0
  0
TEXT
  5
14EA
330
1F
100
AcDbEntity
  8
AM_6
100
AcDbText
 10
-65.17857142857143
 20
-31.24999999999998
 30
0.0
 40
2.5
  1
ETGNR1616-H33
 72
     4
 11
-50.0
 21
-29.99999999999998
 31
0.0
100
AcDbText
  0
LINE
  5
1509
330
1F
100
AcDbEntity
  8
AM_11
100
AcDbLine
 10
-21.67999999999998
 20
-4.0
 30
0.0
 11
-22.25735026918961
 21
-4.0
 31
0.0
  0
LINE
  5
150B
330
1F
100
AcDbEntity
  8
AM_0
100
AcDbLine
 10
-100.0
 20
-19.99999999999997
 30
0.0
 11
-10.88059522227875
 21
-20.0
 31
0.0
  0
LINE
  5
150D
330
1F
100
AcDbEntity
  8
AM_0
100
AcDbLine
 10
-15.05565291219628
 20
-0.1999999999999886
 30
0.0
 11
-15.79667324220053
 21
-0.1999999999999886
 31
0.0
  0
LINE
  5
150E
330
1F
100
AcDbEntity
  8
AM_0
100
AcDbLine
 10
-7.301673373454619
 20
-13.40112552151819
 30
0.0
 11
-7.738336621100302
 21
-14.15744845223858
 31
0.0
  0
LINE
  5
1516
330
1F
100
AcDbEntity
  8
AM_0
100
AcDbLine
 10
-19.37059892324148
 20
0.0
 30
0.0
 11
-15.91214329603845
 21
0.0
 31
0.0
  0
LINE
  5
151F
330
1F
100
AcDbEntity
  8
AM_11
100
AcDbLine
 10
-21.67999999999998
 20
-4.0
 30
0.0
 11
-21.39132486540517
 21
-3.5
 31
0.0
  0
LINE
  5
1529
330
1F
100
AcDbEntity
  8
AM_0
100
AcDbLine
 10
-21.39132486540517
 20
-3.5
 30
0.0
 11
-19.37059892324149
 21
0.0
 31
0.0
  0
LINE
  5
152D
330
1F
100
AcDbEntity
  8
AM_0
100
AcDbLine
 10
-22.25735026918961
 20
-4.0
 30
0.0
 11
-100.0
 21
-3.999999999999971
 31
0.0
  0
ARC
  5
152E
330
1F
100
AcDbEntity
  8
AM_0
100
AcDbCircle
 10
-22.25735026918961
 20
-3.0
 30
0.0
 40
1.0
100
AcDbArc
 50
270.0
 51
330.0
1001
GENIUS_GENODEF_13
1002
{
1000
HIER
1070
     0
1002
}
1002
{
1000
MANEDIT
1070
     0
1002
}
1002
{
1000
NOSEL
1070
     0
1002
}
1002
{
1000
BEHIND
1070
     0
1002
}
1002
{
1000
REACTOR
1002
}
1001
GENIUS_GENOBJ-N-FIL_13
1002
{
1000
OWNER
1000
GEN
1002
}
  0
LINE
  5
153C
330
1F
100
AcDbEntity
  8
AM_0
100
AcDbLine
 10
-7.622866567262384
 20
-14.35744845223863
 30
0.0
 11
-10.88059522227875
 21
-20.0
 31
0.0
  0
LINE
  5
1585
330
1F
100
AcDbEntity
  8
AM_0
100
AcDbLine
 10
-0.8000000000000113
 20
0.0
 30
0.0
 11
-14.52650264998337
 21
0.0
 31
0.0
  0
LINE
  5
1586
330
1F
100
AcDbEntity
  8
AM_0
100
AcDbLine
 10
-6.970431001964215
 20
-13.08749999999997
 30
0.0
 11
-0.1071796769724642
 21
-1.199999999999988
 31
0.0
  0
LINE
  5
1587
330
1F
100
AcDbEntity
  8
AM_11
100
AcDbLine
 10
-0.8000000000000113
 20
0.0
 30
0.0
 11
0.0
 21
0.0
 31
0.0
  0
LINE
  5
1588
330
1F
100
AcDbEntity
  8
AM_11
100
AcDbLine
 10
0.0
 20
-0.8000000000000113
 30
0.0
 11
0.0
 21
0.0
 31
0.0
  0
ARC
  5
1589
330
1F
100
AcDbEntity
  8
AM_0
100
AcDbCircle
 10
-0.8000000000000095
 20
-0.8000000000000113
 30
0.0
 40
0.7999999999999997
100
AcDbArc
 50
330.0
 51
90.0
  0
LINE
  5
158A
330
1F
100
AcDbEntity
  8
AM_0
100
AcDbLine
 10
-15.91214329603845
 20
0.0000000000000284
 30
0.0
 11
-7.622866567262381
 21
-14.35744845223863
 31
0.0
  0
ARC
  5
158B
330
1F
100
AcDbEntity
  8
AM_0
100
AcDbCircle
 10
-14.52650264998336
 20
-0.8000000000000113
 30
0.0
 40
0.8000000000000113
100
AcDbArc
 50
90.0
 51
209.9999999999999
  0
ARC
  5
158C
330
1F
100
AcDbEntity
  8
AM_0
100
AcDbCircle
 10
-7.663251324991762
 20
-12.68749999999994
 30
0.0
 40
0.7999999999999997
100
AcDbArc
 50
209.9999999999999
 51
330.0
  0
LINE
  5
15BC
330
1F
100
AcDbEntity
  8
AM_0
100
AcDbLine
 10
-100.0
 20
21.80872773691277
 30
0.0
 11
-100.0
 21
37.80872773691277
 31
0.0
  0
LINE
  5
15BE
330
1F
100
AcDbEntity
  8
AM_0
100
AcDbLine
 10
-100.0
 20
-3.999999999999971
 30
0.0
 11
-100.0
 21
-19.99999999999997
 31
0.0
  0
LINE
  5
15BF
330
1F
100
AcDbEntity
  8
AM_0
100
AcDbLine
 10
-100.0
 20
21.80872773691277
 30
0.0
 11
-15.34130306845103
 21
21.80872773691274
 31
0.0
  0
LINE
  5
15C0
330
1F
100
AcDbEntity
  8
AM_0
100
AcDbLine
 10
-100.0
 20
37.80872773691277
 30
0.0
 11
-1.199144685876677
 21
37.80872773691277
 31
0.0
  0
LINE
  5
15CB
330
1F
100
AcDbEntity
  8
AM_0
100
AcDbLine
 10
-0.2656406460550678
 20
27.13872773691278
 30
0.0
 11
-1.199144685876677
 21
37.80872773691277
 31
0.0
  0
LINE
  5
15D6
330
1F
100
AcDbEntity
  8
AM_0
100
AcDbLine
 10
-0.2656406460550749
 20
27.13872773691278
 30
0.0
 11
-15.6895588684206
 21
25.78930974530488
 31
0.0
  0
LINE
  5
15F8
330
1F
100
AcDbEntity
  8
AM_0
100
AcDbLine
 10
-15.26818068020252
 20
20.9729350147295
 30
0.0
 11
0.0000000000000042
 21
22.30872773691274
 31
0.0
  0
LINE
  5
15F9
330
1F
100
AcDbEntity
  8
AM_0
100
AcDbLine
 10
-0.4148613354788495
 20
27.05061449982946
 30
0.0
 11
-15.68304201568138
 21
25.71482177764619
 31
0.0
  0
LINE
  5
15FA
330
1F
100
AcDbEntity
  8
AM_0
100
AcDbLine
 10
0.0000000000000042
 20
22.30872773691271
 30
0.0
 11
-0.4213781882180669
 21
27.12510246748815
 31
0.0
  0
LINE
  5
15FB
330
1F
100
AcDbEntity
  8
AM_0
100
AcDbLine
 10
-15.6895588684206
 20
25.78930974530488
 30
0.0
 11
-15.26818068020252
 21
20.9729350147295
 31
0.0
  0
LINE
  5
1604
330
1F
100
AcDbEntity
  8
AM_7
  6
AM_ISO08W050X2
100
AcDbLine
 10
-7.503356725979776
 20
20.1465393286835
 30
0.0
 11
-9.595094551923544
 21
44.05521208288535
 31
0.0
1001
GENIUS_GENODEF_13
1002
{
1000
HIER
1070
     0
1002
}
1002
{
1000
MANEDIT
1070
     0
1002
}
1002
{
1000
NOSEL
1070
     0
1002
}
1002
{
1000
BEHIND
1070
     0
1002
}
1002
{
1000
REACTOR
1002
}
1001
GENIUS_GENOBJ-N-CEN_13
1002
{
1000
OWNER
1000
GEN
1002
}
  0
LINE
  5
160C
330
1F
100
AcDbEntity
  8
AM_0
100
AcDbLine
 10
-19.37059892324148
 20
21.80872773691274
 30
0.0
 11
-20.76509080720402
 21
37.7478429063807
 31
0.0
  0
LINE
  5
162E
330
1F
100
AcDbEntity
  8
AM_0
100
AcDbLine
 10
34.03338391731607
 20
-20.0
 30
0.0
 11
18.03338391731607
 21
-20.0
 31
0.0
  0
LINE
  5
162F
330
1F
100
AcDbEntity
  8
AM_0
100
AcDbLine
 10
18.03338391731607
 20
-20.0
 30
0.0
 11
18.03338391731607
 21
-13.4952757271029
 31
0.0
  0
LINE
  5
1630
330
1F
100
AcDbEntity
  8
AM_0
100
AcDbLine
 10
23.36338391731608
 20
-0.1999999999999886
 30
0.0
 11
34.03338391731607
 21
-1.133504039821588
 31
0.0
  0
LINE
  5
1631
330
1F
100
AcDbEntity
  8
AM_0
100
AcDbLine
 10
34.03338391731607
 20
-1.133504039821588
 30
0.0
 11
34.03338391731607
 21
-20.0
 31
0.0
  0
LINE
  5
164B
330
1F
100
AcDbEntity
  8
AM_0
100
AcDbLine
 10
23.36338391731608
 20
-0.1999999999999886
 30
0.0
 11
22.11105383478794
 21
-14.51419834361806
 31
0.0
  0
LINE
  5
167B
330
1F
100
AcDbEntity
  8
AM_7
  6
AM_ISO08W050X2
100
AcDbLine
 10
16.62242711013625
 20
-4.631766385878502
 30
0.0
 11
40.53109986433814
 21
-6.723504211822183
 31
0.0
1001
GENIUS_GENODEF_13
1002
{
1000
HIER
1070
     0
1002
}
1002
{
1000
MANEDIT
1070
     0
1002
}
1002
{
1000
NOSEL
1070
     0
1002
}
1002
{
1000
BEHIND
1070
     0
1002
}
1002
{
1000
REACTOR
1002
}
1001
GENIUS_GENOBJ-N-CEN_13
1002
{
1000
OWNER
1000
GEN
1002
}
  0
LINE
  5
1689
330
1F
100
AcDbEntity
  8
AM_0
100
AcDbLine
 10
-11.95484768303142
 20
42.34303067887862
 30
0.0
 11
-6.973874192572696
 21
42.77880939261689
 31
0.0
  0
LINE
  5
16A8
330
1F
100
AcDbEntity
  8
AM_0
100
AcDbLine
 10
-6.539048390900435
 20
37.80872773691277
 30
0.0
 11
-6.9738741925727
 21
42.77880939261692
 31
0.0
  0
LINE
  5
16A9
330
1F
100
AcDbEntity
  8
AM_0
100
AcDbLine
 10
-11.55814757861717
 20
37.80872773691277
 30
0.0
 11
-11.95484768303142
 21
42.34303067887862
 31
0.0
  0
LINE
  5
16BD
330
1F
100
AcDbEntity
  8
AM_0
100
AcDbLine
 10
38.81891846033139
 20
-9.083257342930064
 30
0.0
 11
39.25469717406967
 21
-4.102283852471368
 31
0.0
  0
LINE
  5
16D5
330
1F
100
AcDbEntity
  8
AM_0
100
AcDbLine
 10
34.03338391731607
 20
-8.664577321504566
 30
0.0
 11
38.81891846033139
 21
-9.083257342930092
 31
0.0
  0
LINE
  5
16D6
330
1F
100
AcDbEntity
  8
AM_0
100
AcDbLine
 10
39.25469717406969
 20
-4.102283852471368
 30
0.0
 11
34.03338391731607
 21
-3.645478133787832
 31
0.0
  0
DIMENSION
  5
175B
330
1F
100
AcDbEntity
  8
AM_5
100
AcDbDimension
  2
*D7
 10
0.0000000000000036
 20
22.30872773691274
 30
0.0
 11
7.680980087833803
 21
16.06558339578225
 31
0.0
 70
    34
  1
-<>
  3
AM_JIS$2
100
AcDb2LineAngularDimension
 13
0.0000000000000018
 23
22.30872773691274
 33
0.0
 14
-1.443391164192814
 24
22.30872773691274
 34
0.0
 15
-15.26818068020252
 25
20.9729350147295
 35
0.0
 16
7.709809857902882
 26
22.75777302559027
 36
0.0
1001
ACAD
1000
DSTYLE
1002
{
1070
   179
1070
     3
1002
}
1001
GENIUS_GENDTOL_13
1000

1000
h7
1000

1040
0.0
  0
DIMENSION
  5
186E
330
1F
100
AcDbEntity
  8
AM_5
100
AcDbDimension
  2
*D8
 10
7.000001009999987
 20
-20.0
 30
0.0
 11
5.450001009999991
 21
-10.0
 31
0.0
 70
    32
  1
<>
  3
AM_JIS
100
AcDbAlignedDimension
 13
0.0
 23
0.0
 33
0.0
 14
-10.88059522227875
 24
-20.0
 34
0.0
 50
90.00000000000003
100
AcDbRotatedDimension
1001
GENIUS_GENDTOL_13
1000

1000
h7
1000

1040
0.0
  0
DIMENSION
  5
18F6
330
1F
100
AcDbEntity
  8
AM_5
100
AcDbDimension
  2
*D9
 10
-106.9999999999999
 20
-3.999999999999969
 30
0.0
 11
-108.5499999999999
 21
-11.99999999999998
 31
0.0
 70
    32
  1
<>
  3
AM_JIS
100
AcDbAlignedDimension
 13
-100.0
 23
-19.99999999999997
 33
0.0
 14
-100.0
 24
-3.999999999999971
 34
0.0
 50
270.0
100
AcDbRotatedDimension
1001
GENIUS_GENDTOL_13
1000

1000
h7
1000

1040
0.0
  0
DIMENSION
  5
1986
330
1F
100
AcDbEntity
  8
AM_5
100
AcDbDimension
  2
*D10
 10
-14.52650264998337
 20
0.0
 30
0.0
 11
-7.095946336614495
 21
7.0959463366145
 31
0.0
 70
    34
  1
<>
  3
AM_JIS$2
100
AcDb2LineAngularDimension
 13
0.0
 23
-0.8000000000000113
 33
0.0
 14
0.0
 24
0.0
 34
0.0
 15
-0.8000000000000113
 25
0.0
 35
0.0
 16
-4.242591773555949
 26
7.348384507572662
 36
0.0
1001
ACAD
1000
DSTYLE
1002
{
1070
   179
1070
     3
1002
}
1001
GENIUS_GENDTOL_13
1000

1000
h7
1000

1040
0.0
  0
DIMENSION
  5
1A57
330
1F
100
AcDbEntity
  8
AM_5
100
AcDbDimension
  2
*D11
 10
-107.0
 20
37.80872773691277
 30
0.0
 11
-108.55
 21
29.80872773691276
 31
0.0
 70
    32
  1
<>
  3
AM_JIS
100
AcDbAlignedDimension
 13
-100.0
 23
21.80872773691277
 33
0.0
 14
-100.0
 24
37.80872773691277
 34
0.0
 50
270.0
100
AcDbRotatedDimension
1001
GENIUS_GENDTOL_13
1000

1000
h7
1000

1040
0.0
  0
DIMENSION
  5
1AE9
330
1F
100
AcDbEntity
  8
AM_5
100
AcDbDimension
  2
*D12
 10
18.53338391731609
 20
0.0
 30
0.0
 11
25.45239857555241
 21
7.479992569950301
 31
0.0
 70
    34
  1
-<>
  3
AM_JIS$2
100
AcDb2LineAngularDimension
 13
18.53338391731609
 23
0.0
 33
0.0
 14
18.53338391731609
 24
-2.250941552558344
 34
0.0
 15
17.19759119513283
 25
-15.26818068020253
 35
0.0
 16
18.76702310466636
 26
8.029658061127825
 36
0.0
1001
ACAD
1000
DSTYLE
1002
{
1070
   179
1070
     3
1002
}
1001
GENIUS_GENDTOL_13
1000

1000
h7
1000

1040
0.0
  0
LINE
  5
1DD9
330
1F
100
AcDbEntity
  8
AM_0
100
AcDbLine
 10
22.09975759992377
 20
-13.85103732599124
 30
0.0
 11
23.2752706802328
 21
-0.4148613354788536
 31
0.0
  0
LINE
  5
1DDA
330
1F
100
AcDbEntity
  8
AM_0
100
AcDbLine
 10
17.35787083700706
 20
-13.43617599051238
 30
0.0
 11
18.53338391731609
 21
0.0
 31
0.0
  0
LINE
  5
1DDB
330
1F
100
AcDbEntity
  8
AM_0
100
AcDbLine
 10
17.35787083700706
 20
-13.43617599051238
 30
0.0
 11
22.09975759992377
 21
-13.85103732599124
 31
0.0
  0
LINE
  5
1DDC
330
1F
100
AcDbEntity
  8
AM_0
100
AcDbLine
 10
18.53338391731609
 20
0.0
 30
0.0
 11
23.2752706802328
 21
-0.4148613354788536
 31
0.0
  0
LINE
  5
1DDD
330
1F
100
AcDbEntity
  8
AM_0
100
AcDbLine
 10
18.03338391731607
 20
-14.15744845223858
 30
0.0
 11
22.11105383478794
 21
-14.51419834361806
 31
0.0
  0
CIRCLE
  5
1EA1
330
1F
100
AcDbEntity
  8
AM_0
100
AcDbCircle
 10
-7.663251324991728
 20
-4.762499999999983
 30
0.0
 40
2.0
  0
VIEWPORT
  5
110
330
101
100
AcDbEntity
 67
     1
  8
0
100
AcDbViewport
 10
420.5
 20
297.0
 30
0.0
 40
948.9782706766916
 41
628.452
 68
     1
 69
     1
1001
ACAD
1000
MVIEW
1002
{
1070
    16
1010
0.0
1020
0.0
1030
0.0
1010
0.0
1020
0.0
1030
1.0
1040
0.0
1040
628.452
1040
420.5
1040
297.0
1040
50.0
1040
0.0
1040
0.0
1070
     0
1070
   100
1070
     1
1070
     1
1070
     0
1070
     0
1070
     0
1070
     0
1040
0.0
1040
0.0
1040
0.0
1040
10.0
1040
10.0
1040
10.0
1040
10.0
1070
     0
1002
{
1002
}
1002
}
1001
GENIUS_GENOREF_13
1005
1EE6
1001
GENIUS_GENSCREG_15
1000
PF
1040
1.0
1000
DF
1040
1.0
1000
MIN
1011
-53.98913533834582
1021
-17.22599999999999
1031
0.0
1000
MAX
1011
894.989135338346
1021
611.226
1031
0.0
1000
FLAGS
1070
     4
  0
ENDSEC
  0
SECTION
  2
OBJECTS
  0
DICTIONARY
  5
C
330
0
100
AcDbDictionary
  3
ACAD_GROUP
350
D
  3
ACAD_LAYOUT
350
1A
  3
ACAD_MLINESTYLE
350
17
  3
ACAD_PLOTSETTINGS
350
19
  3
ACAD_PLOTSTYLENAME
350
E
  3
ACDBVARIABLEDICTIONARY
350
34
  3
ACMDICTIONARY
350
43
  3
AMG
350
2B
  3
AMGSNAPSETTINGS
350
6E
  3
DWGPROPS
350
1ED8
  3
ACDBHEADERROUNDTRIPXREC
350
1EEF
  0
DICTIONARY
  5
74
330
1F
100
AcDbDictionary
280
     1
  3
ACAD_INDEX
360
1EDA
  3
ACAD_LAYOUTSELFREF
360
1F12
  0
DICTIONARY
  5
1F17
330
101
100
AcDbDictionary
280
     1
  3
ACAD_LAYOUTSELFREF
360
1F18
  0
DICTIONARY
  5
D
102
{ACAD_REACTORS
330
C
102
}
330
C
100
AcDbDictionary
  0
DICTIONARY
  5
1A
102
{ACAD_REACTORS
330
C
102
}
330
C
100
AcDbDictionary
  0
DICTIONARY
  5
17
102
{ACAD_REACTORS
330
C
102
}
330
C
100
AcDbDictionary
  3
STANDARD
350
18
  0
DICTIONARY
  5
19
102
{ACAD_REACTORS
330
C
102
}
330
C
100
AcDbDictionary
  0
ACDBDICTIONARYWDFLT
  5
E
102
{ACAD_REACTORS
330
C
102
}
330
C
100
AcDbDictionary
281
     1
  3
Normal
350
F
100
AcDbDictionaryWithDefault
340
F
  0
DICTIONARY
  5
34
102
{ACAD_REACTORS
330
C
102
}
330
C
100
AcDbDictionary
  3
INDEXCTL
350
35
  3
SORTENTS
350
B5E
  0
DICTIONARY
  5
43
102
{ACAD_REACTORS
330
C
102
}
330
C
100
AcDbDictionary
  3
ACMSTDDICTIONARY
350
260
  0
DICTIONARY
  5
2B
102
{ACAD_REACTORS
330
C
102
}
330
C
100
AcDbDictionary
  3
ACMGSETTINGS
350
2C
  0
DICTIONARY
  5
6E
102
{ACAD_REACTORS
330
C
102
}
330
C
100
AcDbDictionary
  0
XRECORD
  5
1ED8
102
{ACAD_REACTORS
330
C
102
}
330
C
100
AcDbXrecord
  1
DWGPROPS COOKIE
  2

  3

  4

  6

  7

  8

  9

300
AmdtFileType=82
301
=
302
=
303
=
304
=
305
=
306
=
307
=
308
=
309
=
 40
0.0538228819444445
 41
2452859.617429641
 42
2453180.385191689
  1

 90
        1
  0
DICTIONARY
  5
1EEF
102
{ACAD_REACTORS
330
C
102
}
330
C
100
AcDbDictionary
  3
TSTACKALIGN
350
1EF0
  3
TSTACKSIZE
350
1EF1
  3
HYPERLINKBASE
350
1EF2
  3
STYLESHEET
350
1EF3
  3
LAYOUTDICT
350
1EF4
  3
PLOTSETDICT
350
1EF5
  3
PLOTSTYLNAMDICT
350
1EF6
  3
LWETCUNION
350
1EF7
  3
INSUNITS
350
1EF8
  3
CEPSNTYPE
350
1EF9
  3
FINGERPRINTGUID
350
1EFA
  3
VERSIONGUID
350
1EFB
  3
PSVPSCALE
350
1EFC
  3
DIMSTYLEDATA
350
1EFD
  3
PUCSORTHOREF
350
1EFE
  3
PUCSORTHOVIEW
350
1EFF
  3
PUCSBASE
350
1F00
  3
PUCSORGTOP
350
1F01
  3
PUCSORGBOTTOM
350
1F02
  3
PUCSORGLEFT
350
1F03
  3
PUCSORGRIGHT
350
1F04
  3
PUCSORGFRONT
350
1F05
  3
PUCSORGBACK
350
1F06
  3
UCSORTHOREF
350
1F07
  3
UCSORTHOVIEW
350
1F08
  3
UCSBASE
350
1F09
  3
UCSORGTOP
350
1F0A
  3
UCSORGBOTTOM
350
1F0B
  3
UCSORGLEFT
350
1F0C
  3
UCSORGRIGHT
350
1F0D
  3
UCSORGFRONT
350
1F0E
  3
UCSORGBACK
350
1F0F
  0
DICTIONARY
  5
1EDA
102
{ACAD_REACTORS
330
74
102
}
330
74
100
AcDbDictionary
  3
*A1
350
1EDB
  0
XRECORD
  5
1F12
102
{ACAD_REACTORS
330
74
102
}
330
74
100
AcDbXrecord
340
1F
  0
XRECORD
  5
1F18
102
{ACAD_REACTORS
330
1F17
102
}
330
1F17
100
AcDbXrecord
340
101
  0
MLINESTYLE
  5
18
102
{ACAD_REACTORS
330
17
102
}
330
17
100
AcDbMlineStyle
  2
STANDARD
 70
     0
  3

 62
   256
 51
90.0
 52
90.0
 71
     2
 49
0.5
 62
   256
  6
BYLAYER
 49
-0.5
 62
   256
  6
BYLAYER
  0
ACDBPLACEHOLDER
  5
F
102
{ACAD_REACTORS
330
E
102
}
330
E
100
AcDbPlaceHolder
280
     0
  0
DICTIONARYVAR
  5
35
102
{ACAD_REACTORS
330
34
102
}
330
34
100
DictionaryVariables
280
     0
  1
1
  0
DICTIONARYVAR
  5
B5E
102
{ACAD_REACTORS
330
34
102
}
330
34
100
DictionaryVariables
280
     0
  1
96
  0
DICTIONARY
  5
260
102
{ACAD_REACTORS
330
43
102
}
330
43
100
AcDbDictionary
  0
DICTIONARY
  5
2C
102
{ACAD_REACTORS
330
2B
102
}
330
2B
100
AcDbDictionary
  3
DWGSETTINGS
350
2D
  0
XRECORD
  5
1EF0
102
{ACAD_REACTORS
330
1EEF
102
}
330
1EEF
100
AcDbXrecord
 90
        1
  0
XRECORD
  5
1EF1
102
{ACAD_REACTORS
330
1EEF
102
}
330
1EEF
100
AcDbXrecord
 90
       70
  0
XRECORD
  5
1EF2
102
{ACAD_REACTORS
330
1EEF
102
}
330
1EEF
100
AcDbXrecord
  1

  0
XRECORD
  5
1EF3
102
{ACAD_REACTORS
330
1EEF
102
}
330
1EEF
100
AcDbXrecord
  1
ASAMI.ctb
  0
XRECORD
  5
1EF4
102
{ACAD_REACTORS
330
1EEF
102
}
330
1EEF
100
AcDbXrecord
340
1A
  0
XRECORD
  5
1EF5
102
{ACAD_REACTORS
330
1EEF
102
}
330
1EEF
100
AcDbXrecord
340
19
  0
XRECORD
  5
1EF6
102
{ACAD_REACTORS
330
1EEF
102
}
330
1EEF
100
AcDbXrecord
340
E
  0
XRECORD
  5
1EF7
102
{ACAD_REACTORS
330
1EEF
102
}
330
1EEF
100
AcDbXrecord
 90
    10781
  0
XRECORD
  5
1EF8
102
{ACAD_REACTORS
330
1EEF
102
}
330
1EEF
100
AcDbXrecord
 90
        4
  0
XRECORD
  5
1EF9
102
{ACAD_REACTORS
330
1EEF
102
}
330
1EEF
100
AcDbXrecord
 90
        0
  0
XRECORD
  5
1EFA
102
{ACAD_REACTORS
330
1EEF
102
}
330
1EEF
100
AcDbXrecord
  1
{AFB28963-8C59-40AE-9337-C84526B81ACE}
  0
XRECORD
  5
1EFB
102
{ACAD_REACTORS
330
1EEF
102
}
330
1EEF
100
AcDbXrecord
  1
{A16D5333-B659-4081-AC89-47BEC28E02C1}
  0
XRECORD
  5
1EFC
102
{ACAD_REACTORS
330
1EEF
102
}
330
1EEF
100
AcDbXrecord
 40
0.0
  0
XRECORD
  5
1EFD
102
{ACAD_REACTORS
330
1EEF
102
}
330
1EEF
100
AcDbXrecord
1000
DSTYLE
1002
{
1070
    79
 70
     2
1070
   341
340
59
1070
   342
340
59
1070
   371
 70
    -1
1070
   372
 70
    -1
1002
}
  0
XRECORD
  5
1EFE
102
{ACAD_REACTORS
330
1EEF
102
}
330
1EEF
100
AcDbXrecord
340
0
  0
XRECORD
  5
1EFF
102
{ACAD_REACTORS
330
1EEF
102
}
330
1EEF
100
AcDbXrecord
 70
     0
  0
XRECORD
  5
1F00
102
{ACAD_REACTORS
330
1EEF
102
}
330
1EEF
100
AcDbXrecord
340
0
  0
XRECORD
  5
1F01
102
{ACAD_REACTORS
330
1EEF
102
}
330
1EEF
100
AcDbXrecord
 10
0.0
 20
0.0
 30
0.0
  0
XRECORD
  5
1F02
102
{ACAD_REACTORS
330
1EEF
102
}
330
1EEF
100
AcDbXrecord
 10
0.0
 20
0.0
 30
0.0
  0
XRECORD
  5
1F03
102
{ACAD_REACTORS
330
1EEF
102
}
330
1EEF
100
AcDbXrecord
 10
0.0
 20
0.0
 30
0.0
  0
XRECORD
  5
1F04
102
{ACAD_REACTORS
330
1EEF
102
}
330
1EEF
100
AcDbXrecord
 10
0.0
 20
0.0
 30
0.0
  0
XRECORD
  5
1F05
102
{ACAD_REACTORS
330
1EEF
102
}
330
1EEF
100
AcDbXrecord
 10
0.0
 20
0.0
 30
0.0
  0
XRECORD
  5
1F06
102
{ACAD_REACTORS
330
1EEF
102
}
330
1EEF
100
AcDbXrecord
 10
0.0
 20
0.0
 30
0.0
  0
XRECORD
  5
1F07
102
{ACAD_REACTORS
330
1EEF
102
}
330
1EEF
100
AcDbXrecord
340
0
  0
XRECORD
  5
1F08
102
{ACAD_REACTORS
330
1EEF
102
}
330
1EEF
100
AcDbXrecord
 70
     0
  0
XRECORD
  5
1F09
102
{ACAD_REACTORS
330
1EEF
102
}
330
1EEF
100
AcDbXrecord
340
0
  0
XRECORD
  5
1F0A
102
{ACAD_REACTORS
330
1EEF
102
}
330
1EEF
100
AcDbXrecord
 10
0.0
 20
0.0
 30
0.0
  0
XRECORD
  5
1F0B
102
{ACAD_REACTORS
330
1EEF
102
}
330
1EEF
100
AcDbXrecord
 10
0.0
 20
0.0
 30
0.0
  0
XRECORD
  5
1F0C
102
{ACAD_REACTORS
330
1EEF
102
}
330
1EEF
100
AcDbXrecord
 10
0.0
 20
0.0
 30
0.0
  0
XRECORD
  5
1F0D
102
{ACAD_REACTORS
330
1EEF
102
}
330
1EEF
100
AcDbXrecord
 10
0.0
 20
0.0
 30
0.0
  0
XRECORD
  5
1F0E
102
{ACAD_REACTORS
330
1EEF
102
}
330
1EEF
100
AcDbXrecord
 10
0.0
 20
0.0
 30
0.0
  0
XRECORD
  5
1F0F
102
{ACAD_REACTORS
330
1EEF
102
}
330
1EEF
100
AcDbXrecord
 10
0.0
 20
0.0
 30
0.0
  0
LAYER_INDEX
  5
1EDB
102
{ACAD_REACTORS
330
1EDA
102
}
330
1EDA
100
AcDbIndex
 40
2453180.398421215
100
AcDbLayerIndex
  8
0
360
1EDC
 90
        0
  8
AM_0
360
1EDD
 90
       42
  8
AM_11
360
1EDE
 90
        4
  8
AM_7
360
1EDF
 90
        2
  8
AM_5
360
1EE0
 90
        8
  8
Defpoints
360
1EE1
 90
        0
  8
AM_6
360
1EE2
 90
        1
  8
AM_CL
360
1EE3
 90
        0
  0
XRECORD
  5
2D
102
{ACAD_REACTORS
330
2C
102
}
330
2C
100
AcDbXrecord
  1
VERSION
140
15.0
  1
PRODUCT
  2
AutoCAD Mechanical 2000
  0
IDBUFFER
  5
1EDC
330
0
100
AcDbIdBuffer
  0
IDBUFFER
  5
1EDD
330
0
100
AcDbIdBuffer
330
15BF
330
15C0
330
15CB
330
15D6
330
15F8
330
15F9
330
15FA
330
15FB
330
160C
330
162E
330
162F
330
1630
330
1631
330
164B
330
1689
330
16A8
330
16A9
330
16BD
330
16D5
330
16D6
330
1DD9
330
1DDA
330
1DDB
330
1DDC
330
1DDD
330
1EA1
330
150B
330
150D
330
150E
330
1516
330
1529
330
152D
330
152E
330
153C
330
1585
330
1586
330
1589
330
158A
330
158B
330
158C
330
15BC
330
15BE
  0
IDBUFFER
  5
1EDE
330
0
100
AcDbIdBuffer
330
1509
330
151F
330
1587
330
1588
  0
IDBUFFER
  5
1EDF
330
0
100
AcDbIdBuffer
330
1604
330
167B
  0
IDBUFFER
  5
1EE0
330
0
100
AcDbIdBuffer
330
118F
330
1337
330
175B
330
186E
330
18F6
330
1986
330
1A57
330
1AE9
  0
IDBUFFER
  5
1EE1
330
0
100
AcDbIdBuffer
  0
IDBUFFER
  5
1EE2
330
0
100
AcDbIdBuffer
330
14EA
  0
IDBUFFER
  5
1EE3
330
0
100
AcDbIdBuffer
  0
ENDSEC
  0
EOF
