  0
SECTION
  2
HEADER
  9
$ACADVER
  1
AC1014
  9
$ACADMAINTVER
 70
     9
  9
$DWGCODEPAGE
  3
ANSI_932
  9
$INSBASE
 10
0.0
 20
0.0
 30
0.0
  9
$EXTMIN
 10
-168.700001
 20
-54.50000000000008
 30
0.0
  9
$EXTMAX
 10
75.37470483609516
 20
68.45365467400265
 30
0.0
  9
$LIMMIN
 10
-184.9429279173572
 20
-69.13486762831041
  9
$LIMMAX
 10
84.53559128057145
 20
69.8876295154281
  9
$ORTHOMODE
 70
     0
  9
$REGENMODE
 70
     1
  9
$FILLMODE
 70
     1
  9
$QTEXTMODE
 70
     0
  9
$MIRRTEXT
 70
     0
  9
$DRAGMODE
 70
     2
  9
$LTSCALE
 40
1.0
  9
$OSMODE
 70
    55
  9
$ATTMODE
 70
     1
  9
$TEXTSIZE
 40
2.5
  9
$TRACEWID
 40
1.0
  9
$TEXTSTYLE
  7
ACJISGDT
  9
$CLAYER
  8
AM_0
  9
$CELTYPE
  6
BYLAYER
  9
$CECOLOR
 62
   256
  9
$CELTSCALE
 40
1.0
  9
$DELOBJ
 70
     1
  9
$DISPSILH
 70
     0
  9
$DIMSCALE
 40
1.0
  9
$DIMASZ
 40
2.5
  9
$DIMEXO
 40
1.0
  9
$DIMDLI
 40
12.0
  9
$DIMRND
 40
0.0
  9
$DIMDLE
 40
0.0
  9
$DIMEXE
 40
1.0
  9
$DIMTP
 40
0.1
  9
$DIMTM
 40
0.1
  9
$DIMTXT
 40
3.2
  9
$DIMCEN
 40
0.0
  9
$DIMTSZ
 40
0.0
  9
$DIMTOL
 70
     0
  9
$DIMLIM
 70
     0
  9
$DIMTIH
 70
     0
  9
$DIMTOH
 70
     0
  9
$DIMSE1
 70
     0
  9
$DIMSE2
 70
     0
  9
$DIMTAD
 70
     3
  9
$DIMZIN
 70
     8
  9
$DIMBLK
  1
OPEN30
  9
$DIMASO
 70
     1
  9
$DIMSHO
 70
     1
  9
$DIMPOST
  1

  9
$DIMAPOST
  1
"
  9
$DIMALT
 70
     0
  9
$DIMALTD
 70
     2
  9
$DIMALTF
 40
0.0393701
  9
$DIMLFAC
 40
1.0
  9
$DIMTOFL
 70
     1
  9
$DIMTVP
 40
0.0
  9
$DIMTIX
 70
     0
  9
$DIMSOXD
 70
     0
  9
$DIMSAH
 70
     0
  9
$DIMBLK1
  1

  9
$DIMBLK2
  1

  9
$DIMSTYLE
  2
AM_JIS
  9
$DIMCLRD
 70
   256
  9
$DIMCLRE
 70
   256
  9
$DIMCLRT
 70
     2
  9
$DIMTFAC
 40
0.71
  9
$DIMGAP
 40
1.5
  9
$DIMJUST
 70
     0
  9
$DIMSD1
 70
     0
  9
$DIMSD2
 70
     0
  9
$DIMTOLJ
 70
     0
  9
$DIMTZIN
 70
     0
  9
$DIMALTZ
 70
     0
  9
$DIMALTTZ
 70
     0
  9
$DIMFIT
 70
     3
  9
$DIMUPT
 70
     0
  9
$DIMUNIT
 70
     2
  9
$DIMDEC
 70
     3
  9
$DIMTDEC
 70
     3
  9
$DIMALTU
 70
     2
  9
$DIMALTTD
 70
     2
  9
$DIMTXSTY
  7
ASAMI
  9
$DIMAUNIT
 70
     0
  9
$LUNITS
 70
     2
  9
$LUPREC
 70
     2
  9
$SKETCHINC
 40
1.0
  9
$FILLETRAD
 40
1.0
  9
$AUNITS
 70
     0
  9
$AUPREC
 70
     0
  9
$MENU
  1
.
  9
$ELEVATION
 40
0.0
  9
$PELEVATION
 40
0.0
  9
$THICKNESS
 40
0.0
  9
$LIMCHECK
 70
     0
  9
$BLIPMODE
 70
     0
  9
$CHAMFERA
 40
2.5
  9
$CHAMFERB
 40
2.5
  9
$CHAMFERC
 40
20.0
  9
$CHAMFERD
 40
0.0
  9
$SKPOLY
 70
     0
  9
$TDCREATE
 40
2452902.606668287
  9
$TDUPDATE
 40
2453180.397870370
  9
$TDINDWG
 40
0.0533676852
  9
$TDUSRTIMER
 40
0.0533676852
  9
$USRTIMER
 70
     1
  9
$ANGBASE
 50
0.0
  9
$ANGDIR
 70
     0
  9
$PDMODE
 70
     0
  9
$PDSIZE
 40
0.0
  9
$PLINEWID
 40
0.0
  9
$COORDS
 70
     1
  9
$SPLFRAME
 70
     0
  9
$SPLINETYPE
 70
     6
  9
$SPLINESEGS
 70
     8
  9
$ATTDIA
 70
     1
  9
$ATTREQ
 70
     1
  9
$HANDLING
 70
 12289
  9
$HANDSEED
  5
1691
  9
$SURFTAB1
 70
     6
  9
$SURFTAB2
 70
     6
  9
$SURFTYPE
 70
     6
  9
$SURFU
 70
     6
  9
$SURFV
 70
     6
  9
$UCSNAME
  2

  9
$UCSORG
 10
0.0
 20
0.0
 30
0.0
  9
$UCSXDIR
 10
1.0
 20
0.0
 30
0.0
  9
$UCSYDIR
 10
0.0
 20
1.0
 30
0.0
  9
$PUCSNAME
  2

  9
$PUCSORG
 10
0.0
 20
0.0
 30
0.0
  9
$PUCSXDIR
 10
1.0
 20
0.0
 30
0.0
  9
$PUCSYDIR
 10
0.0
 20
1.0
 30
0.0
  9
$USERI1
 70
     0
  9
$USERI2
 70
     0
  9
$USERI3
 70
     0
  9
$USERI4
 70
     0
  9
$USERI5
 70
     0
  9
$USERR1
 40
0.0
  9
$USERR2
 40
0.0
  9
$USERR3
 40
0.0
  9
$USERR4
 40
0.0
  9
$USERR5
 40
0.0
  9
$WORLDVIEW
 70
     1
  9
$SHADEDGE
 70
     3
  9
$SHADEDIF
 70
    70
  9
$TILEMODE
 70
     1
  9
$MAXACTVP
 70
    64
  9
$PINSBASE
 10
0.0
 20
0.0
 30
0.0
  9
$PLIMCHECK
 70
     0
  9
$PEXTMIN
 10
1.000000000000000E+20
 20
1.000000000000000E+20
 30
1.000000000000000E+20
  9
$PEXTMAX
 10
-1.000000000000000E+20
 20
-1.000000000000000E+20
 30
-1.000000000000000E+20
  9
$PLIMMIN
 10
0.00006103515625
 20
0.0
  9
$PLIMMAX
 10
840.9940185546874
 20
593.97900390625
  9
$UNITMODE
 70
     0
  9
$VISRETAIN
 70
     1
  9
$PLINEGEN
 70
     0
  9
$PSLTSCALE
 70
     0
  9
$TREEDEPTH
 70
  3020
  9
$PICKSTYLE
 70
     0
  9
$CMLSTYLE
  2
STANDARD
  9
$CMLJUST
 70
     0
  9
$CMLSCALE
 40
20.0
  9
$PROXYGRAPHICS
 70
     1
  9
$MEASUREMENT
 70
     1
  0
ENDSEC
  0
SECTION
  2
CLASSES
  0
CLASS
  1
ACDBDICTIONARYWDFLT
  2
AcDbDictionaryWithDefault
  3
AutoCAD 2000
 90
        0
280
     0
281
     0
  0
CLASS
  1
ACDBPLACEHOLDER
  2
AcDbPlaceHolder
  3
AutoCAD 2000
 90
        0
280
     0
281
     0
  0
CLASS
  1
LAYOUT
  2
AcDbLayout
  3
AutoCAD 2000
 90
        0
280
     0
281
     0
  0
CLASS
  1
AMGSETTINGSOBJ
  2
AmgSettingsObj
  3
"AcadM|Product Description: AutoCAD Mechanical 2000|Company: Autodesk"
 90
        0
280
     0
281
     0
  0
CLASS
  1
ACME_DOCUMENT
  2
AcMeDbDoc
  3
AcMeServices
 90
        0
280
     0
281
     0
  0
CLASS
  1
ACMESCOPE
  2
AcMeScope
  3
AcMeServices
 90
        0
280
     0
281
     0
  0
CLASS
  1
ACMECOMMANDHISTORY
  2
AcMeCommandHistory
  3
AcMeServices
 90
        0
280
     0
281
     0
  0
CLASS
  1
DICTIONARYVAR
  2
AcDbDictionaryVar
  3
AutoCAD 2000
 90
        0
280
     0
281
     0
  0
CLASS
  1
ACIMSYSVARMAN
  2
AcImSysVarManager
  3
AcMeServices
 90
        0
280
     0
281
     0
  0
CLASS
  1
ACIMREALSYSVAR
  2
AcImRealSysVar
  3
AcMeServices
 90
        0
280
     0
281
     0
  0
CLASS
  1
ACIMINTSYSVAR
  2
AcImIntSysVar
  3
AcMeServices
 90
        0
280
     0
281
     0
  0
CLASS
  1
ACMEDRAWINGMAN
  2
AcMeDrawingMan
  3
AcMeServices
 90
        0
280
     0
281
     0
  0
CLASS
  1
ACMEVIEW
  2
AcMeView
  3
AcMeServices
 90
        0
280
     0
281
     0
  0
CLASS
  1
ACDBENTITYCACHE
  2
AcMeEntityCache
  3
AcMeServices
 90
        0
280
     0
281
     0
  0
CLASS
  1
GSMANAGER
  2
AcMeGSManager
  3
AcMeServices
 90
        0
280
     0
281
     0
  0
CLASS
  1
AmdtInternalReactor
  2
AmdtInternalReactor
  3
AcMeServices
 90
        0
280
     0
281
     0
  0
CLASS
  1
ACMESTATEMGR
  2
AcMeStateMgr
  3
AcMeServices
 90
        0
280
     0
281
     0
  0
CLASS
  1
ACME_DATABASE
  2
AcMeDbDatabase
  3
AcMeServices
 90
        0
280
     0
281
     0
  0
CLASS
  1
ACRFINSADJUSTERMGR
  2
AcRfInsAdjusterMgr
  3
AcMeServices
 90
        0
280
     0
281
     0
  0
CLASS
  1
ACMDATADICTIONARY
  2
AcmDataDictionary
  3
"AcmSymBB|Product Description: AutoCAD Mechanical 2000|Company: Autodesk"
 90
        0
280
     0
281
     0
  0
CLASS
  1
ACMDATAENTRYBLOCK
  2
AcmDataEntryBlock
  3
"AcmSymBB|Product Description: AutoCAD Mechanical 2000|Company: Autodesk"
 90
        0
280
     0
281
     0
  0
CLASS
  1
AMGOBJPROPCFG
  2
AmgObjPropCfg
  3
"AmgLay|Product Description: AutoCAD Mechanical 2000|Company: Autodesk"
 90
        1
280
     0
281
     0
  0
CLASS
  1
ACAMGFILTERDAT
  2
AcAmgFilterDat
  3
"AcadM|Product Description: AutoCAD Mechanical 2000|Company: Autodesk"
 90
        0
280
     0
281
     0
  0
CLASS
  1
LAYER_INDEX
  2
AcDbLayerIndex
  3
AutoCAD 2000
 90
        0
280
     0
281
     0
  0
CLASS
  1
IDBUFFER
  2
AcDbIdBuffer
  3
AutoCAD 2000
 90
        0
280
     0
281
     0
  0
CLASS
  1
ACIMSTRSYSVAR
  2
AcImStrSysVar
  3
AcMeServices
 90
        0
280
     0
281
     0
  0
CLASS
  1
ACMSTANDARDJIS
  2
AcmStandardJIS
  3
"AcmSymBB|Product Description: AutoCAD Mechanical 2000|Company: Autodesk"
 90
        0
280
     0
281
     0
  0
CLASS
  1
ACMSURFSTANDARDJIS
  2
AcmSurfTextStdJIS
  3
"AcmSymBB|Product Description: AutoCAD Mechanical 2000|Company: Autodesk"
 90
        0
280
     0
281
     0
  0
CLASS
  1
ACMFCFSTANDARDJIS
  2
AcmFCFStdJIS
  3
"AcmSymBB|Product Description: AutoCAD Mechanical 2000|Company: Autodesk"
 90
        0
280
     0
281
     0
  0
CLASS
  1
ACMWELDSTANDARDJIS
  2
AcmWeldingStdJIS
  3
"AcmSymBB|Product Description: AutoCAD Mechanical 2000|Company: Autodesk"
 90
        0
280
     0
281
     0
  0
CLASS
  1
ACMIDSTANDARDJIS
  2
AcmIdStdJIS
  3
"AcmSymBB|Product Description: AutoCAD Mechanical 2000|Company: Autodesk"
 90
        0
280
     0
281
     0
  0
CLASS
  1
ACMDATUMSTANDARDJIS
  2
AcmDatumStdJIS
  3
"AcmSymBB|Product Description: AutoCAD Mechanical 2000|Company: Autodesk"
 90
        0
280
     0
281
     0
  0
CLASS
  1
ACMBOMSTANDARDJIS
  2
AcmBOMStdJIS
  3
"AcmSymBB|Product Description: AutoCAD Mechanical 2000|Company: Autodesk"
 90
        0
280
     0
281
     0
  0
CLASS
  1
ACMSTANDARDANSI
  2
AcmStandardANSI
  3
"AcmSymBB|Product Description: AutoCAD Mechanical 2000|Company: Autodesk"
 90
        0
280
     0
281
     0
  0
CLASS
  1
ACMSURFSTANDARDANSI
  2
AcmSurfTextStdANSI
  3
"AcmSymBB|Product Description: AutoCAD Mechanical 2000|Company: Autodesk"
 90
        0
280
     0
281
     0
  0
CLASS
  1
ACMFCFSTANDARDANSI
  2
AcmFCFStdANSI
  3
"AcmSymBB|Product Description: AutoCAD Mechanical 2000|Company: Autodesk"
 90
        0
280
     0
281
     0
  0
CLASS
  1
ACMWELDSTANDARDANSI
  2
AcmWeldingStdANSI
  3
"AcmSymBB|Product Description: AutoCAD Mechanical 2000|Company: Autodesk"
 90
        0
280
     0
281
     0
  0
CLASS
  1
ACMIDSTANDARDANSI
  2
AcmIdStdANSI
  3
"AcmSymBB|Product Description: AutoCAD Mechanical 2000|Company: Autodesk"
 90
        0
280
     0
281
     0
  0
CLASS
  1
ACMDATUMSTANDARDANSI
  2
AcmDatumStdANSI
  3
"AcmSymBB|Product Description: AutoCAD Mechanical 2000|Company: Autodesk"
 90
        0
280
     0
281
     0
  0
CLASS
  1
ACMBOMSTANDARDANSI
  2
AcmBOMStdANSI
  3
"AcmSymBB|Product Description: AutoCAD Mechanical 2000|Company: Autodesk"
 90
        0
280
     0
281
     0
  0
CLASS
  1
ACMSTANDARDBSI
  2
AcmStandardBSI
  3
"AcmSymBB|Product Description: AutoCAD Mechanical 2000|Company: Autodesk"
 90
        0
280
     0
281
     0
  0
CLASS
  1
ACMSURFSTANDARDBSI
  2
AcmSurfTextStdBSI
  3
"AcmSymBB|Product Description: AutoCAD Mechanical 2000|Company: Autodesk"
 90
        0
280
     0
281
     0
  0
CLASS
  1
ACMFCFSTANDARDBSI
  2
AcmFCFStdBSI
  3
"AcmSymBB|Product Description: AutoCAD Mechanical 2000|Company: Autodesk"
 90
        0
280
     0
281
     0
  0
CLASS
  1
ACMWELDSTANDARDBSI
  2
AcmWeldingStdBSI
  3
"AcmSymBB|Product Description: AutoCAD Mechanical 2000|Company: Autodesk"
 90
        0
280
     0
281
     0
  0
CLASS
  1
ACMIDSTANDARDBSI
  2
AcmIdStdBSI
  3
"AcmSymBB|Product Description: AutoCAD Mechanical 2000|Company: Autodesk"
 90
        0
280
     0
281
     0
  0
CLASS
  1
ACMDATUMSTANDARDBSI
  2
AcmDatumStdBSI
  3
"AcmSymBB|Product Description: AutoCAD Mechanical 2000|Company: Autodesk"
 90
        0
280
     0
281
     0
  0
CLASS
  1
ACMBOMSTANDARDBSI
  2
AcmBOMStdBSI
  3
"AcmSymBB|Product Description: AutoCAD Mechanical 2000|Company: Autodesk"
 90
        0
280
     0
281
     0
  0
CLASS
  1
LONG_TRANSACTION
  2
AcDbLongTransaction
  3
AutoCAD 2000
 90
        0
280
     0
281
     0
  0
CLASS
  1
LWPOLYLINE
  2
AcDbPolyline
  3
AutoCAD 2000
 90
        0
280
     0
281
     1
  0
CLASS
  1
HATCH
  2
AcDbHatch
  3
AutoCAD 2000
 90
        0
280
     0
281
     1
  0
CLASS
  1
XRECORD
  2
AcDbXrecord
  3
AutoCAD 2000
 90
        0
280
     0
281
     0
  0
ENDSEC
  0
SECTION
  2
TABLES
  0
TABLE
  2
VPORT
  5
8
330
0
100
AcDbSymbolTable
 70
     3
  0
VPORT
  5
1666
330
8
100
AcDbSymbolTableRecord
100
AcDbViewportTableRecord
  2
*ACTIVE
 70
     0
 10
0.0
 20
0.0
 11
1.0
 21
1.0
 12
-18.43869999616447
 22
3.575926173461084
 13
0.0
 23
0.0
 14
2.5
 24
2.5
 15
10.0
 25
10.0
 16
0.0
 26
0.0
 36
1.0
 17
0.0
 27
0.0
 37
0.0
 40
382.5608902554841
 41
1.56570841889117
 42
50.0
 43
0.0
 44
0.0
 50
0.0
 51
0.0
 71
     0
 72
   100
 73
     1
 74
     3
 75
     0
 76
     0
 77
     0
 78
     0
  0
ENDTAB
  0
TABLE
  2
LTYPE
  5
5
330
0
100
AcDbSymbolTable
 70
    10
  0
LTYPE
  5
14
330
5
100
AcDbSymbolTableRecord
100
AcDbLinetypeTableRecord
  2
BYBLOCK
 70
     0
  3

 72
    65
 73
     0
 40
0.0
  0
LTYPE
  5
15
330
5
100
AcDbSymbolTableRecord
100
AcDbLinetypeTableRecord
  2
BYLAYER
 70
     0
  3

 72
    65
 73
     0
 40
0.0
  0
LTYPE
  5
16
330
5
100
AcDbSymbolTableRecord
100
AcDbLinetypeTableRecord
  2
CONTINUOUS
 70
     0
  3
Solid line
 72
    65
 73
     0
 40
0.0
  0
LTYPE
  5
4B
330
5
100
AcDbSymbolTableRecord
100
AcDbLinetypeTableRecord
  2
AM_ISO02W050
 70
     0
  3
__ __ __ __ __ __ __ __ __ __ __ __ __ __ __
 72
    65
 73
     2
 40
7.5
 49
6.0
 74
     0
 49
-1.5
 74
     0
  0
LTYPE
  5
4C
330
5
100
AcDbSymbolTableRecord
100
AcDbLinetypeTableRecord
  2
AM_ISO08W050
 70
     0
  3
____ . ____ . ____ . ____ . ____ . ____ . ____
 72
    65
 73
     4
 40
18.0
 49
12.0
 74
     0
 49
-1.5
 74
     0
 49
3.0
 74
     0
 49
-1.5
 74
     0
  0
LTYPE
  5
4D
330
5
100
AcDbSymbolTableRecord
100
AcDbLinetypeTableRecord
  2
AM_ISO09W050
 70
     0
  3
_____ . . _____ . . _____ . . ____ .. ____
 72
    65
 73
     6
 40
22.5
 49
12.0
 74
     0
 49
-1.5
 74
     0
 49
3.0
 74
     0
 49
-1.5
 74
     0
 49
3.0
 74
     0
 49
-1.5
 74
     0
  0
LTYPE
  5
4E
330
5
100
AcDbSymbolTableRecord
100
AcDbLinetypeTableRecord
  2
AMCONSTR
 70
     0
  3
_______________________
 72
    65
 73
     2
 40
9999.0
 49
9999.0
 74
     0
 49
0.0
 74
     0
  0
LTYPE
  5
4F
330
5
100
AcDbSymbolTableRecord
100
AcDbLinetypeTableRecord
  2
AM_ISO02W050X2
 70
     0
  3
 _ _ _ _ _ _ _ _ _ _ _ _
 72
    65
 73
     2
 40
3.75
 49
3.0
 74
     0
 49
-0.75
 74
     0
  0
LTYPE
  5
50
330
5
100
AcDbSymbolTableRecord
100
AcDbLinetypeTableRecord
  2
AM_ISO08W050X2
 70
     0
  3
__ . __ . __ . __ . __ . __
 72
    65
 73
     4
 40
9.0
 49
6.0
 74
     0
 49
-0.75
 74
     0
 49
1.5
 74
     0
 49
-0.75
 74
     0
  0
LTYPE
  5
53
330
5
100
AcDbSymbolTableRecord
100
AcDbLinetypeTableRecord
  2
AMZIGZAG
 70
     0
  3
/\/-/\/-/\/-/\/-/\/-/\/
 72
    65
 73
     2
 40
11.00009999999999
 49
0.0001
 74
     4
 75
   135
340
52
 46
0.04
 50
0.0
 44
0.0
 45
0.0
 49
-11.0
 74
     0
  0
LTYPE
  5
166
330
5
100
AcDbSymbolTableRecord
100
AcDbLinetypeTableRecord
  2
ACJISTGL
 70
     0
  3
_ _ _ _ _
 72
    65
 73
     2
 40
3.0
 49
2.0
 74
     0
 49
-1.0
 74
     0
  0
LTYPE
  5
26A
330
5
100
AcDbSymbolTableRecord
100
AcDbLinetypeTableRecord
  2
ACJISTGB
 70
     0
  3
__ . . __ . .
 72
    65
 73
     6
 40
9.0
 49
4.0
 74
     0
 49
-1.0
 74
     0
 49
1.0
 74
     0
 49
-1.0
 74
     0
 49
1.0
 74
     0
 49
-1.0
 74
     0
  0
ENDTAB
  0
TABLE
  2
LAYER
  5
2
330
0
100
AcDbSymbolTable
 70
     8
  0
LAYER
  5
10
330
2
100
AcDbSymbolTableRecord
100
AcDbLayerTableRecord
  2
0
 70
     0
 62
     7
  6
CONTINUOUS
  0
LAYER
  5
3F9
330
2
100
AcDbSymbolTableRecord
100
AcDbLayerTableRecord
  2
AM_0
 70
     0
 62
     7
  6
CONTINUOUS
  0
LAYER
  5
C00
330
2
100
AcDbSymbolTableRecord
100
AcDbLayerTableRecord
  2
AM_5
 70
     0
 62
     3
  6
CONTINUOUS
  0
LAYER
  5
C6F
330
2
100
AcDbSymbolTableRecord
100
AcDbLayerTableRecord
  2
AM_11
 70
     0
 62
     3
  6
AM_ISO09W050
  0
LAYER
  5
CA1
330
2
100
AcDbSymbolTableRecord
100
AcDbLayerTableRecord
  2
AM_7
 70
     0
 62
     4
  6
AM_ISO08W050
  0
LAYER
  5
CCC
330
2
100
AcDbSymbolTableRecord
100
AcDbLayerTableRecord
  2
AM_CL
 70
     0
 62
     1
  6
AMCONSTR
  0
LAYER
  5
104C
330
2
100
AcDbSymbolTableRecord
100
AcDbLayerTableRecord
  2
DEFPOINTS
 70
     0
 62
     7
  6
CONTINUOUS
  0
LAYER
  5
14DC
330
2
100
AcDbSymbolTableRecord
100
AcDbLayerTableRecord
  2
AM_6
 70
     0
 62
     2
  6
CONTINUOUS
  0
ENDTAB
  0
TABLE
  2
STYLE
  5
3
330
0
100
AcDbSymbolTable
 70
     5
  0
STYLE
  5
11
330
3
100
AcDbSymbolTableRecord
100
AcDbTextStyleTableRecord
  2
STANDARD
 70
     0
 40
0.0
 41
1.0
 50
0.0
 71
     0
 42
2.5
  3
simplex.shx
  4
EXTFONT.SHX
  0
STYLE
  5
52
330
3
100
AcDbSymbolTableRecord
100
AcDbTextStyleTableRecord
  2

 70
     1
 40
0.0
 41
1.0
 50
0.0
 71
     0
 42
2.5
  3
ltypeshp.shx
  4

  0
STYLE
  5
6B
330
3
100
AcDbSymbolTableRecord
100
AcDbTextStyleTableRecord
  2
ASAMI
 70
     0
 40
0.0
 41
1.0
 50
0.0
 71
     0
 42
2.5
  3
simplex.shx
  4
EXTFONT.SHX
  0
STYLE
  5
262
330
3
100
AcDbSymbolTableRecord
100
AcDbTextStyleTableRecord
  2
ACJISTS
 70
     0
 40
1.0
 41
1.0
 50
0.0
 71
     0
 42
2.5
  3
simplex.shx
  4
bigfont.shx
  0
STYLE
  5
269
330
3
100
AcDbSymbolTableRecord
100
AcDbTextStyleTableRecord
  2
ACJISGDT
 70
     0
 40
0.0
 41
1.0
 50
0.0
 71
     0
 42
2.5
  3
amgdtans.shx
  4

  0
ENDTAB
  0
TABLE
  2
VIEW
  5
6
330
0
100
AcDbSymbolTable
 70
     0
  0
ENDTAB
  0
TABLE
  2
UCS
  5
7
330
0
100
AcDbSymbolTable
 70
     0
  0
ENDTAB
  0
TABLE
  2
APPID
  5
9
330
0
100
AcDbSymbolTable
 70
    16
  0
APPID
  5
12
330
9
100
AcDbSymbolTableRecord
100
AcDbRegAppTableRecord
  2
ACAD
 70
     0
  0
APPID
  5
30
330
9
100
AcDbSymbolTableRecord
100
AcDbRegAppTableRecord
  2
MCAD_NO_VIS
 70
     0
  0
APPID
  5
31
330
9
100
AcDbSymbolTableRecord
100
AcDbRegAppTableRecord
  2
ACAD_TEMP_GRAPHIC
 70
     0
  0
APPID
  5
2C2
330
9
100
AcDbSymbolTableRecord
100
AcDbRegAppTableRecord
  2
GENIUS_GENDTOL_13
 70
     0
  0
APPID
  5
339
330
9
100
AcDbSymbolTableRecord
100
AcDbRegAppTableRecord
  2
GENIUS_GENODEF_13
 70
     0
  0
APPID
  5
33A
330
9
100
AcDbSymbolTableRecord
100
AcDbRegAppTableRecord
  2
GENIUS_GENOBJ-N-RSBK_13
 70
     0
  0
APPID
  5
33B
330
9
100
AcDbSymbolTableRecord
100
AcDbRegAppTableRecord
  2
GENIUS_GENOBJ-N-LIB_13
 70
     0
  0
APPID
  5
33C
330
9
100
AcDbSymbolTableRecord
100
AcDbRegAppTableRecord
  2
GENIUS_GENSCALE_13
 70
     0
  0
APPID
  5
378
330
9
100
AcDbSymbolTableRecord
100
AcDbRegAppTableRecord
  2
GENIUS_GENDIMSH_14
 70
     0
  0
APPID
  5
C5C
330
9
100
AcDbSymbolTableRecord
100
AcDbRegAppTableRecord
  2
GENIUS_GENOBJ-N-FIL_13
 70
     0
  0
APPID
  5
CA3
330
9
100
AcDbSymbolTableRecord
100
AcDbRegAppTableRecord
  2
GENIUS_GENOBJ-N-CEN_13
 70
     0
  0
APPID
  5
1653
330
9
100
AcDbSymbolTableRecord
100
AcDbRegAppTableRecord
  2
GENIUS_GENSCREG_15
 70
     0
  0
APPID
  5
1655
330
9
100
AcDbSymbolTableRecord
100
AcDbRegAppTableRecord
  2
GENIUS_GENOBJ-N-SDF_13
 70
     0
  0
APPID
  5
1656
330
9
100
AcDbSymbolTableRecord
100
AcDbRegAppTableRecord
  2
GENIUS_GENOENT_13
 70
     0
  0
APPID
  5
1657
330
9
100
AcDbSymbolTableRecord
100
AcDbRegAppTableRecord
  2
GENIUS_GENOREF_13
 70
     0
  0
APPID
  5
1658
330
9
100
AcDbSymbolTableRecord
100
AcDbRegAppTableRecord
  2
GENIUS_GENOLIS_13
 70
     0
  0
ENDTAB
  0
TABLE
  2
DIMSTYLE
  5
A
330
0
100
AcDbSymbolTable
 70
     8
  0
DIMSTYLE
105
58
102
{ACAD_REACTORS
330
104B
330
10D4
330
115F
330
1328
330
13B4
102
}
330
A
100
AcDbSymbolTableRecord
100
AcDbDimStyleTableRecord
  2
AM_JIS
 70
     0
  3

  4
"
  5
OPEN30
  6

  7

 40
1.0
 41
2.5
 42
1.0
 43
12.0
 44
1.0
 45
0.0
 46
0.0
 47
0.1
 48
0.1
140
3.2
141
0.0
142
0.0
143
0.0393701
144
1.0
145
0.0
146
0.71
147
1.5
 71
     0
 72
     0
 73
     0
 74
     0
 75
     0
 76
     0
 77
     3
 78
     8
170
     0
171
     2
172
     1
173
     0
174
     0
175
     0
176
   256
177
   256
178
     2
270
     2
271
     3
272
     3
273
     2
274
     2
340
6B
275
     0
280
     0
281
     0
282
     0
283
     0
284
     0
285
     0
286
     0
287
     3
288
     0
  0
DIMSTYLE
105
5F
330
A
100
AcDbSymbolTableRecord
100
AcDbDimStyleTableRecord
  2
AM_JIS$3
 70
     0
  3

  4
"
  5
OPEN30
  6

  7

 40
1.0
 41
2.5
 42
1.0
 43
10.0
 44
1.0
 45
0.0
 46
0.0
 47
0.1
 48
0.1
140
3.2
141
0.0
142
0.0
143
0.0393701
144
1.0
145
0.0
146
0.71
147
1.5
 71
     0
 72
     0
 73
     0
 74
     1
 75
     0
 76
     0
 77
     3
 78
     8
170
     0
171
     2
172
     0
173
     0
174
     0
175
     0
176
   256
177
   256
178
     2
270
     2
271
     2
272
     3
273
     2
274
     2
340
6B
275
     0
280
     0
281
     0
282
     0
283
     0
284
     0
285
     0
286
     0
287
     0
288
     1
  0
DIMSTYLE
105
60
330
A
100
AcDbSymbolTableRecord
100
AcDbDimStyleTableRecord
  2
AM_JIS$4
 70
     0
  3

  4
"
  5
OPEN30
  6

  7

 40
1.0
 41
2.5
 42
1.0
 43
10.0
 44
1.0
 45
0.0
 46
0.0
 47
0.1
 48
0.1
140
3.2
141
0.0
142
0.0
143
0.0393701
144
1.0
145
0.0
146
0.71
147
1.5
 71
     0
 72
     0
 73
     0
 74
     1
 75
     0
 76
     0
 77
     3
 78
     8
170
     0
171
     2
172
     0
173
     0
174
     0
175
     0
176
   256
177
   256
178
     2
270
     2
271
     2
272
     3
273
     2
274
     2
340
6B
275
     0
280
     0
281
     0
282
     0
283
     0
284
     0
285
     0
286
     0
287
     0
288
     1
  0
DIMSTYLE
105
61
330
A
100
AcDbSymbolTableRecord
100
AcDbDimStyleTableRecord
  2
AM_JIS$6
 70
     0
  3

  4
"
  5
OPEN30
  6

  7

 40
1.0
 41
2.5
 42
1.0
 43
10.0
 44
1.0
 45
0.0
 46
0.0
 47
0.1
 48
0.1
140
3.2
141
0.0
142
0.0
143
0.0393701
144
1.0
145
0.0
146
0.71
147
1.5
 71
     0
 72
     0
 73
     0
 74
     0
 75
     0
 76
     0
 77
     0
 78
     8
170
     0
171
     2
172
     1
173
     0
174
     0
175
     0
176
   256
177
   256
178
     2
270
     2
271
     2
272
     2
273
     2
274
     2
340
6B
275
     0
280
     0
281
     0
282
     0
283
     0
284
     0
285
     0
286
     0
287
     3
288
     0
  0
DIMSTYLE
105
62
330
A
100
AcDbSymbolTableRecord
100
AcDbDimStyleTableRecord
  2
AM_JIS$7
 70
     0
  3

  4
"
  5
OPEN30
  6

  7

 40
1.0
 41
2.5
 42
1.0
 43
10.0
 44
1.0
 45
0.0
 46
0.0
 47
0.1
 48
0.1
140
3.2
141
0.0
142
0.0
143
0.0393701
144
1.0
145
0.0
146
0.71
147
1.5
 71
     0
 72
     0
 73
     0
 74
     0
 75
     0
 76
     0
 77
     3
 78
     8
170
     0
171
     2
172
     1
173
     0
174
     0
175
     0
176
   256
177
   256
178
     2
270
     2
271
     2
272
     3
273
     2
274
     2
340
6B
275
     0
280
     0
281
     0
282
     0
283
     0
284
     0
285
     0
286
     0
287
     3
288
     0
  0
DIMSTYLE
105
63
330
A
100
AcDbSymbolTableRecord
100
AcDbDimStyleTableRecord
  2
AM_JIS$SF
 70
     0
  3

  4
"
  5
OPEN30
  6

  7

 40
1.0
 41
2.5
 42
1.0
 43
10.0
 44
1.0
 45
0.0
 46
0.0
 47
0.1
 48
0.1
140
3.2
141
0.0
142
0.0
143
0.0393701
144
1.0
145
0.0
146
0.71
147
1.5
 71
     0
 72
     0
 73
     0
 74
     0
 75
     1
 76
     1
 77
     3
 78
     8
170
     0
171
     2
172
     1
173
     0
174
     0
175
     0
176
   256
177
   256
178
     2
270
     2
271
     2
272
     2
273
     2
274
     2
340
6B
275
     0
280
     0
281
     0
282
     0
283
     0
284
     0
285
     0
286
     0
287
     3
288
     0
  0
DIMSTYLE
105
68
330
A
100
AcDbSymbolTableRecord
100
AcDbDimStyleTableRecord
  2
AM_JIS$SH
 70
     0
  3

  4
"
  5

  6
GENAXEH
  7
OPEN30
 40
1.0
 41
2.5
 42
1.0
 43
10.0
 44
1.0
 45
0.0
 46
0.0
 47
0.1
 48
0.1
140
3.2
141
0.0
142
0.0
143
0.0393701
144
2.0
145
0.0
146
0.71
147
1.5
 71
     0
 72
     0
 73
     0
 74
     0
 75
     1
 76
     1
 77
     3
 78
     8
170
     0
171
     2
172
     1
173
     1
174
     0
175
     0
176
   256
177
   256
178
     2
270
     2
271
     2
272
     2
273
     2
274
     2
340
6B
275
     0
280
     0
281
     0
282
     0
283
     0
284
     0
285
     0
286
     0
287
     3
288
     0
  0
DIMSTYLE
105
B34
102
{ACAD_REACTORS
330
125B
330
145A
330
14AB
102
}
330
A
100
AcDbSymbolTableRecord
100
AcDbDimStyleTableRecord
  2
AM_JIS$2
 70
     0
  3

  4
"
  5
OPEN30
  6

  7

 40
1.0
 41
2.5
 42
1.0
 43
12.0
 44
1.0
 45
0.0
 46
0.0
 47
0.1
 48
0.1
140
3.2
141
0.0
142
0.0
143
0.0393701
144
1.0
145
0.0
146
0.71
147
1.5
 71
     0
 72
     0
 73
     0
 74
     0
 75
     0
 76
     0
 77
     3
 78
     8
170
     0
171
     2
172
     1
173
     0
174
     0
175
     0
176
   256
177
   256
178
     2
270
     2
271
     3
272
     3
273
     2
274
     2
340
6B
275
     0
280
     0
281
     0
282
     0
283
     0
284
     0
285
     0
286
     0
287
     3
288
     0
  0
ENDTAB
  0
TABLE
  2
BLOCK_RECORD
  5
1
330
0
100
AcDbSymbolTable
 70
    18
  0
BLOCK_RECORD
  5
1F
102
{ACAD_XDICTIONARY
360
74
102
}
330
1
100
AcDbSymbolTableRecord
100
AcDbBlockTableRecord
  2
*MODEL_SPACE
  0
BLOCK_RECORD
  5
101
102
{ACAD_XDICTIONARY
360
168F
102
}
330
1
100
AcDbSymbolTableRecord
100
AcDbBlockTableRecord
  2
*PAPER_SPACE
  0
BLOCK_RECORD
  5
59
330
1
100
AcDbSymbolTableRecord
100
AcDbBlockTableRecord
  2
_OPEN30
  0
BLOCK_RECORD
  5
64
330
1
100
AcDbSymbolTableRecord
100
AcDbBlockTableRecord
  2
GENAXEH
  0
BLOCK_RECORD
  5
CF6
330
1
100
AcDbSymbolTableRecord
100
AcDbBlockTableRecord
  2
A$C28A83BEE
  0
BLOCK_RECORD
  5
D08
330
1
100
AcDbSymbolTableRecord
100
AcDbBlockTableRecord
  2
A$C2B6A701B
  0
BLOCK_RECORD
  5
D38
330
1
100
AcDbSymbolTableRecord
100
AcDbBlockTableRecord
  2
A$C5D1F26DE
  0
BLOCK_RECORD
  5
D82
330
1
100
AcDbSymbolTableRecord
100
AcDbBlockTableRecord
  2
A$C4FAA6D9F
  0
BLOCK_RECORD
  5
D95
330
1
100
AcDbSymbolTableRecord
100
AcDbBlockTableRecord
  2
A$C49111148
  0
BLOCK_RECORD
  5
104D
330
1
100
AcDbSymbolTableRecord
100
AcDbBlockTableRecord
  2
*D10
  0
BLOCK_RECORD
  5
10D5
330
1
100
AcDbSymbolTableRecord
100
AcDbBlockTableRecord
  2
*D11
  0
BLOCK_RECORD
  5
1160
330
1
100
AcDbSymbolTableRecord
100
AcDbBlockTableRecord
  2
*D12
  0
BLOCK_RECORD
  5
125C
330
1
100
AcDbSymbolTableRecord
100
AcDbBlockTableRecord
  2
*D13
  0
BLOCK_RECORD
  5
1329
330
1
100
AcDbSymbolTableRecord
100
AcDbBlockTableRecord
  2
*D14
  0
BLOCK_RECORD
  5
13B5
330
1
100
AcDbSymbolTableRecord
100
AcDbBlockTableRecord
  2
*D15
  0
BLOCK_RECORD
  5
145B
330
1
100
AcDbSymbolTableRecord
100
AcDbBlockTableRecord
  2
*D16
  0
BLOCK_RECORD
  5
14AC
330
1
100
AcDbSymbolTableRecord
100
AcDbBlockTableRecord
  2
*D17
  0
ENDTAB
  0
ENDSEC
  0
SECTION
  2
BLOCKS
  0
BLOCK
  5
20
330
1F
100
AcDbEntity
  8
0
100
AcDbBlockBegin
  2
*MODEL_SPACE
 70
     0
 10
0.0
 20
0.0
 30
0.0
  3
*MODEL_SPACE
  1

  0
ENDBLK
  5
21
330
1F
100
AcDbEntity
  8
0
100
AcDbBlockEnd
  0
BLOCK
  5
103
330
101
100
AcDbEntity
 67
     1
  8
0
100
AcDbBlockBegin
  2
*PAPER_SPACE
 70
     0
 10
0.0
 20
0.0
 30
0.0
  3
*PAPER_SPACE
  1

  0
ENDBLK
  5
104
330
101
100
AcDbEntity
 67
     1
  8
0
100
AcDbBlockEnd
  0
BLOCK
  5
5D
330
59
100
AcDbEntity
  8
0
100
AcDbBlockBegin
  2
_OPEN30
 70
     0
 10
0.0
 20
0.0
 30
0.0
  3
_OPEN30
  1

  0
LINE
  5
5A
330
59
100
AcDbEntity
  8
0
 62
     0
100
AcDbLine
 10
-1.0
 20
0.26794919
 30
0.0
 11
0.0
 21
0.0
 31
0.0
  0
LINE
  5
5B
330
59
100
AcDbEntity
  8
0
 62
     0
100
AcDbLine
 10
0.0
 20
0.0
 30
0.0
 11
-1.0
 21
-0.26794919
 31
0.0
  0
LINE
  5
5C
330
59
100
AcDbEntity
  8
0
 62
     0
100
AcDbLine
 10
0.0
 20
0.0
 30
0.0
 11
-1.0
 21
0.0
 31
0.0
  0
ENDBLK
  5
5E
330
59
100
AcDbEntity
  8
0
100
AcDbBlockEnd
  0
BLOCK
  5
66
330
64
100
AcDbEntity
  8
0
100
AcDbBlockBegin
  2
GENAXEH
 70
     0
 10
0.0
 20
0.0
 30
0.0
  3
GENAXEH
  1

  0
LINE
  5
65
330
64
100
AcDbEntity
  8
0
100
AcDbLine
 10
-1.0
 20
0.0
 30
0.0
 11
1.0
 21
0.0
 31
0.0
  0
ENDBLK
  5
67
330
64
100
AcDbEntity
  8
0
100
AcDbBlockEnd
  0
BLOCK
  5
CFB
330
CF6
100
AcDbEntity
  8
0
100
AcDbBlockBegin
  2
A$C28A83BEE
 70
     0
 10
0.0
 20
0.0
 30
0.0
  3
A$C28A83BEE
  1

  0
LINE
  5
CF7
330
CF6
100
AcDbEntity
  8
AM_0
100
AcDbLine
 10
20.82576396401452
 20
0.0
 30
0.0
 11
0.0
 21
0.0
 31
0.0
  0
LINE
  5
CF8
330
CF6
100
AcDbEntity
  8
AM_0
100
AcDbLine
 10
0.0
 20
-4.760000000000005
 30
0.0
 11
20.82576396401452
 21
-4.760000000000005
 31
0.0
  0
LINE
  5
CF9
330
CF6
100
AcDbEntity
  8
AM_0
100
AcDbLine
 10
0.0
 20
0.0000000000000142
 30
0.0
 11
0.0
 21
-4.760000000000005
 31
0.0
  0
LINE
  5
CFA
330
CF6
100
AcDbEntity
  8
AM_0
100
AcDbLine
 10
20.82576396401452
 20
-4.760000000000005
 30
0.0
 11
20.82576396401452
 21
0.0
 31
0.0
  0
ENDBLK
  5
CFC
330
CF6
100
AcDbEntity
  8
0
100
AcDbBlockEnd
  0
BLOCK
  5
D0E
330
D08
100
AcDbEntity
  8
0
100
AcDbBlockBegin
  2
A$C2B6A701B
 70
     0
 10
0.0
 20
0.0
 30
0.0
  3
A$C2B6A701B
  1

  0
LINE
  5
D09
330
D08
100
AcDbEntity
  8
AM_0
100
AcDbLine
 10
-10.12006165897963
 20
-4.759999999999962
 30
0.0
 11
10.41288198200737
 21
-4.760000000000019
 31
0.0
  0
LINE
  5
D0A
330
D08
100
AcDbEntity
  8
AM_0
100
AcDbLine
 10
10.41288198200737
 20
-0.0000000000000284
 30
0.0
 11
-10.12006165897963
 21
0.0000000000000284
 31
0.0
  0
LINE
  5
D0B
330
D08
100
AcDbEntity
  8
AM_0
100
AcDbLine
 10
-10.12006165897963
 20
0.0000000000000284
 30
0.0
 11
-10.12006165897963
 21
-4.759999999999962
 31
0.0
  0
LINE
  5
D0C
330
D08
100
AcDbEntity
  8
AM_0
100
AcDbLine
 10
10.41288198200737
 20
-4.760000000000019
 30
0.0
 11
10.41288198200737
 21
-0.0000000000000284
 31
0.0
  0
LINE
  5
D0D
330
D08
100
AcDbEntity
  8
AM_7
  6
AM_ISO08W050X2
100
AcDbLine
 10
0.0
 20
3.0
 30
0.0
 11
0.0
 21
-7.75999999999999
 31
0.0
1001
GENIUS_GENODEF_13
1002
{
1000
HIER
1070
     0
1002
}
1002
{
1000
MANEDIT
1070
     0
1002
}
1002
{
1000
NOSEL
1070
     0
1002
}
1002
{
1000
BEHIND
1070
     0
1002
}
1002
{
1000
REACTOR
1002
}
1001
GENIUS_GENOBJ-N-CEN_13
1002
{
1000
OWNER
1000
GEN
1002
}
  0
ENDBLK
  5
D0F
330
D08
100
AcDbEntity
  8
0
100
AcDbBlockEnd
  0
BLOCK
  5
D3C
330
D38
100
AcDbEntity
  8
0
100
AcDbBlockBegin
  2
A$C5D1F26DE
 70
     0
 10
0.0
 20
0.0
 30
0.0
  3
A$C5D1F26DE
  1

  0
LWPOLYLINE
  5
D39
330
D38
100
AcDbEntity
  8
AM_0
100
AcDbPolyline
 90
        6
 70
     1
 43
0.0
 10
9.720061647541513
 20
17.84999999999996
 10
0.10717967676635
 20
1.19999999964304
 42
0.5773502690178814
 10
0.799999999999983
 20
0.0
 10
20.02576396401451
 20
0.0
 42
0.5773502693613706
 10
20.71858428683597
 20
1.200000000356965
 10
11.1057022935966
 20
17.84999999999996
 42
0.5773502691896262
  0
LINE
  5
D3A
330
D38
100
AcDbEntity
  8
AM_11
100
AcDbLine
 10
0.0
 20
0.0
 30
0.0
 11
0.8000000000000113
 21
0.0
 31
0.0
  0
LINE
  5
D3B
330
D38
100
AcDbEntity
  8
AM_11
100
AcDbLine
 10
0.0
 20
0.8000000000000113
 30
0.0
 11
0.0
 21
0.0
 31
0.0
  0
ENDBLK
  5
D3D
330
D38
100
AcDbEntity
  8
0
100
AcDbBlockEnd
  0
BLOCK
  5
D87
330
D82
100
AcDbEntity
  8
0
100
AcDbBlockBegin
  2
A$C4FAA6D9F
 70
     0
 10
0.0
 20
0.0
 30
0.0
  3
A$C4FAA6D9F
  1

  0
LINE
  5
D83
330
D82
100
AcDbEntity
  8
AM_0
100
AcDbLine
 10
0.0
 20
0.0
 30
0.0
 11
0.0000000000000284
 21
18.24999999999997
 31
0.0
  0
LINE
  5
D84
330
D82
100
AcDbEntity
  8
AM_0
100
AcDbLine
 10
-4.759999999999962
 20
18.24999999999997
 30
0.0
 11
-4.759999999999962
 21
0.0
 31
0.0
  0
LINE
  5
D85
330
D82
100
AcDbEntity
  8
AM_0
100
AcDbLine
 10
-4.759999999999962
 20
0.0
 30
0.0
 11
0.0
 21
0.0
 31
0.0
  0
LINE
  5
D86
330
D82
100
AcDbEntity
  8
AM_0
100
AcDbLine
 10
0.0000000000000284
 20
18.24999999999997
 30
0.0
 11
-4.759999999999962
 21
18.24999999999997
 31
0.0
  0
ENDBLK
  5
D88
330
D82
100
AcDbEntity
  8
0
100
AcDbBlockEnd
  0
BLOCK
  5
D9B
330
D95
100
AcDbEntity
  8
0
100
AcDbBlockBegin
  2
A$C49111148
 70
     0
 10
0.0
 20
0.0
 30
0.0
  3
A$C49111148
  1

  0
LINE
  5
D96
330
D95
100
AcDbEntity
  8
AM_0
100
AcDbLine
 10
-4.75999999999999
 20
12.30000000000001
 30
0.0
 11
-4.75999999999999
 21
-6.349999999999937
 31
0.0
  0
LINE
  5
D97
330
D95
100
AcDbEntity
  8
AM_0
100
AcDbLine
 10
0.0
 20
-6.349999999999937
 30
0.0
 11
0.0
 21
12.30000000000001
 31
0.0
  0
LINE
  5
D98
330
D95
100
AcDbEntity
  8
AM_7
  6
AM_ISO08W050X2
100
AcDbLine
 10
3.0
 20
0.0
 30
0.0
 11
-7.759999999999934
 21
0.0
 31
0.0
1001
GENIUS_GENODEF_13
1002
{
1000
HIER
1070
     0
1002
}
1002
{
1000
MANEDIT
1070
     0
1002
}
1002
{
1000
NOSEL
1070
     0
1002
}
1002
{
1000
BEHIND
1070
     0
1002
}
1002
{
1000
REACTOR
1002
}
1001
GENIUS_GENOBJ-N-CEN_13
1002
{
1000
OWNER
1000
GEN
1002
}
  0
LINE
  5
D99
330
D95
100
AcDbEntity
  8
AM_0
100
AcDbLine
 10
-4.75999999999999
 20
-6.349999999999937
 30
0.0
 11
0.0
 21
-6.349999999999937
 31
0.0
  0
LINE
  5
D9A
330
D95
100
AcDbEntity
  8
AM_0
100
AcDbLine
 10
0.0
 20
12.30000000000001
 30
0.0
 11
-4.75999999999999
 21
12.30000000000001
 31
0.0
  0
ENDBLK
  5
D9C
330
D95
100
AcDbEntity
  8
0
100
AcDbBlockEnd
  0
BLOCK
  5
1057
330
104D
100
AcDbEntity
  8
0
100
AcDbBlockBegin
  2
*D10
 70
     1
 10
0.0
 20
0.0
 30
0.0
  3
*D10
  1

  0
LINE
  5
10C5
330
104D
100
AcDbEntity
  8
AM_5
100
AcDbLine
 10
-151.0
 20
-32.00000000000016
 30
0.0
 11
-165.000001
 21
-32.00000000000016
 31
0.0
  0
LINE
  5
10C6
330
104D
100
AcDbEntity
  8
AM_5
100
AcDbLine
 10
-151.0
 20
-7.000000000000165
 30
0.0
 11
-165.000001
 21
-7.000000000000161
 31
0.0
  0
LINE
  5
10C7
330
104D
100
AcDbEntity
  8
AM_5
100
AcDbLine
 10
-164.000001
 20
-29.50000000000016
 30
0.0
 11
-164.000001
 21
-9.500000000000161
 31
0.0
  0
INSERT
  5
10C8
330
104D
100
AcDbEntity
  8
AM_5
100
AcDbBlockReference
  2
_OPEN30
 10
-164.000001
 20
-32.00000000000016
 30
0.0
 41
2.5
 42
2.5
 43
2.5
 50
270.0
  0
INSERT
  5
10C9
330
104D
100
AcDbEntity
  8
AM_5
100
AcDbBlockReference
  2
_OPEN30
 10
-164.000001
 20
-7.000000000000161
 30
0.0
 41
2.5
 42
2.5
 43
2.5
 50
90.0
  0
MTEXT
  5
10CA
330
104D
100
AcDbEntity
  8
AM_5
 62
     2
100
AcDbMText
 10
-167.100001
 20
-19.50000000000018
 30
0.0
 40
3.2
 41
0.0
 71
     5
 72
     1
  1
25
  7
ASAMI
 11
0.0000000000000001
 21
1.0
 31
0.0
1001
ACAD
1000
MTEXTBEGIN
1070
    73
1070
     1
1070
    44
1040
1.0
1070
    74
1070
     0
1000
MTEXTEND
  0
POINT
  5
10CB
330
104D
100
AcDbEntity
  8
DEFPOINTS
 62
     0
100
AcDbPoint
 10
-150.0
 20
-32.00000000000016
 30
0.0
  0
POINT
  5
10CC
330
104D
100
AcDbEntity
  8
DEFPOINTS
 62
     0
100
AcDbPoint
 10
-150.0
 20
-7.000000000000165
 30
0.0
  0
POINT
  5
10CD
330
104D
100
AcDbEntity
  8
DEFPOINTS
 62
     0
100
AcDbPoint
 10
-164.000001
 20
-7.000000000000161
 30
0.0
  0
ENDBLK
  5
1058
330
104D
100
AcDbEntity
  8
0
100
AcDbBlockEnd
  0
BLOCK
  5
10DF
330
10D5
100
AcDbEntity
  8
0
100
AcDbBlockBegin
  2
*D11
 70
     1
 10
0.0
 20
0.0
 30
0.0
  3
*D11
  1

  0
LINE
  5
11F0
330
10D5
100
AcDbEntity
  8
AM_5
100
AcDbLine
 10
-151.0
 20
36.62868301865325
 30
0.0
 11
-165.0
 21
36.62868301865325
 31
0.0
  0
LINE
  5
11F1
330
10D5
100
AcDbEntity
  8
AM_5
100
AcDbLine
 10
-151.0
 20
61.62868301865326
 30
0.0
 11
-165.0
 21
61.62868301865326
 31
0.0
  0
LINE
  5
11F2
330
10D5
100
AcDbEntity
  8
AM_5
100
AcDbLine
 10
-164.0
 20
39.12868301865325
 30
0.0
 11
-164.0
 21
59.12868301865326
 31
0.0
  0
INSERT
  5
11F3
330
10D5
100
AcDbEntity
  8
AM_5
100
AcDbBlockReference
  2
_OPEN30
 10
-164.0
 20
36.62868301865325
 30
0.0
 41
2.5
 42
2.5
 43
2.5
 50
270.0
  0
INSERT
  5
11F4
330
10D5
100
AcDbEntity
  8
AM_5
100
AcDbBlockReference
  2
_OPEN30
 10
-164.0
 20
61.62868301865326
 30
0.0
 41
2.5
 42
2.5
 43
2.5
 50
90.0
  0
MTEXT
  5
11F5
330
10D5
100
AcDbEntity
  8
AM_5
 62
     2
100
AcDbMText
 10
-167.1
 20
49.12868301865323
 30
0.0
 40
3.2
 41
0.0
 71
     5
 72
     1
  1
25
  7
ASAMI
 11
0.0000000000000001
 21
1.0
 31
0.0
1001
ACAD
1000
MTEXTBEGIN
1070
    73
1070
     1
1070
    44
1040
1.0
1070
    74
1070
     0
1000
MTEXTEND
  0
POINT
  5
11F6
330
10D5
100
AcDbEntity
  8
DEFPOINTS
 62
     0
100
AcDbPoint
 10
-150.0
 20
36.62868301865325
 30
0.0
  0
POINT
  5
11F7
330
10D5
100
AcDbEntity
  8
DEFPOINTS
 62
     0
100
AcDbPoint
 10
-150.0
 20
61.62868301865326
 30
0.0
  0
POINT
  5
11F8
330
10D5
100
AcDbEntity
  8
DEFPOINTS
 62
     0
100
AcDbPoint
 10
-164.0
 20
61.62868301865326
 30
0.0
  0
ENDBLK
  5
10E0
330
10D5
100
AcDbEntity
  8
0
100
AcDbBlockEnd
  0
BLOCK
  5
116A
330
1160
100
AcDbEntity
  8
0
100
AcDbBlockBegin
  2
*D12
 70
     1
 10
0.0
 20
0.0
 30
0.0
  3
*D12
  1

  0
LINE
  5
11E7
330
1160
100
AcDbEntity
  8
AM_5
100
AcDbLine
 10
-150.0
 20
35.62868301865325
 30
0.0
 11
-150.0
 21
21.62868301865343
 31
0.0
  0
LINE
  5
11E8
330
1160
100
AcDbEntity
  8
AM_5
100
AcDbLine
 10
-0.0000000000000001
 20
36.12868301865335
 30
0.0
 11
-0.0000000000000009
 21
21.62868301865343
 31
0.0
  0
LINE
  5
11E9
330
1160
100
AcDbEntity
  8
AM_5
100
AcDbLine
 10
-147.5
 20
22.62868301865343
 30
0.0
 11
-2.5
 21
22.62868301865343
 31
0.0
  0
INSERT
  5
11EA
330
1160
100
AcDbEntity
  8
AM_5
100
AcDbBlockReference
  2
_OPEN30
 10
-150.0
 20
22.62868301865343
 30
0.0
 41
2.5
 42
2.5
 43
2.5
 50
180.0
  0
INSERT
  5
11EB
330
1160
100
AcDbEntity
  8
AM_5
100
AcDbBlockReference
  2
_OPEN30
 10
-0.0000000000000009
 20
22.62868301865343
 30
0.0
 41
2.5
 42
2.5
 43
2.5
  0
MTEXT
  5
11EC
330
1160
100
AcDbEntity
  8
AM_5
 62
     2
100
AcDbMText
 10
-75.0
 20
25.72868301865343
 30
0.0
 40
3.2
 41
0.0
 71
     5
 72
     1
  1
150
  7
ASAMI
1001
ACAD
1000
MTEXTBEGIN
1070
    73
1070
     1
1070
    44
1040
1.0
1070
    74
1070
     0
1000
MTEXTEND
  0
POINT
  5
11ED
330
1160
100
AcDbEntity
  8
DEFPOINTS
 62
     0
100
AcDbPoint
 10
-150.0
 20
36.62868301865325
 30
0.0
  0
POINT
  5
11EE
330
1160
100
AcDbEntity
  8
DEFPOINTS
 62
     0
100
AcDbPoint
 10
0.0
 20
37.12868301865334
 30
0.0
  0
POINT
  5
11EF
330
1160
100
AcDbEntity
  8
DEFPOINTS
 62
     0
100
AcDbPoint
 10
-0.0000000000000009
 20
22.62868301865343
 30
0.0
  0
ENDBLK
  5
116B
330
1160
100
AcDbEntity
  8
0
100
AcDbBlockEnd
  0
BLOCK
  5
126B
330
125C
100
AcDbEntity
  8
0
100
AcDbBlockBegin
  2
*D13
 70
     1
 10
0.0
 20
0.0
 30
0.0
  3
*D13
  1

  0
LINE
  5
1313
330
125C
100
AcDbEntity
  8
AM_5
100
AcDbLine
 10
0.0
 20
1.0
 30
0.0
 11
0.0000000000000009
 21
15.46913977681346
 31
0.0
  0
ARC
  5
1314
330
125C
100
AcDbEntity
  8
AM_5
100
AcDbCircle
 10
-0.0000000000000001
 20
0.0000000000000001
 30
0.0
 40
14.46913977681346
100
AcDbArc
 50
99.91200767641105
 51
170.0879923235888
  0
INSERT
  5
1315
330
125C
100
AcDbEntity
  8
AM_5
100
AcDbBlockReference
  2
_OPEN30
 10
0.0000000000000018
 20
14.46913977681346
 30
0.0
 41
2.5
 42
2.5
 43
2.5
 50
4.956003838205512
  0
INSERT
  5
1316
330
125C
100
AcDbEntity
  8
AM_5
100
AcDbBlockReference
  2
_OPEN30
 10
-14.46913977681346
 20
0.0000000000000195
 30
0.0
 41
2.5
 42
2.5
 43
2.5
 50
265.0439961617943
  0
MTEXT
  5
1317
330
125C
100
AcDbEntity
  8
AM_5
 62
     2
100
AcDbMText
 10
-12.42325787579909
 20
12.42325787579912
 30
0.0
 40
3.2
 41
0.0
 71
     5
 72
     1
  1
90°
  7
ASAMI
 11
0.7071067811865476
 21
0.7071067811865475
 31
0.0
1001
ACAD
1000
MTEXTBEGIN
1070
    73
1070
     1
1070
    44
1040
1.0
1070
    74
1070
     0
1000
MTEXTEND
  0
POINT
  5
1318
330
125C
100
AcDbEntity
  8
DEFPOINTS
 62
     0
100
AcDbPoint
 10
-7.234569888406726
 20
12.53064261762837
 30
0.0
  0
POINT
  5
1319
330
125C
100
AcDbEntity
  8
DEFPOINTS
 62
     0
100
AcDbPoint
 10
-0.799999999999983
 20
0.0000000000000002
 30
0.0
  0
POINT
  5
131A
330
125C
100
AcDbEntity
  8
DEFPOINTS
 62
     0
100
AcDbPoint
 10
-0.0000000000000002
 20
-0.8000000000000113
 30
0.0
  0
POINT
  5
131B
330
125C
100
AcDbEntity
  8
DEFPOINTS
 62
     0
100
AcDbPoint
 10
0.0
 20
0.0
 30
0.0
  0
POINT
  5
131C
330
125C
100
AcDbEntity
  8
DEFPOINTS
 62
     0
100
AcDbPoint
 10
-20.02576396401451
 20
0.0000000000000036
 30
0.0
  0
ENDBLK
  5
126C
330
125C
100
AcDbEntity
  8
0
100
AcDbBlockEnd
  0
BLOCK
  5
1333
330
1329
100
AcDbEntity
  8
0
100
AcDbBlockBegin
  2
*D14
 70
     1
 10
0.0
 20
0.0
 30
0.0
  3
*D14
  1

  0
LINE
  5
13A1
330
1329
100
AcDbEntity
  8
AM_5
100
AcDbLine
 10
1.0
 20
-0.0000000000000003
 30
0.0
 11
15.00000101
 21
-0.0000000000000042
 31
0.0
  0
LINE
  5
13A2
330
1329
100
AcDbEntity
  8
AM_5
100
AcDbLine
 10
-24.06263834165168
 20
-32.00000000000001
 30
0.0
 11
15.00000101
 21
-32.00000000000002
 31
0.0
  0
LINE
  5
13A3
330
1329
100
AcDbEntity
  8
AM_5
100
AcDbLine
 10
14.00000101
 20
-2.500000000000003
 30
0.0
 11
14.00000100999999
 21
-29.50000000000002
 31
0.0
  0
INSERT
  5
13A4
330
1329
100
AcDbEntity
  8
AM_5
100
AcDbBlockReference
  2
_OPEN30
 10
14.00000101
 20
-0.000000000000004
 30
0.0
 41
2.5
 42
2.5
 43
2.5
 50
90.0
  0
INSERT
  5
13A5
330
1329
100
AcDbEntity
  8
AM_5
100
AcDbBlockReference
  2
_OPEN30
 10
14.00000100999999
 20
-32.00000000000002
 30
0.0
 41
2.5
 42
2.5
 43
2.5
 50
270.0
  0
MTEXT
  5
13A6
330
1329
100
AcDbEntity
  8
AM_5
 62
     2
100
AcDbMText
 10
10.90000101
 20
-16.00000000000001
 30
0.0
 40
3.2
 41
0.0
 71
     5
 72
     1
  1
32
  7
ASAMI
 11
0.0000000000000001
 21
1.0
 31
0.0
1001
ACAD
1000
MTEXTBEGIN
1070
    73
1070
     1
1070
    44
1040
1.0
1070
    74
1070
     0
1000
MTEXTEND
  0
POINT
  5
13A7
330
1329
100
AcDbEntity
  8
DEFPOINTS
 62
     0
100
AcDbPoint
 10
0.0
 20
0.0
 30
0.0
  0
POINT
  5
13A8
330
1329
100
AcDbEntity
  8
DEFPOINTS
 62
     0
100
AcDbPoint
 10
-25.06263834165168
 20
-32.00000000000001
 30
0.0
  0
POINT
  5
13A9
330
1329
100
AcDbEntity
  8
DEFPOINTS
 62
     0
100
AcDbPoint
 10
14.00000100999999
 20
-32.00000000000002
 30
0.0
  0
ENDBLK
  5
1334
330
1329
100
AcDbEntity
  8
0
100
AcDbBlockEnd
  0
BLOCK
  5
13BF
330
13B5
100
AcDbEntity
  8
0
100
AcDbBlockBegin
  2
*D15
 70
     1
 10
0.0
 20
0.0
 30
0.0
  3
*D15
  1

  0
LINE
  5
148B
330
13B5
100
AcDbEntity
  8
AM_5
100
AcDbLine
 10
1.0
 20
37.12868301865336
 30
0.0
 11
25.24956341114076
 21
37.12868301865335
 31
0.0
  0
LINE
  5
148C
330
13B5
100
AcDbEntity
  8
AM_5
100
AcDbLine
 10
-0.8496667155248191
 20
61.62868301865336
 30
0.0
 11
25.24956341114077
 21
61.62868301865335
 31
0.0
  0
LINE
  5
148D
330
13B5
100
AcDbEntity
  8
AM_5
100
AcDbLine
 10
24.24956341114076
 20
39.62868301865335
 30
0.0
 11
24.24956341114077
 21
59.12868301865335
 31
0.0
  0
INSERT
  5
148E
330
13B5
100
AcDbEntity
  8
AM_5
100
AcDbBlockReference
  2
_OPEN30
 10
24.24956341114076
 20
37.12868301865335
 30
0.0
 41
2.5
 42
2.5
 43
2.5
 50
270.0
  0
INSERT
  5
148F
330
13B5
100
AcDbEntity
  8
AM_5
100
AcDbBlockReference
  2
_OPEN30
 10
24.24956341114077
 20
61.62868301865335
 30
0.0
 41
2.5
 42
2.5
 43
2.5
 50
90.0
  0
MTEXT
  5
1490
330
13B5
100
AcDbEntity
  8
AM_5
 62
     2
100
AcDbMText
 10
21.14956341114076
 20
49.37868301865336
 30
0.0
 40
3.2
 41
0.0
 71
     5
 72
     1
  1
24.5
  7
ASAMI
 11
0.0000000000000001
 21
1.0
 31
0.0
1001
ACAD
1000
MTEXTBEGIN
1070
    73
1070
     1
1070
    44
1040
1.0
1070
    74
1070
     0
1000
MTEXTEND
  0
POINT
  5
1491
330
13B5
100
AcDbEntity
  8
DEFPOINTS
 62
     0
100
AcDbPoint
 10
0.0
 20
37.12868301865336
 30
0.0
  0
POINT
  5
1492
330
13B5
100
AcDbEntity
  8
DEFPOINTS
 62
     0
100
AcDbPoint
 10
-1.849666715524818
 20
61.62868301865336
 30
0.0
  0
POINT
  5
1493
330
13B5
100
AcDbEntity
  8
DEFPOINTS
 62
     0
100
AcDbPoint
 10
24.24956341114077
 20
61.62868301865335
 30
0.0
  0
ENDBLK
  5
13C0
330
13B5
100
AcDbEntity
  8
0
100
AcDbBlockEnd
  0
BLOCK
  5
146B
330
145B
100
AcDbEntity
  8
0
100
AcDbBlockBegin
  2
*D16
 70
     1
 10
0.0
 20
0.0
 30
0.0
  3
*D16
  1

  0
LINE
  5
147C
330
145B
100
AcDbEntity
  8
AM_5
100
AcDbLine
 10
0.9999999999999996
 20
37.12868301865337
 30
0.0
 11
15.00717967874532
 21
37.12868301865337
 31
0.0
  0
LINE
  5
147D
330
145B
100
AcDbEntity
  8
AM_5
100
AcDbLine
 10
0.9961946980917451
 20
37.21583876140103
 30
0.0
 11
14.95007282927628
 21
38.43664491010198
 31
0.0
  0
ARC
  5
147E
330
145B
100
AcDbEntity
  8
AM_5
100
AcDbCircle
 10
-0.0000000000000004
 20
37.12868301865336
 30
0.0
 40
14.00717967874532
100
AcDbArc
 50
339.4375386589093
 51
0.0000000000000382
  0
LINE
  5
147F
330
145B
100
AcDbEntity
  8
AM_5
100
AcDbLine
 10
13.11478018886317
 20
32.20896522690372
 30
0.0
 11
8.250435598755245
 21
19.24179662850666
 31
0.0
  0
ARC
  5
1480
330
145B
100
AcDbEntity
  8
AM_5
100
AcDbCircle
 10
-0.0000000000000004
 20
37.12868301865336
 30
0.0
 40
14.00717967874532
100
AcDbArc
 50
339.5204662717805
 51
349.7602331358902
  0
ARC
  5
1481
330
145B
100
AcDbEntity
  8
AM_5
100
AcDbCircle
 10
-0.0000000000000004
 20
37.12868301865336
 30
0.0
 40
14.00717967874532
100
AcDbArc
 50
15.23976686410977
 51
25.47953372821954
  0
ARC
  5
1482
330
145B
100
AcDbEntity
  8
AM_5
100
AcDbCircle
 10
-0.0000000000000004
 20
37.12868301865336
 30
0.0
 40
14.00717967874532
100
AcDbArc
 50
0.0000000000000382
 51
4.999999999999994
  0
INSERT
  5
1483
330
145B
100
AcDbEntity
  8
AM_5
100
AcDbBlockReference
  2
_OPEN30
 10
14.00717967874532
 20
37.12868301865337
 30
0.0
 41
2.5
 42
2.5
 43
2.5
 50
84.88011656794515
  0
INSERT
  5
1484
330
145B
100
AcDbEntity
  8
AM_5
100
AcDbBlockReference
  2
_OPEN30
 10
13.95387813118453
 20
38.34948916735432
 30
0.0
 41
2.5
 42
2.5
 43
2.5
 50
280.1198834320548
  0
MTEXT
  5
1485
330
145B
100
AcDbEntity
  8
AM_5
 62
     2
100
AcDbMText
 10
13.58510643512281
 20
24.63657322307025
 30
0.0
 40
3.2
 41
0.0
 71
     5
 72
     1
  1
-5°
  7
ASAMI
 11
-0.3512282918177236
 21
-0.9362898520366458
 31
0.0
1001
ACAD
1000
MTEXTBEGIN
1070
    73
1070
     1
1070
    44
1040
1.0
1070
    74
1070
     0
1000
MTEXTEND
  0
POINT
  5
1486
330
145B
100
AcDbEntity
  8
DEFPOINTS
 62
     0
100
AcDbPoint
 10
13.98348174766298
 20
37.94312808459231
 30
0.0
  0
POINT
  5
1487
330
145B
100
AcDbEntity
  8
DEFPOINTS
 62
     0
100
AcDbPoint
 10
-15.26818068020253
 20
35.79289029647012
 30
0.0
  0
POINT
  5
1488
330
145B
100
AcDbEntity
  8
DEFPOINTS
 62
     0
100
AcDbPoint
 10
-0.0000000000000002
 20
37.12868301865336
 30
0.0
  0
POINT
  5
1489
330
145B
100
AcDbEntity
  8
DEFPOINTS
 62
     0
100
AcDbPoint
 10
-1.116910577223123
 20
37.12868301865336
 30
0.0
  0
POINT
  5
148A
330
145B
100
AcDbEntity
  8
DEFPOINTS
 62
     0
100
AcDbPoint
 10
-0.0000000000000002
 20
37.12868301865336
 30
0.0
  0
ENDBLK
  5
146C
330
145B
100
AcDbEntity
  8
0
100
AcDbBlockEnd
  0
BLOCK
  5
14BC
330
14AC
100
AcDbEntity
  8
0
100
AcDbBlockBegin
  2
*D17
 70
     1
 10
0.0
 20
0.0
 30
0.0
  3
*D17
  1

  0
LINE
  5
14CD
330
14AC
100
AcDbEntity
  8
AM_5
100
AcDbLine
 10
43.2011635026545
 20
0.9961946980917463
 30
0.0
 11
44.40793184850106
 21
14.78962000843476
 31
0.0
  0
LINE
  5
14CE
330
14AC
100
AcDbEntity
  8
AM_5
100
AcDbLine
 10
43.11400775990683
 20
1.000000000000001
 30
0.0
 11
43.11400775990686
 21
14.84611395419482
 31
0.0
  0
ARC
  5
14CF
330
14AC
100
AcDbEntity
  8
AM_5
100
AcDbCircle
 10
43.11400775990683
 20
0.0000000000000011
 30
0.0
 40
13.84611395419482
100
AcDbArc
 50
64.19569737576496
 51
84.99999999999998
  0
LINE
  5
14D0
330
14AC
100
AcDbEntity
  8
AM_5
100
AcDbLine
 10
49.14120326871133
 20
12.46546372708193
 30
0.0
 11
61.60973684109851
 21
6.436783912659793
 31
0.0
  0
ARC
  5
14D1
330
14AC
100
AcDbEntity
  8
AM_5
100
AcDbCircle
 10
43.11400775990683
 20
0.0000000000000011
 30
0.0
 40
13.84611395419482
100
AcDbArc
 50
64.28158959034682
 51
74.64079479517341
  0
ARC
  5
14D2
330
14AC
100
AcDbEntity
  8
AM_5
100
AcDbCircle
 10
43.11400775990683
 20
0.0000000000000011
 30
0.0
 40
13.84611395419482
100
AcDbArc
 50
100.3592052048264
 51
110.718410409653
  0
ARC
  5
14D3
330
14AC
100
AcDbEntity
  8
AM_5
100
AcDbCircle
 10
43.11400775990683
 20
0.0000000000000011
 30
0.0
 40
13.84611395419482
100
AcDbArc
 50
84.99999999999998
 51
89.99999999999985
  0
INSERT
  5
14D4
330
14AC
100
AcDbEntity
  8
AM_5
100
AcDbBlockReference
  2
_OPEN30
 10
44.3207761057534
 20
13.79342531034301
 30
0.0
 41
2.5
 42
2.5
 43
2.5
 50
169.8203973975866
  0
INSERT
  5
14D5
330
14AC
100
AcDbEntity
  8
AM_5
100
AcDbBlockReference
  2
_OPEN30
 10
43.11400775990686
 20
13.84611395419482
 30
0.0
 41
2.5
 42
2.5
 43
2.5
 50
5.179602602413149
  0
MTEXT
  5
14D6
330
14AC
100
AcDbEntity
  8
AM_5
 62
     2
100
AcDbMText
 10
56.7248960482995
 20
12.24201068399686
 30
0.0
 40
3.2
 41
0.0
 71
     5
 72
     1
  1
-5°
  7
ASAMI
 11
0.9002860852019351
 21
-0.4352987075466387
 31
0.0
1001
ACAD
1000
MTEXTBEGIN
1070
    73
1070
     1
1070
    44
1040
1.0
1070
    74
1070
     0
1000
MTEXTEND
  0
POINT
  5
14D7
330
14AC
100
AcDbEntity
  8
DEFPOINTS
 62
     0
100
AcDbPoint
 10
43.51671808994967
 20
13.84025635682465
 30
0.0
  0
POINT
  5
14D8
330
14AC
100
AcDbEntity
  8
DEFPOINTS
 62
     0
100
AcDbPoint
 10
43.11400775990683
 20
0.0000000000000011
 30
0.0
  0
POINT
  5
14D9
330
14AC
100
AcDbEntity
  8
DEFPOINTS
 62
     0
100
AcDbPoint
 10
43.11400775990683
 20
0.0000000000000011
 30
0.0
  0
POINT
  5
14DA
330
14AC
100
AcDbEntity
  8
DEFPOINTS
 62
     0
100
AcDbPoint
 10
43.11400775990683
 20
-1.038100066472792
 30
0.0
  0
POINT
  5
14DB
330
14AC
100
AcDbEntity
  8
DEFPOINTS
 62
     0
100
AcDbPoint
 10
41.77821503772357
 20
-15.26818068020253
 30
0.0
  0
ENDBLK
  5
14BD
330
14AC
100
AcDbEntity
  8
0
100
AcDbBlockEnd
  0
ENDSEC
  0
SECTION
  2
ENTITIES
  0
LINE
  5
BD8
330
1F
100
AcDbEntity
  8
AM_0
100
AcDbLine
 10
-150.0
 20
-32.00000000000016
 30
0.0
 11
-150.0
 21
-7.000000000000166
 31
0.0
  0
LINE
  5
BD9
330
1F
100
AcDbEntity
  8
AM_0
100
AcDbLine
 10
-150.0
 20
-32.00000000000016
 30
0.0
 11
-25.06263834165168
 21
-32.00000000000001
 31
0.0
  0
LINE
  5
BDB
330
1F
100
AcDbEntity
  8
AM_11
100
AcDbLine
 10
-29.66499999999999
 20
-7.00000000000001
 30
0.0
 11
-30.24235026918961
 21
-6.999999999999996
 31
0.0
  0
LINE
  5
BE3
330
1F
100
AcDbEntity
  8
AM_0
100
AcDbLine
 10
-21.54657520228684
 20
-0.6699999999999707
 30
0.0
 11
-20.81513079888918
 21
-0.6699999999999707
 31
0.0
  0
LINE
  5
BEF
330
1F
100
AcDbEntity
  8
AM_0
100
AcDbLine
 10
-25.6235481156726
 20
0.0000000000000173
 30
0.0
 11
-21.93339988264387
 21
0.0000000000000027
 31
0.0
  0
LINE
  5
C57
330
1F
100
AcDbEntity
  8
AM_11
100
AcDbLine
 10
-29.66499999999999
 20
-6.999999999999996
 30
0.0
 11
-29.37632486540522
 21
-6.50000000000001
 31
0.0
  0
LINE
  5
C61
330
1F
100
AcDbEntity
  8
AM_0
100
AcDbLine
 10
-30.24235026918961
 20
-6.999999999999996
 30
0.0
 11
-150.0
 21
-7.000000000000166
 31
0.0
  0
ARC
  5
C62
330
1F
100
AcDbEntity
  8
AM_0
100
AcDbCircle
 10
-30.24235026918961
 20
-6.00000000000001
 30
0.0
 40
1.0
100
AcDbArc
 50
270.0000000000001
 51
330.0
1001
GENIUS_GENODEF_13
1002
{
1000
HIER
1070
     0
1002
}
1002
{
1000
MANEDIT
1070
     0
1002
}
1002
{
1000
NOSEL
1070
     0
1002
}
1002
{
1000
BEHIND
1070
     0
1002
}
1002
{
1000
REACTOR
1002
}
1001
GENIUS_GENOBJ-N-FIL_13
1002
{
1000
OWNER
1000
GEN
1002
}
  0
LINE
  5
C66
330
1F
100
AcDbEntity
  8
AM_0
100
AcDbLine
 10
-29.37632486540522
 20
-6.50000000000001
 30
0.0
 11
-25.6235481156726
 21
0.0000000000000173
 31
0.0
  0
LINE
  5
C89
330
1F
100
AcDbEntity
  8
AM_0
100
AcDbLine
 10
-12.9382826886696
 20
-25.00000000000004
 30
0.0
 11
-25.06263834165168
 21
-32.00000000000001
 31
0.0
  0
LINE
  5
C95
330
1F
100
AcDbEntity
  8
AM_0
100
AcDbLine
 10
-10.21896292078634
 20
-20.28999999999985
 30
0.0
 11
-12.9382826886696
 21
-25.00000000000004
 31
0.0
  0
LINE
  5
CAD
330
1F
100
AcDbEntity
  8
AM_0
100
AcDbLine
 10
-21.93339988264387
 20
0.0000000000000027
 30
0.0
 11
-10.21896292078634
 21
-20.28999999999985
 31
0.0
  0
ARC
  5
CB3
330
1F
100
AcDbEntity
  8
AM_0
100
AcDbCircle
 10
-1.743460969082718
 20
-1.870000000000004
 30
0.0
 40
1.199999999999999
100
AcDbArc
 50
329.9999999999998
 51
330.0000000000001
1001
GENIUS_GENODEF_13
1002
{
1000
HIER
1070
     0
1002
}
1002
{
1000
MANEDIT
1070
     0
1002
}
1002
{
1000
NOSEL
1070
     0
1002
}
1002
{
1000
BEHIND
1070
     0
1002
}
1002
{
1000
REACTOR
1002
}
1001
GENIUS_GENOBJ-N-FIL_13
1002
{
1000
OWNER
1000
GEN
1002
}
  0
LINE
  5
CBA
330
1F
100
AcDbEntity
  8
AM_0
100
AcDbLine
 10
-0.7042304845413416
 20
-2.469999999999998
 30
0.0
 11
-10.60578760114342
 21
-19.61999999999981
 31
0.0
  0
ARC
  5
CBB
330
1F
100
AcDbEntity
  8
AM_0
100
AcDbCircle
 10
-1.743460969082718
 20
-1.870000000000004
 30
0.0
 40
1.199999999999999
100
AcDbArc
 50
330.0000000000001
 51
355.6152301272263
1001
GENIUS_GENODEF_13
1002
{
1000
HIER
1070
     0
1002
}
1002
{
1000
MANEDIT
1070
     0
1002
}
1002
{
1000
NOSEL
1070
     0
1002
}
1002
{
1000
BEHIND
1070
     0
1002
}
1002
{
1000
REACTOR
1002
}
1001
GENIUS_GENOBJ-N-FIL_13
1002
{
1000
OWNER
1000
GEN
1002
}
  0
LINE
  5
CC3
330
1F
100
AcDbEntity
  8
AM_0
100
AcDbLine
 10
-29.66499999999999
 20
-6.816496580927744
 30
0.0
 11
-29.66499999999999
 21
-32.00000000000001
 31
0.0
  0
LINE
  5
CC4
330
1F
100
AcDbEntity
  8
AM_0
100
AcDbLine
 10
-150.0
 20
36.62868301865325
 30
0.0
 11
-150.0
 21
61.62868301865325
 31
0.0
  0
LINE
  5
CC5
330
1F
100
AcDbEntity
  8
AM_0
100
AcDbLine
 10
-150.0
 20
61.62868301865325
 30
0.0
 11
-1.849666715524818
 21
61.62868301865336
 31
0.0
  0
LINE
  5
CC6
330
1F
100
AcDbEntity
  8
AM_0
100
AcDbLine
 10
-150.0
 20
36.62868301865325
 30
0.0
 11
-30.80005283283225
 21
36.62868301865332
 31
0.0
  0
LINE
  5
CD2
330
1F
100
AcDbEntity
  8
AM_0
100
AcDbLine
 10
-0.5434609690827586
 20
46.69868301865337
 30
0.0
 11
-1.849666715524818
 21
61.62868301865336
 31
0.0
  0
LINE
  5
CDE
330
1F
100
AcDbEntity
  8
AM_0
100
AcDbLine
 10
-22.64523783968255
 20
44.76502809869637
 30
0.0
 11
-0.543460969082787
 21
46.69868301865335
 31
0.0
  0
LINE
  5
CE5
330
1F
100
AcDbEntity
  8
AM_0
100
AcDbLine
 10
-21.77506984985709
 20
34.81896246280217
 30
0.0
 11
-22.64523783968255
 21
44.76502809869637
 31
0.0
  0
LINE
  5
CEA
330
1F
100
AcDbEntity
  8
AM_0
100
AcDbLine
 10
-29.66499999999999
 20
34.12868301865334
 30
0.0
 11
-29.80385813474049
 21
35.71583876140095
 31
0.0
  0
LINE
  5
D12
330
1F
100
AcDbEntity
  8
AM_0
100
AcDbLine
 10
-1.121428724251302
 20
46.58693557174166
 30
0.0
 11
-21.57623831561918
 21
44.79737161791568
 31
0.0
  0
LINE
  5
D14
330
1F
100
AcDbEntity
  8
AM_0
100
AcDbLine
 10
-0.7065673887724416
 20
41.84504880882495
 30
0.0
 11
-1.121428724251302
 21
46.58693557174166
 31
0.0
  0
LINE
  5
D15
330
1F
100
AcDbEntity
  8
AM_0
100
AcDbLine
 10
-21.57623831561918
 20
44.79737161791568
 30
0.0
 11
-21.16137698014034
 21
40.05548485499898
 31
0.0
  0
LINE
  5
D16
330
1F
100
AcDbEntity
  8
AM_7
  6
AM_ISO08W050X2
100
AcDbLine
 10
-10.14626678352834
 20
33.6266211095992
 30
0.0
 11
-13.19323740465049
 21
68.45365467400265
 31
0.0
1001
GENIUS_GENODEF_13
1002
{
1000
HIER
1070
     0
1002
}
1002
{
1000
MANEDIT
1070
     0
1002
}
1002
{
1000
NOSEL
1070
     0
1002
}
1002
{
1000
BEHIND
1070
     0
1002
}
1002
{
1000
REACTOR
1002
}
1001
GENIUS_GENOBJ-N-CEN_13
1002
{
1000
OWNER
1000
GEN
1002
}
  0
LINE
  5
D17
330
1F
100
AcDbEntity
  8
AM_0
100
AcDbLine
 10
-20.7465156446614
 20
35.31359809208225
 30
0.0
 11
0.0
 21
37.12868301865336
 31
0.0
  0
LINE
  5
D18
330
1F
100
AcDbEntity
  8
AM_0
100
AcDbLine
 10
-0.4148613354788609
 20
41.87056978157007
 30
0.0
 11
-21.16137698014026
 21
40.05548485499898
 31
0.0
  0
LINE
  5
D19
330
1F
100
AcDbEntity
  8
AM_0
100
AcDbLine
 10
0.0
 20
37.12868301865334
 30
0.0
 11
-0.4148613354788609
 21
41.87056978157007
 31
0.0
  0
LINE
  5
D1A
330
1F
100
AcDbEntity
  8
AM_0
100
AcDbLine
 10
-21.16137698014026
 20
40.05548485499898
 30
0.0
 11
-20.7465156446614
 21
35.31359809208225
 31
0.0
  0
LINE
  5
D22
330
1F
100
AcDbEntity
  8
AM_0
100
AcDbLine
 10
-16.47461154808149
 20
65.80193639850339
 30
0.0
 11
-9.501248661439291
 21
66.412026597737
 31
0.0
  0
LINE
  5
D2E
330
1F
100
AcDbEntity
  8
AM_0
100
AcDbLine
 10
-9.082760324519938
 20
61.62868301865334
 30
0.0
 11
-9.501248661439291
 21
66.412026597737
 31
0.0
1001
GENIUS_GENODEF_13
1002
{
1000
HIER
1070
     0
1002
}
1002
{
1000
MANEDIT
1070
     0
1002
}
1002
{
1000
NOSEL
1070
     0
1002
}
1002
{
1000
BEHIND
1070
     0
1002
}
1002
{
1000
REACTOR
1002
}
1001
GENIUS_GENOBJ-N-CEN_13
1002
{
1000
OWNER
1000
GEN
1002
}
  0
LINE
  5
D32
330
1F
100
AcDbEntity
  8
AM_0
100
AcDbLine
 10
-16.10949918732339
 20
61.62868301865334
 30
0.0
 11
-16.47461154808155
 21
65.80193639850337
 31
0.0
1001
GENIUS_GENODEF_13
1002
{
1000
HIER
1070
     0
1002
}
1002
{
1000
MANEDIT
1070
     0
1002
}
1002
{
1000
NOSEL
1070
     0
1002
}
1002
{
1000
BEHIND
1070
     0
1002
}
1002
{
1000
REACTOR
1002
}
1001
GENIUS_GENOBJ-N-CEN_13
1002
{
1000
OWNER
1000
GEN
1002
}
  0
LWPOLYLINE
  5
D58
330
1F
100
AcDbEntity
  8
AM_0
100
AcDbPolyline
 90
        6
 70
     1
 43
0.0
 10
-9.720061647541514
 20
-17.84999999999996
 10
-0.1071796767663501
 20
-1.19999999964304
 42
0.5773502690178814
 10
-0.799999999999983
 20
0.0000000000000001
 10
-20.02576396401451
 20
0.0000000000000025
 42
0.5773502693613706
 10
-20.71858428683597
 20
-1.200000000356962
 10
-11.1057022935966
 20
-17.84999999999996
 42
0.5773502691896262
  0
LINE
  5
D59
330
1F
100
AcDbEntity
  8
AM_11
100
AcDbLine
 10
0.0
 20
0.0
 30
0.0
 11
-0.8000000000000113
 21
0.0000000000000001
 31
0.0
  0
LINE
  5
D5A
330
1F
100
AcDbEntity
  8
AM_11
100
AcDbLine
 10
-0.0000000000000001
 20
-0.8000000000000113
 30
0.0
 11
0.0
 21
0.0
 31
0.0
  0
LINE
  5
D67
330
1F
100
AcDbEntity
  8
AM_0
100
AcDbLine
 10
40.11400775990679
 20
-32.00000000000001
 30
0.0
 11
67.61400775990683
 21
-32.00000000000002
 31
0.0
  0
LINE
  5
D68
330
1F
100
AcDbEntity
  8
AM_0
100
AcDbLine
 10
67.61400775990683
 20
-32.00000000000002
 30
0.0
 11
67.61400775990683
 21
-2.187216588148121
 31
0.0
  0
LINE
  5
D69
330
1F
100
AcDbEntity
  8
AM_0
100
AcDbLine
 10
67.61400775990683
 20
-2.187216588148121
 30
0.0
 11
52.59398322399329
 21
-0.8731347153744231
 31
0.0
  0
LINE
  5
D78
330
1F
100
AcDbEntity
  8
AM_0
100
AcDbLine
 10
50.91242851852536
 20
-21.13025422918206
 30
0.0
 11
52.68400775990682
 21
-0.8810108417060611
 31
0.0
  0
LINE
  5
DA2
330
1F
100
AcDbEntity
  8
AM_0
100
AcDbLine
 10
50.97021263655438
 20
-19.4329174574862
 30
0.0
 11
52.5956672387982
 21
-0.8538863380752026
 31
0.0
  0
LINE
  5
DA3
330
1F
100
AcDbEntity
  8
AM_0
100
AcDbLine
 10
46.22832587363769
 20
-19.01805612200735
 30
0.0
 11
47.85589452282349
 21
-0.4148613354788342
 31
0.0
  0
LINE
  5
DA4
330
1F
100
AcDbEntity
  8
AM_7
  6
AM_ISO08W050X2
100
AcDbLine
 10
39.10356108469153
 20
-6.047735970902706
 30
0.0
 11
75.37470483609516
 21
-9.221049862269687
 31
0.0
1001
GENIUS_GENODEF_13
1002
{
1000
HIER
1070
     0
1002
}
1002
{
1000
MANEDIT
1070
     0
1002
}
1002
{
1000
NOSEL
1070
     0
1002
}
1002
{
1000
BEHIND
1070
     0
1002
}
1002
{
1000
REACTOR
1002
}
1001
GENIUS_GENOBJ-N-CEN_13
1002
{
1000
OWNER
1000
GEN
1002
}
  0
LINE
  5
DA5
330
1F
100
AcDbEntity
  8
AM_0
100
AcDbLine
 10
52.5956672387982
 20
-0.8538863380752026
 30
0.0
 11
47.8537804758815
 21
-0.4390250025963543
 31
0.0
  0
LINE
  5
DA6
330
1F
100
AcDbEntity
  8
AM_0
100
AcDbLine
 10
46.22832587363769
 20
-19.01805612200735
 30
0.0
 11
50.97021263655438
 21
-19.4329174574862
 31
0.0
  0
LINE
  5
DA9
330
1F
100
AcDbEntity
  8
AM_0
100
AcDbLine
 10
47.85589452282349
 20
-0.4148613354788342
 30
0.0
 11
43.11400775990683
 21
0.0000000000000124
 31
0.0
  0
LINE
  5
DAA
330
1F
100
AcDbEntity
  8
AM_0
100
AcDbLine
 10
41.52341545476204
 20
-18.1805532401743
 30
0.0
 11
46.26530221767874
 21
-18.59541457565317
 31
0.0
  0
LINE
  5
DC9
330
1F
100
AcDbEntity
  8
AM_0
100
AcDbLine
 10
-10.24966228839434
 20
35.82730496694597
 30
0.0
 11
-10.28479555144832
 21
36.22888000121974
 31
0.0
  0
ARC
  5
DD0
330
1F
100
AcDbEntity
  8
AM_0
100
AcDbCircle
 10
-30.80005283283225
 20
35.6286830186533
 30
0.0
 40
1.0
100
AcDbArc
 50
4.999999999999982
 51
90.0
1001
GENIUS_GENODEF_13
1002
{
1000
HIER
1070
     0
1002
}
1002
{
1000
MANEDIT
1070
     0
1002
}
1002
{
1000
NOSEL
1070
     0
1002
}
1002
{
1000
BEHIND
1070
     0
1002
}
1002
{
1000
REACTOR
1002
}
1001
GENIUS_GENOBJ-N-FIL_13
1002
{
1000
OWNER
1000
GEN
1002
}
  0
LINE
  5
E53
330
1F
100
AcDbEntity
  8
AM_0
100
AcDbLine
 10
-29.66499999999999
 20
34.12868301865334
 30
0.0
 11
-10.24966228839434
 21
35.82730496694597
 31
0.0
  0
LINE
  5
F1D
330
1F
100
AcDbEntity
  8
AM_0
100
AcDbLine
 10
-25.6235481156726
 20
34.48226424271743
 30
0.0
 11
-27.99855201389428
 21
61.62868301865334
 31
0.0
  0
LINE
  5
F34
330
1F
100
AcDbEntity
  8
AM_0
100
AcDbLine
 10
43.11400775990683
 20
0.0000000000000124
 30
0.0
 11
41.52341545476204
 21
-18.1805532401743
 31
0.0
  0
LINE
  5
F45
330
1F
100
AcDbEntity
  8
AM_0
100
AcDbLine
 10
41.30827873135655
 20
-20.28999999999985
 30
0.0
 11
50.91242851852538
 21
-21.13025422918203
 31
0.0
  0
LINE
  5
F47
330
1F
100
AcDbEntity
  8
AM_0
100
AcDbLine
 10
42.91364499273643
 20
-0.0000000000000018
 30
0.0
 11
40.11400775990682
 21
-32.00000000000001
 31
0.0
  0
LINE
  5
F54
330
1F
100
AcDbEntity
  8
AM_0
100
AcDbLine
 10
43.1124857795838
 20
-0.0173963146957181
 30
0.0
 11
42.91364499273643
 21
-0.0000000000000018
 31
0.0
  0
LINE
  5
F5D
330
1F
100
AcDbEntity
  8
AM_0
100
AcDbLine
 10
72.7493407888864
 20
-5.477990839108649
 30
0.0
 11
72.13925058965276
 21
-12.45135372575087
 31
0.0
  0
LINE
  5
F65
330
1F
100
AcDbEntity
  8
AM_0
100
AcDbLine
 10
67.61400775990683
 20
-5.028707415642703
 30
0.0
 11
72.7493407888864
 21
-5.477990839108649
 31
0.0
1001
GENIUS_GENODEF_13
1002
{
1000
HIER
1070
     0
1002
}
1002
{
1000
MANEDIT
1070
     0
1002
}
1002
{
1000
NOSEL
1070
     0
1002
}
1002
{
1000
BEHIND
1070
     0
1002
}
1002
{
1000
REACTOR
1002
}
1001
GENIUS_GENOBJ-N-CEN_13
1002
{
1000
OWNER
1000
GEN
1002
}
  0
LINE
  5
F69
330
1F
100
AcDbEntity
  8
AM_0
100
AcDbLine
 10
67.61400775990683
 20
-12.0554462784461
 30
0.0
 11
72.13925058965276
 21
-12.45135372575087
 31
0.0
1001
GENIUS_GENODEF_13
1002
{
1000
HIER
1070
     0
1002
}
1002
{
1000
MANEDIT
1070
     0
1002
}
1002
{
1000
NOSEL
1070
     0
1002
}
1002
{
1000
BEHIND
1070
     0
1002
}
1002
{
1000
REACTOR
1002
}
1001
GENIUS_GENOBJ-N-CEN_13
1002
{
1000
OWNER
1000
GEN
1002
}
  0
LINE
  5
F6F
330
1F
100
AcDbEntity
  8
AM_0
100
AcDbLine
 10
40.72642840458828
 20
-25.00000000000004
 30
0.0
 11
67.51169240287769
 21
-27.34340694939938
 31
0.0
  0
DIMENSION
  5
104B
330
1F
100
AcDbEntity
  8
AM_5
100
AcDbDimension
  2
*D10
 10
-164.000001
 20
-7.000000000000161
 30
0.0
 11
-167.100001
 21
-19.50000000000018
 31
0.0
 70
    32
  1
<>
  3
AM_JIS
100
AcDbAlignedDimension
 13
-150.0
 23
-32.00000000000016
 33
0.0
 14
-150.0
 24
-7.000000000000166
 34
0.0
 50
270.0000000000001
100
AcDbRotatedDimension
1001
GENIUS_GENDTOL_13
1000

1000
h7
1000

1040
0.0
  0
DIMENSION
  5
10D4
330
1F
100
AcDbEntity
  8
AM_5
100
AcDbDimension
  2
*D11
 10
-164.0
 20
61.62868301865326
 30
0.0
 11
-167.1
 21
49.12868301865323
 31
0.0
 70
    32
  1
<>
  3
AM_JIS
100
AcDbAlignedDimension
 13
-150.0
 23
36.62868301865325
 33
0.0
 14
-150.0
 24
61.62868301865326
 34
0.0
 50
270.0000000000001
100
AcDbRotatedDimension
1001
GENIUS_GENDTOL_13
1000

1000
h7
1000

1040
0.0
  0
DIMENSION
  5
115F
330
1F
100
AcDbEntity
  8
AM_5
100
AcDbDimension
  2
*D12
 10
-0.0000000000000009
 20
22.62868301865343
 30
0.0
 11
-75.0
 21
25.72868301865343
 31
0.0
 70
    32
  1
<>
  3
AM_JIS
100
AcDbAlignedDimension
 13
-150.0
 23
36.62868301865325
 33
0.0
 14
0.0
 24
37.12868301865334
 34
0.0
 50
0.0000000000002036
100
AcDbRotatedDimension
1001
GENIUS_GENDTOL_13
1000

1000
h7
1000

1040
0.0
  0
DIMENSION
  5
125B
330
1F
100
AcDbEntity
  8
AM_5
100
AcDbDimension
  2
*D13
 10
-20.02576396401451
 20
0.0000000000000025
 30
0.0
 11
-12.4232578757991
 21
12.42325787579912
 31
0.0
 70
    34
  1
<>
  3
AM_JIS$2
100
AcDb2LineAngularDimension
 13
-0.0000000000000001
 23
-0.8000000000000113
 33
0.0
 14
0.0
 24
0.0
 34
0.0
 15
-0.799999999999983
 25
0.0000000000000001
 35
0.0
 16
-7.234569888406726
 26
12.53064261762837
 36
0.0
1001
ACAD
1000
DSTYLE
1002
{
1070
   179
1070
     3
1002
}
1001
GENIUS_GENDTOL_13
1000

1000
h7
1000

1040
0.0
  0
DIMENSION
  5
1328
330
1F
100
AcDbEntity
  8
AM_5
100
AcDbDimension
  2
*D14
 10
14.00000100999999
 20
-32.00000000000002
 30
0.0
 11
10.90000101
 21
-16.00000000000001
 31
0.0
 70
    32
  1
<>
  3
AM_JIS
100
AcDbAlignedDimension
 13
0.0
 23
0.0
 33
0.0
 14
-25.06263834165168
 24
-32.00000000000001
 34
0.0
 50
90.0
100
AcDbRotatedDimension
1001
GENIUS_GENDTOL_13
1000

1000
h7
1000

1040
0.0
  0
DIMENSION
  5
13B4
330
1F
100
AcDbEntity
  8
AM_5
100
AcDbDimension
  2
*D15
 10
24.24956341114077
 20
61.62868301865335
 30
0.0
 11
21.14956341114076
 21
49.37868301865336
 31
0.0
 70
    32
  1
<>
  3
AM_JIS
100
AcDbAlignedDimension
 13
0.0
 23
37.12868301865336
 33
0.0
 14
-1.849666715524818
 24
61.62868301865336
 34
0.0
 50
90.00000000000005
100
AcDbRotatedDimension
1001
GENIUS_GENDTOL_13
1000

1000
h7
1000

1040
0.0
  0
DIMENSION
  5
145A
330
1F
100
AcDbEntity
  8
AM_5
100
AcDbDimension
  2
*D16
 10
0.0
 20
37.12868301865336
 30
0.0
 11
13.58510643512281
 21
24.63657322307025
 31
0.0
 70
    34
  1
-<>
  3
AM_JIS$2
100
AcDb2LineAngularDimension
 13
0.0
 23
37.12868301865336
 33
0.0
 14
-1.116910577223123
 24
37.12868301865336
 34
0.0
 15
-15.26818068020253
 25
35.79289029647012
 35
0.0
 16
13.98348174766298
 26
37.94312808459231
 36
0.0
1001
ACAD
1000
DSTYLE
1002
{
1070
   179
1070
     3
1002
}
1001
GENIUS_GENDTOL_13
1000

1000
h7
1000

1040
0.0
  0
DIMENSION
  5
14AB
330
1F
100
AcDbEntity
  8
AM_5
100
AcDbDimension
  2
*D17
 10
41.77821503772356
 20
-15.26818068020253
 30
0.0
 11
56.7248960482995
 21
12.24201068399686
 31
0.0
 70
    34
  1
-<>
  3
AM_JIS$2
100
AcDb2LineAngularDimension
 13
43.11400775990683
 23
0.000000000000001
 33
0.0
 14
43.11400775990683
 24
-1.038100066472792
 34
0.0
 15
43.11400775990683
 25
0.000000000000001
 35
0.0
 16
43.51671808994967
 26
13.84025635682465
 36
0.0
1001
ACAD
1000
DSTYLE
1002
{
1070
   179
1070
     3
1002
}
1001
GENIUS_GENDTOL_13
1000

1000
h7
1000

1040
0.0
  0
TEXT
  5
14E2
330
1F
100
AcDbEntity
  8
AM_6
100
AcDbText
 10
-106.547619047619
 20
-54.50000000000007
 30
0.0
 40
5.0
  1
ETGNR2525M43W
 72
     4
 11
-75.00000000000001
 21
-52.00000000000007
 31
0.0
100
AcDbText
  0
CIRCLE
  5
1606
330
1F
100
AcDbEntity
  8
AM_0
100
AcDbCircle
 10
-10.41288197628807
 20
-6.350000000000036
 30
0.0
 40
2.5
  0
VIEWPORT
  5
110
330
101
100
AcDbEntity
 67
     1
  8
0
100
AcDbViewport
 10
420.4970397949218
 20
296.989501953125
 30
0.0
 40
889.7716070556642
 41
659.5415108616568
 68
     1
 69
     1
1001
ACAD
1000
MVIEW
1002
{
1070
    16
1010
0.0
1020
0.0
1030
0.0
1010
0.0
1020
0.0
1030
1.0
1040
0.0
1040
659.5415108616568
1040
420.4970397949218
1040
296.989501953125
1040
50.0
1040
0.0
1040
0.0
1070
     0
1070
   100
1070
     1
1070
     1
1070
     0
1070
     0
1070
     0
1070
     0
1040
0.0
1040
0.0
1040
0.0
1040
10.0
1040
10.0
1040
10.0
1040
10.0
1070
     0
1002
{
1002
}
1002
}
1001
GENIUS_GENOREF_13
1005
1654
1001
GENIUS_GENSCREG_15
1000
PF
1040
1.0
1000
DF
1040
1.0
1000
MIN
1011
-24.3887637329102
1021
-32.78125347770344
1031
0.0
1000
MAX
1011
865.3828433227541
1021
626.7602573839533
1031
0.0
1000
FLAGS
1070
     4
  0
ENDSEC
  0
SECTION
  2
OBJECTS
  0
DICTIONARY
  5
C
330
0
100
AcDbDictionary
  3
ACAD_GROUP
350
D
  3
ACAD_LAYOUT
350
1A
  3
ACAD_MLINESTYLE
350
17
  3
ACAD_PLOTSETTINGS
350
19
  3
ACAD_PLOTSTYLENAME
350
E
  3
ACDBVARIABLEDICTIONARY
350
34
  3
ACMDICTIONARY
350
43
  3
AMG
350
2B
  3
AMGSNAPSETTINGS
350
6E
  3
DWGPROPS
350
1651
  3
ACDBHEADERROUNDTRIPXREC
350
1667
  0
DICTIONARY
  5
74
330
1F
100
AcDbDictionary
280
     1
  3
ACAD_INDEX
360
165C
  3
ACAD_LAYOUTSELFREF
360
168A
  0
DICTIONARY
  5
168F
330
101
100
AcDbDictionary
280
     1
  3
ACAD_LAYOUTSELFREF
360
1690
  0
DICTIONARY
  5
D
102
{ACAD_REACTORS
330
C
102
}
330
C
100
AcDbDictionary
  0
DICTIONARY
  5
1A
102
{ACAD_REACTORS
330
C
102
}
330
C
100
AcDbDictionary
  0
DICTIONARY
  5
17
102
{ACAD_REACTORS
330
C
102
}
330
C
100
AcDbDictionary
  3
STANDARD
350
18
  0
DICTIONARY
  5
19
102
{ACAD_REACTORS
330
C
102
}
330
C
100
AcDbDictionary
  0
ACDBDICTIONARYWDFLT
  5
E
102
{ACAD_REACTORS
330
C
102
}
330
C
100
AcDbDictionary
281
     1
  3
Normal
350
F
100
AcDbDictionaryWithDefault
340
F
  0
DICTIONARY
  5
34
102
{ACAD_REACTORS
330
C
102
}
330
C
100
AcDbDictionary
  3
INDEXCTL
350
35
  3
SORTENTS
350
B5E
  0
DICTIONARY
  5
43
102
{ACAD_REACTORS
330
C
102
}
330
C
100
AcDbDictionary
  3
ACMSTDDICTIONARY
350
260
  0
DICTIONARY
  5
2B
102
{ACAD_REACTORS
330
C
102
}
330
C
100
AcDbDictionary
  3
ACMGSETTINGS
350
2C
  0
DICTIONARY
  5
6E
102
{ACAD_REACTORS
330
C
102
}
330
C
100
AcDbDictionary
  0
XRECORD
  5
1651
102
{ACAD_REACTORS
330
C
102
}
330
C
100
AcDbXrecord
  1
DWGPROPS COOKIE
  2

  3

  4

  6

  7

  8

  9

300
AmdtFileType=82
301
=
302
=
303
=
304
=
305
=
306
=
307
=
308
=
309
=
 40
0.0532365740740741
 41
2452902.606668287
 42
2453179.566855914
  1

 90
        1
  0
DICTIONARY
  5
1667
102
{ACAD_REACTORS
330
C
102
}
330
C
100
AcDbDictionary
  3
TSTACKALIGN
350
1668
  3
TSTACKSIZE
350
1669
  3
HYPERLINKBASE
350
166A
  3
STYLESHEET
350
166B
  3
LAYOUTDICT
350
166C
  3
PLOTSETDICT
350
166D
  3
PLOTSTYLNAMDICT
350
166E
  3
LWETCUNION
350
166F
  3
INSUNITS
350
1670
  3
CEPSNTYPE
350
1671
  3
FINGERPRINTGUID
350
1672
  3
VERSIONGUID
350
1673
  3
PSVPSCALE
350
1674
  3
DIMSTYLEDATA
350
1675
  3
PUCSORTHOREF
350
1676
  3
PUCSORTHOVIEW
350
1677
  3
PUCSBASE
350
1678
  3
PUCSORGTOP
350
1679
  3
PUCSORGBOTTOM
350
167A
  3
PUCSORGLEFT
350
167B
  3
PUCSORGRIGHT
350
167C
  3
PUCSORGFRONT
350
167D
  3
PUCSORGBACK
350
167E
  3
UCSORTHOREF
350
167F
  3
UCSORTHOVIEW
350
1680
  3
UCSBASE
350
1681
  3
UCSORGTOP
350
1682
  3
UCSORGBOTTOM
350
1683
  3
UCSORGLEFT
350
1684
  3
UCSORGRIGHT
350
1685
  3
UCSORGFRONT
350
1686
  3
UCSORGBACK
350
1687
  0
DICTIONARY
  5
165C
102
{ACAD_REACTORS
330
74
102
}
330
74
100
AcDbDictionary
  3
*A1
350
165D
  0
XRECORD
  5
168A
102
{ACAD_REACTORS
330
74
102
}
330
74
100
AcDbXrecord
340
1F
  0
XRECORD
  5
1690
102
{ACAD_REACTORS
330
168F
102
}
330
168F
100
AcDbXrecord
340
101
  0
MLINESTYLE
  5
18
102
{ACAD_REACTORS
330
17
102
}
330
17
100
AcDbMlineStyle
  2
STANDARD
 70
     0
  3

 62
   256
 51
90.0
 52
90.0
 71
     2
 49
0.5
 62
   256
  6
BYLAYER
 49
-0.5
 62
   256
  6
BYLAYER
  0
ACDBPLACEHOLDER
  5
F
102
{ACAD_REACTORS
330
E
102
}
330
E
100
AcDbPlaceHolder
280
     0
  0
DICTIONARYVAR
  5
35
102
{ACAD_REACTORS
330
34
102
}
330
34
100
DictionaryVariables
280
     0
  1
1
  0
DICTIONARYVAR
  5
B5E
102
{ACAD_REACTORS
330
34
102
}
330
34
100
DictionaryVariables
280
     0
  1
96
  0
DICTIONARY
  5
260
102
{ACAD_REACTORS
330
43
102
}
330
43
100
AcDbDictionary
  0
DICTIONARY
  5
2C
102
{ACAD_REACTORS
330
2B
102
}
330
2B
100
AcDbDictionary
  3
DWGSETTINGS
350
2D
  0
XRECORD
  5
1668
102
{ACAD_REACTORS
330
1667
102
}
330
1667
100
AcDbXrecord
 90
        1
  0
XRECORD
  5
1669
102
{ACAD_REACTORS
330
1667
102
}
330
1667
100
AcDbXrecord
 90
       70
  0
XRECORD
  5
166A
102
{ACAD_REACTORS
330
1667
102
}
330
1667
100
AcDbXrecord
  1

  0
XRECORD
  5
166B
102
{ACAD_REACTORS
330
1667
102
}
330
1667
100
AcDbXrecord
  1
ASAMI.ctb
  0
XRECORD
  5
166C
102
{ACAD_REACTORS
330
1667
102
}
330
1667
100
AcDbXrecord
340
1A
  0
XRECORD
  5
166D
102
{ACAD_REACTORS
330
1667
102
}
330
1667
100
AcDbXrecord
340
19
  0
XRECORD
  5
166E
102
{ACAD_REACTORS
330
1667
102
}
330
1667
100
AcDbXrecord
340
E
  0
XRECORD
  5
166F
102
{ACAD_REACTORS
330
1667
102
}
330
1667
100
AcDbXrecord
 90
    10781
  0
XRECORD
  5
1670
102
{ACAD_REACTORS
330
1667
102
}
330
1667
100
AcDbXrecord
 90
        4
  0
XRECORD
  5
1671
102
{ACAD_REACTORS
330
1667
102
}
330
1667
100
AcDbXrecord
 90
        0
  0
XRECORD
  5
1672
102
{ACAD_REACTORS
330
1667
102
}
330
1667
100
AcDbXrecord
  1
{AFB28963-8C59-40AE-9337-C84526B81ACE}
  0
XRECORD
  5
1673
102
{ACAD_REACTORS
330
1667
102
}
330
1667
100
AcDbXrecord
  1
{48EF6688-3A11-473A-BB04-CA49BE8713AD}
  0
XRECORD
  5
1674
102
{ACAD_REACTORS
330
1667
102
}
330
1667
100
AcDbXrecord
 40
0.0
  0
XRECORD
  5
1675
102
{ACAD_REACTORS
330
1667
102
}
330
1667
100
AcDbXrecord
1000
DSTYLE
1002
{
1070
    79
 70
     2
1070
   341
340
59
1070
   342
340
59
1070
   371
 70
    -1
1070
   372
 70
    -1
1002
}
  0
XRECORD
  5
1676
102
{ACAD_REACTORS
330
1667
102
}
330
1667
100
AcDbXrecord
340
0
  0
XRECORD
  5
1677
102
{ACAD_REACTORS
330
1667
102
}
330
1667
100
AcDbXrecord
 70
     0
  0
XRECORD
  5
1678
102
{ACAD_REACTORS
330
1667
102
}
330
1667
100
AcDbXrecord
340
0
  0
XRECORD
  5
1679
102
{ACAD_REACTORS
330
1667
102
}
330
1667
100
AcDbXrecord
 10
0.0
 20
0.0
 30
0.0
  0
XRECORD
  5
167A
102
{ACAD_REACTORS
330
1667
102
}
330
1667
100
AcDbXrecord
 10
0.0
 20
0.0
 30
0.0
  0
XRECORD
  5
167B
102
{ACAD_REACTORS
330
1667
102
}
330
1667
100
AcDbXrecord
 10
0.0
 20
0.0
 30
0.0
  0
XRECORD
  5
167C
102
{ACAD_REACTORS
330
1667
102
}
330
1667
100
AcDbXrecord
 10
0.0
 20
0.0
 30
0.0
  0
XRECORD
  5
167D
102
{ACAD_REACTORS
330
1667
102
}
330
1667
100
AcDbXrecord
 10
0.0
 20
0.0
 30
0.0
  0
XRECORD
  5
167E
102
{ACAD_REACTORS
330
1667
102
}
330
1667
100
AcDbXrecord
 10
0.0
 20
0.0
 30
0.0
  0
XRECORD
  5
167F
102
{ACAD_REACTORS
330
1667
102
}
330
1667
100
AcDbXrecord
340
0
  0
XRECORD
  5
1680
102
{ACAD_REACTORS
330
1667
102
}
330
1667
100
AcDbXrecord
 70
     0
  0
XRECORD
  5
1681
102
{ACAD_REACTORS
330
1667
102
}
330
1667
100
AcDbXrecord
340
0
  0
XRECORD
  5
1682
102
{ACAD_REACTORS
330
1667
102
}
330
1667
100
AcDbXrecord
 10
0.0
 20
0.0
 30
0.0
  0
XRECORD
  5
1683
102
{ACAD_REACTORS
330
1667
102
}
330
1667
100
AcDbXrecord
 10
0.0
 20
0.0
 30
0.0
  0
XRECORD
  5
1684
102
{ACAD_REACTORS
330
1667
102
}
330
1667
100
AcDbXrecord
 10
0.0
 20
0.0
 30
0.0
  0
XRECORD
  5
1685
102
{ACAD_REACTORS
330
1667
102
}
330
1667
100
AcDbXrecord
 10
0.0
 20
0.0
 30
0.0
  0
XRECORD
  5
1686
102
{ACAD_REACTORS
330
1667
102
}
330
1667
100
AcDbXrecord
 10
0.0
 20
0.0
 30
0.0
  0
XRECORD
  5
1687
102
{ACAD_REACTORS
330
1667
102
}
330
1667
100
AcDbXrecord
 10
0.0
 20
0.0
 30
0.0
  0
LAYER_INDEX
  5
165D
102
{ACAD_REACTORS
330
165C
102
}
330
165C
100
AcDbIndex
 40
2453180.39787037
100
AcDbLayerIndex
  8
0
360
165E
 90
        0
  8
AM_0
360
165F
 90
       55
  8
AM_5
360
1660
 90
        8
  8
AM_11
360
1661
 90
        4
  8
AM_7
360
1662
 90
        2
  8
AM_CL
360
1663
 90
        0
  8
Defpoints
360
1664
 90
        0
  8
AM_6
360
1665
 90
        1
  0
XRECORD
  5
2D
102
{ACAD_REACTORS
330
2C
102
}
330
2C
100
AcDbXrecord
  1
VERSION
140
15.0
  1
PRODUCT
  2
AutoCAD Mechanical 2000
  0
IDBUFFER
  5
165E
330
0
100
AcDbIdBuffer
  0
IDBUFFER
  5
165F
330
0
100
AcDbIdBuffer
330
F47
330
F54
330
F5D
330
F65
330
F69
330
F6F
330
1606
330
BD8
330
BD9
330
BE3
330
BEF
330
C61
330
C62
330
C66
330
C89
330
C95
330
CAD
330
CB3
330
CBA
330
CBB
330
CC3
330
CC4
330
CC5
330
CC6
330
CD2
330
CDE
330
CE5
330
CEA
330
D12
330
D14
330
D15
330
D17
330
D18
330
D19
330
D1A
330
D22
330
D2E
330
D32
330
D58
330
D67
330
D68
330
D69
330
D78
330
DA2
330
DA3
330
DA5
330
DA6
330
DA9
330
DAA
330
DC9
330
DD0
330
E53
330
F1D
330
F34
330
F45
  0
IDBUFFER
  5
1660
330
0
100
AcDbIdBuffer
330
104B
330
10D4
330
115F
330
125B
330
1328
330
13B4
330
145A
330
14AB
  0
IDBUFFER
  5
1661
330
0
100
AcDbIdBuffer
330
BDB
330
C57
330
D59
330
D5A
  0
IDBUFFER
  5
1662
330
0
100
AcDbIdBuffer
330
D16
330
DA4
  0
IDBUFFER
  5
1663
330
0
100
AcDbIdBuffer
  0
IDBUFFER
  5
1664
330
0
100
AcDbIdBuffer
  0
IDBUFFER
  5
1665
330
0
100
AcDbIdBuffer
330
14E2
  0
ENDSEC
  0
EOF
