  0
SECTION
  2
HEADER
  9
$ACADVER
  1
AC1015
  9
$ACADMAINTVER
 70
    20
  9
$DWGCODEPAGE
  3
ANSI_932
  9
$INSBASE
 10
0.0
 20
0.0
 30
0.0
  9
$EXTMIN
 10
-106.0588548616546
 20
-73.4105276336102
 30
0.0
  9
$EXTMAX
 10
164.9999999999899
 20
321.4614109088661
 30
0.0
  9
$LIMMIN
 10
-182.3026154271992
 20
-87.61372686921324
  9
$LIMMAX
 10
116.6546599627226
 20
77.78474225407491
  9
$ORTHOMODE
 70
     0
  9
$REGENMODE
 70
     1
  9
$FILLMODE
 70
     1
  9
$QTEXTMODE
 70
     0
  9
$MIRRTEXT
 70
     0
  9
$LTSCALE
 40
1.0
  9
$ATTMODE
 70
     1
  9
$TEXTSIZE
 40
2.5
  9
$TRACEWID
 40
1.0
  9
$TEXTSTYLE
  7
STANDARD
  9
$CLAYER
  8
AM_0
  9
$CELTYPE
  6
BYLAYER
  9
$CECOLOR
 62
   256
  9
$CELTSCALE
 40
1.0
  9
$DISPSILH
 70
     0
  9
$DIMSCALE
 40
0.5
  9
$DIMASZ
 40
2.5
  9
$DIMEXO
 40
1.0
  9
$DIMDLI
 40
12.0
  9
$DIMRND
 40
0.0
  9
$DIMDLE
 40
0.0
  9
$DIMEXE
 40
1.0
  9
$DIMTP
 40
0.1
  9
$DIMTM
 40
0.1
  9
$DIMTXT
 40
3.2
  9
$DIMCEN
 40
0.0
  9
$DIMTSZ
 40
0.0
  9
$DIMTOL
 70
     0
  9
$DIMLIM
 70
     0
  9
$DIMTIH
 70
     0
  9
$DIMTOH
 70
     0
  9
$DIMSE1
 70
     0
  9
$DIMSE2
 70
     0
  9
$DIMTAD
 70
     3
  9
$DIMZIN
 70
     8
  9
$DIMBLK
  1
OPEN30
  9
$DIMASO
 70
     1
  9
$DIMSHO
 70
     1
  9
$DIMPOST
  1

  9
$DIMAPOST
  1
"
  9
$DIMALT
 70
     0
  9
$DIMALTD
 70
     2
  9
$DIMALTF
 40
0.0393701
  9
$DIMLFAC
 40
1.0
  9
$DIMTOFL
 70
     1
  9
$DIMTVP
 40
0.0
  9
$DIMTIX
 70
     0
  9
$DIMSOXD
 70
     0
  9
$DIMSAH
 70
     0
  9
$DIMBLK1
  1

  9
$DIMBLK2
  1

  9
$DIMSTYLE
  2
AM_JIS
  9
$DIMCLRD
 70
   256
  9
$DIMCLRE
 70
   256
  9
$DIMCLRT
 70
     2
  9
$DIMTFAC
 40
0.71
  9
$DIMGAP
 40
1.5
  9
$DIMJUST
 70
     0
  9
$DIMSD1
 70
     0
  9
$DIMSD2
 70
     0
  9
$DIMTOLJ
 70
     0
  9
$DIMTZIN
 70
     0
  9
$DIMALTZ
 70
     0
  9
$DIMALTTZ
 70
     0
  9
$DIMUPT
 70
     0
  9
$DIMDEC
 70
     3
  9
$DIMTDEC
 70
     3
  9
$DIMALTU
 70
     2
  9
$DIMALTTD
 70
     2
  9
$DIMTXSTY
  7
ASAMI
  9
$DIMAUNIT
 70
     0
  9
$DIMADEC
 70
     0
  9
$DIMALTRND
 40
0.0
  9
$DIMAZIN
 70
     2
  9
$DIMDSEP
 70
    46
  9
$DIMATFIT
 70
     3
  9
$DIMFRAC
 70
     0
  9
$DIMLDRBLK
  1
OPEN30
  9
$DIMLUNIT
 70
     2
  9
$DIMLWD
 70
    -1
  9
$DIMLWE
 70
    -1
  9
$DIMTMOVE
 70
     0
  9
$LUNITS
 70
     2
  9
$LUPREC
 70
     2
  9
$SKETCHINC
 40
1.0
  9
$FILLETRAD
 40
0.4
  9
$AUNITS
 70
     0
  9
$AUPREC
 70
     0
  9
$MENU
  1
.
  9
$ELEVATION
 40
0.0
  9
$PELEVATION
 40
0.0
  9
$THICKNESS
 40
0.0
  9
$LIMCHECK
 70
     1
  9
$CHAMFERA
 40
1.0
  9
$CHAMFERB
 40
1.0
  9
$CHAMFERC
 40
20.0
  9
$CHAMFERD
 40
0.0
  9
$SKPOLY
 70
     0
  9
$TDCREATE
 40
2452802.716478762
  9
$TDUCREATE
 40
2452802.341478762
  9
$TDUPDATE
 40
2455610.654458542
  9
$TDUUPDATE
 40
2455610.279458542
  9
$TDINDWG
 40
0.8631394213
  9
$TDUSRTIMER
 40
0.8631394213
  9
$USRTIMER
 70
     1
  9
$ANGBASE
 50
0.0
  9
$ANGDIR
 70
     0
  9
$PDMODE
 70
     0
  9
$PDSIZE
 40
0.0
  9
$PLINEWID
 40
0.0
  9
$SPLFRAME
 70
     0
  9
$SPLINETYPE
 70
     6
  9
$SPLINESEGS
 70
     8
  9
$HANDSEED
  5
82AC
  9
$SURFTAB1
 70
     6
  9
$SURFTAB2
 70
     6
  9
$SURFTYPE
 70
     6
  9
$SURFU
 70
     6
  9
$SURFV
 70
     6
  9
$UCSBASE
  2

  9
$UCSNAME
  2

  9
$UCSORG
 10
-0.0000000000002682
 20
0.000000000000161
 30
0.0
  9
$UCSXDIR
 10
1.0
 20
0.000000000000002
 30
0.0
  9
$UCSYDIR
 10
-0.000000000000002
 20
1.0
 30
0.0
  9
$UCSORTHOREF
  2

  9
$UCSORTHOVIEW
 70
     0
  9
$UCSORGTOP
 10
0.0
 20
0.0
 30
0.0
  9
$UCSORGBOTTOM
 10
0.0
 20
0.0
 30
0.0
  9
$UCSORGLEFT
 10
0.0
 20
0.0
 30
0.0
  9
$UCSORGRIGHT
 10
0.0
 20
0.0
 30
0.0
  9
$UCSORGFRONT
 10
0.0
 20
0.0
 30
0.0
  9
$UCSORGBACK
 10
0.0
 20
0.0
 30
0.0
  9
$PUCSBASE
  2

  9
$PUCSNAME
  2

  9
$PUCSORG
 10
0.0
 20
0.0
 30
0.0
  9
$PUCSXDIR
 10
1.0
 20
0.0
 30
0.0
  9
$PUCSYDIR
 10
0.0
 20
1.0
 30
0.0
  9
$PUCSORTHOREF
  2

  9
$PUCSORTHOVIEW
 70
     0
  9
$PUCSORGTOP
 10
0.0
 20
0.0
 30
0.0
  9
$PUCSORGBOTTOM
 10
0.0
 20
0.0
 30
0.0
  9
$PUCSORGLEFT
 10
0.0
 20
0.0
 30
0.0
  9
$PUCSORGRIGHT
 10
0.0
 20
0.0
 30
0.0
  9
$PUCSORGFRONT
 10
0.0
 20
0.0
 30
0.0
  9
$PUCSORGBACK
 10
0.0
 20
0.0
 30
0.0
  9
$USERI1
 70
     0
  9
$USERI2
 70
     0
  9
$USERI3
 70
     0
  9
$USERI4
 70
     0
  9
$USERI5
 70
     0
  9
$USERR1
 40
0.0
  9
$USERR2
 40
0.0
  9
$USERR3
 40
0.0
  9
$USERR4
 40
0.0
  9
$USERR5
 40
0.0
  9
$WORLDVIEW
 70
     1
  9
$SHADEDGE
 70
     3
  9
$SHADEDIF
 70
    70
  9
$TILEMODE
 70
     1
  9
$MAXACTVP
 70
    64
  9
$PINSBASE
 10
0.0
 20
0.0
 30
0.0
  9
$PLIMCHECK
 70
     0
  9
$PEXTMIN
 10
1.000000000000000E+20
 20
1.000000000000000E+20
 30
1.000000000000000E+20
  9
$PEXTMAX
 10
-1.000000000000000E+20
 20
-1.000000000000000E+20
 30
-1.000000000000000E+20
  9
$PLIMMIN
 10
0.0
 20
0.0
  9
$PLIMMAX
 10
841.0
 20
594.0
  9
$UNITMODE
 70
     0
  9
$VISRETAIN
 70
     1
  9
$PLINEGEN
 70
     0
  9
$PSLTSCALE
 70
     0
  9
$TREEDEPTH
 70
  3020
  9
$CMLSTYLE
  2
STANDARD
  9
$CMLJUST
 70
     0
  9
$CMLSCALE
 40
20.0
  9
$PROXYGRAPHICS
 70
     1
  9
$MEASUREMENT
 70
     1
  9
$CELWEIGHT
370
    -1
  9
$ENDCAPS
280
     0
  9
$JOINSTYLE
280
     0
  9
$LWDISPLAY
290
     0
  9
$INSUNITS
 70
     4
  9
$HYPERLINKBASE
  1

  9
$STYLESHEET
  1
ASAMI.ctb
  9
$XEDIT
290
     1
  9
$CEPSNTYPE
380
     0
  9
$PSTYLEMODE
290
     1
  9
$FINGERPRINTGUID
  2
{AFB28963-8C59-40AE-9337-C84526B81ACE}
  9
$VERSIONGUID
  2
{17AFAFCE-53F0-4B47-87C5-99EA70E14A35}
  9
$EXTNAMES
290
     1
  9
$PSVPSCALE
 40
0.0
  9
$OLESTARTUP
290
     0
  0
ENDSEC
  0
SECTION
  2
CLASSES
  0
CLASS
  1
ACDBDICTIONARYWDFLT
  2
AcDbDictionaryWithDefault
  3
ObjectDBX Classes
 90
        0
280
     0
281
     0
  0
CLASS
  1
ACDBPLACEHOLDER
  2
AcDbPlaceHolder
  3
ObjectDBX Classes
 90
        0
280
     0
281
     0
  0
CLASS
  1
LAYOUT
  2
AcDbLayout
  3
ObjectDBX Classes
 90
        0
280
     0
281
     0
  0
CLASS
  1
AMGSETTINGSOBJ
  2
AmgSettingsObj
  3
"AcadM|Product Description: AutoCAD Mechanical 2000|Company: Autodesk"
 90
        0
280
     0
281
     0
  0
CLASS
  1
ACME_DOCUMENT
  2
AcMeDbDoc
  3
AcMeServices
 90
        0
280
     0
281
     0
  0
CLASS
  1
ACMESCOPE
  2
AcMeScope
  3
AcMeServices
 90
        0
280
     0
281
     0
  0
CLASS
  1
ACMECOMMANDHISTORY
  2
AcMeCommandHistory
  3
AcMeServices
 90
        0
280
     0
281
     0
  0
CLASS
  1
DICTIONARYVAR
  2
AcDbDictionaryVar
  3
ObjectDBX Classes
 90
        0
280
     0
281
     0
  0
CLASS
  1
ACIMSYSVARMAN
  2
AcImSysVarManager
  3
AcMeServices
 90
        0
280
     0
281
     0
  0
CLASS
  1
ACIMREALSYSVAR
  2
AcImRealSysVar
  3
AcMeServices
 90
        0
280
     0
281
     0
  0
CLASS
  1
ACIMINTSYSVAR
  2
AcImIntSysVar
  3
AcMeServices
 90
        0
280
     0
281
     0
  0
CLASS
  1
ACMEDRAWINGMAN
  2
AcMeDrawingMan
  3
AcMeServices
 90
        0
280
     0
281
     0
  0
CLASS
  1
ACMEVIEW
  2
AcMeView
  3
AcMeServices
 90
        0
280
     0
281
     0
  0
CLASS
  1
ACDBENTITYCACHE
  2
AcMeEntityCache
  3
AcMeServices
 90
        0
280
     0
281
     0
  0
CLASS
  1
GSMANAGER
  2
AcMeGSManager
  3
AcMeServices
 90
        0
280
     0
281
     0
  0
CLASS
  1
AMDTINTERNALREACTOR
  2
AmdtInternalReactor
  3
AcMeServices
 90
        0
280
     0
281
     0
  0
CLASS
  1
ACMESTATEMGR
  2
AcMeStateMgr
  3
AcMeServices
 90
        0
280
     0
281
     0
  0
CLASS
  1
ACME_DATABASE
  2
AcMeDbDatabase
  3
AcMeServices
 90
        0
280
     0
281
     0
  0
CLASS
  1
ACRFINSADJUSTERMGR
  2
AcRfInsAdjusterMgr
  3
AcMeServices
 90
        0
280
     0
281
     0
  0
CLASS
  1
ACMDATADICTIONARY
  2
AcmDataDictionary
  3
"AcmSymBB|Product Description: AutoCAD Mechanical 2004 DX|Company: Autodesk"
 90
        0
280
     0
281
     0
  0
CLASS
  1
ACMDATAENTRYBLOCK
  2
AcmDataEntryBlock
  3
"AcmSymBB|Product Description: AutoCAD Mechanical 2004 DX|Company: Autodesk"
 90
    32768
280
     0
281
     0
  0
CLASS
  1
AMGOBJPROPCFG
  2
AmgObjPropCfg
  3
"AmgLay|Product Description: AutoCAD Mechanical 2000|Company: Autodesk"
 90
        1
280
     0
281
     0
  0
CLASS
  1
ACAMGFILTERDAT
  2
AcAmgFilterDat
  3
"AcadM|Product Description: AutoCAD Mechanical 2000|Company: Autodesk"
 90
    32768
280
     0
281
     0
  0
CLASS
  1
LAYER_INDEX
  2
AcDbLayerIndex
  3
ObjectDBX Classes
 90
        0
280
     0
281
     0
  0
CLASS
  1
IDBUFFER
  2
AcDbIdBuffer
  3
ObjectDBX Classes
 90
        0
280
     0
281
     0
  0
CLASS
  1
ACIMSTRSYSVAR
  2
AcImStrSysVar
  3
AcMeServices
 90
        0
280
     0
281
     0
  0
CLASS
  1
ACMSTANDARDJIS
  2
AcmStandardJIS
  3
"Amdt_StdImp|Product Description: AutoCAD Mechanical 2004 DX|Company: Autodesk"
 90
    32768
280
     0
281
     0
  0
CLASS
  1
ACMSURFSTANDARDJIS
  2
AcmSurfTextStdJIS
  3
"Amdt_StdImp|Product Description: AutoCAD Mechanical 2004 DX|Company: Autodesk"
 90
    32768
280
     0
281
     0
  0
CLASS
  1
ACMFCFSTANDARDJIS
  2
AcmFCFStdJIS
  3
"Amdt_StdImp|Product Description: AutoCAD Mechanical 2004 DX|Company: Autodesk"
 90
    32768
280
     0
281
     0
  0
CLASS
  1
ACMWELDSTANDARDJIS
  2
AcmWeldingStdJIS
  3
"Amdt_StdImp|Product Description: AutoCAD Mechanical 2004 DX|Company: Autodesk"
 90
    32768
280
     0
281
     0
  0
CLASS
  1
ACMIDSTANDARDJIS
  2
AcmIdStdJIS
  3
"Amdt_StdImp|Product Description: AutoCAD Mechanical 2004 DX|Company: Autodesk"
 90
    32768
280
     0
281
     0
  0
CLASS
  1
ACMDATUMSTANDARDJIS
  2
AcmDatumStdJIS
  3
"Amdt_StdImp|Product Description: AutoCAD Mechanical 2004 DX|Company: Autodesk"
 90
    32768
280
     0
281
     0
  0
CLASS
  1
ACMBOMSTANDARDJIS
  2
AcmBOMStdJIS
  3
"Amdt_StdImp|Product Description: AutoCAD Mechanical 2004 DX|Company: Autodesk"
 90
    32768
280
     0
281
     0
  0
CLASS
  1
ACMSTANDARDANSI
  2
AcmStandardANSI
  3
"Amdt_StdImp|Product Description: AutoCAD Mechanical 2004 DX|Company: Autodesk"
 90
    32768
280
     0
281
     0
  0
CLASS
  1
ACMSURFSTANDARDANSI
  2
AcmSurfTextStdANSI
  3
"Amdt_StdImp|Product Description: AutoCAD Mechanical 2004 DX|Company: Autodesk"
 90
    32768
280
     0
281
     0
  0
CLASS
  1
ACMFCFSTANDARDANSI
  2
AcmFCFStdANSI
  3
"Amdt_StdImp|Product Description: AutoCAD Mechanical 2004 DX|Company: Autodesk"
 90
    32768
280
     0
281
     0
  0
CLASS
  1
ACMWELDSTANDARDANSI
  2
AcmWeldingStdANSI
  3
"Amdt_StdImp|Product Description: AutoCAD Mechanical 2004 DX|Company: Autodesk"
 90
    32768
280
     0
281
     0
  0
CLASS
  1
ACMIDSTANDARDANSI
  2
AcmIdStdANSI
  3
"Amdt_StdImp|Product Description: AutoCAD Mechanical 2004 DX|Company: Autodesk"
 90
    32768
280
     0
281
     0
  0
CLASS
  1
ACMDATUMSTANDARDANSI
  2
AcmDatumStdANSI
  3
"Amdt_StdImp|Product Description: AutoCAD Mechanical 2004 DX|Company: Autodesk"
 90
    32768
280
     0
281
     0
  0
CLASS
  1
ACMBOMSTANDARDANSI
  2
AcmBOMStdANSI
  3
"Amdt_StdImp|Product Description: AutoCAD Mechanical 2004 DX|Company: Autodesk"
 90
    32768
280
     0
281
     0
  0
CLASS
  1
ACMSTANDARDBSI
  2
AcmStandardBSI
  3
"Amdt_StdImp|Product Description: AutoCAD Mechanical 2004 DX|Company: Autodesk"
 90
    32768
280
     0
281
     0
  0
CLASS
  1
ACMSURFSTANDARDBSI
  2
AcmSurfTextStdBSI
  3
"Amdt_StdImp|Product Description: AutoCAD Mechanical 2004 DX|Company: Autodesk"
 90
    32768
280
     0
281
     0
  0
CLASS
  1
ACMFCFSTANDARDBSI
  2
AcmFCFStdBSI
  3
"Amdt_StdImp|Product Description: AutoCAD Mechanical 2004 DX|Company: Autodesk"
 90
    32768
280
     0
281
     0
  0
CLASS
  1
ACMWELDSTANDARDBSI
  2
AcmWeldingStdBSI
  3
"Amdt_StdImp|Product Description: AutoCAD Mechanical 2004 DX|Company: Autodesk"
 90
    32768
280
     0
281
     0
  0
CLASS
  1
ACMIDSTANDARDBSI
  2
AcmIdStdBSI
  3
"Amdt_StdImp|Product Description: AutoCAD Mechanical 2004 DX|Company: Autodesk"
 90
    32768
280
     0
281
     0
  0
CLASS
  1
ACMDATUMSTANDARDBSI
  2
AcmDatumStdBSI
  3
"Amdt_StdImp|Product Description: AutoCAD Mechanical 2004 DX|Company: Autodesk"
 90
    32768
280
     0
281
     0
  0
CLASS
  1
ACMBOMSTANDARDBSI
  2
AcmBOMStdBSI
  3
"Amdt_StdImp|Product Description: AutoCAD Mechanical 2004 DX|Company: Autodesk"
 90
    32768
280
     0
281
     0
  0
CLASS
  1
STDPART2D
  2
AmgStdPart
  3
"AmgStdPart|Product Description: AutoCAD Mechanical 2000|Company: Autodesk"
 90
    33791
280
     0
281
     1
  0
CLASS
  1
PLOTSETTINGS
  2
AcDbPlotSettings
  3
ObjectDBX Classes
 90
        0
280
     0
281
     0
  0
CLASS
  1
TABLESTYLE
  2
AcDbTableStyle
  3
ObjectDBX Classes
 90
     2047
280
     0
281
     0
  0
CLASS
  1
ACGREFMASTER
  2
AcGrefMaster
  3
AcAttribServices
 90
        0
280
     0
281
     0
  0
CLASS
  1
AM_DRAWING_MGR
  2
AcDmDwgMgr
  3
AcMechDwgViewMgmt
 90
        0
280
     0
281
     0
  0
CLASS
  1
AM_DWG_DOCUMENT
  2
AcDmDwgDocument
  3
AcMechDwgViewMgmt
 90
        0
280
     0
281
     0
  0
CLASS
  1
AM_DWG_SHEET
  2
AcDmSheet
  3
AcMechDwgViewMgmt
 90
        0
280
     0
281
     0
  0
CLASS
  1
AM_VIEWDIMPARMAP
  2
AcDmViewDimParMap
  3
AcMechDwgViewMgmt
 90
        0
280
     0
281
     0
  0
CLASS
  1
AM_DWGMGR_NAME
  2
AcDmDwgMgrName
  3
AcMechDwgViewMgmt
 90
        0
280
     0
281
     0
  0
CLASS
  1
ACGREFACADMASTER
  2
AcGrefacadMaster
  3
AcGrefServices
 90
        0
280
     0
281
     0
  0
CLASS
  1
AMDTMENUSTATEMGR
  2
AmdtMenuStateMgr
  3
McadcomServices
 90
        0
280
     0
281
     0
  0
CLASS
  1
AMDTMCOMMENUSTATE
  2
AmdtMcomMenuState
  3
McadcomServices
 90
        0
280
     0
281
     0
  0
CLASS
  1
AMIMASTER
  2
AmiMaster
  3
AmiServices
 90
        0
280
     0
281
     0
  0
CLASS
  1
MAPIAMMOUDLE
  2
MApiAmModule
  3
MApiAmServices
 90
        0
280
     0
281
     0
  0
CLASS
  1
AMDTADMENUSTATE
  2
AmdtAdMenuState
  3
DesignerServices
 90
        0
280
     0
281
     0
  0
CLASS
  1
ADAPPL
  2
AcAdAppl
  3
DesignerServices
 90
        0
280
     0
281
     0
  0
CLASS
  1
DEPMGR
  2
AcAdDepMgr
  3
DesignerServices
 90
        0
280
     0
281
     0
  0
CLASS
  1
PARAMMGR
  2
AcAdParamMgr
  3
DesignerServices
 90
        0
280
     0
281
     0
  0
CLASS
  1
PARAMSCOPE
  2
AcAdParamScope
  3
DesignerServices
 90
        0
280
     0
281
     0
  0
CLASS
  1
NAMEDAPPL
  2
AcAdNamedAppl
  3
DesignerServices
 90
        0
280
     0
281
     0
  0
CLASS
  1
AMDTDMMENUSTATE
  2
AmdtDmMenuState
  3
AcMechDwgViewMgmt
 90
        0
280
     0
281
     0
  0
CLASS
  1
AMDTAMMENUSTATE
  2
AmdtAmMenuState
  3
DesignerAssemblies
 90
        0
280
     0
281
     0
  0
CLASS
  1
ACAMPROJECT
  2
AcAmProject
  3
DesignerAssemblies
 90
        0
280
     0
281
     0
  0
CLASS
  1
ACAMGRCOMPDEF
  2
AcAmGrCompDef
  3
DesignerAssemblies
 90
        0
280
     0
281
     0
  0
CLASS
  1
ACCMCONTEXT
  2
AcCmContext
  3
DesignerAssemblies
 90
        0
280
     0
281
     0
  0
CLASS
  1
ACAMCOMPDEF
  2
AcAmCompDef
  3
DesignerAssemblies
 90
        0
280
     0
281
     0
  0
CLASS
  1
ACAMCOMPDEFMGR
  2
AcAmCompDefMgr
  3
DesignerAssemblies
 90
        0
280
     0
281
     0
  0
CLASS
  1
AMCONTEXTMGR
  2
AcAmContextMgr
  3
DesignerAssemblies
 90
        0
280
     0
281
     0
  0
CLASS
  1
ACAMCONTEXTMODELER
  2
AcAmContextModeler
  3
DesignerAssemblies
 90
        0
280
     0
281
     0
  0
CLASS
  1
CATALOGSTATE
  2
AcAmCatalogState
  3
DesignerAssemblies
 90
        0
280
     0
281
     0
  0
CLASS
  1
ACAMGRCOMPDEFSET
  2
AcAmGrCompDefSet
  3
DesignerAssemblies
 90
        0
280
     0
281
     0
  0
CLASS
  1
AMDTBROWSERDBTAB
  2
AmdtBrowserDbTab
  3
McadcomServices
 90
        0
280
     0
281
     0
  0
CLASS
  1
CBROWSERAPPOBJECT
  2
CBrowserAppObject
  3
McadcomServices
 90
        0
280
     0
281
     0
  0
CLASS
  1
DM_PLACEHOLDER
  2
AcDmSelsetPlaceholder
  3
AcMechDwgViewMgmt
 90
        0
280
     0
281
     0
  0
CLASS
  1
ACMSTANDARDISO
  2
AcmStandardISO
  3
"Amdt_StdImp|Product Description: AutoCAD Mechanical 2004 DX|Company: Autodesk"
 90
        0
280
     0
281
     0
  0
CLASS
  1
AMDTEDGESTANDARDISO13715
  2
AmdtEdgeStdISO13715
  3
"Amdt_StdImp|Product Description: AutoCAD Mechanical 2004 DX|Company: Autodesk"
 90
        0
280
     0
281
     0
  0
CLASS
  1
ACMSURFSTANDARDISO
  2
AcmSurfTextStdISO
  3
"Amdt_StdImp|Product Description: AutoCAD Mechanical 2004 DX|Company: Autodesk"
 90
        0
280
     0
281
     0
  0
CLASS
  1
ACMFCFSTANDARDISO
  2
AcmFCFStdISO
  3
"Amdt_StdImp|Product Description: AutoCAD Mechanical 2004 DX|Company: Autodesk"
 90
        0
280
     0
281
     0
  0
CLASS
  1
ACMWELDSTANDARDISO
  2
AcmWeldingStdISO
  3
"Amdt_StdImp|Product Description: AutoCAD Mechanical 2004 DX|Company: Autodesk"
 90
        0
280
     0
281
     0
  0
CLASS
  1
ACMIDSTANDARDISO
  2
AcmIdStdISO
  3
"Amdt_StdImp|Product Description: AutoCAD Mechanical 2004 DX|Company: Autodesk"
 90
        0
280
     0
281
     0
  0
CLASS
  1
ACMDATUMSTANDARDISO
  2
AcmDatumStdISO
  3
"Amdt_StdImp|Product Description: AutoCAD Mechanical 2004 DX|Company: Autodesk"
 90
        0
280
     0
281
     0
  0
CLASS
  1
ACMBOMSTANDARDISO
  2
AcmBOMStdISO
  3
"Amdt_StdImp|Product Description: AutoCAD Mechanical 2004 DX|Company: Autodesk"
 90
        0
280
     0
281
     0
  0
CLASS
  1
ACMDETAILSTANDARDISO
  2
AmdtDetailSymStdISO
  3
"Amdt_StdImp|Product Description: AutoCAD Mechanical 2004 DX|Company: Autodesk"
 90
        0
280
     0
281
     0
  0
CLASS
  1
ACMSECTIONSTANDARDISO
  2
AmdtSectionSymStdISO
  3
"Amdt_StdImp|Product Description: AutoCAD Mechanical 2004 DX|Company: Autodesk"
 90
        0
280
     0
281
     0
  0
CLASS
  1
ACMCENTERLINESTANDARDISO
  2
AmdtCenterLineStdISO
  3
"Amdt_StdImp|Product Description: AutoCAD Mechanical 2004 DX|Company: Autodesk"
 90
        0
280
     0
281
     0
  0
CLASS
  1
ACMTHREADLINESTANDARDISO
  2
AmdtThreadLineStdISO
  3
"Amdt_StdImp|Product Description: AutoCAD Mechanical 2004 DX|Company: Autodesk"
 90
        0
280
     0
281
     0
  0
CLASS
  1
ACMNOTESTANDARDISO
  2
AmdtNoteStdISO
  3
"Amdt_StdImp|Product Description: AutoCAD Mechanical 2004 DX|Company: Autodesk"
 90
        0
280
     0
281
     0
  0
CLASS
  1
AMDTNOTETEMPLATEDB
  2
AmdtNoteTemplateDB
  3
AMDT_STDIMP_MODULE_NAME
 90
        0
280
     0
281
     0
  0
CLASS
  1
ACAMGLAYSTD
  2
AcAmgLayStd
  3
"AcAmgLayStd|Product Description: AutoCAD Mechanical 2000|Company: Autodesk"
 90
        0
280
     0
281
     0
  0
CLASS
  1
ACAMGDIMSTD
  2
AcAmgDimStd
  3
"AcAmgDimStd|Product Description: AutoCAD Mechanical 2000|Company: Autodesk"
 90
        0
280
     0
281
     0
  0
CLASS
  1
ACAMGHOLECHARTSTDISO
  2
AcAmgHoleChartStdISO
  3
ACMSYMBB_MODULE_NAME
 90
        0
280
     0
281
     0
  0
CLASS
  1
ACAMGTITLESTD
  2
AcAmgTitleStd
  3
"TITLEAPP"
 90
        0
280
     0
281
     0
  0
ENDSEC
  0
SECTION
  2
TABLES
  0
TABLE
  2
VPORT
  5
8
330
0
100
AcDbSymbolTable
 70
     6
  0
VPORT
  5
82A1
330
8
100
AcDbSymbolTableRecord
100
AcDbViewportTableRecord
  2
*Active
 70
     0
 10
0.0
 20
0.0
 11
1.0
 21
1.0
 12
52.13584063091548
 22
-13.56969788774673
 13
0.0
 23
0.0
 14
2.5
 24
2.5
 15
10.0
 25
10.0
 16
0.0
 26
0.0
 36
1.0
 17
0.0
 27
0.0
 37
0.0
 40
153.1701114425796
 41
2.185851318944844
 42
50.0
 43
0.0
 44
0.0
 50
0.0
 51
0.0
 71
     0
 72
   100
 73
     1
 74
     3
 75
     0
 76
     0
 77
     0
 78
     0
281
     0
 65
     0
110
-0.0000000000002682
120
0.000000000000161
130
0.0
111
1.0
121
0.000000000000002
131
0.0
112
-0.000000000000002
122
1.0
132
0.0
 79
     0
146
0.0
  0
ENDTAB
  0
TABLE
  2
LTYPE
  5
5
330
0
100
AcDbSymbolTable
 70
    16
  0
LTYPE
  5
14
330
5
100
AcDbSymbolTableRecord
100
AcDbLinetypeTableRecord
  2
BYBLOCK
 70
     0
  3

 72
    65
 73
     0
 40
0.0
  0
LTYPE
  5
15
330
5
100
AcDbSymbolTableRecord
100
AcDbLinetypeTableRecord
  2
BYLAYER
 70
     0
  3

 72
    65
 73
     0
 40
0.0
  0
LTYPE
  5
16
330
5
100
AcDbSymbolTableRecord
100
AcDbLinetypeTableRecord
  2
CONTINUOUS
 70
     0
  3
Solid line
 72
    65
 73
     0
 40
0.0
  0
LTYPE
  5
4B
330
5
100
AcDbSymbolTableRecord
100
AcDbLinetypeTableRecord
  2
AM_ISO02W050
 70
     0
  3
__ __ __ __ __ __ __ __ __ __ __ __ __ __ __
 72
    65
 73
     2
 40
7.5
 49
6.0
 74
     0
 49
-1.5
 74
     0
  0
LTYPE
  5
4C
330
5
100
AcDbSymbolTableRecord
100
AcDbLinetypeTableRecord
  2
AM_ISO08W050
 70
     0
  3
____ . ____ . ____ . ____ . ____ . ____ . ____
 72
    65
 73
     4
 40
18.0
 49
12.0
 74
     0
 49
-1.5
 74
     0
 49
3.0
 74
     0
 49
-1.5
 74
     0
  0
LTYPE
  5
4D
330
5
100
AcDbSymbolTableRecord
100
AcDbLinetypeTableRecord
  2
AM_ISO09W050
 70
     0
  3
_____ . . _____ . . _____ . . ____ .. ____
 72
    65
 73
     6
 40
22.5
 49
12.0
 74
     0
 49
-1.5
 74
     0
 49
3.0
 74
     0
 49
-1.5
 74
     0
 49
3.0
 74
     0
 49
-1.5
 74
     0
  0
LTYPE
  5
4E
330
5
100
AcDbSymbolTableRecord
100
AcDbLinetypeTableRecord
  2
AMCONSTR
 70
     0
  3
_______________________
 72
    65
 73
     2
 40
9999.0
 49
9999.0
 74
     0
 49
0.0
 74
     0
  0
LTYPE
  5
4F
330
5
100
AcDbSymbolTableRecord
100
AcDbLinetypeTableRecord
  2
AM_ISO02W050X2
 70
     0
  3
 _ _ _ _ _ _ _ _ _ _ _ _
 72
    65
 73
     2
 40
3.75
 49
3.0
 74
     0
 49
-0.75
 74
     0
  0
LTYPE
  5
50
330
5
100
AcDbSymbolTableRecord
100
AcDbLinetypeTableRecord
  2
AM_ISO08W050X2
 70
     0
  3
__ . __ . __ . __ . __ . __
 72
    65
 73
     4
 40
9.0
 49
6.0
 74
     0
 49
-0.75
 74
     0
 49
1.5
 74
     0
 49
-0.75
 74
     0
  0
LTYPE
  5
53
330
5
100
AcDbSymbolTableRecord
100
AcDbLinetypeTableRecord
  2
AMZIGZAG
 70
     0
  3
/\/-/\/-/\/-/\/-/\/-/\/
 72
    65
 73
     2
 40
11.00009999999999
 49
0.0001
 74
     4
 75
   135
340
52
 46
0.04
 50
0.0
 44
0.0
 45
0.0
 49
-11.0
 74
     0
  0
LTYPE
  5
166
330
5
100
AcDbSymbolTableRecord
100
AcDbLinetypeTableRecord
  2
ACJISTGL
 70
     0
  3
_ _ _ _ _
 72
    65
 73
     2
 40
3.0
 49
2.0
 74
     0
 49
-1.0
 74
     0
  0
LTYPE
  5
26A
330
5
100
AcDbSymbolTableRecord
100
AcDbLinetypeTableRecord
  2
ACJISTGB
 70
     0
  3
__ . . __ . .
 72
    65
 73
     6
 40
9.0
 49
4.0
 74
     0
 49
-1.0
 74
     0
 49
1.0
 74
     0
 49
-1.0
 74
     0
 49
1.0
 74
     0
 49
-1.0
 74
     0
  0
LTYPE
  5
8133
330
5
100
AcDbSymbolTableRecord
100
AcDbLinetypeTableRecord
  2
HIDDEN
 70
     0
  3
Hidden __ __ __ __ __ __ __ __ __ __ __ __ __ _
 72
    65
 73
     2
 40
9.524999999999998
 49
6.349999999999999
 74
     0
 49
-3.174999999999999
 74
     0
  0
LTYPE
  5
8134
330
5
100
AcDbSymbolTableRecord
100
AcDbLinetypeTableRecord
  2
PHANTOM2
 70
     0
  3
Phantom (.5x) ___ _ _ ___ _ _ ___ _ _ ___ _ _
 72
    65
 73
     6
 40
31.75
 49
15.875
 74
     0
 49
-3.174999999999999
 74
     0
 49
3.174999999999999
 74
     0
 49
-3.174999999999999
 74
     0
 49
3.174999999999999
 74
     0
 49
-3.174999999999999
 74
     0
  0
LTYPE
  5
8135
330
5
100
AcDbSymbolTableRecord
100
AcDbLinetypeTableRecord
  2
CENTER
 70
     0
  3
Center ____ _ ____ _ ____ _ ____ _ ____ _ ____
 72
    65
 73
     4
 40
50.8
 49
31.75
 74
     0
 49
-6.349999999999999
 74
     0
 49
6.349999999999999
 74
     0
 49
-6.349999999999999
 74
     0
  0
LTYPE
  5
8175
330
5
100
AcDbSymbolTableRecord
100
AcDbLinetypeTableRecord
  2
ACISOWELD
 70
     0
  3
_ _ _ _ _
 72
    65
 73
     2
 40
2.0
 49
2.0
 74
     0
 49
-1.0
 74
     0
  0
LTYPE
  5
8176
330
5
100
AcDbSymbolTableRecord
100
AcDbLinetypeTableRecord
  2
ACISOTGB
 70
     0
  3
__ . . __ . .
 72
    65
 73
     6
 40
9.0
 49
4.0
 74
     0
 49
-1.0
 74
     0
 49
1.0
 74
     0
 49
-1.0
 74
     0
 49
1.0
 74
     0
 49
-1.0
 74
     0
  0
LTYPE
  5
8177
330
5
100
AcDbSymbolTableRecord
100
AcDbLinetypeTableRecord
  2
ACISOTGL
 70
     0
  3
_ _ _ _ _
 72
    65
 73
     2
 40
3.0
 49
2.0
 74
     0
 49
-1.0
 74
     0
  0
ENDTAB
  0
TABLE
  2
LAYER
  5
2
330
0
100
AcDbSymbolTable
 70
     7
  0
LAYER
  5
10
330
2
100
AcDbSymbolTableRecord
100
AcDbLayerTableRecord
  2
0
 70
     0
 62
     7
  6
CONTINUOUS
370
    -3
390
F
  0
LAYER
  5
3F9
330
2
100
AcDbSymbolTableRecord
100
AcDbLayerTableRecord
  2
AM_0
 70
     0
 62
     7
  6
CONTINUOUS
370
    -3
390
F
  0
LAYER
  5
BA4
330
2
100
AcDbSymbolTableRecord
100
AcDbLayerTableRecord
  2
AM_5
 70
     0
 62
     3
  6
CONTINUOUS
370
    -3
390
F
  0
LAYER
  5
BA6
330
2
100
AcDbSymbolTableRecord
100
AcDbLayerTableRecord
  2
AM_7
 70
     0
 62
     4
  6
AM_ISO08W050
370
    -3
390
F
  0
LAYER
  5
E64
330
2
100
AcDbSymbolTableRecord
100
AcDbLayerTableRecord
  2
AM_6
 70
     0
 62
     2
  6
CONTINUOUS
370
    -3
390
F
  0
LAYER
  5
F4D
330
2
100
AcDbSymbolTableRecord
100
AcDbLayerTableRecord
  2
DEFPOINTS
 70
     0
 62
     7
  6
CONTINUOUS
290
     0
370
    -3
390
F
  0
LAYER
  5
4E80
330
2
100
AcDbSymbolTableRecord
100
AcDbLayerTableRecord
  2
AM_11
 70
     0
 62
     3
  6
AM_ISO09W050
370
    -3
390
F
  0
ENDTAB
  0
TABLE
  2
STYLE
  5
3
330
0
100
AcDbSymbolTable
 70
     7
  0
STYLE
  5
11
330
3
100
AcDbSymbolTableRecord
100
AcDbTextStyleTableRecord
  2
STANDARD
 70
     0
 40
0.0
 41
1.0
 50
0.0
 71
     0
 42
2.5
  3
simplex.shx
  4
EXTFONT.SHX
  0
STYLE
  5
52
330
3
100
AcDbSymbolTableRecord
100
AcDbTextStyleTableRecord
  2

 70
     1
 40
0.0
 41
1.0
 50
0.0
 71
     0
 42
2.5
  3
ltypeshp.shx
  4

  0
STYLE
  5
6B
330
3
100
AcDbSymbolTableRecord
100
AcDbTextStyleTableRecord
  2
ASAMI
 70
     0
 40
0.0
 41
1.0
 50
0.0
 71
     0
 42
2.5
  3
simplex.shx
  4
EXTFONT.SHX
  0
STYLE
  5
262
330
3
100
AcDbSymbolTableRecord
100
AcDbTextStyleTableRecord
  2
ACJISTS
 70
     0
 40
1.0
 41
1.0
 50
0.0
 71
     0
 42
2.5
  3
simplex.shx
  4
bigfont.shx
  0
STYLE
  5
269
330
3
100
AcDbSymbolTableRecord
100
AcDbTextStyleTableRecord
  2
ACJISGDT
 70
     0
 40
0.0
 41
1.0
 50
0.0
 71
     0
 42
2.5
  3
amgdtans.shx
  4

  0
STYLE
  5
8167
330
3
100
AcDbSymbolTableRecord
100
AcDbTextStyleTableRecord
  2
ACISOTS
 70
     0
 40
1.0
 41
1.0
 50
0.0
 71
     0
 42
2.5
  3
isocp.shx
  4
extfont.shx
  0
STYLE
  5
8174
330
3
100
AcDbSymbolTableRecord
100
AcDbTextStyleTableRecord
  2
ACISOGDT
 70
     0
 40
0.0
 41
1.0
 50
0.0
 71
     0
 42
2.5
  3
amgdt.shx
  4

  0
ENDTAB
  0
TABLE
  2
VIEW
  5
6
330
0
100
AcDbSymbolTable
 70
     0
  0
ENDTAB
  0
TABLE
  2
UCS
  5
7
330
0
100
AcDbSymbolTable
 70
     0
  0
ENDTAB
  0
TABLE
  2
APPID
  5
9
330
0
100
AcDbSymbolTable
 70
    31
  0
APPID
  5
12
330
9
100
AcDbSymbolTableRecord
100
AcDbRegAppTableRecord
  2
ACAD
 70
     0
  0
APPID
  5
30
330
9
100
AcDbSymbolTableRecord
100
AcDbRegAppTableRecord
  2
MCAD_NO_VIS
 70
     0
  0
APPID
  5
31
330
9
100
AcDbSymbolTableRecord
100
AcDbRegAppTableRecord
  2
ACAD_TEMP_GRAPHIC
 70
     0
  0
APPID
  5
2C2
330
9
100
AcDbSymbolTableRecord
100
AcDbRegAppTableRecord
  2
GENIUS_GENDTOL_13
 70
     0
  0
APPID
  5
339
330
9
100
AcDbSymbolTableRecord
100
AcDbRegAppTableRecord
  2
GENIUS_GENODEF_13
 70
     0
  0
APPID
  5
33A
330
9
100
AcDbSymbolTableRecord
100
AcDbRegAppTableRecord
  2
GENIUS_GENOBJ-N-RSBK_13
 70
     0
  0
APPID
  5
33B
330
9
100
AcDbSymbolTableRecord
100
AcDbRegAppTableRecord
  2
GENIUS_GENOBJ-N-LIB_13
 70
     0
  0
APPID
  5
33C
330
9
100
AcDbSymbolTableRecord
100
AcDbRegAppTableRecord
  2
GENIUS_GENSCALE_13
 70
     0
  0
APPID
  5
378
330
9
100
AcDbSymbolTableRecord
100
AcDbRegAppTableRecord
  2
GENIUS_GENDIMSH_14
 70
     0
  0
APPID
  5
BB0
330
9
100
AcDbSymbolTableRecord
100
AcDbRegAppTableRecord
  2
GENIUS_GENOBJ-N-CEN_13
 70
     0
  0
APPID
  5
BB1
330
9
100
AcDbSymbolTableRecord
100
AcDbRegAppTableRecord
  2
GENIUS_GENFIL_13
 70
     0
  0
APPID
  5
BB2
330
9
100
AcDbSymbolTableRecord
100
AcDbRegAppTableRecord
  2
GENIUS_GENOBJ-N-CHA_13
 70
     0
  0
APPID
  5
1FAF
330
9
100
AcDbSymbolTableRecord
100
AcDbRegAppTableRecord
  2
GENIUS_GENOBJ-N-CRS_13
 70
     0
  0
APPID
  5
1FB0
330
9
100
AcDbSymbolTableRecord
100
AcDbRegAppTableRecord
  2
GENIUS_GENOENT_13
 70
     0
  0
APPID
  5
1FB1
330
9
100
AcDbSymbolTableRecord
100
AcDbRegAppTableRecord
  2
GENIUS_GENOREF_13
 70
     0
  0
APPID
  5
1FB2
330
9
100
AcDbSymbolTableRecord
100
AcDbRegAppTableRecord
  2
GENIUS_GENOLIS_13
 70
     0
  0
APPID
  5
1FB7
330
9
100
AcDbSymbolTableRecord
100
AcDbRegAppTableRecord
  2
GENIUS_GENOBJ-N-FIL_13
 70
     0
  0
APPID
  5
22A8
330
9
100
AcDbSymbolTableRecord
100
AcDbRegAppTableRecord
  2
GEVID1056506048
 70
     0
  0
APPID
  5
22A9
330
9
100
AcDbSymbolTableRecord
100
AcDbRegAppTableRecord
  2
GEVDC
 70
     0
  0
APPID
  5
22AC
330
9
100
AcDbSymbolTableRecord
100
AcDbRegAppTableRecord
  2
GENIUS_GENBH_13
 70
     0
  0
APPID
  5
22B8
330
9
100
AcDbSymbolTableRecord
100
AcDbRegAppTableRecord
  2
GENIUS_GENOBJ-NBEHI-BHF_13
 70
     0
  0
APPID
  5
22BA
330
9
100
AcDbSymbolTableRecord
100
AcDbRegAppTableRecord
  2
GENIUS_GENOBJ-NBEHI-BHB_13
 70
     0
  0
APPID
  5
35C9
330
9
100
AcDbSymbolTableRecord
100
AcDbRegAppTableRecord
  2
GENIUS_GENREC_14
 70
     0
  0
APPID
  5
35CA
330
9
100
AcDbSymbolTableRecord
100
AcDbRegAppTableRecord
  2
GENIUS_GENOBJ-N-REC_13
 70
     0
  0
APPID
  5
8137
330
9
100
AcDbSymbolTableRecord
100
AcDbRegAppTableRecord
  2
AD_DRAW
 70
     0
  0
APPID
  5
813A
330
9
100
AcDbSymbolTableRecord
100
AcDbRegAppTableRecord
  2
ACATTRIBSERVICES
 70
     0
  0
APPID
  5
8158
330
9
100
AcDbSymbolTableRecord
100
AcDbRegAppTableRecord
  2
DESIGNERASSEMBLIES
 70
     0
  0
APPID
  5
815D
330
9
100
AcDbSymbolTableRecord
100
AcDbRegAppTableRecord
  2
ACADM_DIM_EDIT
 70
     0
  0
APPID
  5
815E
330
9
100
AcDbSymbolTableRecord
100
AcDbRegAppTableRecord
  2
AMDT_DM_ADJ
 70
     0
  0
APPID
  5
818A
330
9
100
AcDbSymbolTableRecord
100
AcDbRegAppTableRecord
  2
GENIUS_GENSCREG_15
 70
     0
  0
APPID
  5
818B
330
9
100
AcDbSymbolTableRecord
100
AcDbRegAppTableRecord
  2
GENIUS_GENOBJ-N-SDF_13
 70
     0
  0
ENDTAB
  0
TABLE
  2
DIMSTYLE
  5
A
330
0
100
AcDbSymbolTable
 70
    16
100
AcDbDimStyleTable
 71
     0
  0
DIMSTYLE
105
58
330
A
100
AcDbSymbolTableRecord
100
AcDbDimStyleTableRecord
  2
AM_JIS
 70
     0
  4
"
 41
2.5
 42
1.0
 43
12.0
 44
1.0
 47
0.1
 48
0.1
 73
     0
 74
     0
 77
     3
 78
     8
140
3.2
141
0.0
143
0.0393701
146
0.71
147
1.5
172
     1
176
   256
177
   256
178
     2
271
     3
272
     3
283
     0
340
6B
341
59
342
59
  0
DIMSTYLE
105
5F
102
{ACAD_REACTORS
330
74D4
102
}
330
A
100
AcDbSymbolTableRecord
100
AcDbDimStyleTableRecord
  2
AM_JIS$3
 70
     0
  4
"
 41
2.5
 42
1.0
 43
10.0
 44
1.0
 47
0.1
 48
0.1
 73
     0
 77
     3
 78
     8
140
3.2
141
0.0
143
0.0393701
146
0.71
147
1.5
176
   256
177
   256
178
     2
271
     2
272
     3
283
     0
288
     1
340
6B
341
59
342
59
  0
DIMSTYLE
105
60
330
A
100
AcDbSymbolTableRecord
100
AcDbDimStyleTableRecord
  2
AM_JIS$4
 70
     0
  4
"
 41
2.5
 42
1.0
 43
10.0
 44
1.0
 47
0.1
 48
0.1
 73
     0
 77
     3
 78
     8
140
3.2
141
0.0
143
0.0393701
146
0.71
147
1.5
176
   256
177
   256
178
     2
271
     2
272
     3
283
     0
288
     1
340
6B
341
59
342
59
  0
DIMSTYLE
105
61
330
A
100
AcDbSymbolTableRecord
100
AcDbDimStyleTableRecord
  2
AM_JIS$6
 70
     0
  4
"
 41
2.5
 42
1.0
 43
10.0
 44
1.0
 47
0.1
 48
0.1
 73
     0
 74
     0
 78
     8
140
3.2
141
0.0
143
0.0393701
146
0.71
147
1.5
172
     1
176
   256
177
   256
178
     2
271
     2
272
     2
283
     0
340
6B
341
59
342
59
  0
DIMSTYLE
105
62
330
A
100
AcDbSymbolTableRecord
100
AcDbDimStyleTableRecord
  2
AM_JIS$7
 70
     0
  4
"
 41
2.5
 42
1.0
 43
10.0
 44
1.0
 47
0.1
 48
0.1
 73
     0
 74
     0
 77
     3
 78
     8
140
3.2
141
0.0
143
0.0393701
146
0.71
147
1.5
172
     1
176
   256
177
   256
178
     2
271
     2
272
     3
283
     0
340
6B
341
59
342
59
  0
DIMSTYLE
105
63
330
A
100
AcDbSymbolTableRecord
100
AcDbDimStyleTableRecord
  2
AM_JIS$SF
 70
     0
  4
"
 41
2.5
 42
1.0
 43
10.0
 44
1.0
 47
0.1
 48
0.1
 73
     0
 74
     0
 75
     1
 76
     1
 77
     3
 78
     8
140
3.2
141
0.0
143
0.0393701
146
0.71
147
1.5
172
     1
176
   256
177
   256
178
     2
271
     2
272
     2
283
     0
340
6B
341
59
342
59
  0
DIMSTYLE
105
68
330
A
100
AcDbSymbolTableRecord
100
AcDbDimStyleTableRecord
  2
AM_JIS$SH
 70
     0
  4
"
 41
2.5
 42
1.0
 43
10.0
 44
1.0
 47
0.1
 48
0.1
 73
     0
 74
     0
 75
     1
 76
     1
 77
     3
 78
     8
140
3.2
141
0.0
143
0.0393701
144
2.0
146
0.71
147
1.5
172
     1
173
     1
176
   256
177
   256
178
     2
271
     2
272
     2
283
     0
340
6B
341
64
343
64
344
59
  0
DIMSTYLE
105
B34
102
{ACAD_REACTORS
330
7513
330
76A4
330
7ADD
102
}
330
A
100
AcDbSymbolTableRecord
100
AcDbDimStyleTableRecord
  2
AM_JIS$2
 70
     0
  4
"
 41
2.5
 42
1.0
 43
12.0
 44
1.0
 47
0.1
 48
0.1
 73
     0
 74
     0
 77
     3
 78
     8
140
3.2
141
0.0
143
0.0393701
146
0.71
147
1.5
172
     1
176
   256
177
   256
178
     2
271
     3
272
     3
283
     0
340
6B
341
59
342
59
  0
DIMSTYLE
105
3B48
102
{ACAD_REACTORS
330
724A
330
72DA
330
7378
330
75EB
330
78B5
330
7C94
330
7D72
102
}
330
A
100
AcDbSymbolTableRecord
100
AcDbDimStyleTableRecord
  2
AM_JIS$0
 70
     0
  4
"
 41
2.5
 42
0.0
 43
10.0
 44
1.0
 47
0.1
 48
0.1000000001
 73
     0
 74
     0
 77
     3
 78
     1
140
3.799999999999998
141
0.0
143
0.0393701
146
0.71
147
1.5
172
     1
176
     3
177
     3
178
     2
271
     2
272
     2
275
     1
283
     0
284
     8
340
11
341
59
342
59
  0
DIMSTYLE
105
8181
330
A
100
AcDbSymbolTableRecord
100
AcDbDimStyleTableRecord
  2
AM_ISO
 70
     0
  4
"
 41
2.5
 42
1.0
 43
10.0
 44
1.0
 47
0.1
 48
0.1
 73
     0
 74
     0
 77
     1
 78
     8
 79
     2
140
3.5
141
0.0
143
0.0393701
146
0.71
147
1.5
172
     1
176
   256
177
   256
178
     2
271
     2
272
     3
274
     4
283
     0
284
     8
340
11
371
    -1
372
    -1
  0
DIMSTYLE
105
8182
330
A
100
AcDbSymbolTableRecord
100
AcDbDimStyleTableRecord
  2
AM_ISO$3
 70
     0
  4
"
 41
2.5
 42
1.0
 43
10.0
 44
1.0
 47
0.1
 48
0.1
 73
     0
 77
     1
 78
     8
 79
     2
140
3.5
141
0.0
143
0.0393701
146
0.71
147
1.5
176
   256
177
   256
178
     2
271
     2
272
     3
274
     4
283
     0
284
     8
288
     1
289
     0
340
11
371
    -1
372
    -1
  0
DIMSTYLE
105
8183
330
A
100
AcDbSymbolTableRecord
100
AcDbDimStyleTableRecord
  2
AM_ISO$4
 70
     0
  4
"
 41
2.5
 42
1.0
 43
10.0
 44
1.0
 47
0.1
 48
0.1
 73
     0
 77
     1
 78
     8
 79
     2
140
3.5
141
0.0
143
0.0393701
146
0.71
147
1.5
176
   256
177
   256
178
     2
271
     2
272
     3
274
     4
283
     0
284
     8
288
     1
289
     0
340
11
371
    -1
372
    -1
  0
DIMSTYLE
105
8184
330
A
100
AcDbSymbolTableRecord
100
AcDbDimStyleTableRecord
  2
AM_ISO$6
 70
     0
  4
"
 41
2.5
 42
1.0
 43
10.0
 44
1.0
 47
0.1
 48
0.1
 73
     0
 74
     0
 78
     8
 79
     2
140
3.5
141
0.0
143
0.0393701
146
0.71
147
1.5
172
     1
176
   256
177
   256
178
     2
271
     2
272
     3
274
     4
283
     0
284
     8
340
11
371
    -1
372
    -1
  0
DIMSTYLE
105
8185
330
A
100
AcDbSymbolTableRecord
100
AcDbDimStyleTableRecord
  2
AM_ISO$7
 70
     0
  4
"
 41
2.5
 42
1.0
 43
10.0
 44
1.0
 47
0.1
 48
0.1
 73
     0
 74
     0
 77
     1
 78
     8
 79
     2
140
5.0
141
0.0
143
0.0393701
146
0.71
147
1.5
172
     1
176
   256
177
   256
178
     2
271
     2
272
     3
274
     4
283
     0
284
     8
340
11
371
    -1
372
    -1
  0
DIMSTYLE
105
8186
330
A
100
AcDbSymbolTableRecord
100
AcDbDimStyleTableRecord
  2
AM_ISO$SF
 70
     0
  4
"
 41
2.5
 42
1.0
 43
10.0
 44
1.0
 47
0.1
 48
0.1
 73
     0
 74
     0
 75
     1
 76
     1
 77
     1
 78
     8
 79
     2
140
3.5
141
0.0
143
0.0393701
146
0.71
147
1.5
172
     1
176
   256
177
   256
178
     2
271
     2
272
     3
274
     4
283
     0
284
     8
340
11
371
    -1
372
    -1
  0
DIMSTYLE
105
8187
330
A
100
AcDbSymbolTableRecord
100
AcDbDimStyleTableRecord
  2
AM_ISO$SH
 70
     0
  4
"
 41
2.5
 42
1.0
 43
10.0
 44
1.0
 47
0.1
 48
0.1
 73
     0
 74
     0
 75
     1
 76
     1
 77
     1
 78
     8
 79
     2
140
3.5
141
0.0
143
0.0393701
144
2.0
146
0.71
147
1.5
172
     1
173
     1
176
   256
177
   256
178
     2
271
     2
272
     3
274
     4
283
     0
284
     8
340
11
343
64
371
    -1
372
    -1
  0
ENDTAB
  0
TABLE
  2
BLOCK_RECORD
  5
1
330
0
100
AcDbSymbolTable
 70
    14
  0
BLOCK_RECORD
  5
1F
102
{ACAD_XDICTIONARY
360
74
102
}
330
1
100
AcDbSymbolTableRecord
100
AcDbBlockTableRecord
  2
*MODEL_SPACE
340
8100
  0
BLOCK_RECORD
  5
101
102
{ACAD_XDICTIONARY
360
80A3
102
}
330
1
100
AcDbSymbolTableRecord
100
AcDbBlockTableRecord
  2
*PAPER_SPACE
340
8101
  0
BLOCK_RECORD
  5
59
330
1
100
AcDbSymbolTableRecord
100
AcDbBlockTableRecord
  2
_OPEN30
340
0
102
{BLKREFS
331
81F4
331
81F5
331
81FD
331
81FE
331
8206
331
8207
331
820E
331
8221
331
8222
331
8237
331
8238
331
824D
331
824E
331
8256
331
8257
331
827C
331
827D
331
8289
331
8296
331
8297
102
}
  0
BLOCK_RECORD
  5
64
330
1
100
AcDbSymbolTableRecord
100
AcDbBlockTableRecord
  2
GENAXEH
340
0
  0
BLOCK_RECORD
  5
724B
330
1
100
AcDbSymbolTableRecord
100
AcDbBlockTableRecord
  2
*D2
340
0
  0
BLOCK_RECORD
  5
72DB
330
1
100
AcDbSymbolTableRecord
100
AcDbBlockTableRecord
  2
*D3
340
0
  0
BLOCK_RECORD
  5
7379
330
1
100
AcDbSymbolTableRecord
100
AcDbBlockTableRecord
  2
*D4
340
0
  0
BLOCK_RECORD
  5
74D5
330
1
100
AcDbSymbolTableRecord
100
AcDbBlockTableRecord
  2
*D5
340
0
  0
BLOCK_RECORD
  5
7514
330
1
100
AcDbSymbolTableRecord
100
AcDbBlockTableRecord
  2
*D6
340
0
  0
BLOCK_RECORD
  5
75EC
330
1
100
AcDbSymbolTableRecord
100
AcDbBlockTableRecord
  2
*D7
340
0
  0
BLOCK_RECORD
  5
76A5
330
1
100
AcDbSymbolTableRecord
100
AcDbBlockTableRecord
  2
*D8
340
0
  0
BLOCK_RECORD
  5
78B6
330
1
100
AcDbSymbolTableRecord
100
AcDbBlockTableRecord
  2
*D9
340
0
  0
BLOCK_RECORD
  5
7ADE
330
1
100
AcDbSymbolTableRecord
100
AcDbBlockTableRecord
  2
*D10
340
0
  0
BLOCK_RECORD
  5
7C95
330
1
100
AcDbSymbolTableRecord
100
AcDbBlockTableRecord
  2
*D11
340
0
  0
BLOCK_RECORD
  5
7D73
330
1
100
AcDbSymbolTableRecord
100
AcDbBlockTableRecord
  2
*D12
340
0
  0
ENDTAB
  0
ENDSEC
  0
SECTION
  2
BLOCKS
  0
BLOCK
  5
20
330
1F
100
AcDbEntity
  8
0
100
AcDbBlockBegin
  2
*MODEL_SPACE
 70
     0
 10
0.0
 20
0.0
 30
0.0
  3
*MODEL_SPACE
  1

  0
ENDBLK
  5
21
330
1F
100
AcDbEntity
  8
0
100
AcDbBlockEnd
  0
BLOCK
  5
103
330
101
100
AcDbEntity
 67
     1
  8
0
100
AcDbBlockBegin
  2
*PAPER_SPACE
 70
     0
 10
0.0
 20
0.0
 30
0.0
  3
*PAPER_SPACE
  1

  0
ENDBLK
  5
104
330
101
100
AcDbEntity
 67
     1
  8
0
100
AcDbBlockEnd
  0
BLOCK
  5
5D
330
59
100
AcDbEntity
  8
0
100
AcDbBlockBegin
  2
_OPEN30
 70
     0
 10
0.0
 20
0.0
 30
0.0
  3
_OPEN30
  1

  0
LINE
  5
5A
330
59
100
AcDbEntity
  8
0
 62
     0
100
AcDbLine
 10
-1.0
 20
0.26794919
 30
0.0
 11
0.0
 21
0.0
 31
0.0
  0
LINE
  5
5B
330
59
100
AcDbEntity
  8
0
 62
     0
100
AcDbLine
 10
0.0
 20
0.0
 30
0.0
 11
-1.0
 21
-0.26794919
 31
0.0
  0
LINE
  5
5C
330
59
100
AcDbEntity
  8
0
 62
     0
100
AcDbLine
 10
0.0
 20
0.0
 30
0.0
 11
-1.0
 21
0.0
 31
0.0
  0
ENDBLK
  5
5E
330
59
100
AcDbEntity
  8
0
100
AcDbBlockEnd
  0
BLOCK
  5
66
330
64
100
AcDbEntity
  8
0
100
AcDbBlockBegin
  2
GENAXEH
 70
     0
 10
0.0
 20
0.0
 30
0.0
  3
GENAXEH
  1

  0
LINE
  5
65
330
64
100
AcDbEntity
  8
0
100
AcDbLine
 10
-1.0
 20
0.0
 30
0.0
 11
1.0
 21
0.0
 31
0.0
  0
ENDBLK
  5
67
330
64
100
AcDbEntity
  8
0
100
AcDbBlockEnd
  0
BLOCK
  5
7255
330
724B
100
AcDbEntity
  8
0
100
AcDbBlockBegin
  2
*D2
 70
     1
 10
0.0
 20
0.0
 30
0.0
  3
*D2
  1

  0
LINE
  5
81F1
330
724B
100
AcDbEntity
  8
AM_5
100
AcDbLine
 10
150.9999999999896
 20
-1.999999999998999
 30
0.0
 11
164.9999999999895
 21
-1.999999999998959
 31
0.0
  0
LINE
  5
81F2
330
724B
100
AcDbEntity
  8
AM_5
100
AcDbLine
 10
150.9999999999896
 20
23.00000381469797
 30
0.0
 11
164.9999999999895
 21
23.00000381469801
 31
0.0
  0
LINE
  5
81F3
330
724B
100
AcDbEntity
  8
AM_5
100
AcDbLine
 10
163.9999999999895
 20
0.5000000000010374
 30
0.0
 11
163.9999999999895
 21
20.50000381469801
 31
0.0
  0
INSERT
  5
81F4
330
724B
100
AcDbEntity
  8
AM_5
100
AcDbBlockReference
  2
_OPEN30
 10
163.9999999999895
 20
-1.999999999998962
 30
0.0
 41
2.5
 42
2.5
 43
2.5
 50
270.0000000000002
  0
INSERT
  5
81F5
330
724B
100
AcDbEntity
  8
AM_5
100
AcDbBlockReference
  2
_OPEN30
 10
163.9999999999895
 20
23.00000381469801
 30
0.0
 41
2.5
 42
2.5
 43
2.5
 50
90.00000000000015
  0
MTEXT
  5
81F6
330
724B
100
AcDbEntity
  8
AM_5
 62
     2
100
AcDbMText
 10
160.8999999999895
 20
10.50000190734951
 30
0.0
 40
3.2
 41
0.0
 71
     5
 72
     1
  1
25
  7
ASAMI
 11
-0.0000000000000028
 21
1.0
 31
0.0
 73
     1
 44
1.0
1001
ACAD
1000
MTEXTBEGIN
1070
    73
1070
     1
1070
    44
1040
1.0
1070
    74
1070
     0
1000
MTEXTEND
  0
POINT
  5
81F7
330
724B
100
AcDbEntity
  8
DEFPOINTS
 62
     0
100
AcDbPoint
 10
149.9999999999896
 20
-1.999999999999468
 30
0.0
  0
POINT
  5
81F8
330
724B
100
AcDbEntity
  8
DEFPOINTS
 62
     0
100
AcDbPoint
 10
149.9999999999896
 20
23.0000038146975
 30
0.0
  0
POINT
  5
81F9
330
724B
100
AcDbEntity
  8
DEFPOINTS
 62
     0
100
AcDbPoint
 10
163.9999999999895
 20
23.0000038146975
 30
0.0
  0
ENDBLK
  5
7256
330
724B
100
AcDbEntity
  8
0
100
AcDbBlockEnd
  0
BLOCK
  5
72E5
330
72DB
100
AcDbEntity
  8
0
100
AcDbBlockBegin
  2
*D3
 70
     1
 10
0.0
 20
0.0
 30
0.0
  3
*D3
  1

  0
LINE
  5
81FA
330
72DB
100
AcDbEntity
  8
AM_5
100
AcDbLine
 10
150.99999999999
 20
-53.63750126646917
 30
0.0
 11
164.9999999999899
 21
-53.63750126646912
 31
0.0
  0
LINE
  5
81FB
330
72DB
100
AcDbEntity
  8
AM_5
100
AcDbLine
 10
150.9999999999898
 20
-28.63749935912112
 30
0.0
 11
164.9999999999898
 21
-28.63749935912109
 31
0.0
  0
LINE
  5
81FC
330
72DB
100
AcDbEntity
  8
AM_5
100
AcDbLine
 10
163.9999999999899
 20
-51.13750126646912
 30
0.0
 11
163.9999999999898
 21
-31.13749935912109
 31
0.0
  0
INSERT
  5
81FD
330
72DB
100
AcDbEntity
  8
AM_5
100
AcDbBlockReference
  2
_OPEN30
 10
163.9999999999899
 20
-53.63750126646912
 30
0.0
 41
2.5
 42
2.5
 43
2.5
 50
270.0000000000002
  0
INSERT
  5
81FE
330
72DB
100
AcDbEntity
  8
AM_5
100
AcDbBlockReference
  2
_OPEN30
 10
163.9999999999898
 20
-28.63749935912109
 30
0.0
 41
2.5
 42
2.5
 43
2.5
 50
90.00000000000015
  0
MTEXT
  5
81FF
330
72DB
100
AcDbEntity
  8
AM_5
 62
     2
100
AcDbMText
 10
160.8999999999899
 20
-41.13750031279511
 30
0.0
 40
3.2
 41
0.0
 71
     5
 72
     1
  1
25
  7
ASAMI
 11
-0.0000000000000028
 21
1.0
 31
0.0
 73
     1
 44
1.0
1001
ACAD
1000
MTEXTBEGIN
1070
    73
1070
     1
1070
    44
1040
1.0
1070
    74
1070
     0
1000
MTEXTEND
  0
POINT
  5
8200
330
72DB
100
AcDbEntity
  8
DEFPOINTS
 62
     0
100
AcDbPoint
 10
149.9999999999898
 20
-53.63750126646964
 30
0.0
  0
POINT
  5
8201
330
72DB
100
AcDbEntity
  8
DEFPOINTS
 62
     0
100
AcDbPoint
 10
149.9999999999897
 20
-28.6374993591216
 30
0.0
  0
POINT
  5
8202
330
72DB
100
AcDbEntity
  8
DEFPOINTS
 62
     0
100
AcDbPoint
 10
163.9999999999897
 20
-28.6374993591216
 30
0.0
  0
ENDBLK
  5
72E6
330
72DB
100
AcDbEntity
  8
0
100
AcDbBlockEnd
  0
BLOCK
  5
7383
330
7379
100
AcDbEntity
  8
0
100
AcDbBlockBegin
  2
*D4
 70
     1
 10
0.0
 20
0.0
 30
0.0
  3
*D4
  1

  0
LINE
  5
8203
330
7379
100
AcDbEntity
  8
AM_5
100
AcDbLine
 10
-0.0000000000002648
 20
1.000000000000151
 30
0.0
 11
-0.00000000000019
 21
48.00000381469787
 31
0.0
  0
LINE
  5
8204
330
7379
100
AcDbEntity
  8
AM_5
100
AcDbLine
 10
149.9999999999895
 20
24.00000381469792
 30
0.0
 11
149.9999999999896
 21
48.00000381469764
 31
0.0
  0
LINE
  5
8205
330
7379
100
AcDbEntity
  8
AM_5
100
AcDbLine
 10
2.499999999999808
 20
47.00000381469786
 30
0.0
 11
147.4999999999896
 21
47.00000381469764
 31
0.0
  0
INSERT
  5
8206
330
7379
100
AcDbEntity
  8
AM_5
100
AcDbBlockReference
  2
_OPEN30
 10
-0.0000000000001915
 20
47.00000381469787
 30
0.0
 41
2.5
 42
2.5
 43
2.5
 50
179.9999999999998
  0
INSERT
  5
8207
330
7379
100
AcDbEntity
  8
AM_5
100
AcDbBlockReference
  2
_OPEN30
 10
149.9999999999896
 20
47.00000381469764
 30
0.0
 41
2.5
 42
2.5
 43
2.5
 50
359.9999999999999
  0
MTEXT
  5
8208
330
7379
100
AcDbEntity
  8
AM_5
 62
     2
100
AcDbMText
 10
74.99999999999473
 20
50.10000381469776
 30
0.0
 40
3.2
 41
0.0
 71
     5
 72
     1
  1
150
  7
ASAMI
 73
     1
 44
1.0
1001
ACAD
1000
MTEXTBEGIN
1070
    73
1070
     1
1070
    44
1040
1.0
1070
    74
1070
     0
1000
MTEXTEND
  0
POINT
  5
8209
330
7379
100
AcDbEntity
  8
DEFPOINTS
 62
     0
100
AcDbPoint
 10
-0.0000000000002664
 20
0.0000000000001515
 30
0.0
  0
POINT
  5
820A
330
7379
100
AcDbEntity
  8
DEFPOINTS
 62
     0
100
AcDbPoint
 10
149.9999999999896
 20
23.00000381469748
 30
0.0
  0
POINT
  5
820B
330
7379
100
AcDbEntity
  8
DEFPOINTS
 62
     0
100
AcDbPoint
 10
149.9999999999897
 20
47.00000381469719
 30
0.0
  0
ENDBLK
  5
7384
330
7379
100
AcDbEntity
  8
0
100
AcDbBlockEnd
  0
BLOCK
  5
74DC
330
74D5
100
AcDbEntity
  8
0
100
AcDbBlockBegin
  2
*D5
 70
     1
 10
0.0
 20
0.0
 30
0.0
  3
*D5
  1

  0
LINE
  5
820C
330
74D5
100
AcDbEntity
  8
AM_5
370
    -2
100
AcDbLine
 10
-93.277903958143
 20
21.81073303741344
 30
0.0
 11
-97.64944291313724
 21
4.363642388804887
 31
0.0
  0
MTEXT
  5
820D
330
74D5
100
AcDbEntity
  8
AM_5
 62
     2
100
AcDbMText
 10
-98.00132140750264
 20
15.71402683936692
 30
0.0
 40
3.2
 41
0.0
 71
     5
 72
     1
  1
%%c325
  7
ASAMI
 11
0.2430466327572217
 21
0.9700146052020951
 31
0.0
 73
     1
 44
1.0
1001
ACAD
1000
MTEXTBEGIN
1070
    73
1070
     1
1070
    44
1040
1.0
1070
    74
1070
     0
1000
MTEXTEND
  0
INSERT
  5
820E
330
74D5
100
AcDbEntity
  8
AM_5
370
    -2
100
AcDbBlockReference
  2
_OPEN30
 10
-98.25705949503031
 20
1.938605875799648
 30
0.0
 41
2.5
 42
2.5
 43
2.5
 50
255.9335748679725
  0
POINT
  5
820F
330
74D5
100
AcDbEntity
  8
DEFPOINTS
 62
     0
100
AcDbPoint
 10
-98.25705949503031
 20
1.938605875799865
 30
0.0
  0
POINT
  5
8210
330
74D5
100
AcDbEntity
  8
DEFPOINTS
 62
     0
100
AcDbPoint
 10
-18.19750014824055
 20
321.4614109088661
 30
0.0
  0
ENDBLK
  5
74DD
330
74D5
100
AcDbEntity
  8
0
100
AcDbBlockEnd
  0
BLOCK
  5
7522
330
7514
100
AcDbEntity
  8
0
100
AcDbBlockBegin
  2
*D6
 70
     1
 10
0.0
 20
0.0
 30
0.0
  3
*D6
  1

  0
LINE
  5
8291
330
7514
100
AcDbEntity
  8
AM_5
370
    -2
100
AcDbLine
 10
25.52740615740292
 20
20.85355430631758
 30
0.0
 11
32.24620638750643
 21
35.26206502815374
 31
0.0
  0
LINE
  5
8292
330
7514
100
AcDbEntity
  8
AM_5
370
    -2
100
AcDbLine
 10
20.00000190734867
 20
10.00000000000027
 30
0.0
 11
20.00000190734859
 21
37.97698368900416
 31
0.0
  0
ARC
  5
8293
330
7514
100
AcDbEntity
  8
AM_5
370
    -2
100
AcDbCircle
 10
20.00000190734867
 20
9.00000000000027
 30
0.0
 40
27.97698368900389
100
AcDbArc
 50
59.87838743378649
 51
64.99999563001901
  0
LINE
  5
8294
330
7514
100
AcDbEntity
  8
AM_5
370
    -2
100
AcDbLine
 10
34.03988874721212
 20
33.19903291163992
 30
0.0
 11
45.22838053982775
 21
26.7076512415275
 31
0.0
  0
ARC
  5
8295
330
7514
100
AcDbEntity
  8
AM_5
370
    -2
100
AcDbCircle
 10
20.00000190734867
 20
9.00000000000027
 30
0.0
 40
27.97698368900389
100
AcDbArc
 50
70.12160382625158
 51
84.87839180376763
  0
INSERT
  5
8296
330
7514
100
AcDbEntity
  8
AM_5
370
    -2
100
AcDbBlockReference
  2
_OPEN30
 10
31.82358805664114
 20
34.35575727335042
 30
0.0
 41
2.5
 42
2.5
 43
2.5
 50
337.5607997281353
  0
INSERT
  5
8297
330
7514
100
AcDbEntity
  8
AM_5
370
    -2
100
AcDbBlockReference
  2
_OPEN30
 10
20.00000190734859
 20
36.97698368900416
 30
0.0
 41
2.5
 42
2.5
 43
2.5
 50
177.4391959018839
  0
MTEXT
  5
8298
330
7514
100
AcDbEntity
  8
AM_5
 62
     2
100
AcDbMText
 10
41.18982948494359
 20
32.63472484679162
 30
0.0
 40
3.2
 41
0.0
 71
     5
 72
     1
  1
25°
  7
ASAMI
 11
0.8649621839380369
 21
-0.5018370456205296
 31
0.0
 73
     1
 44
1.0
1001
ACAD
1000
MTEXTBEGIN
1070
    73
1070
     1
1070
    44
1040
1.0
1070
    74
1070
     0
1000
MTEXTEND
  0
POINT
  5
8299
330
7514
100
AcDbEntity
  8
DEFPOINTS
 62
     0
100
AcDbPoint
 10
24.05475887496807
 20
36.68159248071439
 30
0.0
  0
POINT
  5
829A
330
7514
100
AcDbEntity
  8
DEFPOINTS
 62
     0
100
AcDbPoint
 10
20.00000190734871
 20
9.000000000000207
 30
0.0
  0
POINT
  5
829B
330
7514
100
AcDbEntity
  8
DEFPOINTS
 62
     0
100
AcDbPoint
 10
20.00000190734871
 20
9.000000000000207
 30
0.0
  0
POINT
  5
829C
330
7514
100
AcDbEntity
  8
DEFPOINTS
 62
     0
100
AcDbPoint
 10
20.00000190734871
 20
4.000000000000204
 30
0.0
  0
POINT
  5
829D
330
7514
100
AcDbEntity
  8
DEFPOINTS
 62
     0
100
AcDbPoint
 10
25.10478782653768
 20
19.94724655151419
 30
0.0
  0
ENDBLK
  5
7523
330
7514
100
AcDbEntity
  8
0
100
AcDbBlockEnd
  0
BLOCK
  5
75F6
330
75EC
100
AcDbEntity
  8
0
100
AcDbBlockBegin
  2
*D7
 70
     1
 10
0.0
 20
0.0
 30
0.0
  3
*D7
  1

  0
LINE
  5
821E
330
75EC
100
AcDbEntity
  8
AM_5
100
AcDbLine
 10
-0.000000000000271
 20
1.000000000000145
 30
0.0
 11
-0.0000000000004421
 21
38.0000038146972
 31
0.0
  0
LINE
  5
821F
330
75EC
100
AcDbEntity
  8
AM_5
100
AcDbLine
 10
20.00000190734867
 20
10.00000000000026
 30
0.0
 11
20.00000190734854
 21
38.00000381469729
 31
0.0
  0
LINE
  5
8220
330
75EC
100
AcDbEntity
  8
AM_5
100
AcDbLine
 10
2.499999999999562
 20
37.00000381469721
 30
0.0
 11
17.50000190734854
 21
37.00000381469728
 31
0.0
  0
INSERT
  5
8221
330
75EC
100
AcDbEntity
  8
AM_5
100
AcDbBlockReference
  2
_OPEN30
 10
-0.0000000000004375
 20
37.00000381469719
 30
0.0
 41
2.5
 42
2.5
 43
2.5
 50
180.0000000000002
  0
INSERT
  5
8222
330
75EC
100
AcDbEntity
  8
AM_5
100
AcDbBlockReference
  2
_OPEN30
 10
20.00000190734855
 20
37.00000381469729
 30
0.0
 41
2.5
 42
2.5
 43
2.5
 50
0.0000000000002544
  0
MTEXT
  5
8223
330
75EC
100
AcDbEntity
  8
AM_5
 62
     2
100
AcDbMText
 10
10.00000095367404
 20
40.10000381469724
 30
0.0
 40
3.2
 41
0.0
 71
     5
 72
     1
  1
20
  7
ASAMI
 73
     1
 44
1.0
1001
ACAD
1000
MTEXTBEGIN
1070
    73
1070
     1
1070
    44
1040
1.0
1070
    74
1070
     0
1000
MTEXTEND
  0
POINT
  5
8224
330
75EC
100
AcDbEntity
  8
DEFPOINTS
 62
     0
100
AcDbPoint
 10
-0.0000000000002664
 20
0.0000000000001455
 30
0.0
  0
POINT
  5
8225
330
75EC
100
AcDbEntity
  8
DEFPOINTS
 62
     0
100
AcDbPoint
 10
20.0000019073487
 20
9.000000000000206
 30
0.0
  0
POINT
  5
8226
330
75EC
100
AcDbEntity
  8
DEFPOINTS
 62
     0
100
AcDbPoint
 10
20.00000190734865
 20
37.00000381469723
 30
0.0
  0
ENDBLK
  5
75F7
330
75EC
100
AcDbEntity
  8
0
100
AcDbBlockEnd
  0
BLOCK
  5
76B5
330
76A5
100
AcDbEntity
  8
0
100
AcDbBlockBegin
  2
*D8
 70
     1
 10
0.0
 20
0.0
 30
0.0
  3
*D8
  1

  0
LINE
  5
8277
330
76A5
100
AcDbEntity
  8
AM_5
370
    -2
100
AcDbLine
 10
0.0000076877857325
 20
-29.68670074546062
 30
0.0
 11
0.0000076877863089
 21
-65.59179531022074
 31
0.0
  0
LINE
  5
8278
330
76A5
100
AcDbEntity
  8
AM_5
370
    -2
100
AcDbLine
 10
1.071415958114129
 20
-37.36343443598582
 30
0.0
 11
4.503596050028719
 21
-65.3163444996506
 31
0.0
  0
ARC
  5
8279
330
76A5
100
AcDbEntity
  8
AM_5
370
    -2
100
AcDbCircle
 10
0.0000076877857156
 20
-28.63749983467816
 30
0.0
 40
35.95429547554259
100
AcDbArc
 50
262.0305310852641
 51
266.0152655426326
  0
ARC
  5
827A
330
76A5
100
AcDbEntity
  8
AM_5
370
    -2
100
AcDbCircle
 10
0.0000076877857156
 20
-28.63749983467816
 30
0.0
 40
35.95429547554259
100
AcDbArc
 50
280.9847229551106
 51
284.969457412479
  0
ARC
  5
827B
330
76A5
100
AcDbEntity
  8
AM_5
370
    -2
100
AcDbCircle
 10
0.0000076877857156
 20
-28.63749983467816
 30
0.0
 40
35.95429547554259
100
AcDbArc
 50
270.0000000000009
 51
276.9999884977423
  0
INSERT
  5
827C
330
76A5
100
AcDbEntity
  8
AM_5
370
    -2
100
AcDbBlockReference
  2
_OPEN30
 10
0.0000076877862929
 20
-64.59179531022076
 30
0.0
 41
2.5
 42
2.5
 43
2.5
 50
358.0076327713168
  0
INSERT
  5
827D
330
76A5
100
AcDbEntity
  8
AM_5
370
    -2
100
AcDbBlockReference
  2
_OPEN30
 10
4.381726905879466
 20
-64.32379832354375
 30
0.0
 41
2.5
 42
2.5
 43
2.5
 50
188.9923557264264
  0
MTEXT
  5
827E
330
76A5
100
AcDbEntity
  8
AM_5
 62
     2
100
AcDbMText
 10
-2.480969030504924
 20
-60.46191391432728
 30
0.0
 40
3.2
 41
0.0
 71
     5
 72
     1
  1
7°
  7
ASAMI
 73
     1
 44
1.0
1001
ACAD
1000
MTEXTBEGIN
1070
    73
1070
     1
1070
    44
1040
1.0
1070
    74
1070
     0
1000
MTEXTEND
  0
POINT
  5
827F
330
76A5
100
AcDbEntity
  8
DEFPOINTS
 62
     0
100
AcDbPoint
 10
2.925196720306947
 20
-64.47260318693095
 30
0.0
  0
POINT
  5
8280
330
76A5
100
AcDbEntity
  8
DEFPOINTS
 62
     0
100
AcDbPoint
 10
0.9495468139647712
 20
-36.37088825987896
 30
0.0
  0
POINT
  5
8281
330
76A5
100
AcDbEntity
  8
DEFPOINTS
 62
     0
100
AcDbPoint
 10
0.0000076877856334
 20
-28.63749983467816
 30
0.0
  0
POINT
  5
8282
330
76A5
100
AcDbEntity
  8
DEFPOINTS
 62
     0
100
AcDbPoint
 10
0.0000076877856334
 20
-28.68670074546061
 30
0.0
  0
POINT
  5
8283
330
76A5
100
AcDbEntity
  8
DEFPOINTS
 62
     0
100
AcDbPoint
 10
0.0000076293947728
 20
-28.63749935912198
 30
0.0
  0
ENDBLK
  5
76B6
330
76A5
100
AcDbEntity
  8
0
100
AcDbBlockEnd
  0
BLOCK
  5
78C0
330
78B6
100
AcDbEntity
  8
0
100
AcDbBlockBegin
  2
*D9
 70
     1
 10
0.0
 20
0.0
 30
0.0
  3
*D9
  1

  0
LINE
  5
8234
330
78B6
100
AcDbEntity
  8
AM_5
100
AcDbLine
 10
0.1999969482419668
 20
-53.63750126646996
 30
0.0
 11
-14.99999231221385
 21
-53.63750126647
 31
0.0
  0
LINE
  5
8235
330
78B6
100
AcDbEntity
  8
AM_5
100
AcDbLine
 10
-0.9999961853031425
 20
-28.63749935912198
 30
0.0
 11
-14.99999231221392
 21
-28.63749935912202
 31
0.0
  0
LINE
  5
8236
330
78B6
100
AcDbEntity
  8
AM_5
100
AcDbLine
 10
-13.99999231221386
 20
-51.13750126647
 30
0.0
 11
-13.99999231221391
 21
-31.13749935912202
 31
0.0
  0
INSERT
  5
8237
330
78B6
100
AcDbEntity
  8
AM_5
100
AcDbBlockReference
  2
_OPEN30
 10
-13.99999231221385
 20
-53.63750126647
 30
0.0
 41
2.5
 42
2.5
 43
2.5
 50
270.0000000000002
  0
INSERT
  5
8238
330
78B6
100
AcDbEntity
  8
AM_5
100
AcDbBlockReference
  2
_OPEN30
 10
-13.99999231221392
 20
-28.63749935912202
 30
0.0
 41
2.5
 42
2.5
 43
2.5
 50
90.00000000000015
  0
MTEXT
  5
8239
330
78B6
100
AcDbEntity
  8
AM_5
 62
     2
100
AcDbMText
 10
-17.09999231221389
 20
-41.13750031279602
 30
0.0
 40
3.2
 41
0.0
 71
     5
 72
     1
  1
25
  7
ASAMI
 11
-0.0000000000000028
 21
1.0
 31
0.0
 73
     1
 44
1.0
1001
ACAD
1000
MTEXTBEGIN
1070
    73
1070
     1
1070
    44
1040
1.0
1070
    74
1070
     0
1000
MTEXTEND
  0
POINT
  5
823A
330
78B6
100
AcDbEntity
  8
DEFPOINTS
 62
     0
100
AcDbPoint
 10
1.1999969482418
 20
-53.63750126646996
 30
0.0
  0
POINT
  5
823B
330
78B6
100
AcDbEntity
  8
DEFPOINTS
 62
     0
100
AcDbPoint
 10
0.0000038146967684
 20
-28.63749935912198
 30
0.0
  0
POINT
  5
823C
330
78B6
100
AcDbEntity
  8
DEFPOINTS
 62
     0
100
AcDbPoint
 10
-13.99999231221401
 20
-28.63749935912198
 30
0.0
  0
ENDBLK
  5
78C1
330
78B6
100
AcDbEntity
  8
0
100
AcDbBlockEnd
  0
BLOCK
  5
7AEE
330
7ADE
100
AcDbEntity
  8
0
100
AcDbBlockBegin
  2
*D10
 70
     1
 10
0.0
 20
0.0
 30
0.0
  3
*D10
  1

  0
LINE
  5
8285
330
7ADE
100
AcDbEntity
  8
AM_5
370
    -2
100
AcDbLine
 10
-0.9925423162743012
 20
-28.51562984737191
 30
0.0
 11
-14.83154413600557
 21
-26.81641170299319
 31
0.0
  0
LINE
  5
8286
330
7ADE
100
AcDbEntity
  8
AM_5
370
    -2
100
AcDbLine
 10
-1.013992603707356
 20
-28.63749935912201
 30
0.0
 11
-14.94292678359243
 21
-28.63749935912231
 31
0.0
  0
ARC
  5
8287
330
7ADE
100
AcDbEntity
  8
AM_5
370
    -2
100
AcDbCircle
 10
0.0000038146968482
 20
-28.63749935912198
 30
0.0
 40
13.94293059828928
100
AcDbArc
 50
152.425833041243
 51
162.7129116616767
  0
ARC
  5
8288
330
7ADE
100
AcDbEntity
  8
AM_5
370
    -2
100
AcDbCircle
 10
0.0000038146968482
 20
-28.63749935912198
 30
0.0
 40
13.94293059828928
100
AcDbArc
 50
172.9999902821103
 51
180.0000000000013
  0
INSERT
  5
8289
330
7ADE
100
AcDbEntity
  8
AM_5
370
    -2
100
AcDbBlockReference
  2
_OPEN30
 10
-13.83899800503442
 20
-26.93828121474327
 30
0.0
 41
2.5
 42
2.5
 43
2.5
 50
257.8564509718935
  0
MTEXT
  5
828A
330
7ADE
100
AcDbEntity
  8
AM_5
 62
     2
100
AcDbMText
 10
-15.32532669978219
 20
-21.18124507160722
 30
0.0
 40
3.2
 41
0.0
 71
     5
 72
     1
  1
7°
  7
ASAMI
 11
0.4374983659361505
 21
0.8992192056463197
 31
0.0
 73
     1
 44
1.0
1001
ACAD
1000
MTEXTBEGIN
1070
    73
1070
     1
1070
    44
1040
1.0
1070
    74
1070
     0
1000
MTEXTEND
  0
POINT
  5
828B
330
7ADE
100
AcDbEntity
  8
DEFPOINTS
 62
     0
100
AcDbPoint
 10
-13.9313663650351
 20
-28.06983873516704
 30
0.0
  0
POINT
  5
828C
330
7ADE
100
AcDbEntity
  8
DEFPOINTS
 62
     0
100
AcDbPoint
 10
0.0000038146967665
 20
-28.63749935912198
 30
0.0
  0
POINT
  5
828D
330
7ADE
100
AcDbEntity
  8
DEFPOINTS
 62
     0
100
AcDbPoint
 10
5.138462066650747
 20
-29.26842358397496
 30
0.0
  0
POINT
  5
828E
330
7ADE
100
AcDbEntity
  8
DEFPOINTS
 62
     0
100
AcDbPoint
 10
0.0000038146967665
 20
-28.63749935912198
 30
0.0
  0
POINT
  5
828F
330
7ADE
100
AcDbEntity
  8
DEFPOINTS
 62
     0
100
AcDbPoint
 10
-0.0139926037074361
 20
-28.63749935912198
 30
0.0
  0
ENDBLK
  5
7AEF
330
7ADE
100
AcDbEntity
  8
0
100
AcDbBlockEnd
  0
BLOCK
  5
7CA0
330
7C95
100
AcDbEntity
  8
0
100
AcDbBlockBegin
  2
*D11
 70
     1
 10
0.0
 20
0.0
 30
0.0
  3
*D11
  1

  0
LINE
  5
8248
330
7C95
100
AcDbEntity
  8
AM_5
100
AcDbLine
 10
1.999999999999747
 20
-2.999999999999842
 30
0.0
 11
-15.00000000000025
 21
-2.99999999999989
 31
0.0
  0
LINE
  5
8249
330
7C95
100
AcDbEntity
  8
AM_5
100
AcDbLine
 10
2.104698481101972
 20
2.998172481371915
 30
0.0
 11
-15.00000000000027
 21
2.998172481371866
 31
0.0
  0
LINE
  5
824A
330
7C95
100
AcDbEntity
  8
AM_5
100
AcDbLine
 10
-14.00000000000024
 20
-5.499999999999888
 30
0.0
 11
-14.00000000000023
 21
-7.999999999999888
 31
0.0
  0
LINE
  5
824B
330
7C95
100
AcDbEntity
  8
AM_5
100
AcDbLine
 10
-14.00000000000027
 20
5.498172481371868
 30
0.0
 11
-14.00000000000028
 21
7.998172481371868
 31
0.0
  0
LINE
  5
824C
330
7C95
100
AcDbEntity
  8
AM_5
100
AcDbLine
 10
-14.00000000000025
 20
-2.999999999999887
 30
0.0
 11
-14.00000000000027
 21
2.998172481371869
 31
0.0
  0
INSERT
  5
824D
330
7C95
100
AcDbEntity
  8
AM_5
100
AcDbBlockReference
  2
_OPEN30
 10
-14.00000000000025
 20
-2.999999999999887
 30
0.0
 41
2.5
 42
2.5
 43
2.5
 50
90.00000000000017
  0
INSERT
  5
824E
330
7C95
100
AcDbEntity
  8
AM_5
100
AcDbBlockReference
  2
_OPEN30
 10
-14.00000000000027
 20
2.998172481371869
 30
0.0
 41
2.5
 42
2.5
 43
2.5
 50
270.0000000000002
  0
MTEXT
  5
824F
330
7C95
100
AcDbEntity
  8
AM_5
 62
     2
100
AcDbMText
 10
-17.10000000000025
 20
-0.000913759314017
 30
0.0
 40
3.2
 41
0.0
 71
     5
 72
     1
  1
6
  7
ASAMI
 11
-0.0000000000000028
 21
1.0
 31
0.0
 73
     1
 44
1.0
1001
ACAD
1000
MTEXTBEGIN
1070
    73
1070
     1
1070
    44
1040
1.0
1070
    74
1070
     0
1000
MTEXTEND
  0
POINT
  5
8250
330
7C95
100
AcDbEntity
  8
DEFPOINTS
 62
     0
100
AcDbPoint
 10
2.999999999999737
 20
-2.999999999999848
 30
0.0
  0
POINT
  5
8251
330
7C95
100
AcDbEntity
  8
DEFPOINTS
 62
     0
100
AcDbPoint
 10
3.104698481101981
 20
2.998172481371908
 30
0.0
  0
POINT
  5
8252
330
7C95
100
AcDbEntity
  8
DEFPOINTS
 62
     0
100
AcDbPoint
 10
-14.00000000000026
 20
2.998172481371913
 30
0.0
  0
ENDBLK
  5
7CA1
330
7C95
100
AcDbEntity
  8
0
100
AcDbBlockEnd
  0
BLOCK
  5
7D7D
330
7D73
100
AcDbEntity
  8
0
100
AcDbBlockBegin
  2
*D12
 70
     1
 10
0.0
 20
0.0
 30
0.0
  3
*D12
  1

  0
LINE
  5
8253
330
7D73
100
AcDbEntity
  8
AM_5
100
AcDbLine
 10
1.999999999999747
 20
-2.999999999999842
 30
0.0
 11
-25.00000000000032
 21
-2.999999999999918
 31
0.0
  0
LINE
  5
8254
330
7D73
100
AcDbEntity
  8
AM_5
100
AcDbLine
 10
29.39230728149359
 20
23.00000381469727
 30
0.0
 11
-25.00000000000039
 21
23.00000381469712
 31
0.0
  0
LINE
  5
8255
330
7D73
100
AcDbEntity
  8
AM_5
100
AcDbLine
 10
-24.00000000000033
 20
-0.4999999999999157
 30
0.0
 11
-24.00000000000039
 21
20.50000381469712
 31
0.0
  0
INSERT
  5
8256
330
7D73
100
AcDbEntity
  8
AM_5
100
AcDbBlockReference
  2
_OPEN30
 10
-24.00000000000032
 20
-2.999999999999915
 30
0.0
 41
2.5
 42
2.5
 43
2.5
 50
270.0000000000002
  0
INSERT
  5
8257
330
7D73
100
AcDbEntity
  8
AM_5
100
AcDbBlockReference
  2
_OPEN30
 10
-24.00000000000039
 20
23.00000381469712
 30
0.0
 41
2.5
 42
2.5
 43
2.5
 50
90.00000000000015
  0
MTEXT
  5
8258
330
7D73
100
AcDbEntity
  8
AM_5
 62
     2
100
AcDbMText
 10
-27.10000000000036
 20
10.00000190734859
 30
0.0
 40
3.2
 41
0.0
 71
     5
 72
     1
  1
26
  7
ASAMI
 11
-0.0000000000000028
 21
1.0
 31
0.0
 73
     1
 44
1.0
1001
ACAD
1000
MTEXTBEGIN
1070
    73
1070
     1
1070
    44
1040
1.0
1070
    74
1070
     0
1000
MTEXTEND
  0
POINT
  5
8259
330
7D73
100
AcDbEntity
  8
DEFPOINTS
 62
     0
100
AcDbPoint
 10
2.999999999999737
 20
-2.999999999999848
 30
0.0
  0
POINT
  5
825A
330
7D73
100
AcDbEntity
  8
DEFPOINTS
 62
     0
100
AcDbPoint
 10
30.39230728149366
 20
23.00000381469718
 30
0.0
  0
POINT
  5
825B
330
7D73
100
AcDbEntity
  8
DEFPOINTS
 62
     0
100
AcDbPoint
 10
-24.00000000000032
 20
23.0000038146972
 30
0.0
  0
ENDBLK
  5
7D7E
330
7D73
100
AcDbEntity
  8
0
100
AcDbBlockEnd
  0
ENDSEC
  0
SECTION
  2
ENTITIES
  0
TEXT
  5
388D
330
1F
100
AcDbEntity
  8
AM_6
100
AcDbText
 10
50.25170602188378
 20
-73.41052763361017
 30
0.0
 40
5.0
  1
GDER2525-600S
 51
359.9999999999998
 72
     4
 11
81.44218221235997
 21
-70.91052763361017
 31
0.0
100
AcDbText
  0
LINE
  5
6FE3
330
1F
100
AcDbEntity
  8
AM_0
100
AcDbLine
 10
39.50000095367381
 20
-28.6374993591219
 30
0.0
 11
149.9999999999897
 21
-28.63749935912162
 31
0.0
  0
LINE
  5
6FE4
330
1F
100
AcDbEntity
  8
AM_0
100
AcDbLine
 10
39.00000190734794
 20
23.00000381469721
 30
0.0
 11
149.9999999999896
 21
23.00000381469748
 31
0.0
  0
LINE
  5
6FE5
330
1F
100
AcDbEntity
  8
AM_0
100
AcDbLine
 10
38.99999809265082
 20
-1.999999999999767
 30
0.0
 11
149.9999999999896
 21
-1.999999999999497
 31
0.0
  0
LINE
  5
6FE6
330
1F
100
AcDbEntity
  8
AM_0
100
AcDbLine
 10
1.199996948241786
 20
-53.63750126646996
 30
0.0
 11
149.9999999999898
 21
-53.63750126646964
 31
0.0
  0
SPLINE
  5
6FEC
330
1F
100
AcDbEntity
  8
AM_0
100
AcDbSpline
210
0.0
220
0.0
230
1.0
 70
     8
 71
     3
 72
    11
 73
     7
 74
     5
 42
0.0000000001
 43
0.0000000001
 44
0.0000000001
 40
0.0
 40
0.0
 40
0.0
 40
0.0
 40
2.078118583279421
 40
4.079692874057485
 40
6.088969324575031
 40
8.10515761934849
 40
8.10515761934849
 40
8.10515761934849
 40
8.10515761934849
 10
22.72464561462378
 20
-31.42773487853096
 30
0.0
 10
22.88688021952838
 20
-32.11217812753709
 30
0.0
 10
23.20537376791406
 20
-33.45585421423113
 30
0.0
 10
22.70156642184685
 20
-35.4644580471518
 30
0.0
 10
22.30208871454638
 20
-37.42319983618698
 30
0.0
 10
21.95866180874826
 20
-38.72208521736453
 30
0.0
 10
21.7866535186768
 20
-39.37264302062092
 30
0.0
 11
22.72464561462378
 21
-31.42773487853096
 31
0.0
 11
23.04112434387177
 21
-33.481613662711
 31
0.0
 11
22.71864509582475
 21
-35.45703938292493
 31
0.0
 11
22.28345870971678
 21
-37.41862156676293
 31
0.0
 11
21.7866535186768
 21
-39.37264302062092
 31
0.0
  0
SPLINE
  5
6FED
330
1F
100
AcDbEntity
  8
AM_0
100
AcDbSpline
210
0.0
220
0.0
230
1.0
 70
     8
 71
     3
 72
    11
 73
     7
 74
     5
 42
0.0000000001
 43
0.0000000001
 44
0.0000000001
 40
0.0
 40
0.0
 40
0.0
 40
0.0
 40
2.078117103994874
 40
4.079689872775228
 40
6.088968768664678
 40
8.105157029103121
 40
8.105157029103121
 40
8.105157029103121
 40
8.105157029103121
 10
3.081562042235773
 20
-29.01586773680696
 30
0.0
 10
2.758564956433472
 20
-29.64073163385417
 30
0.0
 10
2.124467899366563
 20
-30.86744350093125
 30
0.0
 10
2.127387427443391
 20
-32.93826516646672
 30
0.0
 10
2.041133254873457
 20
-34.935466540318
 30
0.0
 10
2.060130168093457
 20
-36.27885278269503
 30
0.0
 10
2.069644927978784
 20
-36.95169880675397
 30
0.0
 11
3.081562042235773
 21
-29.01586773680696
 31
0.0
 11
2.277606964110801
 21
-30.93217327879996
 31
0.0
 11
2.11260986328078
 21
-32.92693379210496
 31
0.0
 11
2.060317993163763
 21
-34.93553211974201
 31
0.0
 11
2.069644927978784
 21
-36.95169880675397
 31
0.0
  0
SPLINE
  5
6FEE
330
1F
100
AcDbEntity
  8
AM_0
100
AcDbSpline
210
0.0
220
0.0
230
1.0
 70
     8
 71
     3
 72
     9
 73
     5
 74
     3
 42
0.0000000001
 43
0.0000000001
 44
0.0000000001
 40
0.0
 40
0.0
 40
0.0
 40
0.0
 40
5.297300302573884
 40
10.07817228614978
 40
10.07817228614978
 40
10.07817228614978
 40
10.07817228614978
 10
2.381896972655779
 20
-43.63750126646996
 30
0.0
 10
2.047582928672364
 20
-45.37457908936602
 30
0.0
 10
1.411546770535884
 20
-48.67938881765162
 30
0.0
 10
1.298251648118309
 20
-52.04223709821724
 30
0.0
 10
1.244506835937794
 20
-53.63750126646997
 30
0.0
 11
2.381896972655779
 21
-43.63750126646996
 31
0.0
 11
1.523376464843789
 21
-48.864769485465
 31
0.0
 11
1.244506835937794
 21
-53.63750126646997
 31
0.0
  0
SPLINE
  5
6FEF
330
1F
100
AcDbEntity
  8
AM_0
100
AcDbSpline
210
0.0
220
0.0
230
1.0
 70
     8
 71
     3
 72
     9
 73
     5
 74
     3
 42
0.0000000001
 43
0.0000000001
 44
0.0000000001
 40
0.0
 40
0.0
 40
0.0
 40
0.0
 40
1.517733477379031
 40
2.202061706345106
 40
2.202061706345106
 40
2.202061706345106
 40
2.202061706345106
 10
2.381896972655779
 20
-43.63750126646996
 30
0.0
 10
2.446772146978031
 20
-43.11570907930302
 30
0.0
 10
2.540898776716869
 20
-42.3586469131481
 30
0.0
 10
3.04373272388437
 20
-41.80847619857478
 30
0.0
 10
3.199996948241774
 20
-41.63750126646996
 30
0.0
 11
2.381896972655779
 21
-43.63750126646996
 31
0.0
 11
2.770675659179785
 21
-42.17040684508403
 31
0.0
 11
3.199996948241774
 21
-41.63750126646996
 31
0.0
  0
LINE
  5
6FF6
330
1F
100
AcDbEntity
  8
AM_0
100
AcDbLine
 10
1.199996948241788
 20
-36.70555165099201
 30
0.0
 11
1.199996948241786
 21
-53.63750126646996
 31
0.0
  0
LINE
  5
6FFB
330
1F
100
AcDbEntity
  8
AM_0
100
AcDbLine
 10
20.0000019073488
 20
-41.63750126646996
 30
0.0
 11
20.0000019073488
 21
-53.63750126646996
 31
0.0
  0
LINE
  5
7005
330
1F
100
AcDbEntity
  8
AM_0
100
AcDbLine
 10
3.199996948241787
 20
-41.63750126646996
 30
0.0
 11
20.0000019073488
 21
-41.63750126646996
 31
0.0
  0
LINE
  5
7006
330
1F
100
AcDbEntity
  8
AM_0
100
AcDbLine
 10
7.499999999999772
 20
-28.60968449400897
 30
0.0
 11
15.86766052246071
 21
-18.63749554442494
 31
0.0
  0
LINE
  5
7007
330
1F
100
AcDbEntity
  8
AM_0
100
AcDbLine
 10
4.850971221923771
 20
-28.72936871337
 30
0.0
 11
21.07710647582979
 21
-30.72168782042492
 31
0.0
  0
LINE
  5
7008
330
1F
100
AcDbEntity
  8
AM_0
100
AcDbLine
 10
1.200000762939793
 20
-36.84491780089401
 30
0.0
 11
22.20213317871076
 21
-39.42365696715389
 31
0.0
  0
LINE
  5
7009
330
1F
100
AcDbEntity
  8
AM_0
100
AcDbLine
 10
6.906593322753735
 20
-28.98176815794997
 30
0.0
 11
5.87070465087879
 21
-37.41840794371696
 31
0.0
  0
LINE
  5
700A
330
1F
100
AcDbEntity
  8
AM_0
100
AcDbLine
 10
5.700592041015794
 20
-37.39752629088391
 30
0.0
 11
6.016212463378735
 21
-28.872444656363
 31
0.0
  0
LINE
  5
700B
330
1F
100
AcDbEntity
  8
AM_0
100
AcDbLine
 10
0.949546813964786
 20
-36.37088825987896
 30
0.0
 11
0.0000076293947587
 21
-28.63749935912198
 31
0.0
  0
LINE
  5
700C
330
1F
100
AcDbEntity
  8
AM_0
100
AcDbLine
 10
3.199996948241787
 20
-37.090492752066
 30
0.0
 11
3.199996948241787
 21
-41.63750126646996
 31
0.0
  0
ARC
  5
700D
330
1F
100
AcDbEntity
  8
AM_0
100
AcDbCircle
 10
1.761798858642803
 20
-36.02407124327705
 30
0.0
 40
0.8831947445868999
100
AcDbArc
 50
203.1213601240728
 51
263.0000029925527
  0
LINE
  5
700E
330
1F
100
AcDbEntity
  8
AM_0
100
AcDbLine
 10
1.199996948241788
 20
-36.466976669302
 30
0.0
 11
1.199996948241788
 21
-36.70555165099201
 31
0.0
  0
LINE
  5
700F
330
1F
100
AcDbEntity
  8
AM_0
100
AcDbLine
 10
4.850959777831747
 20
-28.72937062071795
 30
0.0
 11
4.27547454833973
 21
-29.162464645377
 31
0.0
  0
LINE
  5
7010
330
1F
100
AcDbEntity
  8
AM_0
100
AcDbLine
 10
5.718448638915732
 20
-28.835876968375
 30
0.0
 11
5.13846969604475
 21
-29.26841786192895
 31
0.0
  0
LINE
  5
7011
330
1F
100
AcDbEntity
  8
AM_0
100
AcDbLine
 10
5.138462066650731
 20
-29.26842358397496
 30
0.0
 11
0.0000038146967541
 21
-28.63749935912198
 31
0.0
  0
LINE
  5
7012
330
1F
100
AcDbEntity
  8
AM_0
100
AcDbLine
 10
7.499999999999772
 20
-28.60969021605498
 30
0.0
 11
7.499999999999772
 21
-29.05462887572298
 31
0.0
  0
LINE
  5
7018
330
1F
100
AcDbEntity
  8
AM_0
100
AcDbLine
 10
39.00000095367375
 20
-19.1375012664699
 30
0.0
 11
39.00000095367374
 21
-30.63749935912189
 31
0.0
  0
LINE
  5
7019
330
1F
100
AcDbEntity
  8
AM_0
100
AcDbLine
 10
39.50000095367375
 20
-19.1375012664699
 30
0.0
 11
39.50000095367374
 21
-30.63749935912189
 31
0.0
  0
LINE
  5
701D
330
1F
100
AcDbEntity
  8
AM_0
100
AcDbLine
 10
28.1458320617678
 20
-30.63749935912201
 30
0.0
 11
44.37298727035464
 21
-30.6374993591219
 31
0.0
  0
LINE
  5
701E
330
1F
100
AcDbEntity
  8
AM_0
100
AcDbLine
 10
18.45395088195778
 20
-30.1374993591219
 30
0.0
 11
33.50000095367375
 21
-30.1374993591219
 31
0.0
  0
LINE
  5
701F
330
1F
100
AcDbEntity
  8
AM_0
100
AcDbLine
 10
18.15570449829079
 20
-38.92681935118698
 30
0.0
 11
19.91186141967778
 21
-30.57861569212993
 31
0.0
  0
LINE
  5
7020
330
1F
100
AcDbEntity
  8
AM_0
100
AcDbLine
 10
19.02148437499977
 20
-30.46928837584496
 30
0.0
 11
17.98559379577676
 21
-38.90593006896089
 31
0.0
  0
LINE
  5
7021
330
1F
100
AcDbEntity
  8
AM_0
100
AcDbLine
 10
22.94231796264676
 20
-39.26677754210496
 30
0.0
 11
25.78739356994577
 21
-31.85510494994198
 31
0.0
  0
ARC
  5
7022
330
1F
100
AcDbEntity
  8
AM_0
100
AcDbCircle
 10
22.30976867675775
 20
-38.54704716490791
 30
0.0
 40
0.8831947445868999
100
AcDbArc
 50
263.0000029925527
 51
322.8786424459407
  0
ARC
  5
7023
330
1F
100
AcDbEntity
  8
AM_0
100
AcDbCircle
 10
20.14157295227073
 20
-38.1916737823399
 30
0.0
 40
3.0
100
AcDbArc
 50
191.8986216573115
 51
338.999999415624
  0
LINE
  5
7024
330
1F
100
AcDbEntity
  8
AM_0
100
AcDbLine
 10
20.0000019073488
 20
-39.15327122496696
 30
0.0
 11
20.0000019073488
 21
-41.18833210753487
 31
0.0
  0
LINE
  5
7025
330
1F
100
AcDbEntity
  8
AM_0
100
AcDbLine
 10
20.66773796081577
 20
-31.17517903136299
 30
0.0
 11
25.80620384216274
 21
-31.80610325621696
 31
0.0
  0
ARC
  5
7026
330
1F
100
AcDbEntity
  8
AM_0
100
AcDbCircle
 10
18.45395088195778
 20
-31.1374993591219
 30
0.0
 40
1.0
100
AcDbArc
 50
90.00000250447838
 51
125.9124882924342
  0
LINE
  5
7028
330
1F
100
AcDbEntity
  8
AM_0
100
AcDbLine
 10
21.07710838317877
 20
-30.72168591307697
 30
0.0
 11
21.53072357177677
 21
-31.28113796996197
 31
0.0
  0
LINE
  5
7029
330
1F
100
AcDbEntity
  8
AM_0
100
AcDbLine
 10
20.20962142944279
 20
-30.61517575072289
 30
0.0
 11
20.66773414611776
 21
-31.17517903136299
 31
0.0
  0
ARC
  5
702D
330
1F
100
AcDbEntity
  8
AM_0
100
AcDbCircle
 10
25.15963745117176
 20
-30.35002377318394
 30
0.0
 40
3.0
100
AcDbArc
 50
271.0332343622156
 51
0.0
  0
LINE
  5
702E
330
1F
100
AcDbEntity
  8
AM_0
100
AcDbLine
 10
28.15963745117176
 20
-30.13749935912201
 30
0.0
 11
28.15963745117176
 21
-30.35002377318394
 31
0.0
  0
ARC
  5
7031
330
1F
100
AcDbEntity
  8
AM_0
100
AcDbCircle
 10
33.50000095367375
 20
-31.1374993591219
 30
0.0
 40
1.0
100
AcDbArc
 50
30.00000083482842
 51
90.00000250447838
  0
LINE
  5
7034
330
1F
100
AcDbEntity
  8
AM_0
100
AcDbLine
 10
44.37298727035472
 20
-28.63749935912188
 30
0.0
 11
44.37298727035464
 21
-30.6374993591219
 31
0.0
  0
LINE
  5
7036
330
1F
100
AcDbEntity
  8
AM_0
100
AcDbLine
 10
15.44810485839872
 20
-19.13749935912195
 30
0.0
 11
39.00000095367375
 21
-19.13749935912189
 31
0.0
  0
LINE
  5
7037
330
1F
100
AcDbEntity
  8
AM_0
100
AcDbLine
 10
15.86766242980974
 20
-18.63749935912195
 30
0.0
 11
38.99999809265086
 21
-18.63749935912189
 31
0.0
  0
LINE
  5
703B
330
1F
100
AcDbEntity
  8
AM_0
100
AcDbLine
 10
39.00000190734801
 20
-18.63750317381888
 30
0.0
 11
39.49999999999943
 21
-19.1375012664699
 31
0.0
  0
SPLINE
  5
703C
330
1F
100
AcDbEntity
  8
AM_0
100
AcDbSpline
210
0.0
220
0.0
230
1.0
 70
     8
 71
     3
 72
     9
 73
     5
 74
     3
 42
0.0000000001
 43
0.0000000001
 44
0.0000000001
 40
0.0
 40
0.0
 40
0.0
 40
0.0
 40
3.022310575105037
 40
6.044621150210102
 40
6.044621150210102
 40
6.044621150210102
 40
6.044621150210102
 10
-58.60849014878511
 20
2.998172760010005
 30
0.0
 10
-58.41788498521013
 20
1.998781840006674
 30
0.0
 10
-58.03667465806015
 20
0.0000000000000039
 30
0.0
 10
-58.41788498521011
 20
-1.998781840006666
 30
0.0
 10
-58.60849014878511
 20
-2.998172760010008
 30
0.0
 11
-58.60849014878511
 21
2.998172760010005
 31
0.0
 11
-58.22727982163512
 21
0.0000000000000129
 31
0.0
 11
-58.60849014878511
 21
-2.998172760010008
 31
0.0
  0
LINE
  5
7042
330
1F
100
AcDbEntity
  8
AM_0
100
AcDbLine
 10
-83.22727982163518
 20
19.94724655151394
 30
0.0
 11
-58.22727982163517
 21
19.94724655151399
 31
0.0
  0
LINE
  5
7043
330
1F
100
AcDbEntity
  8
AM_0
100
AcDbLine
 10
-68.0152589476051
 20
3.500000000000013
 30
0.0
 11
-58.22727982163513
 21
3.500000000000011
 31
0.0
  0
LINE
  5
7044
330
1F
100
AcDbEntity
  8
AM_7
100
AcDbLine
 10
-85.83386246323509
 20
-0.0000000000000405
 30
0.0
 11
-56.24870316147511
 21
0.0000000000000127
 31
0.0
  0
LINE
  5
7045
330
1F
100
AcDbEntity
  8
AM_0
100
AcDbLine
 10
-64.22727982163514
 20
6.999999999999985
 30
0.0
 11
-58.22727982163513
 21
7.000000000000012
 31
0.0
  0
LINE
  5
7046
330
1F
100
AcDbEntity
  8
AM_0
100
AcDbLine
 10
-83.22727982163518
 20
23.00000381469694
 30
0.0
 11
-60.72727982163517
 21
23.00000381469702
 31
0.0
  0
LINE
  5
7047
330
1F
100
AcDbEntity
  8
AM_0
100
AcDbLine
 10
-66.43470780014514
 20
-2.30008697509801
 30
0.0
 11
-58.60849777817513
 21
-2.998168945312004
 31
0.0
  0
LINE
  5
7048
330
1F
100
AcDbEntity
  8
AM_0
100
AcDbLine
 10
-66.4346925413551
 20
2.300094604492001
 30
0.0
 11
-58.6084825193851
 21
2.998176574707015
 31
0.0
  0
LINE
  5
7049
330
1F
100
AcDbEntity
  8
AM_7
100
AcDbLine
 10
-44.70434586167514
 20
11.00000000000004
 30
0.0
 11
-84.29266373276517
 21
10.99999999999995
 31
0.0
  0
LINE
  5
704A
330
1F
100
AcDbEntity
  8
AM_0
100
AcDbLine
 10
-64.22727982163514
 20
15.00000381469699
 30
0.0
 11
-58.22727982163515
 21
15.00000381469699
 31
0.0
  0
LINE
  5
704C
330
1F
100
AcDbEntity
  8
AM_0
100
AcDbLine
 10
-83.22727982163518
 20
23.00000381469694
 30
0.0
 11
-83.22727982163513
 21
-0.4196128845210421
 31
0.0
  0
LINE
  5
704E
330
1F
100
AcDbEntity
  8
AM_0
100
AcDbLine
 10
-83.22727982163513
 20
1.999999999999958
 30
0.0
 11
-66.43470780014514
 21
1.999999999999985
 31
0.0
  0
LINE
  5
704F
330
1F
100
AcDbEntity
  8
AM_0
100
AcDbLine
 10
-83.22727982163513
 20
-0.4196128845210421
 30
0.0
 11
-73.22727982163513
 21
-1.825023651123032
 31
0.0
  0
LINE
  5
7050
330
1F
100
AcDbEntity
  8
AM_0
100
AcDbLine
 10
-73.22727982163513
 20
-1.825023651123032
 30
0.0
 11
-71.22727982163514
 21
-2.000000000000012
 31
0.0
  0
LINE
  5
7051
330
1F
100
AcDbEntity
  8
AM_0
100
AcDbLine
 10
-66.01979080796514
 20
0.2435188293459728
 30
0.0
 11
-66.4346925413551
 21
2.000003814696965
 31
0.0
  0
LINE
  5
7052
330
1F
100
AcDbEntity
  8
AM_0
100
AcDbLine
 10
-71.22727982163514
 20
-2.000000000000012
 30
0.0
 11
-66.43470780014514
 21
-2.000000000000013
 31
0.0
  0
ARC
  5
7053
330
1F
100
AcDbEntity
  8
AM_0
100
AcDbCircle
 10
-67.05068985581511
 20
-0.0000000000000144
 30
0.0
 40
1.059260487556499
100
AcDbArc
 50
346.7094268846615
 51
13.29057311533856
  0
LINE
  5
7054
330
1F
100
AcDbEntity
  8
AM_0
100
AcDbLine
 10
-66.0567628538551
 20
0.4000015258790056
 30
0.0
 11
-66.0567628538551
 21
-0.3999977111819962
 31
0.0
  0
LINE
  5
7055
330
1F
100
AcDbEntity
  8
AM_0
100
AcDbLine
 10
-66.01979080796514
 20
-0.2435111999510159
 30
0.0
 11
-66.43470780014514
 21
-2.000000000000013
 31
0.0
  0
LINE
  5
7056
330
1F
100
AcDbEntity
  8
AM_0
100
AcDbLine
 10
-66.43470780014514
 20
-2.000000000000013
 30
0.0
 11
-66.43470780014514
 21
-2.300090789794993
 31
0.0
  0
LINE
  5
7057
330
1F
100
AcDbEntity
  8
AM_0
100
AcDbLine
 10
-68.0152589476051
 20
3.500000000000013
 30
0.0
 11
-68.0152589476051
 21
2.000000000000013
 31
0.0
  0
LINE
  5
7058
330
1F
100
AcDbEntity
  8
AM_0
100
AcDbLine
 10
-66.43470780014514
 20
2.300090789794992
 30
0.0
 11
-66.43470780014514
 21
1.999999999999985
 31
0.0
  0
LINE
  5
7061
330
1F
100
AcDbEntity
  8
AM_0
100
AcDbLine
 10
-64.22727982163514
 20
15.00000381469699
 30
0.0
 11
-64.22727982163514
 21
6.999999999999985
 31
0.0
  0
LINE
  5
706B
330
1F
100
AcDbEntity
  8
AM_0
100
AcDbLine
 10
-58.22727982163517
 20
19.94724655151399
 30
0.0
 11
-58.22727982163515
 21
15.00000381469699
 31
0.0
  0
LINE
  5
706D
330
1F
100
AcDbEntity
  8
AM_0
100
AcDbLine
 10
-48.22727982163517
 20
22.50000381469705
 30
0.0
 11
-48.22727982163513
 21
-1.49999999999993
 31
0.0
  0
LINE
  5
706E
330
1F
100
AcDbEntity
  8
AM_0
100
AcDbLine
 10
-48.72727982163517
 20
23.00000381469705
 30
0.0
 11
-48.72727982163513
 21
2.000000000000068
 31
0.0
  0
LINE
  5
7070
330
1F
100
AcDbEntity
  8
AM_0
100
AcDbLine
 10
-58.22727982163513
 20
7.000000000000012
 30
0.0
 11
-58.22727982163513
 21
2.000000000000012
 31
0.0
  0
LINE
  5
7074
330
1F
100
AcDbEntity
  8
AM_0
100
AcDbLine
 10
-58.39735428452513
 20
-1.999999999999986
 30
0.0
 11
-48.72727982163513
 21
-1.999999999999931
 31
0.0
  0
LINE
  5
7075
330
1F
100
AcDbEntity
  8
AM_0
100
AcDbLine
 10
-58.39735428452513
 20
2.000000000000012
 30
0.0
 11
-48.22727982163513
 21
2.000000000000068
 31
0.0
  0
LINE
  5
7077
330
1F
100
AcDbEntity
  8
AM_0
100
AcDbLine
 10
-48.72727982163513
 20
-1.999999999999931
 30
0.0
 11
-48.22727982163513
 21
-1.499996185302948
 31
0.0
  0
LINE
  5
7087
330
1F
100
AcDbEntity
  8
AM_0
100
AcDbLine
 10
-60.72727982163517
 20
23.00000381469702
 30
0.0
 11
-48.72727982163517
 21
23.00000381469705
 31
0.0
  0
LINE
  5
708A
330
1F
100
AcDbEntity
  8
AM_0
100
AcDbLine
 10
-60.72727982163517
 20
23.00000381469702
 30
0.0
 11
-60.72727982163517
 21
20.00000381469702
 31
0.0
  0
LINE
  5
708B
330
1F
100
AcDbEntity
  8
AM_0
100
AcDbLine
 10
-48.22727219223516
 20
22.49998855590805
 30
0.0
 11
-48.72727219223516
 21
22.99998855590804
 31
0.0
  0
LINE
  5
708F
330
1F
100
AcDbEntity
  8
AM_0
100
AcDbLine
 10
7.499999999999732
 20
-1.999999999999849
 30
0.0
 11
38.99999809265082
 21
-1.999999999999767
 31
0.0
  0
LINE
  5
7090
330
1F
100
AcDbEntity
  8
AM_0
100
AcDbLine
 10
7.499999999999732
 20
2.00000000000015
 30
0.0
 11
19.5000019073487
 21
2.000000000000176
 31
0.0
  0
LINE
  5
7091
330
1F
100
AcDbEntity
  8
AM_7
100
AcDbLine
 10
-1.87913513183626
 20
0.0000000000001517
 30
0.0
 11
27.53627967834475
 21
0.0000000000002049
 31
0.0
  0
LINE
  5
7093
330
1F
100
AcDbEntity
  8
AM_0
100
AcDbLine
 10
5.999999999999732
 20
1.799999237061123
 30
0.0
 11
6.800106048583717
 21
0.0000000000001507
 31
0.0
  0
LINE
  5
7094
330
1F
100
AcDbEntity
  8
AM_0
100
AcDbLine
 10
6.000003814696714
 20
-2.897064208983855
 30
0.0
 11
6.897068023681714
 21
-1.999999999999849
 31
0.0
  0
LINE
  5
7095
330
1F
100
AcDbEntity
  8
AM_0
100
AcDbLine
 10
6.800113677978703
 20
0.0000000000001507
 30
0.0
 11
6.000007629394719
 21
-1.799999237059855
 31
0.0
  0
LINE
  5
7096
330
1F
100
AcDbEntity
  8
AM_0
100
AcDbLine
 10
5.999999999999732
 20
-1.799999237059855
 30
0.0
 11
7.499999999999732
 21
-1.799999237059855
 31
0.0
  0
LINE
  5
7097
330
1F
100
AcDbEntity
  8
AM_0
100
AcDbLine
 10
5.999999999999732
 20
1.800003051758133
 30
0.0
 11
7.499999999999732
 21
1.800003051758132
 31
0.0
  0
LINE
  5
7098
330
1F
100
AcDbEntity
  8
AM_0
100
AcDbLine
 10
6.000003814696714
 20
2.897068023682132
 30
0.0
 11
6.897071838378696
 21
2.00000000000015
 31
0.0
  0
ARC
  5
7099
330
1F
100
AcDbEntity
  8
AM_0
100
AcDbCircle
 10
2.999999999999733
 20
0.0000000000001511
 30
0.0
 40
1.352302074432399
100
AcDbArc
 50
90.00000250447838
 51
270.0000006832462
  0
ARC
  5
709A
330
1F
100
AcDbEntity
  8
AM_0
100
AcDbCircle
 10
8.326004028319704
 20
0.0000000000001789
 30
0.0
 40
3.5
100
AcDbArc
 50
150.3087901963171
 51
209.6912198215931
  0
ARC
  5
709B
330
1F
100
AcDbEntity
  8
AM_0
100
AcDbCircle
 10
2.999999999999733
 20
0.0000000000001511
 30
0.0
 40
1.8376451730728
100
AcDbArc
 50
90.00000250447838
 51
270.0000006832462
  0
ARC
  5
709C
330
1F
100
AcDbEntity
  8
AM_0
100
AcDbCircle
 10
8.326004028319704
 20
0.0000000000001789
 30
0.0
 40
4.018412590026898
100
AcDbArc
 50
150.3087901963171
 51
209.6912198215931
  0
ARC
  5
709D
330
1F
100
AcDbEntity
  8
AM_0
100
AcDbCircle
 10
2.999999999999733
 20
0.0000000000001511
 30
0.0
 40
2.328857660293599
100
AcDbArc
 50
90.00000250447838
 51
270.0000006832462
  0
ARC
  5
709E
330
1F
100
AcDbEntity
  8
AM_0
100
AcDbCircle
 10
2.999999999999733
 20
0.0000000000001511
 30
0.0
 40
3.0
100
AcDbArc
 50
88.00000017209258
 51
271.9999893552528
  0
ARC
  5
709F
330
1F
100
AcDbEntity
  8
AM_0
100
AcDbCircle
 10
2.999999999999733
 20
0.0000000000001511
 30
0.0
 40
0.8000000119209001
100
AcDbArc
 50
90.00000250447838
 51
270.0000006832462
  0
LINE
  5
70A0
330
1F
100
AcDbEntity
  8
AM_0
100
AcDbLine
 10
5.999999999999732
 20
1.800003051758133
 30
0.0
 11
5.999999999999732
 21
-1.799999237059855
 31
0.0
  0
ARC
  5
70A1
330
1F
100
AcDbEntity
  8
AM_0
100
AcDbCircle
 10
2.245040893554703
 20
-3.467277526854862
 30
0.0
 40
2.9815871715546
100
AcDbArc
 50
10.46331619993347
 51
29.6912148126413
  0
ARC
  5
70A2
330
1F
100
AcDbEntity
  8
AM_0
100
AcDbCircle
 10
2.245040893554703
 20
-3.467277526854862
 30
0.0
 40
3.5
100
AcDbArc
 50
9.202511944246607
 51
29.6912148126413
  0
LINE
  5
70A3
330
1F
100
AcDbEntity
  8
AM_0
100
AcDbLine
 10
2.999999999999733
 20
-0.7999992370598274
 30
0.0
 11
4.388031005859733
 21
-0.7999992370598276
 31
0.0
  0
LINE
  5
70A4
330
1F
100
AcDbEntity
  8
AM_0
100
AcDbLine
 10
2.999999999999733
 20
-1.837642669677867
 30
0.0
 11
4.752395629882716
 21
-1.837642669677867
 31
0.0
  0
LINE
  5
70A5
330
1F
100
AcDbEntity
  8
AM_0
100
AcDbLine
 10
2.999999999999733
 20
-1.352302551268868
 30
0.0
 11
4.541961669921721
 21
-1.352302551268868
 31
0.0
  0
LINE
  5
70A6
330
1F
100
AcDbEntity
  8
AM_0
100
AcDbLine
 10
2.999999999999733
 20
-2.328857421874848
 30
0.0
 11
5.000747680663739
 21
-2.328857421874848
 31
0.0
  0
LINE
  5
70A7
330
1F
100
AcDbEntity
  8
AM_0
100
AcDbLine
 10
3.104698181151735
 20
-2.998168945311837
 30
0.0
 11
5.999999999999732
 21
-2.897064208983855
 31
0.0
  0
ARC
  5
70A8
330
1F
100
AcDbEntity
  8
AM_0
100
AcDbCircle
 10
2.245040893554704
 20
3.467277526856129
 30
0.0
 40
3.5
100
AcDbArc
 50
330.3087851873589
 51
350.7974880557541
  0
ARC
  5
70A9
330
1F
100
AcDbEntity
  8
AM_0
100
AcDbCircle
 10
2.245040893554704
 20
3.467277526856129
 30
0.0
 40
2.9815871715546
100
AcDbArc
 50
330.3087851873589
 51
349.5366838000665
  0
LINE
  5
70AA
330
1F
100
AcDbEntity
  8
AM_0
100
AcDbLine
 10
2.999999999999733
 20
2.32885742187515
 30
0.0
 11
5.000747680663739
 21
2.32885742187515
 31
0.0
  0
LINE
  5
70AB
330
1F
100
AcDbEntity
  8
AM_0
100
AcDbLine
 10
2.999999999999733
 20
1.352302551270136
 30
0.0
 11
4.541961669921721
 21
1.352302551270136
 31
0.0
  0
LINE
  5
70AC
330
1F
100
AcDbEntity
  8
AM_0
100
AcDbLine
 10
2.999999999999733
 20
1.83764648437515
 30
0.0
 11
4.752395629882716
 21
1.83764648437515
 31
0.0
  0
LINE
  5
70AD
330
1F
100
AcDbEntity
  8
AM_0
100
AcDbLine
 10
2.999999999999705
 20
0.8000030517581341
 30
0.0
 11
4.388031005859704
 21
0.8000030517581338
 31
0.0
  0
LINE
  5
70AE
330
1F
100
AcDbEntity
  8
AM_0
100
AcDbLine
 10
3.104694366454697
 20
2.998172760010143
 30
0.0
 11
5.999992370605712
 21
2.897068023682132
 31
0.0
  0
LINE
  5
70AF
330
1F
100
AcDbEntity
  8
AM_0
100
AcDbLine
 10
7.499999999999732
 20
2.00000000000015
 30
0.0
 11
7.499999999999732
 21
-1.999999999999849
 31
0.0
  0
LINE
  5
70B0
330
1F
100
AcDbEntity
  8
AM_0
100
AcDbLine
 10
6.897064208984732
 20
-1.999999999999849
 30
0.0
 11
7.499999999999732
 21
-1.999999999999849
 31
0.0
  0
LINE
  5
70B1
330
1F
100
AcDbEntity
  8
AM_0
100
AcDbLine
 10
6.897064208984732
 20
2.00000000000015
 30
0.0
 11
7.499999999999732
 21
2.00000000000015
 31
0.0
  0
LINE
  5
70B3
330
1F
100
AcDbEntity
  8
AM_0
100
AcDbLine
 10
20.0000019073487
 20
9.000000000000206
 30
0.0
 11
25.10478782653768
 21
19.94724655151419
 31
0.0
  0
LINE
  5
70B4
330
1F
100
AcDbEntity
  8
AM_0
100
AcDbLine
 10
39.50000095367366
 20
22.50000381469721
 30
0.0
 11
39.50000095367371
 21
-1.499999999999768
 31
0.0
  0
LINE
  5
70B5
330
1F
100
AcDbEntity
  8
AM_0
100
AcDbLine
 10
39.00000095367366
 20
22.50000381469721
 30
0.0
 11
39.00000095367371
 21
-1.499999999999768
 31
0.0
  0
LINE
  5
70B6
330
1F
100
AcDbEntity
  8
AM_0
100
AcDbLine
 10
20.5000019073487
 20
8.889152526856186
 30
0.0
 11
25.49131774902369
 21
19.59306716919019
 31
0.0
  0
CIRCLE
  5
70B7
330
1F
100
AcDbEntity
  8
AM_0
100
AcDbCircle
 10
29.5000019073487
 20
11.0000000000002
 30
0.0
 40
4.5
  0
CIRCLE
  5
70B8
330
1F
100
AcDbEntity
  8
AM_0
100
AcDbCircle
 10
29.5000019073487
 20
11.0000000000002
 30
0.0
 40
5.0
  0
LINE
  5
70B9
330
1F
100
AcDbEntity
  8
AM_0
100
AcDbLine
 10
31.99999999999968
 20
9.556629180908236
 30
0.0
 11
29.50000381469672
 21
8.113254547119229
 31
0.0
  0
LINE
  5
70BA
330
1F
100
AcDbEntity
  8
AM_0
100
AcDbLine
 10
29.50000572204568
 20
13.88675308227619
 30
0.0
 11
32.00000381469668
 21
12.44337844848625
 31
0.0
  0
LINE
  5
70BC
330
1F
100
AcDbEntity
  8
AM_0
100
AcDbLine
 10
15.86766242980969
 20
-1.499999999999793
 30
0.0
 11
39.00000095367371
 21
-1.499999999999768
 31
0.0
  0
LINE
  5
70BD
330
1F
100
AcDbEntity
  8
AM_0
100
AcDbLine
 10
20.0000019073487
 20
9.000000000000206
 30
0.0
 11
20.0000019073487
 21
4.000000000000206
 31
0.0
  0
LINE
  5
70BE
330
1F
100
AcDbEntity
  8
AM_0
100
AcDbLine
 10
20.5000019073487
 20
8.889152526856186
 30
0.0
 11
20.5000019073487
 21
4.000000000000206
 31
0.0
  0
LINE
  5
70BF
330
1F
100
AcDbEntity
  8
AM_0
100
AcDbLine
 10
23.0000019073487
 20
-2.328857421874793
 30
0.0
 11
20.99925422668469
 21
-2.328857421874793
 31
0.0
  0
LINE
  5
70C0
330
1F
100
AcDbEntity
  8
AM_0
100
AcDbLine
 10
22.89530372619573
 20
-2.998172760009787
 30
0.0
 11
20.00000572204575
 21
-2.897064208983799
 31
0.0
  0
LINE
  5
70C2
330
1F
100
AcDbEntity
  8
AM_0
100
AcDbLine
 10
15.86766242980969
 20
2.000000000000206
 30
0.0
 11
15.86766242980969
 21
-1.499999999999793
 31
0.0
  0
LINE
  5
70C3
330
1F
100
AcDbEntity
  8
AM_0
100
AcDbLine
 10
15.44811248779269
 20
-1.999999999999792
 30
0.0
 11
15.86766242980969
 21
-1.499999999999793
 31
0.0
  0
ARC
  5
70C4
330
1F
100
AcDbEntity
  8
AM_0
100
AcDbCircle
 10
23.75495338439971
 20
-3.467277526854808
 30
0.0
 40
2.9815871715546
100
AcDbArc
 50
150.5204304379377
 51
169.5366879552548
  0
ARC
  5
70C5
330
1F
100
AcDbEntity
  8
AM_0
100
AcDbCircle
 10
23.75495338439971
 20
-3.467277526854808
 30
0.0
 40
3.5
100
AcDbArc
 50
155.2145052657888
 51
170.797486234522
  0
LINE
  5
70C6
330
1F
100
AcDbEntity
  8
AM_0
100
AcDbLine
 10
20.0000019073487
 20
-2.897068023681803
 30
0.0
 11
19.10293388366672
 21
-1.999999999999822
 31
0.0
  0
ARC
  5
70C7
330
1F
100
AcDbEntity
  8
AM_0
100
AcDbCircle
 10
18.0000019073487
 20
4.000000000000206
 30
0.0
 40
2.0
100
AcDbArc
 50
269.9999974955216
 51
0.0
  0
ARC
  5
70C8
330
1F
100
AcDbEntity
  8
AM_0
100
AcDbCircle
 10
18.0000019073487
 20
4.000000000000206
 30
0.0
 40
2.5
100
AcDbArc
 50
306.869898220194
 51
0.0
  0
ARC
  5
70C9
330
1F
100
AcDbEntity
  8
AM_0
100
AcDbCircle
 10
23.0000019073487
 20
0.0000000000002055
 30
0.0
 40
2.328857660293599
100
AcDbArc
 50
269.9999974955216
 51
300.8189926533435
  0
ARC
  5
70CA
330
1F
100
AcDbEntity
  8
AM_0
100
AcDbCircle
 10
23.0000019073487
 20
0.0000000000002055
 30
0.0
 40
3.0
100
AcDbArc
 50
268.0000019933252
 51
318.1896834297786
  0
LINE
  5
70CB
330
1F
100
AcDbEntity
  8
AM_0
100
AcDbLine
 10
20.0000019073487
 20
9.000003814697187
 30
0.0
 11
20.50000762939471
 21
8.889152526856186
 31
0.0
  0
LINE
  5
70CC
330
1F
100
AcDbEntity
  8
AM_0
100
AcDbLine
 10
27.00000190734867
 20
12.44337844848618
 30
0.0
 11
27.00000190734867
 21
9.556625366211198
 31
0.0
  0
LINE
  5
70CD
330
1F
100
AcDbEntity
  8
AM_0
100
AcDbLine
 10
29.50000381469672
 20
8.113250732422192
 30
0.0
 11
27.00000572204568
 21
9.556625366211198
 31
0.0
  0
LINE
  5
70CE
330
1F
100
AcDbEntity
  8
AM_0
100
AcDbLine
 10
29.50000190734867
 20
13.88675308227619
 30
0.0
 11
27.00000572204568
 21
12.44337844848618
 31
0.0
  0
ARC
  5
70CF
330
1F
100
AcDbEntity
  8
AM_0
100
AcDbCircle
 10
40.50000143051089
 20
-2.999999999999768
 30
0.0
 40
4.0
100
AcDbArc
 50
14.47751143647337
 51
90.00000250447838
  0
LINE
  5
70D0
330
1F
100
AcDbEntity
  8
AM_0
100
AcDbLine
 10
39.49999809265082
 20
-1.499999999999768
 30
0.0
 11
39.00000286102232
 21
-1.999996185302785
 31
0.0
  0
LINE
  5
70D1
330
1F
100
AcDbEntity
  8
AM_0
100
AcDbLine
 10
39.50000095367374
 20
1.000000000000232
 30
0.0
 11
40.50000143051092
 21
1.000000000000231
 31
0.0
  0
ARC
  5
70D2
330
1F
100
AcDbEntity
  8
AM_0
100
AcDbCircle
 10
40.50000143051086
 20
11.00000000000022
 30
0.0
 40
4.0
100
AcDbArc
 50
269.9999974955216
 51
90.00000250447838
  0
LINE
  5
70D3
330
1F
100
AcDbEntity
  8
AM_0
100
AcDbLine
 10
32.00000095367368
 20
12.44337844848625
 30
0.0
 11
32.00000095367368
 21
9.556625366211225
 31
0.0
  0
LINE
  5
70D4
330
1F
100
AcDbEntity
  8
AM_0
100
AcDbLine
 10
39.50000095367371
 20
7.000000000000231
 30
0.0
 11
40.50000143051089
 21
7.00000000000023
 31
0.0
  0
LINE
  5
70D5
330
1F
100
AcDbEntity
  8
AM_0
100
AcDbLine
 10
39.50000095367368
 20
15.0000038146972
 30
0.0
 11
40.50000143051086
 21
15.0000038146972
 31
0.0
  0
LINE
  5
70D6
330
1F
100
AcDbEntity
  8
AM_0
100
AcDbLine
 10
30.39230537414564
 20
23.00000381469718
 30
0.0
 11
39.00000190734794
 21
23.00000381469721
 31
0.0
  0
LINE
  5
70D7
330
1F
100
AcDbEntity
  8
AM_0
100
AcDbLine
 10
30.52627754211365
 20
22.50000381469718
 30
0.0
 11
39.00000095367366
 21
22.50000381469721
 31
0.0
  0
LINE
  5
70D8
330
1F
100
AcDbEntity
  8
AM_0
100
AcDbLine
 10
25.10478782653768
 20
19.94724655151419
 30
0.0
 11
30.39230537414564
 21
22.99999618530319
 31
0.0
  0
LINE
  5
70D9
330
1F
100
AcDbEntity
  8
AM_0
100
AcDbLine
 10
25.49131965637166
 20
19.59305953979518
 30
0.0
 11
30.52628135681166
 21
22.49999618530319
 31
0.0
  0
LINE
  5
70DA
330
1F
100
AcDbEntity
  8
AM_0
100
AcDbLine
 10
25.10479164123469
 20
19.94725418090818
 30
0.0
 11
25.49132347106868
 21
19.59306716919019
 31
0.0
  0
LINE
  5
70DB
330
1F
100
AcDbEntity
  8
AM_0
100
AcDbLine
 10
30.39230728149365
 20
23.00000381469718
 30
0.0
 11
30.52628135681166
 21
22.50000381469718
 31
0.0
  0
ARC
  5
70DC
330
1F
100
AcDbEntity
  8
AM_0
100
AcDbCircle
 10
40.50000143051083
 20
24.00000381469721
 30
0.0
 40
4.0
100
AcDbArc
 50
269.9999974955216
 51
345.5224885635267
  0
LINE
  5
70DD
330
1F
100
AcDbEntity
  8
AM_0
100
AcDbLine
 10
39.25000190734794
 20
22.75000381469721
 30
0.0
 11
39.00000095367366
 21
22.50000381469721
 31
0.0
  0
LINE
  5
70DE
330
1F
100
AcDbEntity
  8
AM_0
100
AcDbLine
 10
39.50000190734794
 20
22.50000381469721
 30
0.0
 11
39.00000095367366
 21
23.00000381469721
 31
0.0
  0
LINE
  5
70DF
330
1F
100
AcDbEntity
  8
AM_0
100
AcDbLine
 10
39.50000095367368
 20
20.00000381469721
 30
0.0
 11
40.50000143051086
 21
20.00000381469721
 31
0.0
  0
LINE
  5
70E3
330
1F
100
AcDbEntity
  8
AM_0
100
AcDbLine
 10
149.9999999999897
 20
-28.63749935912162
 30
0.0
 11
149.9999999999898
 21
-53.63750126646964
 31
0.0
  0
LINE
  5
70E5
330
1F
100
AcDbEntity
  8
AM_0
100
AcDbLine
 10
149.9999999999896
 20
23.00000381469748
 30
0.0
 11
149.9999999999896
 21
-1.999999999999497
 31
0.0
  0
DIMENSION
  5
724A
330
1F
100
AcDbEntity
  8
AM_5
100
AcDbDimension
  2
*D2
 10
163.9999999999895
 20
23.0000038146975
 30
0.0
 11
160.8999999999896
 21
10.50000190734904
 31
0.0
 70
    32
  1
<>
 71
     5
 42
25.00000381469697
 51
359.9999999999998
  3
AM_JIS$0
100
AcDbAlignedDimension
 13
149.9999999999896
 23
-1.999999999999468
 33
0.0
 14
149.9999999999896
 24
23.0000038146975
 34
0.0
 50
90.00000000000012
100
AcDbRotatedDimension
1001
GENIUS_GENDTOL_13
1000

1000
h7
1000

1040
0.0
1001
ACAD
1000
DSTYLE
1002
{
1070
   287
1070
     3
1070
    40
1040
1.0
1070
    42
1040
1.0
1070
    43
1040
12.0
1070
    48
1040
0.1
1070
    78
1070
     8
1070
   140
1040
3.2
1070
   176
1070
   256
1070
   177
1070
   256
1070
   271
1070
     0
1070
   272
1070
     3
1070
   275
1070
     0
1070
   284
1070
     0
1070
   289
1070
     3
1070
   340
1005
6B
1070
   371
1070
    -1
1070
   372
1070
    -1
1002
}
  0
DIMENSION
  5
72DA
330
1F
100
AcDbEntity
  8
AM_5
100
AcDbDimension
  2
*D3
 10
163.9999999999897
 20
-28.6374993591216
 30
0.0
 11
160.8999999999898
 21
-41.13750031279558
 31
0.0
 70
    32
  1
<>
 71
     5
 42
25.00000190734804
 51
359.9999999999998
  3
AM_JIS$0
100
AcDbAlignedDimension
 13
149.9999999999898
 23
-53.63750126646964
 33
0.0
 14
149.9999999999897
 24
-28.6374993591216
 34
0.0
 50
90.00000000000012
100
AcDbRotatedDimension
1001
GENIUS_GENDTOL_13
1000

1000
h7
1000

1040
0.0
1001
ACAD
1000
DSTYLE
1002
{
1070
   287
1070
     3
1070
    40
1040
1.0
1070
    42
1040
1.0
1070
    43
1040
12.0
1070
    48
1040
0.1
1070
    78
1070
     8
1070
   140
1040
3.2
1070
   176
1070
   256
1070
   177
1070
   256
1070
   271
1070
     0
1070
   272
1070
     3
1070
   275
1070
     0
1070
   284
1070
     0
1070
   289
1070
     3
1070
   340
1005
6B
1070
   371
1070
    -1
1070
   372
1070
    -1
1002
}
  0
DIMENSION
  5
7378
330
1F
100
AcDbEntity
  8
AM_5
100
AcDbDimension
  2
*D4
 10
149.9999999999897
 20
47.00000381469719
 30
0.0
 11
74.99999999999487
 21
50.10000381469754
 31
0.0
 70
    32
  1
<>
 71
     5
 42
149.9999999999898
 51
359.9999999999998
  3
AM_JIS$0
100
AcDbAlignedDimension
 13
-0.0000000000002664
 23
0.0000000000001515
 33
0.0
 14
149.9999999999896
 24
23.00000381469748
 34
0.0
 50
180.0
100
AcDbRotatedDimension
1001
GENIUS_GENDTOL_13
1000

1000
h7
1000

1040
0.0
1001
ACAD
1000
DSTYLE
1002
{
1070
   287
1070
     3
1070
    40
1040
1.0
1070
    42
1040
1.0
1070
    43
1040
12.0
1070
    48
1040
0.1
1070
    78
1070
     8
1070
   140
1040
3.2
1070
   176
1070
   256
1070
   177
1070
   256
1070
   271
1070
     0
1070
   272
1070
     3
1070
   275
1070
     0
1070
   284
1070
     0
1070
   289
1070
     3
1070
   340
1005
6B
1070
   371
1070
    -1
1070
   372
1070
    -1
1002
}
  0
ARC
  5
74D2
330
1F
100
AcDbEntity
  8
AM_11
  6
AM_ISO09W050
100
AcDbCircle
 10
-58.22727982163551
 20
161.7000083923319
 30
0.0
 40
164.6999969482389
100
AcDbArc
 50
253.1171149503684
 51
277.8593049281599
  0
DIMENSION
  5
74D4
330
1F
100
AcDbEntity
  8
AM_5
100
AcDbDimension
  2
*D5
 10
-18.19750014824055
 20
321.4614109088661
 30
0.0
 11
-94.99427613137612
 21
14.96058227781981
 31
0.0
 70
   163
  1
%%c325
 71
     5
 42
329.3999938964799
 51
359.9999999999998
  3
AM_JIS$3
100
AcDbDiametricDimension
 15
-98.25705949503031
 25
1.938605875799865
 35
0.0
 40
0.0
1001
ACAD
1000
DSTYLE
1002
{
1070
   287
1070
     3
1070
    43
1040
12.0
1070
    74
1070
     0
1070
   172
1070
     1
1070
   271
1070
     0
1070
   288
1070
     0
1070
   289
1070
     3
1002
}
  0
DIMENSION
  5
7513
330
1F
100
AcDbEntity
  8
AM_5
100
AcDbDimension
  2
*D6
 10
25.10478782653768
 20
19.94724655151419
 30
0.0
 11
41.18982948494369
 21
32.6347248467915
 31
0.0
 70
    34
  1
<>
 71
     5
 42
0.4363323892691414
 51
359.9999999999998
  3
AM_JIS$2
100
AcDb2LineAngularDimension
 13
20.0000019073487
 23
9.000000000000206
 33
0.0
 14
20.0000019073487
 24
4.000000000000206
 34
0.0
 15
20.0000019073487
 25
9.000000000000206
 35
0.0
 16
24.05475887496807
 26
36.68159248071439
 36
0.0
1001
GENIUS_GENDTOL_13
1000

1000
h7
1000

1040
0.0
  0
DIMENSION
  5
75EB
330
1F
100
AcDbEntity
  8
AM_5
100
AcDbDimension
  2
*D7
 10
20.00000190734865
 20
37.00000381469723
 30
0.0
 11
10.00000095367415
 21
40.10000381469722
 31
0.0
 70
    32
  1
<>
 71
     5
 42
20.00000190734898
 51
359.9999999999998
  3
AM_JIS$0
100
AcDbAlignedDimension
 13
-0.0000000000002664
 23
0.0000000000001455
 33
0.0
 14
20.0000019073487
 24
9.000000000000206
 34
0.0
 50
180.0000000000002
100
AcDbRotatedDimension
1001
GENIUS_GENDTOL_13
1000

1000
h7
1000

1040
0.0
1001
ACAD
1000
DSTYLE
1002
{
1070
   287
1070
     3
1070
    40
1040
1.0
1070
    42
1040
1.0
1070
    43
1040
12.0
1070
    48
1040
0.1
1070
    78
1070
     8
1070
   140
1040
3.2
1070
   176
1070
   256
1070
   177
1070
   256
1070
   271
1070
     0
1070
   272
1070
     3
1070
   275
1070
     0
1070
   284
1070
     0
1070
   289
1070
     3
1070
   340
1005
6B
1070
   371
1070
    -1
1070
   372
1070
    -1
1002
}
  0
LINE
  5
769A
330
1F
100
AcDbEntity
  8
AM_0
100
AcDbLine
 10
0.000007687785626
 20
-28.63749983467816
 30
0.0
 11
0.000007687785626
 21
-28.68670074546061
 31
0.0
  0
DIMENSION
  5
76A4
330
1F
100
AcDbEntity
  8
AM_5
100
AcDbDimension
  2
*D8
 10
0.0000076293947729
 20
-28.63749935912198
 30
0.0
 11
-2.751044303859089
 21
-63.92627021744216
 31
0.0
 70
   162
  1
<>
 71
     5
 42
0.1221728468873184
 51
359.9999999999998
  3
AM_JIS$2
100
AcDb2LineAngularDimension
 13
0.0000076877856332
 23
-28.63749983467816
 33
0.0
 14
0.0000076877856333
 24
-28.68670074546061
 34
0.0
 15
0.9495468139647719
 25
-36.37088825987896
 35
0.0
 16
2.925196720306947
 26
-64.47260318693095
 36
0.0
1001
GENIUS_GENDTOL_13
1000

1000
h7
1000

1040
0.0
1001
ACAD
1000
DSTYLE
1002
{
1070
   279
1070
     1
1002
}
  0
DIMENSION
  5
78B5
330
1F
100
AcDbEntity
  8
AM_5
100
AcDbDimension
  2
*D9
 10
-13.99999231221401
 20
-28.63749935912198
 30
0.0
 11
-17.09999231221401
 21
-41.13750031279597
 31
0.0
 70
    32
  1
<>
 71
     5
 42
25.00000190734799
 51
359.9999999999998
  3
AM_JIS$0
100
AcDbAlignedDimension
 13
1.1999969482418
 23
-53.63750126646996
 33
0.0
 14
0.0000038146967684
 24
-28.63749935912198
 34
0.0
 50
270.0000000000002
100
AcDbRotatedDimension
1001
GENIUS_GENDTOL_13
1000

1000
h7
1000

1040
0.0
1001
ACAD
1000
DSTYLE
1002
{
1070
   287
1070
     3
1070
     7
1000
OPEN30
1070
     5
1000

1070
   173
1070
     1
1070
     6
1000
OPEN30
1070
   282
1070
     0
1070
    40
1040
1.0
1070
    42
1040
1.0
1070
    43
1040
12.0
1070
    48
1040
0.1
1070
    78
1070
     8
1070
   140
1040
3.2
1070
   176
1070
   256
1070
   177
1070
   256
1070
   271
1070
     0
1070
   272
1070
     3
1070
   275
1070
     0
1070
   284
1070
     0
1070
   289
1070
     3
1070
   340
1005
6B
1070
   371
1070
    -1
1070
   372
1070
    -1
1002
}
  0
LINE
  5
7AD1
330
1F
100
AcDbEntity
  8
AM_0
100
AcDbLine
 10
0.0000038146967541
 20
-28.63749935912198
 30
0.0
 11
-0.0139926037074359
 21
-28.63749935912198
 31
0.0
  0
DIMENSION
  5
7ADD
330
1F
100
AcDbEntity
  8
AM_5
100
AcDbDimension
  2
*D10
 10
-0.013992603707436
 20
-28.63749935912198
 30
0.0
 11
-12.53774716227866
 21
-22.53749000600924
 31
0.0
 70
   162
  1
<>
 71
     5
 42
0.1221732172487968
 51
359.9999999999998
  3
AM_JIS$2
100
AcDb2LineAngularDimension
 13
5.138462066650745
 23
-29.26842358397496
 33
0.0
 14
0.0000038146967684
 24
-28.63749935912198
 34
0.0
 15
0.0000038146967684
 25
-28.63749935912198
 35
0.0
 16
-13.9313663650351
 26
-28.06983873516704
 36
0.0
1001
GENIUS_GENDTOL_13
1000

1000
h7
1000

1040
0.0
1001
ACAD
1000
DSTYLE
1002
{
1070
   173
1070
     1
1070
   282
1070
     1
1070
   342
1005
0
1070
   343
1005
59
1070
   344
1005
59
1002
}
  0
DIMENSION
  5
7C94
330
1F
100
AcDbEntity
  8
AM_5
100
AcDbDimension
  2
*D11
 10
-14.00000000000026
 20
2.998172481371913
 30
0.0
 11
-17.10000000000025
 21
-0.0009137593139673
 31
0.0
 70
    32
  1
<>
 71
     5
 42
5.998172481371756
 51
359.9999999999998
  3
AM_JIS$0
100
AcDbAlignedDimension
 13
2.999999999999737
 23
-2.999999999999848
 33
0.0
 14
3.104698481101981
 24
2.998172481371908
 34
0.0
 50
270.0000000000001
100
AcDbRotatedDimension
1001
GENIUS_GENDTOL_13
1000

1000
h7
1000

1040
0.0
1001
ACAD
1000
DSTYLE
1002
{
1070
   287
1070
     3
1070
    40
1040
1.0
1070
    42
1040
1.0
1070
    43
1040
12.0
1070
    48
1040
0.1
1070
    78
1070
     8
1070
   140
1040
3.2
1070
   176
1070
   256
1070
   177
1070
   256
1070
   271
1070
     0
1070
   272
1070
     3
1070
   275
1070
     0
1070
   284
1070
     0
1070
   289
1070
     3
1070
   340
1005
6B
1070
   371
1070
    -1
1070
   372
1070
    -1
1002
}
  0
DIMENSION
  5
7D72
330
1F
100
AcDbEntity
  8
AM_5
100
AcDbDimension
  2
*D12
 10
-24.00000000000032
 20
23.0000038146972
 30
0.0
 11
-27.10000000000033
 21
10.00000190734867
 31
0.0
 70
    32
  1
<>
 71
     5
 42
26.00000381469703
 51
359.9999999999998
  3
AM_JIS$0
100
AcDbAlignedDimension
 13
2.999999999999737
 23
-2.999999999999848
 33
0.0
 14
30.39230728149366
 24
23.00000381469718
 34
0.0
 50
270.0000000000002
100
AcDbRotatedDimension
1001
GENIUS_GENDTOL_13
1000

1000
h7
1000

1040
0.0
1001
ACAD
1000
DSTYLE
1002
{
1070
   287
1070
     3
1070
    40
1040
1.0
1070
    42
1040
1.0
1070
    43
1040
12.0
1070
    48
1040
0.1
1070
    78
1070
     8
1070
   140
1040
3.2
1070
   176
1070
   256
1070
   177
1070
   256
1070
   271
1070
     0
1070
   272
1070
     3
1070
   275
1070
     0
1070
   284
1070
     0
1070
   289
1070
     3
1070
   340
1005
6B
1070
   371
1070
    -1
1070
   372
1070
    -1
1002
}
  0
LEADER
  5
8057
330
1F
100
AcDbEntity
  8
AM_5
  6
Continuous
 48
0.5
100
AcDbLeader
  3
AM_JIS$7
 76
     2
 10
-43.49015368280081
 20
-30.05447903235024
 30
0.0
 10
-53.49015368280082
 20
-30.05447903235032
 30
0.0
211
1.0
221
0.0000000000000077
231
0.0
1001
ACAD
1000
DSTYLE
1002
{
1070
     6
1000
OPEN30
1070
   173
1070
     1
1070
   176
1070
     0
1070
   341
1005
59
1002
}
  0
MTEXT
  5
8058
330
1F
100
AcDbEntity
  8
AM_6
100
AcDbMText
 10
-35.51476382244825
 20
-30.11676900091533
 30
0.0
 40
5.0
 41
0.0
 71
     5
 72
     5
  1
\T1.4;\W0.59;＋７°
  7
ASAMI
 73
     1
 44
1.0
1001
ACAD
1000
MTEXTBEGIN
1070
    73
1070
     1
1070
    44
1040
1.0
1070
    74
1070
     0
1000
MTEXTEND
  0
MTEXT
  5
8059
330
1F
100
AcDbEntity
  8
AM_6
100
AcDbMText
 10
-51.04166116897506
 20
-16.71592807430428
 30
0.0
 40
5.0
 41
0.0
 71
     5
 72
     5
  1
\T1.40;\W0.59;０°
  7
ASAMI
 73
     1
 44
1.0
1001
ACAD
1000
MTEXTBEGIN
1070
    73
1070
     1
1070
    44
1040
1.0
1070
    74
1070
     0
1000
MTEXTEND
  0
LEADER
  5
805A
330
1F
100
AcDbEntity
  8
AM_5
  6
Continuous
 48
0.5
100
AcDbLeader
  3
AM_JIS$7
 76
     2
 10
-53.49015368280088
 20
-20.05447903235032
 30
0.0
 10
-53.49015368280082
 20
-30.05447903235032
 30
0.0
211
1.0
221
0.0000000000000077
231
0.0
1001
ACAD
1000
DSTYLE
1002
{
1070
     6
1000
OPEN30
1070
   173
1070
     1
1070
   176
1070
     0
1070
   341
1005
59
1002
}
  0
VIEWPORT
  5
110
102
{ACAD_XDICTIONARY
360
82A4
102
}
330
101
100
AcDbEntity
 67
     1
  8
0
100
AcDbViewport
 10
420.5
 20
297.0
 30
0.0
 40
948.9782706766916
 41
628.452
 68
     1
 69
     1
 12
420.5
 22
297.0
 13
0.0
 23
0.0
 14
10.0
 24
10.0
 15
10.0
 25
10.0
 16
0.0
 26
0.0
 36
1.0
 17
0.0
 27
0.0
 37
0.0
 42
50.0
 43
0.0
 44
0.0
 45
628.452
 50
0.0
 51
0.0
 72
   100
 90
    32800
  1

281
     0
 71
     1
 74
     0
110
-0.0000000000002682
120
0.000000000000161
130
0.0
111
1.0
121
0.000000000000002
131
0.0
112
-0.000000000000002
122
1.0
132
0.0
 79
     0
146
0.0
1001
GENIUS_GENSCREG_15
1000
PF
1040
1.0
1000
DF
1040
1.0
1000
MIN
1011
-53.98913533834582
1021
-17.226
1031
0.0
1000
MAX
1011
894.9891353383458
1021
611.226
1031
0.0
1000
FLAGS
1070
     4
1001
GENIUS_GENOBJ-N-SDF_13
1002
{
1000
OWNER
1000
GEN
1002
}
1001
GENIUS_GENODEF_13
1002
{
1000
HIER
1070
     0
1002
}
1002
{
1000
MANEDIT
1070
     0
1002
}
1002
{
1000
NOSEL
1070
     0
1002
}
1002
{
1000
BEHIND
1070
     0
1002
}
1002
{
1000
OTHER
1070
     0
1002
}
1002
{
1000
REACTOR
1002
}
  0
ENDSEC
  0
SECTION
  2
OBJECTS
  0
DICTIONARY
  5
C
330
0
100
AcDbDictionary
281
     1
  3
ACAD_COLOR
350
80FD
  3
ACAD_GROUP
350
D
  3
ACAD_LAYOUT
350
1A
  3
ACAD_MATERIAL
350
80FC
  3
ACAD_MLINESTYLE
350
17
  3
ACAD_PLOTSETTINGS
350
19
  3
ACAD_PLOTSTYLENAME
350
E
  3
ACAD_TABLESTYLE
350
80FE
  3
ACDBHEADERROUNDTRIPXREC
350
82A3
  3
ACDBVARIABLEDICTIONARY
350
34
  3
ACMDICTIONARY
350
43
  3
AMG
350
2B
  3
AMGSNAPSETTINGS
350
6E
  3
DWGPROPS
350
82A2
  0
DICTIONARY
  5
74
330
1F
100
AcDbDictionary
280
     1
281
     1
  3
ACAD_INDEX
360
8071
  3
ACAD_LAYOUTSELFREF
360
809E
  0
DICTIONARY
  5
80A3
330
101
100
AcDbDictionary
280
     1
281
     1
  3
ACAD_LAYOUTSELFREF
360
80A4
  0
DICTIONARY
  5
82A4
330
110
100
AcDbDictionary
280
     1
281
     1
  3
ACAD_XREC_ROUNDTRIP
360
82A5
  0
DICTIONARY
  5
80FD
102
{ACAD_REACTORS
330
C
102
}
330
C
100
AcDbDictionary
281
     1
  0
DICTIONARY
  5
D
102
{ACAD_REACTORS
330
C
102
}
330
C
100
AcDbDictionary
281
     1
  0
DICTIONARY
  5
1A
102
{ACAD_REACTORS
330
C
102
}
330
C
100
AcDbDictionary
281
     1
  3
Model
350
8100
  3
レイアウト1
350
8101
  0
DICTIONARY
  5
80FC
102
{ACAD_REACTORS
330
C
102
}
330
C
100
AcDbDictionary
281
     1
  0
DICTIONARY
  5
17
102
{ACAD_REACTORS
330
C
102
}
330
C
100
AcDbDictionary
281
     1
  3
STANDARD
350
18
  0
DICTIONARY
  5
19
102
{ACAD_REACTORS
330
C
102
}
330
C
100
AcDbDictionary
281
     1
  3
ASAMI
350
399D
  0
ACDBDICTIONARYWDFLT
  5
E
102
{ACAD_REACTORS
330
C
102
}
330
C
100
AcDbDictionary
281
     1
  3
Normal
350
F
100
AcDbDictionaryWithDefault
340
F
  0
DICTIONARY
  5
80FE
102
{ACAD_REACTORS
330
C
102
}
330
C
100
AcDbDictionary
281
     1
  3
Standard
350
80FF
  0
DICTIONARY
  5
82A3
102
{ACAD_REACTORS
330
C
102
}
330
C
100
AcDbDictionary
281
     1
  0
DICTIONARY
  5
34
102
{ACAD_REACTORS
330
C
102
}
330
C
100
AcDbDictionary
281
     1
  3
CTABLESTYLE
350
829E
  3
DIMASSOC
350
829F
  3
INDEXCTL
350
35
  3
PROJECTNAME
350
82A0
  3
SORTENTS
350
B5E
  0
DICTIONARY
  5
43
102
{ACAD_REACTORS
330
C
102
}
330
C
100
AcDbDictionary
281
     1
  3
ACMSTDDICTIONARY
350
260
  3
AMDTSECTSYM_ARROWCOLOR
350
8179
  0
DICTIONARY
  5
2B
102
{ACAD_REACTORS
330
C
102
}
330
C
100
AcDbDictionary
281
     1
  0
DICTIONARY
  5
6E
102
{ACAD_REACTORS
330
C
102
}
330
C
100
AcDbDictionary
281
     1
  0
XRECORD
  5
82A2
102
{ACAD_REACTORS
330
C
102
}
330
C
100
AcDbXrecord
280
     1
  1
DWGPROPS COOKIE
  2

  3

  4

  6

  7

  8

  9

300
AmdtFileType=82
301
=
302
=
303
=
304
=
305
=
306
=
307
=
308
=
309
=
 40
0.8631388773148149
 41
2452802.716478762
 42
2455610.654458542
  1

 90
        1
  0
DICTIONARY
  5
8071
102
{ACAD_REACTORS
330
74
102
}
330
74
100
AcDbDictionary
281
     1
  3
*A1
350
8072
  0
XRECORD
  5
809E
102
{ACAD_REACTORS
330
74
102
}
330
74
100
AcDbXrecord
280
     1
340
1F
  0
XRECORD
  5
80A4
102
{ACAD_REACTORS
330
80A3
102
}
330
80A3
100
AcDbXrecord
280
     1
340
101
  0
XRECORD
  5
82A5
102
{ACAD_REACTORS
330
82A4
102
}
330
82A4
100
AcDbXrecord
280
     1
102
SHADEPLOT
 70
     0
  0
LAYOUT
  5
8100
102
{ACAD_XDICTIONARY
360
82A8
102
}
102
{ACAD_REACTORS
330
1A
102
}
330
1A
100
AcDbPlotSettings
  1

  2
SII LP-1010 (C2 VR)2R
  4

  6

 40
0.0
 41
0.0
 42
0.0
 43
0.0
 44
0.0
 45
0.0
 46
0.0
 47
0.0
 48
0.0
 49
0.0
140
0.0
141
0.0
142
1.0
143
1.0
 70
  1712
 72
     0
 73
     0
 74
     0
  7
sei_cad.ctb
 75
     0
147
1.0
148
0.0
149
0.0
100
AcDbLayout
  1
Model
 70
     1
 71
     0
 10
0.0
 20
0.0
 11
12.0
 21
9.0
 12
0.0
 22
0.0
 32
0.0
 14
0.0
 24
0.0
 34
0.0
 15
0.0
 25
0.0
 35
0.0
146
0.0
 13
0.0
 23
0.0
 33
0.0
 16
1.0
 26
0.0
 36
0.0
 17
0.0
 27
1.0
 37
0.0
 76
     0
330
1F
  0
LAYOUT
  5
8101
102
{ACAD_XDICTIONARY
360
82AA
102
}
102
{ACAD_REACTORS
330
1A
102
}
330
1A
100
AcDbPlotSettings
  1

  2
SII LP-1010 (C2 VR)2R
  4

  6

 40
0.0
 41
0.0
 42
0.0
 43
0.0
 44
0.0
 45
0.0
 46
0.0
 47
0.0
 48
0.0
 49
0.0
140
0.0
141
0.0
142
1.0
143
1.0
 70
   688
 72
     0
 73
     0
 74
     5
  7
sei_cad.ctb
 75
    16
147
1.0
148
0.0
149
0.0
100
AcDbLayout
  1
レイアウト1
 70
     0
 71
     1
 10
0.0
 20
0.0
 11
841.0
 21
594.0
 12
0.0
 22
0.0
 32
0.0
 14
1.000000000000000E+20
 24
1.000000000000000E+20
 34
1.000000000000000E+20
 15
-1.000000000000000E+20
 25
-1.000000000000000E+20
 35
-1.000000000000000E+20
146
0.0
 13
0.0
 23
0.0
 33
0.0
 16
1.0
 26
0.0
 36
0.0
 17
0.0
 27
1.0
 37
0.0
 76
     0
330
101
331
110
  0
MLINESTYLE
  5
18
102
{ACAD_REACTORS
330
17
102
}
330
17
100
AcDbMlineStyle
  2
STANDARD
 70
     0
  3

 62
   256
 51
90.0
 52
90.0
 71
     2
 49
0.5
 62
   256
  6
BYLAYER
 49
-0.5
 62
   256
  6
BYLAYER
  0
PLOTSETTINGS
  5
399D
102
{ACAD_XDICTIONARY
360
82A6
102
}
102
{ACAD_REACTORS
330
19
102
}
330
19
100
AcDbPlotSettings
  1
asami
  2
RICOH imagio MF1540
  4
A4
  6

 40
5.831416606903076
 41
7.651742935180664
 42
4.90008544921875
 43
5.789077758789062
 44
296.9683227539062
 45
209.9733276367186
 46
0.0
 47
0.0
 48
-156.6707931774246
 49
-74.57609991074048
140
58.59973180214831
141
60.61068161925597
142
1.0
143
1.095343097833084
 70
  1712
 72
     1
 73
     1
 74
     4
  7
asami.ctb
 75
     0
147
0.9129559514076438
148
156.6707931774246
149
74.57609991074048
  0
ACDBPLACEHOLDER
  5
F
102
{ACAD_REACTORS
330
E
102
}
330
E
  0
TABLESTYLE
  5
80FF
102
{ACAD_REACTORS
330
80FE
102
}
330
80FE
100
AcDbTableStyle
  3
Standard
 70
     0
 71
     0
 40
1.5
 41
1.5
280
     0
281
     0
  7
STANDARD
140
4.5
170
     2
 62
     0
 63
     7
283
     0
274
    -2
284
     1
 64
     0
275
    -2
285
     1
 65
     0
276
    -2
286
     1
 66
     0
277
    -2
287
     1
 67
     0
278
    -2
288
     1
 68
     0
279
    -2
289
     1
 69
     0
  7
STANDARD
140
6.0
170
     5
 62
     0
 63
     7
283
     0
274
    -2
284
     1
 64
     0
275
    -2
285
     1
 65
     0
276
    -2
286
     1
 66
     0
277
    -2
287
     1
 67
     0
278
    -2
288
     1
 68
     0
279
    -2
289
     1
 69
     0
  7
STANDARD
140
4.5
170
     5
 62
     0
 63
     7
283
     0
274
    -2
284
     1
 64
     0
275
    -2
285
     1
 65
     0
276
    -2
286
     1
 66
     0
277
    -2
287
     1
 67
     0
278
    -2
288
     1
 68
     0
279
    -2
289
     1
 69
     0
  0
DICTIONARYVAR
  5
829E
102
{ACAD_REACTORS
330
34
102
}
330
34
100
DictionaryVariables
280
     0
  1
STANDARD
  0
DICTIONARYVAR
  5
829F
102
{ACAD_REACTORS
330
34
102
}
330
34
100
DictionaryVariables
280
     0
  1
1
  0
DICTIONARYVAR
  5
35
102
{ACAD_REACTORS
330
34
102
}
330
34
100
DictionaryVariables
280
     0
  1
1
  0
DICTIONARYVAR
  5
82A0
102
{ACAD_REACTORS
330
34
102
}
330
34
100
DictionaryVariables
280
     0
  1

  0
DICTIONARYVAR
  5
B5E
102
{ACAD_REACTORS
330
34
102
}
330
34
100
DictionaryVariables
280
     0
  1
96
  0
DICTIONARY
  5
260
102
{ACAD_REACTORS
330
43
102
}
330
43
100
AcDbDictionary
281
     1
  0
XRECORD
  5
8179
102
{ACAD_REACTORS
330
43
102
}
330
43
100
AcDbXrecord
280
     1
 90
-1023410169
  0
LAYER_INDEX
  5
8072
102
{ACAD_REACTORS
330
8071
102
}
330
8071
100
AcDbIndex
 40
2455610.654458542
100
AcDbLayerIndex
  8
0
360
8073
 90
        0
  8
AM_0
360
8074
 90
      156
  8
AM_5
360
8075
 90
       13
  8
AM_7
360
8076
 90
        3
  8
AM_6
360
8077
 90
        3
  8
DEFPOINTS
360
8078
 90
        0
  8
AM_11
360
8079
 90
        1
  0
DICTIONARY
  5
82A8
330
8100
100
AcDbDictionary
280
     1
281
     1
  3
ACAD_XREC_ROUNDTRIP
360
82A9
  0
DICTIONARY
  5
82AA
330
8101
100
AcDbDictionary
280
     1
281
     1
  3
ACAD_XREC_ROUNDTRIP
360
82AB
  0
DICTIONARY
  5
82A6
330
399D
100
AcDbDictionary
280
     1
281
     1
  3
ACAD_XREC_ROUNDTRIP
360
82A7
  0
IDBUFFER
  5
8073
330
0
100
AcDbIdBuffer
  0
IDBUFFER
  5
8074
330
0
100
AcDbIdBuffer
330
6FE3
330
6FE4
330
6FE5
330
6FE6
330
6FEC
330
6FED
330
6FEE
330
6FEF
330
6FF6
330
6FFB
330
7005
330
7006
330
7007
330
7008
330
7009
330
700A
330
700B
330
700C
330
700D
330
700E
330
700F
330
7010
330
7011
330
7012
330
7018
330
7019
330
701D
330
701E
330
701F
330
7020
330
7021
330
7022
330
7023
330
7024
330
7025
330
7026
330
7028
330
7029
330
702D
330
702E
330
7031
330
7034
330
7036
330
7037
330
703B
330
703C
330
7042
330
7043
330
7045
330
7046
330
7047
330
7048
330
704A
330
704C
330
704E
330
704F
330
7050
330
7051
330
7052
330
7053
330
7054
330
7055
330
7056
330
7057
330
7058
330
7061
330
706B
330
706D
330
706E
330
7070
330
7074
330
7075
330
7077
330
7087
330
708A
330
708B
330
708F
330
7090
330
7093
330
7094
330
7095
330
7096
330
7097
330
7098
330
7099
330
709A
330
709B
330
709C
330
709D
330
709E
330
709F
330
70A0
330
70A1
330
70A2
330
70A3
330
70A4
330
70A5
330
70A6
330
70A7
330
70A8
330
70A9
330
70AA
330
70AB
330
70AC
330
70AD
330
70AE
330
70AF
330
70B0
330
70B1
330
70B3
330
70B4
330
70B5
330
70B6
330
70B7
330
70B8
330
70B9
330
70BA
330
70BC
330
70BD
330
70BE
330
70BF
330
70C0
330
70C2
330
70C3
330
70C4
330
70C5
330
70C6
330
70C7
330
70C8
330
70C9
330
70CA
330
70CB
330
70CC
330
70CD
330
70CE
330
70CF
330
70D0
330
70D1
330
70D2
330
70D3
330
70D4
330
70D5
330
70D6
330
70D7
330
70D8
330
70D9
330
70DA
330
70DB
330
70DC
330
70DD
330
70DE
330
70DF
330
70E3
330
70E5
330
769A
330
7AD1
  0
IDBUFFER
  5
8075
330
0
100
AcDbIdBuffer
330
724A
330
72DA
330
7378
330
74D4
330
7513
330
75EB
330
76A4
330
78B5
330
7ADD
330
7C94
330
7D72
330
8057
330
805A
  0
IDBUFFER
  5
8076
330
0
100
AcDbIdBuffer
330
7044
330
7049
330
7091
  0
IDBUFFER
  5
8077
330
0
100
AcDbIdBuffer
330
388D
330
8058
330
8059
  0
IDBUFFER
  5
8078
330
0
100
AcDbIdBuffer
  0
IDBUFFER
  5
8079
330
0
100
AcDbIdBuffer
330
74D2
  0
XRECORD
  5
82A9
102
{ACAD_REACTORS
330
82A8
102
}
330
82A8
100
AcDbXrecord
280
     1
102
SHADEPLOT
 70
     0
102
SHADEPLOTRESLEVEL
 70
     2
102
SHADEPLOTCUSTOMDPI
 70
   300
  0
XRECORD
  5
82AB
102
{ACAD_REACTORS
330
82AA
102
}
330
82AA
100
AcDbXrecord
280
     1
102
SHADEPLOT
 70
     0
102
SHADEPLOTRESLEVEL
 70
     2
102
SHADEPLOTCUSTOMDPI
 70
   300
  0
XRECORD
  5
82A7
102
{ACAD_REACTORS
330
82A6
102
}
330
82A6
100
AcDbXrecord
280
     1
102
SHADEPLOT
 70
     0
102
SHADEPLOTRESLEVEL
 70
     2
102
SHADEPLOTCUSTOMDPI
 70
   300
  0
ENDSEC
  0
EOF
