  0
SECTION
  2
HEADER
  9
$ACADVER
  1
AC1015
  9
$ACADMAINTVER
 70
    20
  9
$DWGCODEPAGE
  3
ANSI_932
  9
$INSBASE
 10
0.0
 20
0.0
 30
0.0
  9
$EXTMIN
 10
-118.178379588098
 20
-81.56854625973975
 30
0.0
  9
$EXTMAX
 10
169.7609908585458
 20
139.9999923706039
 30
0.0
  9
$LIMMIN
 10
-192.398041210736
 20
-100.2398091588297
  9
$LIMMAX
 10
125.5359825347272
 20
82.84703300194497
  9
$ORTHOMODE
 70
     0
  9
$REGENMODE
 70
     1
  9
$FILLMODE
 70
     1
  9
$QTEXTMODE
 70
     0
  9
$MIRRTEXT
 70
     0
  9
$LTSCALE
 40
1.0
  9
$ATTMODE
 70
     1
  9
$TEXTSIZE
 40
2.5
  9
$TRACEWID
 40
1.0
  9
$TEXTSTYLE
  7
STANDARD
  9
$CLAYER
  8
AM_0
  9
$CELTYPE
  6
BYLAYER
  9
$CECOLOR
 62
   256
  9
$CELTSCALE
 40
1.0
  9
$DISPSILH
 70
     0
  9
$DIMSCALE
 40
0.5
  9
$DIMASZ
 40
2.5
  9
$DIMEXO
 40
1.0
  9
$DIMDLI
 40
12.0
  9
$DIMRND
 40
0.0
  9
$DIMDLE
 40
0.0
  9
$DIMEXE
 40
1.0
  9
$DIMTP
 40
0.1
  9
$DIMTM
 40
0.1
  9
$DIMTXT
 40
3.2
  9
$DIMCEN
 40
0.0
  9
$DIMTSZ
 40
0.0
  9
$DIMTOL
 70
     0
  9
$DIMLIM
 70
     0
  9
$DIMTIH
 70
     0
  9
$DIMTOH
 70
     0
  9
$DIMSE1
 70
     0
  9
$DIMSE2
 70
     0
  9
$DIMTAD
 70
     3
  9
$DIMZIN
 70
     8
  9
$DIMBLK
  1
OPEN30
  9
$DIMASO
 70
     1
  9
$DIMSHO
 70
     1
  9
$DIMPOST
  1

  9
$DIMAPOST
  1
"
  9
$DIMALT
 70
     0
  9
$DIMALTD
 70
     2
  9
$DIMALTF
 40
0.0393701
  9
$DIMLFAC
 40
1.0
  9
$DIMTOFL
 70
     1
  9
$DIMTVP
 40
0.0
  9
$DIMTIX
 70
     0
  9
$DIMSOXD
 70
     0
  9
$DIMSAH
 70
     0
  9
$DIMBLK1
  1

  9
$DIMBLK2
  1

  9
$DIMSTYLE
  2
AM_JIS
  9
$DIMCLRD
 70
   256
  9
$DIMCLRE
 70
   256
  9
$DIMCLRT
 70
     2
  9
$DIMTFAC
 40
0.71
  9
$DIMGAP
 40
1.5
  9
$DIMJUST
 70
     0
  9
$DIMSD1
 70
     0
  9
$DIMSD2
 70
     0
  9
$DIMTOLJ
 70
     0
  9
$DIMTZIN
 70
     0
  9
$DIMALTZ
 70
     0
  9
$DIMALTTZ
 70
     0
  9
$DIMUPT
 70
     0
  9
$DIMDEC
 70
     3
  9
$DIMTDEC
 70
     3
  9
$DIMALTU
 70
     2
  9
$DIMALTTD
 70
     2
  9
$DIMTXSTY
  7
ASAMI
  9
$DIMAUNIT
 70
     0
  9
$DIMADEC
 70
     0
  9
$DIMALTRND
 40
0.0
  9
$DIMAZIN
 70
     2
  9
$DIMDSEP
 70
    46
  9
$DIMATFIT
 70
     3
  9
$DIMFRAC
 70
     0
  9
$DIMLDRBLK
  1
OPEN30
  9
$DIMLUNIT
 70
     2
  9
$DIMLWD
 70
    -1
  9
$DIMLWE
 70
    -1
  9
$DIMTMOVE
 70
     0
  9
$LUNITS
 70
     2
  9
$LUPREC
 70
     2
  9
$SKETCHINC
 40
1.0
  9
$FILLETRAD
 40
0.4
  9
$AUNITS
 70
     0
  9
$AUPREC
 70
     0
  9
$MENU
  1
.
  9
$ELEVATION
 40
0.0
  9
$PELEVATION
 40
0.0
  9
$THICKNESS
 40
0.0
  9
$LIMCHECK
 70
     1
  9
$CHAMFERA
 40
1.0
  9
$CHAMFERB
 40
1.0
  9
$CHAMFERC
 40
20.0
  9
$CHAMFERD
 40
0.0
  9
$SKPOLY
 70
     0
  9
$TDCREATE
 40
2452802.716478762
  9
$TDUCREATE
 40
2452802.341478762
  9
$TDUPDATE
 40
2455610.657938901
  9
$TDUUPDATE
 40
2455610.282938900
  9
$TDINDWG
 40
1.0696462500
  9
$TDUSRTIMER
 40
1.0696462500
  9
$USRTIMER
 70
     1
  9
$ANGBASE
 50
0.0
  9
$ANGDIR
 70
     0
  9
$PDMODE
 70
     0
  9
$PDSIZE
 40
0.0
  9
$PLINEWID
 40
0.0
  9
$SPLFRAME
 70
     0
  9
$SPLINETYPE
 70
     6
  9
$SPLINESEGS
 70
     8
  9
$HANDSEED
  5
9358
  9
$SURFTAB1
 70
     6
  9
$SURFTAB2
 70
     6
  9
$SURFTYPE
 70
     6
  9
$SURFU
 70
     6
  9
$SURFV
 70
     6
  9
$UCSBASE
  2

  9
$UCSNAME
  2

  9
$UCSORG
 10
-0.0000000000002682
 20
0.000000000000161
 30
0.0
  9
$UCSXDIR
 10
1.0
 20
0.000000000000002
 30
0.0
  9
$UCSYDIR
 10
-0.000000000000002
 20
1.0
 30
0.0
  9
$UCSORTHOREF
  2

  9
$UCSORTHOVIEW
 70
     0
  9
$UCSORGTOP
 10
0.0
 20
0.0
 30
0.0
  9
$UCSORGBOTTOM
 10
0.0
 20
0.0
 30
0.0
  9
$UCSORGLEFT
 10
0.0
 20
0.0
 30
0.0
  9
$UCSORGRIGHT
 10
0.0
 20
0.0
 30
0.0
  9
$UCSORGFRONT
 10
0.0
 20
0.0
 30
0.0
  9
$UCSORGBACK
 10
0.0
 20
0.0
 30
0.0
  9
$PUCSBASE
  2

  9
$PUCSNAME
  2

  9
$PUCSORG
 10
0.0
 20
0.0
 30
0.0
  9
$PUCSXDIR
 10
1.0
 20
0.0
 30
0.0
  9
$PUCSYDIR
 10
0.0
 20
1.0
 30
0.0
  9
$PUCSORTHOREF
  2

  9
$PUCSORTHOVIEW
 70
     0
  9
$PUCSORGTOP
 10
0.0
 20
0.0
 30
0.0
  9
$PUCSORGBOTTOM
 10
0.0
 20
0.0
 30
0.0
  9
$PUCSORGLEFT
 10
0.0
 20
0.0
 30
0.0
  9
$PUCSORGRIGHT
 10
0.0
 20
0.0
 30
0.0
  9
$PUCSORGFRONT
 10
0.0
 20
0.0
 30
0.0
  9
$PUCSORGBACK
 10
0.0
 20
0.0
 30
0.0
  9
$USERI1
 70
     0
  9
$USERI2
 70
     0
  9
$USERI3
 70
     0
  9
$USERI4
 70
     0
  9
$USERI5
 70
     0
  9
$USERR1
 40
0.0
  9
$USERR2
 40
0.0
  9
$USERR3
 40
0.0
  9
$USERR4
 40
0.0
  9
$USERR5
 40
0.0
  9
$WORLDVIEW
 70
     1
  9
$SHADEDGE
 70
     3
  9
$SHADEDIF
 70
    70
  9
$TILEMODE
 70
     1
  9
$MAXACTVP
 70
    64
  9
$PINSBASE
 10
0.0
 20
0.0
 30
0.0
  9
$PLIMCHECK
 70
     0
  9
$PEXTMIN
 10
1.000000000000000E+20
 20
1.000000000000000E+20
 30
1.000000000000000E+20
  9
$PEXTMAX
 10
-1.000000000000000E+20
 20
-1.000000000000000E+20
 30
-1.000000000000000E+20
  9
$PLIMMIN
 10
0.0
 20
0.0
  9
$PLIMMAX
 10
841.0
 20
594.0
  9
$UNITMODE
 70
     0
  9
$VISRETAIN
 70
     1
  9
$PLINEGEN
 70
     0
  9
$PSLTSCALE
 70
     0
  9
$TREEDEPTH
 70
  3020
  9
$CMLSTYLE
  2
STANDARD
  9
$CMLJUST
 70
     0
  9
$CMLSCALE
 40
20.0
  9
$PROXYGRAPHICS
 70
     1
  9
$MEASUREMENT
 70
     1
  9
$CELWEIGHT
370
    -1
  9
$ENDCAPS
280
     0
  9
$JOINSTYLE
280
     0
  9
$LWDISPLAY
290
     0
  9
$INSUNITS
 70
     4
  9
$HYPERLINKBASE
  1

  9
$STYLESHEET
  1
ASAMI.CTB
  9
$XEDIT
290
     1
  9
$CEPSNTYPE
380
     0
  9
$PSTYLEMODE
290
     1
  9
$FINGERPRINTGUID
  2
{AFB28963-8C59-40AE-9337-C84526B81ACE}
  9
$VERSIONGUID
  2
{71096F1D-E0D6-4487-BF8E-92B743F5456D}
  9
$EXTNAMES
290
     1
  9
$PSVPSCALE
 40
0.0
  9
$OLESTARTUP
290
     0
  0
ENDSEC
  0
SECTION
  2
CLASSES
  0
CLASS
  1
ACDBDICTIONARYWDFLT
  2
AcDbDictionaryWithDefault
  3
ObjectDBX Classes
 90
        0
280
     0
281
     0
  0
CLASS
  1
ACDBPLACEHOLDER
  2
AcDbPlaceHolder
  3
ObjectDBX Classes
 90
        0
280
     0
281
     0
  0
CLASS
  1
LAYOUT
  2
AcDbLayout
  3
ObjectDBX Classes
 90
        0
280
     0
281
     0
  0
CLASS
  1
AMGSETTINGSOBJ
  2
AmgSettingsObj
  3
"AcadM|Product Description: AutoCAD Mechanical 2000|Company: Autodesk"
 90
        0
280
     0
281
     0
  0
CLASS
  1
ACME_DOCUMENT
  2
AcMeDbDoc
  3
AcMeServices
 90
        0
280
     0
281
     0
  0
CLASS
  1
ACMESCOPE
  2
AcMeScope
  3
AcMeServices
 90
        0
280
     0
281
     0
  0
CLASS
  1
ACMECOMMANDHISTORY
  2
AcMeCommandHistory
  3
AcMeServices
 90
        0
280
     0
281
     0
  0
CLASS
  1
DICTIONARYVAR
  2
AcDbDictionaryVar
  3
ObjectDBX Classes
 90
        0
280
     0
281
     0
  0
CLASS
  1
ACIMSYSVARMAN
  2
AcImSysVarManager
  3
AcMeServices
 90
        0
280
     0
281
     0
  0
CLASS
  1
ACIMREALSYSVAR
  2
AcImRealSysVar
  3
AcMeServices
 90
        0
280
     0
281
     0
  0
CLASS
  1
ACIMINTSYSVAR
  2
AcImIntSysVar
  3
AcMeServices
 90
        0
280
     0
281
     0
  0
CLASS
  1
ACMEDRAWINGMAN
  2
AcMeDrawingMan
  3
AcMeServices
 90
        0
280
     0
281
     0
  0
CLASS
  1
ACMEVIEW
  2
AcMeView
  3
AcMeServices
 90
        0
280
     0
281
     0
  0
CLASS
  1
ACDBENTITYCACHE
  2
AcMeEntityCache
  3
AcMeServices
 90
        0
280
     0
281
     0
  0
CLASS
  1
GSMANAGER
  2
AcMeGSManager
  3
AcMeServices
 90
        0
280
     0
281
     0
  0
CLASS
  1
AMDTINTERNALREACTOR
  2
AmdtInternalReactor
  3
AcMeServices
 90
        0
280
     0
281
     0
  0
CLASS
  1
ACMESTATEMGR
  2
AcMeStateMgr
  3
AcMeServices
 90
        0
280
     0
281
     0
  0
CLASS
  1
ACME_DATABASE
  2
AcMeDbDatabase
  3
AcMeServices
 90
        0
280
     0
281
     0
  0
CLASS
  1
ACRFINSADJUSTERMGR
  2
AcRfInsAdjusterMgr
  3
AcMeServices
 90
        0
280
     0
281
     0
  0
CLASS
  1
ACMDATADICTIONARY
  2
AcmDataDictionary
  3
"AcmSymBB|Product Description: AutoCAD Mechanical 2004 DX|Company: Autodesk"
 90
        0
280
     0
281
     0
  0
CLASS
  1
ACMDATAENTRYBLOCK
  2
AcmDataEntryBlock
  3
"AcmSymBB|Product Description: AutoCAD Mechanical 2004 DX|Company: Autodesk"
 90
    32768
280
     0
281
     0
  0
CLASS
  1
AMGOBJPROPCFG
  2
AmgObjPropCfg
  3
"AmgLay|Product Description: AutoCAD Mechanical 2000|Company: Autodesk"
 90
        1
280
     0
281
     0
  0
CLASS
  1
ACAMGFILTERDAT
  2
AcAmgFilterDat
  3
"AcadM|Product Description: AutoCAD Mechanical 2000|Company: Autodesk"
 90
    32768
280
     0
281
     0
  0
CLASS
  1
LAYER_INDEX
  2
AcDbLayerIndex
  3
ObjectDBX Classes
 90
        0
280
     0
281
     0
  0
CLASS
  1
IDBUFFER
  2
AcDbIdBuffer
  3
ObjectDBX Classes
 90
        0
280
     0
281
     0
  0
CLASS
  1
ACIMSTRSYSVAR
  2
AcImStrSysVar
  3
AcMeServices
 90
        0
280
     0
281
     0
  0
CLASS
  1
ACMSTANDARDJIS
  2
AcmStandardJIS
  3
"Amdt_StdImp|Product Description: AutoCAD Mechanical 2004 DX|Company: Autodesk"
 90
    32768
280
     0
281
     0
  0
CLASS
  1
ACMSURFSTANDARDJIS
  2
AcmSurfTextStdJIS
  3
"Amdt_StdImp|Product Description: AutoCAD Mechanical 2004 DX|Company: Autodesk"
 90
    32768
280
     0
281
     0
  0
CLASS
  1
ACMFCFSTANDARDJIS
  2
AcmFCFStdJIS
  3
"Amdt_StdImp|Product Description: AutoCAD Mechanical 2004 DX|Company: Autodesk"
 90
    32768
280
     0
281
     0
  0
CLASS
  1
ACMWELDSTANDARDJIS
  2
AcmWeldingStdJIS
  3
"Amdt_StdImp|Product Description: AutoCAD Mechanical 2004 DX|Company: Autodesk"
 90
    32768
280
     0
281
     0
  0
CLASS
  1
ACMIDSTANDARDJIS
  2
AcmIdStdJIS
  3
"Amdt_StdImp|Product Description: AutoCAD Mechanical 2004 DX|Company: Autodesk"
 90
    32768
280
     0
281
     0
  0
CLASS
  1
ACMDATUMSTANDARDJIS
  2
AcmDatumStdJIS
  3
"Amdt_StdImp|Product Description: AutoCAD Mechanical 2004 DX|Company: Autodesk"
 90
    32768
280
     0
281
     0
  0
CLASS
  1
ACMBOMSTANDARDJIS
  2
AcmBOMStdJIS
  3
"Amdt_StdImp|Product Description: AutoCAD Mechanical 2004 DX|Company: Autodesk"
 90
    32768
280
     0
281
     0
  0
CLASS
  1
ACMSTANDARDANSI
  2
AcmStandardANSI
  3
"Amdt_StdImp|Product Description: AutoCAD Mechanical 2004 DX|Company: Autodesk"
 90
    32768
280
     0
281
     0
  0
CLASS
  1
ACMSURFSTANDARDANSI
  2
AcmSurfTextStdANSI
  3
"Amdt_StdImp|Product Description: AutoCAD Mechanical 2004 DX|Company: Autodesk"
 90
    32768
280
     0
281
     0
  0
CLASS
  1
ACMFCFSTANDARDANSI
  2
AcmFCFStdANSI
  3
"Amdt_StdImp|Product Description: AutoCAD Mechanical 2004 DX|Company: Autodesk"
 90
    32768
280
     0
281
     0
  0
CLASS
  1
ACMWELDSTANDARDANSI
  2
AcmWeldingStdANSI
  3
"Amdt_StdImp|Product Description: AutoCAD Mechanical 2004 DX|Company: Autodesk"
 90
    32768
280
     0
281
     0
  0
CLASS
  1
ACMIDSTANDARDANSI
  2
AcmIdStdANSI
  3
"Amdt_StdImp|Product Description: AutoCAD Mechanical 2004 DX|Company: Autodesk"
 90
    32768
280
     0
281
     0
  0
CLASS
  1
ACMDATUMSTANDARDANSI
  2
AcmDatumStdANSI
  3
"Amdt_StdImp|Product Description: AutoCAD Mechanical 2004 DX|Company: Autodesk"
 90
    32768
280
     0
281
     0
  0
CLASS
  1
ACMBOMSTANDARDANSI
  2
AcmBOMStdANSI
  3
"Amdt_StdImp|Product Description: AutoCAD Mechanical 2004 DX|Company: Autodesk"
 90
    32768
280
     0
281
     0
  0
CLASS
  1
ACMSTANDARDBSI
  2
AcmStandardBSI
  3
"Amdt_StdImp|Product Description: AutoCAD Mechanical 2004 DX|Company: Autodesk"
 90
    32768
280
     0
281
     0
  0
CLASS
  1
ACMSURFSTANDARDBSI
  2
AcmSurfTextStdBSI
  3
"Amdt_StdImp|Product Description: AutoCAD Mechanical 2004 DX|Company: Autodesk"
 90
    32768
280
     0
281
     0
  0
CLASS
  1
ACMFCFSTANDARDBSI
  2
AcmFCFStdBSI
  3
"Amdt_StdImp|Product Description: AutoCAD Mechanical 2004 DX|Company: Autodesk"
 90
    32768
280
     0
281
     0
  0
CLASS
  1
ACMWELDSTANDARDBSI
  2
AcmWeldingStdBSI
  3
"Amdt_StdImp|Product Description: AutoCAD Mechanical 2004 DX|Company: Autodesk"
 90
    32768
280
     0
281
     0
  0
CLASS
  1
ACMIDSTANDARDBSI
  2
AcmIdStdBSI
  3
"Amdt_StdImp|Product Description: AutoCAD Mechanical 2004 DX|Company: Autodesk"
 90
    32768
280
     0
281
     0
  0
CLASS
  1
ACMDATUMSTANDARDBSI
  2
AcmDatumStdBSI
  3
"Amdt_StdImp|Product Description: AutoCAD Mechanical 2004 DX|Company: Autodesk"
 90
    32768
280
     0
281
     0
  0
CLASS
  1
ACMBOMSTANDARDBSI
  2
AcmBOMStdBSI
  3
"Amdt_StdImp|Product Description: AutoCAD Mechanical 2004 DX|Company: Autodesk"
 90
    32768
280
     0
281
     0
  0
CLASS
  1
STDPART2D
  2
AmgStdPart
  3
"AmgStdPart|Product Description: AutoCAD Mechanical 2000|Company: Autodesk"
 90
    33791
280
     0
281
     1
  0
CLASS
  1
PLOTSETTINGS
  2
AcDbPlotSettings
  3
ObjectDBX Classes
 90
        0
280
     0
281
     0
  0
CLASS
  1
TABLESTYLE
  2
AcDbTableStyle
  3
ObjectDBX Classes
 90
     2047
280
     0
281
     0
  0
CLASS
  1
ACGREFMASTER
  2
AcGrefMaster
  3
AcAttribServices
 90
        0
280
     0
281
     0
  0
CLASS
  1
AM_DRAWING_MGR
  2
AcDmDwgMgr
  3
AcMechDwgViewMgmt
 90
        0
280
     0
281
     0
  0
CLASS
  1
AM_DWG_DOCUMENT
  2
AcDmDwgDocument
  3
AcMechDwgViewMgmt
 90
        0
280
     0
281
     0
  0
CLASS
  1
AM_DWG_SHEET
  2
AcDmSheet
  3
AcMechDwgViewMgmt
 90
        0
280
     0
281
     0
  0
CLASS
  1
AM_VIEWDIMPARMAP
  2
AcDmViewDimParMap
  3
AcMechDwgViewMgmt
 90
        0
280
     0
281
     0
  0
CLASS
  1
AM_DWGMGR_NAME
  2
AcDmDwgMgrName
  3
AcMechDwgViewMgmt
 90
        0
280
     0
281
     0
  0
CLASS
  1
ACGREFACADMASTER
  2
AcGrefacadMaster
  3
AcGrefServices
 90
        0
280
     0
281
     0
  0
CLASS
  1
AMDTMENUSTATEMGR
  2
AmdtMenuStateMgr
  3
McadcomServices
 90
        0
280
     0
281
     0
  0
CLASS
  1
AMDTMCOMMENUSTATE
  2
AmdtMcomMenuState
  3
McadcomServices
 90
        0
280
     0
281
     0
  0
CLASS
  1
AMIMASTER
  2
AmiMaster
  3
AmiServices
 90
        0
280
     0
281
     0
  0
CLASS
  1
MAPIAMMOUDLE
  2
MApiAmModule
  3
MApiAmServices
 90
        0
280
     0
281
     0
  0
CLASS
  1
AMDTADMENUSTATE
  2
AmdtAdMenuState
  3
DesignerServices
 90
        0
280
     0
281
     0
  0
CLASS
  1
ADAPPL
  2
AcAdAppl
  3
DesignerServices
 90
        0
280
     0
281
     0
  0
CLASS
  1
DEPMGR
  2
AcAdDepMgr
  3
DesignerServices
 90
        0
280
     0
281
     0
  0
CLASS
  1
PARAMMGR
  2
AcAdParamMgr
  3
DesignerServices
 90
        0
280
     0
281
     0
  0
CLASS
  1
PARAMSCOPE
  2
AcAdParamScope
  3
DesignerServices
 90
        0
280
     0
281
     0
  0
CLASS
  1
NAMEDAPPL
  2
AcAdNamedAppl
  3
DesignerServices
 90
        0
280
     0
281
     0
  0
CLASS
  1
AMDTDMMENUSTATE
  2
AmdtDmMenuState
  3
AcMechDwgViewMgmt
 90
        0
280
     0
281
     0
  0
CLASS
  1
AMDTAMMENUSTATE
  2
AmdtAmMenuState
  3
DesignerAssemblies
 90
        0
280
     0
281
     0
  0
CLASS
  1
ACAMPROJECT
  2
AcAmProject
  3
DesignerAssemblies
 90
        0
280
     0
281
     0
  0
CLASS
  1
ACAMGRCOMPDEF
  2
AcAmGrCompDef
  3
DesignerAssemblies
 90
        0
280
     0
281
     0
  0
CLASS
  1
ACCMCONTEXT
  2
AcCmContext
  3
DesignerAssemblies
 90
        0
280
     0
281
     0
  0
CLASS
  1
ACAMCOMPDEF
  2
AcAmCompDef
  3
DesignerAssemblies
 90
        0
280
     0
281
     0
  0
CLASS
  1
ACAMCOMPDEFMGR
  2
AcAmCompDefMgr
  3
DesignerAssemblies
 90
        0
280
     0
281
     0
  0
CLASS
  1
AMCONTEXTMGR
  2
AcAmContextMgr
  3
DesignerAssemblies
 90
        0
280
     0
281
     0
  0
CLASS
  1
ACAMCONTEXTMODELER
  2
AcAmContextModeler
  3
DesignerAssemblies
 90
        0
280
     0
281
     0
  0
CLASS
  1
CATALOGSTATE
  2
AcAmCatalogState
  3
DesignerAssemblies
 90
        0
280
     0
281
     0
  0
CLASS
  1
ACAMGRCOMPDEFSET
  2
AcAmGrCompDefSet
  3
DesignerAssemblies
 90
        0
280
     0
281
     0
  0
CLASS
  1
AMDTBROWSERDBTAB
  2
AmdtBrowserDbTab
  3
McadcomServices
 90
        0
280
     0
281
     0
  0
CLASS
  1
CBROWSERAPPOBJECT
  2
CBrowserAppObject
  3
McadcomServices
 90
        0
280
     0
281
     0
  0
CLASS
  1
DM_PLACEHOLDER
  2
AcDmSelsetPlaceholder
  3
AcMechDwgViewMgmt
 90
        0
280
     0
281
     0
  0
CLASS
  1
ACMSTANDARDISO
  2
AcmStandardISO
  3
"Amdt_StdImp|Product Description: AutoCAD Mechanical 2004 DX|Company: Autodesk"
 90
        0
280
     0
281
     0
  0
CLASS
  1
AMDTEDGESTANDARDISO13715
  2
AmdtEdgeStdISO13715
  3
"Amdt_StdImp|Product Description: AutoCAD Mechanical 2004 DX|Company: Autodesk"
 90
        0
280
     0
281
     0
  0
CLASS
  1
ACMSURFSTANDARDISO
  2
AcmSurfTextStdISO
  3
"Amdt_StdImp|Product Description: AutoCAD Mechanical 2004 DX|Company: Autodesk"
 90
        0
280
     0
281
     0
  0
CLASS
  1
ACMFCFSTANDARDISO
  2
AcmFCFStdISO
  3
"Amdt_StdImp|Product Description: AutoCAD Mechanical 2004 DX|Company: Autodesk"
 90
        0
280
     0
281
     0
  0
CLASS
  1
ACMWELDSTANDARDISO
  2
AcmWeldingStdISO
  3
"Amdt_StdImp|Product Description: AutoCAD Mechanical 2004 DX|Company: Autodesk"
 90
        0
280
     0
281
     0
  0
CLASS
  1
ACMIDSTANDARDISO
  2
AcmIdStdISO
  3
"Amdt_StdImp|Product Description: AutoCAD Mechanical 2004 DX|Company: Autodesk"
 90
        0
280
     0
281
     0
  0
CLASS
  1
ACMDATUMSTANDARDISO
  2
AcmDatumStdISO
  3
"Amdt_StdImp|Product Description: AutoCAD Mechanical 2004 DX|Company: Autodesk"
 90
        0
280
     0
281
     0
  0
CLASS
  1
ACMBOMSTANDARDISO
  2
AcmBOMStdISO
  3
"Amdt_StdImp|Product Description: AutoCAD Mechanical 2004 DX|Company: Autodesk"
 90
        0
280
     0
281
     0
  0
CLASS
  1
ACMDETAILSTANDARDISO
  2
AmdtDetailSymStdISO
  3
"Amdt_StdImp|Product Description: AutoCAD Mechanical 2004 DX|Company: Autodesk"
 90
        0
280
     0
281
     0
  0
CLASS
  1
ACMSECTIONSTANDARDISO
  2
AmdtSectionSymStdISO
  3
"Amdt_StdImp|Product Description: AutoCAD Mechanical 2004 DX|Company: Autodesk"
 90
        0
280
     0
281
     0
  0
CLASS
  1
ACMCENTERLINESTANDARDISO
  2
AmdtCenterLineStdISO
  3
"Amdt_StdImp|Product Description: AutoCAD Mechanical 2004 DX|Company: Autodesk"
 90
        0
280
     0
281
     0
  0
CLASS
  1
ACMTHREADLINESTANDARDISO
  2
AmdtThreadLineStdISO
  3
"Amdt_StdImp|Product Description: AutoCAD Mechanical 2004 DX|Company: Autodesk"
 90
        0
280
     0
281
     0
  0
CLASS
  1
ACMNOTESTANDARDISO
  2
AmdtNoteStdISO
  3
"Amdt_StdImp|Product Description: AutoCAD Mechanical 2004 DX|Company: Autodesk"
 90
        0
280
     0
281
     0
  0
CLASS
  1
AMDTNOTETEMPLATEDB
  2
AmdtNoteTemplateDB
  3
AMDT_STDIMP_MODULE_NAME
 90
        0
280
     0
281
     0
  0
CLASS
  1
ACAMGLAYSTD
  2
AcAmgLayStd
  3
"AcAmgLayStd|Product Description: AutoCAD Mechanical 2000|Company: Autodesk"
 90
        0
280
     0
281
     0
  0
CLASS
  1
ACAMGDIMSTD
  2
AcAmgDimStd
  3
"AcAmgDimStd|Product Description: AutoCAD Mechanical 2000|Company: Autodesk"
 90
        0
280
     0
281
     0
  0
CLASS
  1
ACAMGHOLECHARTSTDISO
  2
AcAmgHoleChartStdISO
  3
ACMSYMBB_MODULE_NAME
 90
        0
280
     0
281
     0
  0
CLASS
  1
ACAMGTITLESTD
  2
AcAmgTitleStd
  3
"TITLEAPP"
 90
        0
280
     0
281
     0
  0
ENDSEC
  0
SECTION
  2
TABLES
  0
TABLE
  2
VPORT
  5
8
330
0
100
AcDbSymbolTable
 70
     3
  0
VPORT
  5
934D
330
8
100
AcDbSymbolTableRecord
100
AcDbViewportTableRecord
  2
*Active
 70
     0
 10
0.0
 20
0.0
 11
1.0
 21
1.0
 12
29.10028299163318
 22
-14.71010286344398
 13
0.0
 23
0.0
 14
2.5
 24
2.5
 15
10.0
 25
10.0
 16
0.0
 26
0.0
 36
1.0
 17
0.0
 27
0.0
 37
0.0
 40
190.6939254425461
 41
2.166666666666666
 42
50.0
 43
0.0
 44
0.0
 50
0.0
 51
0.0
 71
     0
 72
   100
 73
     1
 74
     3
 75
     0
 76
     0
 77
     0
 78
     0
281
     0
 65
     0
110
-0.0000000000002682
120
0.000000000000161
130
0.0
111
1.0
121
0.000000000000002
131
0.0
112
-0.000000000000002
122
1.0
132
0.0
 79
     0
146
0.0
  0
ENDTAB
  0
TABLE
  2
LTYPE
  5
5
330
0
100
AcDbSymbolTable
 70
    16
  0
LTYPE
  5
14
330
5
100
AcDbSymbolTableRecord
100
AcDbLinetypeTableRecord
  2
BYBLOCK
 70
     0
  3

 72
    65
 73
     0
 40
0.0
  0
LTYPE
  5
15
330
5
100
AcDbSymbolTableRecord
100
AcDbLinetypeTableRecord
  2
BYLAYER
 70
     0
  3

 72
    65
 73
     0
 40
0.0
  0
LTYPE
  5
16
330
5
100
AcDbSymbolTableRecord
100
AcDbLinetypeTableRecord
  2
CONTINUOUS
 70
     0
  3
Solid line
 72
    65
 73
     0
 40
0.0
  0
LTYPE
  5
4B
330
5
100
AcDbSymbolTableRecord
100
AcDbLinetypeTableRecord
  2
AM_ISO02W050
 70
     0
  3
__ __ __ __ __ __ __ __ __ __ __ __ __ __ __
 72
    65
 73
     2
 40
7.5
 49
6.0
 74
     0
 49
-1.5
 74
     0
  0
LTYPE
  5
4C
330
5
100
AcDbSymbolTableRecord
100
AcDbLinetypeTableRecord
  2
AM_ISO08W050
 70
     0
  3
____ . ____ . ____ . ____ . ____ . ____ . ____
 72
    65
 73
     4
 40
18.0
 49
12.0
 74
     0
 49
-1.5
 74
     0
 49
3.0
 74
     0
 49
-1.5
 74
     0
  0
LTYPE
  5
4D
330
5
100
AcDbSymbolTableRecord
100
AcDbLinetypeTableRecord
  2
AM_ISO09W050
 70
     0
  3
_____ . . _____ . . _____ . . ____ .. ____
 72
    65
 73
     6
 40
22.5
 49
12.0
 74
     0
 49
-1.5
 74
     0
 49
3.0
 74
     0
 49
-1.5
 74
     0
 49
3.0
 74
     0
 49
-1.5
 74
     0
  0
LTYPE
  5
4E
330
5
100
AcDbSymbolTableRecord
100
AcDbLinetypeTableRecord
  2
AMCONSTR
 70
     0
  3
_______________________
 72
    65
 73
     2
 40
9999.0
 49
9999.0
 74
     0
 49
0.0
 74
     0
  0
LTYPE
  5
4F
330
5
100
AcDbSymbolTableRecord
100
AcDbLinetypeTableRecord
  2
AM_ISO02W050X2
 70
     0
  3
 _ _ _ _ _ _ _ _ _ _ _ _
 72
    65
 73
     2
 40
3.75
 49
3.0
 74
     0
 49
-0.75
 74
     0
  0
LTYPE
  5
50
330
5
100
AcDbSymbolTableRecord
100
AcDbLinetypeTableRecord
  2
AM_ISO08W050X2
 70
     0
  3
__ . __ . __ . __ . __ . __
 72
    65
 73
     4
 40
9.0
 49
6.0
 74
     0
 49
-0.75
 74
     0
 49
1.5
 74
     0
 49
-0.75
 74
     0
  0
LTYPE
  5
53
330
5
100
AcDbSymbolTableRecord
100
AcDbLinetypeTableRecord
  2
AMZIGZAG
 70
     0
  3
/\/-/\/-/\/-/\/-/\/-/\/
 72
    65
 73
     2
 40
11.00009999999999
 49
0.0001
 74
     4
 75
   135
340
52
 46
0.04
 50
0.0
 44
0.0
 45
0.0
 49
-11.0
 74
     0
  0
LTYPE
  5
9194
330
5
100
AcDbSymbolTableRecord
100
AcDbLinetypeTableRecord
  2
HIDDEN
 70
     0
  3
Hidden __ __ __ __ __ __ __ __ __ __ __ __ __ _
 72
    65
 73
     2
 40
9.524999999999996
 49
6.349999999999998
 74
     0
 49
-3.174999999999998
 74
     0
  0
LTYPE
  5
9195
330
5
100
AcDbSymbolTableRecord
100
AcDbLinetypeTableRecord
  2
PHANTOM2
 70
     0
  3
Phantom (.5x) ___ _ _ ___ _ _ ___ _ _ ___ _ _
 72
    65
 73
     6
 40
31.75
 49
15.875
 74
     0
 49
-3.174999999999998
 74
     0
 49
3.174999999999998
 74
     0
 49
-3.174999999999998
 74
     0
 49
3.174999999999998
 74
     0
 49
-3.174999999999998
 74
     0
  0
LTYPE
  5
9196
330
5
100
AcDbSymbolTableRecord
100
AcDbLinetypeTableRecord
  2
CENTER
 70
     0
  3
Center ____ _ ____ _ ____ _ ____ _ ____ _ ____
 72
    65
 73
     4
 40
50.8
 49
31.75
 74
     0
 49
-6.349999999999998
 74
     0
 49
6.349999999999998
 74
     0
 49
-6.349999999999998
 74
     0
  0
LTYPE
  5
91D6
330
5
100
AcDbSymbolTableRecord
100
AcDbLinetypeTableRecord
  2
ACISOWELD
 70
     0
  3
_ _ _ _ _
 72
    65
 73
     2
 40
2.0
 49
2.0
 74
     0
 49
-1.0
 74
     0
  0
LTYPE
  5
91D7
330
5
100
AcDbSymbolTableRecord
100
AcDbLinetypeTableRecord
  2
ACISOTGB
 70
     0
  3
__ . . __ . .
 72
    65
 73
     6
 40
9.0
 49
4.0
 74
     0
 49
-1.0
 74
     0
 49
1.0
 74
     0
 49
-1.0
 74
     0
 49
1.0
 74
     0
 49
-1.0
 74
     0
  0
LTYPE
  5
91D8
330
5
100
AcDbSymbolTableRecord
100
AcDbLinetypeTableRecord
  2
ACISOTGL
 70
     0
  3
_ _ _ _ _
 72
    65
 73
     2
 40
3.0
 49
2.0
 74
     0
 49
-1.0
 74
     0
  0
ENDTAB
  0
TABLE
  2
LAYER
  5
2
330
0
100
AcDbSymbolTable
 70
     9
  0
LAYER
  5
10
330
2
100
AcDbSymbolTableRecord
100
AcDbLayerTableRecord
  2
0
 70
     0
 62
     7
  6
CONTINUOUS
370
    -3
390
F
  0
LAYER
  5
3F9
330
2
100
AcDbSymbolTableRecord
100
AcDbLayerTableRecord
  2
AM_0
 70
     0
 62
     7
  6
CONTINUOUS
370
    -3
390
F
  0
LAYER
  5
BA4
330
2
100
AcDbSymbolTableRecord
100
AcDbLayerTableRecord
  2
AM_5
 70
     0
 62
     3
  6
CONTINUOUS
370
    -3
390
F
  0
LAYER
  5
BA6
330
2
100
AcDbSymbolTableRecord
100
AcDbLayerTableRecord
  2
AM_7
 70
     0
 62
     4
  6
AM_ISO08W050
370
    -3
390
F
  0
LAYER
  5
E64
330
2
100
AcDbSymbolTableRecord
100
AcDbLayerTableRecord
  2
AM_6
 70
     0
 62
     2
  6
CONTINUOUS
370
    -3
390
F
  0
LAYER
  5
F4D
330
2
100
AcDbSymbolTableRecord
100
AcDbLayerTableRecord
  2
DEFPOINTS
 70
     0
 62
     7
  6
CONTINUOUS
290
     0
370
    -3
390
F
  0
LAYER
  5
4E80
330
2
100
AcDbSymbolTableRecord
100
AcDbLayerTableRecord
  2
AM_11
 70
     0
 62
     3
  6
AM_ISO09W050
370
    -3
390
F
  0
ENDTAB
  0
TABLE
  2
STYLE
  5
3
330
0
100
AcDbSymbolTable
 70
     7
  0
STYLE
  5
11
330
3
100
AcDbSymbolTableRecord
100
AcDbTextStyleTableRecord
  2
STANDARD
 70
     0
 40
0.0
 41
1.0
 50
0.0
 71
     0
 42
2.5
  3
simplex.shx
  4
EXTFONT.SHX
  0
STYLE
  5
52
330
3
100
AcDbSymbolTableRecord
100
AcDbTextStyleTableRecord
  2

 70
     1
 40
0.0
 41
1.0
 50
0.0
 71
     0
 42
2.5
  3
ltypeshp.shx
  4

  0
STYLE
  5
6B
330
3
100
AcDbSymbolTableRecord
100
AcDbTextStyleTableRecord
  2
ASAMI
 70
     0
 40
0.0
 41
1.0
 50
0.0
 71
     0
 42
2.5
  3
simplex.shx
  4
EXTFONT.SHX
  0
STYLE
  5
91C8
330
3
100
AcDbSymbolTableRecord
100
AcDbTextStyleTableRecord
  2
ACISOTS
 70
     0
 40
1.0
 41
1.0
 50
0.0
 71
     0
 42
2.5
  3
isocp.shx
  4
extfont.shx
  0
STYLE
  5
91D5
330
3
100
AcDbSymbolTableRecord
100
AcDbTextStyleTableRecord
  2
ACISOGDT
 70
     0
 40
0.0
 41
1.0
 50
0.0
 71
     0
 42
2.5
  3
amgdt.shx
  4

  0
ENDTAB
  0
TABLE
  2
VIEW
  5
6
330
0
100
AcDbSymbolTable
 70
     0
  0
ENDTAB
  0
TABLE
  2
UCS
  5
7
330
0
100
AcDbSymbolTable
 70
     0
  0
ENDTAB
  0
TABLE
  2
APPID
  5
9
330
0
100
AcDbSymbolTable
 70
    31
  0
APPID
  5
12
330
9
100
AcDbSymbolTableRecord
100
AcDbRegAppTableRecord
  2
ACAD
 70
     0
  0
APPID
  5
30
330
9
100
AcDbSymbolTableRecord
100
AcDbRegAppTableRecord
  2
MCAD_NO_VIS
 70
     0
  0
APPID
  5
31
330
9
100
AcDbSymbolTableRecord
100
AcDbRegAppTableRecord
  2
ACAD_TEMP_GRAPHIC
 70
     0
  0
APPID
  5
2C2
330
9
100
AcDbSymbolTableRecord
100
AcDbRegAppTableRecord
  2
GENIUS_GENDTOL_13
 70
     0
  0
APPID
  5
339
330
9
100
AcDbSymbolTableRecord
100
AcDbRegAppTableRecord
  2
GENIUS_GENODEF_13
 70
     0
  0
APPID
  5
33A
330
9
100
AcDbSymbolTableRecord
100
AcDbRegAppTableRecord
  2
GENIUS_GENOBJ-N-RSBK_13
 70
     0
  0
APPID
  5
33B
330
9
100
AcDbSymbolTableRecord
100
AcDbRegAppTableRecord
  2
GENIUS_GENOBJ-N-LIB_13
 70
     0
  0
APPID
  5
33C
330
9
100
AcDbSymbolTableRecord
100
AcDbRegAppTableRecord
  2
GENIUS_GENSCALE_13
 70
     0
  0
APPID
  5
378
330
9
100
AcDbSymbolTableRecord
100
AcDbRegAppTableRecord
  2
GENIUS_GENDIMSH_14
 70
     0
  0
APPID
  5
BB0
330
9
100
AcDbSymbolTableRecord
100
AcDbRegAppTableRecord
  2
GENIUS_GENOBJ-N-CEN_13
 70
     0
  0
APPID
  5
BB1
330
9
100
AcDbSymbolTableRecord
100
AcDbRegAppTableRecord
  2
GENIUS_GENFIL_13
 70
     0
  0
APPID
  5
BB2
330
9
100
AcDbSymbolTableRecord
100
AcDbRegAppTableRecord
  2
GENIUS_GENOBJ-N-CHA_13
 70
     0
  0
APPID
  5
1FAF
330
9
100
AcDbSymbolTableRecord
100
AcDbRegAppTableRecord
  2
GENIUS_GENOBJ-N-CRS_13
 70
     0
  0
APPID
  5
1FB0
330
9
100
AcDbSymbolTableRecord
100
AcDbRegAppTableRecord
  2
GENIUS_GENOENT_13
 70
     0
  0
APPID
  5
1FB1
330
9
100
AcDbSymbolTableRecord
100
AcDbRegAppTableRecord
  2
GENIUS_GENOREF_13
 70
     0
  0
APPID
  5
1FB2
330
9
100
AcDbSymbolTableRecord
100
AcDbRegAppTableRecord
  2
GENIUS_GENOLIS_13
 70
     0
  0
APPID
  5
1FB7
330
9
100
AcDbSymbolTableRecord
100
AcDbRegAppTableRecord
  2
GENIUS_GENOBJ-N-FIL_13
 70
     0
  0
APPID
  5
22A8
330
9
100
AcDbSymbolTableRecord
100
AcDbRegAppTableRecord
  2
GEVID1056506048
 70
     0
  0
APPID
  5
22A9
330
9
100
AcDbSymbolTableRecord
100
AcDbRegAppTableRecord
  2
GEVDC
 70
     0
  0
APPID
  5
22AC
330
9
100
AcDbSymbolTableRecord
100
AcDbRegAppTableRecord
  2
GENIUS_GENBH_13
 70
     0
  0
APPID
  5
22B8
330
9
100
AcDbSymbolTableRecord
100
AcDbRegAppTableRecord
  2
GENIUS_GENOBJ-NBEHI-BHF_13
 70
     0
  0
APPID
  5
22BA
330
9
100
AcDbSymbolTableRecord
100
AcDbRegAppTableRecord
  2
GENIUS_GENOBJ-NBEHI-BHB_13
 70
     0
  0
APPID
  5
35C9
330
9
100
AcDbSymbolTableRecord
100
AcDbRegAppTableRecord
  2
GENIUS_GENREC_14
 70
     0
  0
APPID
  5
35CA
330
9
100
AcDbSymbolTableRecord
100
AcDbRegAppTableRecord
  2
GENIUS_GENOBJ-N-REC_13
 70
     0
  0
APPID
  5
9198
330
9
100
AcDbSymbolTableRecord
100
AcDbRegAppTableRecord
  2
AD_DRAW
 70
     0
  0
APPID
  5
919B
330
9
100
AcDbSymbolTableRecord
100
AcDbRegAppTableRecord
  2
ACATTRIBSERVICES
 70
     0
  0
APPID
  5
91B9
330
9
100
AcDbSymbolTableRecord
100
AcDbRegAppTableRecord
  2
DESIGNERASSEMBLIES
 70
     0
  0
APPID
  5
91BE
330
9
100
AcDbSymbolTableRecord
100
AcDbRegAppTableRecord
  2
ACADM_DIM_EDIT
 70
     0
  0
APPID
  5
91BF
330
9
100
AcDbSymbolTableRecord
100
AcDbRegAppTableRecord
  2
AMDT_DM_ADJ
 70
     0
  0
APPID
  5
91EB
330
9
100
AcDbSymbolTableRecord
100
AcDbRegAppTableRecord
  2
GENIUS_GENSCREG_15
 70
     0
  0
APPID
  5
91EC
330
9
100
AcDbSymbolTableRecord
100
AcDbRegAppTableRecord
  2
GENIUS_GENOBJ-N-SDF_13
 70
     0
  0
ENDTAB
  0
TABLE
  2
DIMSTYLE
  5
A
330
0
100
AcDbSymbolTable
 70
    20
100
AcDbDimStyleTable
 71
     0
  0
DIMSTYLE
105
58
330
A
100
AcDbSymbolTableRecord
100
AcDbDimStyleTableRecord
  2
AM_JIS
 70
     0
  4
"
 41
2.5
 42
1.0
 43
12.0
 44
1.0
 47
0.1
 48
0.1
 73
     0
 74
     0
 77
     3
 78
     8
140
3.2
141
0.0
143
0.0393701
146
0.71
147
1.5
172
     1
176
   256
177
   256
178
     2
271
     3
272
     3
283
     0
340
6B
341
59
342
59
  0
DIMSTYLE
105
60
102
{ACAD_REACTORS
330
8DA8
102
}
330
A
100
AcDbSymbolTableRecord
100
AcDbDimStyleTableRecord
  2
AM_JIS$4
 70
     0
  4
"
 41
2.5
 42
1.0
 43
10.0
 44
1.0
 47
0.1
 48
0.1
 73
     0
 77
     3
 78
     8
140
3.2
141
0.0
143
0.0393701
146
0.71
147
1.5
176
   256
177
   256
178
     2
271
     2
272
     3
283
     0
288
     1
340
6B
341
59
342
59
  0
DIMSTYLE
105
62
330
A
100
AcDbSymbolTableRecord
100
AcDbDimStyleTableRecord
  2
AM_JIS$7
 70
     0
  4
"
 41
2.5
 42
1.0
 43
10.0
 44
1.0
 47
0.1
 48
0.1
 73
     0
 74
     0
 77
     3
 78
     8
140
3.2
141
0.0
143
0.0393701
146
0.71
147
1.5
172
     1
176
   256
177
   256
178
     2
271
     2
272
     3
283
     0
340
6B
341
59
342
59
  0
DIMSTYLE
105
B34
102
{ACAD_REACTORS
330
8498
330
8899
330
8A45
330
8B4B
102
}
330
A
100
AcDbSymbolTableRecord
100
AcDbDimStyleTableRecord
  2
AM_JIS$2
 70
     0
  4
"
 41
2.5
 42
1.0
 43
12.0
 44
1.0
 47
0.1
 48
0.1
 73
     0
 74
     0
 77
     3
 78
     8
140
3.2
141
0.0
143
0.0393701
146
0.71
147
1.5
172
     1
176
   256
177
   256
178
     2
271
     3
272
     3
283
     0
340
6B
341
59
342
59
  0
DIMSTYLE
105
3B48
102
{ACAD_REACTORS
330
8350
330
83EA
330
857A
330
8742
330
87E8
330
89AC
330
8C93
330
8DE0
102
}
330
A
100
AcDbSymbolTableRecord
100
AcDbDimStyleTableRecord
  2
AM_JIS$0
 70
     0
  4
"
 41
2.5
 42
0.0
 43
10.0
 44
1.0
 47
0.1
 48
0.1000000001
 73
     0
 74
     0
 77
     3
 78
     1
140
3.799999999999998
141
0.0
143
0.0393701
146
0.71
147
1.5
172
     1
176
     3
177
     3
178
     2
271
     2
272
     2
275
     1
283
     0
284
     8
340
11
341
59
342
59
  0
DIMSTYLE
105
91E2
330
A
100
AcDbSymbolTableRecord
100
AcDbDimStyleTableRecord
  2
AM_ISO
 70
     0
  4
"
 41
2.5
 42
1.0
 43
10.0
 44
1.0
 47
0.1
 48
0.1
 73
     0
 74
     0
 77
     1
 78
     8
 79
     2
140
3.5
141
0.0
143
0.0393701
146
0.71
147
1.5
172
     1
176
   256
177
   256
178
     2
271
     2
272
     3
274
     4
283
     0
284
     8
340
11
371
    -1
372
    -1
  0
DIMSTYLE
105
91E3
330
A
100
AcDbSymbolTableRecord
100
AcDbDimStyleTableRecord
  2
AM_ISO$3
 70
     0
  4
"
 41
2.5
 42
1.0
 43
10.0
 44
1.0
 47
0.1
 48
0.1
 73
     0
 77
     1
 78
     8
 79
     2
140
3.5
141
0.0
143
0.0393701
146
0.71
147
1.5
176
   256
177
   256
178
     2
271
     2
272
     3
274
     4
283
     0
284
     8
288
     1
289
     0
340
11
371
    -1
372
    -1
  0
DIMSTYLE
105
91E4
330
A
100
AcDbSymbolTableRecord
100
AcDbDimStyleTableRecord
  2
AM_ISO$4
 70
     0
  4
"
 41
2.5
 42
1.0
 43
10.0
 44
1.0
 47
0.1
 48
0.1
 73
     0
 77
     1
 78
     8
 79
     2
140
3.5
141
0.0
143
0.0393701
146
0.71
147
1.5
176
   256
177
   256
178
     2
271
     2
272
     3
274
     4
283
     0
284
     8
288
     1
289
     0
340
11
371
    -1
372
    -1
  0
DIMSTYLE
105
91E5
330
A
100
AcDbSymbolTableRecord
100
AcDbDimStyleTableRecord
  2
AM_ISO$6
 70
     0
  4
"
 41
2.5
 42
1.0
 43
10.0
 44
1.0
 47
0.1
 48
0.1
 73
     0
 74
     0
 78
     8
 79
     2
140
3.5
141
0.0
143
0.0393701
146
0.71
147
1.5
172
     1
176
   256
177
   256
178
     2
271
     2
272
     3
274
     4
283
     0
284
     8
340
11
371
    -1
372
    -1
  0
DIMSTYLE
105
91E6
330
A
100
AcDbSymbolTableRecord
100
AcDbDimStyleTableRecord
  2
AM_ISO$7
 70
     0
  4
"
 41
2.5
 42
1.0
 43
10.0
 44
1.0
 47
0.1
 48
0.1
 73
     0
 74
     0
 77
     1
 78
     8
 79
     2
140
5.0
141
0.0
143
0.0393701
146
0.71
147
1.5
172
     1
176
   256
177
   256
178
     2
271
     2
272
     3
274
     4
283
     0
284
     8
340
11
371
    -1
372
    -1
  0
DIMSTYLE
105
91E7
330
A
100
AcDbSymbolTableRecord
100
AcDbDimStyleTableRecord
  2
AM_ISO$SF
 70
     0
  4
"
 41
2.5
 42
1.0
 43
10.0
 44
1.0
 47
0.1
 48
0.1
 73
     0
 74
     0
 75
     1
 76
     1
 77
     1
 78
     8
 79
     2
140
3.5
141
0.0
143
0.0393701
146
0.71
147
1.5
172
     1
176
   256
177
   256
178
     2
271
     2
272
     3
274
     4
283
     0
284
     8
340
11
371
    -1
372
    -1
  0
DIMSTYLE
105
91E8
330
A
100
AcDbSymbolTableRecord
100
AcDbDimStyleTableRecord
  2
AM_ISO$SH
 70
     0
  4
"
 41
2.5
 42
1.0
 43
10.0
 44
1.0
 47
0.1
 48
0.1
 73
     0
 74
     0
 75
     1
 76
     1
 77
     1
 78
     8
 79
     2
140
3.5
141
0.0
143
0.0393701
144
2.0
146
0.71
147
1.5
172
     1
173
     1
176
   256
177
   256
178
     2
271
     2
272
     3
274
     4
283
     0
284
     8
340
11
343
64
371
    -1
372
    -1
  0
ENDTAB
  0
TABLE
  2
BLOCK_RECORD
  5
1
330
0
100
AcDbSymbolTable
 70
    16
  0
BLOCK_RECORD
  5
1F
102
{ACAD_XDICTIONARY
360
74
102
}
330
1
100
AcDbSymbolTableRecord
100
AcDbBlockTableRecord
  2
*MODEL_SPACE
340
9161
  0
BLOCK_RECORD
  5
101
102
{ACAD_XDICTIONARY
360
9106
102
}
330
1
100
AcDbSymbolTableRecord
100
AcDbBlockTableRecord
  2
*PAPER_SPACE
340
9162
  0
BLOCK_RECORD
  5
59
330
1
100
AcDbSymbolTableRecord
100
AcDbBlockTableRecord
  2
_OPEN30
340
0
102
{BLKREFS
331
91F1
331
91F2
331
91FA
331
91FB
331
9210
331
9211
331
9219
331
921A
331
9238
331
9239
331
9258
331
9259
331
9260
331
9266
331
9267
331
927F
331
9280
331
928C
331
92A2
331
92A3
331
92AF
331
92B0
331
92BB
331
92BC
102
}
  0
BLOCK_RECORD
  5
64
330
1
100
AcDbSymbolTableRecord
100
AcDbBlockTableRecord
  2
GENAXEH
340
0
  0
BLOCK_RECORD
  5
8351
330
1
100
AcDbSymbolTableRecord
100
AcDbBlockTableRecord
  2
*D2
340
0
  0
BLOCK_RECORD
  5
83EB
330
1
100
AcDbSymbolTableRecord
100
AcDbBlockTableRecord
  2
*D3
340
0
  0
BLOCK_RECORD
  5
8499
330
1
100
AcDbSymbolTableRecord
100
AcDbBlockTableRecord
  2
*D4
340
0
  0
BLOCK_RECORD
  5
857B
330
1
100
AcDbSymbolTableRecord
100
AcDbBlockTableRecord
  2
*D5
340
0
  0
BLOCK_RECORD
  5
8743
330
1
100
AcDbSymbolTableRecord
100
AcDbBlockTableRecord
  2
*D6
340
0
  0
BLOCK_RECORD
  5
87E9
330
1
100
AcDbSymbolTableRecord
100
AcDbBlockTableRecord
  2
*D7
340
0
  0
BLOCK_RECORD
  5
889A
330
1
100
AcDbSymbolTableRecord
100
AcDbBlockTableRecord
  2
*D8
340
0
  0
BLOCK_RECORD
  5
89AD
330
1
100
AcDbSymbolTableRecord
100
AcDbBlockTableRecord
  2
*D9
340
0
  0
BLOCK_RECORD
  5
8A46
330
1
100
AcDbSymbolTableRecord
100
AcDbBlockTableRecord
  2
*D10
340
0
  0
BLOCK_RECORD
  5
8B4C
330
1
100
AcDbSymbolTableRecord
100
AcDbBlockTableRecord
  2
*D11
340
0
  0
BLOCK_RECORD
  5
8C94
330
1
100
AcDbSymbolTableRecord
100
AcDbBlockTableRecord
  2
*D12
340
0
  0
BLOCK_RECORD
  5
8DA9
330
1
100
AcDbSymbolTableRecord
100
AcDbBlockTableRecord
  2
*D13
340
0
  0
BLOCK_RECORD
  5
8DE1
330
1
100
AcDbSymbolTableRecord
100
AcDbBlockTableRecord
  2
*D14
340
0
  0
ENDTAB
  0
ENDSEC
  0
SECTION
  2
BLOCKS
  0
BLOCK
  5
20
330
1F
100
AcDbEntity
  8
0
100
AcDbBlockBegin
  2
*MODEL_SPACE
 70
     0
 10
0.0
 20
0.0
 30
0.0
  3
*MODEL_SPACE
  1

  0
ENDBLK
  5
21
330
1F
100
AcDbEntity
  8
0
100
AcDbBlockEnd
  0
BLOCK
  5
103
330
101
100
AcDbEntity
 67
     1
  8
0
100
AcDbBlockBegin
  2
*PAPER_SPACE
 70
     0
 10
0.0
 20
0.0
 30
0.0
  3
*PAPER_SPACE
  1

  0
ENDBLK
  5
104
330
101
100
AcDbEntity
 67
     1
  8
0
100
AcDbBlockEnd
  0
BLOCK
  5
5D
330
59
100
AcDbEntity
  8
0
100
AcDbBlockBegin
  2
_OPEN30
 70
     0
 10
0.0
 20
0.0
 30
0.0
  3
_OPEN30
  1

  0
LINE
  5
5A
330
59
100
AcDbEntity
  8
0
 62
     0
100
AcDbLine
 10
-1.0
 20
0.26794919
 30
0.0
 11
0.0
 21
0.0
 31
0.0
  0
LINE
  5
5B
330
59
100
AcDbEntity
  8
0
 62
     0
100
AcDbLine
 10
0.0
 20
0.0
 30
0.0
 11
-1.0
 21
-0.26794919
 31
0.0
  0
LINE
  5
5C
330
59
100
AcDbEntity
  8
0
 62
     0
100
AcDbLine
 10
0.0
 20
0.0
 30
0.0
 11
-1.0
 21
0.0
 31
0.0
  0
ENDBLK
  5
5E
330
59
100
AcDbEntity
  8
0
100
AcDbBlockEnd
  0
BLOCK
  5
66
330
64
100
AcDbEntity
  8
0
100
AcDbBlockBegin
  2
GENAXEH
 70
     0
 10
0.0
 20
0.0
 30
0.0
  3
GENAXEH
  1

  0
LINE
  5
65
330
64
100
AcDbEntity
  8
0
100
AcDbLine
 10
-1.0
 20
0.0
 30
0.0
 11
1.0
 21
0.0
 31
0.0
  0
ENDBLK
  5
67
330
64
100
AcDbEntity
  8
0
100
AcDbBlockEnd
  0
BLOCK
  5
835B
330
8351
100
AcDbEntity
  8
0
100
AcDbBlockBegin
  2
*D2
 70
     1
 10
0.0
 20
0.0
 30
0.0
  3
*D2
  1

  0
LINE
  5
91EE
330
8351
100
AcDbEntity
  8
AM_5
100
AcDbLine
 10
151.0000038146926
 20
7.223541259766879
 30
0.0
 11
169.7609908585458
 21
7.223541259766935
 31
0.0
  0
LINE
  5
91EF
330
8351
100
AcDbEntity
  8
AM_5
100
AcDbLine
 10
151.0000038146924
 20
32.22354125976688
 30
0.0
 11
169.7609908585458
 21
32.22354125976693
 31
0.0
  0
LINE
  5
91F0
330
8351
100
AcDbEntity
  8
AM_5
100
AcDbLine
 10
168.7609908585458
 20
9.723541259766932
 30
0.0
 11
168.7609908585458
 21
29.72354125976693
 31
0.0
  0
INSERT
  5
91F1
330
8351
100
AcDbEntity
  8
AM_5
100
AcDbBlockReference
  2
_OPEN30
 10
168.7609908585458
 20
7.223541259766931
 30
0.0
 41
2.5
 42
2.5
 43
2.5
 50
270.0000000000002
  0
INSERT
  5
91F2
330
8351
100
AcDbEntity
  8
AM_5
100
AcDbBlockReference
  2
_OPEN30
 10
168.7609908585458
 20
32.22354125976693
 30
0.0
 41
2.5
 42
2.5
 43
2.5
 50
90.00000000000015
  0
MTEXT
  5
91F3
330
8351
100
AcDbEntity
  8
AM_5
 62
     2
100
AcDbMText
 10
165.6609908585458
 20
19.72354125976691
 30
0.0
 40
3.2
 41
0.0
 71
     5
 72
     1
  1
25
  7
ASAMI
 11
-0.0000000000000028
 21
1.0
 31
0.0
 73
     1
 44
1.0
1001
ACAD
1000
MTEXTBEGIN
1070
    73
1070
     1
1070
    44
1040
1.0
1070
    74
1070
     0
1000
MTEXTEND
  0
POINT
  5
91F4
330
8351
100
AcDbEntity
  8
DEFPOINTS
 62
     0
100
AcDbPoint
 10
150.0000038146926
 20
7.22354125976641
 30
0.0
  0
POINT
  5
91F5
330
8351
100
AcDbEntity
  8
DEFPOINTS
 62
     0
100
AcDbPoint
 10
150.0000038146925
 20
32.22354125976642
 30
0.0
  0
POINT
  5
91F6
330
8351
100
AcDbEntity
  8
DEFPOINTS
 62
     0
100
AcDbPoint
 10
168.7609908585459
 20
32.22354125976642
 30
0.0
  0
ENDBLK
  5
835C
330
8351
100
AcDbEntity
  8
0
100
AcDbBlockEnd
  0
BLOCK
  5
83F5
330
83EB
100
AcDbEntity
  8
0
100
AcDbBlockBegin
  2
*D3
 70
     1
 10
0.0
 20
0.0
 30
0.0
  3
*D3
  1

  0
LINE
  5
91F7
330
83EB
100
AcDbEntity
  8
AM_5
100
AcDbLine
 10
-0.0000000000002807
 20
4.000000000000178
 30
0.0
 11
-0.0000000000002118
 21
47.22354125976639
 31
0.0
  0
LINE
  5
91F8
330
83EB
100
AcDbEntity
  8
AM_5
100
AcDbLine
 10
19.00000476837164
 20
10.35773849487322
 30
0.0
 11
19.0000047683717
 21
47.22354125976637
 31
0.0
  0
LINE
  5
91F9
330
83EB
100
AcDbEntity
  8
AM_5
100
AcDbLine
 10
2.499999999999785
 20
46.22354125976638
 30
0.0
 11
16.5000047683717
 21
46.22354125976637
 31
0.0
  0
INSERT
  5
91FA
330
83EB
100
AcDbEntity
  8
AM_5
100
AcDbBlockReference
  2
_OPEN30
 10
-0.0000000000002134
 20
46.2235412597664
 30
0.0
 41
2.5
 42
2.5
 43
2.5
 50
179.9999999999998
  0
INSERT
  5
91FB
330
83EB
100
AcDbEntity
  8
AM_5
100
AcDbBlockReference
  2
_OPEN30
 10
19.0000047683717
 20
46.22354125976637
 30
0.0
 41
2.5
 42
2.5
 43
2.5
 50
359.9999999999998
  0
MTEXT
  5
91FC
330
83EB
100
AcDbEntity
  8
AM_5
 62
     2
100
AcDbMText
 10
9.50000238418575
 20
49.32354125976639
 30
0.0
 40
3.2
 41
0.0
 71
     5
 72
     1
  1
19
  7
ASAMI
 73
     1
 44
1.0
1001
ACAD
1000
MTEXTBEGIN
1070
    73
1070
     1
1070
    44
1040
1.0
1070
    74
1070
     0
1000
MTEXTEND
  0
POINT
  5
91FD
330
83EB
100
AcDbEntity
  8
DEFPOINTS
 62
     0
100
AcDbPoint
 10
-0.0000000000002735
 20
3.000000000000178
 30
0.0
  0
POINT
  5
91FE
330
83EB
100
AcDbEntity
  8
DEFPOINTS
 62
     0
100
AcDbPoint
 10
19.00000476837167
 20
9.357738494873167
 30
0.0
  0
POINT
  5
91FF
330
83EB
100
AcDbEntity
  8
DEFPOINTS
 62
     0
100
AcDbPoint
 10
19.00000476837184
 20
46.22354125976631
 30
0.0
  0
ENDBLK
  5
83F6
330
83EB
100
AcDbEntity
  8
0
100
AcDbBlockEnd
  0
BLOCK
  5
84A8
330
8499
100
AcDbEntity
  8
0
100
AcDbBlockBegin
  2
*D4
 70
     1
 10
0.0
 20
0.0
 30
0.0
  3
*D4
  1

  0
LINE
  5
92B6
330
8499
100
AcDbEntity
  8
AM_5
370
    -2
100
AcDbLine
 10
25.38569681529599
 20
33.18946708995007
 30
0.0
 11
28.81060532284566
 21
45.97140042076372
 31
0.0
  0
LINE
  5
92B7
330
8499
100
AcDbEntity
  8
AM_5
370
    -2
100
AcDbLine
 10
19.00000476837164
 20
10.6435349967314
 30
0.0
 11
19.00000476837152
 21
47.26299041149882
 31
0.0
  0
ARC
  5
92B8
330
8499
100
AcDbEntity
  8
AM_5
370
    -2
100
AcDbCircle
 10
19.00000476837165
 20
9.35773849487322
 30
0.0
 40
36.90525191662561
100
AcDbArc
 50
71.11798290647874
 51
75.00000086217927
  0
LINE
  5
92B9
330
8499
100
AcDbEntity
  8
AM_5
370
    -2
100
AcDbLine
 10
30.94329948152996
 20
44.2770072504506
 30
0.0
 11
42.60572982395561
 21
40.28815388624543
 31
0.0
  0
ARC
  5
92BA
330
8499
100
AcDbEntity
  8
AM_5
370
    -2
100
AcDbCircle
 10
19.00000476837165
 20
9.35773849487322
 30
0.0
 40
36.90525191662561
100
AcDbArc
 50
78.88201881787985
 51
86.11798204429963
  0
INSERT
  5
92BB
330
8499
100
AcDbEntity
  8
AM_5
370
    -2
100
AcDbBlockReference
  2
_OPEN30
 10
28.55178629227826
 20
45.00547459057997
 30
0.0
 41
2.5
 42
2.5
 43
2.5
 50
346.9410098400296
  0
INSERT
  5
92BC
330
8499
100
AcDbEntity
  8
AM_5
370
    -2
100
AcDbBlockReference
  2
_OPEN30
 10
19.00000476837152
 20
46.26299041149882
 30
0.0
 41
2.5
 42
2.5
 43
2.5
 50
178.0589910221499
  0
MTEXT
  5
92BD
330
8499
100
AcDbEntity
  8
AM_5
 62
     2
100
AcDbMText
 10
37.77773808810731
 20
45.2157601978176
 30
0.0
 40
3.2
 41
0.0
 71
     5
 72
     1
  1
15°
  7
ASAMI
 11
0.9461869772482556
 21
-0.3236204630208184
 31
0.0
 73
     1
 44
1.0
1001
ACAD
1000
MTEXTBEGIN
1070
    73
1070
     1
1070
    44
1040
1.0
1070
    74
1070
     0
1000
MTEXTEND
  0
POINT
  5
92BE
330
8499
100
AcDbEntity
  8
DEFPOINTS
 62
     0
100
AcDbPoint
 10
22.21650922604395
 20
46.12255480208967
 30
0.0
  0
POINT
  5
92BF
330
8499
100
AcDbEntity
  8
DEFPOINTS
 62
     0
100
AcDbPoint
 10
19.00000476837168
 20
9.357738494873167
 30
0.0
  0
POINT
  5
92C0
330
8499
100
AcDbEntity
  8
DEFPOINTS
 62
     0
100
AcDbPoint
 10
19.00000476837168
 20
9.357738494873167
 30
0.0
  0
POINT
  5
92C1
330
8499
100
AcDbEntity
  8
DEFPOINTS
 62
     0
100
AcDbPoint
 10
19.00000476837167
 20
9.643534996731348
 30
0.0
  0
POINT
  5
92C2
330
8499
100
AcDbEntity
  8
DEFPOINTS
 62
     0
100
AcDbPoint
 10
25.12687778472868
 20
32.22354125976625
 30
0.0
  0
ENDBLK
  5
84A9
330
8499
100
AcDbEntity
  8
0
100
AcDbBlockEnd
  0
BLOCK
  5
8585
330
857B
100
AcDbEntity
  8
0
100
AcDbBlockBegin
  2
*D5
 70
     1
 10
0.0
 20
0.0
 30
0.0
  3
*D5
  1

  0
LINE
  5
920D
330
857B
100
AcDbEntity
  8
AM_5
100
AcDbLine
 10
-0.0000000000002807
 20
4.000000000000178
 30
0.0
 11
-0.0000000000001959
 21
57.22354125976696
 31
0.0
  0
LINE
  5
920E
330
857B
100
AcDbEntity
  8
AM_5
100
AcDbLine
 10
150.0000038146924
 20
33.22354125976687
 30
0.0
 11
150.0000038146925
 21
57.22354125976673
 31
0.0
  0
LINE
  5
920F
330
857B
100
AcDbEntity
  8
AM_5
100
AcDbLine
 10
2.499999999999801
 20
56.22354125976695
 30
0.0
 11
147.5000038146925
 21
56.22354125976674
 31
0.0
  0
INSERT
  5
9210
330
857B
100
AcDbEntity
  8
AM_5
100
AcDbBlockReference
  2
_OPEN30
 10
-0.0000000000001975
 20
56.22354125976696
 30
0.0
 41
2.5
 42
2.5
 43
2.5
 50
179.9999999999998
  0
INSERT
  5
9211
330
857B
100
AcDbEntity
  8
AM_5
100
AcDbBlockReference
  2
_OPEN30
 10
150.0000038146925
 20
56.22354125976674
 30
0.0
 41
2.5
 42
2.5
 43
2.5
 50
359.9999999999998
  0
MTEXT
  5
9212
330
857B
100
AcDbEntity
  8
AM_5
 62
     2
100
AcDbMText
 10
75.00000190734616
 20
59.32354125976686
 30
0.0
 40
3.2
 41
0.0
 71
     5
 72
     1
  1
150
  7
ASAMI
 73
     1
 44
1.0
1001
ACAD
1000
MTEXTBEGIN
1070
    73
1070
     1
1070
    44
1040
1.0
1070
    74
1070
     0
1000
MTEXTEND
  0
POINT
  5
9213
330
857B
100
AcDbEntity
  8
DEFPOINTS
 62
     0
100
AcDbPoint
 10
-0.0000000000002735
 20
3.000000000000178
 30
0.0
  0
POINT
  5
9214
330
857B
100
AcDbEntity
  8
DEFPOINTS
 62
     0
100
AcDbPoint
 10
150.0000038146925
 20
32.22354125976643
 30
0.0
  0
POINT
  5
9215
330
857B
100
AcDbEntity
  8
DEFPOINTS
 62
     0
100
AcDbPoint
 10
150.0000038146926
 20
56.22354125976629
 30
0.0
  0
ENDBLK
  5
8586
330
857B
100
AcDbEntity
  8
0
100
AcDbBlockEnd
  0
BLOCK
  5
874D
330
8743
100
AcDbEntity
  8
0
100
AcDbBlockBegin
  2
*D6
 70
     1
 10
0.0
 20
0.0
 30
0.0
  3
*D6
  1

  0
LINE
  5
9216
330
8743
100
AcDbEntity
  8
AM_5
100
AcDbLine
 10
-1.000000000000268
 20
0.0000000000001487
 30
0.0
 11
-38.42073240301566
 21
0.0000000000000429
 31
0.0
  0
LINE
  5
9217
330
8743
100
AcDbEntity
  8
AM_5
100
AcDbLine
 10
24.12687778472858
 20
32.22354125976631
 30
0.0
 11
-38.42073240301576
 21
32.22354125976613
 31
0.0
  0
LINE
  5
9218
330
8743
100
AcDbEntity
  8
AM_5
100
AcDbLine
 10
-37.42073240301567
 20
2.500000000000044
 30
0.0
 11
-37.42073240301575
 21
29.72354125976614
 31
0.0
  0
INSERT
  5
9219
330
8743
100
AcDbEntity
  8
AM_5
100
AcDbBlockReference
  2
_OPEN30
 10
-37.42073240301567
 20
0.0000000000000458
 30
0.0
 41
2.5
 42
2.5
 43
2.5
 50
270.0000000000002
  0
INSERT
  5
921A
330
8743
100
AcDbEntity
  8
AM_5
100
AcDbBlockReference
  2
_OPEN30
 10
-37.42073240301575
 20
32.22354125976614
 30
0.0
 41
2.5
 42
2.5
 43
2.5
 50
90.00000000000015
  0
MTEXT
  5
921B
330
8743
100
AcDbEntity
  8
AM_5
 62
     2
100
AcDbMText
 10
-40.5207324030157
 20
16.11177062988308
 30
0.0
 40
3.2
 41
0.0
 71
     5
 72
     1
  1
32.2
  7
ASAMI
 11
-0.0000000000000028
 21
1.0
 31
0.0
 73
     1
 44
1.0
1001
ACAD
1000
MTEXTBEGIN
1070
    73
1070
     1
1070
    44
1040
1.0
1070
    74
1070
     0
1000
MTEXTEND
  0
POINT
  5
921C
330
8743
100
AcDbEntity
  8
DEFPOINTS
 62
     0
100
AcDbPoint
 10
-0.0000000000002681
 20
0.0000000000001515
 30
0.0
  0
POINT
  5
921D
330
8743
100
AcDbEntity
  8
DEFPOINTS
 62
     0
100
AcDbPoint
 10
25.12687778472868
 20
32.22354125976623
 30
0.0
  0
POINT
  5
921E
330
8743
100
AcDbEntity
  8
DEFPOINTS
 62
     0
100
AcDbPoint
 10
-37.42073240301566
 20
32.22354125976625
 30
0.0
  0
ENDBLK
  5
874E
330
8743
100
AcDbEntity
  8
0
100
AcDbBlockEnd
  0
BLOCK
  5
87F3
330
87E9
100
AcDbEntity
  8
0
100
AcDbBlockBegin
  2
*D7
 70
     1
 10
0.0
 20
0.0
 30
0.0
  3
*D7
  1

  0
LINE
  5
92AA
330
87E9
100
AcDbEntity
  8
AM_5
100
AcDbLine
 10
2.810531309018215
 20
-0.156596523969561
 30
0.0
 11
-13.61020109399711
 21
-4.556518510485113
 31
0.0
  0
LINE
  5
92AB
330
87E9
100
AcDbEntity
  8
AM_5
100
AcDbLine
 10
1.257617038403077
 20
5.638958433764861
 30
0.0
 11
-15.16311536461225
 21
1.239036447249307
 31
0.0
  0
LINE
  5
92AC
330
87E9
100
AcDbEntity
  8
AM_5
100
AcDbLine
 10
-14.84423715107949
 20
3.912670058074499
 30
0.0
 11
-15.49128476383579
 21
6.327484623797169
 31
0.0
  0
LINE
  5
92AD
330
87E9
100
AcDbEntity
  8
AM_5
100
AcDbLine
 10
-11.99722765495174
 20
-6.712514031105262
 30
0.0
 11
-10.0610147032562
 21
-13.93855914110586
 31
0.0
  0
LINE
  5
92AE
330
87E9
100
AcDbEntity
  8
AM_5
100
AcDbLine
 10
-14.19718953832318
 20
1.497855492351829
 30
0.0
 11
-12.64427526770804
 21
-4.297699465382589
 31
0.0
  0
INSERT
  5
92AF
330
87E9
100
AcDbEntity
  8
AM_5
100
AcDbBlockReference
  2
_OPEN30
 10
-14.19718953832318
 20
1.497855492351829
 30
0.0
 41
2.5
 42
2.5
 43
2.5
 50
285.0000000000001
  0
INSERT
  5
92B0
330
87E9
100
AcDbEntity
  8
AM_5
100
AcDbBlockReference
  2
_OPEN30
 10
-12.64427526770804
 20
-4.297699465382589
 30
0.0
 41
2.5
 42
2.5
 43
2.5
 50
105.0000000000001
  0
MTEXT
  5
92B1
330
87E9
100
AcDbEntity
  8
AM_5
 62
     2
100
AcDbMText
 10
-7.711227311229698
 20
-10.73060482914908
 30
0.0
 40
3.2
 41
0.0
 71
     5
 72
     1
  1
6
  7
ASAMI
 11
0.2588190451025225
 21
-0.9659258262890677
 31
0.0
 73
     1
 44
1.0
1001
ACAD
1000
MTEXTBEGIN
1070
    73
1070
     1
1070
    44
1040
1.0
1070
    74
1070
     0
1000
MTEXTEND
  0
POINT
  5
92B2
330
87E9
100
AcDbEntity
  8
DEFPOINTS
 62
     0
100
AcDbPoint
 10
3.776457135307283
 20
0.102222521132953
 30
0.0
  0
POINT
  5
92B3
330
87E9
100
AcDbEntity
  8
DEFPOINTS
 62
     0
100
AcDbPoint
 10
2.223542864692158
 20
5.897777478867378
 30
0.0
  0
POINT
  5
92B4
330
87E9
100
AcDbEntity
  8
DEFPOINTS
 62
     0
100
AcDbPoint
 10
-14.19718953832317
 20
1.49785549235186
 30
0.0
  0
ENDBLK
  5
87F4
330
87E9
100
AcDbEntity
  8
0
100
AcDbBlockEnd
  0
BLOCK
  5
88AA
330
889A
100
AcDbEntity
  8
0
100
AcDbBlockBegin
  2
*D8
 70
     1
 10
0.0
 20
0.0
 30
0.0
  3
*D8
  1

  0
LINE
  5
929F
330
889A
100
AcDbEntity
  8
AM_5
370
    -2
100
AcDbLine
 10
-9.196142860065712
 20
0.0000000000000397
 30
0.0
 11
-38.39368142502428
 21
-0.0000000000003055
 31
0.0
  0
LINE
  5
92A0
330
889A
100
AcDbEntity
  8
AM_5
370
    -2
100
AcDbLine
 10
-9.162068681043676
 20
-0.2588190649237705
 30
0.0
 11
-37.36472508993711
 21
-7.815698694383579
 31
0.0
  0
ARC
  5
92A1
330
889A
100
AcDbEntity
  8
AM_5
370
    -2
100
AcDbCircle
 10
-8.196142860065709
 20
0.0000000000000517
 30
0.0
 40
29.19753856495857
100
AcDbArc
 50
184.9073739803739
 51
190.0926271953659
  0
INSERT
  5
92A2
330
889A
100
AcDbEntity
  8
AM_5
370
    -2
100
AcDbBlockReference
  2
_OPEN30
 10
-37.39368142502428
 20
-0.000000000000294
 30
0.0
 41
2.5
 42
2.5
 43
2.5
 50
92.45368699018731
  0
INSERT
  5
92A3
330
889A
100
AcDbEntity
  8
AM_5
370
    -2
100
AcDbBlockReference
  2
_OPEN30
 10
-36.39879926895915
 20
-7.556879629459757
 30
0.0
 41
2.5
 42
2.5
 43
2.5
 50
282.5463141855527
  0
MTEXT
  5
92A4
330
889A
100
AcDbEntity
  8
AM_5
 62
     2
100
AcDbMText
 10
-33.67026897933004
 20
-5.6701338264025
 30
0.0
 40
3.2
 41
0.0
 71
     5
 72
     1
  1
15°
  7
ASAMI
 11
0.2172669967433604
 21
-0.976112212876225
 31
0.0
 73
     1
 44
1.0
1001
ACAD
1000
MTEXTBEGIN
1070
    73
1070
     1
1070
    44
1040
1.0
1070
    74
1070
     0
1000
MTEXTEND
  0
POINT
  5
92A5
330
889A
100
AcDbEntity
  8
DEFPOINTS
 62
     0
100
AcDbPoint
 10
-37.28257595840028
 20
-2.544733358988692
 30
0.0
  0
POINT
  5
92A6
330
889A
100
AcDbEntity
  8
DEFPOINTS
 62
     0
100
AcDbPoint
 10
2.999999999999731
 20
0.0000000000001796
 30
0.0
  0
POINT
  5
92A7
330
889A
100
AcDbEntity
  8
DEFPOINTS
 62
     0
100
AcDbPoint
 10
-1.712875366211296
 20
1.737186431885171
 30
0.0
  0
POINT
  5
92A8
330
889A
100
AcDbEntity
  8
DEFPOINTS
 62
     0
100
AcDbPoint
 10
26.70023202896086
 20
9.350456237793256
 30
0.0
  0
POINT
  5
92A9
330
889A
100
AcDbEntity
  8
DEFPOINTS
 62
     0
100
AcDbPoint
 10
-0.0000000000002682
 20
0.0000000000001515
 30
0.0
  0
ENDBLK
  5
88AB
330
889A
100
AcDbEntity
  8
0
100
AcDbBlockEnd
  0
BLOCK
  5
89B7
330
89AD
100
AcDbEntity
  8
0
100
AcDbBlockBegin
  2
*D9
 70
     1
 10
0.0
 20
0.0
 30
0.0
  3
*D9
  1

  0
LINE
  5
9235
330
89AD
100
AcDbEntity
  8
AM_5
100
AcDbLine
 10
18.40486323152064
 20
-65.31008669420805
 30
0.0
 11
-0.6369934619935373
 21
-70.41233735018529
 31
0.0
  0
LINE
  5
9236
330
89AD
100
AcDbEntity
  8
AM_5
100
AcDbLine
 10
10.77527653489656
 20
-41.472520318476
 30
0.0
 11
-7.107471092648782
 21
-46.26418860386944
 31
0.0
  0
LINE
  5
9237
330
89AD
100
AcDbEntity
  8
AM_5
100
AcDbLine
 10
-0.3181153182276795
 20
-67.73870373103918
 30
0.0
 11
-5.494497597343968
 21
-48.4201840824
 31
0.0
  0
INSERT
  5
9238
330
89AD
100
AcDbEntity
  8
AM_5
100
AcDbBlockReference
  2
_OPEN30
 10
0.3289323575417988
 20
-70.15351827987752
 30
0.0
 41
2.5
 42
2.5
 43
2.5
 50
285.0000014950999
  0
INSERT
  5
9239
330
89AD
100
AcDbEntity
  8
AM_5
100
AcDbBlockReference
  2
_OPEN30
 10
-6.141545273113447
 20
-46.00536953356164
 30
0.0
 41
2.5
 42
2.5
 43
2.5
 50
105.0000014950999
  0
MTEXT
  5
923A
330
89AD
100
AcDbEntity
  8
AM_5
 62
     2
100
AcDbMText
 10
0.0880635827737276
 20
-57.27710478876542
 30
0.0
 40
3.2
 41
0.0
 71
     5
 72
     1
  1
25
  7
ASAMI
 11
0.2588190703077914
 21
-0.9659258195353361
 31
0.0
 73
     1
 44
1.0
1001
ACAD
1000
MTEXTBEGIN
1070
    73
1070
     1
1070
    44
1040
1.0
1070
    74
1070
     0
1000
MTEXTEND
  0
POINT
  5
923B
330
89AD
100
AcDbEntity
  8
DEFPOINTS
 62
     0
100
AcDbPoint
 10
19.3707890510558
 20
-65.05126762390033
 30
0.0
  0
POINT
  5
923C
330
89AD
100
AcDbEntity
  8
DEFPOINTS
 62
     0
100
AcDbPoint
 10
11.74120235443179
 20
-41.21370124816823
 30
0.0
  0
POINT
  5
923D
330
89AD
100
AcDbEntity
  8
DEFPOINTS
 62
     0
100
AcDbPoint
 10
-6.141545273113571
 20
-46.00536953356162
 30
0.0
  0
ENDBLK
  5
89B8
330
89AD
100
AcDbEntity
  8
0
100
AcDbBlockEnd
  0
BLOCK
  5
8A55
330
8A46
100
AcDbEntity
  8
0
100
AcDbBlockBegin
  2
*D10
 70
     1
 10
0.0
 20
0.0
 30
0.0
  3
*D10
  1

  0
LINE
  5
927A
330
8A46
100
AcDbEntity
  8
AM_5
370
    -2
100
AcDbLine
 10
12.09318154120788
 20
-42.52729121977985
 30
0.0
 11
21.28759622381654
 21
-76.84131396113075
 31
0.0
  0
LINE
  5
927B
330
8A46
100
AcDbEntity
  8
AM_5
370
    -2
100
AcDbLine
 10
15.0345464429309
 20
-49.36500234801659
 30
0.0
 11
25.55835573137296
 21
-75.41233760512939
 31
0.0
  0
ARC
  5
927C
330
8A46
100
AcDbEntity
  8
AM_5
370
    -2
100
AcDbCircle
 10
11.74120616912889
 20
-41.21370124816819
 30
0.0
 40
35.8844188066057
100
AcDbArc
 50
277.0150060974757
 51
281.0075030487382
  0
ARC
  5
927D
330
8A46
100
AcDbEntity
  8
AM_5
370
    -2
100
AcDbCircle
 10
11.74120616912889
 20
-41.21370124816819
 30
0.0
 40
35.8844188066057
100
AcDbArc
 50
295.9925021164245
 51
299.984999067687
  0
ARC
  5
927E
330
8A46
100
AcDbEntity
  8
AM_5
370
    -2
100
AcDbCircle
 10
11.74120616912889
 20
-41.21370124816819
 30
0.0
 40
35.8844188066057
100
AcDbArc
 50
285.0000000000008
 51
292.0000051651618
  0
INSERT
  5
927F
330
8A46
100
AcDbEntity
  8
AM_5
370
    -2
100
AcDbBlockReference
  2
_OPEN30
 10
21.02877717871401
 20
-75.87538813484167
 30
0.0
 41
2.5
 42
2.5
 43
2.5
 50
13.0037515243695
  0
INSERT
  5
9280
330
8A46
100
AcDbEntity
  8
AM_5
370
    -2
100
AcDbBlockReference
  2
_OPEN30
 10
25.18374905437228
 20
-74.48515378433302
 30
0.0
 41
2.5
 42
2.5
 43
2.5
 50
203.9962536407932
  0
MTEXT
  5
9281
330
8A46
100
AcDbEntity
  8
AM_5
 62
     2
100
AcDbMText
 10
18.00098246838527
 20
-73.39495848231289
 30
0.0
 40
3.2
 41
0.0
 71
     5
 72
     1
  1
7°
  7
ASAMI
 11
0.9816021880388044
 21
0.1909375406708485
 31
0.0
 73
     1
 44
1.0
1001
ACAD
1000
MTEXTBEGIN
1070
    73
1070
     1
1070
    44
1040
1.0
1070
    74
1070
     0
1000
MTEXTEND
  0
POINT
  5
9282
330
8A46
100
AcDbEntity
  8
DEFPOINTS
 62
     0
100
AcDbPoint
 10
23.81801877870183
 20
-75.00485556821381
 30
0.0
  0
POINT
  5
9283
330
8A46
100
AcDbEntity
  8
DEFPOINTS
 62
     0
100
AcDbPoint
 10
14.65993976593008
 20
-48.43781852722028
 30
0.0
  0
POINT
  5
9284
330
8A46
100
AcDbEntity
  8
DEFPOINTS
 62
     0
100
AcDbPoint
 10
11.74120616912877
 20
-41.21370124816824
 30
0.0
  0
POINT
  5
9285
330
8A46
100
AcDbEntity
  8
DEFPOINTS
 62
     0
100
AcDbPoint
 10
11.83436249610522
 20
-41.56136539349081
 30
0.0
  0
POINT
  5
9286
330
8A46
100
AcDbEntity
  8
DEFPOINTS
 62
     0
100
AcDbPoint
 10
11.74120616912877
 20
-41.21370124816824
 30
0.0
  0
ENDBLK
  5
8A56
330
8A46
100
AcDbEntity
  8
0
100
AcDbBlockEnd
  0
BLOCK
  5
8B5C
330
8B4C
100
AcDbEntity
  8
0
100
AcDbBlockBegin
  2
*D11
 70
     1
 10
0.0
 20
0.0
 30
0.0
  3
*D11
  1

  0
LINE
  5
9289
330
8B4C
100
AcDbEntity
  8
AM_5
370
    -2
100
AcDbLine
 10
10.75093425638523
 20
-41.3528741406114
 30
0.0
 11
-7.582476159641999
 21
-43.92946300677794
 31
0.0
  0
ARC
  5
928A
330
8B4C
100
AcDbEntity
  8
AM_5
370
    -2
100
AcDbCircle
 10
11.74120235443191
 20
-41.21370124816819
 30
0.0
 40
18.51358278852987
100
AcDbArc
 50
172.5142221876818
 51
180.2571050615674
  0
ARC
  5
928B
330
8B4C
100
AcDbEntity
  8
AM_5
370
    -2
100
AcDbCircle
 10
11.74120235443191
 20
-41.21370124816819
 30
0.0
 40
18.51358278852987
100
AcDbArc
 50
187.999987935453
 51
194.999999999996
  0
INSERT
  5
928C
330
8B4C
100
AcDbEntity
  8
AM_5
370
    -2
100
AcDbBlockReference
  2
_OPEN30
 10
-6.592208061595316
 20
-43.79029011433474
 30
0.0
 41
2.5
 42
2.5
 43
2.5
 50
274.1285464985103
  0
MTEXT
  5
928D
330
8B4C
100
AcDbEntity
  8
AM_5
 62
     2
100
AcDbMText
 10
-3.670383179417593
 20
-41.46182563573378
 30
0.0
 40
3.2
 41
0.0
 71
     5
 72
     1
  1
7°
  7
ASAMI
 11
0.0160977749929914
 21
-0.9998704224249635
 31
0.0
 73
     1
 44
1.0
1001
ACAD
1000
MTEXTBEGIN
1070
    73
1070
     1
1070
    44
1040
1.0
1070
    74
1070
     0
1000
MTEXTEND
  0
POINT
  5
928E
330
8B4C
100
AcDbEntity
  8
DEFPOINTS
 62
     0
100
AcDbPoint
 10
-6.321802328344956
 20
-45.27333294300642
 30
0.0
  0
POINT
  5
928F
330
8B4C
100
AcDbEntity
  8
DEFPOINTS
 62
     0
100
AcDbPoint
 10
16.86786794662448
 20
-40.49319648742526
 30
0.0
  0
POINT
  5
9290
330
8B4C
100
AcDbEntity
  8
DEFPOINTS
 62
     0
100
AcDbPoint
 10
11.74120235443179
 20
-41.21370124816824
 30
0.0
  0
POINT
  5
9291
330
8B4C
100
AcDbEntity
  8
DEFPOINTS
 62
     0
100
AcDbPoint
 10
11.54038031583279
 20
-41.2675113512332
 30
0.0
  0
POINT
  5
9292
330
8B4C
100
AcDbEntity
  8
DEFPOINTS
 62
     0
100
AcDbPoint
 10
11.74120235443179
 20
-41.21370124816824
 30
0.0
  0
ENDBLK
  5
8B5D
330
8B4C
100
AcDbEntity
  8
0
100
AcDbBlockEnd
  0
BLOCK
  5
8C9E
330
8C94
100
AcDbEntity
  8
0
100
AcDbBlockBegin
  2
*D12
 70
     1
 10
0.0
 20
0.0
 30
0.0
  3
*D12
  1

  0
LINE
  5
9255
330
8C94
100
AcDbEntity
  8
AM_5
100
AcDbLine
 10
93.06391783223649
 20
-45.30525121821727
 30
0.0
 11
99.82539966571787
 21
-43.49351743219371
 31
0.0
  0
LINE
  5
9256
330
8C94
100
AcDbEntity
  8
AM_5
100
AcDbLine
 10
86.59344256605619
 20
-21.15710690930511
 30
0.0
 11
93.3549233028035
 21
-19.34537341715058
 31
0.0
  0
LINE
  5
9257
330
8C94
100
AcDbEntity
  8
AM_5
100
AcDbLine
 10
98.21242617041306
 20
-41.33752195366317
 30
0.0
 11
93.03604515903764
 21
-22.01900703629672
 31
0.0
  0
INSERT
  5
9258
330
8C94
100
AcDbEntity
  8
AM_5
100
AcDbBlockReference
  2
_OPEN30
 10
98.85947384618255
 20
-43.75233650250151
 30
0.0
 41
2.5
 42
2.5
 43
2.5
 50
285.0000014950998
  0
INSERT
  5
9259
330
8C94
100
AcDbEntity
  8
AM_5
100
AcDbBlockReference
  2
_OPEN30
 10
92.38899748326817
 20
-19.60419248745838
 30
0.0
 41
2.5
 42
2.5
 43
2.5
 50
105.0000014950998
  0
MTEXT
  5
925A
330
8C94
100
AcDbEntity
  8
AM_5
 62
     2
100
AcDbMText
 10
98.61860570528488
 20
-30.87592537702579
 30
0.0
 40
3.2
 41
0.0
 71
     5
 72
     1
  1
25
  7
ASAMI
 11
0.2588190703077898
 21
-0.9659258195353366
 31
0.0
 73
     1
 44
1.0
1001
ACAD
1000
MTEXTBEGIN
1070
    73
1070
     1
1070
    44
1040
1.0
1070
    74
1070
     0
1000
MTEXTEND
  0
POINT
  5
925B
330
8C94
100
AcDbEntity
  8
DEFPOINTS
 62
     0
100
AcDbPoint
 10
92.09799201270099
 20
-45.56407028852532
 30
0.0
  0
POINT
  5
925C
330
8C94
100
AcDbEntity
  8
DEFPOINTS
 62
     0
100
AcDbPoint
 10
85.62751674652076
 20
-21.41592597961314
 30
0.0
  0
POINT
  5
925D
330
8C94
100
AcDbEntity
  8
DEFPOINTS
 62
     0
100
AcDbPoint
 10
92.38899748326808
 20
-19.60419248745863
 30
0.0
  0
ENDBLK
  5
8C9F
330
8C94
100
AcDbEntity
  8
0
100
AcDbBlockEnd
  0
BLOCK
  5
8DAF
330
8DA9
100
AcDbEntity
  8
0
100
AcDbBlockBegin
  2
*D13
 70
     1
 10
0.0
 20
0.0
 30
0.0
  3
*D13
  1

  0
LINE
  5
925E
330
8DA9
100
AcDbEntity
  8
AM_5
370
    -2
100
AcDbLine
 10
-104.3156893896089
 20
34.72814830591842
 30
0.0
 11
-112.9001664984078
 21
10.24475235150545
 31
0.0
  0
MTEXT
  5
925F
330
8DA9
100
AcDbEntity
  8
AM_5
 62
     2
100
AcDbMText
 10
-109.5776903801304
 20
29.08972259992883
 30
0.0
 40
3.2
 41
0.0
 71
     5
 72
     1
  1
%%c280
  7
ASAMI
 11
0.3308753379458118
 21
0.9436744728661706
 31
0.0
 73
     1
 44
1.0
1001
ACAD
1000
MTEXTBEGIN
1070
    73
1070
     1
1070
    44
1040
1.0
1070
    74
1070
     0
1000
MTEXTEND
  0
INSERT
  5
9260
330
8DA9
100
AcDbEntity
  8
AM_5
370
    -2
100
AcDbBlockReference
  2
_OPEN30
 10
-113.7273548432723
 20
7.885566169340029
 30
0.0
 41
2.5
 42
2.5
 43
2.5
 50
250.6780864556511
  0
POINT
  5
9261
330
8DA9
100
AcDbEntity
  8
DEFPOINTS
 62
     0
100
AcDbPoint
 10
-113.7273548432723
 20
7.885566169340304
 30
0.0
  0
POINT
  5
9262
330
8DA9
100
AcDbEntity
  8
DEFPOINTS
 62
     0
100
AcDbPoint
 10
-67.40480753085851
 20
139.9999923706039
 30
0.0
  0
ENDBLK
  5
8DB0
330
8DA9
100
AcDbEntity
  8
0
100
AcDbBlockEnd
  0
BLOCK
  5
8DEB
330
8DE1
100
AcDbEntity
  8
0
100
AcDbBlockBegin
  2
*D14
 70
     1
 10
0.0
 20
0.0
 30
0.0
  3
*D14
  1

  0
LINE
  5
9263
330
8DE1
100
AcDbEntity
  8
AM_5
100
AcDbLine
 10
-0.8977699279783131
 20
2.223541259766199
 30
0.0
 11
-28.42073240301568
 21
2.223541259766121
 31
0.0
  0
LINE
  5
9264
330
8DE1
100
AcDbEntity
  8
AM_5
100
AcDbLine
 10
24.12687778472858
 20
32.22354125976633
 30
0.0
 11
-28.42073240301576
 21
32.22354125976617
 31
0.0
  0
LINE
  5
9265
330
8DE1
100
AcDbEntity
  8
AM_5
100
AcDbLine
 10
-27.42073240301568
 20
4.723541259766125
 30
0.0
 11
-27.42073240301575
 21
29.72354125976618
 31
0.0
  0
INSERT
  5
9266
330
8DE1
100
AcDbEntity
  8
AM_5
100
AcDbBlockReference
  2
_OPEN30
 10
-27.42073240301567
 20
2.223541259766123
 30
0.0
 41
2.5
 42
2.5
 43
2.5
 50
270.0000000000002
  0
INSERT
  5
9267
330
8DE1
100
AcDbEntity
  8
AM_5
100
AcDbBlockReference
  2
_OPEN30
 10
-27.42073240301576
 20
32.22354125976618
 30
0.0
 41
2.5
 42
2.5
 43
2.5
 50
90.00000000000015
  0
MTEXT
  5
9268
330
8DE1
100
AcDbEntity
  8
AM_5
 62
     2
100
AcDbMText
 10
-31.35882764111096
 20
17.22354125976614
 30
0.0
 40
3.2
 41
0.0
 71
     5
 72
     1
  1
(30)
  7
ASAMI
 11
-0.0000000000000028
 21
1.0
 31
0.0
 73
     1
 44
1.0
1001
ACAD
1000
MTEXTBEGIN
1070
    73
1070
     1
1070
    44
1040
1.0
1070
    74
1070
     0
1000
MTEXTEND
  0
POINT
  5
9269
330
8DE1
100
AcDbEntity
  8
DEFPOINTS
 62
     0
100
AcDbPoint
 10
0.1022300720216938
 20
2.2235412597662
 30
0.0
  0
POINT
  5
926A
330
8DE1
100
AcDbEntity
  8
DEFPOINTS
 62
     0
100
AcDbPoint
 10
25.12687778472868
 20
32.22354125976625
 30
0.0
  0
POINT
  5
926B
330
8DE1
100
AcDbEntity
  8
DEFPOINTS
 62
     0
100
AcDbPoint
 10
-27.42073240301567
 20
32.22354125976627
 30
0.0
  0
ENDBLK
  5
8DEC
330
8DE1
100
AcDbEntity
  8
0
100
AcDbBlockEnd
  0
ENDSEC
  0
SECTION
  2
ENTITIES
  0
TEXT
  5
388D
330
1F
100
AcDbEntity
  8
AM_6
100
AcDbText
 10
45.45054003377305
 20
-81.56854625973972
 30
0.0
 40
5.0
  1
GDER2525-615S
 51
359.9999999999998
 72
     4
 11
76.16482574805876
 21
-79.06854625973972
 31
0.0
100
AcDbText
  0
LINE
  5
7FDB
330
1F
100
AcDbEntity
  8
AM_0
100
AcDbLine
 10
26.48988342285123
 20
7.223541259766255
 30
0.0
 11
150.0000038146926
 21
7.22354125976641
 31
0.0
  0
LINE
  5
7FDC
330
1F
100
AcDbEntity
  8
AM_0
100
AcDbLine
 10
24.08059883117666
 20
28.3187713623052
 30
0.0
 11
37.685405015945
 21
31.96417236328125
 31
0.0
  0
LINE
  5
7FDD
330
1F
100
AcDbEntity
  8
AM_0
100
AcDbLine
 10
24.48884487152068
 20
27.91052246093722
 30
0.0
 11
37.81481432914691
 21
31.48120880126925
 31
0.0
  0
LINE
  5
7FDE
330
1F
100
AcDbEntity
  8
AM_0
100
AcDbLine
 10
25.12687683105425
 20
32.22354125976625
 30
0.0
 11
150.0000038146925
 21
32.22354125976642
 31
0.0
  0
LINE
  5
7FDF
330
1F
100
AcDbEntity
  8
AM_0
100
AcDbLine
 10
7.864313125610673
 20
2.232833862305206
 30
0.0
 11
43.12059783935501
 21
11.67972564697328
 31
0.0
  0
LINE
  5
7FE0
330
1F
100
AcDbEntity
  8
AM_0
100
AcDbLine
 10
15.8174419403077
 20
4.881504058838237
 30
0.0
 11
42.99119567871055
 21
12.16268920898426
 31
0.0
  0
LINE
  5
7FE3
330
1F
100
AcDbEntity
  8
AM_11
100
AcDbLine
 10
0.1022300720216938
 20
2.2235412597662
 30
0.0
 11
11.74120044708276
 21
-41.21368598937928
 31
0.0
  0
ELLIPSE
  5
7FE4
330
1F
100
AcDbEntity
  8
AM_0
100
AcDbEllipse
 10
-75.82068582675822
 20
2.999996185303107
 30
0.0
 11
-0.0000001744261737
 21
1.995185851982036
 31
0.0
210
0.0
220
0.0
230
1.0
 40
0.1227854829396624
 41
2.92422615340166
 42
6.283185404299452
  0
ELLIPSE
  5
7FE5
330
1F
100
AcDbEntity
  8
AM_0
100
AcDbEllipse
 10
-67.76060434481822
 20
2.999996185303107
 30
0.0
 11
0.0000000000000056
 21
-2.999999999973278
 31
0.0
210
0.0
220
0.0
230
1.0
 40
0.1227849324544265
 41
6.283184951179851
 42
9.288650651817539
  0
ARC
  5
7FE6
330
1F
100
AcDbEntity
  8
AM_11
100
AcDbCircle
 10
-67.40480753085852
 20
139.999992370604
 30
0.0
 40
140.0
100
AcDbArc
 50
248.9584106340988
 51
275.8419541705096
  0
LINE
  5
7FE7
330
1F
100
AcDbEntity
  8
AM_0
100
AcDbLine
 10
-77.56496378085822
 20
11.03076934814405
 30
0.0
 11
-67.39224954745825
 21
11.0307693481441
 31
0.0
  0
LINE
  5
7FE8
330
1F
100
AcDbEntity
  8
AM_0
100
AcDbLine
 10
-76.17316385409823
 20
5.940486907959074
 30
0.0
 11
-67.62520548007822
 21
6.57480621337905
 31
0.0
  0
LINE
  5
7FE9
330
1F
100
AcDbEntity
  8
AM_0
100
AcDbLine
 10
-75.82068582675822
 20
4.995189666748078
 30
0.0
 11
-68.00070902010822
 21
6.389572143555059
 31
0.0
  0
LINE
  5
7FEA
330
1F
100
AcDbEntity
  8
AM_0
100
AcDbLine
 10
-69.33336588046822
 20
10.19827651977508
 30
0.0
 11
-77.66068216464828
 21
9.099597930908004
 31
0.0
  0
LINE
  5
7FEB
330
1F
100
AcDbEntity
  8
AM_0
100
AcDbLine
 10
-77.66068216464828
 20
9.099594116211081
 30
0.0
 11
-69.22403665682826
 21
9.099594116211081
 31
0.0
  0
LINE
  5
7FEC
330
1F
100
AcDbEntity
  8
AM_0
100
AcDbLine
 10
-75.58248087069824
 20
2.534126281738085
 30
0.0
 11
-67.40480753085825
 21
2.22354125976611
 31
0.0
  0
LINE
  5
7FED
330
1F
100
AcDbEntity
  8
AM_0
100
AcDbLine
 10
-75.82068582675825
 20
1.00480651855506
 30
0.0
 11
-67.76061197421822
 21
-0.0000038146968927
 31
0.0
  0
LINE
  5
7FEE
330
1F
100
AcDbEntity
  8
AM_0
100
AcDbLine
 10
-73.40480753085826
 20
22.7420120239261
 30
0.0
 11
-67.40480753085826
 21
22.74201202392609
 31
0.0
  0
LINE
  5
7FEF
330
1F
100
AcDbEntity
  8
AM_0
100
AcDbLine
 10
-73.40480753085825
 20
13.81916427612307
 30
0.0
 11
-67.40480753085825
 21
13.81916427612307
 31
0.0
  0
LINE
  5
7FF0
330
1F
100
AcDbEntity
  8
AM_0
100
AcDbLine
 10
-92.40480753085831
 20
32.22354125976601
 30
0.0
 11
-67.40480753085826
 21
32.22354125976611
 31
0.0
  0
LINE
  5
7FF1
330
1F
100
AcDbEntity
  8
AM_7
100
AcDbLine
 10
-53.88187357089826
 20
20.03559875488307
 30
0.0
 11
-93.47019144198826
 21
20.03559875488301
 31
0.0
  0
LINE
  5
7FF2
330
1F
100
AcDbEntity
  8
AM_7
100
AcDbLine
 10
-86.98998209139826
 20
4.947399139404047
 30
0.0
 11
-65.42623087069822
 21
4.947399139404101
 31
0.0
  0
LINE
  5
7FF4
330
1F
100
AcDbEntity
  8
AM_0
100
AcDbLine
 10
-92.40480753085831
 20
32.22354125976601
 30
0.0
 11
-92.40480753085824
 21
2.758415222168002
 31
0.0
  0
LINE
  5
7FF5
330
1F
100
AcDbEntity
  8
AM_0
100
AcDbLine
 10
-92.40480753085824
 20
2.758419036865041
 30
0.0
 11
-80.40480753085825
 21
1.05176162719707
 31
0.0
  0
LINE
  5
7FF6
330
1F
100
AcDbEntity
  8
AM_0
100
AcDbLine
 10
-92.40480753085824
 20
9.507167816162027
 30
0.0
 11
-77.56496378085825
 21
9.507167816162024
 31
0.0
  0
LINE
  5
7FF7
330
1F
100
AcDbEntity
  8
AM_0
100
AcDbLine
 10
-80.40480753085825
 20
1.05176162719707
 30
0.0
 11
-75.76784464022823
 21
1.05176162719707
 31
0.0
  0
LINE
  5
7FF8
330
1F
100
AcDbEntity
  8
AM_0
100
AcDbLine
 10
-76.17316385409823
 20
5.940490722656054
 30
0.0
 11
-77.66068216464828
 21
9.099601745605045
 31
0.0
  0
LINE
  5
7FF9
330
1F
100
AcDbEntity
  8
AM_0
100
AcDbLine
 10
-76.17316385409823
 20
5.940483093262092
 30
0.0
 11
-75.82068582675822
 21
4.995185852051096
 31
0.0
  0
LINE
  5
7FFA
330
1F
100
AcDbEntity
  8
AM_0
100
AcDbLine
 10
-77.56496378085822
 20
11.03076934814405
 30
0.0
 11
-77.56496378085825
 21
9.099594116211081
 31
0.0
  0
LINE
  5
7FFC
330
1F
100
AcDbEntity
  8
AM_0
100
AcDbLine
 10
-73.40480753085826
 20
22.7420120239261
 30
0.0
 11
-73.40480753085825
 21
13.81916427612307
 31
0.0
  0
LINE
  5
8003
330
1F
100
AcDbEntity
  8
AM_0
100
AcDbLine
 10
-67.40480753085826
 20
24.97277069091812
 30
0.0
 11
-67.40480753085826
 21
22.74201202392609
 31
0.0
  0
LINE
  5
8004
330
1F
100
AcDbEntity
  8
AM_0
100
AcDbLine
 10
-57.90480753085827
 20
31.96417236328111
 30
0.0
 11
-57.90480753085825
 21
9.357738494873077
 31
0.0
  0
LINE
  5
8005
330
1F
100
AcDbEntity
  8
AM_0
100
AcDbLine
 10
-57.40480753085829
 20
31.48120880126905
 30
0.0
 11
-57.40480753085822
 21
4.881507873535014
 31
0.0
  0
LINE
  5
8007
330
1F
100
AcDbEntity
  8
AM_0
100
AcDbLine
 10
-67.40480753085825
 20
13.81916427612307
 30
0.0
 11
-67.40480753085825
 21
9.357738494873077
 31
0.0
  0
LINE
  5
8009
330
1F
100
AcDbEntity
  8
AM_0
100
AcDbLine
 10
-69.22403665682826
 20
9.357738494873077
 30
0.0
 11
-57.40480753085825
 21
9.357738494873023
 31
0.0
  0
LINE
  5
800A
330
1F
100
AcDbEntity
  8
AM_0
100
AcDbLine
 10
-67.40479990145825
 20
2.23283386230506
 30
0.0
 11
-57.90480753085822
 21
4.290256500244113
 31
0.0
  0
LINE
  5
800B
330
1F
100
AcDbEntity
  8
AM_0
100
AcDbLine
 10
-57.40480753085825
 20
8.262245178223084
 30
0.0
 11
-67.62520548007822
 21
6.048805236816096
 31
0.0
  0
LINE
  5
800C
330
1F
100
AcDbEntity
  8
AM_0
100
AcDbLine
 10
-67.62520548007822
 20
6.57480621337905
 30
0.0
 11
-67.62520548007822
 21
5.789970397949079
 31
0.0
  0
LINE
  5
800D
330
1F
100
AcDbEntity
  8
AM_0
100
AcDbLine
 10
-68.00070139071824
 20
6.389568328857111
 30
0.0
 11
-67.67774149081822
 21
5.923110961914092
 31
0.0
  0
LINE
  5
800E
330
1F
100
AcDbEntity
  8
AM_0
100
AcDbLine
 10
-69.86054178378825
 20
11.03077316284205
 30
0.0
 11
-69.33336588046822
 21
10.19828414917006
 31
0.0
  0
LINE
  5
800F
330
1F
100
AcDbEntity
  8
AM_0
100
AcDbLine
 10
-69.22403665682826
 20
9.099601745605045
 30
0.0
 11
-67.62519785067822
 21
6.57480621337905
 31
0.0
  0
LINE
  5
8010
330
1F
100
AcDbEntity
  8
AM_0
100
AcDbLine
 10
-69.33336588046822
 20
10.19827651977508
 30
0.0
 11
-69.22403665682826
 21
9.099590301514043
 31
0.0
  0
LINE
  5
8011
330
1F
100
AcDbEntity
  8
AM_0
100
AcDbLine
 10
-68.00070139071824
 20
6.389572143555059
 30
0.0
 11
-67.62520548007822
 21
6.574802398682071
 31
0.0
  0
LINE
  5
8012
330
1F
100
AcDbEntity
  8
AM_0
100
AcDbLine
 10
-57.90480753085822
 20
4.290260314941095
 30
0.0
 11
-57.40480753085822
 21
4.881507873535014
 31
0.0
  0
LINE
  5
8013
330
1F
100
AcDbEntity
  8
AM_0
100
AcDbLine
 10
-69.90480753085826
 20
28.31877899169907
 30
0.0
 11
-57.90480753085827
 21
28.31877899169913
 31
0.0
  0
LINE
  5
8014
330
1F
100
AcDbEntity
  8
AM_0
100
AcDbLine
 10
-69.90480753085826
 20
31.96417236328105
 30
0.0
 11
-57.90480753085827
 21
31.96417236328111
 31
0.0
  0
LINE
  5
8015
330
1F
100
AcDbEntity
  8
AM_0
100
AcDbLine
 10
-69.90480753085826
 20
32.22354125976611
 30
0.0
 11
-69.90480753085826
 21
24.97277069091812
 31
0.0
  0
LINE
  5
8016
330
1F
100
AcDbEntity
  8
AM_0
100
AcDbLine
 10
-69.90480753085826
 20
24.97277069091812
 30
0.0
 11
-67.40480753085826
 21
24.97277069091812
 31
0.0
  0
LINE
  5
8018
330
1F
100
AcDbEntity
  8
AM_0
100
AcDbLine
 10
-67.40480753085826
 20
32.22354125976611
 30
0.0
 11
-67.40480753085826
 21
31.96417236328105
 31
0.0
  0
LINE
  5
8019
330
1F
100
AcDbEntity
  8
AM_0
100
AcDbLine
 10
-57.90479990145826
 20
28.31876373291007
 30
0.0
 11
-57.40479990145825
 21
27.91051483154305
 31
0.0
  0
LINE
  5
801A
330
1F
100
AcDbEntity
  8
AM_0
100
AcDbLine
 10
-57.90479227206827
 20
31.96416473388709
 30
0.0
 11
-57.40479227206829
 21
31.48120880126905
 31
0.0
  0
ARC
  5
801B
330
1F
100
AcDbEntity
  8
AM_0
100
AcDbCircle
 10
2.999999999999725
 20
3.000000000000178
 30
0.0
 40
3.0
100
AcDbArc
 50
102.9999971744098
 51
286.99998635757
  0
ARC
  5
801C
330
1F
100
AcDbEntity
  8
AM_0
100
AcDbCircle
 10
2.999999999999725
 20
3.000000000000178
 30
0.0
 40
2.328857660293599
100
AcDbArc
 50
104.999999506796
 51
284.9999976855637
  0
LINE
  5
801D
330
1F
100
AcDbEntity
  8
AM_0
100
AcDbLine
 10
3.877117156982714
 20
0.1310844421391923
 30
0.0
 11
6.647594451904676
 21
0.9781036376952073
 31
0.0
  0
ARC
  5
801F
330
1F
100
AcDbEntity
  8
AM_0
100
AcDbCircle
 10
2.999999999999725
 20
3.000000000000178
 30
0.0
 40
1.8376451730728
100
AcDbArc
 50
104.999999506796
 51
284.9999976855637
  0
ARC
  5
8020
330
1F
100
AcDbEntity
  8
AM_0
100
AcDbCircle
 10
2.999999999999725
 20
3.000000000000178
 30
0.0
 40
1.352302074432399
100
AcDbArc
 50
104.999999506796
 51
284.9999976855637
  0
LINE
  5
8021
330
1F
100
AcDbEntity
  8
AM_7
100
AcDbLine
 10
-8.679105770554548
 20
-0.1294095324619102
 30
0.0
 11
26.70023202896086
 21
9.350456237793256
 31
0.0
  0
CIRCLE
  5
8024
330
1F
100
AcDbEntity
  8
AM_0
100
AcDbCircle
 10
27.9407043457028
 20
20.03559875488321
 30
0.0
 40
5.0
  0
CIRCLE
  5
8025
330
1F
100
AcDbEntity
  8
AM_0
100
AcDbCircle
 10
27.9407043457028
 20
20.03559875488321
 30
0.0
 40
4.5
  0
LINE
  5
8026
330
1F
100
AcDbEntity
  8
AM_0
100
AcDbLine
 10
19.55768299102769
 20
9.507167816162171
 30
0.0
 11
24.48884773254362
 21
27.91053009033221
 31
0.0
  0
LINE
  5
8027
330
1F
100
AcDbEntity
  8
AM_0
100
AcDbLine
 10
19.00000476837167
 20
9.357738494873167
 30
0.0
 11
25.12687778472868
 21
32.22354125976625
 31
0.0
  0
LINE
  5
8029
330
1F
100
AcDbEntity
  8
AM_0
100
AcDbLine
 10
6.829036712646722
 20
6.096534729004199
 30
0.0
 11
19.55768299102769
 21
9.507167816162171
 31
0.0
  0
ARC
  5
802A
330
1F
100
AcDbEntity
  8
AM_0
100
AcDbCircle
 10
1.373367309570721
 20
6.153732299805207
 30
0.0
 40
2.9815871715546
100
AcDbArc
 50
345.3087856047732
 51
4.536683790592608
  0
ARC
  5
802B
330
1F
100
AcDbEntity
  8
AM_0
100
AcDbCircle
 10
1.373367309570721
 20
6.153732299805207
 30
0.0
 40
3.5
100
AcDbArc
 50
345.3087856047732
 51
5.797488046280117
  0
LINE
  5
802C
330
1F
100
AcDbEntity
  8
AM_0
100
AcDbLine
 10
5.147966384887705
 20
6.574810028076178
 30
0.0
 11
6.246646881103727
 21
5.940486907959162
 31
0.0
  0
LINE
  5
802D
330
1F
100
AcDbEntity
  8
AM_0
100
AcDbLine
 10
2.325145721435728
 20
5.923110961914241
 30
0.0
 11
5.147958755493714
 21
6.57480621337914
 31
0.0
  0
ARC
  5
802E
330
1F
100
AcDbEntity
  8
AM_0
100
AcDbCircle
 10
8.144531249999726
 20
4.378471374512238
 30
0.0
 40
3.5
100
AcDbArc
 50
165.308787198634
 51
224.6912168239142
  0
ARC
  5
802F
330
1F
100
AcDbEntity
  8
AM_0
100
AcDbCircle
 10
3.168167114257708
 20
-0.5445327758787836
 30
0.0
 40
2.9815871715546
100
AcDbArc
 50
25.46331576357152
 51
44.69121523004982
  0
LINE
  5
8030
330
1F
100
AcDbEntity
  8
AM_0
100
AcDbLine
 10
5.431909561157718
 20
5.515125274658098
 30
0.0
 11
6.363658905029676
 21
2.037788391113231
 31
0.0
  0
LINE
  5
8031
330
1F
100
AcDbEntity
  8
AM_0
100
AcDbLine
 10
5.431909561157718
 20
5.515125274658098
 30
0.0
 11
6.880798339843703
 21
5.903354644775227
 31
0.0
  0
LINE
  5
8032
330
1F
100
AcDbEntity
  8
AM_0
100
AcDbLine
 10
5.431901931762705
 20
5.515121459961171
 30
0.0
 11
6.670621871948706
 21
3.983535766602194
 31
0.0
  0
ARC
  5
8033
330
1F
100
AcDbEntity
  8
AM_0
100
AcDbCircle
 10
2.999999999999725
 20
3.000000000000178
 30
0.0
 40
0.8000000119209001
100
AcDbArc
 50
104.999999506796
 51
284.9999976855637
  0
ARC
  5
8034
330
1F
100
AcDbEntity
  8
AM_0
100
AcDbCircle
 10
8.144531249999726
 20
4.378471374512238
 30
0.0
 40
4.018412590026898
100
AcDbArc
 50
165.308787198634
 51
224.6912168239142
  0
LINE
  5
8035
330
1F
100
AcDbEntity
  8
AM_0
100
AcDbLine
 10
2.792951583862711
 20
3.772743225098175
 30
0.0
 11
4.133686065673725
 21
4.131992340088126
 31
0.0
  0
LINE
  5
8036
330
1F
100
AcDbEntity
  8
AM_0
100
AcDbLine
 10
2.5243911743167
 20
4.775028228760172
 30
0.0
 11
4.217073440551711
 21
5.22858428955113
 31
0.0
  0
LINE
  5
8037
330
1F
100
AcDbEntity
  8
AM_0
100
AcDbLine
 10
2.650005340576721
 20
4.306221008301188
 30
0.0
 11
4.139427185058718
 21
4.705310821533097
 31
0.0
  0
LINE
  5
8038
330
1F
100
AcDbEntity
  8
AM_0
100
AcDbLine
 10
2.397254943847722
 20
5.249504089355193
 30
0.0
 11
4.329828262329709
 21
5.767333984375121
 31
0.0
  0
LINE
  5
8039
330
1F
100
AcDbEntity
  8
AM_0
100
AcDbLine
 10
3.602760314941671
 20
0.7504959106441991
 30
0.0
 11
5.535333633422691
 21
1.268325805664127
 31
0.0
  0
LINE
  5
803A
330
1F
100
AcDbEntity
  8
AM_0
100
AcDbLine
 10
3.3500099182127
 20
1.693775177002188
 30
0.0
 11
4.83942985534669
 21
2.092864990234155
 31
0.0
  0
LINE
  5
803B
330
1F
100
AcDbEntity
  8
AM_0
100
AcDbLine
 10
3.475624084472693
 20
1.224971771240185
 30
0.0
 11
5.168308258056678
 21
1.678524017334106
 31
0.0
  0
LINE
  5
803C
330
1F
100
AcDbEntity
  8
AM_0
100
AcDbLine
 10
3.207063674926681
 20
2.227260589600243
 30
0.0
 11
4.547798156738688
 21
2.586509704590135
 31
0.0
  0
ARC
  5
803D
330
1F
100
AcDbEntity
  8
AM_0
100
AcDbCircle
 10
3.168167114257708
 20
-0.5445327758787836
 30
0.0
 40
3.5
100
AcDbArc
 50
24.20251236165442
 51
44.69121523004982
  0
LINE
  5
803E
330
1F
100
AcDbEntity
  8
AM_0
100
AcDbLine
 10
6.246644973754722
 20
5.940483093262238
 30
0.0
 11
6.829036712646722
 21
6.096534729004199
 31
0.0
  0
LINE
  5
803F
330
1F
100
AcDbEntity
  8
AM_0
100
AcDbLine
 10
6.363658905029676
 20
2.037788391113231
 30
0.0
 11
7.812547683715687
 21
2.426017761230192
 31
0.0
  0
LINE
  5
8040
330
1F
100
AcDbEntity
  8
AM_0
100
AcDbLine
 10
6.670625686645717
 20
3.983539581299234
 30
0.0
 11
6.363656997680702
 21
2.037792205811179
 31
0.0
  0
LINE
  5
8041
330
1F
100
AcDbEntity
  8
AM_0
100
AcDbLine
 10
6.647598266601686
 20
0.9781112670901933
 30
0.0
 11
7.281917572021692
 21
2.076782226562224
 31
0.0
  0
LINE
  5
8042
330
1F
100
AcDbEntity
  8
AM_0
100
AcDbLine
 10
7.281921386718673
 20
2.076782226562224
 30
0.0
 11
7.864313125610673
 21
2.232833862305206
 31
0.0
  0
LINE
  5
8043
330
1F
100
AcDbEntity
  8
AM_0
100
AcDbLine
 10
6.829036712646722
 20
6.096534729004199
 30
0.0
 11
7.864313125610673
 21
2.232833862305206
 31
0.0
  0
LINE
  5
8044
330
1F
100
AcDbEntity
  8
AM_0
100
AcDbLine
 10
14.91157531738267
 20
8.262245178223231
 30
0.0
 11
15.8174419403077
 21
4.881504058838237
 31
0.0
  0
LINE
  5
8045
330
1F
100
AcDbEntity
  8
AM_0
100
AcDbLine
 10
15.5415992736817
 20
4.28995513916022
 30
0.0
 11
15.8174419403077
 21
4.881504058838237
 31
0.0
  0
ARC
  5
8046
330
1F
100
AcDbEntity
  8
AM_0
100
AcDbCircle
 10
22.31851959228573
 20
8.17638015747122
 30
0.0
 40
3.0
100
AcDbArc
 50
282.9999989956473
 51
333.1896838471928
  0
ARC
  5
8047
330
1F
100
AcDbEntity
  8
AM_0
100
AcDbCircle
 10
22.31851959228573
 20
8.17638015747122
 30
0.0
 40
2.328857660293599
100
AcDbArc
 50
284.9999944978368
 51
315.8189930707584
  0
LINE
  5
8048
330
1F
100
AcDbEntity
  8
AM_0
100
AcDbLine
 10
22.99337577819871
 20
5.253273010254196
 30
0.0
 11
20.17056274414072
 21
4.601573944092144
 31
0.0
  0
LINE
  5
8049
330
1F
100
AcDbEntity
  8
AM_0
100
AcDbLine
 10
22.92127704620368
 20
5.92687606811524
 30
0.0
 11
20.98870277404768
 21
5.409046173096221
 31
0.0
  0
ARC
  5
804A
330
1F
100
AcDbEntity
  8
AM_0
100
AcDbCircle
 10
23.94514465332065
 20
5.02264404296921
 30
0.0
 40
3.5
100
AcDbArc
 50
170.2145022681062
 51
185.7974832368448
  0
ARC
  5
804B
330
1F
100
AcDbEntity
  8
AM_0
100
AcDbCircle
 10
23.94514465332065
 20
5.02264404296921
 30
0.0
 40
2.9815871715546
100
AcDbArc
 50
165.5204274402598
 51
184.5366849575718
  0
LINE
  5
804C
330
1F
100
AcDbEntity
  8
AM_0
100
AcDbLine
 10
20.17056083679171
 20
4.601570129394196
 30
0.0
 11
19.07188034057672
 21
5.235893249512179
 31
0.0
  0
LINE
  5
804D
330
1F
100
AcDbEntity
  8
AM_0
100
AcDbLine
 10
28.68785238265959
 20
17.24721145629923
 30
0.0
 11
25.89946651458708
 21
17.99436187744124
 31
0.0
  0
LINE
  5
804E
330
1F
100
AcDbEntity
  8
AM_0
100
AcDbLine
 10
27.19355583190881
 20
22.82398986816424
 30
0.0
 11
25.1523160934445
 21
20.78274536132824
 31
0.0
  0
LINE
  5
804F
330
1F
100
AcDbEntity
  8
AM_0
100
AcDbLine
 10
25.15231418609575
 20
20.78275299072323
 30
0.0
 11
25.89946174621549
 21
17.99436187744124
 31
0.0
  0
LINE
  5
8050
330
1F
100
AcDbEntity
  8
AM_0
100
AcDbLine
 10
30.72908425331077
 20
19.2884597778322
 30
0.0
 11
28.6878442764279
 21
17.24721908569325
 31
0.0
  0
LINE
  5
8051
330
1F
100
AcDbEntity
  8
AM_0
100
AcDbLine
 10
29.98194313049277
 20
22.07685089111323
 30
0.0
 11
30.72909092903093
 21
19.28845214843722
 31
0.0
  0
LINE
  5
8052
330
1F
100
AcDbEntity
  8
AM_0
100
AcDbLine
 10
27.19356203079192
 20
22.82398986816424
 30
0.0
 11
29.98194789886442
 21
22.07684326171926
 31
0.0
  0
LINE
  5
8053
330
1F
100
AcDbEntity
  8
AM_0
100
AcDbLine
 10
24.08059597015359
 20
28.3187713623052
 30
0.0
 11
24.48884201049761
 21
27.91052246093722
 31
0.0
  0
ARC
  5
8055
330
1F
100
AcDbEntity
  8
AM_0
100
AcDbCircle
 10
41.46357727050754
 20
23.65904235839827
 30
0.0
 40
4.0
100
AcDbArc
 50
285.0000013280268
 51
104.999999506796
  0
LINE
  5
8056
330
1F
100
AcDbEntity
  8
AM_0
100
AcDbLine
 10
37.81481432914691
 20
31.48120880126925
 30
0.0
 11
42.99119567871055
 21
12.16268920898426
 31
0.0
  0
LINE
  5
8057
330
1F
100
AcDbEntity
  8
AM_0
100
AcDbLine
 10
38.29777741432157
 20
31.61061859130922
 30
0.0
 11
43.47415828704796
 21
12.29209899902326
 31
0.0
  0
LINE
  5
8058
330
1F
100
AcDbEntity
  8
AM_0
100
AcDbLine
 10
42.99119472503629
 20
12.16269302368226
 30
0.0
 11
43.29737377166703
 21
11.98591995239326
 31
0.0
  0
LINE
  5
8059
330
1F
100
AcDbEntity
  8
AM_0
100
AcDbLine
 10
48.69191551208367
 20
12.13732910156221
 30
0.0
 11
50.00856113433776
 21
7.223541259766252
 31
0.0
  0
LINE
  5
805A
330
1F
100
AcDbEntity
  8
AM_0
100
AcDbLine
 10
43.47414970397903
 20
12.29210281372126
 30
0.0
 11
43.12059879302934
 21
11.67973709106429
 31
0.0
  0
LINE
  5
805B
330
1F
100
AcDbEntity
  8
AM_0
100
AcDbLine
 10
41.53292608261064
 20
19.53652191162127
 30
0.0
 11
42.49885177612265
 21
19.79534149169928
 31
0.0
  0
ARC
  5
805C
330
1F
100
AcDbEntity
  8
AM_0
100
AcDbCircle
 10
44.82820892333871
 20
11.10205078125028
 30
0.0
 40
4.0
100
AcDbArc
 50
15.00000041741381
 51
104.999999506796
  0
LINE
  5
805D
330
1F
100
AcDbEntity
  8
AM_0
100
AcDbLine
 10
42.82701015472379
 20
14.7069358825683
 30
0.0
 11
43.79293632507286
 21
14.96575546264631
 31
0.0
  0
ARC
  5
805E
330
1F
100
AcDbEntity
  8
AM_0
100
AcDbCircle
 10
38.87537384033166
 20
33.31835174560524
 30
0.0
 40
4.0
100
AcDbArc
 50
285.0000013280268
 51
344.1153722643053
  0
LINE
  5
805F
330
1F
100
AcDbEntity
  8
AM_0
100
AcDbLine
 10
38.94472265243499
 20
29.1958312988283
 30
0.0
 11
39.91064834594683
 21
29.45465087890625
 31
0.0
  0
LINE
  5
8060
330
1F
100
AcDbEntity
  8
AM_0
100
AcDbLine
 10
39.46237277984575
 20
27.26393127441424
 30
0.0
 11
40.42829847335769
 21
27.52275085449225
 31
0.0
  0
LINE
  5
8061
330
1F
100
AcDbEntity
  8
AM_0
100
AcDbLine
 10
37.685405015945
 20
31.96417236328125
 30
0.0
 11
38.29777789115862
 21
31.61061859130922
 31
0.0
  0
LINE
  5
8062
330
1F
100
AcDbEntity
  8
AM_0
100
AcDbLine
 10
37.81481456756554
 20
31.48120880126925
 30
0.0
 11
37.99159145355182
 21
31.78739929199225
 31
0.0
  0
LINE
  5
8063
330
1F
100
AcDbEntity
  8
AM_0
100
AcDbLine
 10
150.0000038146925
 20
32.22354125976642
 30
0.0
 11
150.0000038146926
 21
7.22354125976641
 31
0.0
  0
SPLINE
  5
8064
330
1F
100
AcDbEntity
  8
AM_0
100
AcDbSpline
210
0.0
220
0.0
230
1.0
 70
     8
 71
     3
 72
     9
 73
     5
 74
     0
 42
0.0000000001
 43
0.0000000001
 40
9.634093390617461
 40
9.634093390617461
 40
9.634093390617461
 40
9.634093390617461
 40
18.15832259325161
 40
35.99791091088693
 40
35.99791091088693
 40
35.99791091088693
 40
35.99791091088693
 10
18.43757963123206
 20
-61.56847572087142
 30
0.0
 10
17.69034517362223
 20
-58.44766344709043
 30
0.0
 10
16.18688586551731
 20
-46.98623812797868
 30
0.0
 10
24.04513112905905
 20
-55.0430610948059
 30
0.0
 10
30.16121804920041
 20
-62.15998058607622
 30
0.0
  0
LINE
  5
8065
330
1F
100
AcDbEntity
  8
AM_0
100
AcDbLine
 10
19.37078905105581
 20
-65.05126762390031
 30
0.0
 11
92.09799201270106
 21
-45.56407028852532
 31
0.0
  0
LINE
  5
8066
330
1F
100
AcDbEntity
  8
AM_0
100
AcDbLine
 10
15.02454662322987
 20
-48.83087730407633
 30
0.0
 11
35.97847938537577
 21
-45.88599586486722
 31
0.0
  0
LINE
  5
8067
330
1F
100
AcDbEntity
  8
AM_0
100
AcDbLine
 10
16.45065402984598
 20
-40.04691886901728
 30
0.0
 11
32.63954830169657
 21
-37.77171516418319
 31
0.0
  0
LINE
  5
8068
330
1F
100
AcDbEntity
  8
AM_0
100
AcDbLine
 10
18.97844934463473
 20
-39.24569129943733
 30
0.0
 11
24.47999560832951
 21
-27.44758796691827
 31
0.0
  0
LINE
  5
8069
330
1F
100
AcDbEntity
  8
AM_0
100
AcDbLine
 10
14.6599292755126
 20
-48.43782234191824
 30
0.0
 11
36.56510734558079
 21
-45.35925102233828
 31
0.0
  0
LINE
  5
806A
330
1F
100
AcDbEntity
  8
AM_0
100
AcDbLine
 10
14.92672824859609
 20
-48.46581459045328
 30
0.0
 11
36.5741329193108
 21
-45.42346763610725
 31
0.0
  0
SPLINE
  5
806E
330
1F
100
AcDbEntity
  8
AM_0
100
AcDbSpline
210
0.0
220
0.0
230
1.0
 70
     8
 71
     3
 72
    11
 73
     7
 74
     5
 42
0.0000000001
 43
0.0000000001
 44
0.0000000001
 40
0.0
 40
0.0
 40
0.0
 40
0.0
 40
2.078119070254178
 40
4.079695040805525
 40
6.088972369011306
 40
8.105159974353348
 40
8.105159974353348
 40
8.105159974353348
 40
8.105159974353348
 10
14.81569004058817
 20
-40.78161048889032
 30
0.0
 10
14.66542442228303
 20
-41.46878109648457
 30
0.0
 10
14.37042790039074
 20
-42.81781184266155
 30
0.0
 10
14.90922203021048
 20
-44.81731667090351
 30
0.0
 10
15.3428197686851
 20
-46.76878970038051
 30
0.0
 10
15.70886252544757
 20
-48.06148387361601
 30
0.0
 10
15.89219808578476
 20
-48.70894050598028
 30
0.0
 11
14.81569004058817
 21
-40.78161048889032
 31
0.0
 11
14.53510379791232
 21
-42.84070014953531
 31
0.0
 11
14.89201450347874
 21
-44.81019783019926
 31
0.0
 11
15.36136770248386
 21
-46.76388740539421
 31
0.0
 11
15.89219808578476
 21
-48.70894050598028
 31
0.0
  0
ARC
  5
806F
330
1F
100
AcDbEntity
  8
AM_0
100
AcDbCircle
 10
15.35475301742533
 20
-47.89259529113631
 30
0.0
 40
0.8831947445868999
100
AcDbArc
 50
218.1213571263945
 51
277.9999999948684
  0
LINE
  5
8070
330
1F
100
AcDbEntity
  8
AM_0
100
AcDbLine
 10
14.92673015594467
 20
-48.46581459045328
 30
0.0
 11
14.98847770690908
 21
-48.69626045226922
 31
0.0
  0
LINE
  5
8072
330
1F
100
AcDbEntity
  8
AM_0
100
AcDbLine
 10
14.98847770690908
 20
-48.69626045226922
 30
0.0
 11
19.37078905105581
 21
-65.05126762390031
 31
0.0
  0
LINE
  5
8073
330
1F
100
AcDbEntity
  8
AM_0
100
AcDbLine
 10
14.65993976593008
 20
-48.43781852722028
 30
0.0
 11
11.74120616912877
 21
-41.21370124816824
 31
0.0
  0
LINE
  5
8074
330
1F
100
AcDbEntity
  8
AM_0
100
AcDbLine
 10
16.86786794662449
 20
-40.49319648742526
 30
0.0
 11
11.74120235443179
 21
-41.21370124816824
 31
0.0
  0
LINE
  5
8075
330
1F
100
AcDbEntity
  8
AM_0
100
AcDbLine
 10
19.51480722427358
 20
-48.19981575012125
 30
0.0
 11
17.61322069168064
 21
-39.88352775573626
 31
0.0
  0
LINE
  5
8076
330
1F
100
AcDbEntity
  8
AM_0
100
AcDbLine
 10
18.50155878067001
 20
-39.75868034362734
 30
0.0
 11
19.68453001975992
 21
-48.17595863342226
 31
0.0
  0
LINE
  5
8077
330
1F
100
AcDbEntity
  8
AM_0
100
AcDbLine
 10
17.31614637374857
 20
-39.92527580261125
 30
0.0
 11
16.86787891387919
 21
-40.49318885803129
 31
0.0
  0
LINE
  5
8078
330
1F
100
AcDbEntity
  8
AM_0
100
AcDbLine
 10
16.45064544677708
 20
-40.04692268371432
 30
0.0
 11
16.00686359405497
 21
-40.61420631408632
 31
0.0
  0
LINE
  5
8079
330
1F
100
AcDbEntity
  8
AM_0
100
AcDbLine
 10
18.97845125198338
 20
-39.2456989288323
 30
0.0
 11
19.09360980987528
 21
-39.67547798156633
 31
0.0
  0
SPLINE
  5
807A
330
1F
100
AcDbEntity
  8
AM_0
100
AcDbSpline
210
0.0
220
0.0
230
1.0
 70
     8
 71
     3
 72
    11
 73
     7
 74
     5
 42
0.0000000001
 43
0.0000000001
 44
0.0000000001
 40
0.0
 40
0.0
 40
0.0
 40
0.0
 40
2.078117672677181
 40
4.079691044730433
 40
6.088967556043298
 40
8.105155180770923
 40
8.105155180770923
 40
8.105155180770923
 40
8.105155180770923
 10
34.41368961334179
 20
-38.02729225158622
 30
0.0
 10
34.74754029305332
 20
-38.64642495906698
 30
0.0
 10
35.40294477096322
 20
-39.86188556335269
 30
0.0
 10
35.43617983461761
 20
-41.93244070645659
 30
0.0
 10
35.55726469989734
 20
-43.92783255305165
 30
0.0
 10
35.5617193763869
 20
-45.27134459632637
 30
0.0
 10
35.56395053863476
 20
-45.94425392150728
 30
0.0
 11
34.41368961334179
 21
-38.02729225158622
 31
0.0
 11
35.25096225738476
 21
-39.92927742004325
 31
0.0
 11
35.45075321197477
 21
-41.92085456848029
 31
0.0
 11
35.53808689117377
 21
-43.92823219299223
 31
0.0
 11
35.56395053863476
 21
-45.94425392150728
 31
0.0
  0
ARC
  5
807C
330
1F
100
AcDbEntity
  8
AM_0
100
AcDbCircle
 10
33.6692667007438
 20
-45.22930335998418
 30
0.0
 40
3.0
100
AcDbArc
 50
206.8986186596345
 51
353.9999994061507
  0
LINE
  5
807D
330
1F
100
AcDbEntity
  8
AM_0
100
AcDbLine
 10
38.70747756957981
 20
-38.37313270568721
 30
0.0
 11
44.08169841766278
 21
-58.42999839782621
 31
0.0
  0
LINE
  5
8088
330
1F
100
AcDbEntity
  8
AM_0
100
AcDbLine
 10
39.44562435150081
 20
-35.86087989807025
 30
0.0
 11
59.94948482513379
 21
-30.36688613891517
 31
0.0
  0
LINE
  5
8089
330
1F
100
AcDbEntity
  8
AM_0
100
AcDbLine
 10
54.72490406036271
 20
-29.6962547302232
 30
0.0
 11
85.62751674652076
 21
-21.41592597961314
 31
0.0
  0
LINE
  5
808A
330
1F
100
AcDbEntity
  8
AM_0
100
AcDbLine
 10
52.26612377166683
 20
-20.51996040344119
 30
0.0
 11
55.24254131317078
 21
-31.62810707092214
 31
0.0
  0
LINE
  5
808B
330
1F
100
AcDbEntity
  8
AM_0
100
AcDbLine
 10
24.47998929023716
 20
-27.44759178161519
 30
0.0
 11
51.6537427902218
 21
-20.16640663146819
 31
0.0
  0
LINE
  5
808C
330
1F
100
AcDbEntity
  8
AM_0
100
AcDbLine
 10
24.20414650440184
 20
-28.03914260864122
 30
0.0
 11
51.78316020965482
 21
-20.64936828613122
 31
0.0
  0
LINE
  5
808D
330
1F
100
AcDbEntity
  8
AM_0
100
AcDbLine
 10
51.78316020965482
 20
-20.64937019348025
 30
0.0
 11
54.75957965850774
 21
-31.75751686096122
 31
0.0
  0
ARC
  5
8092
330
1F
100
AcDbEntity
  8
AM_0
100
AcDbCircle
 10
36.48677921295083
 20
-36.35608100891021
 30
0.0
 40
3.0
100
AcDbArc
 50
286.0332313645317
 51
15.00000041741381
  0
LINE
  5
8093
330
1F
100
AcDbEntity
  8
AM_0
100
AcDbLine
 10
29.95457887649511
 20
-37.88635826110725
 30
0.0
 11
49.31757831573381
 21
-32.69805908203021
 31
0.0
  0
LINE
  5
8098
330
1F
100
AcDbEntity
  8
AM_0
100
AcDbLine
 10
30.58864355087254
 20
-38.05995368957427
 30
0.0
 11
31.77161502838107
 21
-46.47723197936918
 31
0.0
  0
ARC
  5
8099
330
1F
100
AcDbEntity
  8
AM_0
100
AcDbCircle
 10
30.21339559555027
 20
-38.85228157043318
 30
0.0
 40
1.0
100
AcDbArc
 50
104.999999506796
 51
140.9124852947513
  0
LINE
  5
809B
330
1F
100
AcDbEntity
  8
AM_0
100
AcDbLine
 10
36.65283870696978
 20
-45.54288673400729
 30
0.0
 11
37.48268795013378
 21
-37.64739799499419
 31
0.0
  0
LINE
  5
809C
330
1F
100
AcDbEntity
  8
AM_0
100
AcDbLine
 10
31.94133663177464
 20
-46.45338249206427
 30
0.0
 11
31.47697925567612
 21
-37.93510246276729
 31
0.0
  0
ARC
  5
809D
330
1F
100
AcDbEntity
  8
AM_0
100
AcDbCircle
 10
35.85556125640774
 20
-45.01140022277728
 30
0.0
 40
0.8831947445868999
100
AcDbArc
 50
277.9999999948684
 51
337.8786428633488
  0
LINE
  5
809E
330
1F
100
AcDbEntity
  8
AM_0
100
AcDbLine
 10
32.36150074005112
 20
-38.31570625305026
 30
0.0
 11
37.48817253112675
 21
-37.59520149230819
 31
0.0
  0
LINE
  5
809F
330
1F
100
AcDbEntity
  8
AM_0
100
AcDbLine
 10
31.77405357360813
 20
-37.89335441589229
 30
0.0
 11
32.36149692535374
 21
-38.31571006774821
 31
0.0
  0
LINE
  5
80A0
330
1F
100
AcDbEntity
  8
AM_0
100
AcDbLine
 10
32.63955020904514
 20
-37.77171516418319
 30
0.0
 11
33.22250556945774
 21
-38.19470024108829
 31
0.0
  0
LINE
  5
80A4
330
1F
100
AcDbEntity
  8
AM_0
100
AcDbLine
 10
39.32955455779986
 20
-35.37434196472019
 30
0.0
 11
39.38455867767279
 21
-35.57962608337322
 31
0.0
  0
ARC
  5
80A6
330
1F
100
AcDbEntity
  8
AM_0
100
AcDbCircle
 10
49.57639408111481
 20
-33.66398239135627
 30
0.0
 40
1.0
100
AcDbArc
 50
45.00000125223688
 51
104.999999506796
  0
LINE
  5
80A7
330
1F
100
AcDbEntity
  8
AM_0
100
AcDbLine
 10
37.77723217010472
 20
-24.40224838256723
 30
0.0
 11
38.13078594207676
 21
-23.78987503051622
 31
0.0
  0
LINE
  5
80A8
330
1F
100
AcDbEntity
  8
AM_0
100
AcDbLine
 10
47.43649005889781
 20
-21.81405639648318
 30
0.0
 11
46.82411670684783
 21
-21.46050262451019
 31
0.0
  0
LINE
  5
80A9
330
1F
100
AcDbEntity
  8
AM_0
100
AcDbLine
 10
51.65374660491877
 20
-20.16640853881722
 30
0.0
 11
52.26611614227185
 21
-20.51996231079022
 31
0.0
  0
LINE
  5
80AB
330
1F
100
AcDbEntity
  8
AM_0
100
AcDbLine
 10
59.43184566497777
 20
-28.43503379821619
 30
0.0
 11
59.94948482513379
 21
-30.36688613891517
 31
0.0
  0
DIMENSION
  5
8350
330
1F
100
AcDbEntity
  8
AM_5
100
AcDbDimension
  2
*D2
 10
168.7609908585459
 20
32.22354125976642
 30
0.0
 11
165.6609908585459
 21
19.72354125976643
 31
0.0
 70
    32
  1
<>
 71
     5
 42
25.0
 51
359.9999999999998
  3
AM_JIS$0
100
AcDbAlignedDimension
 13
150.0000038146926
 23
7.22354125976641
 33
0.0
 14
150.0000038146925
 24
32.22354125976642
 34
0.0
 50
90.00000000000005
100
AcDbRotatedDimension
1001
GENIUS_GENDTOL_13
1000

1000
h7
1000

1040
0.0
1001
ACAD
1000
DSTYLE
1002
{
1070
   287
1070
     3
1070
    40
1040
1.0
1070
    42
1040
1.0
1070
    43
1040
12.0
1070
    48
1040
0.1
1070
    78
1070
     8
1070
   140
1040
3.2
1070
   176
1070
   256
1070
   177
1070
   256
1070
   271
1070
     0
1070
   272
1070
     3
1070
   275
1070
     0
1070
   284
1070
     0
1070
   289
1070
     3
1070
   340
1005
6B
1070
   371
1070
    -1
1070
   372
1070
    -1
1002
}
  0
LINE
  5
83E0
330
1F
100
AcDbEntity
  8
AM_11
100
AcDbLine
 10
2.999999999999731
 20
0.0000000000001795
 30
0.0
 11
-0.0000000000002681
 21
0.0000000000001515
 31
0.0
  0
LINE
  5
83E1
330
1F
100
AcDbEntity
  8
AM_11
100
AcDbLine
 10
-0.0000000000002735
 20
3.000000000000178
 30
0.0
 11
-0.0000000000002681
 21
0.0000000000001515
 31
0.0
  0
DIMENSION
  5
83EA
330
1F
100
AcDbEntity
  8
AM_5
100
AcDbDimension
  2
*D3
 10
19.00000476837184
 20
46.22354125976631
 30
0.0
 11
9.500002384185894
 21
49.32354125976636
 31
0.0
 70
    32
  1
<>
 71
     5
 42
19.00000476837192
 51
359.9999999999998
  3
AM_JIS$0
100
AcDbAlignedDimension
 13
-0.0000000000002735
 23
3.000000000000178
 33
0.0
 14
19.00000476837167
 24
9.357738494873167
 34
0.0
 50
180.0
100
AcDbRotatedDimension
1001
GENIUS_GENDTOL_13
1000

1000
h7
1000

1040
0.0
1001
ACAD
1000
DSTYLE
1002
{
1070
   287
1070
     3
1070
    40
1040
1.0
1070
    42
1040
1.0
1070
    43
1040
12.0
1070
    48
1040
0.1
1070
    78
1070
     8
1070
   140
1040
3.2
1070
   176
1070
   256
1070
   177
1070
   256
1070
   271
1070
     0
1070
   272
1070
     3
1070
   275
1070
     0
1070
   284
1070
     0
1070
   289
1070
     3
1070
   340
1005
6B
1070
   371
1070
    -1
1070
   372
1070
    -1
1002
}
  0
LINE
  5
848E
330
1F
100
AcDbEntity
  8
AM_0
100
AcDbLine
 10
19.00000476837167
 20
9.357738494873167
 30
0.0
 11
19.00000476837167
 21
9.643534996731352
 31
0.0
  0
DIMENSION
  5
8498
330
1F
100
AcDbEntity
  8
AM_5
100
AcDbDimension
  2
*D4
 10
25.12687778472868
 20
32.22354125976625
 30
0.0
 11
37.77773808810744
 21
45.2157601978175
 31
0.0
 70
    34
  1
<>
 71
     5
 42
0.2617993727512853
 51
359.9999999999998
  3
AM_JIS$2
100
AcDb2LineAngularDimension
 13
19.00000476837167
 23
9.357738494873167
 33
0.0
 14
19.00000476837167
 24
9.643534996731352
 34
0.0
 15
19.00000476837167
 25
9.357738494873167
 35
0.0
 16
22.21650922604395
 26
46.12255480208967
 36
0.0
1001
GENIUS_GENDTOL_13
1000

1000
h7
1000

1040
0.0
  0
DIMENSION
  5
857A
330
1F
100
AcDbEntity
  8
AM_5
100
AcDbDimension
  2
*D5
 10
150.0000038146926
 20
56.22354125976629
 30
0.0
 11
75.00000190734633
 21
59.32354125976663
 31
0.0
 70
    32
  1
<>
 71
     5
 42
150.0000038146927
 51
359.9999999999998
  3
AM_JIS$0
100
AcDbAlignedDimension
 13
-0.0000000000002735
 23
3.000000000000178
 33
0.0
 14
150.0000038146925
 24
32.22354125976643
 34
0.0
 50
180.0
100
AcDbRotatedDimension
1001
GENIUS_GENDTOL_13
1000

1000
h7
1000

1040
0.0
1001
ACAD
1000
DSTYLE
1002
{
1070
   287
1070
     3
1070
    40
1040
1.0
1070
    42
1040
1.0
1070
    43
1040
12.0
1070
    48
1040
0.1
1070
    78
1070
     8
1070
   140
1040
3.2
1070
   176
1070
   256
1070
   177
1070
   256
1070
   271
1070
     0
1070
   272
1070
     3
1070
   275
1070
     0
1070
   284
1070
     0
1070
   289
1070
     3
1070
   340
1005
6B
1070
   371
1070
    -1
1070
   372
1070
    -1
1002
}
  0
DIMENSION
  5
8742
330
1F
100
AcDbEntity
  8
AM_5
100
AcDbDimension
  2
*D6
 10
-37.42073240301566
 20
32.22354125976625
 30
0.0
 11
-40.52073240301566
 21
16.1117706298832
 31
0.0
 70
    32
  1
<>
 71
     5
 42
32.22354125976609
 51
359.9999999999998
  3
AM_JIS$0
100
AcDbAlignedDimension
 13
-0.0000000000002681
 23
0.0000000000001515
 33
0.0
 14
25.12687778472868
 24
32.22354125976623
 34
0.0
 50
270.0000000000006
100
AcDbRotatedDimension
1001
GENIUS_GENDTOL_13
1000

1000
h7
1000

1040
0.0
1001
ACAD
1000
DSTYLE
1002
{
1070
   287
1070
     3
1070
    40
1040
1.0
1070
    42
1040
1.0
1070
    43
1040
12.0
1070
    48
1040
0.1
1070
    78
1070
     8
1070
   140
1040
3.2
1070
   176
1070
   256
1070
   177
1070
   256
1070
   271
1070
     1
1070
   272
1070
     3
1070
   275
1070
     0
1070
   284
1070
     0
1070
   289
1070
     3
1070
   340
1005
6B
1070
   371
1070
    -1
1070
   372
1070
    -1
1002
}
  0
DIMENSION
  5
87E8
330
1F
100
AcDbEntity
  8
AM_5
100
AcDbDimension
  2
*D7
 10
-14.19718953832317
 20
1.49785549235186
 30
0.0
 11
-10.70559737272584
 21
-11.53294386896687
 31
0.0
 70
   160
  1
<>
 71
     5
 42
6.000000000000013
 51
359.9999999999998
  3
AM_JIS$0
100
AcDbAlignedDimension
 13
3.776457135307283
 23
0.102222521132953
 33
0.0
 14
2.223542864692158
 24
5.897777478867378
 34
0.0
 50
285.0000000000001
100
AcDbRotatedDimension
1001
GENIUS_GENDTOL_13
1000

1000
h7
1000

1040
0.0
1001
ACAD
1000
DSTYLE
1002
{
1070
   287
1070
     3
1070
    40
1040
1.0
1070
    42
1040
1.0
1070
    43
1040
12.0
1070
    48
1040
0.1
1070
    78
1070
     8
1070
   140
1040
3.2
1070
   176
1070
   256
1070
   177
1070
   256
1070
   271
1070
     1
1070
   272
1070
     3
1070
   275
1070
     0
1070
   284
1070
     0
1070
   289
1070
     3
1070
   340
1005
6B
1070
   371
1070
    -1
1070
   372
1070
    -1
1002
}
  0
DIMENSION
  5
8899
330
1F
100
AcDbEntity
  8
AM_5
100
AcDbDimension
  2
*D8
 10
-0.0000000000002682
 20
0.0000000000001515
 30
0.0
 11
-36.69621683924635
 21
-6.343661516306815
 31
0.0
 70
   162
  1
<>
 71
     5
 42
0.2617994083196589
 51
359.9999999999998
  3
AM_JIS$2
100
AcDb2LineAngularDimension
 13
-1.712875366211296
 23
1.737186431885171
 33
0.0
 14
26.70023202896086
 24
9.350456237793256
 34
0.0
 15
2.999999999999731
 25
0.0000000000001795
 35
0.0
 16
-37.28257595840028
 26
-2.544733358988692
 36
0.0
1001
GENIUS_GENDTOL_13
1000

1000
h7
1000

1040
0.0
  0
DIMENSION
  5
89AC
330
1F
100
AcDbEntity
  8
AM_5
100
AcDbDimension
  2
*D9
 10
-6.141545273113571
 20
-46.00536953356162
 30
0.0
 11
0.088063582773561
 21
-57.27710478876542
 31
0.0
 70
    32
  1
<>
 71
     5
 42
25.00000337285989
 51
359.9999999999998
  3
AM_JIS$0
100
AcDbAlignedDimension
 13
19.37078905105579
 23
-65.05126762390031
 33
0.0
 14
11.74120235443179
 24
-41.21370124816824
 34
0.0
 50
285.0000014950999
100
AcDbRotatedDimension
1001
GENIUS_GENDTOL_13
1000

1000
h7
1000

1040
0.0
1001
ACAD
1000
DSTYLE
1002
{
1070
   287
1070
     3
1070
    40
1040
1.0
1070
    42
1040
1.0
1070
    43
1040
12.0
1070
    48
1040
0.1
1070
    78
1070
     8
1070
   140
1040
3.2
1070
   176
1070
   256
1070
   177
1070
   256
1070
   271
1070
     0
1070
   272
1070
     3
1070
   275
1070
     0
1070
   284
1070
     0
1070
   289
1070
     3
1070
   340
1005
6B
1070
   371
1070
    -1
1070
   372
1070
    -1
1002
}
  0
LINE
  5
8A3A
330
1F
100
AcDbEntity
  8
AM_0
100
AcDbLine
 10
11.74120235443179
 20
-41.21370124816824
 30
0.0
 11
11.54038031583279
 21
-41.2675113512332
 31
0.0
  0
LINE
  5
8A3B
330
1F
100
AcDbEntity
  8
AM_0
100
AcDbLine
 10
11.74120616912877
 20
-41.21370124816824
 30
0.0
 11
11.83436249610522
 21
-41.56136539349083
 31
0.0
  0
DIMENSION
  5
8A45
330
1F
100
AcDbEntity
  8
AM_5
100
AcDbDimension
  2
*D10
 10
11.74120616912877
 20
-41.21370124816824
 30
0.0
 11
18.59288884446468
 21
-76.43792526523323
 31
0.0
 70
   162
  1
<>
 71
     5
 42
0.1221731377886703
 51
359.9999999999998
  3
AM_JIS$2
100
AcDb2LineAngularDimension
 13
11.74120616912877
 23
-41.21370124816824
 33
0.0
 14
11.83436249610522
 24
-41.56136539349083
 34
0.0
 15
14.65993976593008
 25
-48.43781852722028
 35
0.0
 16
23.81801877870183
 26
-75.00485556821381
 36
0.0
1001
GENIUS_GENDTOL_13
1000

1000
h7
1000

1040
0.0
  0
DIMENSION
  5
8B4B
330
1F
100
AcDbEntity
  8
AM_5
100
AcDbDimension
  2
*D11
 10
11.74120235443179
 20
-41.21370124816824
 30
0.0
 11
-6.769981488935107
 21
-41.51172873821205
 31
0.0
 70
   162
  1
<>
 71
     5
 42
0.1221732582055992
 51
359.9999999999998
  3
AM_JIS$2
100
AcDb2LineAngularDimension
 13
11.74120235443179
 23
-41.21370124816824
 33
0.0
 14
11.54038031583279
 24
-41.2675113512332
 34
0.0
 15
16.86786794662449
 25
-40.49319648742526
 35
0.0
 16
-6.321802328344956
 26
-45.27333294300642
 36
0.0
1001
GENIUS_GENDTOL_13
1000

1000
h7
1000

1040
0.0
1001
ACAD
1000
DSTYLE
1002
{
1070
    76
1070
     1
1070
   282
1070
     1
1002
}
  0
DIMENSION
  5
8C93
330
1F
100
AcDbEntity
  8
AM_5
100
AcDbDimension
  2
*D12
 10
92.38899748326808
 20
-19.60419248745863
 30
0.0
 11
98.61860570528481
 21
-30.87592537702608
 31
0.0
 70
    32
  1
<>
 71
     5
 42
24.9999984746859
 51
359.9999999999998
  3
AM_JIS$0
100
AcDbAlignedDimension
 13
92.09799201270106
 23
-45.56407028852532
 33
0.0
 14
85.62751674652076
 24
-21.41592597961314
 34
0.0
 50
105.0000014950998
100
AcDbRotatedDimension
1001
GENIUS_GENDTOL_13
1000

1000
h7
1000

1040
0.0
1001
ACAD
1000
DSTYLE
1002
{
1070
   287
1070
     3
1070
    40
1040
1.0
1070
    42
1040
1.0
1070
    43
1040
12.0
1070
    48
1040
0.1
1070
    78
1070
     8
1070
   140
1040
3.2
1070
   176
1070
   256
1070
   177
1070
   256
1070
   271
1070
     0
1070
   272
1070
     3
1070
   275
1070
     0
1070
   284
1070
     0
1070
   289
1070
     3
1070
   340
1005
6B
1070
   371
1070
    -1
1070
   372
1070
    -1
1002
}
  0
DIMENSION
  5
8DA8
330
1F
100
AcDbEntity
  8
AM_5
100
AcDbDimension
  2
*D13
 10
-67.40480753085851
 20
139.9999923706039
 30
0.0
 11
-106.6522995142452
 21
28.06400905229711
 31
0.0
 70
   164
  1
%%c280
 71
     5
 42
139.9999999999998
 51
359.9999999999998
  3
AM_JIS$4
100
AcDbRadialDimension
 15
-113.7273548432723
 25
7.885566169340304
 35
0.0
 40
0.0
1001
ACAD
1000
DSTYLE
1002
{
1070
   287
1070
     3
1070
    43
1040
12.0
1070
    74
1070
     0
1070
   172
1070
     1
1070
   271
1070
     0
1070
   288
1070
     0
1070
   289
1070
     3
1002
}
  0
DIMENSION
  5
8DE0
330
1F
100
AcDbEntity
  8
AM_5
100
AcDbDimension
  2
*D14
 10
-27.42073240301567
 20
32.22354125976627
 30
0.0
 11
-31.35882764111091
 21
17.22354125976623
 31
0.0
 70
    32
  1
(<>)
 71
     5
 42
30.00000000000006
 51
359.9999999999998
  3
AM_JIS$0
100
AcDbAlignedDimension
 13
0.1022300720216938
 23
2.2235412597662
 33
0.0
 14
25.12687778472868
 24
32.22354125976625
 34
0.0
 50
270.0000000000001
100
AcDbRotatedDimension
1001
GENIUS_GENDTOL_13
1000

1000
h7
1000

1040
0.0
1001
ACAD
1000
DSTYLE
1002
{
1070
   287
1070
     3
1070
    40
1040
1.0
1070
    42
1040
1.0
1070
    43
1040
12.0
1070
    48
1040
0.1
1070
    78
1070
     8
1070
   140
1040
3.2
1070
   176
1070
   256
1070
   177
1070
   256
1070
   271
1070
     0
1070
   272
1070
     3
1070
   275
1070
     0
1070
   284
1070
     0
1070
   289
1070
     3
1070
   340
1005
6B
1070
   371
1070
    -1
1070
   372
1070
    -1
1002
}
  0
MTEXT
  5
908E
330
1F
100
AcDbEntity
  8
AM_6
100
AcDbMText
 10
-29.10313208325476
 20
-26.11751121185873
 30
0.0
 40
5.0
 41
0.0
 71
     5
 72
     5
  1
\T1.40;\W0.59;＋７°
 73
     1
 44
1.0
1001
ACAD
1000
MTEXTBEGIN
1070
    73
1070
     1
1070
    44
1040
1.0
1070
    74
1070
     0
1000
MTEXTEND
  0
MTEXT
  5
908F
330
1F
100
AcDbEntity
  8
AM_6
100
AcDbMText
 10
-46.43290214498166
 20
-15.81306145281237
 30
0.0
 40
5.0
 41
0.0
 71
     5
 72
     5
  1
\T1.40;\W0.59;０°
 73
     1
 44
1.0
1001
ACAD
1000
MTEXTBEGIN
1070
    73
1070
     1
1070
    44
1040
1.0
1070
    74
1070
     0
1000
MTEXTEND
  0
LEADER
  5
9090
330
1F
100
AcDbEntity
  8
AM_5
  6
Continuous
 48
0.5
100
AcDbLeader
  3
AM_JIS$7
 76
     2
 10
-48.43635716707307
 20
-19.02019007074283
 30
0.0
 10
-45.84816671670767
 20
-28.67944833116544
 30
0.0
211
0.8660254037844403
221
-0.4999999999999976
231
0.0
1001
ACAD
1000
DSTYLE
1002
{
1070
     6
1000
OPEN30
1070
   173
1070
     1
1070
   176
1070
     0
1002
}
  0
LEADER
  5
9091
330
1F
100
AcDbEntity
  8
AM_5
  6
Continuous
 48
0.5
100
AcDbLeader
  3
AM_JIS$7
 76
     2
 10
-36.188908456293
 20
-26.09125788079778
 30
0.0
 10
-45.84816671670767
 20
-28.67944833116544
 30
0.0
211
0.8660254037844403
221
-0.4999999999999976
231
0.0
1001
ACAD
1000
DSTYLE
1002
{
1070
     6
1000
OPEN30
1070
   173
1070
     1
1070
   176
1070
     0
1002
}
  0
VIEWPORT
  5
110
102
{ACAD_XDICTIONARY
360
9350
102
}
330
101
100
AcDbEntity
 67
     1
  8
0
100
AcDbViewport
 10
420.5
 20
297.0
 30
0.0
 40
948.9782706766916
 41
628.452
 68
     1
 69
     1
 12
420.5
 22
297.0
 13
0.0
 23
0.0
 14
10.0
 24
10.0
 15
10.0
 25
10.0
 16
0.0
 26
0.0
 36
1.0
 17
0.0
 27
0.0
 37
0.0
 42
50.0
 43
0.0
 44
0.0
 45
628.452
 50
0.0
 51
0.0
 72
   100
 90
    32800
  1

281
     0
 71
     1
 74
     0
110
-0.0000000000002682
120
0.000000000000161
130
0.0
111
1.0
121
0.000000000000002
131
0.0
112
-0.000000000000002
122
1.0
132
0.0
 79
     0
146
0.0
1001
GENIUS_GENODEF_13
1002
{
1000
HIER
1070
     0
1002
}
1002
{
1000
MANEDIT
1070
     0
1002
}
1002
{
1000
NOSEL
1070
     0
1002
}
1002
{
1000
BEHIND
1070
     0
1002
}
1002
{
1000
OTHER
1070
     0
1002
}
1002
{
1000
REACTOR
1002
}
1001
GENIUS_GENOBJ-N-SDF_13
1002
{
1000
OWNER
1000
GEN
1002
}
1001
GENIUS_GENSCREG_15
1000
PF
1040
1.0
1000
DF
1040
1.0
1000
MIN
1011
-53.98913533834582
1021
-17.226
1031
0.0
1000
MAX
1011
894.9891353383458
1021
611.226
1031
0.0
1000
FLAGS
1070
     2
  0
ENDSEC
  0
SECTION
  2
OBJECTS
  0
DICTIONARY
  5
C
330
0
100
AcDbDictionary
281
     1
  3
ACAD_COLOR
350
915E
  3
ACAD_GROUP
350
D
  3
ACAD_LAYOUT
350
1A
  3
ACAD_MATERIAL
350
915D
  3
ACAD_MLINESTYLE
350
17
  3
ACAD_PLOTSETTINGS
350
19
  3
ACAD_PLOTSTYLENAME
350
E
  3
ACAD_TABLESTYLE
350
915F
  3
ACDBHEADERROUNDTRIPXREC
350
934F
  3
ACDBVARIABLEDICTIONARY
350
34
  3
ACMDICTIONARY
350
43
  3
AMG
350
2B
  3
AMGSNAPSETTINGS
350
6E
  3
DWGPROPS
350
934E
  0
DICTIONARY
  5
74
330
1F
100
AcDbDictionary
280
     1
281
     1
  3
ACAD_INDEX
360
90D2
  3
ACAD_LAYOUTSELFREF
360
9101
  0
DICTIONARY
  5
9106
330
101
100
AcDbDictionary
280
     1
281
     1
  3
ACAD_LAYOUTSELFREF
360
9107
  0
DICTIONARY
  5
9350
330
110
100
AcDbDictionary
280
     1
281
     1
  3
ACAD_XREC_ROUNDTRIP
360
9351
  0
DICTIONARY
  5
915E
102
{ACAD_REACTORS
330
C
102
}
330
C
100
AcDbDictionary
281
     1
  0
DICTIONARY
  5
D
102
{ACAD_REACTORS
330
C
102
}
330
C
100
AcDbDictionary
281
     1
  0
DICTIONARY
  5
1A
102
{ACAD_REACTORS
330
C
102
}
330
C
100
AcDbDictionary
281
     1
  3
Model
350
9161
  3
レイアウト1
350
9162
  0
DICTIONARY
  5
915D
102
{ACAD_REACTORS
330
C
102
}
330
C
100
AcDbDictionary
281
     1
  0
DICTIONARY
  5
17
102
{ACAD_REACTORS
330
C
102
}
330
C
100
AcDbDictionary
281
     1
  3
STANDARD
350
18
  0
DICTIONARY
  5
19
102
{ACAD_REACTORS
330
C
102
}
330
C
100
AcDbDictionary
281
     1
  3
ASAMI
350
399D
  0
ACDBDICTIONARYWDFLT
  5
E
102
{ACAD_REACTORS
330
C
102
}
330
C
100
AcDbDictionary
281
     1
  3
Normal
350
F
100
AcDbDictionaryWithDefault
340
F
  0
DICTIONARY
  5
915F
102
{ACAD_REACTORS
330
C
102
}
330
C
100
AcDbDictionary
281
     1
  3
Standard
350
9160
  0
DICTIONARY
  5
934F
102
{ACAD_REACTORS
330
C
102
}
330
C
100
AcDbDictionary
281
     1
  0
DICTIONARY
  5
34
102
{ACAD_REACTORS
330
C
102
}
330
C
100
AcDbDictionary
281
     1
  3
CTABLESTYLE
350
92C3
  3
DIMASSOC
350
92C4
  3
INDEXCTL
350
35
  3
PROJECTNAME
350
92C5
  3
SORTENTS
350
B5E
  0
DICTIONARY
  5
43
102
{ACAD_REACTORS
330
C
102
}
330
C
100
AcDbDictionary
281
     1
  3
ACMSTDDICTIONARY
350
260
  3
AMDTSECTSYM_ARROWCOLOR
350
91DA
  0
DICTIONARY
  5
2B
102
{ACAD_REACTORS
330
C
102
}
330
C
100
AcDbDictionary
281
     1
  0
DICTIONARY
  5
6E
102
{ACAD_REACTORS
330
C
102
}
330
C
100
AcDbDictionary
281
     1
  0
XRECORD
  5
934E
102
{ACAD_REACTORS
330
C
102
}
330
C
100
AcDbXrecord
280
     1
  1
DWGPROPS COOKIE
  2

  3

  4

  6

  7

  8

  9

300
AmdtFileType=82
301
=
302
=
303
=
304
=
305
=
306
=
307
=
308
=
309
=
 40
1.069645173611111
 41
2452802.716478762
 42
2455610.657938901
  1

 90
        1
  0
DICTIONARY
  5
90D2
102
{ACAD_REACTORS
330
74
102
}
330
74
100
AcDbDictionary
281
     1
  3
*A1
350
90D3
  0
XRECORD
  5
9101
102
{ACAD_REACTORS
330
74
102
}
330
74
100
AcDbXrecord
280
     1
340
1F
  0
XRECORD
  5
9107
102
{ACAD_REACTORS
330
9106
102
}
330
9106
100
AcDbXrecord
280
     1
340
101
  0
XRECORD
  5
9351
102
{ACAD_REACTORS
330
9350
102
}
330
9350
100
AcDbXrecord
280
     1
102
SHADEPLOT
 70
     0
  0
LAYOUT
  5
9161
102
{ACAD_XDICTIONARY
360
9354
102
}
102
{ACAD_REACTORS
330
1A
102
}
330
1A
100
AcDbPlotSettings
  1

  2
SII LP-1010 (C2 VR)2R
  4

  6

 40
0.0
 41
0.0
 42
0.0
 43
0.0
 44
0.0
 45
0.0
 46
0.0
 47
0.0
 48
0.0
 49
0.0
140
0.0
141
0.0
142
1.0
143
1.0
 70
  1712
 72
     0
 73
     0
 74
     0
  7
sei_cad.ctb
 75
     0
147
1.0
148
0.0
149
0.0
100
AcDbLayout
  1
Model
 70
     1
 71
     0
 10
0.0
 20
0.0
 11
12.0
 21
9.0
 12
0.0
 22
0.0
 32
0.0
 14
0.0
 24
0.0
 34
0.0
 15
0.0
 25
0.0
 35
0.0
146
0.0
 13
0.0
 23
0.0
 33
0.0
 16
1.0
 26
0.0
 36
0.0
 17
0.0
 27
1.0
 37
0.0
 76
     0
330
1F
  0
LAYOUT
  5
9162
102
{ACAD_XDICTIONARY
360
9356
102
}
102
{ACAD_REACTORS
330
1A
102
}
330
1A
100
AcDbPlotSettings
  1

  2
SII LP-1010 (C2 VR)2R
  4

  6

 40
0.0
 41
0.0
 42
0.0
 43
0.0
 44
0.0
 45
0.0
 46
0.0
 47
0.0
 48
0.0
 49
0.0
140
0.0
141
0.0
142
1.0
143
1.0
 70
   688
 72
     0
 73
     0
 74
     5
  7
sei_cad.ctb
 75
    16
147
1.0
148
0.0
149
0.0
100
AcDbLayout
  1
レイアウト1
 70
     0
 71
     1
 10
0.0
 20
0.0
 11
841.0
 21
594.0
 12
0.0
 22
0.0
 32
0.0
 14
1.000000000000000E+20
 24
1.000000000000000E+20
 34
1.000000000000000E+20
 15
-1.000000000000000E+20
 25
-1.000000000000000E+20
 35
-1.000000000000000E+20
146
0.0
 13
0.0
 23
0.0
 33
0.0
 16
1.0
 26
0.0
 36
0.0
 17
0.0
 27
1.0
 37
0.0
 76
     0
330
101
331
110
  0
MLINESTYLE
  5
18
102
{ACAD_REACTORS
330
17
102
}
330
17
100
AcDbMlineStyle
  2
STANDARD
 70
     0
  3

 62
   256
 51
90.0
 52
90.0
 71
     2
 49
0.5
 62
   256
  6
BYLAYER
 49
-0.5
 62
   256
  6
BYLAYER
  0
PLOTSETTINGS
  5
399D
102
{ACAD_XDICTIONARY
360
9352
102
}
102
{ACAD_REACTORS
330
19
102
}
330
19
100
AcDbPlotSettings
  1
asami
  2
RICOH imagio MF1540
  4
A4
  6

 40
5.831416606903076
 41
7.651742935180664
 42
4.90008544921875
 43
5.789077758789062
 44
296.9683227539062
 45
209.9733276367186
 46
0.0
 47
0.0
 48
-156.6707931774246
 49
-74.57609991074048
140
58.59973180214831
141
60.61068161925597
142
1.0
143
1.095343097833084
 70
  1712
 72
     1
 73
     1
 74
     4
  7
asami.ctb
 75
     0
147
0.9129559514076438
148
156.6707931774246
149
74.57609991074048
  0
ACDBPLACEHOLDER
  5
F
102
{ACAD_REACTORS
330
E
102
}
330
E
  0
TABLESTYLE
  5
9160
102
{ACAD_REACTORS
330
915F
102
}
330
915F
100
AcDbTableStyle
  3
Standard
 70
     0
 71
     0
 40
1.5
 41
1.5
280
     0
281
     0
  7
STANDARD
140
4.5
170
     2
 62
     0
 63
     7
283
     0
274
    -2
284
     1
 64
     0
275
    -2
285
     1
 65
     0
276
    -2
286
     1
 66
     0
277
    -2
287
     1
 67
     0
278
    -2
288
     1
 68
     0
279
    -2
289
     1
 69
     0
  7
STANDARD
140
6.0
170
     5
 62
     0
 63
     7
283
     0
274
    -2
284
     1
 64
     0
275
    -2
285
     1
 65
     0
276
    -2
286
     1
 66
     0
277
    -2
287
     1
 67
     0
278
    -2
288
     1
 68
     0
279
    -2
289
     1
 69
     0
  7
STANDARD
140
4.5
170
     5
 62
     0
 63
     7
283
     0
274
    -2
284
     1
 64
     0
275
    -2
285
     1
 65
     0
276
    -2
286
     1
 66
     0
277
    -2
287
     1
 67
     0
278
    -2
288
     1
 68
     0
279
    -2
289
     1
 69
     0
  0
DICTIONARYVAR
  5
92C3
102
{ACAD_REACTORS
330
34
102
}
330
34
100
DictionaryVariables
280
     0
  1
STANDARD
  0
DICTIONARYVAR
  5
92C4
102
{ACAD_REACTORS
330
34
102
}
330
34
100
DictionaryVariables
280
     0
  1
1
  0
DICTIONARYVAR
  5
35
102
{ACAD_REACTORS
330
34
102
}
330
34
100
DictionaryVariables
280
     0
  1
1
  0
DICTIONARYVAR
  5
92C5
102
{ACAD_REACTORS
330
34
102
}
330
34
100
DictionaryVariables
280
     0
  1

  0
DICTIONARYVAR
  5
B5E
102
{ACAD_REACTORS
330
34
102
}
330
34
100
DictionaryVariables
280
     0
  1
96
  0
DICTIONARY
  5
260
102
{ACAD_REACTORS
330
43
102
}
330
43
100
AcDbDictionary
281
     1
  0
XRECORD
  5
91DA
102
{ACAD_REACTORS
330
43
102
}
330
43
100
AcDbXrecord
280
     1
 90
-1023410169
  0
LAYER_INDEX
  5
90D3
102
{ACAD_REACTORS
330
90D2
102
}
330
90D2
100
AcDbIndex
 40
2455610.657938901
100
AcDbLayerIndex
  8
0
360
90D4
 90
        0
  8
AM_0
360
90D5
 90
      160
  8
AM_5
360
90D6
 90
       15
  8
AM_7
360
90D7
 90
        3
  8
AM_6
360
90D8
 90
        3
  8
DEFPOINTS
360
90D9
 90
        0
  8
AM_11
360
90DA
 90
        4
  0
DICTIONARY
  5
9354
330
9161
100
AcDbDictionary
280
     1
281
     1
  3
ACAD_XREC_ROUNDTRIP
360
9355
  0
DICTIONARY
  5
9356
330
9162
100
AcDbDictionary
280
     1
281
     1
  3
ACAD_XREC_ROUNDTRIP
360
9357
  0
DICTIONARY
  5
9352
330
399D
100
AcDbDictionary
280
     1
281
     1
  3
ACAD_XREC_ROUNDTRIP
360
9353
  0
IDBUFFER
  5
90D4
330
0
100
AcDbIdBuffer
  0
IDBUFFER
  5
90D5
330
0
100
AcDbIdBuffer
330
7FDB
330
7FDC
330
7FDD
330
7FDE
330
7FDF
330
7FE0
330
7FE4
330
7FE5
330
7FE7
330
7FE8
330
7FE9
330
7FEA
330
7FEB
330
7FEC
330
7FED
330
7FEE
330
7FEF
330
7FF0
330
7FF4
330
7FF5
330
7FF6
330
7FF7
330
7FF8
330
7FF9
330
7FFA
330
7FFC
330
8003
330
8004
330
8005
330
8007
330
8009
330
800A
330
800B
330
800C
330
800D
330
800E
330
800F
330
8010
330
8011
330
8012
330
8013
330
8014
330
8015
330
8016
330
8018
330
8019
330
801A
330
801B
330
801C
330
801D
330
801F
330
8020
330
8024
330
8025
330
8026
330
8027
330
8029
330
802A
330
802B
330
802C
330
802D
330
802E
330
802F
330
8030
330
8031
330
8032
330
8033
330
8034
330
8035
330
8036
330
8037
330
8038
330
8039
330
803A
330
803B
330
803C
330
803D
330
803E
330
803F
330
8040
330
8041
330
8042
330
8043
330
8044
330
8045
330
8046
330
8047
330
8048
330
8049
330
804A
330
804B
330
804C
330
804D
330
804E
330
804F
330
8050
330
8051
330
8052
330
8053
330
8055
330
8056
330
8057
330
8058
330
8059
330
805A
330
805B
330
805C
330
805D
330
805E
330
805F
330
8060
330
8061
330
8062
330
8063
330
8064
330
8065
330
8066
330
8067
330
8068
330
8069
330
806A
330
806E
330
806F
330
8070
330
8072
330
8073
330
8074
330
8075
330
8076
330
8077
330
8078
330
8079
330
807A
330
807C
330
807D
330
8088
330
8089
330
808A
330
808B
330
808C
330
808D
330
8092
330
8093
330
8098
330
8099
330
809B
330
809C
330
809D
330
809E
330
809F
330
80A0
330
80A4
330
80A6
330
80A7
330
80A8
330
80A9
330
80AB
330
848E
330
8A3A
330
8A3B
  0
IDBUFFER
  5
90D6
330
0
100
AcDbIdBuffer
330
8350
330
83EA
330
8498
330
857A
330
8742
330
87E8
330
8899
330
89AC
330
8A45
330
8B4B
330
8C93
330
8DA8
330
8DE0
330
9090
330
9091
  0
IDBUFFER
  5
90D7
330
0
100
AcDbIdBuffer
330
7FF1
330
7FF2
330
8021
  0
IDBUFFER
  5
90D8
330
0
100
AcDbIdBuffer
330
388D
330
908E
330
908F
  0
IDBUFFER
  5
90D9
330
0
100
AcDbIdBuffer
  0
IDBUFFER
  5
90DA
330
0
100
AcDbIdBuffer
330
7FE3
330
7FE6
330
83E0
330
83E1
  0
XRECORD
  5
9355
102
{ACAD_REACTORS
330
9354
102
}
330
9354
100
AcDbXrecord
280
     1
102
SHADEPLOT
 70
     0
102
SHADEPLOTRESLEVEL
 70
     2
102
SHADEPLOTCUSTOMDPI
 70
   300
  0
XRECORD
  5
9357
102
{ACAD_REACTORS
330
9356
102
}
330
9356
100
AcDbXrecord
280
     1
102
SHADEPLOT
 70
     0
102
SHADEPLOTRESLEVEL
 70
     2
102
SHADEPLOTCUSTOMDPI
 70
   300
  0
XRECORD
  5
9353
102
{ACAD_REACTORS
330
9352
102
}
330
9352
100
AcDbXrecord
280
     1
102
SHADEPLOT
 70
     0
102
SHADEPLOTRESLEVEL
 70
     2
102
SHADEPLOTCUSTOMDPI
 70
   300
  0
ENDSEC
  0
EOF
